  0
SECTION
  2
HEADER
  9
$ACADVER
  1
AC1015
  9
$ACADMAINTVER
 70
    20
  9
$DWGCODEPAGE
  3
ANSI_1252
  9
$INSBASE
 10
0.0
 20
0.0
 30
0.0
  9
$EXTMIN
 10
1185.556762984221
 20
-15.0
 30
-0.00000001
  9
$EXTMAX
 10
1515.556762984221
 20
225.0
 30
0.00000001
  9
$LIMMIN
 10
0.0
 20
0.0
  9
$LIMMAX
 10
420.0
 20
297.0
  9
$ORTHOMODE
 70
     0
  9
$REGENMODE
 70
     1
  9
$FILLMODE
 70
     1
  9
$QTEXTMODE
 70
     0
  9
$MIRRTEXT
 70
     0
  9
$LTSCALE
 40
0.5
  9
$ATTMODE
 70
     1
  9
$TEXTSIZE
 40
2.5
  9
$TRACEWID
 40
1.0
  9
$TEXTSTYLE
  7
Standard
  9
$CLAYER
  8
10000_FRONT
  9
$CELTYPE
  6
ByLayer
  9
$CECOLOR
 62
   256
  9
$CELTSCALE
 40
1.0
  9
$DISPSILH
 70
     0
  9
$DIMSCALE
 40
1.0
  9
$DIMASZ
 40
3.5
  9
$DIMEXO
 40
0.0
  9
$DIMDLI
 40
10.0
  9
$DIMRND
 40
0.0
  9
$DIMDLE
 40
0.0
  9
$DIMEXE
 40
1.0
  9
$DIMTP
 40
0.1
  9
$DIMTM
 40
0.1
  9
$DIMTXT
 40
3.5
  9
$DIMCEN
 40
3.5
  9
$DIMTSZ
 40
0.0
  9
$DIMTOL
 70
     0
  9
$DIMLIM
 70
     0
  9
$DIMTIH
 70
     0
  9
$DIMTOH
 70
     0
  9
$DIMSE1
 70
     0
  9
$DIMSE2
 70
     0
  9
$DIMTAD
 70
     1
  9
$DIMZIN
 70
     8
  9
$DIMBLK
  1

  9
$DIMASO
 70
     1
  9
$DIMSHO
 70
     1
  9
$DIMPOST
  1

  9
$DIMAPOST
  1
"
  9
$DIMALT
 70
     0
  9
$DIMALTD
 70
     2
  9
$DIMALTF
 40
0.0393701
  9
$DIMLFAC
 40
1.0
  9
$DIMTOFL
 70
     1
  9
$DIMTVP
 40
0.0
  9
$DIMTIX
 70
     0
  9
$DIMSOXD
 70
     0
  9
$DIMSAH
 70
     0
  9
$DIMBLK1
  1

  9
$DIMBLK2
  1

  9
$DIMSTYLE
  2
DIN_3.5
  9
$DIMCLRD
 70
   256
  9
$DIMCLRE
 70
   256
  9
$DIMCLRT
 70
   256
  9
$DIMTFAC
 40
0.71
  9
$DIMGAP
 40
1.5
  9
$DIMJUST
 70
     0
  9
$DIMSD1
 70
     0
  9
$DIMSD2
 70
     0
  9
$DIMTOLJ
 70
     0
  9
$DIMTZIN
 70
     8
  9
$DIMALTZ
 70
     0
  9
$DIMALTTZ
 70
     0
  9
$DIMUPT
 70
     0
  9
$DIMDEC
 70
     1
  9
$DIMTDEC
 70
     1
  9
$DIMALTU
 70
     2
  9
$DIMALTTD
 70
     2
  9
$DIMTXSTY
  7
Standard
  9
$DIMAUNIT
 70
     0
  9
$DIMADEC
 70
     0
  9
$DIMALTRND
 40
0.0
  9
$DIMAZIN
 70
     2
  9
$DIMDSEP
 70
    44
  9
$DIMATFIT
 70
     3
  9
$DIMFRAC
 70
     0
  9
$DIMLDRBLK
  1

  9
$DIMLUNIT
 70
     2
  9
$DIMLWD
 70
    -1
  9
$DIMLWE
 70
    -1
  9
$DIMTMOVE
 70
     0
  9
$LUNITS
 70
     2
  9
$LUPREC
 70
     4
  9
$SKETCHINC
 40
1.0
  9
$FILLETRAD
 40
0.0
  9
$AUNITS
 70
     0
  9
$AUPREC
 70
     0
  9
$MENU
  1
.
  9
$ELEVATION
 40
0.0
  9
$PELEVATION
 40
0.0
  9
$THICKNESS
 40
0.0
  9
$LIMCHECK
 70
     0
  9
$CHAMFERA
 40
0.0
  9
$CHAMFERB
 40
0.0
  9
$CHAMFERC
 40
0.0
  9
$CHAMFERD
 40
0.0
  9
$SKPOLY
 70
     0
  9
$TDCREATE
 40
2454508.741726829
  9
$TDUCREATE
 40
2454508.658393495
  9
$TDUPDATE
 40
2455308.635851736
  9
$TDUUPDATE
 40
2455308.552518403
  9
$TDINDWG
 40
0.1554292361
  9
$TDUSRTIMER
 40
0.1554286921
  9
$USRTIMER
 70
     1
  9
$ANGBASE
 50
0.0
  9
$ANGDIR
 70
     0
  9
$PDMODE
 70
     0
  9
$PDSIZE
 40
0.0
  9
$PLINEWID
 40
0.0
  9
$SPLFRAME
 70
     0
  9
$SPLINETYPE
 70
     6
  9
$SPLINESEGS
 70
     8
  9
$HANDSEED
  5
46EA
  9
$SURFTAB1
 70
     6
  9
$SURFTAB2
 70
     6
  9
$SURFTYPE
 70
     6
  9
$SURFU
 70
     6
  9
$SURFV
 70
     6
  9
$UCSBASE
  2

  9
$UCSNAME
  2

  9
$UCSORG
 10
0.0
 20
0.0
 30
0.0
  9
$UCSXDIR
 10
1.0
 20
0.0
 30
0.0
  9
$UCSYDIR
 10
0.0
 20
1.0
 30
0.0
  9
$UCSORTHOREF
  2

  9
$UCSORTHOVIEW
 70
     0
  9
$UCSORGTOP
 10
0.0
 20
0.0
 30
0.0
  9
$UCSORGBOTTOM
 10
0.0
 20
0.0
 30
0.0
  9
$UCSORGLEFT
 10
0.0
 20
0.0
 30
0.0
  9
$UCSORGRIGHT
 10
0.0
 20
0.0
 30
0.0
  9
$UCSORGFRONT
 10
0.0
 20
0.0
 30
0.0
  9
$UCSORGBACK
 10
0.0
 20
0.0
 30
0.0
  9
$PUCSBASE
  2

  9
$PUCSNAME
  2

  9
$PUCSORG
 10
0.0
 20
0.0
 30
0.0
  9
$PUCSXDIR
 10
1.0
 20
0.0
 30
0.0
  9
$PUCSYDIR
 10
0.0
 20
1.0
 30
0.0
  9
$PUCSORTHOREF
  2

  9
$PUCSORTHOVIEW
 70
     0
  9
$PUCSORGTOP
 10
0.0
 20
0.0
 30
0.0
  9
$PUCSORGBOTTOM
 10
0.0
 20
0.0
 30
0.0
  9
$PUCSORGLEFT
 10
0.0
 20
0.0
 30
0.0
  9
$PUCSORGRIGHT
 10
0.0
 20
0.0
 30
0.0
  9
$PUCSORGFRONT
 10
0.0
 20
0.0
 30
0.0
  9
$PUCSORGBACK
 10
0.0
 20
0.0
 30
0.0
  9
$USERI1
 70
     0
  9
$USERI2
 70
     0
  9
$USERI3
 70
     0
  9
$USERI4
 70
     0
  9
$USERI5
 70
     0
  9
$USERR1
 40
0.0
  9
$USERR2
 40
0.0
  9
$USERR3
 40
0.0
  9
$USERR4
 40
0.0
  9
$USERR5
 40
0.0
  9
$WORLDVIEW
 70
     1
  9
$SHADEDGE
 70
     3
  9
$SHADEDIF
 70
    70
  9
$TILEMODE
 70
     1
  9
$MAXACTVP
 70
    64
  9
$PINSBASE
 10
0.0
 20
0.0
 30
0.0
  9
$PLIMCHECK
 70
     0
  9
$PEXTMIN
 10
-0.9936687586022115
 20
20.36233246326446
 30
0.0
  9
$PEXTMAX
 10
272.7693535763502
 20
196.7317955205857
 30
0.0
  9
$PLIMMIN
 10
-3.17498779296875
 20
-3.174999952316281
  9
$PLIMMAX
 10
293.8356628417969
 20
206.7983276844024
  9
$UNITMODE
 70
     0
  9
$VISRETAIN
 70
     1
  9
$PLINEGEN
 70
     0
  9
$PSLTSCALE
 70
     1
  9
$TREEDEPTH
 70
  3020
  9
$CMLSTYLE
  2
Standard
  9
$CMLJUST
 70
     0
  9
$CMLSCALE
 40
20.0
  9
$PROXYGRAPHICS
 70
     1
  9
$MEASUREMENT
 70
     1
  9
$CELWEIGHT
370
    -1
  9
$ENDCAPS
280
     0
  9
$JOINSTYLE
280
     0
  9
$LWDISPLAY
290
     1
  9
$INSUNITS
 70
     4
  9
$HYPERLINKBASE
  1

  9
$STYLESHEET
  1

  9
$XEDIT
290
     1
  9
$CEPSNTYPE
380
     0
  9
$PSTYLEMODE
290
     1
  9
$FINGERPRINTGUID
  2
{50A4FE5B-C6E4-4C38-AC8C-BFBE6D3655E5}
  9
$VERSIONGUID
  2
{FCF120ED-66AD-41A7-BA97-BC0AA8BF05F7}
  9
$EXTNAMES
290
     1
  9
$PSVPSCALE
 40
0.0
  9
$OLESTARTUP
290
     0
  0
ENDSEC
  0
SECTION
  2
CLASSES
  0
CLASS
  1
ACDBDICTIONARYWDFLT
  2
AcDbDictionaryWithDefault
  3
ObjectDBX Classes
 90
        0
280
     0
281
     0
  0
CLASS
  1
MATERIAL
  2
AcDbMaterial
  3
ObjectDBX Classes
 90
     1024
280
     0
281
     0
  0
CLASS
  1
VISUALSTYLE
  2
AcDbVisualStyle
  3
ObjectDBX Classes
 90
     4095
280
     0
281
     0
  0
CLASS
  1
TABLESTYLE
  2
AcDbTableStyle
  3
ObjectDBX Classes
 90
     4095
280
     0
281
     0
  0
CLASS
  1
DICTIONARYVAR
  2
AcDbDictionaryVar
  3
ObjectDBX Classes
 90
        0
280
     0
281
     0
  0
CLASS
  1
ACAD_EVALUATION_GRAPH
  2
AcDbEvalGraph
  3
ObjectDBX Classes
 90
     1153
280
     0
281
     0
  0
CLASS
  1
ACAECUSTOBJ
  2
AcAeEditorObj
  3
AcAeEditorObj
 90
    33792
280
     0
281
     0
  0
CLASS
  1
BLOCKPOINTPARAMETER
  2
AcDbBlockPointParameter
  3
ObjectDBX Classes
 90
    33921
280
     0
281
     0
  0
CLASS
  1
BLOCKXYGRIP
  2
AcDbBlockXYGrip
  3
ObjectDBX Classes
 90
    33921
280
     0
281
     0
  0
CLASS
  1
BLOCKGRIPLOCATIONCOMPONENT
  2
AcDbBlockGripExpr
  3
ObjectDBX Classes
 90
    33921
280
     0
281
     0
  0
CLASS
  1
XYGRIPENTITY
  2
AcDbBlockXYGripEntity
  3
ObjectDBX Classes
 90
    33793
280
     0
281
     1
  0
CLASS
  1
ACAEEEMGROBJ
  2
AcAeEEMgrObj
  3
AcAeEEMgrObj
 90
    33792
280
     0
281
     0
  0
CLASS
  1
POINTPARAMETERENTITY
  2
AcDbBlockPointParameterEntity
  3
ObjectDBX Classes
 90
    33793
280
     0
281
     1
  0
CLASS
  1
BLOCKMOVEACTION
  2
AcDbBlockMoveAction
  3
ObjectDBX Classes
 90
    33921
280
     0
281
     0
  0
CLASS
  1
MOVEACTIONENTITY
  2
AcDbBlockMoveActionEntity
  3
ObjectDBX Classes
 90
    33793
280
     0
281
     1
  0
CLASS
  1
ACDB_DYNAMICBLOCKPURGEPREVENTER_VERSION
  2
AcDbDynamicBlockPurgePreventer
  3
ObjectDBX Classes
 90
     1153
280
     0
281
     0
  0
CLASS
  1
ACDB_BLOCKREPRESENTATION_DATA
  2
AcDbBlockRepresentationData
  3
ObjectDBX Classes
 90
     1153
280
     0
281
     0
  0
CLASS
  1
SORTENTSTABLE
  2
AcDbSortentsTable
  3
ObjectDBX Classes
 90
        0
280
     0
281
     0
  0
CLASS
  1
DIMASSOC
  2
AcDbDimAssoc
  3
"AcDbDimAssoc|Product Desc:     AcDim ARX App For Dimension|Company:          Autodesk, Inc.|WEB Address:      www.autodesk.com"
 90
        0
280
     0
281
     0
  0
CLASS
  1
SOLID_BACKGROUND
  2
AcDbSolidBackground
  3
SCENEOE
 90
    36863
280
     0
281
     0
  0
CLASS
  1
NPOCOLLECTION
  2
AcDbImpNonPersistentObjectsCollection
  3
ObjectDBX Classes
 90
    33921
280
     0
281
     0
  0
CLASS
  1
BLOCKBASEPOINTPARAMETER
  2
AcDbBlockBasepointParameter
  3
ObjectDBX Classes
 90
     1153
280
     0
281
     0
  0
CLASS
  1
BASEPOINTPARAMETERENTITY
  2
AcDbBlockBasepointParameterEntity
  3
ObjectDBX Classes
 90
    33793
280
     0
281
     1
  0
CLASS
  1
ACDBPLACEHOLDER
  2
AcDbPlaceHolder
  3
ObjectDBX Classes
 90
        0
280
     0
281
     0
  0
CLASS
  1
LAYOUT
  2
AcDbLayout
  3
ObjectDBX Classes
 90
        0
280
     0
281
     0
  0
ENDSEC
  0
SECTION
  2
TABLES
  0
TABLE
  2
VPORT
  5
8
330
0
100
AcDbSymbolTable
 70
     1
  0
VPORT
  5
28
330
8
100
AcDbSymbolTableRecord
100
AcDbViewportTableRecord
  2
*Active
 70
     0
 10
0.0
 20
0.0
 11
1.0
 21
1.0
 12
1341.395086763257
 22
110.1596156073951
 13
0.0
 23
0.0
 14
10.0
 24
10.0
 15
10.0
 25
10.0
 16
0.0
 26
0.0
 36
1.0
 17
0.0
 27
0.0
 37
0.0
 40
214.5016668308732
 41
1.541666666666666
 42
50.0
 43
0.0
 44
0.0
 50
0.0
 51
0.0
 71
     0
 72
  1000
 73
     1
 74
     3
 75
     0
 76
     0
 77
     0
 78
     0
281
     0
 65
     1
110
0.0
120
0.0
130
0.0
111
1.0
121
0.0
131
0.0
112
0.0
122
1.0
132
0.0
 79
     0
146
0.0
  0
ENDTAB
  0
TABLE
  2
LTYPE
  5
5
330
0
100
AcDbSymbolTable
 70
    17
  0
LTYPE
  5
29
330
5
100
AcDbSymbolTableRecord
100
AcDbLinetypeTableRecord
  2
ByBlock
 70
     0
  3

 72
    65
 73
     0
 40
0.0
  0
LTYPE
  5
2A
330
5
100
AcDbSymbolTableRecord
100
AcDbLinetypeTableRecord
  2
ByLayer
 70
     0
  3

 72
    65
 73
     0
 40
0.0
  0
LTYPE
  5
2B
330
5
100
AcDbSymbolTableRecord
100
AcDbLinetypeTableRecord
  2
Continuous
 70
     0
  3
Solid line
 72
    65
 73
     0
 40
0.0
  0
LTYPE
  5
1781
330
5
100
AcDbSymbolTableRecord
100
AcDbLinetypeTableRecord
  2
HIDDEN
 70
     0
  3
Verdeckt
 72
    65
 73
     2
 40
9.525
 49
6.349999999999997
 74
     0
 49
-3.174999999999998
 74
     0
  0
LTYPE
  5
1782
330
5
100
AcDbSymbolTableRecord
100
AcDbLinetypeTableRecord
  2
PHANTOM2
 70
     0
  3
Phantom (.5x) ___ _ _ ___ _ _ ___ _ _ ___ _ _
 72
    65
 73
     6
 40
31.75
 49
15.875
 74
     0
 49
-3.174999999999998
 74
     0
 49
3.174999999999998
 74
     0
 49
-3.174999999999998
 74
     0
 49
3.174999999999998
 74
     0
 49
-3.174999999999998
 74
     0
  0
LTYPE
  5
1783
330
5
100
AcDbSymbolTableRecord
100
AcDbLinetypeTableRecord
  2
CENTER
 70
     0
  3
Mitte ____ _ ____ _ ____ _ ____ _ ____ _ ____
 72
    65
 73
     4
 40
50.8
 49
31.75
 74
     0
 49
-6.349999999999997
 74
     0
 49
6.349999999999997
 74
     0
 49
-6.349999999999997
 74
     0
  0
LTYPE
  5
1784
330
5
100
AcDbSymbolTableRecord
100
AcDbLinetypeTableRecord
  2
Amconstr
 70
     0
  3
_______________________
 72
    65
 73
     2
 40
9999.0
 49
9999.0
 74
     0
 49
0.0
 74
     0
  0
LTYPE
  5
1785
330
5
100
AcDbSymbolTableRecord
100
AcDbLinetypeTableRecord
  2
Amzigzag
 70
     0
  3
/\/-/\/-/\/-/\/-/\/-/\/
 72
    65
 73
     2
 40
11.0001
 49
0.0001
 74
     4
 75
   135
340
17C7
 46
0.04
 50
0.0
 44
0.0
 45
0.0
 49
-11.0
 74
     0
  0
LTYPE
  5
1786
330
5
100
AcDbSymbolTableRecord
100
AcDbLinetypeTableRecord
  2
AM_DIN_F_W050
 70
     0
  3
__ __ __ __ __ __ __ __ __ __ __ __ __ __ __
 72
    65
 73
     2
 40
6.25
 49
4.75
 74
     0
 49
-1.5
 74
     0
  0
LTYPE
  5
1787
330
5
100
AcDbSymbolTableRecord
100
AcDbLinetypeTableRecord
  2
AM_DIN_G_W050
 70
     0
  3
____ . ____ . ____ . ____ . ____ . ____ . ____
 72
    65
 73
     4
 40
13.75
 49
9.75
 74
     0
 49
-1.5
 74
     0
 49
1.0
 74
     0
 49
-1.5
 74
     0
  0
LTYPE
  5
1788
330
5
100
AcDbSymbolTableRecord
100
AcDbLinetypeTableRecord
  2
AM_DIN_K_W050
 70
     0
  3
_____ . . _____ . . _____ . . ____ .. ____
 72
    65
 73
     6
 40
16.25
 49
9.75
 74
     0
 49
-1.5
 74
     0
 49
1.0
 74
     0
 49
-1.5
 74
     0
 49
1.0
 74
     0
 49
-1.5
 74
     0
  0
LTYPE
  5
1789
330
5
100
AcDbSymbolTableRecord
100
AcDbLinetypeTableRecord
  2
AM_DIN_G_W050x2
 70
     0
  3
__ . __ . __ . __ . __ . __
 72
    65
 73
     4
 40
6.875
 49
4.75
 74
     0
 49
-0.875
 74
     0
 49
0.375
 74
     0
 49
-0.875
 74
     0
  0
LTYPE
  5
178A
330
5
100
AcDbSymbolTableRecord
100
AcDbLinetypeTableRecord
  2
AM_DIN_F_W050x2
 70
     0
  3
 _ _ _ _ _ _ _ _ _ _ _ _
 72
    65
 73
     2
 40
3.125
 49
2.25
 74
     0
 49
-0.875
 74
     0
  0
LTYPE
  5
178B
330
5
100
AcDbSymbolTableRecord
100
AcDbLinetypeTableRecord
  2
ACDINWELD
 70
     0
  3
_ _ _ _ _
 72
    65
 73
     2
 40
2.0
 49
2.0
 74
     0
 49
-1.0
 74
     0
  0
LTYPE
  5
178C
330
5
100
AcDbSymbolTableRecord
100
AcDbLinetypeTableRecord
  2
ACDINTGB
 70
     0
  3
__ . . __ . .
 72
    65
 73
     6
 40
9.0
 49
4.0
 74
     0
 49
-1.0
 74
     0
 49
1.0
 74
     0
 49
-1.0
 74
     0
 49
1.0
 74
     0
 49
-1.0
 74
     0
  0
LTYPE
  5
178D
330
5
100
AcDbSymbolTableRecord
100
AcDbLinetypeTableRecord
  2
ACDINTGL
 70
     0
  3
_ _ _ _ _
 72
    65
 73
     2
 40
3.0
 49
2.0
 74
     0
 49
-1.0
 74
     0
  0
LTYPE
  5
178E
330
5
100
AcDbSymbolTableRecord
100
AcDbLinetypeTableRecord
  2
ACAD_ISO10W100
 70
     0
  3
ISO Strichpunktlinie __ . __ . __ . __ . __ . _
 72
    65
 73
     4
 40
18.0
 49
12.0
 74
     0
 49
-3.0
 74
     0
 49
0.0
 74
     0
 49
-3.0
 74
     0
  0
LTYPE
  5
178F
330
5
100
AcDbSymbolTableRecord
100
AcDbLinetypeTableRecord
  2
ASULTYPE
 70
     0
  3
Ausgezogene Linie
 72
    65
 73
     2
 40
3.0
 49
2.5
 74
     0
 49
0.5
 74
     0
  0
LTYPE
  5
1790
330
5
100
AcDbSymbolTableRecord
100
AcDbLinetypeTableRecord
  2
ASVLTYPE
 70
     0
  3
__ __ __ __ __ __ __ __ __ __ __ __ __ __ __ __ __ __ __ __ __
 72
    65
 73
     2
 40
0.75
 49
0.5
 74
     0
 49
-0.25
 74
     0
  0
ENDTAB
  0
TABLE
  2
LAYER
  5
2
102
{ACAD_XDICTIONARY
360
B73
102
}
330
0
100
AcDbSymbolTable
 70
    56
  0
LAYER
  5
25
330
2
100
AcDbSymbolTableRecord
100
AcDbLayerTableRecord
  2
0
 70
     0
 62
     7
  6
Continuous
370
    -3
390
F
  0
LAYER
  5
110
330
2
100
AcDbSymbolTableRecord
100
AcDbLayerTableRecord
  2
Defpoints
 70
     0
 62
     7
  6
Continuous
290
     0
370
    -3
390
F
  0
LAYER
  5
1791
330
2
100
AcDbSymbolTableRecord
100
AcDbLayerTableRecord
  2
90100_FRAME_THICK
 70
     0
 62
     7
  6
Continuous
370
    -3
390
F
  0
LAYER
  5
1792
330
2
100
AcDbSymbolTableRecord
100
AcDbLayerTableRecord
  2
90000_FRAME_THIN
 70
     0
 62
     7
  6
Continuous
370
    -3
390
F
  0
LAYER
  5
1793
330
2
100
AcDbSymbolTableRecord
100
AcDbLayerTableRecord
  2
90200_FRAME_SIZE
 70
     0
 62
     3
  6
AM_DIN_K_W050
370
    -3
390
F
  0
LAYER
  5
1794
330
2
100
AcDbSymbolTableRecord
100
AcDbLayerTableRecord
  2
92000_TITLE
 70
     0
 62
     7
  6
Continuous
370
    -3
390
F
  0
LAYER
  5
1795
330
2
100
AcDbSymbolTableRecord
100
AcDbLayerTableRecord
  2
91100_TIP_SYM
 70
     0
 62
     7
  6
CENTER
370
    -3
390
F
  0
LAYER
  5
1796
330
2
100
AcDbSymbolTableRecord
100
AcDbLayerTableRecord
  2
91000_TIP
 70
     0
 62
     7
  6
Continuous
370
    -3
390
F
  0
LAYER
  5
1797
330
2
100
AcDbSymbolTableRecord
100
AcDbLayerTableRecord
  2
91200_TIP_SYMB
 70
     0
 62
     7
  6
Continuous
370
    -3
390
F
  0
LAYER
  5
1798
330
2
100
AcDbSymbolTableRecord
100
AcDbLayerTableRecord
  2
10000_FRONT
 70
     0
 62
     7
  6
Continuous
370
    -3
390
F
  0
LAYER
  5
1799
330
2
100
AcDbSymbolTableRecord
100
AcDbLayerTableRecord
  2
11000_LEFT
 70
     0
 62
     7
  6
Continuous
370
    -3
390
F
  0
LAYER
  5
179A
330
2
100
AcDbSymbolTableRecord
100
AcDbLayerTableRecord
  2
12000_RIGHT
 70
     0
 62
     7
  6
Continuous
370
    -3
390
F
  0
LAYER
  5
179B
330
2
100
AcDbSymbolTableRecord
100
AcDbLayerTableRecord
  2
13000_TOP
 70
     0
 62
     7
  6
Continuous
370
    -3
390
F
  0
LAYER
  5
179C
330
2
100
AcDbSymbolTableRecord
100
AcDbLayerTableRecord
  2
14000_BOTTOM
 70
     0
 62
     7
  6
Continuous
370
    -3
390
F
  0
LAYER
  5
179D
330
2
100
AcDbSymbolTableRecord
100
AcDbLayerTableRecord
  2
15000_BACK
 70
     0
 62
     7
  6
Continuous
370
    -3
390
F
  0
LAYER
  5
179E
330
2
100
AcDbSymbolTableRecord
100
AcDbLayerTableRecord
  2
40000_ISO
 70
     0
 62
     7
  6
Continuous
370
    -3
390
F
  0
LAYER
  5
179F
330
2
100
AcDbSymbolTableRecord
100
AcDbLayerTableRecord
  2
41000_DIMT
 70
     0
 62
     7
  6
Continuous
370
    -3
390
F
  0
LAYER
  5
17A0
330
2
100
AcDbSymbolTableRecord
100
AcDbLayerTableRecord
  2
30000_DRILLING
 70
     0
 62
     7
  6
Continuous
370
    -3
390
F
  0
LAYER
  5
17A1
330
2
100
AcDbSymbolTableRecord
100
AcDbLayerTableRecord
  2
10100_FRONT_DIM
 70
     0
 62
     7
  6
Continuous
370
    -3
390
F
  0
LAYER
  5
17A2
330
2
100
AcDbSymbolTableRecord
100
AcDbLayerTableRecord
  2
11100_LEFT_DIM
 70
     0
 62
     7
  6
Continuous
370
    -3
390
F
  0
LAYER
  5
17A3
330
2
100
AcDbSymbolTableRecord
100
AcDbLayerTableRecord
  2
12100_RIGHT_DIM
 70
     0
 62
     7
  6
Continuous
370
    -3
390
F
  0
LAYER
  5
17A4
330
2
100
AcDbSymbolTableRecord
100
AcDbLayerTableRecord
  2
13100_TOP_DIM
 70
     0
 62
     7
  6
Continuous
370
    -3
390
F
  0
LAYER
  5
17A5
330
2
100
AcDbSymbolTableRecord
100
AcDbLayerTableRecord
  2
14100_BOTTOM_DIM
 70
     0
 62
     7
  6
Continuous
370
    -3
390
F
  0
LAYER
  5
17A6
330
2
100
AcDbSymbolTableRecord
100
AcDbLayerTableRecord
  2
15100_BACK_DIM
 70
     0
 62
     7
  6
Continuous
370
    -3
390
F
  0
LAYER
  5
17A7
330
2
100
AcDbSymbolTableRecord
100
AcDbLayerTableRecord
  2
30100_DRILLING_DIM
 70
     0
 62
     7
  6
Continuous
370
    -3
390
F
  0
LAYER
  5
17A8
330
2
100
AcDbSymbolTableRecord
100
AcDbLayerTableRecord
  2
10200_FRONT_SYM
 70
     0
 62
     7
  6
CENTER
370
    -3
390
F
  0
LAYER
  5
17A9
330
2
100
AcDbSymbolTableRecord
100
AcDbLayerTableRecord
  2
11200_LEFT_SYM
 70
     0
 62
     7
  6
CENTER
370
    -3
390
F
  0
LAYER
  5
17AA
330
2
100
AcDbSymbolTableRecord
100
AcDbLayerTableRecord
  2
12200_RIGHT_SYM
 70
     0
 62
     7
  6
CENTER
370
    -3
390
F
  0
LAYER
  5
17AB
330
2
100
AcDbSymbolTableRecord
100
AcDbLayerTableRecord
  2
13200_TOP_SYM
 70
     0
 62
     7
  6
CENTER
370
    -3
390
F
  0
LAYER
  5
17AC
330
2
100
AcDbSymbolTableRecord
100
AcDbLayerTableRecord
  2
14200_BOTTOM_SYM
 70
     0
 62
     7
  6
CENTER
370
    -3
390
F
  0
LAYER
  5
17AD
330
2
100
AcDbSymbolTableRecord
100
AcDbLayerTableRecord
  2
15200_BACK_SYM
 70
     0
 62
     7
  6
CENTER
370
    -3
390
F
  0
LAYER
  5
17AE
330
2
100
AcDbSymbolTableRecord
100
AcDbLayerTableRecord
  2
30200_DRILLING_SYM
 70
     0
 62
     7
  6
CENTER
370
    -3
390
F
  0
LAYER
  5
17AF
330
2
100
AcDbSymbolTableRecord
100
AcDbLayerTableRecord
  2
30400_DRILLING_CONT
 70
     0
 62
     7
  6
PHANTOM2
370
    -3
390
F
  0
LAYER
  5
17B0
330
2
100
AcDbSymbolTableRecord
100
AcDbLayerTableRecord
  2
10300_FRONT_DET
 70
     0
 62
     7
  6
Continuous
370
    -3
390
F
  0
LAYER
  5
17B1
330
2
100
AcDbSymbolTableRecord
100
AcDbLayerTableRecord
  2
11300_LEFT_DET
 70
     0
 62
     7
  6
Continuous
370
    -3
390
F
  0
LAYER
  5
17B2
330
2
100
AcDbSymbolTableRecord
100
AcDbLayerTableRecord
  2
12300_RIGHT_DET
 70
     0
 62
     7
  6
Continuous
370
    -3
390
F
  0
LAYER
  5
17B3
330
2
100
AcDbSymbolTableRecord
100
AcDbLayerTableRecord
  2
13300_TOP_DET
 70
     0
 62
     7
  6
Continuous
370
    -3
390
F
  0
LAYER
  5
17B4
330
2
100
AcDbSymbolTableRecord
100
AcDbLayerTableRecord
  2
14300_BOTTOM_DET
 70
     0
 62
     7
  6
Continuous
370
    -3
390
F
  0
LAYER
  5
17B5
330
2
100
AcDbSymbolTableRecord
100
AcDbLayerTableRecord
  2
15300_BACK_DET
 70
     0
 62
     7
  6
Continuous
370
    -3
390
F
  0
LAYER
  5
17B6
330
2
100
AcDbSymbolTableRecord
100
AcDbLayerTableRecord
  2
30300_DRILLING_DET
 70
     0
 62
     7
  6
Continuous
370
    -3
390
F
  0
LAYER
  5
17B7
330
2
100
AcDbSymbolTableRecord
100
AcDbLayerTableRecord
  2
40300_ISO_DET
 70
     0
 62
     7
  6
Continuous
370
    -3
390
F
  0
LAYER
  5
17B8
330
2
100
AcDbSymbolTableRecord
100
AcDbLayerTableRecord
  2
41300_DIMT_DET
 70
     0
 62
     7
  6
Continuous
370
    -3
390
F
  0
LAYER
  5
17B9
330
2
100
AcDbSymbolTableRecord
100
AcDbLayerTableRecord
  2
10400_FRONT_HIDDEN
 70
     0
 62
     7
  6
HIDDEN
370
    -3
390
F
  0
LAYER
  5
17BA
330
2
100
AcDbSymbolTableRecord
100
AcDbLayerTableRecord
  2
10500_FRONT_BUILD
 70
     0
 62
     7
  6
PHANTOM2
370
    -3
390
F
  0
LAYER
  5
17BB
330
2
100
AcDbSymbolTableRecord
100
AcDbLayerTableRecord
  2
11400_LEFT_HIDDEN
 70
     0
 62
     7
  6
HIDDEN
370
    -3
390
F
  0
LAYER
  5
17BC
330
2
100
AcDbSymbolTableRecord
100
AcDbLayerTableRecord
  2
11500_LEFT_BUILD
 70
     0
 62
     7
  6
PHANTOM2
370
    -3
390
F
  0
LAYER
  5
17BD
330
2
100
AcDbSymbolTableRecord
100
AcDbLayerTableRecord
  2
12400_RIGHT_HIDDEN
 70
     0
 62
     7
  6
HIDDEN
370
    -3
390
F
  0
LAYER
  5
17BE
330
2
100
AcDbSymbolTableRecord
100
AcDbLayerTableRecord
  2
12500_RIGHT_BUILD
 70
     0
 62
     7
  6
PHANTOM2
370
    -3
390
F
  0
LAYER
  5
17BF
330
2
100
AcDbSymbolTableRecord
100
AcDbLayerTableRecord
  2
13400_TOP_HIDDEN
 70
     0
 62
     7
  6
HIDDEN
370
    -3
390
F
  0
LAYER
  5
17C0
330
2
100
AcDbSymbolTableRecord
100
AcDbLayerTableRecord
  2
13500_TOP_BUILD
 70
     0
 62
     7
  6
PHANTOM2
370
    -3
390
F
  0
LAYER
  5
17C1
330
2
100
AcDbSymbolTableRecord
100
AcDbLayerTableRecord
  2
14400_BOTTOM_HIDDEN
 70
     0
 62
     7
  6
HIDDEN
370
    -3
390
F
  0
LAYER
  5
17C2
330
2
100
AcDbSymbolTableRecord
100
AcDbLayerTableRecord
  2
14500_BOTTOM_BUILD
 70
     0
 62
     7
  6
PHANTOM2
370
    -3
390
F
  0
LAYER
  5
17C3
330
2
100
AcDbSymbolTableRecord
100
AcDbLayerTableRecord
  2
15400_BACK_HIDDEN
 70
     0
 62
     7
  6
HIDDEN
370
    -3
390
F
  0
LAYER
  5
17C4
330
2
100
AcDbSymbolTableRecord
100
AcDbLayerTableRecord
  2
15500_BACK_BUILD
 70
     0
 62
     7
  6
PHANTOM2
370
    -3
390
F
  0
LAYER
  5
17C5
330
2
100
AcDbSymbolTableRecord
100
AcDbLayerTableRecord
  2
00000_HELPLINE
 70
     0
 62
     1
  6
Continuous
290
     0
370
    -3
390
F
  0
LAYER
  5
17C6
330
2
100
AcDbSymbolTableRecord
100
AcDbLayerTableRecord
  2
00001_VIEWNAME
 70
     0
 62
     7
  6
Continuous
370
    -3
390
F
  0
ENDTAB
  0
TABLE
  2
STYLE
  5
3
330
0
100
AcDbSymbolTable
 70
     4
  0
STYLE
  5
26
330
3
100
AcDbSymbolTableRecord
100
AcDbTextStyleTableRecord
  2
Standard
 70
     0
 40
0.0
 41
1.0
 50
0.0
 71
     0
 42
2.5
  3
isocpeur.ttf
  4

1001
ACAD
1000
ISOCPEUR
1071
       34
  0
STYLE
  5
17C7
330
3
100
AcDbSymbolTableRecord
100
AcDbTextStyleTableRecord
  2

 70
     1
 40
0.0
 41
1.0
 50
0.0
 71
     0
 42
2.5
  3
ltypeshp.shx
  4

  0
STYLE
  5
17C8
330
3
100
AcDbSymbolTableRecord
100
AcDbTextStyleTableRecord
  2
ACDINTS
 70
     0
 40
1.0
 41
1.0
 50
0.0
 71
     0
 42
2.5
  3
isocp.shx
  4

  0
STYLE
  5
17C9
330
3
100
AcDbSymbolTableRecord
100
AcDbTextStyleTableRecord
  2
ACDINGDT
 70
     0
 40
0.0
 41
1.0
 50
0.0
 71
     0
 42
2.5
  3
amgdt.shx
  4

  0
ENDTAB
  0
TABLE
  2
VIEW
  5
6
330
0
100
AcDbSymbolTable
 70
     0
  0
ENDTAB
  0
TABLE
  2
UCS
  5
7
330
0
100
AcDbSymbolTable
 70
     0
  0
ENDTAB
  0
TABLE
  2
APPID
  5
9
330
0
100
AcDbSymbolTable
 70
    25
  0
APPID
  5
27
330
9
100
AcDbSymbolTableRecord
100
AcDbRegAppTableRecord
  2
ACAD
 70
     0
  0
APPID
  5
14F
330
9
100
AcDbSymbolTableRecord
100
AcDbRegAppTableRecord
  2
MCAD_NO_VIS
 70
     0
  0
APPID
  5
150
330
9
100
AcDbSymbolTableRecord
100
AcDbRegAppTableRecord
  2
ACAD_TEMP_GRAPHIC
 70
     0
  0
APPID
  5
151
330
9
100
AcDbSymbolTableRecord
100
AcDbRegAppTableRecord
  2
AD_DRAW
 70
     0
  0
APPID
  5
152
330
9
100
AcDbSymbolTableRecord
100
AcDbRegAppTableRecord
  2
ACATTRIBSERVICES
 70
     0
  0
APPID
  5
153
330
9
100
AcDbSymbolTableRecord
100
AcDbRegAppTableRecord
  2
GENIUS_GENDIM_13
 70
     0
  0
APPID
  5
154
330
9
100
AcDbSymbolTableRecord
100
AcDbRegAppTableRecord
  2
GENIUS_GENDTOL_13
 70
     0
  0
APPID
  5
155
330
9
100
AcDbSymbolTableRecord
100
AcDbRegAppTableRecord
  2
GENIUS_GE3DTOL_13
 70
     0
  0
APPID
  5
156
330
9
100
AcDbSymbolTableRecord
100
AcDbRegAppTableRecord
  2
ASURF_PCURVE_APPNAME
 70
     0
  0
APPID
  5
157
330
9
100
AcDbSymbolTableRecord
100
AcDbRegAppTableRecord
  2
AMG_3D2D_5.0
 70
     0
  0
APPID
  5
158
330
9
100
AcDbSymbolTableRecord
100
AcDbRegAppTableRecord
  2
DESIGNERASSEMBLIES
 70
     0
  0
APPID
  5
159
330
9
100
AcDbSymbolTableRecord
100
AcDbRegAppTableRecord
  2
ACADM_DIM_EDIT
 70
     0
  0
APPID
  5
15A
330
9
100
AcDbSymbolTableRecord
100
AcDbRegAppTableRecord
  2
AMDT_DM_ADJ
 70
     0
  0
APPID
  5
15B
330
9
100
AcDbSymbolTableRecord
100
AcDbRegAppTableRecord
  2
GENIUS_GENREC_14
 70
     0
  0
APPID
  5
15C
330
9
100
AcDbSymbolTableRecord
100
AcDbRegAppTableRecord
  2
GENIUS_GENODEF_13
 70
     0
  0
APPID
  5
15D
330
9
100
AcDbSymbolTableRecord
100
AcDbRegAppTableRecord
  2
GENIUS_GENOBJ-N-REC_13
 70
     0
  0
APPID
  5
15E
330
9
100
AcDbSymbolTableRecord
100
AcDbRegAppTableRecord
  2
DCO15
 70
     0
  0
APPID
  5
1C8
330
9
100
AcDbSymbolTableRecord
100
AcDbRegAppTableRecord
  2
ACAD_EXEMPT_FROM_CAD_STANDARDS
 70
     0
  0
APPID
  5
227
330
9
100
AcDbSymbolTableRecord
100
AcDbRegAppTableRecord
  2
ACAUTHENVIRON
 70
     0
  0
APPID
  5
3A7
330
9
100
AcDbSymbolTableRecord
100
AcDbRegAppTableRecord
  2
AcDbDynamicBlockTrueName
 70
     0
  0
APPID
  5
3A8
330
9
100
AcDbSymbolTableRecord
100
AcDbRegAppTableRecord
  2
AcDbDynamicBlockGUID
 70
     0
  0
APPID
  5
3AA
330
9
100
AcDbSymbolTableRecord
100
AcDbRegAppTableRecord
  2
AcDbBlockRepETag
 70
     0
  0
APPID
  5
3B2
330
9
100
AcDbSymbolTableRecord
100
AcDbRegAppTableRecord
  2
AcDbBlockRepBTag
 70
     0
  0
APPID
  5
BB9
330
9
100
AcDbSymbolTableRecord
100
AcDbRegAppTableRecord
  2
ACAD_PSEXT
 70
     0
  0
APPID
  5
1DB7
330
9
100
AcDbSymbolTableRecord
100
AcDbRegAppTableRecord
  2
ACAD_DSTYLE_DIMJOGGED_JOGANGLE_SYMBOL
 70
     0
  0
ENDTAB
  0
TABLE
  2
DIMSTYLE
  5
A
330
0
100
AcDbSymbolTable
 70
     6
100
AcDbDimStyleTable
 71
     3
340
17CC
340
BA7
340
1D85
  0
DIMSTYLE
105
BA7
330
A
100
AcDbSymbolTableRecord
100
AcDbDimStyleTableRecord
  2
DIN_2.5
 70
     0
  4
"
 41
2.5
 42
1.0
 43
10.0
 44
1.0
 47
0.1
 48
0.1
 73
     0
 74
     0
 77
     1
 78
     8
 79
     2
140
2.5
141
3.5
143
0.0393701
146
0.71
147
1.5
172
     1
176
   256
177
   256
178
   256
271
     2
272
     2
283
     0
284
     8
340
26
371
    -1
372
    -1
  0
DIMSTYLE
105
17CA
330
A
100
AcDbSymbolTableRecord
100
AcDbDimStyleTableRecord
  2
ISO-25
 70
     0
 41
2.5
 42
0.625
 43
3.75
 44
1.25
 73
     0
 74
     0
 77
     1
 78
     8
140
2.5
141
2.5
143
0.03937007874016
147
0.625
171
     3
172
     1
271
     2
272
     2
274
     3
278
    44
283
     0
284
     8
340
26
1001
ACAD_DSTYLE_DIMJOGGED_JOGANGLE_SYMBOL
1070
   384
1040
1.570796326794896
  0
DIMSTYLE
105
17CB
330
A
100
AcDbSymbolTableRecord
100
AcDbDimStyleTableRecord
  2
AM_DIN
 70
     0
  4
"
 41
2.5
 42
1.0
 43
10.0
 44
1.0
 47
0.1
 48
0.1
 73
     0
 74
     0
 77
     1
 78
     8
 79
     2
140
3.5
141
0.0
143
0.0393701
146
0.71
147
1.5
172
     1
176
   256
177
   256
178
     2
271
     2
272
     2
283
     0
284
     8
340
26
371
    -1
372
    -1
  0
DIMSTYLE
105
17CC
102
{ACAD_REACTORS
330
4601
330
461D
330
4650
102
}
330
A
100
AcDbSymbolTableRecord
100
AcDbDimStyleTableRecord
  2
DIN_3.5
 70
     0
  4
"
 41
3.5
 42
0.0
 43
10.0
 44
1.0
 47
0.1
 48
0.1
 73
     0
 74
     0
 77
     1
 78
     8
 79
     2
140
3.5
141
3.5
143
0.0393701
146
0.71
147
1.5
172
     1
176
   256
177
   256
178
   256
271
     1
272
     1
278
    44
283
     0
284
     8
340
26
371
    -1
372
    -1
  0
DIMSTYLE
105
17CD
330
A
100
AcDbSymbolTableRecord
100
AcDbDimStyleTableRecord
  2
DIN_5
 70
     0
  4
"
 41
2.5
 42
1.0
 43
10.0
 44
1.0
 47
0.1
 48
0.1
 73
     0
 74
     0
 77
     1
 78
     8
 79
     2
140
5.0
141
3.5
143
0.0393701
146
0.71
147
1.5
172
     1
176
   256
177
   256
178
   256
271
     2
272
     2
283
     0
284
     8
340
26
371
    -1
372
    -1
  0
DIMSTYLE
105
1D85
330
A
100
AcDbSymbolTableRecord
100
AcDbDimStyleTableRecord
  2
DIN_2.5_v001
 70
     0
  4
"
 41
2.5
 42
0.0
 43
10.0
 44
1.0
 47
0.1
 48
0.1
 73
     0
 74
     0
 77
     1
 78
     8
 79
     2
140
2.5
141
3.5
143
0.0393701
146
0.71
147
1.5
172
     1
176
   256
177
   256
178
   256
271
     1
272
     1
283
     0
284
     8
340
26
371
    -1
372
    -1
  0
ENDTAB
  0
TABLE
  2
BLOCK_RECORD
  5
1
330
0
100
AcDbSymbolTable
 70
    16
  0
BLOCK_RECORD
  5
37
102
{ACAD_XDICTIONARY
360
4CA
102
}
330
1
100
AcDbSymbolTableRecord
100
AcDbBlockTableRecord
  2
*Model_Space
340
3A
  0
BLOCK_RECORD
  5
33
330
1
100
AcDbSymbolTableRecord
100
AcDbBlockTableRecord
  2
*Paper_Space
340
36
  0
BLOCK_RECORD
  5
3B
330
1
100
AcDbSymbolTableRecord
100
AcDbBlockTableRecord
  2
*Paper_Space0
340
3E
  0
BLOCK_RECORD
  5
170A
330
1
100
AcDbSymbolTableRecord
100
AcDbBlockTableRecord
  2
GENAXEH
340
0
  0
BLOCK_RECORD
  5
170E
330
1
100
AcDbSymbolTableRecord
100
AcDbBlockTableRecord
  2
Title_A4P
340
0
310
2800000020000000200000000100080000000000000400000000000000000000000000000000000000000000000080000080000000808000800000008000800080800000C0C0C000C0DCC000F0CAA6000020400000206000002080000020A0000020C0000020E00000400000004020000040400000406000004080000040A0
310
000040C0000040E00000600000006020000060400000606000006080000060A0000060C0000060E00000800000008020000080400000806000008080000080A0000080C0000080E00000A0000000A0200000A0400000A0600000A0800000A0A00000A0C00000A0E00000C0000000C0200000C0400000C0600000C0800000C0
310
A00000C0C00000C0E00000E0000000E0200000E0400000E0600000E0800000E0A00000E0C00000E0E00040000000400020004000400040006000400080004000A0004000C0004000E00040200000402020004020400040206000402080004020A0004020C0004020E000404000004040200040404000404060004040800040
310
40A0004040C0004040E00040600000406020004060400040606000406080004060A0004060C0004060E00040800000408020004080400040806000408080004080A0004080C0004080E00040A0000040A0200040A0400040A0600040A0800040A0A00040A0C00040A0E00040C0000040C0200040C0400040C0600040C08000
310
40C0A00040C0C00040C0E00040E0000040E0200040E0400040E0600040E0800040E0A00040E0C00040E0E00080000000800020008000400080006000800080008000A0008000C0008000E00080200000802020008020400080206000802080008020A0008020C0008020E00080400000804020008040400080406000804080
310
008040A0008040C0008040E00080600000806020008060400080606000806080008060A0008060C0008060E00080800000808020008080400080806000808080008080A0008080C0008080E00080A0000080A0200080A0400080A0600080A0800080A0A00080A0C00080A0E00080C0000080C0200080C0400080C0600080C0
310
800080C0A00080C0C00080C0E00080E0000080E0200080E0400080E0600080E0800080E0A00080E0C00080E0E000C0000000C0002000C0004000C0006000C0008000C000A000C000C000C000E000C0200000C0202000C0204000C0206000C0208000C020A000C020C000C020E000C0400000C0402000C0404000C0406000C0
310
408000C040A000C040C000C040E000C0600000C0602000C0604000C0606000C0608000C060A000C060C000C060E000C0800000C0802000C0804000C0806000C0808000C080A000C080C000C080E000C0A00000C0A02000C0A04000C0A06000C0A08000C0A0A000C0A0C000C0A0E000C0C00000C0C02000C0C04000C0C06000
310
C0C08000C0C0A000F0FBFF00A4A0A000808080000000FF0000FF000000FFFF00FF000000FF00FF00FFFF0000FFFFFF0000000000000000000000000000000000000000000000000000000000000000000000000000000000000000000000000000000000000000000000000000000000000000000000000000000000000000
310
00000000000000000000000000000000000000000000000000000000000000000000000000000000000000000000000000000000000000000000000000000000000000000000000000000000000000000000000000000000000000000000000000000000000000000000000000000000000000000000000000000000000000
310
00000000000000000000000000000000000000000000000000000000000000000000000000000000000000000000000000000000000000000000000000000000000000000000000000000000000000000000000000000000000000000000000000000000000000000000000000000000000000000000000000000000000000
310
000000000000000000000000000000000000000000000000000000000000000000000000000000000000000000000000000000000000000000000000000000000000000000000000000000000000000000000000000000000000FFFFFFFFFFFFFFFFFFFFFFFFFFFFFFFFFFFFFFFFFFFF0000000000FFFFFFFF00FFFFFFFFFF
310
FFFFFFFFFFFFFFFFFFFFFFFFFFFFFFFFFFFFFF0000FFFFFFFFFFFFFFFFFFFFFFFFFFFFFF000000FFFFFFFFFFFFFF0000FF000000000000FFFFFF00FFFFFFFFFFFFFFFFFFFFFFFFFFFFFFFFFFFFFFFFFFFF00000000000000000000FFFFFFFFFFFFFFFFFFFFFFFFFFFFFF0000000000000000000000000000000000FFFFFFFF
310
FFFFFFFFFFFFFFFFFFFFFF0000000000000000000000000000000000000000000000000000000000000000000000000000000000000000000000000000000000000000000000000000000000000000000000000000000000000000000000000000000000000000000000000000000000000000000000000000000000000000
310
00000000000000000000000000000000000000000000000000000000000000000000000000000000000000000000000000000000000000000000000000000000000000000000000000000000000000000000000000000000000000000000000000000000000000000000000000000000000000000000000000000000000000
310
00000000000000000000000000000000000000000000000000000000000000000000000000000000000000000000000000000000000000000000000000000000000000000000000000000000000000000000000000000000000000000000000000000000000000000000000000000000000000000000000000000000000000
310
0000000000000000000000000000000000000000000000000000000000000000000000000000000000000000000000000000000000000000
102
{BLKREFS
331
17E4
331
17EA
102
}
1001
ACAD
1000
DesignCenter Data
1002
{
1070
     1
1070
     4
1002
}
  0
BLOCK_RECORD
  5
171C
330
1
100
AcDbSymbolTableRecord
100
AcDbBlockTableRecord
  2
Title_A4L
340
0
310
2800000020000000200000000100080000000000000400000000000000000000000000000000000000000000000080000080000000808000800000008000800080800000C0C0C000C0DCC000F0CAA6000020400000206000002080000020A0000020C0000020E00000400000004020000040400000406000004080000040A0
310
000040C0000040E00000600000006020000060400000606000006080000060A0000060C0000060E00000800000008020000080400000806000008080000080A0000080C0000080E00000A0000000A0200000A0400000A0600000A0800000A0A00000A0C00000A0E00000C0000000C0200000C0400000C0600000C0800000C0
310
A00000C0C00000C0E00000E0000000E0200000E0400000E0600000E0800000E0A00000E0C00000E0E00040000000400020004000400040006000400080004000A0004000C0004000E00040200000402020004020400040206000402080004020A0004020C0004020E000404000004040200040404000404060004040800040
310
40A0004040C0004040E00040600000406020004060400040606000406080004060A0004060C0004060E00040800000408020004080400040806000408080004080A0004080C0004080E00040A0000040A0200040A0400040A0600040A0800040A0A00040A0C00040A0E00040C0000040C0200040C0400040C0600040C08000
310
40C0A00040C0C00040C0E00040E0000040E0200040E0400040E0600040E0800040E0A00040E0C00040E0E00080000000800020008000400080006000800080008000A0008000C0008000E00080200000802020008020400080206000802080008020A0008020C0008020E00080400000804020008040400080406000804080
310
008040A0008040C0008040E00080600000806020008060400080606000806080008060A0008060C0008060E00080800000808020008080400080806000808080008080A0008080C0008080E00080A0000080A0200080A0400080A0600080A0800080A0A00080A0C00080A0E00080C0000080C0200080C0400080C0600080C0
310
800080C0A00080C0C00080C0E00080E0000080E0200080E0400080E0600080E0800080E0A00080E0C00080E0E000C0000000C0002000C0004000C0006000C0008000C000A000C000C000C000E000C0200000C0202000C0204000C0206000C0208000C020A000C020C000C020E000C0400000C0402000C0404000C0406000C0
310
408000C040A000C040C000C040E000C0600000C0602000C0604000C0606000C0608000C060A000C060C000C060E000C0800000C0802000C0804000C0806000C0808000C080A000C080C000C080E000C0A00000C0A02000C0A04000C0A06000C0A08000C0A0A000C0A0C000C0A0E000C0C00000C0C02000C0C04000C0C06000
310
C0C08000C0C0A000F0FBFF00A4A0A000808080000000FF0000FF000000FFFF00FF000000FF00FF00FFFF0000FFFFFF0000000000000000000000000000000000000000000000000000000000000000000000000000000000000000000000000000000000000000000000000000000000000000000000000000000000000000
310
00000000000000000000000000000000000000000000000000000000000000000000000000000000000000000000000000000000000000000000000000000000000000000000000000000000000000000000000000000000000000000000000000000000000000000000000000000000000000000000000000000000000000
310
00000000000000000000000000000000000000000000000000000000000000000000000000000000000000000000000000000000000000000000000000000000000000000000000000000000000000000000000000000000000000000000000000000000000000000000000000000000000000000000000000000000000000
310
000000000000000000000000000000000000000000000000000000000000000000000000000000000000000000000000000000000000000000000000000000000000000000000000000000000000000000000000000000000000FFFFFFFFFFFFFFFFFFFFFFFFFFFFFFFFFFFFFFFFFFFFFFFF000000FFFFFFFF00FFFFFFFFFF
310
FFFFFFFFFFFFFFFFFFFFFFFFFFFFFFFFFFFFFF0000FFFFFFFFFFFFFF00FFFFFFFFFFFF00FF00000000000000000000000000FF00000000FFFFFF00FFFFFFFFFFFFFFFFFFFFFFFFFFFFFFFFFFFFFFFFFFFFFFFF0000000000000000FFFFFFFFFFFFFFFFFFFFFFFFFFFFFFFF00000000000000000000000000000000FFFFFFFF
310
FFFFFFFFFFFFFFFFFFFFFFFF00000000000000000000000000000000000000000000000000000000000000000000000000000000000000000000000000000000000000000000000000000000000000000000000000000000000000000000000000000000000000000000000000000000000000000000000000000000000000
310
00000000000000000000000000000000000000000000000000000000000000000000000000000000000000000000000000000000000000000000000000000000000000000000000000000000000000000000000000000000000000000000000000000000000000000000000000000000000000000000000000000000000000
310
00000000000000000000000000000000000000000000000000000000000000000000000000000000000000000000000000000000000000000000000000000000000000000000000000000000000000000000000000000000000000000000000000000000000000000000000000000000000000000000000000000000000000
310
0000000000000000000000000000000000000000000000000000000000000000000000000000000000000000000000000000000000000000
102
{BLKREFS
331
17E5
331
17EB
102
}
1001
ACAD
1000
DesignCenter Data
1002
{
1070
     1
1070
     4
1002
}
  0
BLOCK_RECORD
  5
1728
330
1
100
AcDbSymbolTableRecord
100
AcDbBlockTableRecord
  2
Title_A3
340
0
310
2800000020000000200000000100080000000000000400000000000000000000000000000000000000000000000080000080000000808000800000008000800080800000C0C0C000C0DCC000F0CAA6000020400000206000002080000020A0000020C0000020E00000400000004020000040400000406000004080000040A0
310
000040C0000040E00000600000006020000060400000606000006080000060A0000060C0000060E00000800000008020000080400000806000008080000080A0000080C0000080E00000A0000000A0200000A0400000A0600000A0800000A0A00000A0C00000A0E00000C0000000C0200000C0400000C0600000C0800000C0
310
A00000C0C00000C0E00000E0000000E0200000E0400000E0600000E0800000E0A00000E0C00000E0E00040000000400020004000400040006000400080004000A0004000C0004000E00040200000402020004020400040206000402080004020A0004020C0004020E000404000004040200040404000404060004040800040
310
40A0004040C0004040E00040600000406020004060400040606000406080004060A0004060C0004060E00040800000408020004080400040806000408080004080A0004080C0004080E00040A0000040A0200040A0400040A0600040A0800040A0A00040A0C00040A0E00040C0000040C0200040C0400040C0600040C08000
310
40C0A00040C0C00040C0E00040E0000040E0200040E0400040E0600040E0800040E0A00040E0C00040E0E00080000000800020008000400080006000800080008000A0008000C0008000E00080200000802020008020400080206000802080008020A0008020C0008020E00080400000804020008040400080406000804080
310
008040A0008040C0008040E00080600000806020008060400080606000806080008060A0008060C0008060E00080800000808020008080400080806000808080008080A0008080C0008080E00080A0000080A0200080A0400080A0600080A0800080A0A00080A0C00080A0E00080C0000080C0200080C0400080C0600080C0
310
800080C0A00080C0C00080C0E00080E0000080E0200080E0400080E0600080E0800080E0A00080E0C00080E0E000C0000000C0002000C0004000C0006000C0008000C000A000C000C000C000E000C0200000C0202000C0204000C0206000C0208000C020A000C020C000C020E000C0400000C0402000C0404000C0406000C0
310
408000C040A000C040C000C040E000C0600000C0602000C0604000C0606000C0608000C060A000C060C000C060E000C0800000C0802000C0804000C0806000C0808000C080A000C080C000C080E000C0A00000C0A02000C0A04000C0A06000C0A08000C0A0A000C0A0C000C0A0E000C0C00000C0C02000C0C04000C0C06000
310
C0C08000C0C0A000F0FBFF00A4A0A000808080000000FF0000FF000000FFFF00FF000000FF00FF00FFFF0000FFFFFF0000000000000000000000000000000000000000000000000000000000000000000000000000000000000000000000000000000000000000000000000000000000000000000000000000000000000000
310
00000000000000000000000000000000000000000000000000000000000000000000000000000000000000000000000000000000000000000000000000000000000000000000000000000000000000000000000000000000000000000000000000000000000000000000000000000000000000000000000000000000000000
310
00000000000000000000000000000000000000000000000000000000000000000000000000000000000000000000000000000000000000000000000000000000000000000000000000000000000000000000000000000000000000000000000000000000000000000000000000000000000000000000000000000000000000
310
000000000000000000000000000000000000000000000000000000000000000000000000000000000000000000000000000000000000000000000000000000000000000000000000000000000000000000000000000000000000FFFFFFFFFFFFFFFFFFFFFFFFFFFFFFFFFFFFFFFFFFFFFFFF000000FFFFFFFF00FFFFFFFFFF
310
FFFFFFFFFFFFFFFFFFFFFFFFFFFFFFFFFFFFFF0000FFFFFFFFFFFFFF00FFFFFFFFFFFF00FF00000000000000000000000000FF00000000FFFFFF00FFFFFFFFFFFFFFFFFFFFFFFFFFFFFFFFFFFFFFFFFFFFFFFF0000000000000000FFFFFFFFFFFFFFFFFFFFFFFFFFFFFFFF00000000000000000000000000000000FFFFFFFF
310
FFFFFFFFFFFFFFFFFFFFFFFF00000000000000000000000000000000000000000000000000000000000000000000000000000000000000000000000000000000000000000000000000000000000000000000000000000000000000000000000000000000000000000000000000000000000000000000000000000000000000
310
00000000000000000000000000000000000000000000000000000000000000000000000000000000000000000000000000000000000000000000000000000000000000000000000000000000000000000000000000000000000000000000000000000000000000000000000000000000000000000000000000000000000000
310
00000000000000000000000000000000000000000000000000000000000000000000000000000000000000000000000000000000000000000000000000000000000000000000000000000000000000000000000000000000000000000000000000000000000000000000000000000000000000000000000000000000000000
310
0000000000000000000000000000000000000000000000000000000000000000000000000000000000000000000000000000000000000000
102
{BLKREFS
331
17E6
331
17EC
102
}
1001
ACAD
1000
DesignCenter Data
1002
{
1070
     1
1070
     4
1002
}
  0
BLOCK_RECORD
  5
1734
330
1
100
AcDbSymbolTableRecord
100
AcDbBlockTableRecord
  2
Title_A2
340
0
310
2800000020000000200000000100080000000000000400000000000000000000000000000000000000000000000080000080000000808000800000008000800080800000C0C0C000C0DCC000F0CAA6000020400000206000002080000020A0000020C0000020E00000400000004020000040400000406000004080000040A0
310
000040C0000040E00000600000006020000060400000606000006080000060A0000060C0000060E00000800000008020000080400000806000008080000080A0000080C0000080E00000A0000000A0200000A0400000A0600000A0800000A0A00000A0C00000A0E00000C0000000C0200000C0400000C0600000C0800000C0
310
A00000C0C00000C0E00000E0000000E0200000E0400000E0600000E0800000E0A00000E0C00000E0E00040000000400020004000400040006000400080004000A0004000C0004000E00040200000402020004020400040206000402080004020A0004020C0004020E000404000004040200040404000404060004040800040
310
40A0004040C0004040E00040600000406020004060400040606000406080004060A0004060C0004060E00040800000408020004080400040806000408080004080A0004080C0004080E00040A0000040A0200040A0400040A0600040A0800040A0A00040A0C00040A0E00040C0000040C0200040C0400040C0600040C08000
310
40C0A00040C0C00040C0E00040E0000040E0200040E0400040E0600040E0800040E0A00040E0C00040E0E00080000000800020008000400080006000800080008000A0008000C0008000E00080200000802020008020400080206000802080008020A0008020C0008020E00080400000804020008040400080406000804080
310
008040A0008040C0008040E00080600000806020008060400080606000806080008060A0008060C0008060E00080800000808020008080400080806000808080008080A0008080C0008080E00080A0000080A0200080A0400080A0600080A0800080A0A00080A0C00080A0E00080C0000080C0200080C0400080C0600080C0
310
800080C0A00080C0C00080C0E00080E0000080E0200080E0400080E0600080E0800080E0A00080E0C00080E0E000C0000000C0002000C0004000C0006000C0008000C000A000C000C000C000E000C0200000C0202000C0204000C0206000C0208000C020A000C020C000C020E000C0400000C0402000C0404000C0406000C0
310
408000C040A000C040C000C040E000C0600000C0602000C0604000C0606000C0608000C060A000C060C000C060E000C0800000C0802000C0804000C0806000C0808000C080A000C080C000C080E000C0A00000C0A02000C0A04000C0A06000C0A08000C0A0A000C0A0C000C0A0E000C0C00000C0C02000C0C04000C0C06000
310
C0C08000C0C0A000F0FBFF00A4A0A000808080000000FF0000FF000000FFFF00FF000000FF00FF00FFFF0000FFFFFF0000000000000000000000000000000000000000000000000000000000000000000000000000000000000000000000000000000000000000000000000000000000000000000000000000000000000000
310
00000000000000000000000000000000000000000000000000000000000000000000000000000000000000000000000000000000000000000000000000000000000000000000000000000000000000000000000000000000000000000000000000000000000000000000000000000000000000000000000000000000000000
310
00000000000000000000000000000000000000000000000000000000000000000000000000000000000000000000000000000000000000000000000000000000000000000000000000000000000000000000000000000000000000000000000000000000000000000000000000000000000000000000000000000000000000
310
000000000000000000000000000000000000000000000000000000000000000000000000000000000000000000000000000000000000000000000000000000000000000000000000000000000000000000000000000000000000FFFFFFFFFFFFFFFFFFFFFFFFFFFFFFFFFFFFFFFFFFFFFFFF000000FFFFFFFF00FFFFFFFFFF
310
FFFFFFFFFFFFFFFFFFFFFFFFFFFFFFFFFFFFFF0000FFFFFFFFFFFFFF00FFFFFFFFFFFF00FF00000000000000000000000000FF00000000FFFFFF00FFFFFFFFFFFFFFFFFFFFFFFFFFFFFFFFFFFFFFFFFFFFFFFF0000000000000000FFFFFFFFFFFFFFFFFFFFFFFFFFFFFFFF00000000000000000000000000000000FFFFFFFF
310
FFFFFFFFFFFFFFFFFFFFFFFF00000000000000000000000000000000000000000000000000000000000000000000000000000000000000000000000000000000000000000000000000000000000000000000000000000000000000000000000000000000000000000000000000000000000000000000000000000000000000
310
00000000000000000000000000000000000000000000000000000000000000000000000000000000000000000000000000000000000000000000000000000000000000000000000000000000000000000000000000000000000000000000000000000000000000000000000000000000000000000000000000000000000000
310
00000000000000000000000000000000000000000000000000000000000000000000000000000000000000000000000000000000000000000000000000000000000000000000000000000000000000000000000000000000000000000000000000000000000000000000000000000000000000000000000000000000000000
310
0000000000000000000000000000000000000000000000000000000000000000000000000000000000000000000000000000000000000000
102
{BLKREFS
331
17E7
331
17ED
102
}
1001
ACAD
1000
DesignCenter Data
1002
{
1070
     1
1070
     4
1002
}
  0
BLOCK_RECORD
  5
1740
330
1
100
AcDbSymbolTableRecord
100
AcDbBlockTableRecord
  2
Title_A1
340
0
310
2800000020000000200000000100080000000000000400000000000000000000000000000000000000000000000080000080000000808000800000008000800080800000C0C0C000C0DCC000F0CAA6000020400000206000002080000020A0000020C0000020E00000400000004020000040400000406000004080000040A0
310
000040C0000040E00000600000006020000060400000606000006080000060A0000060C0000060E00000800000008020000080400000806000008080000080A0000080C0000080E00000A0000000A0200000A0400000A0600000A0800000A0A00000A0C00000A0E00000C0000000C0200000C0400000C0600000C0800000C0
310
A00000C0C00000C0E00000E0000000E0200000E0400000E0600000E0800000E0A00000E0C00000E0E00040000000400020004000400040006000400080004000A0004000C0004000E00040200000402020004020400040206000402080004020A0004020C0004020E000404000004040200040404000404060004040800040
310
40A0004040C0004040E00040600000406020004060400040606000406080004060A0004060C0004060E00040800000408020004080400040806000408080004080A0004080C0004080E00040A0000040A0200040A0400040A0600040A0800040A0A00040A0C00040A0E00040C0000040C0200040C0400040C0600040C08000
310
40C0A00040C0C00040C0E00040E0000040E0200040E0400040E0600040E0800040E0A00040E0C00040E0E00080000000800020008000400080006000800080008000A0008000C0008000E00080200000802020008020400080206000802080008020A0008020C0008020E00080400000804020008040400080406000804080
310
008040A0008040C0008040E00080600000806020008060400080606000806080008060A0008060C0008060E00080800000808020008080400080806000808080008080A0008080C0008080E00080A0000080A0200080A0400080A0600080A0800080A0A00080A0C00080A0E00080C0000080C0200080C0400080C0600080C0
310
800080C0A00080C0C00080C0E00080E0000080E0200080E0400080E0600080E0800080E0A00080E0C00080E0E000C0000000C0002000C0004000C0006000C0008000C000A000C000C000C000E000C0200000C0202000C0204000C0206000C0208000C020A000C020C000C020E000C0400000C0402000C0404000C0406000C0
310
408000C040A000C040C000C040E000C0600000C0602000C0604000C0606000C0608000C060A000C060C000C060E000C0800000C0802000C0804000C0806000C0808000C080A000C080C000C080E000C0A00000C0A02000C0A04000C0A06000C0A08000C0A0A000C0A0C000C0A0E000C0C00000C0C02000C0C04000C0C06000
310
C0C08000C0C0A000F0FBFF00A4A0A000808080000000FF0000FF000000FFFF00FF000000FF00FF00FFFF0000FFFFFF0000000000000000000000000000000000000000000000000000000000000000000000000000000000000000000000000000000000000000000000000000000000000000000000000000000000000000
310
00000000000000000000000000000000000000000000000000000000000000000000000000000000000000000000000000000000000000000000000000000000000000000000000000000000000000000000000000000000000000000000000000000000000000000000000000000000000000000000000000000000000000
310
00000000000000000000000000000000000000000000000000000000000000000000000000000000000000000000000000000000000000000000000000000000000000000000000000000000000000000000000000000000000000000000000000000000000000000000000000000000000000000000000000000000000000
310
000000000000000000000000000000000000000000000000000000000000000000000000000000000000000000000000000000000000000000000000000000000000000000000000000000000000000000000000000000000000FFFFFFFFFFFFFFFFFFFFFFFFFFFFFFFFFFFFFFFFFFFFFFFF000000FFFFFFFF00FFFFFFFFFF
310
FFFFFFFFFFFFFFFFFFFFFFFFFFFFFFFFFFFFFF0000FFFFFFFFFFFFFF00FFFFFFFFFFFF00FF00000000000000000000000000FF00000000FFFFFF00FFFFFFFFFFFFFFFFFFFFFFFFFFFFFFFFFFFFFFFFFFFFFFFF0000000000000000FFFFFFFFFFFFFFFFFFFFFFFFFFFFFFFF00000000000000000000000000000000FFFFFFFF
310
FFFFFFFFFFFFFFFFFFFFFFFF00000000000000000000000000000000000000000000000000000000000000000000000000000000000000000000000000000000000000000000000000000000000000000000000000000000000000000000000000000000000000000000000000000000000000000000000000000000000000
310
00000000000000000000000000000000000000000000000000000000000000000000000000000000000000000000000000000000000000000000000000000000000000000000000000000000000000000000000000000000000000000000000000000000000000000000000000000000000000000000000000000000000000
310
00000000000000000000000000000000000000000000000000000000000000000000000000000000000000000000000000000000000000000000000000000000000000000000000000000000000000000000000000000000000000000000000000000000000000000000000000000000000000000000000000000000000000
310
0000000000000000000000000000000000000000000000000000000000000000000000000000000000000000000000000000000000000000
102
{BLKREFS
331
17E8
331
17EE
102
}
1001
ACAD
1000
DesignCenter Data
1002
{
1070
     1
1070
     4
1002
}
  0
BLOCK_RECORD
  5
174C
330
1
100
AcDbSymbolTableRecord
100
AcDbBlockTableRecord
  2
Title_A0
340
0
310
2800000020000000200000000100080000000000000400000000000000000000000000000000000000000000000080000080000000808000800000008000800080800000C0C0C000C0DCC000F0CAA6000020400000206000002080000020A0000020C0000020E00000400000004020000040400000406000004080000040A0
310
000040C0000040E00000600000006020000060400000606000006080000060A0000060C0000060E00000800000008020000080400000806000008080000080A0000080C0000080E00000A0000000A0200000A0400000A0600000A0800000A0A00000A0C00000A0E00000C0000000C0200000C0400000C0600000C0800000C0
310
A00000C0C00000C0E00000E0000000E0200000E0400000E0600000E0800000E0A00000E0C00000E0E00040000000400020004000400040006000400080004000A0004000C0004000E00040200000402020004020400040206000402080004020A0004020C0004020E000404000004040200040404000404060004040800040
310
40A0004040C0004040E00040600000406020004060400040606000406080004060A0004060C0004060E00040800000408020004080400040806000408080004080A0004080C0004080E00040A0000040A0200040A0400040A0600040A0800040A0A00040A0C00040A0E00040C0000040C0200040C0400040C0600040C08000
310
40C0A00040C0C00040C0E00040E0000040E0200040E0400040E0600040E0800040E0A00040E0C00040E0E00080000000800020008000400080006000800080008000A0008000C0008000E00080200000802020008020400080206000802080008020A0008020C0008020E00080400000804020008040400080406000804080
310
008040A0008040C0008040E00080600000806020008060400080606000806080008060A0008060C0008060E00080800000808020008080400080806000808080008080A0008080C0008080E00080A0000080A0200080A0400080A0600080A0800080A0A00080A0C00080A0E00080C0000080C0200080C0400080C0600080C0
310
800080C0A00080C0C00080C0E00080E0000080E0200080E0400080E0600080E0800080E0A00080E0C00080E0E000C0000000C0002000C0004000C0006000C0008000C000A000C000C000C000E000C0200000C0202000C0204000C0206000C0208000C020A000C020C000C020E000C0400000C0402000C0404000C0406000C0
310
408000C040A000C040C000C040E000C0600000C0602000C0604000C0606000C0608000C060A000C060C000C060E000C0800000C0802000C0804000C0806000C0808000C080A000C080C000C080E000C0A00000C0A02000C0A04000C0A06000C0A08000C0A0A000C0A0C000C0A0E000C0C00000C0C02000C0C04000C0C06000
310
C0C08000C0C0A000F0FBFF00A4A0A000808080000000FF0000FF000000FFFF00FF000000FF00FF00FFFF0000FFFFFF0000000000000000000000000000000000000000000000000000000000000000000000000000000000000000000000000000000000000000000000000000000000000000000000000000000000000000
310
00000000000000000000000000000000000000000000000000000000000000000000000000000000000000000000000000000000000000000000000000000000000000000000000000000000000000000000000000000000000000000000000000000000000000000000000000000000000000000000000000000000000000
310
00000000000000000000000000000000000000000000000000000000000000000000000000000000000000000000000000000000000000000000000000000000000000000000000000000000000000000000000000000000000000000000000000000000000000000000000000000000000000000000000000000000000000
310
000000000000000000000000000000000000000000000000000000000000000000000000000000000000000000000000000000000000000000000000000000000000000000000000000000000000000000000000000000000000FFFFFFFFFFFFFFFFFFFFFFFFFFFFFFFFFFFFFFFFFFFFFFFF000000FFFFFFFF00FFFFFFFFFF
310
FFFFFFFFFFFFFFFFFFFFFFFFFFFFFFFFFFFFFF0000FFFFFFFFFFFFFF00FFFFFFFFFFFF00FF00000000000000000000000000FF00000000FFFFFF00FFFFFFFFFFFFFFFFFFFFFFFFFFFFFFFFFFFFFFFFFFFFFFFF0000000000000000FFFFFFFFFFFFFFFFFFFFFFFFFFFFFFFF00000000000000000000000000000000FFFFFFFF
310
FFFFFFFFFFFFFFFFFFFFFFFF00000000000000000000000000000000000000000000000000000000000000000000000000000000000000000000000000000000000000000000000000000000000000000000000000000000000000000000000000000000000000000000000000000000000000000000000000000000000000
310
00000000000000000000000000000000000000000000000000000000000000000000000000000000000000000000000000000000000000000000000000000000000000000000000000000000000000000000000000000000000000000000000000000000000000000000000000000000000000000000000000000000000000
310
00000000000000000000000000000000000000000000000000000000000000000000000000000000000000000000000000000000000000000000000000000000000000000000000000000000000000000000000000000000000000000000000000000000000000000000000000000000000000000000000000000000000000
310
0000000000000000000000000000000000000000000000000000000000000000000000000000000000000000000000000000000000000000
102
{BLKREFS
331
17E9
331
17EF
102
}
1001
ACAD
1000
DesignCenter Data
1002
{
1070
     1
1070
     4
1002
}
  0
BLOCK_RECORD
  5
1758
102
{ACAD_XDICTIONARY
360
1759
102
}
330
1
100
AcDbSymbolTableRecord
100
AcDbBlockTableRecord
  2
TYP_SYMB
340
0
310
2800000020000000200000000100080000000000000400000000000000000000000000000000000000000000000080000080000000808000800000008000800080800000C0C0C000C0DCC000F0CAA6000020400000206000002080000020A0000020C0000020E00000400000004020000040400000406000004080000040A0
310
000040C0000040E00000600000006020000060400000606000006080000060A0000060C0000060E00000800000008020000080400000806000008080000080A0000080C0000080E00000A0000000A0200000A0400000A0600000A0800000A0A00000A0C00000A0E00000C0000000C0200000C0400000C0600000C0800000C0
310
A00000C0C00000C0E00000E0000000E0200000E0400000E0600000E0800000E0A00000E0C00000E0E00040000000400020004000400040006000400080004000A0004000C0004000E00040200000402020004020400040206000402080004020A0004020C0004020E000404000004040200040404000404060004040800040
310
40A0004040C0004040E00040600000406020004060400040606000406080004060A0004060C0004060E00040800000408020004080400040806000408080004080A0004080C0004080E00040A0000040A0200040A0400040A0600040A0800040A0A00040A0C00040A0E00040C0000040C0200040C0400040C0600040C08000
310
40C0A00040C0C00040C0E00040E0000040E0200040E0400040E0600040E0800040E0A00040E0C00040E0E00080000000800020008000400080006000800080008000A0008000C0008000E00080200000802020008020400080206000802080008020A0008020C0008020E00080400000804020008040400080406000804080
310
008040A0008040C0008040E00080600000806020008060400080606000806080008060A0008060C0008060E00080800000808020008080400080806000808080008080A0008080C0008080E00080A0000080A0200080A0400080A0600080A0800080A0A00080A0C00080A0E00080C0000080C0200080C0400080C0600080C0
310
800080C0A00080C0C00080C0E00080E0000080E0200080E0400080E0600080E0800080E0A00080E0C00080E0E000C0000000C0002000C0004000C0006000C0008000C000A000C000C000C000E000C0200000C0202000C0204000C0206000C0208000C020A000C020C000C020E000C0400000C0402000C0404000C0406000C0
310
408000C040A000C040C000C040E000C0600000C0602000C0604000C0606000C0608000C060A000C060C000C060E000C0800000C0802000C0804000C0806000C0808000C080A000C080C000C080E000C0A00000C0A02000C0A04000C0A06000C0A08000C0A0A000C0A0C000C0A0E000C0C00000C0C02000C0C04000C0C06000
310
C0C08000C0C0A000F0FBFF00A4A0A000808080000000FF0000FF000000FFFF00FF000000FF00FF00FFFF0000FFFFFF0000000000000000000000000000000000000000000000000000000000000000000000000000000000000000000000000000000000000000000000000000000000000000000000000000000000000000
310
00000000000000000000000000000000000000000000000000000000000000000000000000000000000000000000000000000000000000000000000000000000000000000000000000000000000000000000000000000000000000000000000000000000000000000000000000000000000000000000000000000000000000
310
000000000000000000000000000000000000000000000000000000000000000000000000000000000000000000000000000000000000000000000000000000000000000000000000000000000000000000000000000000000000000000000000000000000000000000FF000000000000000000000000000000000000000000
310
00000000000000000000FF000000000000000000000000000000000000FFFFFFFFFFFFFF0000000000FFFF0000000000000000000000FFFFFFFFFFFFFF000000000000FF000000FFFF00FFFFFFFF0000000000000000FF000000000000000000000000FF00FFFF000000FF000000FF00000000000000FF0000000000000000
310
00000000FF00FF00000000FF000000FF0000000000FFFFFFFFFFFFFFFFFFFFFFFFFFFFFFFFFFFFFFFFFFFFFFFFFFFFFFFFFFFF00000000FF000000000000000000000000FF00FF000000FFFFFF000000FF000000000000FF000000000000000000000000FF00FF00000000FF000000FF00000000000000FF00000000000000
310
0000000000FF00FF00000000FF000000FF00000000000000FFFFFFFFFFFFFF000000000000FF0000FFFF0000FF00FFFF000000000000000000000000000000FFFFFFFFFFFFFF00000000FFFFFFFF000000000000000000000000000000000000000000000000000000000000FF000000000000000000000000000000000000
310
00000000000000000000000000FF0000000000000000000000000000000000000000000000000000000000000000000000000000000000000000000000000000000000000000000000000000000000000000000000000000000000000000000000000000000000000000000000000000000000000000000000000000000000
310
00000000000000000000000000000000000000000000000000000000000000000000000000000000000000000000000000000000000000000000000000000000000000000000000000000000000000000000000000000000000000000000000000000000000000000000000000000000000000000000000000000000000000
310
0000000000000000000000000000000000000000000000000000000000000000000000000000000000000000000000000000000000000000
102
{BLKREFS
331
171E
331
172B
331
1736
331
174E
102
}
1001
AcDbDynamicBlockGUID
1000
{63667387-D1AD-44FC-9ABB-F8AB95C0C54C}
1001
AcDbBlockRepETag
1070
     1
1071
        9
1001
ACAD
1000
DesignCenter Data
1002
{
1070
     1
1070
     4
1002
}
  0
BLOCK_RECORD
  5
1765
102
{ACAD_XDICTIONARY
360
1D18
102
}
330
1
100
AcDbSymbolTableRecord
100
AcDbBlockTableRecord
  2
*U9
340
0
310
2800000020000000200000000100080000000000000400000000000000000000000000000000000000000000000080000080000000808000800000008000800080800000C0C0C000C0DCC000F0CAA6000020400000206000002080000020A0000020C0000020E00000400000004020000040400000406000004080000040A0
310
000040C0000040E00000600000006020000060400000606000006080000060A0000060C0000060E00000800000008020000080400000806000008080000080A0000080C0000080E00000A0000000A0200000A0400000A0600000A0800000A0A00000A0C00000A0E00000C0000000C0200000C0400000C0600000C0800000C0
310
A00000C0C00000C0E00000E0000000E0200000E0400000E0600000E0800000E0A00000E0C00000E0E00040000000400020004000400040006000400080004000A0004000C0004000E00040200000402020004020400040206000402080004020A0004020C0004020E000404000004040200040404000404060004040800040
310
40A0004040C0004040E00040600000406020004060400040606000406080004060A0004060C0004060E00040800000408020004080400040806000408080004080A0004080C0004080E00040A0000040A0200040A0400040A0600040A0800040A0A00040A0C00040A0E00040C0000040C0200040C0400040C0600040C08000
310
40C0A00040C0C00040C0E00040E0000040E0200040E0400040E0600040E0800040E0A00040E0C00040E0E00080000000800020008000400080006000800080008000A0008000C0008000E00080200000802020008020400080206000802080008020A0008020C0008020E00080400000804020008040400080406000804080
310
008040A0008040C0008040E00080600000806020008060400080606000806080008060A0008060C0008060E00080800000808020008080400080806000808080008080A0008080C0008080E00080A0000080A0200080A0400080A0600080A0800080A0A00080A0C00080A0E00080C0000080C0200080C0400080C0600080C0
310
800080C0A00080C0C00080C0E00080E0000080E0200080E0400080E0600080E0800080E0A00080E0C00080E0E000C0000000C0002000C0004000C0006000C0008000C000A000C000C000C000E000C0200000C0202000C0204000C0206000C0208000C020A000C020C000C020E000C0400000C0402000C0404000C0406000C0
310
408000C040A000C040C000C040E000C0600000C0602000C0604000C0606000C0608000C060A000C060C000C060E000C0800000C0802000C0804000C0806000C0808000C080A000C080C000C080E000C0A00000C0A02000C0A04000C0A06000C0A08000C0A0A000C0A0C000C0A0E000C0C00000C0C02000C0C04000C0C06000
310
C0C08000C0C0A000F0FBFF00A4A0A000808080000000FF0000FF000000FFFF00FF000000FF00FF00FFFF0000FFFFFF0000000000000000000000000000000000000000000000000000000000000000000000000000000000000000000000000000000000000000000000000000000000000000000000000000000000000000
310
00000000000000000000000000000000000000000000000000000000000000000000000000000000000000000000000000000000000000000000000000000000000000000000000000000000000000000000000000000000000000000000000000000000000000000000000000000000000000000000000000000000000000
310
00000000000000000000000000000000000000000000000000000000000000000000000000000000000000000000000000000000000000000000000000000000000000000000000000000000000000000000000000000000000000000000000000000000000000000000000000000000000000000000000000000000000000
310
000000000000000000000000000000000000000000000000000000000000000000000000000000000000000000000000000000000000000000000000000000000000000000000000000000000000000000000000000000000000FFFFFFFFFFFFFFFFFFFFFFFFFFFFFFFFFFFFFFFFFFFF0000000000FFFFFFFF00FFFFFFFFFF
310
FFFFFFFFFFFFFFFFFFFFFFFFFFFFFFFFFFFFFF0000FFFFFFFFFFFFFFFFFFFFFFFFFFFFFF000000FFFFFFFFFFFFFF0000FF000000000000FFFFFF00FFFFFFFFFFFFFFFFFFFFFFFFFFFFFFFFFFFFFFFFFFFF00000000000000000000FFFFFFFFFFFFFFFFFFFFFFFFFFFFFF0000000000000000000000000000000000FFFFFFFF
310
FFFFFFFFFFFFFFFFFFFFFF0000000000000000000000000000000000000000000000000000000000000000000000000000000000000000000000000000000000000000000000000000000000000000000000000000000000000000000000000000000000000000000000000000000000000000000000000000000000000000
310
00000000000000000000000000000000000000000000000000000000000000000000000000000000000000000000000000000000000000000000000000000000000000000000000000000000000000000000000000000000000000000000000000000000000000000000000000000000000000000000000000000000000000
310
00000000000000000000000000000000000000000000000000000000000000000000000000000000000000000000000000000000000000000000000000000000000000000000000000000000000000000000000000000000000000000000000000000000000000000000000000000000000000000000000000000000000000
310
0000000000000000000000000000000000000000000000000000000000000000000000000000000000000000000000000000000000000000
1001
AcDbDynamicBlockTrueName
1000
TITLE
1001
AcDbDynamicBlockGUID
1000
{65D03009-AFDC-4B18-8F84-CB5E28FB53D8}
1001
AcDbBlockRepETag
1070
     1
1071
       29
1001
ACAD
1000
DesignCenter Data
1002
{
1070
     1
1070
     4
1002
}
  0
BLOCK_RECORD
  5
177B
102
{ACAD_XDICTIONARY
360
177C
102
}
330
1
100
AcDbSymbolTableRecord
100
AcDbBlockTableRecord
  2
text_allg
340
0
310
2800000020000000200000000100080000000000000400000000000000000000000000000000000000000000000080000080000000808000800000008000800080800000C0C0C000C0DCC000F0CAA6000020400000206000002080000020A0000020C0000020E00000400000004020000040400000406000004080000040A0
310
000040C0000040E00000600000006020000060400000606000006080000060A0000060C0000060E00000800000008020000080400000806000008080000080A0000080C0000080E00000A0000000A0200000A0400000A0600000A0800000A0A00000A0C00000A0E00000C0000000C0200000C0400000C0600000C0800000C0
310
A00000C0C00000C0E00000E0000000E0200000E0400000E0600000E0800000E0A00000E0C00000E0E00040000000400020004000400040006000400080004000A0004000C0004000E00040200000402020004020400040206000402080004020A0004020C0004020E000404000004040200040404000404060004040800040
310
40A0004040C0004040E00040600000406020004060400040606000406080004060A0004060C0004060E00040800000408020004080400040806000408080004080A0004080C0004080E00040A0000040A0200040A0400040A0600040A0800040A0A00040A0C00040A0E00040C0000040C0200040C0400040C0600040C08000
310
40C0A00040C0C00040C0E00040E0000040E0200040E0400040E0600040E0800040E0A00040E0C00040E0E00080000000800020008000400080006000800080008000A0008000C0008000E00080200000802020008020400080206000802080008020A0008020C0008020E00080400000804020008040400080406000804080
310
008040A0008040C0008040E00080600000806020008060400080606000806080008060A0008060C0008060E00080800000808020008080400080806000808080008080A0008080C0008080E00080A0000080A0200080A0400080A0600080A0800080A0A00080A0C00080A0E00080C0000080C0200080C0400080C0600080C0
310
800080C0A00080C0C00080C0E00080E0000080E0200080E0400080E0600080E0800080E0A00080E0C00080E0E000C0000000C0002000C0004000C0006000C0008000C000A000C000C000C000E000C0200000C0202000C0204000C0206000C0208000C020A000C020C000C020E000C0400000C0402000C0404000C0406000C0
310
408000C040A000C040C000C040E000C0600000C0602000C0604000C0606000C0608000C060A000C060C000C060E000C0800000C0802000C0804000C0806000C0808000C080A000C080C000C080E000C0A00000C0A02000C0A04000C0A06000C0A08000C0A0A000C0A0C000C0A0E000C0C00000C0C02000C0C04000C0C06000
310
C0C08000C0C0A000F0FBFF00A4A0A000808080000000FF0000FF000000FFFF00FF000000FF00FF00FFFF0000FFFFFF0000000000000000000000000000000000000000000000000000000000000000000000000000000000000000000000000000000000000000000000000000000000000000000000000000000000000000
310
00000000000000000000000000000000000000000000000000000000000000000000000000000000000000000000000000000000000000000000000000000000000000000000000000000000000000000000000000000000000000000000000000000000000000000000000000000000000000000000000000000000000000
310
00000000000000000000000000000000000000000000000000000000000000000000000000000000000000000000000000000000000000000000000000000000000000000000000000000000000000000000000000000000000000000000000000000000000000000000000000000000000000000000000000000000000000
310
00000000000000000000000000000000000000000000000000000000000000000000000000000000000000000000000000000000000000000000000000000000000000000000000000000000000000000000000000000000000000000000000000000000000000000000000000000000000000000000000000000000000000
310
000000000000FF00FF000000000000000000000000FFFFFFFFFFFFFFFFFFFFFFFFFFFFFFFFFFFFFFFF00000000FFFFFF0000000000FFFFFFFFFFFFFFFFFFFFFFFFFFFFFFFFFFFFFFFFFFFFFFFFFFFFFFFFFFFF0000000000000000000000000000000000000000000000FF00FF000000000000000000000000000000000000
310
00000000000000000000000000000000000000000000000000000000000000000000000000000000000000000000000000000000000000000000000000000000000000000000000000000000000000000000000000000000000000000000000000000000000000000000000000000000000000000000000000000000000000
310
00000000000000000000000000000000000000000000000000000000000000000000000000000000000000000000000000000000000000000000000000000000000000000000000000000000000000000000000000000000000000000000000000000000000000000000000000000000000000000000000000000000000000
310
00000000000000000000000000000000000000000000000000000000000000000000000000000000000000000000000000000000000000000000000000000000000000000000000000000000000000000000000000000000000000000000000000000000000000000000000000000000000000000000000000000000000000
310
0000000000000000000000000000000000000000000000000000000000000000000000000000000000000000000000000000000000000000
102
{BLKREFS
331
1859
331
1D07
331
1D32
102
}
1001
AcDbDynamicBlockGUID
1000
{D409DF77-E7A3-413F-9DD9-C199792E5581}
1001
AcDbBlockRepETag
1070
     1
1071
        2
1001
ACAD
1000
DesignCenter Data
1002
{
1070
     1
1070
     4
1002
}
  0
BLOCK_RECORD
  5
17CE
102
{ACAD_XDICTIONARY
360
17F0
102
}
330
1
100
AcDbSymbolTableRecord
100
AcDbBlockTableRecord
  2
Rahmen
340
0
1001
ACAD
1000
DesignCenter Data
1002
{
1070
     1
1070
     4
1002
}
  0
BLOCK_RECORD
  5
1D24
102
{ACAD_XDICTIONARY
360
1D43
102
}
330
1
100
AcDbSymbolTableRecord
100
AcDbBlockTableRecord
  2
*U12
340
0
102
{BLKREFS
331
1720
331
172C
331
1738
331
1750
331
1942
331
195D
102
}
1001
AcDbBlockRepBTag
1070
     1
1005
1765
  0
BLOCK_RECORD
  5
4602
330
1
100
AcDbSymbolTableRecord
100
AcDbBlockTableRecord
  2
*D13
340
0
  0
BLOCK_RECORD
  5
461E
330
1
100
AcDbSymbolTableRecord
100
AcDbBlockTableRecord
  2
*D14
340
0
  0
BLOCK_RECORD
  5
4651
330
1
100
AcDbSymbolTableRecord
100
AcDbBlockTableRecord
  2
*D15
340
0
  0
ENDTAB
  0
ENDSEC
  0
SECTION
  2
BLOCKS
  0
BLOCK
  5
38
330
37
100
AcDbEntity
  8
0
100
AcDbBlockBegin
  2
*Model_Space
 70
     0
 10
0.0
 20
0.0
 30
0.0
  3
*Model_Space
  1

  0
ENDBLK
  5
39
330
37
100
AcDbEntity
  8
0
100
AcDbBlockEnd
  0
BLOCK
  5
34
330
33
100
AcDbEntity
 67
     1
  8
0
100
AcDbBlockBegin
  2
*Paper_Space
 70
     0
 10
0.0
 20
0.0
 30
0.0
  3
*Paper_Space
  1

  0
ENDBLK
  5
35
330
33
100
AcDbEntity
 67
     1
  8
0
100
AcDbBlockEnd
  0
BLOCK
  5
3C
330
3B
100
AcDbEntity
 67
     1
  8
0
100
AcDbBlockBegin
  2
*Paper_Space0
 70
     0
 10
0.0
 20
0.0
 30
0.0
  3
*Paper_Space0
  1

  0
ENDBLK
  5
3D
330
3B
100
AcDbEntity
 67
     1
  8
0
100
AcDbBlockEnd
  0
BLOCK
  5
170B
330
170A
100
AcDbEntity
  8
0
100
AcDbBlockBegin
  2
GENAXEH
 70
     0
 10
0.0
 20
0.0
 30
0.0
  3
GENAXEH
  1

  0
LINE
  5
170C
330
170A
100
AcDbEntity
  8
0
100
AcDbLine
 10
-1.0
 20
0.0
 30
0.0
 11
1.0
 21
0.0
 31
0.0
  0
ENDBLK
  5
170D
330
170A
100
AcDbEntity
  8
0
100
AcDbBlockEnd
  0
BLOCK
  5
170F
330
170E
100
AcDbEntity
  8
0
100
AcDbBlockBegin
  2
Title_A4P
 70
     2
 10
0.0
 20
0.0
 30
0.0
  3
Title_A4P
  1

  4
Schriftfeld A4 hoch
  0
LINE
  5
184C
330
170E
100
AcDbEntity
  8
91100_TIP_SYM
 48
0.5
370
    18
100
AcDbLine
 10
1867.575661690334
 20
148.982417962376
 30
0.0
 11
1884.075661690333
 21
148.982417962376
 31
0.0
1001
AcDbBlockRepETag
1070
     1
1071
        0
1005
184C
  0
LINE
  5
184D
330
170E
100
AcDbEntity
  8
91200_TIP_SYMB
370
    18
100
AcDbLine
 10
1882.075661690334
 20
143.982417962376
 30
0.0
 11
1869.575661690334
 21
145.4824179623761
 31
0.0
1001
AcDbBlockRepETag
1070
     1
1071
        1
1005
184D
  0
LINE
  5
184E
330
170E
100
AcDbEntity
  8
91200_TIP_SYMB
370
    18
100
AcDbLine
 10
1869.575661690334
 20
152.482417962376
 30
0.0
 11
1882.075661690334
 21
153.9824179623761
 31
0.0
1001
AcDbBlockRepETag
1070
     1
1071
        2
1005
184E
  0
LINE
  5
184F
330
170E
100
AcDbEntity
  8
91200_TIP_SYMB
370
    18
100
AcDbLine
 10
1869.575661690334
 20
145.4824179623761
 30
0.0
 11
1869.575661690334
 21
152.482417962376
 31
0.0
1001
AcDbBlockRepETag
1070
     1
1071
        3
1005
184F
  0
CIRCLE
  5
1850
330
170E
100
AcDbEntity
  8
91200_TIP_SYMB
370
    18
100
AcDbCircle
 10
1892.189308243912
 20
148.982417962376
 30
0.0
 40
5.0
1001
AcDbBlockRepETag
1070
     1
1071
        4
1005
1850
  0
LINE
  5
1851
330
170E
100
AcDbEntity
  8
91200_TIP_SYMB
370
    18
100
AcDbLine
 10
1882.075661690334
 20
153.9824179623761
 30
0.0
 11
1882.075661690334
 21
143.982417962376
 31
0.0
1001
AcDbBlockRepETag
1070
     1
1071
        5
1005
1851
  0
CIRCLE
  5
1852
330
170E
100
AcDbEntity
  8
91200_TIP_SYMB
370
    18
100
AcDbCircle
 10
1892.189308243912
 20
148.982417962376
 30
0.0
 40
2.0
1001
AcDbBlockRepETag
1070
     1
1071
        6
1005
1852
  0
LINE
  5
1853
330
170E
100
AcDbEntity
  8
91100_TIP_SYM
 48
0.5
370
    18
100
AcDbLine
 10
1892.189308243912
 20
155.9824179623761
 30
0.0
 11
1892.189308243912
 21
141.982417962376
 31
0.0
1001
AcDbBlockRepETag
1070
     1
1071
        7
1005
1853
  0
LINE
  5
1854
330
170E
100
AcDbEntity
  8
91100_TIP_SYM
 48
0.5
370
    18
100
AcDbLine
 10
1885.189308243912
 20
148.982417962376
 30
0.0
 11
1899.189308243912
 21
148.982417962376
 31
0.0
1001
AcDbBlockRepETag
1070
     1
1071
        8
1005
1854
  0
MTEXT
  5
1855
330
170E
100
AcDbEntity
  8
92000_TITLE
100
AcDbMText
 10
1974.439308243912
 20
142.9824179623761
 30
0.0
 40
2.5
 41
42.5
 71
     5
 72
     5
  1
Format/Size: DIN A4
 73
     1
 44
1.0
1001
ACAD
1000
MTEXTBEGIN
1070
    73
1070
     1
1070
    44
1040
1.0
1070
    74
1070
     0
1000
MTEXTEND
  0
MTEXT
  5
1856
330
170E
100
AcDbEntity
  8
92000_TITLE
370
    13
100
AcDbMText
 10
1974.439308243912
 20
142.9824179623761
 30
0.0
 40
2.5
 41
42.5
 71
     5
 72
     5
  1
Format/Size: DIN A4
 73
     1
 44
1.0
1001
ACAD
1000
MTEXTBEGIN
1070
    73
1070
     1
1070
    44
1040
1.0
1070
    74
1070
     0
1000
MTEXTEND
  0
LINE
  5
1857
330
170E
100
AcDbEntity
  8
92000_TITLE
100
AcDbLine
 10
2000.689308243912
 20
139.982417962376
 30
0.0
 11
2000.689308243912
 21
145.982417962376
 31
0.0
1001
GENIUS_GENREC_14
1002
{
1000
PYDIR
1011
1908.189308243912
1021
157.9824179623761
1031
0.0
1002
}
1002
{
1000
PXDIR
1011
2043.189308243912
1021
139.982417962376
1031
0.0
1002
}
1002
{
1000
PORI
1011
1908.189308243912
1021
139.982417962376
1031
0.0
1002
}
1002
{
1000
PINS
1011
1908.189308243912
1021
139.982417962376
1031
0.0
1002
}
1002
{
1000
HVAL
1000
18
1002
}
1002
{
1000
H
1070
     2
1002
}
1002
{
1000
WVAL
1000
135
1002
}
1002
{
1000
W
1070
     2
1002
}
1002
{
1000
C
1070
     1
1002
}
1001
GENIUS_GENOBJ-N-REC_13
1002
{
1000
OWNER
1000
GEN
1002
}
1001
GENIUS_GENODEF_13
1002
{
1000
HIER
1070
     0
1002
}
1002
{
1000
MANEDIT
1070
     0
1002
}
1002
{
1000
NOSEL
1070
     0
1002
}
1002
{
1000
BEHIND
1070
     0
1002
}
1002
{
1000
OTHER
1070
     0
1002
}
1002
{
1000
REACTOR
1002
}
1001
AcDbBlockRepETag
1070
     1
1071
        1
1005
1857
  0
LINE
  5
1858
330
170E
100
AcDbEntity
  8
92000_TITLE
100
AcDbLine
 10
2038.189308243912
 20
139.982417962376
 30
0.0
 11
2038.189308243912
 21
157.9824179623761
 31
0.0
1001
GENIUS_GENREC_14
1002
{
1000
PYDIR
1011
1903.189308243912
1021
157.9824179623761
1031
0.0
1002
}
1002
{
1000
PXDIR
1011
2038.189308243912
1021
139.982417962376
1031
0.0
1002
}
1002
{
1000
PORI
1011
1903.189308243912
1021
139.982417962376
1031
0.0
1002
}
1002
{
1000
PINS
1011
1903.189308243912
1021
139.982417962376
1031
0.0
1002
}
1002
{
1000
HVAL
1000
18
1002
}
1002
{
1000
H
1070
     2
1002
}
1002
{
1000
WVAL
1000
135
1002
}
1002
{
1000
W
1070
     2
1002
}
1002
{
1000
C
1070
     1
1002
}
1001
GENIUS_GENOBJ-N-REC_13
1002
{
1000
OWNER
1000
GEN
1002
}
1001
GENIUS_GENODEF_13
1002
{
1000
HIER
1070
     0
1002
}
1002
{
1000
MANEDIT
1070
     0
1002
}
1002
{
1000
NOSEL
1070
     0
1002
}
1002
{
1000
BEHIND
1070
     0
1002
}
1002
{
1000
OTHER
1070
     0
1002
}
1002
{
1000
REACTOR
1002
}
1001
AcDbBlockRepETag
1070
     1
1071
        0
1005
1858
  0
INSERT
  5
1859
330
170E
100
AcDbEntity
  8
0
370
    18
100
AcDbBlockReference
  2
text_allg
 10
1903.189308243912
 20
157.9824179623761
 30
0.0
1001
AcDbBlockRepETag
1070
     1
1071
        2
1005
1859
  0
MTEXT
  5
185A
330
170E
100
AcDbEntity
  8
92000_TITLE
100
AcDbMText
 10
1928.189308243912
 20
151.9824179623761
 30
0.0
 40
3.5
 41
40.0
 71
     5
 72
     5
  1
{\fSiemens Logo|b0|i0|c0|p2;s}
 73
     1
 44
1.0
1001
AcDbBlockRepETag
1070
     1
1071
        3
1005
185A
1001
ACAD
1000
MTEXTBEGIN
1070
    73
1070
     1
1070
    44
1040
1.0
1070
    74
1070
     0
1000
MTEXTEND
  0
LINE
  5
185B
330
170E
100
AcDbEntity
  8
92000_TITLE
100
AcDbLine
 10
1903.189308243912
 20
139.982417962376
 30
0.0
 11
2038.189308243912
 21
139.982417962376
 31
0.0
1001
GENIUS_GENREC_14
1002
{
1000
PYDIR
1011
1903.189308243912
1021
157.9824179623761
1031
0.0
1002
}
1002
{
1000
PXDIR
1011
2038.189308243912
1021
139.982417962376
1031
0.0
1002
}
1002
{
1000
PORI
1011
1903.189308243912
1021
139.982417962376
1031
0.0
1002
}
1002
{
1000
PINS
1011
1903.189308243912
1021
139.982417962376
1031
0.0
1002
}
1002
{
1000
HVAL
1000
18
1002
}
1002
{
1000
H
1070
     2
1002
}
1002
{
1000
WVAL
1000
135
1002
}
1002
{
1000
W
1070
     2
1002
}
1002
{
1000
C
1070
     1
1002
}
1001
GENIUS_GENOBJ-N-REC_13
1002
{
1000
OWNER
1000
GEN
1002
}
1001
GENIUS_GENODEF_13
1002
{
1000
HIER
1070
     0
1002
}
1002
{
1000
MANEDIT
1070
     0
1002
}
1002
{
1000
NOSEL
1070
     0
1002
}
1002
{
1000
BEHIND
1070
     0
1002
}
1002
{
1000
OTHER
1070
     0
1002
}
1002
{
1000
REACTOR
1002
}
1001
AcDbBlockRepETag
1070
     1
1071
        4
1005
185B
  0
LINE
  5
185C
330
170E
100
AcDbEntity
  8
92000_TITLE
100
AcDbLine
 10
2038.189308243912
 20
157.9824179623761
 30
0.0
 11
1903.189308243912
 21
157.9824179623761
 31
0.0
1001
GENIUS_GENREC_14
1002
{
1000
PYDIR
1011
1903.189308243912
1021
157.9824179623761
1031
0.0
1002
}
1002
{
1000
PXDIR
1011
2038.189308243912
1021
139.982417962376
1031
0.0
1002
}
1002
{
1000
PORI
1011
1903.189308243912
1021
139.982417962376
1031
0.0
1002
}
1002
{
1000
PINS
1011
1903.189308243912
1021
139.982417962376
1031
0.0
1002
}
1002
{
1000
HVAL
1000
18
1002
}
1002
{
1000
H
1070
     2
1002
}
1002
{
1000
WVAL
1000
135
1002
}
1002
{
1000
W
1070
     2
1002
}
1002
{
1000
C
1070
     1
1002
}
1001
GENIUS_GENOBJ-N-REC_13
1002
{
1000
OWNER
1000
GEN
1002
}
1001
GENIUS_GENODEF_13
1002
{
1000
HIER
1070
     0
1002
}
1002
{
1000
MANEDIT
1070
     0
1002
}
1002
{
1000
NOSEL
1070
     0
1002
}
1002
{
1000
BEHIND
1070
     0
1002
}
1002
{
1000
OTHER
1070
     0
1002
}
1002
{
1000
REACTOR
1002
}
1001
AcDbBlockRepETag
1070
     1
1071
        5
1005
185C
  0
LINE
  5
185D
330
170E
100
AcDbEntity
  8
92000_TITLE
100
AcDbLine
 10
2038.189308243912
 20
145.982417962376
 30
0.0
 11
1903.189308243912
 21
145.982417962376
 31
0.0
1001
GENIUS_GENREC_14
1002
{
1000
PYDIR
1011
1903.189308243912
1021
157.9824179623761
1031
0.0
1002
}
1002
{
1000
PXDIR
1011
2038.189308243912
1021
139.982417962376
1031
0.0
1002
}
1002
{
1000
PORI
1011
1903.189308243912
1021
139.982417962376
1031
0.0
1002
}
1002
{
1000
PINS
1011
1903.189308243912
1021
139.982417962376
1031
0.0
1002
}
1002
{
1000
HVAL
1000
18
1002
}
1002
{
1000
H
1070
     2
1002
}
1002
{
1000
WVAL
1000
135
1002
}
1002
{
1000
W
1070
     2
1002
}
1002
{
1000
C
1070
     1
1002
}
1001
GENIUS_GENOBJ-N-REC_13
1002
{
1000
OWNER
1000
GEN
1002
}
1001
GENIUS_GENODEF_13
1002
{
1000
HIER
1070
     0
1002
}
1002
{
1000
MANEDIT
1070
     0
1002
}
1002
{
1000
NOSEL
1070
     0
1002
}
1002
{
1000
BEHIND
1070
     0
1002
}
1002
{
1000
OTHER
1070
     0
1002
}
1002
{
1000
REACTOR
1002
}
1001
AcDbBlockRepETag
1070
     1
1071
        6
1005
185D
  0
MTEXT
  5
185E
330
170E
100
AcDbEntity
  8
92000_TITLE
370
    13
100
AcDbMText
 10
1910.439308243912
 20
142.9824179623761
 30
0.0
 40
2.5
 41
11.0
 71
     5
 72
     5
  1
Date:
 73
     1
 44
1.0
1001
AcDbBlockRepETag
1070
     1
1071
        7
1005
185E
1001
ACAD
1000
MTEXTBEGIN
1070
    73
1070
     1
1070
    44
1040
1.0
1070
    74
1070
     0
1000
MTEXTEND
  0
LINE
  5
185F
330
170E
100
AcDbEntity
  8
92000_TITLE
100
AcDbLine
 10
1903.189308243912
 20
157.9824179623761
 30
0.0
 11
1903.189308243912
 21
139.982417962376
 31
0.0
1001
GENIUS_GENREC_14
1002
{
1000
PYDIR
1011
1903.189308243912
1021
157.9824179623761
1031
0.0
1002
}
1002
{
1000
PXDIR
1011
2038.189308243912
1021
139.982417962376
1031
0.0
1002
}
1002
{
1000
PORI
1011
1903.189308243912
1021
139.982417962376
1031
0.0
1002
}
1002
{
1000
PINS
1011
1903.189308243912
1021
139.982417962376
1031
0.0
1002
}
1002
{
1000
HVAL
1000
18
1002
}
1002
{
1000
H
1070
     2
1002
}
1002
{
1000
WVAL
1000
135
1002
}
1002
{
1000
W
1070
     2
1002
}
1002
{
1000
C
1070
     1
1002
}
1001
GENIUS_GENOBJ-N-REC_13
1002
{
1000
OWNER
1000
GEN
1002
}
1001
GENIUS_GENODEF_13
1002
{
1000
HIER
1070
     0
1002
}
1002
{
1000
MANEDIT
1070
     0
1002
}
1002
{
1000
NOSEL
1070
     0
1002
}
1002
{
1000
BEHIND
1070
     0
1002
}
1002
{
1000
OTHER
1070
     0
1002
}
1002
{
1000
REACTOR
1002
}
1001
AcDbBlockRepETag
1070
     1
1071
        8
1005
185F
  0
MTEXT
  5
1860
330
170E
100
AcDbEntity
  8
92000_TITLE
370
    13
100
AcDbMText
 10
1935.439308243912
 20
142.9824179623761
 30
0.0
 40
2.5
 41
11.0
 71
     5
 72
     5
  1
Name:
 73
     1
 44
1.0
1001
AcDbBlockRepETag
1070
     1
1071
        9
1005
1860
1001
ACAD
1000
MTEXTBEGIN
1070
    73
1070
     1
1070
    44
1040
1.0
1070
    74
1070
     0
1000
MTEXTEND
  0
LINE
  5
1861
330
170E
100
AcDbEntity
  8
92000_TITLE
100
AcDbLine
 10
1928.189308243912
 20
145.982417962376
 30
0.0
 11
1928.189308243912
 21
139.982417962376
 31
0.0
1001
GENIUS_GENREC_14
1002
{
1000
PYDIR
1011
1903.189308243912
1021
157.9824179623761
1031
0.0
1002
}
1002
{
1000
PXDIR
1011
2038.189308243912
1021
139.982417962376
1031
0.0
1002
}
1002
{
1000
PORI
1011
1903.189308243912
1021
139.982417962376
1031
0.0
1002
}
1002
{
1000
PINS
1011
1903.189308243912
1021
139.982417962376
1031
0.0
1002
}
1002
{
1000
HVAL
1000
18
1002
}
1002
{
1000
H
1070
     2
1002
}
1002
{
1000
WVAL
1000
135
1002
}
1002
{
1000
W
1070
     2
1002
}
1002
{
1000
C
1070
     1
1002
}
1001
GENIUS_GENOBJ-N-REC_13
1002
{
1000
OWNER
1000
GEN
1002
}
1001
GENIUS_GENODEF_13
1002
{
1000
HIER
1070
     0
1002
}
1002
{
1000
MANEDIT
1070
     0
1002
}
1002
{
1000
NOSEL
1070
     0
1002
}
1002
{
1000
BEHIND
1070
     0
1002
}
1002
{
1000
OTHER
1070
     0
1002
}
1002
{
1000
REACTOR
1002
}
1001
AcDbBlockRepETag
1070
     1
1071
       10
1005
1861
  0
TEXT
  5
1862
330
170E
100
AcDbEntity
  8
92000_TITLE
370
    18
100
AcDbText
 10
2004.564308243912
 20
141.733364932073
 30
0.0
 40
2.5
  1
Massstab/Scale:
100
AcDbText
1001
AcDbBlockRepETag
1070
     1
1071
       11
1005
0
  0
LINE
  5
1863
330
170E
100
AcDbEntity
  8
92000_TITLE
100
AcDbLine
 10
1953.189308243912
 20
157.9824179623761
 30
0.0
 11
1953.189308243912
 21
139.982417962376
 31
0.0
1001
GENIUS_GENREC_14
1002
{
1000
PYDIR
1011
1903.189308243912
1021
157.9824179623761
1031
0.0
1002
}
1002
{
1000
PXDIR
1011
2038.189308243912
1021
139.982417962376
1031
0.0
1002
}
1002
{
1000
PORI
1011
1903.189308243912
1021
139.982417962376
1031
0.0
1002
}
1002
{
1000
PINS
1011
1903.189308243912
1021
139.982417962376
1031
0.0
1002
}
1002
{
1000
HVAL
1000
18
1002
}
1002
{
1000
H
1070
     2
1002
}
1002
{
1000
WVAL
1000
135
1002
}
1002
{
1000
W
1070
     2
1002
}
1002
{
1000
C
1070
     1
1002
}
1001
GENIUS_GENOBJ-N-REC_13
1002
{
1000
OWNER
1000
GEN
1002
}
1001
GENIUS_GENODEF_13
1002
{
1000
HIER
1070
     0
1002
}
1002
{
1000
MANEDIT
1070
     0
1002
}
1002
{
1000
NOSEL
1070
     0
1002
}
1002
{
1000
BEHIND
1070
     0
1002
}
1002
{
1000
OTHER
1070
     0
1002
}
1002
{
1000
REACTOR
1002
}
1001
AcDbBlockRepETag
1070
     1
1071
       12
1005
1863
  0
LINE
  5
1864
330
170E
100
AcDbEntity
  8
92000_TITLE
100
AcDbLine
 10
2000.689308243912
 20
139.982417962376
 30
0.0
 11
2000.689308243912
 21
145.982417962376
 31
0.0
1001
GENIUS_GENREC_14
1002
{
1000
PYDIR
1011
1908.189308243912
1021
157.9824179623761
1031
0.0
1002
}
1002
{
1000
PXDIR
1011
2043.189308243912
1021
139.982417962376
1031
0.0
1002
}
1002
{
1000
PORI
1011
1908.189308243912
1021
139.982417962376
1031
0.0
1002
}
1002
{
1000
PINS
1011
1908.189308243912
1021
139.982417962376
1031
0.0
1002
}
1002
{
1000
HVAL
1000
18
1002
}
1002
{
1000
H
1070
     2
1002
}
1002
{
1000
WVAL
1000
135
1002
}
1002
{
1000
W
1070
     2
1002
}
1002
{
1000
C
1070
     1
1002
}
1001
GENIUS_GENOBJ-N-REC_13
1002
{
1000
OWNER
1000
GEN
1002
}
1001
GENIUS_GENODEF_13
1002
{
1000
HIER
1070
     0
1002
}
1002
{
1000
MANEDIT
1070
     0
1002
}
1002
{
1000
NOSEL
1070
     0
1002
}
1002
{
1000
BEHIND
1070
     0
1002
}
1002
{
1000
OTHER
1070
     0
1002
}
1002
{
1000
REACTOR
1002
}
1001
AcDbBlockRepETag
1070
     1
1071
        1
1005
0
  0
ATTDEF
  5
1865
330
170E
100
AcDbEntity
  8
92000_TITLE
370
    13
100
AcDbText
 10
1946.189308243912
 20
141.7324179623761
 30
0.0
 40
2.5
  1

 72
     1
 11
1946.189308243912
 21
142.9824179623761
 31
0.0
100
AcDbAttributeDefinition
  3
Name
  2
NAME
 70
     0
 74
     2
1001
AcDbBlockRepETag
1070
     1
1071
       15
1005
0
  0
ATTDEF
  5
1866
330
170E
100
AcDbEntity
  8
92000_TITLE
370
    13
100
AcDbText
 10
1921.189308243912
 20
141.7324179623761
 30
0.0
 40
2.5
  1

 72
     1
 11
1921.189308243912
 21
142.9824179623761
 31
0.0
100
AcDbAttributeDefinition
  3
Datum
  2
DATUM
 70
     0
 74
     2
1001
AcDbBlockRepETag
1070
     1
1071
       16
1005
0
  0
ATTDEF
  5
1867
330
170E
100
AcDbEntity
  8
92000_TITLE
370
    13
100
AcDbText
 10
1995.689308243912
 20
147.210201292536
 30
0.0
 40
2.5
  1

 72
     1
 11
1995.689308243912
 21
148.460201292536
 31
0.0
100
AcDbAttributeDefinition
  3
A-Name
  2
ARTIKELNAME
 70
     0
 74
     2
1001
AcDbBlockRepETag
1070
     1
1071
       13
1005
0
  0
ATTDEF
  5
1868
330
170E
100
AcDbEntity
  8
92000_TITLE
370
    25
100
AcDbText
 10
1995.689308243912
 20
152.2324179623762
 30
0.0
 40
3.5
  1

 72
     1
 11
1995.689308243912
 21
153.9824179623762
 31
0.0
100
AcDbAttributeDefinition
  3
Z-Name
  2
ZEICHNUNGSNAME
 70
     0
 74
     2
1001
AcDbBlockRepETag
1070
     1
1071
       14
1005
0
  0
ATTDEF
  5
1869
330
170E
100
AcDbEntity
  8
92000_TITLE
370
    13
100
AcDbText
 10
2030.180171328135
 20
141.8273231439694
 30
0.0
 40
2.5
  1
1:1
 72
     1
 11
2031.805171328135
 21
143.0773231439694
 31
0.0
100
AcDbAttributeDefinition
  3
Massstab
  2
MASSSTAB/SCALE:
 70
     0
 74
     2
1001
AcDbBlockRepETag
1070
     1
1071
       13
1005
0
  0
ENDBLK
  5
171B
330
170E
100
AcDbEntity
  8
0
100
AcDbBlockEnd
  0
BLOCK
  5
171D
330
171C
100
AcDbEntity
  8
0
100
AcDbBlockBegin
  2
Title_A4L
 70
     2
 10
0.0
 20
0.0
 30
0.0
  3
Title_A4L
  1

  4
Schriftfeld A4 quer
  0
INSERT
  5
171E
330
171C
100
AcDbEntity
  8
0
100
AcDbBlockReference
  2
TYP_SYMB
 10
-135.0
 20
0.0
 30
0.0
  0
MTEXT
  5
171F
330
171C
100
AcDbEntity
  8
92000_TITLE
370
    13
100
AcDbMText
 10
-63.75
 20
3.0
 30
0.0
 40
2.5
 41
42.5
 71
     5
 72
     5
  1
Format/Size: DIN A4
 73
     1
 44
1.0
1001
ACAD
1000
MTEXTBEGIN
1070
    73
1070
     1
1070
    44
1040
1.0
1070
    74
1070
     0
1000
MTEXTEND
  0
INSERT
  5
1720
102
{ACAD_XDICTIONARY
360
1B24
102
}
330
171C
100
AcDbEntity
  8
0
370
    18
100
AcDbBlockReference
 66
     1
  2
*U12
 10
0.0
 20
0.0
 30
0.0
  0
ATTRIB
  5
1721
330
1720
100
AcDbEntity
  8
92000_TITLE
370
    13
100
AcDbText
 10
-8.009136915777162
 20
1.844905181593389
 30
0.0
 40
2.5
  1
1:1
 72
     1
 11
-6.384136915777162
 21
3.094905181593389
 31
0.0
100
AcDbAttribute
  2
MASSSTAB/SCALE:
 70
     0
 74
     2
1001
AcDbBlockRepETag
1070
     1
1071
       13
1005
0
  0
ATTRIB
  5
1722
330
1720
100
AcDbEntity
  8
92000_TITLE
370
    25
100
AcDbText
 10
-42.49999999999952
 20
12.25000000000011
 30
0.0
 40
3.5
  1

 72
     1
 11
-42.49999999999952
 21
14.00000000000011
 31
0.0
100
AcDbAttribute
  2
ZEICHNUNGSNAME
 70
     0
 74
     2
1001
AcDbBlockRepETag
1070
     1
1071
       14
1005
0
  0
ATTRIB
  5
1723
330
1720
100
AcDbEntity
  8
92000_TITLE
370
    13
100
AcDbText
 10
-42.49999999999952
 20
7.22778333016015
 30
0.0
 40
2.5
  1

 72
     1
 11
-42.49999999999952
 21
8.47778333016015
 31
0.0
100
AcDbAttribute
  2
ARTIKELNAME
 70
     0
 74
     2
1001
AcDbBlockRepETag
1070
     1
1071
       13
1005
0
  0
ATTRIB
  5
1724
330
1720
100
AcDbEntity
  8
92000_TITLE
370
    13
100
AcDbText
 10
-116.9999999999995
 20
1.75
 30
0.0
 40
2.5
  1

 72
     1
 11
-116.9999999999995
 21
3.0
 31
0.0
100
AcDbAttribute
  2
DATUM
 70
     0
 74
     2
1001
AcDbBlockRepETag
1070
     1
1071
       16
1005
0
  0
ATTRIB
  5
1725
330
1720
100
AcDbEntity
  8
92000_TITLE
370
    13
100
AcDbText
 10
-91.99999999999954
 20
1.75
 30
0.0
 40
2.5
  1

 72
     1
 11
-91.99999999999954
 21
3.0
 31
0.0
100
AcDbAttribute
  2
NAME
 70
     0
 74
     2
1001
AcDbBlockRepETag
1070
     1
1071
       15
1005
0
  0
SEQEND
  5
1726
330
1720
100
AcDbEntity
  8
0
370
    18
  0
ENDBLK
  5
1727
330
171C
100
AcDbEntity
  8
0
100
AcDbBlockEnd
  0
BLOCK
  5
1729
330
1728
100
AcDbEntity
  8
0
100
AcDbBlockBegin
  2
Title_A3
 70
     2
 10
0.0
 20
0.0
 30
0.0
  3
Title_A3
  1

  4
Schriftfeld A3
  0
MTEXT
  5
172A
330
1728
100
AcDbEntity
  8
92000_TITLE
370
    13
100
AcDbMText
 10
-63.75
 20
3.0
 30
0.0
 40
2.5
 41
42.5
 71
     5
 72
     5
  1
Format/Size: DIN A3
 73
     1
 44
1.0
1001
ACAD
1000
MTEXTBEGIN
1070
    73
1070
     1
1070
    44
1040
1.0
1070
    74
1070
     0
1000
MTEXTEND
  0
INSERT
  5
172B
330
1728
100
AcDbEntity
  8
0
100
AcDbBlockReference
  2
TYP_SYMB
 10
-135.0
 20
0.0
 30
0.0
  0
INSERT
  5
172C
102
{ACAD_XDICTIONARY
360
1B2A
102
}
330
1728
100
AcDbEntity
  8
0
370
    18
100
AcDbBlockReference
 66
     1
  2
*U12
 10
0.0
 20
0.0
 30
0.0
  0
ATTRIB
  5
172D
330
172C
100
AcDbEntity
  8
92000_TITLE
370
    13
100
AcDbText
 10
-8.009136915777162
 20
1.844905181593389
 30
0.0
 40
2.5
  1
1:1
 72
     1
 11
-6.384136915777162
 21
3.094905181593389
 31
0.0
100
AcDbAttribute
  2
MASSSTAB/SCALE:
 70
     0
 74
     2
1001
AcDbBlockRepETag
1070
     1
1071
       13
1005
0
  0
ATTRIB
  5
172E
330
172C
100
AcDbEntity
  8
92000_TITLE
370
    25
100
AcDbText
 10
-42.49999999999952
 20
12.25000000000011
 30
0.0
 40
3.5
  1

 72
     1
 11
-42.49999999999952
 21
14.00000000000011
 31
0.0
100
AcDbAttribute
  2
ZEICHNUNGSNAME
 70
     0
 74
     2
1001
AcDbBlockRepETag
1070
     1
1071
       14
1005
0
  0
ATTRIB
  5
172F
330
172C
100
AcDbEntity
  8
92000_TITLE
370
    13
100
AcDbText
 10
-42.49999999999952
 20
7.22778333016015
 30
0.0
 40
2.5
  1

 72
     1
 11
-42.49999999999952
 21
8.47778333016015
 31
0.0
100
AcDbAttribute
  2
ARTIKELNAME
 70
     0
 74
     2
1001
AcDbBlockRepETag
1070
     1
1071
       13
1005
0
  0
ATTRIB
  5
1730
330
172C
100
AcDbEntity
  8
92000_TITLE
370
    13
100
AcDbText
 10
-116.9999999999995
 20
1.75
 30
0.0
 40
2.5
  1

 72
     1
 11
-116.9999999999995
 21
3.0
 31
0.0
100
AcDbAttribute
  2
DATUM
 70
     0
 74
     2
1001
AcDbBlockRepETag
1070
     1
1071
       16
1005
0
  0
ATTRIB
  5
1731
330
172C
100
AcDbEntity
  8
92000_TITLE
370
    13
100
AcDbText
 10
-91.99999999999954
 20
1.75
 30
0.0
 40
2.5
  1

 72
     1
 11
-91.99999999999954
 21
3.0
 31
0.0
100
AcDbAttribute
  2
NAME
 70
     0
 74
     2
1001
AcDbBlockRepETag
1070
     1
1071
       15
1005
0
  0
SEQEND
  5
1732
330
172C
100
AcDbEntity
  8
0
370
    18
  0
ENDBLK
  5
1733
330
1728
100
AcDbEntity
  8
0
100
AcDbBlockEnd
  0
BLOCK
  5
1735
330
1734
100
AcDbEntity
  8
0
100
AcDbBlockBegin
  2
Title_A2
 70
     2
 10
0.0
 20
0.0
 30
0.0
  3
Title_A2
  1

  4
Schriftfeld A2
  0
INSERT
  5
1736
330
1734
100
AcDbEntity
  8
0
100
AcDbBlockReference
  2
TYP_SYMB
 10
-135.0
 20
0.0
 30
0.0
  0
MTEXT
  5
1737
330
1734
100
AcDbEntity
  8
92000_TITLE
370
    13
100
AcDbMText
 10
-63.75
 20
3.0
 30
0.0
 40
2.5
 41
42.5
 71
     5
 72
     5
  1
Format/Size: DIN A2
 73
     1
 44
1.0
1001
ACAD
1000
MTEXTBEGIN
1070
    73
1070
     1
1070
    44
1040
1.0
1070
    74
1070
     0
1000
MTEXTEND
  0
INSERT
  5
1738
102
{ACAD_XDICTIONARY
360
1B30
102
}
330
1734
100
AcDbEntity
  8
0
370
    18
100
AcDbBlockReference
 66
     1
  2
*U12
 10
0.0
 20
0.0
 30
0.0
  0
ATTRIB
  5
1739
330
1738
100
AcDbEntity
  8
92000_TITLE
370
    13
100
AcDbText
 10
-8.009136915777162
 20
1.844905181593389
 30
0.0
 40
2.5
  1
1:1
 72
     1
 11
-6.384136915777162
 21
3.094905181593389
 31
0.0
100
AcDbAttribute
  2
MASSSTAB/SCALE:
 70
     0
 74
     2
1001
AcDbBlockRepETag
1070
     1
1071
       13
1005
0
  0
ATTRIB
  5
173A
330
1738
100
AcDbEntity
  8
92000_TITLE
370
    25
100
AcDbText
 10
-42.49999999999952
 20
12.25000000000011
 30
0.0
 40
3.5
  1

 72
     1
 11
-42.49999999999952
 21
14.00000000000011
 31
0.0
100
AcDbAttribute
  2
ZEICHNUNGSNAME
 70
     0
 74
     2
1001
AcDbBlockRepETag
1070
     1
1071
       14
1005
0
  0
ATTRIB
  5
173B
330
1738
100
AcDbEntity
  8
92000_TITLE
370
    13
100
AcDbText
 10
-42.49999999999952
 20
7.22778333016015
 30
0.0
 40
2.5
  1

 72
     1
 11
-42.49999999999952
 21
8.47778333016015
 31
0.0
100
AcDbAttribute
  2
ARTIKELNAME
 70
     0
 74
     2
1001
AcDbBlockRepETag
1070
     1
1071
       13
1005
0
  0
ATTRIB
  5
173C
330
1738
100
AcDbEntity
  8
92000_TITLE
370
    13
100
AcDbText
 10
-116.9999999999995
 20
1.75
 30
0.0
 40
2.5
  1

 72
     1
 11
-116.9999999999995
 21
3.0
 31
0.0
100
AcDbAttribute
  2
DATUM
 70
     0
 74
     2
1001
AcDbBlockRepETag
1070
     1
1071
       16
1005
0
  0
ATTRIB
  5
173D
330
1738
100
AcDbEntity
  8
92000_TITLE
370
    13
100
AcDbText
 10
-91.99999999999954
 20
1.75
 30
0.0
 40
2.5
  1

 72
     1
 11
-91.99999999999954
 21
3.0
 31
0.0
100
AcDbAttribute
  2
NAME
 70
     0
 74
     2
1001
AcDbBlockRepETag
1070
     1
1071
       15
1005
0
  0
SEQEND
  5
173E
330
1738
100
AcDbEntity
  8
0
370
    18
  0
ENDBLK
  5
173F
330
1734
100
AcDbEntity
  8
0
100
AcDbBlockEnd
  0
BLOCK
  5
1741
330
1740
100
AcDbEntity
  8
0
100
AcDbBlockBegin
  2
Title_A1
 70
     2
 10
0.0
 20
0.0
 30
0.0
  3
Title_A1
  1

  4
Schriftfeld A1
  0
MTEXT
  5
1941
330
1740
100
AcDbEntity
  8
92000_TITLE
370
    13
100
AcDbMText
 10
-63.75
 20
3.0
 30
0.0
 40
2.5
 41
42.5
 71
     5
 72
     5
  1
Format/Size: DIN A1
 73
     1
 44
1.0
1001
ACAD
1000
MTEXTBEGIN
1070
    73
1070
     1
1070
    44
1040
1.0
1070
    74
1070
     0
1000
MTEXTEND
  0
INSERT
  5
1942
102
{ACAD_XDICTIONARY
360
1B5A
102
}
330
1740
100
AcDbEntity
  8
0
370
    18
100
AcDbBlockReference
 66
     1
  2
*U12
 10
0.0
 20
0.0
 30
0.0
  0
ATTRIB
  5
1943
330
1942
100
AcDbEntity
  8
92000_TITLE
370
    13
100
AcDbText
 10
-8.009136915777162
 20
1.844905181593389
 30
0.0
 40
2.5
  1
1:1
 72
     1
 11
-6.384136915777162
 21
3.094905181593389
 31
0.0
100
AcDbAttribute
  2
MASSSTAB/SCALE:
 70
     0
 74
     2
1001
AcDbBlockRepETag
1070
     1
1071
       13
1005
0
  0
ATTRIB
  5
1944
330
1942
100
AcDbEntity
  8
92000_TITLE
370
    25
100
AcDbText
 10
-42.49999999999952
 20
12.25000000000011
 30
0.0
 40
3.5
  1

 72
     1
 11
-42.49999999999952
 21
14.00000000000011
 31
0.0
100
AcDbAttribute
  2
ZEICHNUNGSNAME
 70
     0
 74
     2
1001
AcDbBlockRepETag
1070
     1
1071
       14
1005
0
  0
ATTRIB
  5
1945
330
1942
100
AcDbEntity
  8
92000_TITLE
370
    13
100
AcDbText
 10
-42.49999999999952
 20
7.22778333016015
 30
0.0
 40
2.5
  1

 72
     1
 11
-42.49999999999952
 21
8.47778333016015
 31
0.0
100
AcDbAttribute
  2
ARTIKELNAME
 70
     0
 74
     2
1001
AcDbBlockRepETag
1070
     1
1071
       13
1005
0
  0
ATTRIB
  5
1946
330
1942
100
AcDbEntity
  8
92000_TITLE
370
    13
100
AcDbText
 10
-116.9999999999995
 20
1.75
 30
0.0
 40
2.5
  1

 72
     1
 11
-116.9999999999995
 21
3.0
 31
0.0
100
AcDbAttribute
  2
DATUM
 70
     0
 74
     2
1001
AcDbBlockRepETag
1070
     1
1071
       16
1005
0
  0
ATTRIB
  5
1947
330
1942
100
AcDbEntity
  8
92000_TITLE
370
    13
100
AcDbText
 10
-91.99999999999954
 20
1.75
 30
0.0
 40
2.5
  1

 72
     1
 11
-91.99999999999954
 21
3.0
 31
0.0
100
AcDbAttribute
  2
NAME
 70
     0
 74
     2
1001
AcDbBlockRepETag
1070
     1
1071
       15
1005
0
  0
SEQEND
  5
1948
330
1942
100
AcDbEntity
  8
0
370
    18
  0
ENDBLK
  5
174B
330
1740
100
AcDbEntity
  8
0
100
AcDbBlockEnd
  0
BLOCK
  5
174D
330
174C
100
AcDbEntity
  8
0
100
AcDbBlockBegin
  2
Title_A0
 70
     2
 10
0.0
 20
0.0
 30
0.0
  3
Title_A0
  1

  4
Schriftfeld A0
  0
INSERT
  5
174E
330
174C
100
AcDbEntity
  8
0
100
AcDbBlockReference
  2
TYP_SYMB
 10
-135.0
 20
0.0
 30
0.0
  0
MTEXT
  5
174F
330
174C
100
AcDbEntity
  8
92000_TITLE
370
    13
100
AcDbMText
 10
-63.75
 20
3.0
 30
0.0
 40
2.5
 41
42.5
 71
     5
 72
     5
  1
Format/Size: DIN A0
 73
     1
 44
1.0
1001
ACAD
1000
MTEXTBEGIN
1070
    73
1070
     1
1070
    44
1040
1.0
1070
    74
1070
     0
1000
MTEXTEND
  0
INSERT
  5
1750
102
{ACAD_XDICTIONARY
360
1B36
102
}
330
174C
100
AcDbEntity
  8
0
370
    18
100
AcDbBlockReference
 66
     1
  2
*U12
 10
0.0
 20
0.0
 30
0.0
  0
ATTRIB
  5
1751
330
1750
100
AcDbEntity
  8
92000_TITLE
370
    13
100
AcDbText
 10
-8.009136915777162
 20
1.844905181593389
 30
0.0
 40
2.5
  1
1:1
 72
     1
 11
-6.384136915777162
 21
3.094905181593389
 31
0.0
100
AcDbAttribute
  2
MASSSTAB/SCALE:
 70
     0
 74
     2
1001
AcDbBlockRepETag
1070
     1
1071
       13
1005
0
  0
ATTRIB
  5
1752
330
1750
100
AcDbEntity
  8
92000_TITLE
370
    25
100
AcDbText
 10
-42.49999999999952
 20
12.25000000000011
 30
0.0
 40
3.5
  1

 72
     1
 11
-42.49999999999952
 21
14.00000000000011
 31
0.0
100
AcDbAttribute
  2
ZEICHNUNGSNAME
 70
     0
 74
     2
1001
AcDbBlockRepETag
1070
     1
1071
       14
1005
0
  0
ATTRIB
  5
1753
330
1750
100
AcDbEntity
  8
92000_TITLE
370
    13
100
AcDbText
 10
-42.49999999999952
 20
7.22778333016015
 30
0.0
 40
2.5
  1

 72
     1
 11
-42.49999999999952
 21
8.47778333016015
 31
0.0
100
AcDbAttribute
  2
ARTIKELNAME
 70
     0
 74
     2
1001
AcDbBlockRepETag
1070
     1
1071
       13
1005
0
  0
ATTRIB
  5
1754
330
1750
100
AcDbEntity
  8
92000_TITLE
370
    13
100
AcDbText
 10
-116.9999999999995
 20
1.75
 30
0.0
 40
2.5
  1

 72
     1
 11
-116.9999999999995
 21
3.0
 31
0.0
100
AcDbAttribute
  2
DATUM
 70
     0
 74
     2
1001
AcDbBlockRepETag
1070
     1
1071
       16
1005
0
  0
ATTRIB
  5
1755
330
1750
100
AcDbEntity
  8
92000_TITLE
370
    13
100
AcDbText
 10
-91.99999999999954
 20
1.75
 30
0.0
 40
2.5
  1

 72
     1
 11
-91.99999999999954
 21
3.0
 31
0.0
100
AcDbAttribute
  2
NAME
 70
     0
 74
     2
1001
AcDbBlockRepETag
1070
     1
1071
       15
1005
0
  0
SEQEND
  5
1756
330
1750
100
AcDbEntity
  8
0
370
    18
  0
ENDBLK
  5
1757
330
174C
100
AcDbEntity
  8
0
100
AcDbBlockEnd
  0
BLOCK
  5
175A
330
1758
100
AcDbEntity
  8
0
100
AcDbBlockBegin
  2
TYP_SYMB
 70
     0
 10
0.0
 20
0.0
 30
0.0
  3
TYP_SYMB
  1

  0
LINE
  5
175B
330
1758
100
AcDbEntity
  8
91100_TIP_SYM
 48
0.5
370
    18
100
AcDbLine
 10
-35.61364655357738
 20
9.0
 30
0.0
 11
-19.11364655357738
 21
9.0
 31
0.0
1001
AcDbBlockRepETag
1070
     1
1071
        0
1005
175B
  0
LINE
  5
175C
330
1758
100
AcDbEntity
  8
91200_TIP_SYMB
370
    18
100
AcDbLine
 10
-21.11364655357738
 20
4.0
 30
0.0
 11
-33.61364655357738
 21
5.5
 31
0.0
1001
AcDbBlockRepETag
1070
     1
1071
        1
1005
175C
  0
LINE
  5
175D
330
1758
100
AcDbEntity
  8
91200_TIP_SYMB
370
    18
100
AcDbLine
 10
-33.61364655357738
 20
12.5
 30
0.0
 11
-21.11364655357738
 21
14.0
 31
0.0
1001
AcDbBlockRepETag
1070
     1
1071
        2
1005
175D
  0
LINE
  5
175E
330
1758
100
AcDbEntity
  8
91200_TIP_SYMB
370
    18
100
AcDbLine
 10
-33.61364655357738
 20
5.5
 30
0.0
 11
-33.61364655357738
 21
12.5
 31
0.0
1001
AcDbBlockRepETag
1070
     1
1071
        3
1005
175E
  0
CIRCLE
  5
175F
330
1758
100
AcDbEntity
  8
91200_TIP_SYMB
370
    18
100
AcDbCircle
 10
-11.0
 20
9.0
 30
0.0
 40
5.0
1001
AcDbBlockRepETag
1070
     1
1071
        4
1005
175F
  0
LINE
  5
1760
330
1758
100
AcDbEntity
  8
91200_TIP_SYMB
370
    18
100
AcDbLine
 10
-21.11364655357738
 20
14.0
 30
0.0
 11
-21.11364655357738
 21
4.0
 31
0.0
1001
AcDbBlockRepETag
1070
     1
1071
        5
1005
1760
  0
CIRCLE
  5
1761
330
1758
100
AcDbEntity
  8
91200_TIP_SYMB
370
    18
100
AcDbCircle
 10
-11.0
 20
9.0
 30
0.0
 40
2.0
1001
AcDbBlockRepETag
1070
     1
1071
        6
1005
1761
  0
LINE
  5
1762
330
1758
100
AcDbEntity
  8
91100_TIP_SYM
 48
0.5
370
    18
100
AcDbLine
 10
-11.0
 20
16.0
 30
0.0
 11
-11.0
 21
2.0
 31
0.0
1001
AcDbBlockRepETag
1070
     1
1071
        7
1005
1762
  0
LINE
  5
1763
330
1758
100
AcDbEntity
  8
91100_TIP_SYM
 48
0.5
370
    18
100
AcDbLine
 10
-18.0
 20
9.0
 30
0.0
 11
-4.0
 21
9.0
 31
0.0
1001
AcDbBlockRepETag
1070
     1
1071
        8
1005
1763
  0
ENDBLK
  5
1764
330
1758
100
AcDbEntity
  8
0
100
AcDbBlockEnd
  0
BLOCK
  5
1767
330
1765
100
AcDbEntity
  8
0
100
AcDbBlockBegin
  2
*U9
 70
     3
 10
0.0
 20
0.0
 30
0.0
  3
*U9
  1

  0
LINE
  5
1CFC
330
1765
100
AcDbEntity
  8
91100_TIP_SYM
 48
0.5
370
    18
100
AcDbLine
 10
-170.6136465535774
 20
9.0
 30
0.0
 11
-154.1136465535774
 21
9.0
 31
0.0
1001
AcDbBlockRepETag
1070
     1
1071
        0
1005
1CFC
  0
LINE
  5
1CFD
330
1765
100
AcDbEntity
  8
91200_TIP_SYMB
370
    25
100
AcDbLine
 10
-156.1136465535773
 20
4.0
 30
0.0
 11
-168.6136465535773
 21
5.5
 31
0.0
1001
AcDbBlockRepETag
1070
     1
1071
        1
1005
1CFD
  0
LINE
  5
1CFE
330
1765
100
AcDbEntity
  8
91200_TIP_SYMB
370
    25
100
AcDbLine
 10
-168.6136465535773
 20
12.5
 30
0.0
 11
-156.1136465535773
 21
14.0
 31
0.0
1001
AcDbBlockRepETag
1070
     1
1071
        2
1005
1CFE
  0
LINE
  5
1CFF
330
1765
100
AcDbEntity
  8
91200_TIP_SYMB
370
    25
100
AcDbLine
 10
-168.6136465535773
 20
5.5
 30
0.0
 11
-168.6136465535773
 21
12.5
 31
0.0
1001
AcDbBlockRepETag
1070
     1
1071
        3
1005
1CFF
  0
CIRCLE
  5
1D00
330
1765
100
AcDbEntity
  8
91200_TIP_SYMB
370
    25
100
AcDbCircle
 10
-146.0
 20
9.0
 30
0.0
 40
5.0
1001
AcDbBlockRepETag
1070
     1
1071
        4
1005
1D00
  0
LINE
  5
1D01
330
1765
100
AcDbEntity
  8
91200_TIP_SYMB
370
    25
100
AcDbLine
 10
-156.1136465535773
 20
14.0
 30
0.0
 11
-156.1136465535773
 21
4.0
 31
0.0
1001
AcDbBlockRepETag
1070
     1
1071
        5
1005
1D01
  0
CIRCLE
  5
1D02
330
1765
100
AcDbEntity
  8
91200_TIP_SYMB
370
    25
100
AcDbCircle
 10
-146.0
 20
9.0
 30
0.0
 40
2.0
1001
AcDbBlockRepETag
1070
     1
1071
        6
1005
1D02
  0
LINE
  5
1D03
330
1765
100
AcDbEntity
  8
91100_TIP_SYM
 48
0.5
370
    18
100
AcDbLine
 10
-146.0
 20
16.0
 30
0.0
 11
-146.0
 21
2.0
 31
0.0
1001
AcDbBlockRepETag
1070
     1
1071
        7
1005
1D03
  0
LINE
  5
1D04
330
1765
100
AcDbEntity
  8
91100_TIP_SYM
 48
0.5
370
    18
100
AcDbLine
 10
-153.0
 20
9.0
 30
0.0
 11
-139.0
 21
9.0
 31
0.0
1001
AcDbBlockRepETag
1070
     1
1071
        8
1005
1D04
  0
LINE
  5
1D05
330
1765
100
AcDbEntity
  8
92000_TITLE
370
    25
100
AcDbLine
 10
-37.5
 20
0.0
 30
0.0
 11
-37.5
 21
6.0
 31
0.0
1001
GENIUS_GENREC_14
1002
{
1000
PYDIR
1011
-130.0
1021
18.0
1031
0.0
1002
}
1002
{
1000
PXDIR
1011
5.0
1021
0.0
1031
0.0
1002
}
1002
{
1000
PORI
1011
-130.0
1021
0.0
1031
0.0
1002
}
1002
{
1000
PINS
1011
-130.0
1021
0.0
1031
0.0
1002
}
1002
{
1000
HVAL
1000
18
1002
}
1002
{
1000
H
1070
     2
1002
}
1002
{
1000
WVAL
1000
135
1002
}
1002
{
1000
W
1070
     2
1002
}
1002
{
1000
C
1070
     1
1002
}
1001
GENIUS_GENOBJ-N-REC_13
1002
{
1000
OWNER
1000
GEN
1002
}
1001
GENIUS_GENODEF_13
1002
{
1000
HIER
1070
     0
1002
}
1002
{
1000
MANEDIT
1070
     0
1002
}
1002
{
1000
NOSEL
1070
     0
1002
}
1002
{
1000
BEHIND
1070
     0
1002
}
1002
{
1000
OTHER
1070
     0
1002
}
1002
{
1000
REACTOR
1002
}
1001
AcDbBlockRepETag
1070
     1
1071
       17
1005
1D05
  0
LINE
  5
1D06
330
1765
100
AcDbEntity
  8
92000_TITLE
370
    25
100
AcDbLine
 10
0.0
 20
0.0
 30
0.0
 11
0.0
 21
18.0
 31
0.0
1001
GENIUS_GENREC_14
1002
{
1000
PYDIR
1011
-135.0
1021
18.0
1031
0.0
1002
}
1002
{
1000
PXDIR
1011
0.0
1021
0.0
1031
0.0
1002
}
1002
{
1000
PORI
1011
-135.0
1021
0.0
1031
0.0
1002
}
1002
{
1000
PINS
1011
-135.0
1021
0.0
1031
0.0
1002
}
1002
{
1000
HVAL
1000
18
1002
}
1002
{
1000
H
1070
     2
1002
}
1002
{
1000
WVAL
1000
135
1002
}
1002
{
1000
W
1070
     2
1002
}
1002
{
1000
C
1070
     1
1002
}
1001
GENIUS_GENOBJ-N-REC_13
1002
{
1000
OWNER
1000
GEN
1002
}
1001
GENIUS_GENODEF_13
1002
{
1000
HIER
1070
     0
1002
}
1002
{
1000
MANEDIT
1070
     0
1002
}
1002
{
1000
NOSEL
1070
     0
1002
}
1002
{
1000
BEHIND
1070
     0
1002
}
1002
{
1000
OTHER
1070
     0
1002
}
1002
{
1000
REACTOR
1002
}
1001
AcDbBlockRepETag
1070
     1
1071
       18
1005
1D06
  0
INSERT
  5
1D07
330
1765
100
AcDbEntity
  8
0
370
    25
100
AcDbBlockReference
  2
text_allg
 10
-135.0
 20
18.0
 30
0.0
1001
AcDbBlockRepETag
1070
     1
1071
       19
1005
1D07
  0
MTEXT
  5
1D08
330
1765
100
AcDbEntity
  8
92000_TITLE
100
AcDbMText
 10
-110.0
 20
12.0
 30
0.0
 40
3.5
 41
40.0
 71
     5
 72
     5
  1
{\fSiemens Logo|b0|i0|c0|p2;s}
 73
     1
 44
1.0
1001
AcDbBlockRepETag
1070
     1
1071
       20
1005
1D08
1001
ACAD
1000
MTEXTBEGIN
1070
    73
1070
     1
1070
    44
1040
1.0
1070
    74
1070
     0
1000
MTEXTEND
  0
LINE
  5
1D09
330
1765
100
AcDbEntity
  8
92000_TITLE
370
    25
100
AcDbLine
 10
-135.0
 20
0.0
 30
0.0
 11
0.0
 21
0.0
 31
0.0
1001
GENIUS_GENREC_14
1002
{
1000
PYDIR
1011
-135.0
1021
18.0
1031
0.0
1002
}
1002
{
1000
PXDIR
1011
0.0
1021
0.0
1031
0.0
1002
}
1002
{
1000
PORI
1011
-135.0
1021
0.0
1031
0.0
1002
}
1002
{
1000
PINS
1011
-135.0
1021
0.0
1031
0.0
1002
}
1002
{
1000
HVAL
1000
18
1002
}
1002
{
1000
H
1070
     2
1002
}
1002
{
1000
WVAL
1000
135
1002
}
1002
{
1000
W
1070
     2
1002
}
1002
{
1000
C
1070
     1
1002
}
1001
GENIUS_GENOBJ-N-REC_13
1002
{
1000
OWNER
1000
GEN
1002
}
1001
GENIUS_GENODEF_13
1002
{
1000
HIER
1070
     0
1002
}
1002
{
1000
MANEDIT
1070
     0
1002
}
1002
{
1000
NOSEL
1070
     0
1002
}
1002
{
1000
BEHIND
1070
     0
1002
}
1002
{
1000
OTHER
1070
     0
1002
}
1002
{
1000
REACTOR
1002
}
1001
AcDbBlockRepETag
1070
     1
1071
       21
1005
1D09
  0
LINE
  5
1D0A
330
1765
100
AcDbEntity
  8
92000_TITLE
370
    25
100
AcDbLine
 10
0.0
 20
18.0
 30
0.0
 11
-135.0
 21
18.0
 31
0.0
1001
GENIUS_GENREC_14
1002
{
1000
PYDIR
1011
-135.0
1021
18.0
1031
0.0
1002
}
1002
{
1000
PXDIR
1011
0.0
1021
0.0
1031
0.0
1002
}
1002
{
1000
PORI
1011
-135.0
1021
0.0
1031
0.0
1002
}
1002
{
1000
PINS
1011
-135.0
1021
0.0
1031
0.0
1002
}
1002
{
1000
HVAL
1000
18
1002
}
1002
{
1000
H
1070
     2
1002
}
1002
{
1000
WVAL
1000
135
1002
}
1002
{
1000
W
1070
     2
1002
}
1002
{
1000
C
1070
     1
1002
}
1001
GENIUS_GENOBJ-N-REC_13
1002
{
1000
OWNER
1000
GEN
1002
}
1001
GENIUS_GENODEF_13
1002
{
1000
HIER
1070
     0
1002
}
1002
{
1000
MANEDIT
1070
     0
1002
}
1002
{
1000
NOSEL
1070
     0
1002
}
1002
{
1000
BEHIND
1070
     0
1002
}
1002
{
1000
OTHER
1070
     0
1002
}
1002
{
1000
REACTOR
1002
}
1001
AcDbBlockRepETag
1070
     1
1071
       22
1005
1D0A
  0
LINE
  5
1D0B
330
1765
100
AcDbEntity
  8
92000_TITLE
370
    25
100
AcDbLine
 10
0.0
 20
6.0
 30
0.0
 11
-135.0
 21
6.0
 31
0.0
1001
GENIUS_GENREC_14
1002
{
1000
PYDIR
1011
-135.0
1021
18.0
1031
0.0
1002
}
1002
{
1000
PXDIR
1011
0.0
1021
0.0
1031
0.0
1002
}
1002
{
1000
PORI
1011
-135.0
1021
0.0
1031
0.0
1002
}
1002
{
1000
PINS
1011
-135.0
1021
0.0
1031
0.0
1002
}
1002
{
1000
HVAL
1000
18
1002
}
1002
{
1000
H
1070
     2
1002
}
1002
{
1000
WVAL
1000
135
1002
}
1002
{
1000
W
1070
     2
1002
}
1002
{
1000
C
1070
     1
1002
}
1001
GENIUS_GENOBJ-N-REC_13
1002
{
1000
OWNER
1000
GEN
1002
}
1001
GENIUS_GENODEF_13
1002
{
1000
HIER
1070
     0
1002
}
1002
{
1000
MANEDIT
1070
     0
1002
}
1002
{
1000
NOSEL
1070
     0
1002
}
1002
{
1000
BEHIND
1070
     0
1002
}
1002
{
1000
OTHER
1070
     0
1002
}
1002
{
1000
REACTOR
1002
}
1001
AcDbBlockRepETag
1070
     1
1071
       23
1005
1D0B
  0
MTEXT
  5
1D0C
330
1765
100
AcDbEntity
  8
92000_TITLE
370
    25
100
AcDbMText
 10
-127.75
 20
3.0
 30
0.0
 40
2.5
 41
11.0
 71
     5
 72
     5
  1
Date:
 73
     1
 44
1.0
1001
AcDbBlockRepETag
1070
     1
1071
       24
1005
1D0C
1001
ACAD
1000
MTEXTBEGIN
1070
    73
1070
     1
1070
    44
1040
1.0
1070
    74
1070
     0
1000
MTEXTEND
  0
LINE
  5
1D0D
330
1765
100
AcDbEntity
  8
92000_TITLE
370
    25
100
AcDbLine
 10
-135.0
 20
18.0
 30
0.0
 11
-135.0
 21
0.0
 31
0.0
1001
GENIUS_GENREC_14
1002
{
1000
PYDIR
1011
-135.0
1021
18.0
1031
0.0
1002
}
1002
{
1000
PXDIR
1011
0.0
1021
0.0
1031
0.0
1002
}
1002
{
1000
PORI
1011
-135.0
1021
0.0
1031
0.0
1002
}
1002
{
1000
PINS
1011
-135.0
1021
0.0
1031
0.0
1002
}
1002
{
1000
HVAL
1000
18
1002
}
1002
{
1000
H
1070
     2
1002
}
1002
{
1000
WVAL
1000
135
1002
}
1002
{
1000
W
1070
     2
1002
}
1002
{
1000
C
1070
     1
1002
}
1001
GENIUS_GENOBJ-N-REC_13
1002
{
1000
OWNER
1000
GEN
1002
}
1001
GENIUS_GENODEF_13
1002
{
1000
HIER
1070
     0
1002
}
1002
{
1000
MANEDIT
1070
     0
1002
}
1002
{
1000
NOSEL
1070
     0
1002
}
1002
{
1000
BEHIND
1070
     0
1002
}
1002
{
1000
OTHER
1070
     0
1002
}
1002
{
1000
REACTOR
1002
}
1001
AcDbBlockRepETag
1070
     1
1071
       25
1005
1D0D
  0
MTEXT
  5
1D0E
330
1765
100
AcDbEntity
  8
92000_TITLE
370
    25
100
AcDbMText
 10
-102.75
 20
3.0
 30
0.0
 40
2.5
 41
11.0
 71
     5
 72
     5
  1
Name:
 73
     1
 44
1.0
1001
AcDbBlockRepETag
1070
     1
1071
        9
1005
1D0E
1001
ACAD
1000
MTEXTBEGIN
1070
    73
1070
     1
1070
    44
1040
1.0
1070
    74
1070
     0
1000
MTEXTEND
  0
LINE
  5
1D0F
330
1765
100
AcDbEntity
  8
92000_TITLE
100
AcDbLine
 10
-110.0
 20
6.0
 30
0.0
 11
-110.0
 21
0.0
 31
0.0
1001
GENIUS_GENREC_14
1002
{
1000
PYDIR
1011
-135.0
1021
18.0
1031
0.0
1002
}
1002
{
1000
PXDIR
1011
0.0
1021
0.0
1031
0.0
1002
}
1002
{
1000
PORI
1011
-135.0
1021
0.0
1031
0.0
1002
}
1002
{
1000
PINS
1011
-135.0
1021
0.0
1031
0.0
1002
}
1002
{
1000
HVAL
1000
18
1002
}
1002
{
1000
H
1070
     2
1002
}
1002
{
1000
WVAL
1000
135
1002
}
1002
{
1000
W
1070
     2
1002
}
1002
{
1000
C
1070
     1
1002
}
1001
GENIUS_GENOBJ-N-REC_13
1002
{
1000
OWNER
1000
GEN
1002
}
1001
GENIUS_GENODEF_13
1002
{
1000
HIER
1070
     0
1002
}
1002
{
1000
MANEDIT
1070
     0
1002
}
1002
{
1000
NOSEL
1070
     0
1002
}
1002
{
1000
BEHIND
1070
     0
1002
}
1002
{
1000
OTHER
1070
     0
1002
}
1002
{
1000
REACTOR
1002
}
1001
AcDbBlockRepETag
1070
     1
1071
       10
1005
1D0F
  0
TEXT
  5
1D10
330
1765
100
AcDbEntity
  8
92000_TITLE
370
    25
100
AcDbText
 10
-33.625
 20
1.750946969696965
 30
0.0
 40
2.5
  1
Massstab/Scale:
100
AcDbText
1001
AcDbBlockRepETag
1070
     1
1071
       26
1005
1D10
  0
LINE
  5
1D11
330
1765
100
AcDbEntity
  8
92000_TITLE
370
    25
100
AcDbLine
 10
-85.0
 20
18.0
 30
0.0
 11
-85.0
 21
0.0
 31
0.0
1001
GENIUS_GENREC_14
1002
{
1000
PYDIR
1011
-135.0
1021
18.0
1031
0.0
1002
}
1002
{
1000
PXDIR
1011
0.0
1021
0.0
1031
0.0
1002
}
1002
{
1000
PORI
1011
-135.0
1021
0.0
1031
0.0
1002
}
1002
{
1000
PINS
1011
-135.0
1021
0.0
1031
0.0
1002
}
1002
{
1000
HVAL
1000
18
1002
}
1002
{
1000
H
1070
     2
1002
}
1002
{
1000
WVAL
1000
135
1002
}
1002
{
1000
W
1070
     2
1002
}
1002
{
1000
C
1070
     1
1002
}
1001
GENIUS_GENOBJ-N-REC_13
1002
{
1000
OWNER
1000
GEN
1002
}
1001
GENIUS_GENODEF_13
1002
{
1000
HIER
1070
     0
1002
}
1002
{
1000
MANEDIT
1070
     0
1002
}
1002
{
1000
NOSEL
1070
     0
1002
}
1002
{
1000
BEHIND
1070
     0
1002
}
1002
{
1000
OTHER
1070
     0
1002
}
1002
{
1000
REACTOR
1002
}
1001
AcDbBlockRepETag
1070
     1
1071
       12
1005
1D11
  0
LINE
  5
1D12
330
1765
100
AcDbEntity
  8
92000_TITLE
370
    25
100
AcDbLine
 10
-37.5
 20
0.0
 30
0.0
 11
-37.5
 21
6.0
 31
0.0
1001
GENIUS_GENREC_14
1002
{
1000
PYDIR
1011
-130.0
1021
18.0
1031
0.0
1002
}
1002
{
1000
PXDIR
1011
5.0
1021
0.0
1031
0.0
1002
}
1002
{
1000
PORI
1011
-130.0
1021
0.0
1031
0.0
1002
}
1002
{
1000
PINS
1011
-130.0
1021
0.0
1031
0.0
1002
}
1002
{
1000
HVAL
1000
18
1002
}
1002
{
1000
H
1070
     2
1002
}
1002
{
1000
WVAL
1000
135
1002
}
1002
{
1000
W
1070
     2
1002
}
1002
{
1000
C
1070
     1
1002
}
1001
GENIUS_GENOBJ-N-REC_13
1002
{
1000
OWNER
1000
GEN
1002
}
1001
GENIUS_GENODEF_13
1002
{
1000
HIER
1070
     0
1002
}
1002
{
1000
MANEDIT
1070
     0
1002
}
1002
{
1000
NOSEL
1070
     0
1002
}
1002
{
1000
BEHIND
1070
     0
1002
}
1002
{
1000
OTHER
1070
     0
1002
}
1002
{
1000
REACTOR
1002
}
1001
AcDbBlockRepETag
1070
     1
1071
       27
1005
1D12
  0
ATTDEF
  5
1D13
330
1765
100
AcDbEntity
  8
92000_TITLE
370
    25
100
AcDbText
 10
-8.009136915777162
 20
1.844905181593389
 30
0.0
 40
2.5
  1
1:1
 72
     1
 11
-6.384136915777162
 21
3.094905181593389
 31
0.0
100
AcDbAttributeDefinition
  3
Massstab
  2
MASSSTAB/SCALE:
 70
     0
 74
     2
1001
AcDbBlockRepETag
1070
     1
1071
       13
1005
0
  0
ATTDEF
  5
1D14
330
1765
100
AcDbEntity
  8
92000_TITLE
370
    35
100
AcDbText
 10
-42.49999999999952
 20
12.25000000000011
 30
0.0
 40
3.5
  1

 72
     1
 11
-42.49999999999952
 21
14.00000000000011
 31
0.0
100
AcDbAttributeDefinition
  3
Z-Name
  2
ZEICHNUNGSNAME
 70
     0
 74
     2
1001
AcDbBlockRepETag
1070
     1
1071
       14
1005
0
  0
ATTDEF
  5
1D15
330
1765
100
AcDbEntity
  8
92000_TITLE
370
    25
100
AcDbText
 10
-42.49999999999952
 20
7.22778333016015
 30
0.0
 40
2.5
  1

 72
     1
 11
-42.49999999999952
 21
8.47778333016015
 31
0.0
100
AcDbAttributeDefinition
  3
A-Name
  2
ARTIKELNAME
 70
     0
 74
     2
1001
AcDbBlockRepETag
1070
     1
1071
       28
1005
0
  0
ATTDEF
  5
1D16
330
1765
100
AcDbEntity
  8
92000_TITLE
370
    25
100
AcDbText
 10
-116.9999999999995
 20
1.75
 30
0.0
 40
2.5
  1

 72
     1
 11
-116.9999999999995
 21
3.0
 31
0.0
100
AcDbAttributeDefinition
  3
Datum
  2
DATUM
 70
     0
 74
     2
1001
AcDbBlockRepETag
1070
     1
1071
       16
1005
0
  0
ATTDEF
  5
1D17
330
1765
100
AcDbEntity
  8
92000_TITLE
370
    25
100
AcDbText
 10
-91.99999999999954
 20
1.75
 30
0.0
 40
2.5
  1

 72
     1
 11
-91.99999999999954
 21
3.0
 31
0.0
100
AcDbAttributeDefinition
  3
Name
  2
NAME
 70
     0
 74
     2
1001
AcDbBlockRepETag
1070
     1
1071
       15
1005
0
  0
ENDBLK
  5
177A
330
1765
100
AcDbEntity
  8
0
100
AcDbBlockEnd
  0
BLOCK
  5
177D
330
177B
100
AcDbEntity
  8
0
370
    18
100
AcDbBlockBegin
  2
text_allg
 70
     0
 10
0.0
 20
0.0
 30
0.0
  3
text_allg
  1

  0
TEXT
  5
177E
330
177B
100
AcDbEntity
  8
0
370
    25
100
AcDbText
 10
-0.0028789134175895
 20
6.473535615360106
 30
0.0
 40
2.5
  1
Alle Bemassungswerte sind in Millimeter (mm) angegeben
100
AcDbText
1001
AcDbBlockRepETag
1070
     1
1071
        0
1005
177E
  0
TEXT
  5
177F
330
177B
100
AcDbEntity
  8
0
370
    25
100
AcDbText
 10
-0.0028789134175895
 20
2.965492351154351
 30
0.0
 40
2.5
  1
All dimensions are in millimeters (mm)
100
AcDbText
1001
AcDbBlockRepETag
1070
     1
1071
        1
1005
177F
  0
ENDBLK
  5
1780
330
177B
100
AcDbEntity
  8
0
370
    18
100
AcDbBlockEnd
  0
BLOCK
  5
17F2
330
17CE
100
AcDbEntity
  8
0
370
    18
100
AcDbBlockBegin
  2
Rahmen
 70
     0
 10
0.0
 20
0.0
 30
0.0
  3
Rahmen
  1

  0
LWPOLYLINE
  5
17CF
330
17CE
100
AcDbEntity
  8
90200_FRAME_SIZE
100
AcDbPolyline
 90
        4
 70
     1
 43
0.0
 10
-13.33508291258363
 20
487.1504543301591
 10
1216.664917087416
 20
487.1504543301591
 10
1216.664917087416
 20
1367.150454330159
 10
-13.33508291258363
 20
1367.15045433016
1001
GENIUS_GENREC_14
1002
{
1000
PYDIR
1011
-13.33508291258363
1021
1367.150454330159
1031
0.0
1002
}
1002
{
1000
PXDIR
1011
1216.664917087416
1021
487.1504543301591
1031
0.0
1002
}
1002
{
1000
PORI
1011
-13.33508291258363
1021
487.1504543301591
1031
0.0
1002
}
1002
{
1000
PINS
1011
-13.33508291258363
1021
487.1504543301591
1031
0.0
1002
}
1002
{
1000
HVAL
1000
880
1002
}
1002
{
1000
H
1070
     2
1002
}
1002
{
1000
WVAL
1000
1230
1002
}
1002
{
1000
W
1070
     2
1002
}
1002
{
1000
C
1070
     1
1002
}
1001
GENIUS_GENOBJ-N-REC_13
1002
{
1000
OWNER
1000
GEN
1002
}
1001
GENIUS_GENODEF_13
1002
{
1000
HIER
1070
     0
1002
}
1002
{
1000
MANEDIT
1070
     0
1002
}
1002
{
1000
NOSEL
1070
     0
1002
}
1002
{
1000
BEHIND
1070
     0
1002
}
1002
{
1000
OTHER
1070
     0
1002
}
1002
{
1000
REACTOR
1002
}
1001
AcDbBlockRepETag
1070
     1
1071
        0
1005
17CF
  0
LWPOLYLINE
  5
17D0
330
17CE
100
AcDbEntity
  8
90200_FRAME_SIZE
100
AcDbPolyline
 90
        4
 70
     1
 43
0.0
 10
1298.004347295625
 20
487.1504543301591
 10
2178.004347295626
 20
487.1504543301591
 10
2178.004347295626
 20
1112.150454330159
 10
1298.004347295625
 20
1112.150454330159
1001
GENIUS_GENREC_14
1002
{
1000
PYDIR
1011
1298.004347295625
1021
1112.150454330159
1031
0.0
1002
}
1002
{
1000
PXDIR
1011
2178.004347295626
1021
487.1504543301591
1031
0.0
1002
}
1002
{
1000
PORI
1011
1298.004347295625
1021
487.1504543301591
1031
0.0
1002
}
1002
{
1000
PINS
1011
1298.004347295625
1021
487.1504543301591
1031
0.0
1002
}
1002
{
1000
HVAL
1000
625
1002
}
1002
{
1000
H
1070
     2
1002
}
1002
{
1000
WVAL
1000
880
1002
}
1002
{
1000
W
1070
     2
1002
}
1002
{
1000
C
1070
     1
1002
}
1001
GENIUS_GENOBJ-N-REC_13
1002
{
1000
OWNER
1000
GEN
1002
}
1001
GENIUS_GENODEF_13
1002
{
1000
HIER
1070
     0
1002
}
1002
{
1000
MANEDIT
1070
     0
1002
}
1002
{
1000
NOSEL
1070
     0
1002
}
1002
{
1000
BEHIND
1070
     0
1002
}
1002
{
1000
OTHER
1070
     0
1002
}
1002
{
1000
REACTOR
1002
}
1001
AcDbBlockRepETag
1070
     1
1071
        1
1005
17D0
  0
LWPOLYLINE
  5
17D1
330
17CE
100
AcDbEntity
  8
90200_FRAME_SIZE
100
AcDbPolyline
 90
        4
 70
     1
 43
0.0
 10
-15.5
 20
-15.0
 10
609.4999999999997
 20
-15.0
 10
609.4999999999997
 20
435.0
 10
-15.5
 20
435.0000000000001
1001
GENIUS_GENREC_14
1002
{
1000
PYDIR
1011
-15.5
1021
435.0
1031
0.0
1002
}
1002
{
1000
PXDIR
1011
609.4999999999997
1021
-15.0
1031
0.0
1002
}
1002
{
1000
PORI
1011
-15.5
1021
-15.0
1031
0.0
1002
}
1002
{
1000
PINS
1011
-15.5
1021
-15.0
1031
0.0
1002
}
1002
{
1000
HVAL
1000
450
1002
}
1002
{
1000
H
1070
     2
1002
}
1002
{
1000
WVAL
1000
625
1002
}
1002
{
1000
W
1070
     2
1002
}
1002
{
1000
C
1070
     1
1002
}
1001
GENIUS_GENODEF_13
1002
{
1000
HIER
1070
     0
1002
}
1002
{
1000
MANEDIT
1070
     0
1002
}
1002
{
1000
NOSEL
1070
     0
1002
}
1002
{
1000
BEHIND
1070
     0
1002
}
1002
{
1000
OTHER
1070
     0
1002
}
1002
{
1000
REACTOR
1002
}
1001
GENIUS_GENOBJ-N-REC_13
1002
{
1000
OWNER
1000
GEN
1002
}
1001
AcDbBlockRepETag
1070
     1
1071
        2
1005
17D1
  0
LWPOLYLINE
  5
17D2
330
17CE
100
AcDbEntity
  8
90200_FRAME_SIZE
100
AcDbPolyline
 90
        4
 70
     1
 43
0.0
 10
1185.556762984221
 20
-15.0
 10
1515.556762984221
 20
-15.0
 10
1515.556762984221
 20
225.0
 10
1185.556762984221
 20
225.0
1001
GENIUS_GENREC_14
1002
{
1000
PYDIR
1011
1185.556762984221
1021
225.0
1031
0.0
1002
}
1002
{
1000
PXDIR
1011
1515.556762984221
1021
-15.0
1031
0.0
1002
}
1002
{
1000
PORI
1011
1185.556762984221
1021
-15.0
1031
0.0
1002
}
1002
{
1000
PINS
1011
1185.556762984221
1021
-15.0
1031
0.0
1002
}
1002
{
1000
HVAL
1000
240
1002
}
1002
{
1000
H
1070
     2
1002
}
1002
{
1000
WVAL
1000
330
1002
}
1002
{
1000
W
1070
     2
1002
}
1002
{
1000
C
1070
     1
1002
}
1001
GENIUS_GENOBJ-N-REC_13
1002
{
1000
OWNER
1000
GEN
1002
}
1001
GENIUS_GENODEF_13
1002
{
1000
HIER
1070
     0
1002
}
1002
{
1000
MANEDIT
1070
     0
1002
}
1002
{
1000
NOSEL
1070
     0
1002
}
1002
{
1000
BEHIND
1070
     0
1002
}
1002
{
1000
OTHER
1070
     0
1002
}
1002
{
1000
REACTOR
1002
}
1001
AcDbBlockRepETag
1070
     1
1071
        4
1005
17D2
  0
LWPOLYLINE
  5
17D3
330
17CE
100
AcDbEntity
  8
90200_FRAME_SIZE
100
AcDbPolyline
 90
        4
 70
     1
 43
0.0
 10
1600.393688952082
 20
-31.5
 10
1840.393688952081
 20
-31.5
 10
1840.393688952081
 20
298.5
 10
1600.393688952082
 20
298.5
1001
GENIUS_GENREC_14
1002
{
1000
PYDIR
1011
1600.393688952082
1021
298.5
1031
0.0
1002
}
1002
{
1000
PXDIR
1011
1840.393688952081
1021
-31.5
1031
0.0
1002
}
1002
{
1000
PORI
1011
1600.393688952082
1021
-31.5
1031
0.0
1002
}
1002
{
1000
PINS
1011
1600.393688952082
1021
-31.5
1031
0.0
1002
}
1002
{
1000
HVAL
1000
330
1002
}
1002
{
1000
H
1070
     2
1002
}
1002
{
1000
WVAL
1000
240
1002
}
1002
{
1000
W
1070
     2
1002
}
1002
{
1000
C
1070
     1
1002
}
1001
GENIUS_GENODEF_13
1002
{
1000
HIER
1070
     0
1002
}
1002
{
1000
MANEDIT
1070
     0
1002
}
1002
{
1000
NOSEL
1070
     0
1002
}
1002
{
1000
BEHIND
1070
     0
1002
}
1002
{
1000
OTHER
1070
     0
1002
}
1002
{
1000
REACTOR
1002
}
1001
GENIUS_GENOBJ-N-REC_13
1002
{
1000
OWNER
1000
GEN
1002
}
1001
AcDbBlockRepETag
1070
     1
1071
        5
1005
17D3
  0
LWPOLYLINE
  5
17D4
330
17CE
100
AcDbEntity
  8
90100_FRAME_THICK
100
AcDbPolyline
 90
        4
 70
     1
 43
0.0
 10
7.16491708741637
 20
506.6504543301594
 10
1196.164917087416
 20
506.6504543301594
 10
1196.164917087416
 20
1347.650454330159
 10
7.16491708741637
 20
1347.65045433016
1001
GENIUS_GENREC_14
1002
{
1000
PYDIR
1011
7.16491708741637
1021
1347.650454330159
1031
0.0
1002
}
1002
{
1000
PXDIR
1011
1196.164917087416
1021
506.6504543301594
1031
0.0
1002
}
1002
{
1000
PORI
1011
7.16491708741637
1021
506.6504543301594
1031
0.0
1002
}
1002
{
1000
PINS
1011
7.16491708741637
1021
506.6504543301594
1031
0.0
1002
}
1002
{
1000
HVAL
1000
841
1002
}
1002
{
1000
H
1070
     2
1002
}
1002
{
1000
WVAL
1000
1189
1002
}
1002
{
1000
W
1070
     2
1002
}
1002
{
1000
C
1070
     1
1002
}
1001
GENIUS_GENOBJ-N-REC_13
1002
{
1000
OWNER
1000
GEN
1002
}
1001
GENIUS_GENODEF_13
1002
{
1000
HIER
1070
     0
1002
}
1002
{
1000
MANEDIT
1070
     0
1002
}
1002
{
1000
NOSEL
1070
     0
1002
}
1002
{
1000
BEHIND
1070
     0
1002
}
1002
{
1000
OTHER
1070
     0
1002
}
1002
{
1000
REACTOR
1002
}
1001
AcDbBlockRepETag
1070
     1
1071
        6
1005
17D4
  0
LWPOLYLINE
  5
17D5
330
17CE
100
AcDbEntity
  8
90000_FRAME_THIN
100
AcDbPolyline
 90
        4
 70
     1
 43
0.0
 10
12.16491708741637
 20
511.6504543301592
 10
1191.164917087416
 20
511.6504543301592
 10
1191.164917087416
 20
1342.650454330159
 10
12.16491708741637
 20
1342.65045433016
1001
GENIUS_GENREC_14
1002
{
1000
PYDIR
1011
7.16491708741637
1021
1347.650454330159
1031
0.0
1002
}
1002
{
1000
PXDIR
1011
1196.164917087416
1021
506.6504543301594
1031
0.0
1002
}
1002
{
1000
PORI
1011
7.16491708741637
1021
506.6504543301594
1031
0.0
1002
}
1002
{
1000
PINS
1011
7.16491708741637
1021
506.6504543301594
1031
0.0
1002
}
1002
{
1000
HVAL
1000
841
1002
}
1002
{
1000
H
1070
     2
1002
}
1002
{
1000
WVAL
1000
1189
1002
}
1002
{
1000
W
1070
     2
1002
}
1002
{
1000
C
1070
     1
1002
}
1001
GENIUS_GENOBJ-N-REC_13
1002
{
1000
OWNER
1000
GEN
1002
}
1001
GENIUS_GENODEF_13
1002
{
1000
HIER
1070
     0
1002
}
1002
{
1000
MANEDIT
1070
     0
1002
}
1002
{
1000
NOSEL
1070
     0
1002
}
1002
{
1000
BEHIND
1070
     0
1002
}
1002
{
1000
OTHER
1070
     0
1002
}
1002
{
1000
REACTOR
1002
}
1001
AcDbBlockRepETag
1070
     1
1071
        7
1005
17D5
  0
LWPOLYLINE
  5
17D6
330
17CE
100
AcDbEntity
  8
90100_FRAME_THICK
100
AcDbPolyline
 90
        4
 70
     1
 43
0.0
 10
1317.504347295625
 20
502.6504543301594
 10
2158.504347295625
 20
502.6504543301594
 10
2158.504347295625
 20
1096.650454330159
 10
1317.504347295625
 20
1096.650454330159
1001
GENIUS_GENREC_14
1002
{
1000
PYDIR
1011
1317.504347295625
1021
1096.650454330159
1031
0.0
1002
}
1002
{
1000
PXDIR
1011
2158.504347295625
1021
502.6504543301594
1031
0.0
1002
}
1002
{
1000
PORI
1011
1317.504347295625
1021
502.6504543301594
1031
0.0
1002
}
1002
{
1000
PINS
1011
1317.504347295625
1021
502.6504543301594
1031
0.0
1002
}
1002
{
1000
HVAL
1000
594
1002
}
1002
{
1000
H
1070
     2
1002
}
1002
{
1000
WVAL
1000
841
1002
}
1002
{
1000
W
1070
     2
1002
}
1002
{
1000
C
1070
     1
1002
}
1001
GENIUS_GENOBJ-N-REC_13
1002
{
1000
OWNER
1000
GEN
1002
}
1001
GENIUS_GENODEF_13
1002
{
1000
HIER
1070
     0
1002
}
1002
{
1000
MANEDIT
1070
     0
1002
}
1002
{
1000
NOSEL
1070
     0
1002
}
1002
{
1000
BEHIND
1070
     0
1002
}
1002
{
1000
OTHER
1070
     0
1002
}
1002
{
1000
REACTOR
1002
}
1001
AcDbBlockRepETag
1070
     1
1071
        8
1005
17D6
  0
LWPOLYLINE
  5
17D7
330
17CE
100
AcDbEntity
  8
90000_FRAME_THIN
100
AcDbPolyline
 90
        4
 70
     1
 43
0.0
 10
1322.504347295625
 20
507.6504543301592
 10
2153.504347295625
 20
507.6504543301592
 10
2153.504347295625
 20
1091.650454330159
 10
1322.504347295625
 20
1091.650454330159
1001
GENIUS_GENREC_14
1002
{
1000
PYDIR
1011
1317.504347295625
1021
1096.650454330159
1031
0.0
1002
}
1002
{
1000
PXDIR
1011
2158.504347295625
1021
502.6504543301594
1031
0.0
1002
}
1002
{
1000
PORI
1011
1317.504347295625
1021
502.6504543301594
1031
0.0
1002
}
1002
{
1000
PINS
1011
1317.504347295625
1021
502.6504543301594
1031
0.0
1002
}
1002
{
1000
HVAL
1000
594
1002
}
1002
{
1000
H
1070
     2
1002
}
1002
{
1000
WVAL
1000
841
1002
}
1002
{
1000
W
1070
     2
1002
}
1002
{
1000
C
1070
     1
1002
}
1001
GENIUS_GENOBJ-N-REC_13
1002
{
1000
OWNER
1000
GEN
1002
}
1001
GENIUS_GENODEF_13
1002
{
1000
HIER
1070
     0
1002
}
1002
{
1000
MANEDIT
1070
     0
1002
}
1002
{
1000
NOSEL
1070
     0
1002
}
1002
{
1000
BEHIND
1070
     0
1002
}
1002
{
1000
OTHER
1070
     0
1002
}
1002
{
1000
REACTOR
1002
}
1001
AcDbBlockRepETag
1070
     1
1071
        9
1005
17D7
  0
LWPOLYLINE
  5
17D8
330
17CE
100
AcDbEntity
  8
90100_FRAME_THICK
100
AcDbPolyline
 90
        4
 70
     1
 43
0.0
 10
0.0
 20
0.0
 10
594.0
 20
0.0
 10
594.0
 20
420.0
 10
0.0
 20
420.0000000000001
1001
GENIUS_GENREC_14
1002
{
1000
PYDIR
1011
0.0
1021
420.0
1031
0.0
1002
}
1002
{
1000
PXDIR
1011
594.0
1021
0.0
1031
0.0
1002
}
1002
{
1000
PORI
1011
0.0
1021
0.0
1031
0.0
1002
}
1002
{
1000
PINS
1011
0.0
1021
0.0
1031
0.0
1002
}
1002
{
1000
HVAL
1000
420
1002
}
1002
{
1000
H
1070
     2
1002
}
1002
{
1000
WVAL
1000
594
1002
}
1002
{
1000
W
1070
     2
1002
}
1002
{
1000
C
1070
     1
1002
}
1001
GENIUS_GENODEF_13
1002
{
1000
HIER
1070
     0
1002
}
1002
{
1000
MANEDIT
1070
     0
1002
}
1002
{
1000
NOSEL
1070
     0
1002
}
1002
{
1000
BEHIND
1070
     0
1002
}
1002
{
1000
OTHER
1070
     0
1002
}
1002
{
1000
REACTOR
1002
}
1001
GENIUS_GENOBJ-N-REC_13
1002
{
1000
OWNER
1000
GEN
1002
}
1001
AcDbBlockRepETag
1070
     1
1071
       10
1005
17D8
  0
LWPOLYLINE
  5
17D9
330
17CE
100
AcDbEntity
  8
90100_FRAME_THICK
100
AcDbPolyline
 90
        4
 70
     1
 43
0.0
 10
1202.056762984222
 20
0.0
 10
1499.056762984222
 20
0.0
 10
1499.056762984222
 20
210.0
 10
1202.056762984222
 20
210.0
1001
GENIUS_GENREC_14
1002
{
1000
PYDIR
1011
1202.056762984222
1021
210.0
1031
0.0
1002
}
1002
{
1000
PXDIR
1011
1499.056762984222
1021
0.0
1031
0.0
1002
}
1002
{
1000
PORI
1011
1202.056762984222
1021
0.0
1031
0.0
1002
}
1002
{
1000
PINS
1011
1202.056762984222
1021
0.0
1031
0.0
1002
}
1002
{
1000
HVAL
1000
210
1002
}
1002
{
1000
H
1070
     2
1002
}
1002
{
1000
WVAL
1000
297
1002
}
1002
{
1000
W
1070
     2
1002
}
1002
{
1000
C
1070
     1
1002
}
1001
GENIUS_GENODEF_13
1002
{
1000
HIER
1070
     0
1002
}
1002
{
1000
MANEDIT
1070
     0
1002
}
1002
{
1000
NOSEL
1070
     0
1002
}
1002
{
1000
BEHIND
1070
     0
1002
}
1002
{
1000
OTHER
1070
     0
1002
}
1002
{
1000
REACTOR
1002
}
1001
GENIUS_GENOBJ-N-REC_13
1002
{
1000
OWNER
1000
GEN
1002
}
1001
AcDbBlockRepETag
1070
     1
1071
       12
1005
17D9
  0
LWPOLYLINE
  5
17DA
330
17CE
100
AcDbEntity
  8
90100_FRAME_THICK
100
AcDbPolyline
 90
        4
 70
     1
 43
0.0
 10
1615.393688952082
 20
-15.0
 10
1825.393688952082
 20
-15.0
 10
1825.393688952082
 20
282.0
 10
1615.393688952082
 20
282.0
1001
GENIUS_GENREC_14
1002
{
1000
PYDIR
1011
1615.393688952082
1021
282.0
1031
0.0
1002
}
1002
{
1000
PXDIR
1011
1825.393688952082
1021
-15.0
1031
0.0
1002
}
1002
{
1000
PORI
1011
1615.393688952082
1021
-15.0
1031
0.0
1002
}
1002
{
1000
PINS
1011
1615.393688952082
1021
-15.0
1031
0.0
1002
}
1002
{
1000
HVAL
1000
297
1002
}
1002
{
1000
H
1070
     2
1002
}
1002
{
1000
WVAL
1000
210
1002
}
1002
{
1000
W
1070
     2
1002
}
1002
{
1000
C
1070
     1
1002
}
1001
GENIUS_GENODEF_13
1002
{
1000
HIER
1070
     0
1002
}
1002
{
1000
MANEDIT
1070
     0
1002
}
1002
{
1000
NOSEL
1070
     0
1002
}
1002
{
1000
BEHIND
1070
     0
1002
}
1002
{
1000
OTHER
1070
     0
1002
}
1002
{
1000
REACTOR
1002
}
1001
GENIUS_GENOBJ-N-REC_13
1002
{
1000
OWNER
1000
GEN
1002
}
1001
AcDbBlockRepETag
1070
     1
1071
       13
1005
17DA
  0
LWPOLYLINE
  5
17DB
330
17CE
100
AcDbEntity
  8
90000_FRAME_THIN
100
AcDbPolyline
 90
        4
 70
     1
 43
0.0
 10
5.0
 20
5.0
 10
589.0
 20
5.0
 10
589.0
 20
415.0
 10
5.0
 20
415.0000000000002
1001
GENIUS_GENREC_14
1002
{
1000
PYDIR
1011
0.0
1021
420.0
1031
0.0
1002
}
1002
{
1000
PXDIR
1011
594.0
1021
0.0
1031
0.0
1002
}
1002
{
1000
PORI
1011
0.0
1021
0.0
1031
0.0
1002
}
1002
{
1000
PINS
1011
0.0
1021
0.0
1031
0.0
1002
}
1002
{
1000
HVAL
1000
420
1002
}
1002
{
1000
H
1070
     2
1002
}
1002
{
1000
WVAL
1000
594
1002
}
1002
{
1000
W
1070
     2
1002
}
1002
{
1000
C
1070
     1
1002
}
1001
GENIUS_GENODEF_13
1002
{
1000
HIER
1070
     0
1002
}
1002
{
1000
MANEDIT
1070
     0
1002
}
1002
{
1000
NOSEL
1070
     0
1002
}
1002
{
1000
BEHIND
1070
     0
1002
}
1002
{
1000
OTHER
1070
     0
1002
}
1002
{
1000
REACTOR
1002
}
1001
GENIUS_GENOBJ-N-REC_13
1002
{
1000
OWNER
1000
GEN
1002
}
1001
AcDbBlockRepETag
1070
     1
1071
       14
1005
17DB
  0
LWPOLYLINE
  5
17DC
330
17CE
100
AcDbEntity
  8
90000_FRAME_THIN
100
AcDbPolyline
 90
        4
 70
     1
 43
0.0
 10
1207.056762984221
 20
5.0
 10
1494.056762984222
 20
5.0
 10
1494.056762984222
 20
205.0
 10
1207.056762984221
 20
205.0
1001
GENIUS_GENREC_14
1002
{
1000
PYDIR
1011
1202.056762984222
1021
210.0
1031
0.0
1002
}
1002
{
1000
PXDIR
1011
1499.056762984222
1021
0.0
1031
0.0
1002
}
1002
{
1000
PORI
1011
1202.056762984222
1021
0.0
1031
0.0
1002
}
1002
{
1000
PINS
1011
1202.056762984222
1021
0.0
1031
0.0
1002
}
1002
{
1000
HVAL
1000
210
1002
}
1002
{
1000
H
1070
     2
1002
}
1002
{
1000
WVAL
1000
297
1002
}
1002
{
1000
W
1070
     2
1002
}
1002
{
1000
C
1070
     1
1002
}
1001
GENIUS_GENODEF_13
1002
{
1000
HIER
1070
     0
1002
}
1002
{
1000
MANEDIT
1070
     0
1002
}
1002
{
1000
NOSEL
1070
     0
1002
}
1002
{
1000
BEHIND
1070
     0
1002
}
1002
{
1000
OTHER
1070
     0
1002
}
1002
{
1000
REACTOR
1002
}
1001
GENIUS_GENOBJ-N-REC_13
1002
{
1000
OWNER
1000
GEN
1002
}
1001
AcDbBlockRepETag
1070
     1
1071
       16
1005
17DC
  0
LWPOLYLINE
  5
17DD
330
17CE
100
AcDbEntity
  8
90000_FRAME_THIN
100
AcDbPolyline
 90
        4
 70
     1
 43
0.0
 10
1620.393688952082
 20
-10.0
 10
1820.393688952082
 20
-10.0
 10
1820.393688952082
 20
277.0
 10
1620.393688952082
 20
277.0
1001
GENIUS_GENREC_14
1002
{
1000
PYDIR
1011
1615.393688952082
1021
282.0
1031
0.0
1002
}
1002
{
1000
PXDIR
1011
1825.393688952082
1021
-15.0
1031
0.0
1002
}
1002
{
1000
PORI
1011
1615.393688952082
1021
-15.0
1031
0.0
1002
}
1002
{
1000
PINS
1011
1615.393688952082
1021
-15.0
1031
0.0
1002
}
1002
{
1000
HVAL
1000
297
1002
}
1002
{
1000
H
1070
     2
1002
}
1002
{
1000
WVAL
1000
210
1002
}
1002
{
1000
W
1070
     2
1002
}
1002
{
1000
C
1070
     1
1002
}
1001
GENIUS_GENODEF_13
1002
{
1000
HIER
1070
     0
1002
}
1002
{
1000
MANEDIT
1070
     0
1002
}
1002
{
1000
NOSEL
1070
     0
1002
}
1002
{
1000
BEHIND
1070
     0
1002
}
1002
{
1000
OTHER
1070
     0
1002
}
1002
{
1000
REACTOR
1002
}
1001
GENIUS_GENOBJ-N-REC_13
1002
{
1000
OWNER
1000
GEN
1002
}
1001
AcDbBlockRepETag
1070
     1
1071
       17
1005
17DD
  0
LWPOLYLINE
  5
17DE
330
17CE
100
AcDbEntity
  8
90200_FRAME_SIZE
100
AcDbPolyline
 90
        4
 70
     1
 43
0.0
 10
667.3002389181964
 20
-31.5
 10
1117.300238918196
 20
-31.5
 10
1117.300238918196
 20
298.5
 10
667.3002389181964
 20
298.5
1001
GENIUS_GENREC_14
1002
{
1000
PYDIR
1011
667.3002389181964
1021
298.5
1031
0.0
1002
}
1002
{
1000
PXDIR
1011
1117.300238918196
1021
-31.5
1031
0.0
1002
}
1002
{
1000
PORI
1011
667.3002389181964
1021
-31.5
1031
0.0
1002
}
1002
{
1000
PINS
1011
667.3002389181964
1021
-31.5
1031
0.0
1002
}
1002
{
1000
HVAL
1000
330
1002
}
1002
{
1000
H
1070
     2
1002
}
1002
{
1000
WVAL
1000
450
1002
}
1002
{
1000
W
1070
     2
1002
}
1002
{
1000
C
1070
     1
1002
}
1001
GENIUS_GENODEF_13
1002
{
1000
HIER
1070
     0
1002
}
1002
{
1000
MANEDIT
1070
     0
1002
}
1002
{
1000
NOSEL
1070
     0
1002
}
1002
{
1000
BEHIND
1070
     0
1002
}
1002
{
1000
OTHER
1070
     0
1002
}
1002
{
1000
REACTOR
1002
}
1001
GENIUS_GENOBJ-N-REC_13
1002
{
1000
OWNER
1000
GEN
1002
}
1001
AcDbBlockRepETag
1070
     1
1071
        3
1005
0
  0
LWPOLYLINE
  5
17DF
330
17CE
100
AcDbEntity
  8
90100_FRAME_THICK
100
AcDbPolyline
 90
        4
 70
     1
 43
0.0
 10
682.3002389181964
 20
-15.0
 10
1102.300238918196
 20
-15.0
 10
1102.300238918196
 20
282.0
 10
682.3002389181964
 20
282.0
1001
GENIUS_GENREC_14
1002
{
1000
PYDIR
1011
682.3002389181964
1021
282.0
1031
0.0
1002
}
1002
{
1000
PXDIR
1011
1102.300238918196
1021
-15.0
1031
0.0
1002
}
1002
{
1000
PORI
1011
682.3002389181964
1021
-15.0
1031
0.0
1002
}
1002
{
1000
PINS
1011
682.3002389181964
1021
-15.0
1031
0.0
1002
}
1002
{
1000
HVAL
1000
297
1002
}
1002
{
1000
H
1070
     2
1002
}
1002
{
1000
WVAL
1000
420
1002
}
1002
{
1000
W
1070
     2
1002
}
1002
{
1000
C
1070
     1
1002
}
1001
GENIUS_GENOBJ-N-REC_13
1002
{
1000
OWNER
1000
GEN
1002
}
1001
GENIUS_GENODEF_13
1002
{
1000
HIER
1070
     0
1002
}
1002
{
1000
MANEDIT
1070
     0
1002
}
1002
{
1000
NOSEL
1070
     0
1002
}
1002
{
1000
BEHIND
1070
     0
1002
}
1002
{
1000
OTHER
1070
     0
1002
}
1002
{
1000
REACTOR
1002
}
1001
AcDbBlockRepETag
1070
     1
1071
       11
1005
0
  0
LWPOLYLINE
  5
17E0
330
17CE
100
AcDbEntity
  8
90000_FRAME_THIN
100
AcDbPolyline
 90
        4
 70
     1
 43
0.0
 10
687.3002389181965
 20
-10.0
 10
1097.300238918196
 20
-10.0
 10
1097.300238918196
 20
277.0
 10
687.3002389181964
 20
277.0
1001
GENIUS_GENREC_14
1002
{
1000
PYDIR
1011
682.3002389181964
1021
282.0
1031
0.0
1002
}
1002
{
1000
PXDIR
1011
1102.300238918196
1021
-15.0
1031
0.0
1002
}
1002
{
1000
PORI
1011
682.3002389181964
1021
-15.0
1031
0.0
1002
}
1002
{
1000
PINS
1011
682.3002389181964
1021
-15.0
1031
0.0
1002
}
1002
{
1000
HVAL
1000
297
1002
}
1002
{
1000
H
1070
     2
1002
}
1002
{
1000
WVAL
1000
420
1002
}
1002
{
1000
W
1070
     2
1002
}
1002
{
1000
C
1070
     1
1002
}
1001
GENIUS_GENOBJ-N-REC_13
1002
{
1000
OWNER
1000
GEN
1002
}
1001
GENIUS_GENODEF_13
1002
{
1000
HIER
1070
     0
1002
}
1002
{
1000
MANEDIT
1070
     0
1002
}
1002
{
1000
NOSEL
1070
     0
1002
}
1002
{
1000
BEHIND
1070
     0
1002
}
1002
{
1000
OTHER
1070
     0
1002
}
1002
{
1000
REACTOR
1002
}
1001
AcDbBlockRepETag
1070
     1
1071
       15
1005
0
  0
LWPOLYLINE
  5
17E1
330
17CE
100
AcDbEntity
  8
90200_FRAME_SIZE
100
AcDbPolyline
 90
        4
 70
     1
 43
0.0
 10
667.3002389181964
 20
-31.5
 10
1117.300238918196
 20
-31.5
 10
1117.300238918196
 20
298.5
 10
667.3002389181964
 20
298.5
1001
GENIUS_GENREC_14
1002
{
1000
PYDIR
1011
667.3002389181964
1021
298.5
1031
0.0
1002
}
1002
{
1000
PXDIR
1011
1117.300238918196
1021
-31.5
1031
0.0
1002
}
1002
{
1000
PORI
1011
667.3002389181964
1021
-31.5
1031
0.0
1002
}
1002
{
1000
PINS
1011
667.3002389181964
1021
-31.5
1031
0.0
1002
}
1002
{
1000
HVAL
1000
330
1002
}
1002
{
1000
H
1070
     2
1002
}
1002
{
1000
WVAL
1000
450
1002
}
1002
{
1000
W
1070
     2
1002
}
1002
{
1000
C
1070
     1
1002
}
1001
GENIUS_GENODEF_13
1002
{
1000
HIER
1070
     0
1002
}
1002
{
1000
MANEDIT
1070
     0
1002
}
1002
{
1000
NOSEL
1070
     0
1002
}
1002
{
1000
BEHIND
1070
     0
1002
}
1002
{
1000
OTHER
1070
     0
1002
}
1002
{
1000
REACTOR
1002
}
1001
GENIUS_GENOBJ-N-REC_13
1002
{
1000
OWNER
1000
GEN
1002
}
1001
AcDbBlockRepETag
1070
     1
1071
        3
1005
0
  0
LWPOLYLINE
  5
17E2
330
17CE
100
AcDbEntity
  8
90100_FRAME_THICK
100
AcDbPolyline
 90
        4
 70
     1
 43
0.0
 10
682.3002389181964
 20
-15.0
 10
1102.300238918196
 20
-15.0
 10
1102.300238918196
 20
282.0
 10
682.3002389181964
 20
282.0
1001
GENIUS_GENREC_14
1002
{
1000
PYDIR
1011
682.3002389181964
1021
282.0
1031
0.0
1002
}
1002
{
1000
PXDIR
1011
1102.300238918196
1021
-15.0
1031
0.0
1002
}
1002
{
1000
PORI
1011
682.3002389181964
1021
-15.0
1031
0.0
1002
}
1002
{
1000
PINS
1011
682.3002389181964
1021
-15.0
1031
0.0
1002
}
1002
{
1000
HVAL
1000
297
1002
}
1002
{
1000
H
1070
     2
1002
}
1002
{
1000
WVAL
1000
420
1002
}
1002
{
1000
W
1070
     2
1002
}
1002
{
1000
C
1070
     1
1002
}
1001
GENIUS_GENOBJ-N-REC_13
1002
{
1000
OWNER
1000
GEN
1002
}
1001
GENIUS_GENODEF_13
1002
{
1000
HIER
1070
     0
1002
}
1002
{
1000
MANEDIT
1070
     0
1002
}
1002
{
1000
NOSEL
1070
     0
1002
}
1002
{
1000
BEHIND
1070
     0
1002
}
1002
{
1000
OTHER
1070
     0
1002
}
1002
{
1000
REACTOR
1002
}
1001
AcDbBlockRepETag
1070
     1
1071
       11
1005
0
  0
LWPOLYLINE
  5
17E3
330
17CE
100
AcDbEntity
  8
90000_FRAME_THIN
100
AcDbPolyline
 90
        4
 70
     1
 43
0.0
 10
687.3002389181965
 20
-10.0
 10
1097.300238918196
 20
-10.0
 10
1097.300238918196
 20
277.0
 10
687.3002389181964
 20
277.0
1001
GENIUS_GENREC_14
1002
{
1000
PYDIR
1011
682.3002389181964
1021
282.0
1031
0.0
1002
}
1002
{
1000
PXDIR
1011
1102.300238918196
1021
-15.0
1031
0.0
1002
}
1002
{
1000
PORI
1011
682.3002389181964
1021
-15.0
1031
0.0
1002
}
1002
{
1000
PINS
1011
682.3002389181964
1021
-15.0
1031
0.0
1002
}
1002
{
1000
HVAL
1000
297
1002
}
1002
{
1000
H
1070
     2
1002
}
1002
{
1000
WVAL
1000
420
1002
}
1002
{
1000
W
1070
     2
1002
}
1002
{
1000
C
1070
     1
1002
}
1001
GENIUS_GENOBJ-N-REC_13
1002
{
1000
OWNER
1000
GEN
1002
}
1001
GENIUS_GENODEF_13
1002
{
1000
HIER
1070
     0
1002
}
1002
{
1000
MANEDIT
1070
     0
1002
}
1002
{
1000
NOSEL
1070
     0
1002
}
1002
{
1000
BEHIND
1070
     0
1002
}
1002
{
1000
OTHER
1070
     0
1002
}
1002
{
1000
REACTOR
1002
}
1001
AcDbBlockRepETag
1070
     1
1071
       15
1005
0
  0
INSERT
  5
17E4
330
17CE
100
AcDbEntity
  8
0
370
    18
100
AcDbBlockReference
  2
Title_A4P
 10
2038.189308243912
 20
139.982417962376
 30
0.0
  0
INSERT
  5
17E5
330
17CE
100
AcDbEntity
  8
0
370
    18
100
AcDbBlockReference
  2
Title_A4L
 10
2038.189308243912
 20
104.9824179623761
 30
0.0
  0
INSERT
  5
17E6
330
17CE
100
AcDbEntity
  8
0
370
    18
100
AcDbBlockReference
  2
Title_A3
 10
2038.189308243912
 20
64.98241796237607
 30
0.0
  0
INSERT
  5
17E7
330
17CE
100
AcDbEntity
  8
0
370
    18
100
AcDbBlockReference
  2
Title_A2
 10
2038.189308243912
 20
24.98241796237608
 30
0.0
  0
INSERT
  5
17E8
330
17CE
100
AcDbEntity
  8
0
370
    18
100
AcDbBlockReference
  2
Title_A1
 10
2038.189308243912
 20
-15.01758203762392
 30
0.0
  0
INSERT
  5
17E9
330
17CE
100
AcDbEntity
  8
0
370
    18
100
AcDbBlockReference
  2
Title_A0
 10
2038.189308243912
 20
-55.01758203762392
 30
0.0
  0
INSERT
  5
17EA
330
17CE
100
AcDbEntity
  8
0
370
    18
100
AcDbBlockReference
  2
Title_A4P
 10
1815.393688952082
 20
-5.0
 30
0.0
  0
INSERT
  5
17EB
330
17CE
100
AcDbEntity
  8
0
370
    18
100
AcDbBlockReference
  2
Title_A4L
 10
1489.056762984222
 20
10.0
 30
0.0
  0
INSERT
  5
17EC
330
17CE
100
AcDbEntity
  8
0
370
    18
100
AcDbBlockReference
  2
Title_A3
 10
1092.300238918196
 20
-5.0
 30
0.0
  0
INSERT
  5
17ED
330
17CE
100
AcDbEntity
  8
0
370
    18
100
AcDbBlockReference
  2
Title_A2
 10
584.0
 20
10.0
 30
0.0
  0
INSERT
  5
17EE
330
17CE
100
AcDbEntity
  8
0
370
    18
100
AcDbBlockReference
  2
Title_A1
 10
2148.504347295626
 20
512.6504543301592
 30
0.0
  0
INSERT
  5
17EF
330
17CE
100
AcDbEntity
  8
0
370
    18
100
AcDbBlockReference
  2
Title_A0
 10
1186.164917087416
 20
516.6504543301592
 30
0.0
  0
ENDBLK
  5
17F3
330
17CE
100
AcDbEntity
  8
0
370
    18
100
AcDbBlockEnd
  0
BLOCK
  5
1D25
330
1D24
100
AcDbEntity
  8
0
100
AcDbBlockBegin
  2
*U12
 70
     3
 10
0.0
 20
0.0
 30
0.0
  3
*U12
  1

  0
LINE
  5
1D27
330
1D24
100
AcDbEntity
  8
91100_TIP_SYM
 48
0.5
370
    18
100
AcDbLine
 10
-170.6136465535774
 20
9.0
 30
0.0
 11
-154.1136465535774
 21
9.0
 31
0.0
1001
AcDbBlockRepETag
1070
     1
1071
        0
1005
1D27
  0
LINE
  5
1D28
330
1D24
100
AcDbEntity
  8
91200_TIP_SYMB
370
    25
100
AcDbLine
 10
-156.1136465535773
 20
4.0
 30
0.0
 11
-168.6136465535773
 21
5.5
 31
0.0
1001
AcDbBlockRepETag
1070
     1
1071
        1
1005
1D28
  0
LINE
  5
1D29
330
1D24
100
AcDbEntity
  8
91200_TIP_SYMB
370
    25
100
AcDbLine
 10
-168.6136465535773
 20
12.5
 30
0.0
 11
-156.1136465535773
 21
14.0
 31
0.0
1001
AcDbBlockRepETag
1070
     1
1071
        2
1005
1D29
  0
LINE
  5
1D2A
330
1D24
100
AcDbEntity
  8
91200_TIP_SYMB
370
    25
100
AcDbLine
 10
-168.6136465535773
 20
5.5
 30
0.0
 11
-168.6136465535773
 21
12.5
 31
0.0
1001
AcDbBlockRepETag
1070
     1
1071
        3
1005
1D2A
  0
CIRCLE
  5
1D2B
330
1D24
100
AcDbEntity
  8
91200_TIP_SYMB
370
    25
100
AcDbCircle
 10
-146.0
 20
9.0
 30
0.0
 40
5.0
1001
AcDbBlockRepETag
1070
     1
1071
        4
1005
1D2B
  0
LINE
  5
1D2C
330
1D24
100
AcDbEntity
  8
91200_TIP_SYMB
370
    25
100
AcDbLine
 10
-156.1136465535773
 20
14.0
 30
0.0
 11
-156.1136465535773
 21
4.0
 31
0.0
1001
AcDbBlockRepETag
1070
     1
1071
        5
1005
1D2C
  0
CIRCLE
  5
1D2D
330
1D24
100
AcDbEntity
  8
91200_TIP_SYMB
370
    25
100
AcDbCircle
 10
-146.0
 20
9.0
 30
0.0
 40
2.0
1001
AcDbBlockRepETag
1070
     1
1071
        6
1005
1D2D
  0
LINE
  5
1D2E
330
1D24
100
AcDbEntity
  8
91100_TIP_SYM
 48
0.5
370
    18
100
AcDbLine
 10
-146.0
 20
16.0
 30
0.0
 11
-146.0
 21
2.0
 31
0.0
1001
AcDbBlockRepETag
1070
     1
1071
        7
1005
1D2E
  0
LINE
  5
1D2F
330
1D24
100
AcDbEntity
  8
91100_TIP_SYM
 48
0.5
370
    18
100
AcDbLine
 10
-153.0
 20
9.0
 30
0.0
 11
-139.0
 21
9.0
 31
0.0
1001
AcDbBlockRepETag
1070
     1
1071
        8
1005
1D2F
  0
LINE
  5
1D30
330
1D24
100
AcDbEntity
  8
92000_TITLE
370
    25
100
AcDbLine
 10
-37.5
 20
0.0
 30
0.0
 11
-37.5
 21
6.0
 31
0.0
1001
GENIUS_GENREC_14
1002
{
1000
PYDIR
1011
-130.0
1021
18.0
1031
0.0
1002
}
1002
{
1000
PXDIR
1011
5.0
1021
0.0
1031
0.0
1002
}
1002
{
1000
PORI
1011
-130.0
1021
0.0
1031
0.0
1002
}
1002
{
1000
PINS
1011
-130.0
1021
0.0
1031
0.0
1002
}
1002
{
1000
HVAL
1000
18
1002
}
1002
{
1000
H
1070
     2
1002
}
1002
{
1000
WVAL
1000
135
1002
}
1002
{
1000
W
1070
     2
1002
}
1002
{
1000
C
1070
     1
1002
}
1001
GENIUS_GENOBJ-N-REC_13
1002
{
1000
OWNER
1000
GEN
1002
}
1001
GENIUS_GENODEF_13
1002
{
1000
HIER
1070
     0
1002
}
1002
{
1000
MANEDIT
1070
     0
1002
}
1002
{
1000
NOSEL
1070
     0
1002
}
1002
{
1000
BEHIND
1070
     0
1002
}
1002
{
1000
OTHER
1070
     0
1002
}
1002
{
1000
REACTOR
1002
}
1001
AcDbBlockRepETag
1070
     1
1071
       17
1005
1D30
  0
LINE
  5
1D31
330
1D24
100
AcDbEntity
  8
92000_TITLE
370
    25
100
AcDbLine
 10
0.0
 20
0.0
 30
0.0
 11
0.0
 21
18.0
 31
0.0
1001
GENIUS_GENREC_14
1002
{
1000
PYDIR
1011
-135.0
1021
18.0
1031
0.0
1002
}
1002
{
1000
PXDIR
1011
0.0
1021
0.0
1031
0.0
1002
}
1002
{
1000
PORI
1011
-135.0
1021
0.0
1031
0.0
1002
}
1002
{
1000
PINS
1011
-135.0
1021
0.0
1031
0.0
1002
}
1002
{
1000
HVAL
1000
18
1002
}
1002
{
1000
H
1070
     2
1002
}
1002
{
1000
WVAL
1000
135
1002
}
1002
{
1000
W
1070
     2
1002
}
1002
{
1000
C
1070
     1
1002
}
1001
GENIUS_GENOBJ-N-REC_13
1002
{
1000
OWNER
1000
GEN
1002
}
1001
GENIUS_GENODEF_13
1002
{
1000
HIER
1070
     0
1002
}
1002
{
1000
MANEDIT
1070
     0
1002
}
1002
{
1000
NOSEL
1070
     0
1002
}
1002
{
1000
BEHIND
1070
     0
1002
}
1002
{
1000
OTHER
1070
     0
1002
}
1002
{
1000
REACTOR
1002
}
1001
AcDbBlockRepETag
1070
     1
1071
       18
1005
1D31
  0
INSERT
  5
1D32
330
1D24
100
AcDbEntity
  8
0
370
    25
100
AcDbBlockReference
  2
text_allg
 10
-135.0
 20
18.0
 30
0.0
1001
AcDbBlockRepETag
1070
     1
1071
       19
1005
1D32
  0
MTEXT
  5
1D33
330
1D24
100
AcDbEntity
  8
92000_TITLE
100
AcDbMText
 10
-110.0
 20
12.0
 30
0.0
 40
3.5
 41
40.0
 71
     5
 72
     5
  1
{\fSiemens Logo|b0|i0|c0|p2;s}
 73
     1
 44
1.0
1001
AcDbBlockRepETag
1070
     1
1071
       20
1005
1D33
1001
ACAD
1000
MTEXTBEGIN
1070
    73
1070
     1
1070
    44
1040
1.0
1070
    74
1070
     0
1000
MTEXTEND
  0
LINE
  5
1D34
330
1D24
100
AcDbEntity
  8
92000_TITLE
370
    25
100
AcDbLine
 10
-135.0
 20
0.0
 30
0.0
 11
0.0
 21
0.0
 31
0.0
1001
GENIUS_GENREC_14
1002
{
1000
PYDIR
1011
-135.0
1021
18.0
1031
0.0
1002
}
1002
{
1000
PXDIR
1011
0.0
1021
0.0
1031
0.0
1002
}
1002
{
1000
PORI
1011
-135.0
1021
0.0
1031
0.0
1002
}
1002
{
1000
PINS
1011
-135.0
1021
0.0
1031
0.0
1002
}
1002
{
1000
HVAL
1000
18
1002
}
1002
{
1000
H
1070
     2
1002
}
1002
{
1000
WVAL
1000
135
1002
}
1002
{
1000
W
1070
     2
1002
}
1002
{
1000
C
1070
     1
1002
}
1001
GENIUS_GENOBJ-N-REC_13
1002
{
1000
OWNER
1000
GEN
1002
}
1001
GENIUS_GENODEF_13
1002
{
1000
HIER
1070
     0
1002
}
1002
{
1000
MANEDIT
1070
     0
1002
}
1002
{
1000
NOSEL
1070
     0
1002
}
1002
{
1000
BEHIND
1070
     0
1002
}
1002
{
1000
OTHER
1070
     0
1002
}
1002
{
1000
REACTOR
1002
}
1001
AcDbBlockRepETag
1070
     1
1071
       21
1005
1D34
  0
LINE
  5
1D35
330
1D24
100
AcDbEntity
  8
92000_TITLE
370
    25
100
AcDbLine
 10
0.0
 20
18.0
 30
0.0
 11
-135.0
 21
18.0
 31
0.0
1001
GENIUS_GENREC_14
1002
{
1000
PYDIR
1011
-135.0
1021
18.0
1031
0.0
1002
}
1002
{
1000
PXDIR
1011
0.0
1021
0.0
1031
0.0
1002
}
1002
{
1000
PORI
1011
-135.0
1021
0.0
1031
0.0
1002
}
1002
{
1000
PINS
1011
-135.0
1021
0.0
1031
0.0
1002
}
1002
{
1000
HVAL
1000
18
1002
}
1002
{
1000
H
1070
     2
1002
}
1002
{
1000
WVAL
1000
135
1002
}
1002
{
1000
W
1070
     2
1002
}
1002
{
1000
C
1070
     1
1002
}
1001
GENIUS_GENOBJ-N-REC_13
1002
{
1000
OWNER
1000
GEN
1002
}
1001
GENIUS_GENODEF_13
1002
{
1000
HIER
1070
     0
1002
}
1002
{
1000
MANEDIT
1070
     0
1002
}
1002
{
1000
NOSEL
1070
     0
1002
}
1002
{
1000
BEHIND
1070
     0
1002
}
1002
{
1000
OTHER
1070
     0
1002
}
1002
{
1000
REACTOR
1002
}
1001
AcDbBlockRepETag
1070
     1
1071
       22
1005
1D35
  0
LINE
  5
1D36
330
1D24
100
AcDbEntity
  8
92000_TITLE
370
    25
100
AcDbLine
 10
0.0
 20
6.0
 30
0.0
 11
-135.0
 21
6.0
 31
0.0
1001
GENIUS_GENREC_14
1002
{
1000
PYDIR
1011
-135.0
1021
18.0
1031
0.0
1002
}
1002
{
1000
PXDIR
1011
0.0
1021
0.0
1031
0.0
1002
}
1002
{
1000
PORI
1011
-135.0
1021
0.0
1031
0.0
1002
}
1002
{
1000
PINS
1011
-135.0
1021
0.0
1031
0.0
1002
}
1002
{
1000
HVAL
1000
18
1002
}
1002
{
1000
H
1070
     2
1002
}
1002
{
1000
WVAL
1000
135
1002
}
1002
{
1000
W
1070
     2
1002
}
1002
{
1000
C
1070
     1
1002
}
1001
GENIUS_GENOBJ-N-REC_13
1002
{
1000
OWNER
1000
GEN
1002
}
1001
GENIUS_GENODEF_13
1002
{
1000
HIER
1070
     0
1002
}
1002
{
1000
MANEDIT
1070
     0
1002
}
1002
{
1000
NOSEL
1070
     0
1002
}
1002
{
1000
BEHIND
1070
     0
1002
}
1002
{
1000
OTHER
1070
     0
1002
}
1002
{
1000
REACTOR
1002
}
1001
AcDbBlockRepETag
1070
     1
1071
       23
1005
1D36
  0
MTEXT
  5
1D37
330
1D24
100
AcDbEntity
  8
92000_TITLE
370
    25
100
AcDbMText
 10
-127.75
 20
3.0
 30
0.0
 40
2.5
 41
11.0
 71
     5
 72
     5
  1
Date:
 73
     1
 44
1.0
1001
AcDbBlockRepETag
1070
     1
1071
       24
1005
1D37
1001
ACAD
1000
MTEXTBEGIN
1070
    73
1070
     1
1070
    44
1040
1.0
1070
    74
1070
     0
1000
MTEXTEND
  0
LINE
  5
1D38
330
1D24
100
AcDbEntity
  8
92000_TITLE
370
    25
100
AcDbLine
 10
-135.0
 20
18.0
 30
0.0
 11
-135.0
 21
0.0
 31
0.0
1001
GENIUS_GENREC_14
1002
{
1000
PYDIR
1011
-135.0
1021
18.0
1031
0.0
1002
}
1002
{
1000
PXDIR
1011
0.0
1021
0.0
1031
0.0
1002
}
1002
{
1000
PORI
1011
-135.0
1021
0.0
1031
0.0
1002
}
1002
{
1000
PINS
1011
-135.0
1021
0.0
1031
0.0
1002
}
1002
{
1000
HVAL
1000
18
1002
}
1002
{
1000
H
1070
     2
1002
}
1002
{
1000
WVAL
1000
135
1002
}
1002
{
1000
W
1070
     2
1002
}
1002
{
1000
C
1070
     1
1002
}
1001
GENIUS_GENOBJ-N-REC_13
1002
{
1000
OWNER
1000
GEN
1002
}
1001
GENIUS_GENODEF_13
1002
{
1000
HIER
1070
     0
1002
}
1002
{
1000
MANEDIT
1070
     0
1002
}
1002
{
1000
NOSEL
1070
     0
1002
}
1002
{
1000
BEHIND
1070
     0
1002
}
1002
{
1000
OTHER
1070
     0
1002
}
1002
{
1000
REACTOR
1002
}
1001
AcDbBlockRepETag
1070
     1
1071
       25
1005
1D38
  0
MTEXT
  5
1D39
330
1D24
100
AcDbEntity
  8
92000_TITLE
370
    25
100
AcDbMText
 10
-102.75
 20
3.0
 30
0.0
 40
2.5
 41
11.0
 71
     5
 72
     5
  1
Name:
 73
     1
 44
1.0
1001
AcDbBlockRepETag
1070
     1
1071
        9
1005
1D39
1001
ACAD
1000
MTEXTBEGIN
1070
    73
1070
     1
1070
    44
1040
1.0
1070
    74
1070
     0
1000
MTEXTEND
  0
LINE
  5
1D3A
330
1D24
100
AcDbEntity
  8
92000_TITLE
100
AcDbLine
 10
-110.0
 20
6.0
 30
0.0
 11
-110.0
 21
0.0
 31
0.0
1001
GENIUS_GENREC_14
1002
{
1000
PYDIR
1011
-135.0
1021
18.0
1031
0.0
1002
}
1002
{
1000
PXDIR
1011
0.0
1021
0.0
1031
0.0
1002
}
1002
{
1000
PORI
1011
-135.0
1021
0.0
1031
0.0
1002
}
1002
{
1000
PINS
1011
-135.0
1021
0.0
1031
0.0
1002
}
1002
{
1000
HVAL
1000
18
1002
}
1002
{
1000
H
1070
     2
1002
}
1002
{
1000
WVAL
1000
135
1002
}
1002
{
1000
W
1070
     2
1002
}
1002
{
1000
C
1070
     1
1002
}
1001
GENIUS_GENOBJ-N-REC_13
1002
{
1000
OWNER
1000
GEN
1002
}
1001
GENIUS_GENODEF_13
1002
{
1000
HIER
1070
     0
1002
}
1002
{
1000
MANEDIT
1070
     0
1002
}
1002
{
1000
NOSEL
1070
     0
1002
}
1002
{
1000
BEHIND
1070
     0
1002
}
1002
{
1000
OTHER
1070
     0
1002
}
1002
{
1000
REACTOR
1002
}
1001
AcDbBlockRepETag
1070
     1
1071
       10
1005
1D3A
  0
TEXT
  5
1D3B
330
1D24
100
AcDbEntity
  8
92000_TITLE
370
    25
100
AcDbText
 10
-33.625
 20
1.750946969696965
 30
0.0
 40
2.5
  1
Massstab/Scale:
100
AcDbText
1001
AcDbBlockRepETag
1070
     1
1071
       26
1005
1D3B
  0
LINE
  5
1D3C
330
1D24
100
AcDbEntity
  8
92000_TITLE
370
    25
100
AcDbLine
 10
-85.0
 20
18.0
 30
0.0
 11
-85.0
 21
0.0
 31
0.0
1001
GENIUS_GENREC_14
1002
{
1000
PYDIR
1011
-135.0
1021
18.0
1031
0.0
1002
}
1002
{
1000
PXDIR
1011
0.0
1021
0.0
1031
0.0
1002
}
1002
{
1000
PORI
1011
-135.0
1021
0.0
1031
0.0
1002
}
1002
{
1000
PINS
1011
-135.0
1021
0.0
1031
0.0
1002
}
1002
{
1000
HVAL
1000
18
1002
}
1002
{
1000
H
1070
     2
1002
}
1002
{
1000
WVAL
1000
135
1002
}
1002
{
1000
W
1070
     2
1002
}
1002
{
1000
C
1070
     1
1002
}
1001
GENIUS_GENOBJ-N-REC_13
1002
{
1000
OWNER
1000
GEN
1002
}
1001
GENIUS_GENODEF_13
1002
{
1000
HIER
1070
     0
1002
}
1002
{
1000
MANEDIT
1070
     0
1002
}
1002
{
1000
NOSEL
1070
     0
1002
}
1002
{
1000
BEHIND
1070
     0
1002
}
1002
{
1000
OTHER
1070
     0
1002
}
1002
{
1000
REACTOR
1002
}
1001
AcDbBlockRepETag
1070
     1
1071
       12
1005
1D3C
  0
LINE
  5
1D3D
330
1D24
100
AcDbEntity
  8
92000_TITLE
370
    25
100
AcDbLine
 10
-37.5
 20
0.0
 30
0.0
 11
-37.5
 21
6.0
 31
0.0
1001
GENIUS_GENREC_14
1002
{
1000
PYDIR
1011
-130.0
1021
18.0
1031
0.0
1002
}
1002
{
1000
PXDIR
1011
5.0
1021
0.0
1031
0.0
1002
}
1002
{
1000
PORI
1011
-130.0
1021
0.0
1031
0.0
1002
}
1002
{
1000
PINS
1011
-130.0
1021
0.0
1031
0.0
1002
}
1002
{
1000
HVAL
1000
18
1002
}
1002
{
1000
H
1070
     2
1002
}
1002
{
1000
WVAL
1000
135
1002
}
1002
{
1000
W
1070
     2
1002
}
1002
{
1000
C
1070
     1
1002
}
1001
GENIUS_GENOBJ-N-REC_13
1002
{
1000
OWNER
1000
GEN
1002
}
1001
GENIUS_GENODEF_13
1002
{
1000
HIER
1070
     0
1002
}
1002
{
1000
MANEDIT
1070
     0
1002
}
1002
{
1000
NOSEL
1070
     0
1002
}
1002
{
1000
BEHIND
1070
     0
1002
}
1002
{
1000
OTHER
1070
     0
1002
}
1002
{
1000
REACTOR
1002
}
1001
AcDbBlockRepETag
1070
     1
1071
       27
1005
1D3D
  0
ATTDEF
  5
1D3E
330
1D24
100
AcDbEntity
  8
92000_TITLE
370
    25
100
AcDbText
 10
-8.009136915777162
 20
1.844905181593389
 30
0.0
 40
2.5
  1
1:1
 72
     1
 11
-6.384136915777162
 21
3.094905181593389
 31
0.0
100
AcDbAttributeDefinition
  3
Massstab
  2
MASSSTAB/SCALE:
 70
     0
 74
     2
1001
AcDbBlockRepETag
1070
     1
1071
       13
1005
0
  0
ATTDEF
  5
1D3F
330
1D24
100
AcDbEntity
  8
92000_TITLE
370
    35
100
AcDbText
 10
-42.49999999999952
 20
12.25000000000011
 30
0.0
 40
3.5
  1

 72
     1
 11
-42.49999999999952
 21
14.00000000000011
 31
0.0
100
AcDbAttributeDefinition
  3
Z-Name
  2
ZEICHNUNGSNAME
 70
     0
 74
     2
1001
AcDbBlockRepETag
1070
     1
1071
       14
1005
0
  0
ATTDEF
  5
1D40
330
1D24
100
AcDbEntity
  8
92000_TITLE
370
    25
100
AcDbText
 10
-42.49999999999952
 20
7.22778333016015
 30
0.0
 40
2.5
  1

 72
     1
 11
-42.49999999999952
 21
8.47778333016015
 31
0.0
100
AcDbAttributeDefinition
  3
A-Name
  2
ARTIKELNAME
 70
     0
 74
     2
1001
AcDbBlockRepETag
1070
     1
1071
       28
1005
0
  0
ATTDEF
  5
1D41
330
1D24
100
AcDbEntity
  8
92000_TITLE
370
    25
100
AcDbText
 10
-116.9999999999995
 20
1.75
 30
0.0
 40
2.5
  1

 72
     1
 11
-116.9999999999995
 21
3.0
 31
0.0
100
AcDbAttributeDefinition
  3
Datum
  2
DATUM
 70
     0
 74
     2
1001
AcDbBlockRepETag
1070
     1
1071
       16
1005
0
  0
ATTDEF
  5
1D42
330
1D24
100
AcDbEntity
  8
92000_TITLE
370
    25
100
AcDbText
 10
-91.99999999999954
 20
1.75
 30
0.0
 40
2.5
  1

 72
     1
 11
-91.99999999999954
 21
3.0
 31
0.0
100
AcDbAttributeDefinition
  3
Name
  2
NAME
 70
     0
 74
     2
1001
AcDbBlockRepETag
1070
     1
1071
       15
1005
0
  0
ENDBLK
  5
1D26
330
1D24
100
AcDbEntity
  8
0
100
AcDbBlockEnd
  0
BLOCK
  5
460E
330
4602
100
AcDbEntity
  8
0
100
AcDbBlockBegin
  2
*D13
 70
     1
 10
0.0
 20
0.0
 30
0.0
  3
*D13
  1

  0
LINE
  5
46C8
330
4602
100
AcDbEntity
  8
10100_FRONT_DIM
100
AcDbLine
 10
1287.568263543246
 20
154.2835783044755
 30
0.0
 11
1287.568263543246
 21
165.2835782955684
 31
0.0
  0
LINE
  5
46C9
330
4602
100
AcDbEntity
  8
10100_FRONT_DIM
100
AcDbLine
 10
1293.668263367346
 20
154.2835783044755
 30
0.0
 11
1293.668263367346
 21
165.2835782955684
 31
0.0
  0
LINE
  5
46CA
330
4602
100
AcDbEntity
  8
10100_FRONT_DIM
100
AcDbLine
 10
1284.068263543246
 20
164.2835782955684
 30
0.0
 11
1280.568263543246
 21
164.2835782955684
 31
0.0
  0
LINE
  5
46CB
330
4602
100
AcDbEntity
  8
10100_FRONT_DIM
100
AcDbLine
 10
1297.168263367346
 20
164.2835782955684
 30
0.0
 11
1309.093263367346
 21
164.2835782955684
 31
0.0
  0
LINE
  5
46CC
330
4602
100
AcDbEntity
  8
10100_FRONT_DIM
100
AcDbLine
 10
1287.568263543246
 20
164.2835782955684
 30
0.0
 11
1293.668263367346
 21
164.2835782955684
 31
0.0
  0
SOLID
  5
46CD
330
4602
100
AcDbEntity
  8
10100_FRONT_DIM
100
AcDbTrace
 10
1284.068263543246
 20
164.8669116289017
 30
0.0
 11
1284.068263543246
 21
163.700244962235
 31
0.0
 12
1287.568263543246
 22
164.2835782955684
 32
0.0
 13
1287.568263543246
 23
164.2835782955684
 33
0.0
  0
SOLID
  5
46CE
330
4602
100
AcDbEntity
  8
10100_FRONT_DIM
100
AcDbTrace
 10
1297.168263367346
 20
164.8669116289017
 30
0.0
 11
1297.168263367346
 21
163.700244962235
 31
0.0
 12
1293.668263367346
 22
164.2835782955684
 32
0.0
 13
1293.668263367346
 23
164.2835782955684
 33
0.0
  0
MTEXT
  5
46CF
330
4602
100
AcDbEntity
  8
10100_FRONT_DIM
370
    13
100
AcDbMText
 10
1304.880763367346
 20
167.8835782955684
 30
0.0
 40
3.5
 41
0.0
 71
     5
 72
     1
  1
6,2
 73
     1
 44
1.0
1001
ACAD
1000
MTEXTBEGIN
1070
    73
1070
     1
1070
    44
1040
1.0
1070
    74
1070
     0
1000
MTEXTEND
  0
POINT
  5
46D0
330
4602
100
AcDbEntity
  8
Defpoints
 62
     0
100
AcDbPoint
 10
1287.568263543246
 20
154.2835783044755
 30
0.0
  0
POINT
  5
46D1
330
4602
100
AcDbEntity
  8
Defpoints
 62
     0
100
AcDbPoint
 10
1293.668263367346
 20
154.2835783044755
 30
0.0
  0
POINT
  5
46D2
330
4602
100
AcDbEntity
  8
Defpoints
 62
     0
100
AcDbPoint
 10
1293.668263367346
 20
164.2835782955684
 30
0.0
  0
ENDBLK
  5
460F
330
4602
100
AcDbEntity
  8
0
100
AcDbBlockEnd
  0
BLOCK
  5
4628
330
461E
100
AcDbEntity
  8
0
100
AcDbBlockBegin
  2
*D14
 70
     1
 10
0.0
 20
0.0
 30
0.0
  3
*D14
  1

  0
LINE
  5
46BF
330
461E
100
AcDbEntity
  8
10100_FRONT_DIM
100
AcDbLine
 10
1287.568263543246
 20
154.2835783044755
 30
0.0
 11
1276.568263543246
 21
154.2835783044755
 31
0.0
  0
LINE
  5
46C0
330
461E
100
AcDbEntity
  8
10100_FRONT_DIM
100
AcDbLine
 10
1287.568263543246
 20
64.93359318177553
 30
0.0
 11
1276.568263543246
 21
64.93359318177553
 31
0.0
  0
LINE
  5
46C1
330
461E
100
AcDbEntity
  8
10100_FRONT_DIM
100
AcDbLine
 10
1277.568263543246
 20
150.7835783044755
 30
0.0
 11
1277.568263543246
 21
68.43359318177554
 31
0.0
  0
SOLID
  5
46C2
330
461E
100
AcDbEntity
  8
10100_FRONT_DIM
100
AcDbTrace
 10
1276.984930209913
 20
150.7835783044755
 30
0.0
 11
1278.151596876579
 21
150.7835783044755
 31
0.0
 12
1277.568263543246
 22
154.2835783044755
 32
0.0
 13
1277.568263543246
 23
154.2835783044755
 33
0.0
  0
SOLID
  5
46C3
330
461E
100
AcDbEntity
  8
10100_FRONT_DIM
100
AcDbTrace
 10
1276.984930209913
 20
68.43359318177554
 30
0.0
 11
1278.151596876579
 21
68.43359318177554
 31
0.0
 12
1277.568263543246
 22
64.93359318177553
 32
0.0
 13
1277.568263543246
 23
64.93359318177553
 33
0.0
  0
MTEXT
  5
46C4
330
461E
100
AcDbEntity
  8
10100_FRONT_DIM
370
    13
100
AcDbMText
 10
1274.318263543246
 20
109.6085857431257
 30
0.0
 40
3.5
 41
0.0
 71
     5
 72
     1
  1
90
 11
0.0000000000000001
 21
1.0
 31
0.0
 73
     1
 44
1.0
1001
ACAD
1000
MTEXTBEGIN
1070
    73
1070
     1
1070
    44
1040
1.0
1070
    74
1070
     0
1000
MTEXTEND
  0
POINT
  5
46C5
330
461E
100
AcDbEntity
  8
Defpoints
 62
     0
100
AcDbPoint
 10
1287.568263543246
 20
154.2835783044755
 30
0.0
  0
POINT
  5
46C6
330
461E
100
AcDbEntity
  8
Defpoints
 62
     0
100
AcDbPoint
 10
1287.568263543246
 20
64.93359318177553
 30
0.0
  0
POINT
  5
46C7
330
461E
100
AcDbEntity
  8
Defpoints
 62
     0
100
AcDbPoint
 10
1277.568263543246
 20
64.93359318177553
 30
0.0
  0
ENDBLK
  5
4629
330
461E
100
AcDbEntity
  8
0
100
AcDbBlockEnd
  0
BLOCK
  5
465B
330
4651
100
AcDbEntity
  8
0
100
AcDbBlockBegin
  2
*D15
 70
     1
 10
0.0
 20
0.0
 30
0.0
  3
*D15
  1

  0
LINE
  5
46D3
330
4651
100
AcDbEntity
  8
11100_LEFT_DIM
100
AcDbLine
 10
1341.922568888448
 20
70.51205479957762
 30
0.0
 11
1341.922568888448
 21
165.2835782955684
 31
0.0
  0
LINE
  5
46D4
330
4651
100
AcDbEntity
  8
11100_LEFT_DIM
100
AcDbLine
 10
1433.918926273451
 20
106.7275734819704
 30
0.0
 11
1433.918926273451
 21
165.2835782955684
 31
0.0
  0
LINE
  5
46D5
330
4651
100
AcDbEntity
  8
11100_LEFT_DIM
100
AcDbLine
 10
1345.422568888448
 20
164.2835782955684
 30
0.0
 11
1430.418926273451
 21
164.2835782955684
 31
0.0
  0
SOLID
  5
46D6
330
4651
100
AcDbEntity
  8
11100_LEFT_DIM
100
AcDbTrace
 10
1345.422568888448
 20
164.8669116289017
 30
0.0
 11
1345.422568888448
 21
163.700244962235
 31
0.0
 12
1341.922568888448
 22
164.2835782955684
 32
0.0
 13
1341.922568888448
 23
164.2835782955684
 33
0.0
  0
SOLID
  5
46D7
330
4651
100
AcDbEntity
  8
11100_LEFT_DIM
100
AcDbTrace
 10
1430.418926273451
 20
164.8669116289017
 30
0.0
 11
1430.418926273451
 21
163.700244962235
 31
0.0
 12
1433.918926273451
 22
164.2835782955684
 32
0.0
 13
1433.918926273451
 23
164.2835782955684
 33
0.0
  0
MTEXT
  5
46D8
330
4651
100
AcDbEntity
  8
11100_LEFT_DIM
370
    13
100
AcDbMText
 10
1387.920747580949
 20
167.8835782955684
 30
0.0
 40
3.5
 41
0.0
 71
     5
 72
     1
  1
92,5
 73
     1
 44
1.0
1001
ACAD
1000
MTEXTBEGIN
1070
    73
1070
     1
1070
    44
1040
1.0
1070
    74
1070
     0
1000
MTEXTEND
  0
POINT
  5
46D9
330
4651
100
AcDbEntity
  8
Defpoints
 62
     0
100
AcDbPoint
 10
1341.922568888448
 20
70.51205479957762
 30
0.0
  0
POINT
  5
46DA
330
4651
100
AcDbEntity
  8
Defpoints
 62
     0
100
AcDbPoint
 10
1433.918926273451
 20
106.7275734819704
 30
0.0
  0
POINT
  5
46DB
330
4651
100
AcDbEntity
  8
Defpoints
 62
     0
100
AcDbPoint
 10
1433.918926273451
 20
164.2835782955684
 30
0.0
  0
ENDBLK
  5
465C
330
4651
100
AcDbEntity
  8
0
100
AcDbBlockEnd
  0
ENDSEC
  0
SECTION
  2
ENTITIES
  0
LWPOLYLINE
  5
17FD
330
37
100
AcDbEntity
  8
90200_FRAME_SIZE
100
AcDbPolyline
 90
        4
 70
     1
 43
0.0
 10
1185.556762984221
 20
-15.0
 10
1515.556762984221
 20
-15.0
 10
1515.556762984221
 20
225.0
 10
1185.556762984221
 20
225.0
1001
GENIUS_GENREC_14
1002
{
1000
PYDIR
1011
1185.556762984221
1021
225.0
1031
0.0
1002
}
1002
{
1000
PXDIR
1011
1515.556762984221
1021
-15.0
1031
0.0
1002
}
1002
{
1000
PORI
1011
1185.556762984221
1021
-15.0
1031
0.0
1002
}
1002
{
1000
PINS
1011
1185.556762984221
1021
-15.0
1031
0.0
1002
}
1002
{
1000
HVAL
1000
240
1002
}
1002
{
1000
H
1070
     2
1002
}
1002
{
1000
WVAL
1000
330
1002
}
1002
{
1000
W
1070
     2
1002
}
1002
{
1000
C
1070
     1
1002
}
1001
GENIUS_GENOBJ-N-REC_13
1002
{
1000
OWNER
1000
GEN
1002
}
1001
GENIUS_GENODEF_13
1002
{
1000
HIER
1070
     0
1002
}
1002
{
1000
MANEDIT
1070
     0
1002
}
1002
{
1000
NOSEL
1070
     0
1002
}
1002
{
1000
BEHIND
1070
     0
1002
}
1002
{
1000
OTHER
1070
     0
1002
}
1002
{
1000
REACTOR
1002
}
1001
AcDbBlockRepETag
1070
     1
1071
        4
1005
17FD
  0
LWPOLYLINE
  5
1804
330
37
100
AcDbEntity
  8
90100_FRAME_THICK
100
AcDbPolyline
 90
        4
 70
     1
 43
0.0
 10
1202.056762984222
 20
0.0
 10
1499.056762984222
 20
0.0
 10
1499.056762984222
 20
210.0
 10
1202.056762984222
 20
210.0
1001
GENIUS_GENREC_14
1002
{
1000
PYDIR
1011
1202.056762984222
1021
210.0
1031
0.0
1002
}
1002
{
1000
PXDIR
1011
1499.056762984222
1021
0.0
1031
0.0
1002
}
1002
{
1000
PORI
1011
1202.056762984222
1021
0.0
1031
0.0
1002
}
1002
{
1000
PINS
1011
1202.056762984222
1021
0.0
1031
0.0
1002
}
1002
{
1000
HVAL
1000
210
1002
}
1002
{
1000
H
1070
     2
1002
}
1002
{
1000
WVAL
1000
297
1002
}
1002
{
1000
W
1070
     2
1002
}
1002
{
1000
C
1070
     1
1002
}
1001
GENIUS_GENODEF_13
1002
{
1000
HIER
1070
     0
1002
}
1002
{
1000
MANEDIT
1070
     0
1002
}
1002
{
1000
NOSEL
1070
     0
1002
}
1002
{
1000
BEHIND
1070
     0
1002
}
1002
{
1000
OTHER
1070
     0
1002
}
1002
{
1000
REACTOR
1002
}
1001
GENIUS_GENOBJ-N-REC_13
1002
{
1000
OWNER
1000
GEN
1002
}
1001
AcDbBlockRepETag
1070
     1
1071
       12
1005
1804
  0
LWPOLYLINE
  5
1807
330
37
100
AcDbEntity
  8
90000_FRAME_THIN
100
AcDbPolyline
 90
        4
 70
     1
 43
0.0
 10
1207.056762984221
 20
5.0
 10
1494.056762984222
 20
5.0
 10
1494.056762984222
 20
205.0
 10
1207.056762984221
 20
205.0
1001
GENIUS_GENREC_14
1002
{
1000
PYDIR
1011
1202.056762984222
1021
210.0
1031
0.0
1002
}
1002
{
1000
PXDIR
1011
1499.056762984222
1021
0.0
1031
0.0
1002
}
1002
{
1000
PORI
1011
1202.056762984222
1021
0.0
1031
0.0
1002
}
1002
{
1000
PINS
1011
1202.056762984222
1021
0.0
1031
0.0
1002
}
1002
{
1000
HVAL
1000
210
1002
}
1002
{
1000
H
1070
     2
1002
}
1002
{
1000
WVAL
1000
297
1002
}
1002
{
1000
W
1070
     2
1002
}
1002
{
1000
C
1070
     1
1002
}
1001
GENIUS_GENODEF_13
1002
{
1000
HIER
1070
     0
1002
}
1002
{
1000
MANEDIT
1070
     0
1002
}
1002
{
1000
NOSEL
1070
     0
1002
}
1002
{
1000
BEHIND
1070
     0
1002
}
1002
{
1000
OTHER
1070
     0
1002
}
1002
{
1000
REACTOR
1002
}
1001
GENIUS_GENOBJ-N-REC_13
1002
{
1000
OWNER
1000
GEN
1002
}
1001
AcDbBlockRepETag
1070
     1
1071
       16
1005
1807
  0
MTEXT
  5
195B
330
37
100
AcDbEntity
  8
92000_TITLE
100
AcDbMText
 10
1425.306762984221
 20
13.0
 30
0.0
 40
2.5
 41
42.5
 71
     5
 72
     5
  1
Format/Size: DIN A4
 73
     1
 44
1.0
1001
ACAD
1000
MTEXTBEGIN
1070
    73
1070
     1
1070
    44
1040
1.0
1070
    74
1070
     0
1000
MTEXTEND
  0
MTEXT
  5
195C
330
37
100
AcDbEntity
  8
92000_TITLE
370
    13
100
AcDbMText
 10
1425.306762984221
 20
13.0
 30
0.0
 40
2.5
 41
42.5
 71
     5
 72
     5
  1
Format/Size: DIN A4
 73
     1
 44
1.0
1001
ACAD
1000
MTEXTBEGIN
1070
    73
1070
     1
1070
    44
1040
1.0
1070
    74
1070
     0
1000
MTEXTEND
  0
INSERT
  5
195D
102
{ACAD_XDICTIONARY
360
1B6C
102
}
330
37
100
AcDbEntity
  8
92000_TITLE
370
    18
100
AcDbBlockReference
 66
     1
  2
*U12
 10
1489.056762984222
 20
10.0
 30
0.0
  0
ATTRIB
  5
195E
330
195D
100
AcDbEntity
  8
92000_TITLE
370
    13
100
AcDbText
 10
1481.047626068444
 20
11.84490518159339
 30
0.0
 40
2.5
  1
1:1
 72
     1
 11
1482.672626068444
 21
13.09490518159339
 31
0.0
100
AcDbAttribute
  2
MASSSTAB/SCALE:
 70
     0
 74
     2
1001
AcDbBlockRepETag
1070
     1
1071
       13
1005
0
  0
ATTRIB
  5
195F
330
195D
100
AcDbEntity
  8
92000_TITLE
370
    25
100
AcDbText
 10
1424.681762984222
 20
22.25000000000011
 30
0.0
 40
3.5
  1
3RS170+-2AE00_ALL
 72
     1
 11
1446.556762984222
 21
24.00000000000011
 31
0.0
100
AcDbAttribute
  2
ZEICHNUNGSNAME
 70
     0
 74
     2
1001
AcDbBlockRepETag
1070
     1
1071
       14
1005
0
  0
ATTRIB
  5
1960
330
195D
100
AcDbEntity
  8
92000_TITLE
370
    13
100
AcDbText
 10
1446.556762984222
 20
17.22778333016014
 30
0.0
 40
2.5
  1

 72
     1
 11
1446.556762984222
 21
18.47778333016014
 31
0.0
100
AcDbAttribute
  2
ARTIKELNAME
 70
     0
 74
     2
1001
AcDbBlockRepETag
1070
     1
1071
       13
1005
0
  0
ATTRIB
  5
1961
330
195D
100
AcDbEntity
  8
92000_TITLE
370
    13
100
AcDbText
 10
1372.056762984222
 20
11.75
 30
0.0
 40
2.5
  1

 72
     1
 11
1372.056762984222
 21
13.0
 31
0.0
100
AcDbAttribute
  2
DATUM
 70
     0
 74
     2
1001
AcDbBlockRepETag
1070
     1
1071
       16
1005
0
  0
ATTRIB
  5
1962
330
195D
100
AcDbEntity
  8
92000_TITLE
370
    13
100
AcDbText
 10
1397.056762984222
 20
11.75
 30
0.0
 40
2.5
  1

 72
     1
 11
1397.056762984222
 21
13.0
 31
0.0
100
AcDbAttribute
  2
NAME
 70
     0
 74
     2
1001
AcDbBlockRepETag
1070
     1
1071
       15
1005
0
  0
SEQEND
  5
1963
330
195D
100
AcDbEntity
  8
92000_TITLE
370
    18
  0
LINE
  5
44FD
330
37
100
AcDbEntity
  8
10000_FRONT
370
    13
100
AcDbLine
 10
1293.668402649881
 20
150.9835783223755
 30
0.0
 11
1287.568263543246
 21
150.9835783223755
 31
0.0
  0
LINE
  5
44FE
330
37
100
AcDbEntity
  8
10000_FRONT
370
    13
100
AcDbLine
 10
1293.668333046562
 20
152.6326792025485
 30
0.0
 11
1287.568263543246
 21
152.6335801760755
 31
0.0
  0
LINE
  5
44FF
330
37
100
AcDbEntity
  8
10000_FRONT
370
    13
100
AcDbLine
 10
1287.568263543246
 20
89.83792623677553
 30
0.0
 11
1287.567001135546
 21
89.83792623677553
 31
0.0
  0
LINE
  5
4500
330
37
100
AcDbEntity
  8
10000_FRONT
370
    13
100
AcDbLine
 10
1288.818263282446
 20
123.7835798243755
 30
0.0
 11
1287.568263543246
 21
123.7835798243755
 31
0.0
  0
SPLINE
  5
4501
330
37
100
AcDbEntity
  8
10000_FRONT
370
    13
100
AcDbSpline
210
0.0
220
0.0
230
1.0
 70
    24
 71
     3
 72
     8
 73
     4
 74
     0
 42
0.0000000001
 43
0.0000000001
 40
0.0
 40
0.0
 40
0.0
 40
0.0
 40
1.0
 40
1.0
 40
1.0
 40
1.0
 10
1288.818263343575
 20
126.1835795621073
 30
0.0
 10
1288.818263343575
 20
125.3838298959582
 30
0.0
 10
1288.818263343575
 20
124.5838200500333
 30
0.0
 10
1288.818263343575
 20
123.7835795621074
 30
0.0
  0
LINE
  5
4502
330
37
100
AcDbEntity
  8
10000_FRONT
370
    13
100
AcDbLine
 10
1292.418263337046
 20
126.1835794726755
 30
0.0
 11
1288.818263282446
 21
126.1835794726755
 31
0.0
  0
SPLINE
  5
4503
330
37
100
AcDbEntity
  8
10000_FRONT
370
    13
100
AcDbSpline
210
0.0
220
0.0
230
1.0
 70
    24
 71
     3
 72
     8
 73
     4
 74
     0
 42
0.0000000001
 43
0.0000000001
 40
0.0
 40
0.0
 40
0.0
 40
0.0
 40
1.0
 40
1.0
 40
1.0
 40
1.0
 10
1292.418263343575
 20
123.7835795621074
 30
0.0
 10
1292.418263343575
 20
124.5838200500333
 30
0.0
 10
1292.418263343575
 20
125.3838298959582
 30
0.0
 10
1292.418263343575
 20
126.1835795621073
 30
0.0
  0
LINE
  5
4504
330
37
100
AcDbEntity
  8
10000_FRONT
370
    13
100
AcDbLine
 10
1293.668263367346
 20
123.7835798243755
 30
0.0
 11
1292.418263337046
 21
123.7835798243755
 31
0.0
  0
LINE
  5
4505
330
37
100
AcDbEntity
  8
10000_FRONT
370
    13
100
AcDbLine
 10
1287.568263543246
 20
93.23357863527553
 30
0.0
 11
1293.670840094236
 21
93.23357863527553
 31
0.0
  0
LINE
  5
4506
330
37
100
AcDbEntity
  8
10000_FRONT
370
    13
100
AcDbLine
 10
1292.418263337046
 20
103.4855267795755
 30
0.0
 11
1288.818263282446
 21
103.4855267795755
 31
0.0
  0
SPLINE
  5
4507
330
37
100
AcDbEntity
  8
10000_FRONT
370
    13
100
AcDbSpline
210
0.0
220
0.0
230
1.0
 70
    24
 71
     3
 72
     8
 73
     4
 74
     0
 42
0.0000000001
 43
0.0000000001
 40
0.0
 40
0.0
 40
0.0
 40
0.0
 40
1.0
 40
1.0
 40
1.0
 40
1.0
 10
1292.418263343575
 20
104.7335795621073
 30
0.0
 10
1292.418263343575
 20
104.3175596275068
 30
0.0
 10
1292.418263343575
 20
103.9015407194268
 30
0.0
 10
1292.418263343575
 20
103.4855269705973
 30
0.0
  0
LINE
  5
4508
330
37
100
AcDbEntity
  8
10000_FRONT
370
    13
100
AcDbLine
 10
1292.818263356046
 20
104.7335795889755
 30
0.0
 11
1292.418263337046
 21
104.7335795889755
 31
0.0
  0
SPLINE
  5
4509
330
37
100
AcDbEntity
  8
10000_FRONT
370
    13
100
AcDbSpline
210
0.0
220
0.0
230
1.0
 70
    24
 71
     3
 72
     8
 73
     4
 74
     0
 42
0.0000000001
 43
0.0000000001
 40
0.0
 40
0.0
 40
0.0
 40
0.0
 40
1.0
 40
1.0
 40
1.0
 40
1.0
 10
1292.818263343575
 20
115.6227295270334
 30
0.0
 10
1292.818263343575
 20
111.9947655989298
 30
0.0
 10
1292.818263343575
 20
108.3641335559742
 30
0.0
 10
1292.818263343575
 20
104.7335795621073
 30
0.0
  0
SPLINE
  5
450A
330
37
100
AcDbEntity
  8
10000_FRONT
370
    13
100
AcDbSpline
210
0.0
220
0.0
230
1.0
 70
     8
 71
     3
 72
     8
 73
     4
 74
     0
 42
0.0000000001
 43
0.0000000001
 40
0.0
 40
0.0
 40
0.0
 40
0.0
 40
1.0
 40
1.0
 40
1.0
 40
1.0
 10
1292.806337277674
 20
115.9335795621073
 30
0.0
 10
1292.810312632974
 20
115.8299651027082
 30
0.0
 10
1292.814287988275
 20
115.7263484030344
 30
0.0
 10
1292.818263343575
 20
115.6227295270334
 30
0.0
  0
LINE
  5
450B
330
37
100
AcDbEntity
  8
10000_FRONT
370
    13
100
AcDbLine
 10
1288.430189547546
 20
115.9335796552755
 30
0.0
 11
1292.806337275746
 21
115.9335796552755
 31
0.0
  0
LINE
  5
450C
330
37
100
AcDbEntity
  8
10000_FRONT
370
    13
100
AcDbLine
 10
1288.430189547546
 20
115.9335796552755
 30
0.0
 11
1288.418263496346
 21
115.6227293255755
 31
0.0
  0
SPLINE
  5
450D
330
37
100
AcDbEntity
  8
10000_FRONT
370
    13
100
AcDbSpline
210
0.0
220
0.0
230
1.0
 70
    24
 71
     3
 72
     8
 73
     4
 74
     0
 42
0.0000000001
 43
0.0000000001
 40
0.0
 40
0.0
 40
0.0
 40
0.0
 40
1.0
 40
1.0
 40
1.0
 40
1.0
 10
1288.418263343575
 20
104.7335795621073
 30
0.0
 10
1288.418263343575
 20
108.3641335559742
 30
0.0
 10
1288.418263343575
 20
111.9947655989298
 30
0.0
 10
1288.418263343575
 20
115.6227295270334
 30
0.0
  0
LINE
  5
450E
330
37
100
AcDbEntity
  8
10000_FRONT
370
    13
100
AcDbLine
 10
1288.818263282446
 20
104.7335795889755
 30
0.0
 11
1288.418263496346
 21
104.7335795889755
 31
0.0
  0
SPLINE
  5
450F
330
37
100
AcDbEntity
  8
10000_FRONT
370
    13
100
AcDbSpline
210
0.0
220
0.0
230
1.0
 70
    24
 71
     3
 72
     8
 73
     4
 74
     0
 42
0.0000000001
 43
0.0000000001
 40
0.0
 40
0.0
 40
0.0
 40
0.0
 40
1.0
 40
1.0
 40
1.0
 40
1.0
 10
1288.818263343575
 20
103.4855269705973
 30
0.0
 10
1288.818263343575
 20
103.9015407194268
 30
0.0
 10
1288.818263343575
 20
104.3175596275068
 30
0.0
 10
1288.818263343575
 20
104.7335795621073
 30
0.0
  0
LINE
  5
4510
330
37
100
AcDbEntity
  8
10000_FRONT
370
    13
100
AcDbLine
 10
1288.818263282446
 20
104.2335795069755
 30
0.0
 11
1292.418263337046
 21
104.2335795069755
 31
0.0
  0
LINE
  5
4511
330
37
100
AcDbEntity
  8
10000_FRONT
370
    13
100
AcDbLine
 10
1288.527065256046
 20
104.9048521386755
 30
0.0
 11
1292.547065190946
 21
104.9048521386755
 31
0.0
  0
LINE
  5
4512
330
37
100
AcDbEntity
  8
10000_FRONT
370
    13
100
AcDbLine
 10
1288.527065256046
 20
104.9048521386755
 30
0.0
 11
1288.527065256046
 21
115.8248519355755
 31
0.0
  0
LINE
  5
4513
330
37
100
AcDbEntity
  8
10000_FRONT
370
    13
100
AcDbLine
 10
1292.547065190946
 20
115.8248519355755
 30
0.0
 11
1288.527065256046
 21
115.8248519355755
 31
0.0
  0
LINE
  5
4514
330
37
100
AcDbEntity
  8
10000_FRONT
370
    13
100
AcDbLine
 10
1292.547065190946
 20
104.9048521386755
 30
0.0
 11
1292.547065190946
 21
115.8248519355755
 31
0.0
  0
LINE
  5
4515
330
37
100
AcDbEntity
  8
10000_FRONT
370
    13
100
AcDbLine
 10
1292.418263337046
 20
104.7335795889755
 30
0.0
 11
1292.418263337046
 21
104.9048521386755
 31
0.0
  0
LINE
  5
4516
330
37
100
AcDbEntity
  8
10000_FRONT
370
    13
100
AcDbLine
 10
1288.818219916634
 20
104.9048521386755
 30
0.0
 11
1288.818263282446
 21
104.7335795889755
 31
0.0
  0
LINE
  5
4517
330
37
100
AcDbEntity
  8
10000_FRONT
370
    13
100
AcDbLine
 10
1292.418263337046
 20
126.1835794726755
 30
0.0
 11
1293.669449363622
 21
126.1839482898198
 31
0.0
  0
LINE
  5
4518
330
37
100
AcDbEntity
  8
10000_FRONT
370
    13
100
AcDbLine
 10
1288.818263282446
 20
126.1835794726755
 30
0.0
 11
1287.568263543246
 21
126.1835794726755
 31
0.0
  0
LINE
  5
4519
330
37
100
AcDbEntity
  8
10000_FRONT
370
    13
100
AcDbLine
 10
1292.718263351346
 20
132.2406574914755
 30
0.0
 11
1292.718263351346
 21
132.2434943000755
 31
0.0
  0
LINE
  5
451A
330
37
100
AcDbEntity
  8
10000_FRONT
370
    13
100
AcDbLine
 10
1292.718263351346
 20
132.2434943000755
 30
0.0
 11
1293.669193620239
 21
132.2432375093983
 31
0.0
  0
LINE
  5
451B
330
37
100
AcDbEntity
  8
10000_FRONT
370
    13
100
AcDbLine
 10
1287.568263543246
 20
132.2406574914755
 30
0.0
 11
1292.718263351346
 21
132.2406574914755
 31
0.0
  0
LINE
  5
451C
330
37
100
AcDbEntity
  8
10000_FRONT
370
    13
100
AcDbLine
 10
1293.67109785459
 20
87.12650163277556
 30
0.0
 11
1287.568263543246
 21
87.12650163277553
 31
0.0
  0
LINE
  5
451D
330
37
100
AcDbEntity
  8
10000_FRONT
370
    13
100
AcDbLine
 10
1287.568263543246
 20
87.12650163277553
 30
0.0
 11
1287.568263543246
 21
93.23354510767551
 31
0.0
  0
LINE
  5
451E
330
37
100
AcDbEntity
  8
10000_FRONT
370
    13
100
AcDbLine
 10
1293.669145795435
 20
133.3763433244764
 30
0.0
 11
1287.568263543246
 21
133.3768281916755
 31
0.0
  0
LINE
  5
451F
330
37
100
AcDbEntity
  8
10000_FRONT
370
    13
100
AcDbLine
 10
1287.568263543246
 20
85.99033093257553
 30
0.0
 11
1293.671145808752
 21
85.99033093257553
 31
0.0
  0
SPLINE
  5
4520
330
37
100
AcDbEntity
  8
10000_FRONT
370
    13
100
AcDbSpline
210
0.0
220
0.0
230
1.0
 70
    24
 71
     3
 72
     8
 73
     4
 74
     0
 42
0.0000000001
 43
0.0000000001
 40
0.0
 40
0.0
 40
0.0
 40
0.0
 40
1.0
 40
1.0
 40
1.0
 40
1.0
 10
1287.568263343575
 20
87.12650213853731
 30
0.0
 10
1287.568263343575
 20
86.72660358017154
 30
0.0
 10
1287.568263343575
 20
86.32716641832903
 30
0.0
 10
1287.568263343575
 20
85.99033080096983
 30
0.0
  0
LINE
  5
4521
330
37
100
AcDbEntity
  8
10000_FRONT
370
    13
100
AcDbLine
 10
1292.718263351346
 20
149.2548797110755
 30
0.0
 11
1292.718263351346
 21
149.2400828579755
 31
0.0
  0
LINE
  5
4522
330
37
100
AcDbEntity
  8
10000_FRONT
370
    13
100
AcDbLine
 10
1292.718263351346
 20
149.2548797110755
 30
0.0
 11
1288.518263326446
 21
149.2548797110755
 31
0.0
  0
LINE
  5
4523
330
37
100
AcDbEntity
  8
10000_FRONT
370
    13
100
AcDbLine
 10
1288.518263326446
 20
143.8563752750755
 30
0.0
 11
1288.518263326446
 21
149.2400828579755
 31
0.0
  0
LINE
  5
4524
330
37
100
AcDbEntity
  8
10000_FRONT
370
    13
100
AcDbLine
 10
1292.718263351346
 20
143.8563752750755
 30
0.0
 11
1288.518263326446
 21
143.8563752750755
 31
0.0
  0
LINE
  5
4525
330
37
100
AcDbEntity
  8
10000_FRONT
370
    13
100
AcDbLine
 10
1292.718263351346
 20
149.2400828579755
 30
0.0
 11
1292.718263351346
 21
143.8563752750755
 31
0.0
  0
LINE
  5
4526
330
37
100
AcDbEntity
  8
10000_FRONT
370
    13
100
AcDbLine
 10
1288.518263326446
 20
139.6427664736755
 30
0.0
 11
1288.518263326446
 21
143.1810211221755
 31
0.0
  0
LINE
  5
4527
330
37
100
AcDbEntity
  8
10000_FRONT
370
    13
100
AcDbLine
 10
1288.518263326446
 20
139.6427646110755
 30
0.0
 11
1292.718263351346
 21
139.6427646110755
 31
0.0
  0
LINE
  5
4528
330
37
100
AcDbEntity
  8
10000_FRONT
370
    13
100
AcDbLine
 10
1292.718263351346
 20
143.1810211221755
 30
0.0
 11
1292.718263351346
 21
139.6427664736755
 31
0.0
  0
LINE
  5
4529
330
37
100
AcDbEntity
  8
10000_FRONT
370
    13
100
AcDbLine
 10
1288.518263326446
 20
143.1810211221755
 30
0.0
 11
1292.718263351346
 21
143.1810211221755
 31
0.0
  0
LINE
  5
452A
330
37
100
AcDbEntity
  8
10000_FRONT
370
    13
100
AcDbLine
 10
1287.568263543246
 20
150.0119071284755
 30
0.0
 11
1293.668443792276
 21
150.008797769253
 31
0.0
  0
LINE
  5
452B
330
37
100
AcDbEntity
  8
10000_FRONT
370
    13
100
AcDbLine
 10
1288.518263326446
 20
137.6094713637755
 30
0.0
 11
1288.518263326446
 21
139.3554124812755
 31
0.0
  0
LINE
  5
452C
330
37
100
AcDbEntity
  8
10000_FRONT
370
    13
100
AcDbLine
 10
1288.518263326446
 20
137.6094695011755
 30
0.0
 11
1292.718263351346
 21
137.6094695011755
 31
0.0
  0
LINE
  5
452D
330
37
100
AcDbEntity
  8
10000_FRONT
370
    13
100
AcDbLine
 10
1292.718263351346
 20
139.3554292450755
 30
0.0
 11
1292.718263351346
 21
137.6094713637755
 31
0.0
  0
LINE
  5
452E
330
37
100
AcDbEntity
  8
10000_FRONT
370
    13
100
AcDbLine
 10
1292.718263351346
 20
139.3554292450755
 30
0.0
 11
1288.518263326446
 21
139.3554124812755
 31
0.0
  0
LINE
  5
452F
330
37
100
AcDbEntity
  8
10000_FRONT
370
    13
100
AcDbLine
 10
1293.671847867166
 20
69.35656734659843
 30
0.0
 11
1287.568263543246
 21
69.35525199567553
 31
0.0
  0
LINE
  5
4530
330
37
100
AcDbEntity
  8
10000_FRONT
370
    13
100
AcDbLine
 10
1288.518263326446
 20
81.75768962307556
 30
0.0
 11
1288.518263326446
 21
80.01174664297556
 31
0.0
  0
LINE
  5
4531
330
37
100
AcDbEntity
  8
10000_FRONT
370
    13
100
AcDbLine
 10
1288.518263326446
 20
80.01174664297556
 30
0.0
 11
1292.718263351346
 21
80.01174664297556
 31
0.0
  0
LINE
  5
4532
330
37
100
AcDbEntity
  8
10000_FRONT
370
    13
100
AcDbLine
 10
1292.718263351346
 20
80.01174664297556
 30
0.0
 11
1292.718263351346
 21
81.75768962307556
 31
0.0
  0
LINE
  5
4533
330
37
100
AcDbEntity
  8
10000_FRONT
370
    13
100
AcDbLine
 10
1292.718263351346
 20
81.75768962307556
 30
0.0
 11
1288.518263326446
 21
81.75768962307556
 31
0.0
  0
LINE
  5
4534
330
37
100
AcDbEntity
  8
10000_FRONT
370
    13
100
AcDbLine
 10
1288.518263326446
 20
75.51078384917552
 30
0.0
 11
1288.518263326446
 21
70.11227941317553
 31
0.0
  0
LINE
  5
4535
330
37
100
AcDbEntity
  8
10000_FRONT
370
    13
100
AcDbLine
 10
1288.518263326446
 20
70.11227941317553
 30
0.0
 11
1292.718263351346
 21
70.11227941317553
 31
0.0
  0
LINE
  5
4536
330
37
100
AcDbEntity
  8
10000_FRONT
370
    13
100
AcDbLine
 10
1292.718263351346
 20
70.11227941317553
 30
0.0
 11
1292.718263351346
 21
75.51078384917552
 31
0.0
  0
LINE
  5
4537
330
37
100
AcDbEntity
  8
10000_FRONT
370
    13
100
AcDbLine
 10
1292.718263351346
 20
75.51078384917552
 30
0.0
 11
1288.518263326446
 21
75.51078384917552
 31
0.0
  0
LINE
  5
4538
330
37
100
AcDbEntity
  8
10000_FRONT
370
    13
100
AcDbLine
 10
1288.518263326446
 20
76.18613800207555
 30
0.0
 11
1292.718263351346
 21
76.18613800207555
 31
0.0
  0
LINE
  5
4539
330
37
100
AcDbEntity
  8
10000_FRONT
370
    13
100
AcDbLine
 10
1292.718263351346
 20
76.18613800207555
 30
0.0
 11
1292.718263351346
 21
79.72439451317554
 31
0.0
  0
LINE
  5
453A
330
37
100
AcDbEntity
  8
10000_FRONT
370
    13
100
AcDbLine
 10
1292.718263351346
 20
79.72439451317554
 30
0.0
 11
1288.518263326446
 21
79.72439451317554
 31
0.0
  0
LINE
  5
453B
330
37
100
AcDbEntity
  8
10000_FRONT
370
    13
100
AcDbLine
 10
1288.518263326446
 20
79.72439451317554
 30
0.0
 11
1288.518263326446
 21
76.18613800207555
 31
0.0
  0
LINE
  5
453C
330
37
100
AcDbEntity
  8
10000_FRONT
370
    13
100
AcDbLine
 10
1288.518263326446
 20
138.3731018582755
 30
0.0
 11
1292.718263351346
 21
138.3731018582755
 31
0.0
  0
LINE
  5
453D
330
37
100
AcDbEntity
  8
10000_FRONT
370
    13
100
AcDbLine
 10
1288.518263326446
 20
80.99405726587553
 30
0.0
 11
1292.718263351346
 21
80.99405726587553
 31
0.0
  0
LINE
  5
453E
330
37
100
AcDbEntity
  8
10000_FRONT
370
    13
100
AcDbLine
 10
1292.718263351346
 20
77.80945932667552
 30
0.0
 11
1288.518263326446
 21
77.80945932667552
 31
0.0
  0
LINE
  5
453F
330
37
100
AcDbEntity
  8
10000_FRONT
370
    13
100
AcDbLine
 10
1288.518263326446
 20
141.5576997975755
 30
0.0
 11
1292.718263351346
 21
141.5576997975755
 31
0.0
  0
LINE
  5
4540
330
37
100
AcDbEntity
  8
10000_FRONT
370
    13
100
AcDbLine
 10
1288.518263326446
 20
76.58310121097553
 30
0.0
 11
1292.718263351346
 21
76.58310121097553
 31
0.0
  0
LINE
  5
4541
330
37
100
AcDbEntity
  8
10000_FRONT
370
    13
100
AcDbLine
 10
1288.518263326446
 20
147.2703467885755
 30
0.0
 11
1292.718263351346
 21
147.2703467885755
 31
0.0
  0
LINE
  5
4542
330
37
100
AcDbEntity
  8
10000_FRONT
370
    13
100
AcDbLine
 10
1292.718263351346
 20
72.09681233567555
 30
0.0
 11
1288.518263326446
 21
72.09681233567555
 31
0.0
  0
LINE
  5
4543
330
37
100
AcDbEntity
  8
10000_FRONT
370
    13
100
AcDbLine
 10
1287.568263543246
 20
151.6619089821755
 30
0.0
 11
1293.668374014764
 21
151.6620257911335
 31
0.0
  0
LINE
  5
4544
330
37
100
AcDbEntity
  8
10000_FRONT
370
    13
100
AcDbLine
 10
1293.671917571135
 20
67.70508177182049
 30
0.0
 11
1287.568263543246
 21
67.70525014197552
 31
0.0
  0
LINE
  5
4545
330
37
100
AcDbEntity
  8
10000_FRONT
370
    13
100
AcDbLine
 10
1293.671987205217
 20
66.05525201357551
 30
0.0
 11
1287.568263543246
 21
66.05525201357552
 31
0.0
  0
LINE
  5
4546
330
37
100
AcDbEntity
  8
10000_FRONT
370
    13
100
AcDbLine
 10
1287.568263543246
 20
153.3119071105755
 30
0.0
 11
1293.668304407842
 21
153.3112120395147
 31
0.0
  0
LINE
  5
4547
102
{ACAD_REACTORS
330
461C
102
}
330
37
100
AcDbEntity
  8
10000_FRONT
370
    25
100
AcDbLine
 10
1287.568263543246
 20
154.2835783044755
 30
0.0
 11
1293.668263367346
 21
154.2835783044755
 31
0.0
  0
LINE
  5
4548
330
37
100
AcDbEntity
  8
10000_FRONT
370
    25
100
AcDbLine
 10
1287.568263543246
 20
64.93359318177553
 30
0.0
 11
1293.67203454688
 21
64.93359318177553
 31
0.0
  0
SPLINE
  5
4549
330
37
100
AcDbEntity
  8
11000_LEFT
370
    25
100
AcDbSpline
210
0.0
220
0.0
230
1.0
 70
     8
 71
     3
 72
     8
 73
     4
 74
     0
 42
0.0000000001
 43
0.0000000001
 40
0.0
 40
0.0
 40
0.0
 40
0.0
 40
1.0
 40
1.0
 40
1.0
 40
1.0
 10
1430.92256457679
 20
87.12650213853731
 30
0.0
 10
1430.923374936506
 20
86.72660358017154
 30
0.0
 10
1430.806949621034
 20
86.32716641832903
 30
0.0
 10
1430.59140083179
 20
85.99033080096983
 30
0.0
  0
LINE
  5
454A
330
37
100
AcDbEntity
  8
11000_LEFT
370
    25
100
AcDbLine
 10
1419.993689031346
 20
69.35525199567553
 30
0.0
 11
1430.591402323046
 21
85.99033093257553
 31
0.0
  0
ARC
  5
454B
330
37
100
AcDbEntity
  8
11000_LEFT
370
    25
100
AcDbCircle
 10
1418.222568888446
 20
70.48357956207553
 30
0.0
 40
2.10000000000336
100
AcDbArc
 50
220.9999999999962
 51
327.5000062624036
  0
LINE
  5
454C
330
37
100
AcDbEntity
  8
11000_LEFT
370
    25
100
AcDbLine
 10
1409.510468811746
 20
77.30477189817555
 30
0.0
 11
1416.637679309646
 21
69.10585498607552
 31
0.0
  0
SPLINE
  5
454D
330
37
100
AcDbEntity
  8
11000_LEFT
370
    25
100
AcDbSpline
210
0.0
220
0.0
230
1.0
 70
     8
 71
     3
 72
     9
 73
     5
 74
     0
 42
0.0000000001
 43
0.0000000001
 40
0.0
 40
0.0
 40
0.0
 40
0.0
 40
0.5000000000002359
 40
1.0
 40
1.0
 40
1.0
 40
1.0
 10
1409.459527820664
 20
77.34676497972739
 30
0.0
 10
1409.468868600519
 20
77.34079779166904
 30
0.0
 10
1409.487550160227
 20
77.3288634155523
 30
0.0
 10
1409.502829877878
 20
77.31280227502904
 30
0.0
 10
1409.510469736704
 20
77.30477170476738
 30
0.0
  0
LINE
  5
454E
330
37
100
AcDbEntity
  8
11000_LEFT
370
    25
100
AcDbLine
 10
1404.490483672446
 20
80.21564295687552
 30
0.0
 11
1409.459529192246
 21
77.34676337047554
 31
0.0
  0
SPLINE
  5
454F
330
37
100
AcDbEntity
  8
11000_LEFT
370
    25
100
AcDbSpline
210
0.0
220
0.0
230
1.0
 70
     8
 71
     3
 72
    13
 73
     9
 74
     0
 42
0.0000000001
 43
0.0000000001
 40
0.0
 40
0.0
 40
0.0
 40
0.0
 40
0.1279986357460351
 40
0.251074044623083
 40
0.3738534329603661
 40
0.5009963310849152
 40
0.7483268994744745
 40
1.0
 40
1.0
 40
1.0
 40
1.0
 10
1404.221806078754
 20
80.14989839569743
 30
0.0
 10
1404.229406196823
 20
80.16048476794663
 30
0.0
 10
1404.24431410871
 20
80.18125032754033
 30
0.0
 10
1404.273262289251
 20
80.20631159522304
 30
0.0
 10
1404.306275715232
 20
80.22536431487933
 30
0.0
 10
1404.354125675923
 20
80.24167654299445
 30
0.0
 10
1404.419992394177
 20
80.24732156312159
 30
0.0
 10
1404.466851115475
 20
80.22626397478111
 30
0.0
 10
1404.490484367914
 20
80.21564355477744
 30
0.0
  0
LINE
  5
4550
330
37
100
AcDbEntity
  8
11000_LEFT
370
    25
100
AcDbLine
 10
1396.293690175746
 20
67.70525014197552
 30
0.0
 11
1404.221804560246
 21
80.14989903367554
 31
0.0
  0
ARC
  5
4551
330
37
100
AcDbEntity
  8
11000_LEFT
370
    25
100
AcDbCircle
 10
1394.522568888446
 20
68.83357956207554
 30
0.0
 40
2.100000000003368
100
AcDbArc
 50
220.9999999999962
 51
327.4999999999975
  0
LINE
  5
4552
330
37
100
AcDbEntity
  8
11000_LEFT
370
    25
100
AcDbLine
 10
1385.810469956146
 20
75.65477004447551
 30
0.0
 11
1392.937680454046
 21
67.45585685767553
 31
0.0
  0
SPLINE
  5
4553
330
37
100
AcDbEntity
  8
11000_LEFT
370
    25
100
AcDbSpline
210
0.0
220
0.0
230
1.0
 70
     8
 71
     3
 72
     9
 73
     5
 74
     0
 42
0.0000000001
 43
0.0000000001
 40
0.0
 40
0.0
 40
0.0
 40
0.0
 40
0.5000000000000449
 40
1.0
 40
1.0
 40
1.0
 40
1.0
 10
1385.759527820664
 20
75.69676497972745
 30
0.0
 10
1385.768868600518
 20
75.69079779166914
 30
0.0
 10
1385.787550160227
 20
75.67886341555244
 30
0.0
 10
1385.802829877878
 20
75.66280227502911
 30
0.0
 10
1385.810469736704
 20
75.65477170476746
 30
0.0
  0
LINE
  5
4554
330
37
100
AcDbEntity
  8
11000_LEFT
370
    25
100
AcDbLine
 10
1380.863593638946
 20
78.52343356407555
 30
0.0
 11
1385.759526611346
 21
75.69676524197553
 31
0.0
  0
SPLINE
  5
4555
330
37
100
AcDbEntity
  8
11000_LEFT
370
    25
100
AcDbSpline
210
0.0
220
0.0
230
1.0
 70
     8
 71
     3
 72
    13
 73
     9
 74
     0
 42
0.0000000001
 43
0.0000000001
 40
0.0
 40
0.0
 40
0.0
 40
0.0
 40
0.1279986357448065
 40
0.2510740446217492
 40
0.3738534329595799
 40
0.5009963310848874
 40
0.7483268994760967
 40
1.0
 40
1.0
 40
1.0
 40
1.0
 10
1380.594915504464
 20
78.45768864907753
 30
0.0
 10
1380.602515622533
 20
78.46827502132663
 30
0.0
 10
1380.61742353442
 20
78.48904058092012
 30
0.0
 10
1380.64637171496
 20
78.51410184860293
 30
0.0
 10
1380.679385140941
 20
78.53315456825983
 30
0.0
 10
1380.727235101632
 20
78.54946679637634
 30
0.0
 10
1380.793101819885
 20
78.55511181650662
 30
0.0
 10
1380.839960541184
 20
78.53405422816944
 30
0.0
 10
1380.863593793624
 20
78.52343380816751
 30
0.0
  0
LINE
  5
4556
330
37
100
AcDbEntity
  8
11000_LEFT
370
    25
100
AcDbLine
 10
1372.693691150346
 20
66.05525201357552
 30
0.0
 11
1380.594914526746
 21
78.45768777827554
 31
0.0
  0
ARC
  5
4557
330
37
100
AcDbEntity
  8
11000_LEFT
370
    25
100
AcDbCircle
 10
1370.922568888446
 20
67.18357956207554
 30
0.0
 40
2.100000000003364
100
AcDbArc
 50
270.0
 51
327.4999999999975
  0
LINE
  5
4558
330
37
100
AcDbEntity
  8
11000_LEFT
370
    25
100
AcDbLine
 10
1352.922568776646
 20
65.08358081977553
 30
0.0
 11
1370.922568933146
 21
65.08358081977553
 31
0.0
  0
LINE
  5
4559
330
37
100
AcDbEntity
  8
11000_LEFT
370
    25
100
AcDbLine
 10
1352.922568776646
 20
67.69440209667553
 30
0.0
 11
1352.922568776646
 21
65.08358081977553
 31
0.0
  0
SPLINE
  5
455A
330
37
100
AcDbEntity
  8
11000_LEFT
370
    25
100
AcDbSpline
210
0.0
220
0.0
230
1.0
 70
     8
 71
     3
 72
    16
 73
    12
 74
     0
 42
0.0000000001
 43
0.0000000001
 40
0.0
 40
0.0
 40
0.0
 40
0.0
 40
0.1023721800732209
 40
0.2016583671870153
 40
0.2997626301266247
 40
0.398657329777008
 40
0.5002688083984638
 40
0.585256299624929
 40
0.673211828974212
 40
0.8345023174677415
 40
1.0
 40
1.0
 40
1.0
 40
1.0
 10
1352.513125162701
 20
68.18613157780757
 30
0.0
 10
1352.536232865908
 20
68.18084765977757
 30
0.0
 10
1352.581751694312
 20
68.17043910657961
 30
0.0
 10
1352.646057426132
 20
68.14373768131507
 30
0.0
 10
1352.705428286198
 20
68.10917139202617
 30
0.0
 10
1352.759589540653
 20
68.06597529689621
 30
0.0
 10
1352.805393658635
 20
68.01817621562456
 30
0.0
 10
1352.843222426765
 20
67.96698078980745
 30
0.0
 10
1352.881164788013
 20
67.89957877575517
 30
0.0
 10
1352.915113549787
 20
67.80848062670404
 30
0.0
 10
1352.920062537183
 20
67.7327521212503
 30
0.0
 10
1352.922568888444
 20
67.69440038986758
 30
0.0
  0
ARC
  5
455B
330
37
100
AcDbEntity
  8
11000_LEFT
370
    25
100
AcDbCircle
 10
1345.422568888446
 20
29.68357956207554
 30
0.0
 40
39.15000000000001
100
AcDbArc
 50
79.56543068999366
 51
91.48259182309656
  0
SPLINE
  5
455C
330
37
100
AcDbEntity
  8
11000_LEFT
370
    25
100
AcDbSpline
210
0.0
220
0.0
230
1.0
 70
     8
 71
     3
 72
    16
 73
    12
 74
     0
 42
0.0000000001
 43
0.0000000001
 40
0.0
 40
0.0
 40
0.0
 40
0.0
 40
0.102841559945855
 40
0.201886876579799
 40
0.2995081359118754
 40
0.3981802851308447
 40
0.5003018941117085
 40
0.6285619738676213
 40
0.7598107138856677
 40
0.8778480195640256
 40
1.0
 40
1.0
 40
1.0
 40
1.0
 10
1343.922568888444
 20
68.32064078574761
 30
0.0
 10
1343.923798370277
 20
68.34711606821071
 30
0.0
 10
1343.926211949449
 20
68.39908933744024
 30
0.0
 10
1343.944125304316
 20
68.47448198912946
 30
0.0
 10
1343.972693903419
 20
68.54518314815935
 30
0.0
 10
1344.012872159529
 20
68.61098855873985
 30
0.0
 10
1344.067339953128
 20
68.67614702528013
 30
0.0
 10
1344.138844730355
 20
68.73672598211117
 30
0.0
 10
1344.224873584394
 20
68.78300445361232
 30
0.0
 10
1344.316438469843
 20
68.8129482269321
 30
0.0
 10
1344.378214911774
 20
68.81793652541007
 30
0.0
 10
1344.409632277836
 20
68.82047340183762
 30
0.0
  0
LINE
  5
455D
330
37
100
AcDbEntity
  8
11000_LEFT
370
    13
100
AcDbLine
 10
1343.922568698446
 20
66.33359452887553
 30
0.0
 11
1343.922568698446
 21
68.32064202227553
 31
0.0
  0
SPLINE
  5
455E
330
37
100
AcDbEntity
  8
11000_LEFT
370
    13
100
AcDbSpline
210
0.0
220
0.0
230
1.0
 70
     8
 71
     3
 72
    13
 73
     9
 74
     0
 42
0.0000000001
 43
0.0000000001
 40
0.0
 40
0.0
 40
0.0
 40
0.0
 40
0.1281482339373789
 40
0.2510936230913012
 40
0.3737471315497699
 40
0.5010535066067737
 40
0.7483541261336001
 40
1.0
 40
1.0
 40
1.0
 40
1.0
 10
1344.122568888443
 20
66.13359383048763
 30
0.0
 10
1344.109169176062
 20
66.13435304216274
 30
0.0
 10
1344.082913782391
 20
66.13584064136205
 30
0.0
 10
1344.045256927701
 20
66.14739684488886
 30
0.0
 10
1344.010741475194
 20
66.16600131572806
 30
0.0
 10
1343.970797454745
 20
66.19928980511443
 30
0.0
 10
1343.930785927112
 20
66.25446610967085
 30
0.0
 10
1343.925323757753
 20
66.30706523078348
 30
0.0
 10
1343.922568888443
 20
66.33359383048762
 30
0.0
  0
LINE
  5
455F
330
37
100
AcDbEntity
  8
11000_LEFT
370
    13
100
AcDbLine
 10
1344.291198047846
 20
66.13359486857553
 30
0.0
 11
1344.122568824346
 21
66.13359486857553
 31
0.0
  0
SPLINE
  5
4560
330
37
100
AcDbEntity
  8
11000_LEFT
370
    13
100
AcDbSpline
210
0.0
220
0.0
230
1.0
 70
     8
 71
     3
 72
    12
 73
     8
 74
     0
 42
0.0000000001
 43
0.0000000001
 40
0.0
 40
0.0
 40
0.0
 40
0.0
 40
0.1685551951066653
 40
0.3330258983120792
 40
0.500462192766888
 40
0.7480669745772346
 40
1.0
 40
1.0
 40
1.0
 40
1.0
 10
1344.479759846866
 20
66.26692716383761
 30
0.0
 10
1344.474374482085
 20
66.25417570138035
 30
0.0
 10
1344.463734252675
 20
66.22898177462578
 30
0.0
 10
1344.438428967343
 20
66.19616825255261
 30
0.0
 10
1344.402534889986
 20
66.16499478663242
 30
0.0
 10
1344.353005138195
 20
66.13886480581102
 30
0.0
 10
1344.311919068465
 20
66.13536094200071
 30
0.0
 10
1344.291198038545
 20
66.13359383048763
 30
0.0
  0
ARC
  5
4561
330
37
100
AcDbEntity
  8
11000_LEFT
370
    13
100
AcDbCircle
 10
1345.422568888446
 20
65.93359383047576
 30
0.0
 40
0.9999999999997307
100
AcDbArc
 50
0.0092386840611585
 51
160.5287793651184
  0
LINE
  5
4562
330
37
100
AcDbEntity
  8
11000_LEFT
370
    25
100
AcDbLine
 10
1342.922569000246
 20
64.93359318177553
 30
0.0
 11
1345.422568944346
 21
64.93359318177553
 31
0.0
  0
SPLINE
  5
4563
330
37
100
AcDbEntity
  8
11000_LEFT
370
    25
100
AcDbSpline
210
0.0
220
0.0
230
1.0
 70
     8
 71
     3
 72
    10
 73
     6
 74
     0
 42
0.0000000001
 43
0.0000000001
 40
0.0
 40
0.0
 40
0.0
 40
0.0
 40
0.5
 40
0.5
 40
1.0
 40
1.0
 40
1.0
 40
1.0
 10
1342.922568888448
 20
64.93359383048761
 30
0.0
 10
1342.660769500649
 20
64.93359383048761
 30
0.0
 10
1342.400582229685
 20
65.04136692687781
 30
0.0
 10
1342.030341984838
 20
65.41160717172437
 30
0.0
 10
1341.922568888448
 20
65.67179444268848
 30
0.0
 10
1341.922568888448
 20
65.93359383048761
 30
0.0
  0
LINE
  5
4564
330
37
100
AcDbEntity
  8
11000_LEFT
370
    25
100
AcDbLine
 10
1341.922568836246
 20
70.51205521627555
 30
0.0
 11
1341.922568836246
 21
65.93359520837552
 31
0.0
  0
SPLINE
  5
4565
102
{ACAD_REACTORS
330
4667
102
}
330
37
100
AcDbEntity
  8
11000_LEFT
370
    25
100
AcDbSpline
210
0.0
220
0.0
230
1.0
 70
     8
 71
     3
 72
     8
 73
     4
 74
     0
 42
0.0000000001
 43
0.0000000001
 40
0.0
 40
0.0
 40
0.0
 40
0.0
 40
1.0
 40
1.0
 40
1.0
 40
1.0
 10
1341.922568888448
 20
70.51205479957762
 30
0.0
 10
1341.922568888448
 20
70.86112064997665
 30
0.0
 10
1342.01598515568
 20
71.2097549055389
 30
0.0
 10
1342.190518080879
 20
71.51205479957802
 30
0.0
  0
LINE
  5
4566
330
37
100
AcDbEntity
  8
11000_LEFT
370
    25
100
AcDbLine
 10
1342.454619918946
 20
71.96949308907554
 30
0.0
 11
1342.190518257246
 21
71.51205351747552
 31
0.0
  0
SPLINE
  5
4567
330
37
100
AcDbEntity
  8
11000_LEFT
370
    25
100
AcDbSpline
210
0.0
220
0.0
230
1.0
 70
     8
 71
     3
 72
    13
 73
     9
 74
     0
 42
0.0000000001
 43
0.0000000001
 40
0.0
 40
0.0
 40
0.0
 40
0.0
 40
0.1253947068070652
 40
0.2501912303657356
 40
0.3749247141781857
 40
0.5001311100620163
 40
0.7496798468228713
 40
1.0
 40
1.0
 40
1.0
 40
1.0
 10
1342.722568888448
 20
72.96949221535766
 30
0.0
 10
1342.72173519147
 20
72.92573238800503
 30
0.0
 10
1342.720071774584
 20
72.83842148529848
 30
0.0
 10
1342.70677712544
 20
72.70814677509431
 30
0.0
 10
1342.685605256359
 20
72.57902638216518
 30
0.0
 10
1342.645757930426
 20
72.40932105706519
 30
0.0
 10
1342.5771095742
 20
72.20123136384265
 30
0.0
 10
1342.495491640697
 20
72.04681803033491
 30
0.0
 10
1342.454619696017
 20
71.96949221535766
 30
0.0
  0
LINE
  5
4568
330
37
100
AcDbEntity
  8
11000_LEFT
370
    25
100
AcDbLine
 10
1342.722568874246
 20
90.41319115257548
 30
0.0
 11
1342.722568874246
 21
72.96949139037555
 31
0.0
  0
SPLINE
  5
4569
330
37
100
AcDbEntity
  8
11000_LEFT
370
    25
100
AcDbSpline
210
0.0
220
0.0
230
1.0
 70
     8
 71
     3
 72
     8
 73
     4
 74
     0
 42
0.0000000001
 43
0.0000000001
 40
0.0
 40
0.0
 40
0.0
 40
0.0
 40
1.0
 40
1.0
 40
1.0
 40
1.0
 10
1342.722568888448
 20
90.41319080189763
 30
0.0
 10
1342.722568888448
 20
90.63678613281334
 30
0.0
 10
1342.800248278557
 20
90.85964299931351
 30
0.0
 10
1342.939235555116
 20
91.03479267519743
 30
0.0
  0
ARC
  5
456A
330
37
100
AcDbEntity
  8
11000_LEFT
370
    25
100
AcDbCircle
 10
1348.422568888446
 20
86.68357956207554
 30
0.0
 40
6.999999999999997
100
AcDbArc
 50
112.0025218560032
 51
141.5667936592033
  0
SPLINE
  5
456B
330
37
100
AcDbEntity
  8
11000_LEFT
370
    25
100
AcDbSpline
210
0.0
220
0.0
230
1.0
 70
     8
 71
     3
 72
     8
 73
     4
 74
     0
 42
0.0000000001
 43
0.0000000001
 40
0.0
 40
0.0
 40
0.0
 40
0.0
 40
1.0
 40
1.0
 40
1.0
 40
1.0
 10
1345.80003706911
 20
93.17375112043412
 30
0.0
 10
1345.918719575897
 20
93.22170804231994
 30
0.0
 10
1346.046678988495
 20
93.24658375495763
 30
0.0
 10
1346.17468447187
 20
93.24658375495763
 30
0.0
  0
LINE
  5
456C
330
37
100
AcDbEntity
  8
11000_LEFT
370
    25
100
AcDbLine
 10
1346.467235920946
 20
93.24658362367555
 30
0.0
 11
1346.174684450046
 21
93.24658362367555
 31
0.0
  0
SPLINE
  5
456D
330
37
100
AcDbEntity
  8
11000_LEFT
370
    25
100
AcDbSpline
210
0.0
220
0.0
230
1.0
 70
     8
 71
     3
 72
    10
 73
     6
 74
     0
 42
0.0000000001
 43
0.0000000001
 40
0.0
 40
0.0
 40
0.0
 40
0.0
 40
0.5
 40
0.5
 40
1.0
 40
1.0
 40
1.0
 40
1.0
 10
1346.467235966366
 20
93.24658375495763
 30
0.0
 10
1346.536176471819
 20
93.24658375495763
 30
0.0
 10
1346.604863243648
 20
93.22192268398884
 30
0.0
 10
1346.711255621246
 20
93.13421957596345
 30
0.0
 10
1346.748569652812
 20
93.07150032777004
 30
0.0
 10
1346.761724121399
 20
93.00382645357744
 30
0.0
  0
LINE
  5
456E
330
37
100
AcDbEntity
  8
11000_LEFT
370
    25
100
AcDbLine
 10
1346.872568925846
 20
92.43357999427551
 30
0.0
 11
1346.761724077246
 21
93.00382694407554
 31
0.0
  0
LINE
  5
456F
330
37
100
AcDbEntity
  8
11000_LEFT
370
    25
100
AcDbLine
 10
1352.387690664346
 20
92.04792490407552
 30
0.0
 11
1346.872568925846
 21
92.43357999427551
 31
0.0
  0
SPLINE
  5
4570
330
37
100
AcDbEntity
  8
11000_LEFT
370
    25
100
AcDbSpline
210
0.0
220
0.0
230
1.0
 70
     8
 71
     3
 72
    16
 73
    12
 74
     0
 42
0.0000000001
 43
0.0000000001
 40
0.0
 40
0.0
 40
0.0
 40
0.0
 40
0.0842350459739136
 40
0.1671127969969274
 40
0.2501114247672778
 40
0.3736584904918565
 40
0.5000857521500795
 40
0.6236302379138784
 40
0.7500574988997654
 40
0.8728605737861022
 40
1.0
 40
1.0
 40
1.0
 40
1.0
 10
1352.922568888444
 20
92.54670670486765
 30
0.0
 10
1352.921533278145
 20
92.52369933313351
 30
0.0
 10
1352.919478744526
 20
92.47805531172202
 30
0.0
 10
1352.905061366792
 20
92.41099998754473
 30
0.0
 10
1352.878906359069
 20
92.33625421318851
 30
0.0
 10
1352.834122386224
 20
92.25631164951613
 30
0.0
 10
1352.766485449419
 20
92.17908221992905
 30
0.0
 10
1352.684226613962
 20
92.11623068780545
 30
0.0
 10
1352.591564708511
 20
92.07271273249807
 30
0.0
 10
1352.491016681828
 20
92.04694613030994
 30
0.0
 10
1352.422528736477
 20
92.04759474556743
 30
0.0
 10
1352.387690651572
 20
92.04792467973762
 30
0.0
  0
LINE
  5
4571
330
37
100
AcDbEntity
  8
11000_LEFT
370
    25
100
AcDbLine
 10
1352.922568776646
 20
92.98357999127551
 30
0.0
 11
1352.922568776646
 21
92.54670588477551
 31
0.0
  0
SPLINE
  5
4572
330
37
100
AcDbEntity
  8
11000_LEFT
370
    25
100
AcDbSpline
210
0.0
220
0.0
230
1.0
 70
     8
 71
     3
 72
    16
 73
    12
 74
     0
 42
0.0000000001
 43
0.0000000001
 40
0.0
 40
0.0
 40
0.0
 40
0.0
 40
0.0804152154889309
 40
0.1600429305394207
 40
0.2401437714378742
 40
0.3697760140290642
 40
0.5000912907394002
 40
0.6297238400942126
 40
0.7600394251521318
 40
0.8795087071203438
 40
1.0
 40
1.0
 40
1.0
 40
1.0
 10
1352.422568888444
 20
93.48357956210763
 30
0.0
 10
1352.443605910513
 20
93.48280483662794
 30
0.0
 10
1352.485473940603
 20
93.48126297249979
 30
0.0
 10
1352.547318483607
 20
93.46904385192685
 30
0.0
 10
1352.619416661311
 20
93.44571051364413
 30
0.0
 10
1352.699042313637
 20
93.40460775064013
 30
0.0
 10
1352.778369375635
 20
93.33965640445663
 30
0.0
 10
1352.843581319886
 20
93.26019641476532
 30
0.0
 10
1352.889108306384
 20
93.17141110107924
 30
0.0
 10
1352.917489702466
 20
93.07797827071613
 30
0.0
 10
1352.920871026011
 20
93.01513501642693
 30
0.0
 10
1352.922568888444
 20
92.98357956210763
 30
0.0
  0
LINE
  5
4573
330
37
100
AcDbEntity
  8
11000_LEFT
370
    25
100
AcDbLine
 10
1348.422568912146
 20
93.48357914187555
 30
0.0
 11
1352.422568694746
 21
93.48357914187555
 31
0.0
  0
SPLINE
  5
4574
330
37
100
AcDbEntity
  8
11000_LEFT
370
    25
100
AcDbSpline
210
0.0
220
0.0
230
1.0
 70
     8
 71
     3
 72
    10
 73
     6
 74
     0
 42
0.0000000001
 43
0.0000000001
 40
0.0
 40
0.0
 40
0.0
 40
0.0
 40
0.5
 40
0.5
 40
1.0
 40
1.0
 40
1.0
 40
1.0
 10
1348.422568888444
 20
93.48357956210763
 30
0.0
 10
1348.291669194545
 20
93.48357956210763
 30
0.0
 10
1348.161575559063
 20
93.53746611030272
 30
0.0
 10
1347.976455436639
 20
93.72258623272594
 30
0.0
 10
1347.922568888444
 20
93.85267986820805
 30
0.0
 10
1347.922568888444
 20
93.98357956210764
 30
0.0
  0
LINE
  5
4575
330
37
100
AcDbEntity
  8
11000_LEFT
370
    25
100
AcDbLine
 10
1347.922568888446
 20
98.18357953977553
 30
0.0
 11
1347.922568888446
 21
93.98358015517551
 31
0.0
  0
SPLINE
  5
4576
330
37
100
AcDbEntity
  8
11000_LEFT
370
    25
100
AcDbSpline
210
0.0
220
0.0
230
1.0
 70
     8
 71
     3
 72
    10
 73
     6
 74
     0
 42
0.0000000001
 43
0.0000000001
 40
0.0
 40
0.0
 40
0.0
 40
0.0
 40
0.5
 40
0.5
 40
1.0
 40
1.0
 40
1.0
 40
1.0
 10
1347.922568888444
 20
98.18357956210764
 30
0.0
 10
1347.922568888444
 20
98.31447925600723
 30
0.0
 10
1347.976455436639
 20
98.44457289148925
 30
0.0
 10
1348.161575559063
 20
98.62969301391254
 30
0.0
 10
1348.291669194545
 20
98.68357956210765
 30
0.0
 10
1348.422568888444
 20
98.68357956210765
 30
0.0
  0
LINE
  5
4577
330
37
100
AcDbEntity
  8
11000_LEFT
370
    25
100
AcDbLine
 10
1352.422568694746
 20
98.6835796216755
 30
0.0
 11
1348.422568912146
 21
98.6835796216755
 31
0.0
  0
SPLINE
  5
4578
330
37
100
AcDbEntity
  8
11000_LEFT
370
    25
100
AcDbSpline
210
0.0
220
0.0
230
1.0
 70
     8
 71
     3
 72
    16
 73
    12
 74
     0
 42
0.0000000001
 43
0.0000000001
 40
0.0
 40
0.0
 40
0.0
 40
0.0
 40
0.0807576425691817
 40
0.160391964398911
 40
0.2400994672200493
 40
0.3685853545819352
 40
0.5000663029152283
 40
0.628553522500401
 40
0.7600358334767493
 40
0.8779631324777
 40
1.0
 40
1.0
 40
1.0
 40
1.0
 10
1352.922568888445
 20
99.18357956210764
 30
0.0
 10
1352.921695436066
 20
99.16245978125264
 30
0.0
 10
1352.919960680834
 20
99.12051399096904
 30
0.0
 10
1352.90776593443
 20
99.05870111146477
 30
0.0
 10
1352.884841001477
 20
98.98689176134684
 30
0.0
 10
1352.843727460679
 20
98.90738844522708
 30
0.0
 10
1352.779082854107
 20
98.82819825593696
 30
0.0
 10
1352.699444361983
 20
98.76275024798657
 30
0.0
 10
1352.611060872629
 20
98.71728353323888
 30
0.0
 10
1352.517356918226
 20
98.68884507347823
 30
0.0
 10
1352.454523587867
 20
98.6853546579033
 30
0.0
 10
1352.422568888445
 20
98.68357956210765
 30
0.0
  0
LINE
  5
4579
330
37
100
AcDbEntity
  8
11000_LEFT
370
    25
100
AcDbLine
 10
1352.922568776646
 20
121.6835796663755
 30
0.0
 11
1352.922568776646
 21
99.18357970367551
 31
0.0
  0
SPLINE
  5
457A
330
37
100
AcDbEntity
  8
11000_LEFT
370
    25
100
AcDbSpline
210
0.0
220
0.0
230
1.0
 70
     8
 71
     3
 72
    16
 73
    12
 74
     0
 42
0.0000000001
 43
0.0000000001
 40
0.0
 40
0.0
 40
0.0
 40
0.0
 40
0.0807576425693534
 40
0.1603919643990918
 40
0.2400994672200588
 40
0.3685853545821324
 40
0.500066302915232
 40
0.6285535225004061
 40
0.7600358334767514
 40
0.8779631324776996
 40
1.0
 40
1.0
 40
1.0
 40
1.0
 10
1352.422568888445
 20
122.1835795621075
 30
0.0
 10
1352.4436886693
 20
122.182706109728
 30
0.0
 10
1352.485634459584
 20
122.1809713544961
 30
0.0
 10
1352.547447339088
 20
122.1687766080921
 30
0.0
 10
1352.619256689206
 20
122.1458516751387
 30
0.0
 10
1352.698760005326
 20
122.1047381343411
 30
0.0
 10
1352.777950194616
 20
122.0400935277692
 30
0.0
 10
1352.843398202567
 20
121.9604550356447
 30
0.0
 10
1352.888864917314
 20
121.8720715462913
 30
0.0
 10
1352.917303377075
 20
121.7783675918885
 30
0.0
 10
1352.92079379265
 20
121.7155342615287
 30
0.0
 10
1352.922568888445
 20
121.6835795621075
 30
0.0
  0
LINE
  5
457B
330
37
100
AcDbEntity
  8
11000_LEFT
370
    25
100
AcDbLine
 10
1348.922568935946
 20
122.1835797483755
 30
0.0
 11
1352.422568694746
 21
122.1835797483755
 31
0.0
  0
SPLINE
  5
457C
330
37
100
AcDbEntity
  8
11000_LEFT
370
    25
100
AcDbSpline
210
0.0
220
0.0
230
1.0
 70
     8
 71
     3
 72
    10
 73
     6
 74
     0
 42
0.0000000001
 43
0.0000000001
 40
0.0
 40
0.0
 40
0.0
 40
0.0
 40
0.5
 40
0.5
 40
1.0
 40
1.0
 40
1.0
 40
1.0
 10
1348.922568888444
 20
122.1835795621075
 30
0.0
 10
1348.660769500645
 20
122.1835795621075
 30
0.0
 10
1348.400582229681
 20
122.2913526584978
 30
0.0
 10
1348.030341984834
 20
122.6615929033443
 30
0.0
 10
1347.922568888444
 20
122.9217801743084
 30
0.0
 10
1347.922568888444
 20
123.1835795621076
 30
0.0
  0
LINE
  5
457D
330
37
100
AcDbEntity
  8
11000_LEFT
370
    25
100
AcDbLine
 10
1347.922568888446
 20
125.8765913376755
 30
0.0
 11
1347.922568888446
 21
123.1835799122755
 31
0.0
  0
LINE
  5
457E
330
37
100
AcDbEntity
  8
11000_LEFT
370
    25
100
AcDbLine
 10
1348.162884309746
 20
126.7146698961755
 30
0.0
 11
1347.922568888446
 21
125.8765913376755
 31
0.0
  0
SPLINE
  5
457F
330
37
100
AcDbEntity
  8
11000_LEFT
370
    25
100
AcDbSpline
210
0.0
220
0.0
230
1.0
 70
     8
 71
     3
 72
    14
 73
    10
 74
     0
 42
0.0000000001
 43
0.0000000001
 40
0.0
 40
0.0
 40
0.0
 40
0.0
 40
0.0845928831772504
 40
0.1676282650311164
 40
0.2510012592685337
 40
0.5001074048290523
 40
0.7492135503906143
 40
0.8724294426878442
 40
1.0
 40
1.0
 40
1.0
 40
1.0
 10
1347.922568888445
 20
127.0335795621076
 30
0.0
 10
1347.935548234663
 20
127.0329269114781
 30
0.0
 10
1347.961267954881
 20
127.0316336266462
 30
0.0
 10
1347.99888499853
 20
127.0224688556981
 30
0.0
 10
1348.058183699573
 20
126.9988292097791
 30
0.0
 10
1348.129684534209
 20
126.9394526162118
 30
0.0
 10
1348.168879918349
 20
126.8489699756444
 30
0.0
 10
1348.17510243406
 20
126.7716803316557
 30
0.0
 10
1348.167003894025
 20
126.7338923102621
 30
0.0
 10
1348.162884312336
 20
126.7146702232776
 30
0.0
  0
LINE
  5
4580
330
37
100
AcDbEntity
  8
11000_LEFT
370
    25
100
AcDbLine
 10
1347.382643764446
 20
127.0335789600755
 30
0.0
 11
1347.922568888446
 21
127.0335789600755
 31
0.0
  0
SPLINE
  5
4581
330
37
100
AcDbEntity
  8
11000_LEFT
370
    25
100
AcDbSpline
210
0.0
220
0.0
230
1.0
 70
     8
 71
     3
 72
    17
 73
    13
 74
     0
 42
0.0000000001
 43
0.0000000001
 40
0.0
 40
0.0
 40
0.0
 40
0.0
 40
0.0640576613043465
 40
0.125863335229076
 40
0.1873587289062533
 40
0.2505141745498744
 40
0.3739772479250023
 40
0.5003850149439663
 40
0.62383128440969
 40
0.7502295076573601
 40
0.8729336972748509
 40
1.0
 40
1.0
 40
1.0
 40
1.0
 10
1346.892328323417
 20
127.1024889010376
 30
0.0
 10
1346.897394330274
 20
127.1168828504272
 30
0.0
 10
1346.907348245329
 20
127.145164720861
 30
0.0
 10
1346.930927156144
 20
127.1833332783083
 30
0.0
 10
1346.960520633613
 20
127.2165981846246
 30
0.0
 10
1347.007028338235
 20
127.2532063408794
 30
0.0
 10
1347.076834542591
 20
127.2838527896918
 30
0.0
 10
1347.167391691039
 20
127.2861143595676
 30
0.0
 10
1347.254701093494
 20
127.2590614213484
 30
0.0
 10
1347.32414470333
 20
127.2014984645634
 30
0.0
 10
1347.373663920082
 20
127.1238254446288
 30
0.0
 10
1347.379615822531
 20
127.0640097397819
 30
0.0
 10
1347.382643747212
 20
127.0335795621076
 30
0.0
  0
LINE
  5
4582
330
37
100
AcDbEntity
  8
11000_LEFT
370
    25
100
AcDbLine
 10
1346.485317548746
 20
125.6830736825755
 30
0.0
 11
1346.892328331246
 21
127.1024893800755
 31
0.0
  0
LINE
  5
4583
330
37
100
AcDbEntity
  8
11000_LEFT
370
    25
100
AcDbLine
 10
1345.735823483246
 20
124.9335797334755
 30
0.0
 11
1346.485317548746
 21
125.6830736825755
 31
0.0
  0
LINE
  5
4584
330
37
100
AcDbEntity
  8
11000_LEFT
370
    25
100
AcDbLine
 10
1344.813877464346
 20
124.9335797334755
 30
0.0
 11
1345.735823483246
 21
124.9335797334755
 31
0.0
  0
SPLINE
  5
4585
330
37
100
AcDbEntity
  8
11000_LEFT
370
    25
100
AcDbSpline
210
0.0
220
0.0
230
1.0
 70
     8
 71
     3
 72
    14
 73
    10
 74
     0
 42
0.0000000001
 43
0.0000000001
 40
0.0
 40
0.0
 40
0.0
 40
0.0
 40
0.2500000000000012
 40
0.2500000000000012
 40
0.5000000000000023
 40
0.5000000000000023
 40
0.7500000000000011
 40
0.7500000000000011
 40
1.0
 40
1.0
 40
1.0
 40
1.0
 10
1344.813877389513
 20
124.9335795621076
 30
0.0
 10
1344.675705490397
 20
124.9335795621076
 30
0.0
 10
1344.537601025007
 20
124.9626198079877
 30
0.0
 10
1344.284660374301
 20
125.0739163579891
 30
0.0
 10
1344.169947634713
 20
125.1561183446902
 30
0.0
 10
1343.983252470692
 20
125.3598603642954
 30
0.0
 10
1343.911361161389
 20
125.4813009624831
 30
0.0
 10
1343.822533358646
 20
125.742979231129
 30
0.0
 10
1343.805640216927
 20
125.8830891915325
 30
0.0
 10
1343.817682691422
 20
126.0207353048575
 30
0.0
  0
LINE
  5
4586
330
37
100
AcDbEntity
  8
11000_LEFT
370
    25
100
AcDbLine
 10
1346.170565908846
 20
152.9143143276755
 30
0.0
 11
1343.817682684446
 21
126.0207358578755
 31
0.0
  0
ARC
  5
4587
330
37
100
AcDbEntity
  8
11000_LEFT
370
    25
100
AcDbCircle
 10
1347.664857923946
 20
152.7835795620755
 30
0.0
 40
1.5
100
AcDbArc
 50
90.0
 51
175.0000000000005
  0
LINE
  5
4588
330
37
100
AcDbEntity
  8
11000_LEFT
370
    25
100
AcDbLine
 10
1370.922568933146
 20
154.2835783044755
 30
0.0
 11
1347.664857933146
 21
154.2835783044755
 31
0.0
  0
ARC
  5
4589
330
37
100
AcDbEntity
  8
11000_LEFT
370
    25
100
AcDbCircle
 10
1370.922568888446
 20
152.1835795620755
 30
0.0
 40
2.100000000000012
100
AcDbArc
 50
32.50000000000245
 51
90.0
  0
LINE
  5
458A
330
37
100
AcDbEntity
  8
11000_LEFT
370
    25
100
AcDbLine
 10
1372.693691150346
 20
153.3119071105755
 30
0.0
 11
1373.175972820346
 21
152.5548796931755
 31
0.0
  0
LINE
  5
458B
330
37
100
AcDbEntity
  8
11000_LEFT
370
    25
100
AcDbLine
 10
1376.615198076746
 20
147.1563752571755
 30
0.0
 11
1373.175972820346
 21
152.5548796931755
 31
0.0
  0
LINE
  5
458C
330
37
100
AcDbEntity
  8
11000_LEFT
370
    25
100
AcDbLine
 10
1379.482628525246
 20
142.6554124633755
 30
0.0
 11
1376.615198076746
 21
147.1563752571755
 31
0.0
  0
LINE
  5
458D
330
37
100
AcDbEntity
  8
11000_LEFT
370
    25
100
AcDbLine
 10
1380.594914526746
 20
140.9094713459755
 30
0.0
 11
1379.482628525246
 21
142.6554124633755
 31
0.0
  0
SPLINE
  5
458E
330
37
100
AcDbEntity
  8
11000_LEFT
370
    25
100
AcDbSpline
210
0.0
220
0.0
230
1.0
 70
     8
 71
     3
 72
    13
 73
     9
 74
     0
 42
0.0000000001
 43
0.0000000001
 40
0.0
 40
0.0
 40
0.0
 40
0.0
 40
0.1279986357435772
 40
0.2510740446202826
 40
0.3738534329586129
 40
0.5009963310848199
 40
0.7483268994775118
 40
1.0
 40
1.0
 40
1.0
 40
1.0
 10
1380.863593793624
 20
140.8437253160474
 30
0.0
 10
1380.851964163859
 20
140.8378444331579
 30
0.0
 10
1380.82915221617
 20
140.8263088644823
 30
0.0
 10
1380.791902860831
 20
140.8174460307763
 30
0.0
 10
1380.753822027466
 20
140.8157899657054
 30
0.0
 10
1380.703846445255
 20
140.8234154956465
 30
0.0
 10
1380.642815372402
 20
140.8488221674498
 30
0.0
 10
1380.610974491194
 20
140.8891374260028
 30
0.0
 10
1380.594915504464
 20
140.9094704751374
 30
0.0
  0
LINE
  5
458F
330
37
100
AcDbEntity
  8
11000_LEFT
370
    25
100
AcDbLine
 10
1385.759526611346
 20
143.6703938821755
 30
0.0
 11
1380.863593638946
 21
140.8437255600755
 31
0.0
  0
SPLINE
  5
4590
330
37
100
AcDbEntity
  8
11000_LEFT
370
    25
100
AcDbSpline
210
0.0
220
0.0
230
1.0
 70
     8
 71
     3
 72
     9
 73
     5
 74
     0
 42
0.0000000001
 43
0.0000000001
 40
0.0
 40
0.0
 40
0.0
 40
0.0
 40
0.4999999999997372
 40
1.0
 40
1.0
 40
1.0
 40
1.0
 10
1385.810469736705
 20
143.7123874194575
 30
0.0
 10
1385.802829877907
 20
143.704356849162
 30
0.0
 10
1385.78755016031
 20
143.6882957085711
 30
0.0
 10
1385.768868600546
 20
143.676361332522
 30
0.0
 10
1385.759527820664
 20
143.6703941444974
 30
0.0
  0
LINE
  5
4591
330
37
100
AcDbEntity
  8
11000_LEFT
370
    25
100
AcDbLine
 10
1392.937680454046
 20
151.9113022664755
 30
0.0
 11
1385.810469956146
 21
143.7123890797755
 31
0.0
  0
ARC
  5
4592
330
37
100
AcDbEntity
  8
11000_LEFT
370
    25
100
AcDbCircle
 10
1394.522568888446
 20
150.5335795620755
 30
0.0
 40
2.099999999999988
100
AcDbArc
 50
32.50000000000245
 51
139.0000000000038
  0
LINE
  5
4593
330
37
100
AcDbEntity
  8
11000_LEFT
370
    25
100
AcDbLine
 10
1396.293690175746
 20
151.6619089821755
 30
0.0
 11
1396.775973708446
 21
150.9048778394754
 31
0.0
  0
LINE
  5
4594
330
37
100
AcDbEntity
  8
11000_LEFT
370
    25
100
AcDbLine
 10
1400.215198964846
 20
145.5063771287755
 30
0.0
 11
1396.775973708446
 21
150.9048778394754
 31
0.0
  0
LINE
  5
4595
330
37
100
AcDbEntity
  8
11000_LEFT
370
    25
100
AcDbLine
 10
1404.194915414846
 20
139.2594713548755
 30
0.0
 11
1400.215198964846
 21
145.5063771287755
 31
0.0
  0
LINE
  5
4596
330
37
100
AcDbEntity
  8
11000_LEFT
370
    25
100
AcDbLine
 10
1404.221804560246
 20
139.2172600904755
 30
0.0
 11
1404.194915414846
 21
139.2594713548755
 31
0.0
  0
SPLINE
  5
4597
330
37
100
AcDbEntity
  8
11000_LEFT
370
    25
100
AcDbSpline
210
0.0
220
0.0
230
1.0
 70
     8
 71
     3
 72
    13
 73
     9
 74
     0
 42
0.0000000001
 43
0.0000000001
 40
0.0
 40
0.0
 40
0.0
 40
0.0
 40
0.1279986357541818
 40
0.2510740446320289
 40
0.373853432965705
 40
0.5009963310856078
 40
0.7483268994660534
 40
1.0
 40
1.0
 40
1.0
 40
1.0
 10
1404.490484367914
 20
139.1515155694374
 30
0.0
 10
1404.478854738148
 20
139.145634686543
 30
0.0
 10
1404.456042790461
 20
139.1340991178582
 30
0.0
 10
1404.41879343512
 20
139.1252362841413
 30
0.0
 10
1404.380712601753
 20
139.1235802190636
 30
0.0
 10
1404.330737019539
 20
139.1312057490008
 30
0.0
 10
1404.269705946681
 20
139.1566124208104
 30
0.0
 10
1404.237865065481
 20
139.1969276793757
 30
0.0
 10
1404.221806078754
 20
139.2172607285174
 30
0.0
  0
LINE
  5
4598
330
37
100
AcDbEntity
  8
11000_LEFT
370
    25
100
AcDbLine
 10
1409.459529192246
 20
142.0203957537755
 30
0.0
 11
1404.490483672446
 21
139.1515161672755
 31
0.0
  0
SPLINE
  5
4599
330
37
100
AcDbEntity
  8
11000_LEFT
370
    25
100
AcDbSpline
210
0.0
220
0.0
230
1.0
 70
     8
 71
     3
 72
     9
 73
     5
 74
     0
 42
0.0000000001
 43
0.0000000001
 40
0.0
 40
0.0
 40
0.0
 40
0.0
 40
0.5000000000000845
 40
1.0
 40
1.0
 40
1.0
 40
1.0
 10
1409.510469736704
 20
142.0623874194474
 30
0.0
 10
1409.502829877885
 20
142.0543568491777
 30
0.0
 10
1409.487550160246
 20
142.0382957086385
 30
0.0
 10
1409.468868600525
 20
142.0263613325376
 30
0.0
 10
1409.459527820665
 20
142.0203941444874
 30
0.0
  0
LINE
  5
459A
330
37
100
AcDbEntity
  8
11000_LEFT
370
    25
100
AcDbLine
 10
1416.637679309646
 20
150.2613041380755
 30
0.0
 11
1409.510468811746
 21
142.0623872259755
 31
0.0
  0
ARC
  5
459B
330
37
100
AcDbEntity
  8
11000_LEFT
370
    25
100
AcDbCircle
 10
1418.222568930946
 20
148.8835801334755
 30
0.0
 40
2.099999657207237
100
AcDbArc
 50
32.49998747519793
 51
139.0000062624011
  0
LINE
  5
459C
330
37
100
AcDbEntity
  8
11000_LEFT
370
    25
100
AcDbLine
 10
1420.475972564046
 20
149.2548797110755
 30
0.0
 11
1419.993689031346
 21
150.0119071284755
 31
0.0
  0
LINE
  5
459D
330
37
100
AcDbEntity
  8
11000_LEFT
370
    25
100
AcDbLine
 10
1420.485397548446
 20
149.2400828579755
 30
0.0
 11
1420.475972564046
 21
149.2548797110755
 31
0.0
  0
LINE
  5
459E
330
37
100
AcDbEntity
  8
11000_LEFT
370
    25
100
AcDbLine
 10
1423.915197820446
 20
143.8563752750755
 30
0.0
 11
1420.485397548446
 21
149.2400828579755
 31
0.0
  0
LINE
  5
459F
330
37
100
AcDbEntity
  8
11000_LEFT
370
    25
100
AcDbLine
 10
1424.345446498146
 20
143.1810211221755
 30
0.0
 11
1423.915197820446
 21
143.8563752750755
 31
0.0
  0
LINE
  5
45A0
330
37
100
AcDbEntity
  8
11000_LEFT
370
    25
100
AcDbLine
 10
1426.599560053146
 20
139.6427664736755
 30
0.0
 11
1424.345446498146
 21
143.1810211221755
 31
0.0
  0
LINE
  5
45A1
330
37
100
AcDbEntity
  8
11000_LEFT
370
    25
100
AcDbLine
 10
1426.782628268946
 20
139.3554124812755
 30
0.0
 11
1426.599560053146
 21
139.6427664736755
 31
0.0
  0
LINE
  5
45A2
330
37
100
AcDbEntity
  8
11000_LEFT
370
    25
100
AcDbLine
 10
1427.894917995746
 20
137.6094695011755
 30
0.0
 11
1426.782628268946
 21
139.3554124812755
 31
0.0
  0
LINE
  5
45A3
330
37
100
AcDbEntity
  8
11000_LEFT
370
    25
100
AcDbLine
 10
1430.591402323046
 20
133.3768281916755
 30
0.0
 11
1427.894917995746
 21
137.6094695011755
 31
0.0
  0
SPLINE
  5
45A4
330
37
100
AcDbEntity
  8
11000_LEFT
370
    25
100
AcDbSpline
210
0.0
220
0.0
230
1.0
 70
     8
 71
     3
 72
     8
 73
     4
 74
     0
 42
0.0000000001
 43
0.0000000001
 40
0.0
 40
0.0
 40
0.0
 40
0.0
 40
1.0
 40
1.0
 40
1.0
 40
1.0
 10
1430.591400831791
 20
133.3768283232448
 30
0.0
 10
1430.806949621034
 20
133.0399927058856
 30
0.0
 10
1430.923374936506
 20
132.640555544043
 30
0.0
 10
1430.92256457679
 20
132.2406569856773
 30
0.0
  0
LINE
  5
45A5
330
37
100
AcDbEntity
  8
11000_LEFT
370
    25
100
AcDbLine
 10
1430.922565729446
 20
126.1835794726755
 30
0.0
 11
1430.922565729446
 21
132.2406574914755
 31
0.0
  0
LINE
  5
45A6
330
37
100
AcDbEntity
  8
11000_LEFT
370
    25
100
AcDbLine
 10
1430.922565729446
 20
126.1835794726755
 30
0.0
 11
1431.922567755946
 21
126.1835794726755
 31
0.0
  0
LINE
  5
45A7
330
37
100
AcDbEntity
  8
11000_LEFT
370
    13
100
AcDbLine
 10
1431.922567755946
 20
123.7835798243755
 30
0.0
 11
1431.922567755946
 21
126.1835794726755
 31
0.0
  0
LINE
  5
45A8
330
37
100
AcDbEntity
  8
11000_LEFT
370
    13
100
AcDbLine
 10
1433.294741184446
 20
123.7835798243755
 30
0.0
 11
1431.922567755946
 21
123.7835798243755
 31
0.0
  0
ARC
  5
45A9
330
37
100
AcDbEntity
  8
11000_LEFT
370
    25
100
AcDbCircle
 10
1153.920085185939
 20
105.0436165686425
 30
0.0
 40
280.0024830531224
100
AcDbArc
 50
357.5826426168508
 51
1.53131853178072
  0
LINE
  5
45AA
330
37
100
AcDbEntity
  8
11000_LEFT
370
    25
100
AcDbLine
 10
1431.922567755946
 20
93.23357863527553
 30
0.0
 11
1433.673394591546
 21
93.23357863527553
 31
0.0
  0
LINE
  5
45AB
330
37
100
AcDbEntity
  8
11000_LEFT
370
    25
100
AcDbLine
 10
1430.922565729446
 20
93.23354510767551
 30
0.0
 11
1431.922567755946
 21
93.23356187147554
 31
0.0
  0
LINE
  5
45AC
330
37
100
AcDbEntity
  8
11000_LEFT
370
    25
100
AcDbLine
 10
1430.922565729446
 20
87.12650163277553
 30
0.0
 11
1430.922565729446
 21
93.23354510767551
 31
0.0
  0
LINE
  5
45AD
330
37
100
AcDbEntity
  8
11000_LEFT
370
    13
100
AcDbLine
 10
1348.340000035546
 20
88.55498654937553
 30
0.0
 11
1352.466146674946
 21
88.19399474357553
 31
0.0
  0
SPLINE
  5
45AE
330
37
100
AcDbEntity
  8
11000_LEFT
370
    13
100
AcDbSpline
210
0.0
220
0.0
230
1.0
 70
     8
 71
     3
 72
    13
 73
     9
 74
     0
 42
0.0000000001
 43
0.0000000001
 40
0.0
 40
0.0
 40
0.0
 40
0.0
 40
0.1286056357552632
 40
0.2513321721500059
 40
0.3736763383425537
 40
0.5011843237619718
 40
0.7483571572054336
 40
1.0
 40
1.0
 40
1.0
 40
1.0
 10
1348.122568888444
 20
88.35574766060762
 30
0.0
 10
1348.123413725508
 20
88.36994206878173
 30
0.0
 10
1348.125064778613
 20
88.39768199960074
 30
0.0
 10
1348.137880459441
 20
88.43726783493373
 30
0.0
 10
1348.15854644526
 20
88.47312239917973
 30
0.0
 10
1348.195315859176
 20
88.51382841903411
 30
0.0
 10
1348.255906710193
 20
88.55321851649845
 30
0.0
 10
1348.311801964376
 20
88.55439372853032
 30
0.0
 10
1348.340000036994
 20
88.55498660022762
 30
0.0
  0
LINE
  5
45AF
330
37
100
AcDbEntity
  8
11000_LEFT
370
    13
100
AcDbLine
 10
1348.122568883346
 20
86.66387086907553
 30
0.0
 11
1348.122568883346
 21
88.35574684837553
 31
0.0
  0
SPLINE
  5
45B0
330
37
100
AcDbEntity
  8
11000_LEFT
370
    13
100
AcDbSpline
210
0.0
220
0.0
230
1.0
 70
     8
 71
     3
 72
    12
 73
     8
 74
     0
 42
0.0000000001
 43
0.0000000001
 40
0.0
 40
0.0
 40
0.0
 40
0.0
 40
0.1685359721681796
 40
0.3330408695657446
 40
0.5004553359504219
 40
0.7480637722109657
 40
1.0
 40
1.0
 40
1.0
 40
1.0
 10
1348.254164859779
 20
86.4759315914476
 30
0.0
 10
1348.241558527303
 20
86.48138767274414
 30
0.0
 10
1348.216647382957
 20
86.49216933576845
 30
0.0
 10
1348.184258254701
 20
86.51750375970474
 30
0.0
 10
1348.153505585416
 20
86.55329202380764
 30
0.0
 10
1348.12776624031
 20
86.60252971580725
 30
0.0
 10
1348.124311316279
 20
86.64330556219104
 30
0.0
 10
1348.122568888444
 20
86.66387011559763
 30
0.0
  0
LINE
  5
45B1
330
37
100
AcDbEntity
  8
11000_LEFT
370
    13
100
AcDbLine
 10
1352.251558777946
 20
85.02099922097553
 30
0.0
 11
1348.254164865046
 21
86.47593183617553
 31
0.0
  0
SPLINE
  5
45B2
330
37
100
AcDbEntity
  8
11000_LEFT
370
    13
100
AcDbSpline
210
0.0
220
0.0
230
1.0
 70
     8
 71
     3
 72
    17
 73
    13
 74
     0
 42
0.0000000001
 43
0.0000000001
 40
0.0
 40
0.0
 40
0.0
 40
0.0
 40
0.0631425788824772
 40
0.1253056074982311
 40
0.1873947778451187
 40
0.2503189712128099
 40
0.3749873582804707
 40
0.5002153403026571
 40
0.6248840046493319
 40
0.7501121971684901
 40
0.8746334869663293
 40
1.0
 40
1.0
 40
1.0
 40
1.0
 10
1352.922568888444
 20
85.49084548684763
 30
0.0
 10
1352.921866719653
 20
85.47066566692334
 30
0.0
 10
1352.920473275031
 20
85.43061908283425
 30
0.0
 10
1352.909423774346
 20
85.37157340429793
 30
0.0
 10
1352.8917385716
 20
85.31433054040144
 30
0.0
 10
1352.85904147074
 20
85.24142357810053
 30
0.0
 10
1352.802471303536
 20
85.15776216473444
 30
0.0
 10
1352.712165358523
 20
85.07761409678153
 30
0.0
 10
1352.605743669443
 20
85.01991231949663
 30
0.0
 10
1352.488771023534
 20
84.99087503514743
 30
0.0
 10
1352.367289861842
 20
84.98748886120974
 30
0.0
 10
1352.290222722713
 20
85.00980391181796
 30
0.0
 10
1352.251558816781
 20
85.02099917645763
 30
0.0
  0
LINE
  5
45B3
330
37
100
AcDbEntity
  8
11000_LEFT
370
    13
100
AcDbLine
 10
1352.922568776646
 20
87.69589735367553
 30
0.0
 11
1352.922568776646
 21
85.49084587197553
 31
0.0
  0
SPLINE
  5
45B4
330
37
100
AcDbEntity
  8
11000_LEFT
370
    13
100
AcDbSpline
210
0.0
220
0.0
230
1.0
 70
     8
 71
     3
 72
    16
 73
    12
 74
     0
 42
0.0000000001
 43
0.0000000001
 40
0.0
 40
0.0
 40
0.0
 40
0.0
 40
0.1026425952752419
 40
0.2017788034529059
 40
0.299590061675547
 40
0.3983456476167721
 40
0.5002517727042373
 40
0.6281420134424117
 40
0.7590097108564857
 40
0.8774391972685871
 40
1.0
 40
1.0
 40
1.0
 40
1.0
 10
1352.466146759818
 20
88.19399553793763
 30
0.0
 10
1352.491323298687
 20
88.19064645258164
 30
0.0
 10
1352.540816317393
 20
88.18406269041162
 30
0.0
 10
1352.611623877323
 20
88.16122173034603
 30
0.0
 10
1352.677426497045
 20
88.12894724017075
 30
0.0
 10
1352.737978244085
 20
88.08636209595283
 30
0.0
 10
1352.797245014782
 20
88.03055008363925
 30
0.0
 10
1352.851528448717
 20
87.95914125570414
 30
0.0
 10
1352.892288620213
 20
87.87480652367696
 30
0.0
 10
1352.917815691471
 20
87.78583420327832
 30
0.0
 10
1352.920966484684
 20
87.72621753151794
 30
0.0
 10
1352.922568888444
 20
87.69589818888764
 30
0.0
  0
LINE
  5
45B5
330
37
100
AcDbEntity
  8
11000_LEFT
370
    13
100
AcDbLine
 10
1347.251558831446
 20
85.56383734747553
 30
0.0
 11
1352.593579077246
 21
83.61950030727554
 31
0.0
  0
SPLINE
  5
45B6
330
37
100
AcDbEntity
  8
11000_LEFT
370
    13
100
AcDbSpline
210
0.0
220
0.0
230
1.0
 70
     8
 71
     3
 72
    10
 73
     6
 74
     0
 42
0.0000000001
 43
0.0000000001
 40
0.0
 40
0.0
 40
0.0
 40
0.0
 40
0.5
 40
0.5
 40
1.0
 40
1.0
 40
1.0
 40
1.0
 10
1347.251558816781
 20
85.56383702081495
 30
0.0
 10
1347.155887890676
 20
85.59865839020195
 30
0.0
 10
1347.071389184036
 20
85.66349652825675
 30
0.0
 10
1346.954596548564
 20
85.83029369780822
 30
0.0
 10
1346.922568888445
 20
85.93187245817473
 30
0.0
 10
1346.922568888445
 20
86.03368333120764
 30
0.0
  0
LINE
  5
45B7
330
37
100
AcDbEntity
  8
11000_LEFT
370
    13
100
AcDbLine
 10
1346.922568840946
 20
89.33642206887553
 30
0.0
 11
1346.922568840946
 21
86.03368399837551
 31
0.0
  0
SPLINE
  5
45B8
330
37
100
AcDbEntity
  8
11000_LEFT
370
    13
100
AcDbSpline
210
0.0
220
0.0
230
1.0
 70
     8
 71
     3
 72
     8
 73
     4
 74
     0
 42
0.0000000001
 43
0.0000000001
 40
0.0
 40
0.0
 40
0.0
 40
0.0
 40
1.0
 40
1.0
 40
1.0
 40
1.0
 10
1346.922571146312
 20
89.33642269301303
 30
0.0
 10
1346.92215440175
 20
89.47509483952631
 30
0.0
 10
1346.982533492077
 20
89.61287801266122
 30
0.0
 10
1347.084773784639
 20
89.70656397997492
 30
0.0
  0
SPLINE
  5
45B9
330
37
100
AcDbEntity
  8
11000_LEFT
370
    13
100
AcDbSpline
210
0.0
220
0.0
230
1.0
 70
     8
 71
     3
 72
     8
 73
     4
 74
     0
 42
0.0000000001
 43
0.0000000001
 40
0.0
 40
0.0
 40
0.0
 40
0.0
 40
1.0
 40
1.0
 40
1.0
 40
1.0
 10
1347.084773784639
 20
89.70656397997492
 30
0.0
 10
1347.187014077199
 20
89.80024994728744
 30
0.0
 10
1347.329535328225
 20
89.84839068215299
 30
0.0
 10
1347.46764346367
 20
89.83588944950144
 30
0.0
  0
LINE
  5
45BA
330
37
100
AcDbEntity
  8
11000_LEFT
370
    13
100
AcDbLine
 10
1352.377494079146
 20
89.40633459187553
 30
0.0
 11
1347.467643654946
 21
89.83589222827554
 31
0.0
  0
SPLINE
  5
45BB
330
37
100
AcDbEntity
  8
11000_LEFT
370
    13
100
AcDbSpline
210
0.0
220
0.0
230
1.0
 70
     8
 71
     3
 72
    16
 73
    12
 74
     0
 42
0.0000000001
 43
0.0000000001
 40
0.0
 40
0.0
 40
0.0
 40
0.0
 40
0.0854439758754692
 40
0.1688853360006616
 40
0.2519054101393542
 40
0.3773120951760341
 40
0.5036078604257827
 40
0.6270700298665563
 40
0.7554889564013939
 40
0.8742860239066924
 40
1.0
 40
1.0
 40
1.0
 40
1.0
 10
1352.922568888444
 20
89.90430183148761
 30
0.0
 10
1352.921496329431
 20
89.88067333322023
 30
0.0
 10
1352.919376349788
 20
89.83397013585403
 30
0.0
 10
1352.904459249376
 20
89.76561719901514
 30
0.0
 10
1352.876961670127
 20
89.68956961684204
 30
0.0
 10
1352.830483133556
 20
89.60871296725903
 30
0.0
 10
1352.76066411737
 20
89.53101520682361
 30
0.0
 10
1352.675523867248
 20
89.46904188457983
 30
0.0
 10
1352.581553175172
 20
89.42673615815603
 30
0.0
 10
1352.480171857526
 20
89.40289439424573
 30
0.0
 10
1352.412359467907
 20
89.40516699829434
 30
0.0
 10
1352.377494109673
 20
89.40633544486763
 30
0.0
  0
LINE
  5
45BC
330
37
100
AcDbEntity
  8
11000_LEFT
370
    13
100
AcDbLine
 10
1352.922568776646
 20
90.51762780347551
 30
0.0
 11
1352.922568776646
 21
89.90430159667551
 31
0.0
  0
SPLINE
  5
45BD
330
37
100
AcDbEntity
  8
11000_LEFT
370
    13
100
AcDbSpline
210
0.0
220
0.0
230
1.0
 70
     8
 71
     3
 72
    14
 73
    10
 74
     0
 42
0.0000000001
 43
0.0000000001
 40
0.0
 40
0.0
 40
0.0
 40
0.0
 40
0.1021229787310406
 40
0.201695544565767
 40
0.3002670883459915
 40
0.3994339321690408
 40
0.5007642676009069
 40
0.7482186372976069
 40
1.0
 40
1.0
 40
1.0
 40
1.0
 10
1352.577741302237
 20
90.99294034012762
 30
0.0
 10
1352.59775764769
 20
90.98552432568723
 30
0.0
 10
1352.637290451633
 20
90.97087750388832
 30
0.0
 10
1352.692276986531
 20
90.94027462106891
 30
0.0
 10
1352.742621977335
 20
90.90375158980981
 30
0.0
 10
1352.788135606505
 20
90.86068535301823
 30
0.0
 10
1352.847565546408
 20
90.78850099616303
 30
0.0
 10
1352.908949702776
 20
90.67521030549221
 30
0.0
 10
1352.918003004194
 20
90.57045828140385
 30
0.0
 10
1352.922568888444
 20
90.51762831419763
 30
0.0
  0
ARC
  5
45BE
330
37
100
AcDbEntity
  8
11000_LEFT
370
    13
100
AcDbCircle
 10
1347.922568888446
 20
76.73357956207553
 30
0.0
 40
15.00000000000001
100
AcDbArc
 50
71.91998737559825
 51
98.62267077629734
  0
SPLINE
  5
45BF
330
37
100
AcDbEntity
  8
11000_LEFT
370
    13
100
AcDbSpline
210
0.0
220
0.0
230
1.0
 70
     8
 71
     3
 72
    15
 73
    11
 74
     0
 42
0.0000000001
 43
0.0000000001
 40
0.0
 40
0.0
 40
0.0
 40
0.0
 40
0.1004836919936174
 40
0.2003283860625971
 40
0.2999374217470736
 40
0.399716996437786
 40
0.5000712367076
 40
0.6667490952740529
 40
0.8327641547637322
 40
1.0
 40
1.0
 40
1.0
 40
1.0
 10
1344.558880022168
 20
91.00079067522759
 30
0.0
 10
1344.589514685746
 20
91.03031774807785
 30
0.0
 10
1344.650589200329
 20
91.08918412461994
 30
0.0
 10
1344.748844726385
 20
91.16979174163459
 30
0.0
 10
1344.851427895595
 20
91.24420613748979
 30
0.0
 10
1344.958847061598
 20
91.31190089116131
 30
0.0
 10
1345.095225095306
 20
91.38633930916284
 30
0.0
 10
1345.263273071164
 20
91.46027038732141
 30
0.0
 10
1345.465067050085
 20
91.52595376135504
 30
0.0
 10
1345.6039676315
 20
91.55130306926194
 30
0.0
 10
1345.673672336895
 20
91.56402415380764
 30
0.0
  0
LINE
  5
45C0
330
37
100
AcDbEntity
  8
11000_LEFT
370
    13
100
AcDbLine
 10
1344.558879946446
 20
91.00079050457551
 30
0.0
 11
1344.069015448046
 21
90.51092600627553
 31
0.0
  0
SPLINE
  5
45C1
330
37
100
AcDbEntity
  8
11000_LEFT
370
    13
100
AcDbSpline
210
0.0
220
0.0
230
1.0
 70
     8
 71
     3
 72
    12
 73
     8
 74
     0
 42
0.0000000001
 43
0.0000000001
 40
0.0
 40
0.0
 40
0.0
 40
0.0
 40
0.1678013618424941
 40
0.333606315331907
 40
0.5001866506130827
 40
0.7479382154628924
 40
1.0
 40
1.0
 40
1.0
 40
1.0
 10
1343.922569781992
 20
90.15954913470762
 30
0.0
 10
1343.923533426284
 20
90.1813736193282
 30
0.0
 10
1343.925449249957
 20
90.22476293284954
 30
0.0
 10
1343.938804577477
 20
90.2887137675165
 30
0.0
 10
1343.963209908254
 20
90.36016307751074
 30
0.0
 10
1344.003686322893
 20
90.43779096444211
 30
0.0
 10
1344.047114270267
 20
90.48640800317114
 30
0.0
 10
1344.06901549785
 20
90.51092615090764
 30
0.0
  0
LINE
  5
45C2
330
37
100
AcDbEntity
  8
11000_LEFT
370
    13
100
AcDbLine
 10
1343.922568698446
 20
81.75936786627556
 30
0.0
 11
1343.922569629746
 21
90.15954917467551
 31
0.0
  0
SPLINE
  5
45C3
330
37
100
AcDbEntity
  8
11000_LEFT
370
    13
100
AcDbSpline
210
0.0
220
0.0
230
1.0
 70
     8
 71
     3
 72
    14
 73
    10
 74
     0
 42
0.0000000001
 43
0.0000000001
 40
0.0
 40
0.0
 40
0.0
 40
0.0
 40
0.1024605568841186
 40
0.201898096455738
 40
0.3001748925913469
 40
0.3992187155429373
 40
0.5009137247352347
 40
0.7482904748018762
 40
1.0
 40
1.0
 40
1.0
 40
1.0
 10
1344.324263803697
 20
81.26912738078763
 30
0.0
 10
1344.301512832518
 20
81.27469951728031
 30
0.0
 10
1344.256682139485
 20
81.28567938880625
 30
0.0
 10
1344.193466964645
 20
81.31293555863923
 30
0.0
 10
1344.13518746385
 20
81.34780835269124
 30
0.0
 10
1344.081997900415
 20
81.391055205465
 30
0.0
 10
1344.012091967245
 20
81.46569627066559
 30
0.0
 10
1343.938642146792
 20
81.58686901175512
 30
0.0
 10
1343.927957560336
 20
81.70153667836563
 30
0.0
 10
1343.922568888443
 20
81.75936825047763
 30
0.0
  0
ARC
  5
45C4
330
37
100
AcDbEntity
  8
11000_LEFT
370
    13
100
AcDbCircle
 10
1350.222568888446
 20
110.6835795620755
 30
0.0
 40
30.00000000000001
100
AcDbArc
 50
258.6611994160046
 51
274.2768762493934
  0
SPLINE
  5
45C5
330
37
100
AcDbEntity
  8
11000_LEFT
370
    13
100
AcDbSpline
210
0.0
220
0.0
230
1.0
 70
     8
 71
     3
 72
    16
 73
    12
 74
     0
 42
0.0000000001
 43
0.0000000001
 40
0.0
 40
0.0
 40
0.0
 40
0.0
 40
0.1026826443782564
 40
0.2018004436277247
 40
0.2995733364934834
 40
0.3983120158969682
 40
0.5002615270340071
 40
0.6282265130235471
 40
0.7591712161477073
 40
0.8775216307679009
 40
1.0
 40
1.0
 40
1.0
 40
1.0
 10
1352.922568888444
 20
81.26572783904761
 30
0.0
 10
1352.921409031973
 20
81.24012910913233
 30
0.0
 10
1352.919129585901
 20
81.18982036334104
 30
0.0
 10
1352.902276804136
 20
81.11670171938524
 30
0.0
 10
1352.875423962138
 20
81.04785178025172
 30
0.0
 10
1352.837663585061
 20
80.98344597984494
 30
0.0
 10
1352.786410613104
 20
80.91926946093613
 30
0.0
 10
1352.718967023368
 20
80.85889113447654
 30
0.0
 10
1352.637364283397
 20
80.81124784422453
 30
0.0
 10
1352.549887095982
 20
80.77869270409532
 30
0.0
 10
1352.490208026763
 20
80.77102151946974
 30
0.0
 10
1352.459857024037
 20
80.76712018272763
 30
0.0
  0
LINE
  5
45C6
330
37
100
AcDbEntity
  8
11000_LEFT
370
    13
100
AcDbLine
 10
1352.922568776646
 20
83.14965365627553
 30
0.0
 11
1352.922568776646
 21
81.26572778617553
 31
0.0
  0
SPLINE
  5
45C7
330
37
100
AcDbEntity
  8
11000_LEFT
370
    13
100
AcDbSpline
210
0.0
220
0.0
230
1.0
 70
     8
 71
     3
 72
    13
 73
     9
 74
     0
 42
0.0000000001
 43
0.0000000001
 40
0.0
 40
0.0
 40
0.0
 40
0.0
 40
0.1270875784096266
 40
0.2509505161581844
 40
0.3744924557799062
 40
0.5006392079354527
 40
0.7481565046891109
 40
1.0
 40
1.0
 40
1.0
 40
1.0
 10
1352.593578960107
 20
83.61950069779762
 30
0.0
 10
1352.617453461698
 20
83.60953770427013
 30
0.0
 10
1352.664596688222
 20
83.58986451197655
 30
0.0
 10
1352.728445188273
 20
83.54770310790753
 30
0.0
 10
1352.785192970172
 20
83.49684231529893
 30
0.0
 10
1352.84909836203
 20
83.41845193288873
 30
0.0
 10
1352.909609420726
 20
83.30301816441084
 30
0.0
 10
1352.918224187938
 20
83.20107005462844
 30
0.0
 10
1352.922568888444
 20
83.14965438740761
 30
0.0
  0
ARC
  5
45C8
330
37
100
AcDbEntity
  8
11000_LEFT
370
    13
100
AcDbCircle
 10
1345.422568888446
 20
41.08357956207552
 30
0.0
 40
39.15
100
AcDbArc
 50
79.56543068999366
 51
91.48259182309656
  0
SPLINE
  5
45C9
330
37
100
AcDbEntity
  8
11000_LEFT
370
    13
100
AcDbSpline
210
0.0
220
0.0
230
1.0
 70
     8
 71
     3
 72
    16
 73
    12
 74
     0
 42
0.0000000001
 43
0.0000000001
 40
0.0
 40
0.0
 40
0.0
 40
0.0
 40
0.1028415599445431
 40
0.2018868765775606
 40
0.2995081359090949
 40
0.398180285127872
 40
0.500301894108858
 40
0.6285619738656584
 40
0.759810713884348
 40
0.877848019563557
 40
1.0
 40
1.0
 40
1.0
 40
1.0
 10
1343.922568888443
 20
79.72064078575764
 30
0.0
 10
1343.923798370276
 20
79.7471160682203
 30
0.0
 10
1343.926211949448
 20
79.79908933744903
 30
0.0
 10
1343.944125304316
 20
79.87448198913714
 30
0.0
 10
1343.972693903418
 20
79.94518314816623
 30
0.0
 10
1344.012872159529
 20
80.01098855874614
 30
0.0
 10
1344.067339953128
 20
80.07614702528623
 30
0.0
 10
1344.138844730354
 20
80.13672598211732
 30
0.0
 10
1344.224873584394
 20
80.1830044536193
 30
0.0
 10
1344.316438469842
 20
80.21294822694022
 30
0.0
 10
1344.378214911773
 20
80.21793652541942
 30
0.0
 10
1344.409632277835
 20
80.22047340184762
 30
0.0
  0
LINE
  5
45CA
330
37
100
AcDbEntity
  8
11000_LEFT
370
    13
100
AcDbLine
 10
1343.922568698446
 20
70.45936843557554
 30
0.0
 11
1343.922568698446
 21
79.72064128317554
 31
0.0
  0
SPLINE
  5
45CB
330
37
100
AcDbEntity
  8
11000_LEFT
370
    13
100
AcDbSpline
210
0.0
220
0.0
230
1.0
 70
     8
 71
     3
 72
    14
 73
    10
 74
     0
 42
0.0000000001
 43
0.0000000001
 40
0.0
 40
0.0
 40
0.0
 40
0.0
 40
0.1024605568842587
 40
0.2018980964559506
 40
0.3001748925915449
 40
0.3992187155430779
 40
0.5009137247352628
 40
0.7482904748020776
 40
1.0
 40
1.0
 40
1.0
 40
1.0
 10
1344.324263803698
 20
69.96912738078761
 30
0.0
 10
1344.301512832519
 20
69.97469951728032
 30
0.0
 10
1344.256682139486
 20
69.98567938880625
 30
0.0
 10
1344.193466964646
 20
70.01293555863927
 30
0.0
 10
1344.135187463851
 20
70.04780835269123
 30
0.0
 10
1344.081997900415
 20
70.09105520546497
 30
0.0
 10
1344.012091967246
 20
70.16569627066565
 30
0.0
 10
1343.938642146793
 20
70.28686901175523
 30
0.0
 10
1343.927957560337
 20
70.40153667836566
 30
0.0
 10
1343.922568888444
 20
70.45936825047764
 30
0.0
  0
ARC
  5
45CC
330
37
100
AcDbEntity
  8
11000_LEFT
370
    13
100
AcDbCircle
 10
1350.222568888446
 20
99.38357956207553
 30
0.0
 40
30.00000000000001
100
AcDbArc
 50
258.6611994160046
 51
274.2768762493934
  0
SPLINE
  5
45CD
330
37
100
AcDbEntity
  8
11000_LEFT
370
    13
100
AcDbSpline
210
0.0
220
0.0
230
1.0
 70
     8
 71
     3
 72
    16
 73
    12
 74
     0
 42
0.0000000001
 43
0.0000000001
 40
0.0
 40
0.0
 40
0.0
 40
0.0
 40
0.102682644378631
 40
0.2018004436283226
 40
0.2995733364941003
 40
0.3983120158974695
 40
0.5002615270342466
 40
0.628226513024491
 40
0.7591712161478527
 40
0.877521630768253
 40
1.0
 40
1.0
 40
1.0
 40
1.0
 10
1352.922568888444
 20
69.96572783904759
 30
0.0
 10
1352.921409031973
 20
69.94012910913224
 30
0.0
 10
1352.919129585901
 20
69.88982036334083
 30
0.0
 10
1352.902276804135
 20
69.81670171938489
 30
0.0
 10
1352.875423962138
 20
69.74785178025133
 30
0.0
 10
1352.837663585061
 20
69.68344597984468
 30
0.0
 10
1352.786410613103
 20
69.61926946093597
 30
0.0
 10
1352.718967023368
 20
69.55889113447645
 30
0.0
 10
1352.637364283397
 20
69.51124784422446
 30
0.0
 10
1352.549887095981
 20
69.47869270409538
 30
0.0
 10
1352.490208026763
 20
69.47102151946977
 30
0.0
 10
1352.459857024037
 20
69.46712018272759
 30
0.0
  0
LINE
  5
45CE
330
37
100
AcDbEntity
  8
11000_LEFT
370
    13
100
AcDbLine
 10
1352.922568776646
 20
79.09439949497552
 30
0.0
 11
1352.922568776646
 21
69.96572649277553
 31
0.0
  0
SPLINE
  5
45CF
330
37
100
AcDbEntity
  8
11000_LEFT
370
    13
100
AcDbSpline
210
0.0
220
0.0
230
1.0
 70
     8
 71
     3
 72
    16
 73
    12
 74
     0
 42
0.0000000001
 43
0.0000000001
 40
0.0
 40
0.0
 40
0.0
 40
0.0
 40
0.1023721800737033
 40
0.2016583671877284
 40
0.2997626301273663
 40
0.3986573297775707
 40
0.5002688083986832
 40
0.5852562996254096
 40
0.6732118289743596
 40
0.8345023174675645
 40
1.0
 40
1.0
 40
1.0
 40
1.0
 10
1352.5131251627
 20
79.58613157780764
 30
0.0
 10
1352.536232865907
 20
79.58084765977762
 30
0.0
 10
1352.581751694312
 20
79.57043910657962
 30
0.0
 10
1352.646057426132
 20
79.54373768131514
 30
0.0
 10
1352.705428286198
 20
79.50917139202633
 30
0.0
 10
1352.759589540653
 20
79.46597529689644
 30
0.0
 10
1352.805393658635
 20
79.41817621562464
 30
0.0
 10
1352.843222426765
 20
79.36698078980753
 30
0.0
 10
1352.881164788013
 20
79.29957877575531
 30
0.0
 10
1352.915113549788
 20
79.20848062670422
 30
0.0
 10
1352.920062537183
 20
79.13275212125043
 30
0.0
 10
1352.922568888444
 20
79.09440038986762
 30
0.0
  0
LINE
  5
45D0
330
37
100
AcDbEntity
  8
11000_LEFT
370
    13
100
AcDbLine
 10
1352.422568694746
 20
123.3835795725755
 30
0.0
 11
1349.622568910946
 21
123.3835795725755
 31
0.0
  0
SPLINE
  5
45D1
330
37
100
AcDbEntity
  8
11000_LEFT
370
    13
100
AcDbSpline
210
0.0
220
0.0
230
1.0
 70
     8
 71
     3
 72
    16
 73
    12
 74
     0
 42
0.0000000001
 43
0.0000000001
 40
0.0
 40
0.0
 40
0.0
 40
0.0
 40
0.0807576425693251
 40
0.1603919643990567
 40
0.2400994672200539
 40
0.3685853545820474
 40
0.5000663029152236
 40
0.6285535225004768
 40
0.7600358334767532
 40
0.8779631324778144
 40
1.0
 40
1.0
 40
1.0
 40
1.0
 10
1352.922568888444
 20
123.8835795621076
 30
0.0
 10
1352.921695436065
 20
123.8624597812526
 30
0.0
 10
1352.919960680833
 20
123.8205139909689
 30
0.0
 10
1352.907765934429
 20
123.7587011114646
 30
0.0
 10
1352.884841001476
 20
123.6868917613467
 30
0.0
 10
1352.843727460678
 20
123.607388445227
 30
0.0
 10
1352.779082854106
 20
123.5281982559369
 30
0.0
 10
1352.699444361981
 20
123.4627502479865
 30
0.0
 10
1352.611060872628
 20
123.4172835332388
 30
0.0
 10
1352.517356918225
 20
123.3888450734782
 30
0.0
 10
1352.454523587865
 20
123.3853546579033
 30
0.0
 10
1352.422568888444
 20
123.3835795621076
 30
0.0
  0
LINE
  5
45D2
330
37
100
AcDbEntity
  8
11000_LEFT
370
    13
100
AcDbLine
 10
1352.922568776646
 20
152.5935929099755
 30
0.0
 11
1352.922568776646
 21
123.8835796544755
 31
0.0
  0
SPLINE
  5
45D3
330
37
100
AcDbEntity
  8
11000_LEFT
370
    13
100
AcDbSpline
210
0.0
220
0.0
230
1.0
 70
     8
 71
     3
 72
    16
 73
    12
 74
     0
 42
0.0000000001
 43
0.0000000001
 40
0.0
 40
0.0
 40
0.0
 40
0.0
 40
0.0804152154880151
 40
0.1600429305385089
 40
0.2401437714378279
 40
0.3697760140283879
 40
0.5000912907394221
 40
0.6297238400945995
 40
0.7600394251521178
 40
0.8795087071203367
 40
1.0
 40
1.0
 40
1.0
 40
1.0
 10
1352.422568888445
 20
153.0935938304876
 30
0.0
 10
1352.443605910513
 20
153.092819105008
 30
0.0
 10
1352.485473940603
 20
153.0912772408797
 30
0.0
 10
1352.547318483607
 20
153.0790581203067
 30
0.0
 10
1352.619416661311
 20
153.0557247820243
 30
0.0
 10
1352.699042313637
 20
153.0146220190205
 30
0.0
 10
1352.778369375635
 20
152.9496706728366
 30
0.0
 10
1352.843581319886
 20
152.8702106831452
 30
0.0
 10
1352.889108306384
 20
152.7814253694591
 30
0.0
 10
1352.917489702466
 20
152.6879925390961
 30
0.0
 10
1352.920871026011
 20
152.6251492848069
 30
0.0
 10
1352.922568888445
 20
152.5935938304876
 30
0.0
  0
LINE
  5
45D4
330
37
100
AcDbEntity
  8
11000_LEFT
370
    13
100
AcDbLine
 10
1347.849000291346
 20
153.0935939232755
 30
0.0
 11
1352.422568694746
 21
153.0935939232755
 31
0.0
  0
SPLINE
  5
45D5
330
37
100
AcDbEntity
  8
11000_LEFT
370
    13
100
AcDbSpline
210
0.0
220
0.0
230
1.0
 70
     8
 71
     3
 72
    16
 73
    12
 74
     0
 42
0.0000000001
 43
0.0000000001
 40
0.0
 40
0.0
 40
0.0
 40
0.0
 40
0.1026425952753771
 40
0.2017788034530998
 40
0.2995900616757221
 40
0.3983456476168638
 40
0.500251772704142
 40
0.6281420134416324
 40
0.7590097108560042
 40
0.8774391972678156
 40
1.0
 40
1.0
 40
1.0
 40
1.0
 10
1347.350902944672
 20
152.6371717018676
 30
0.0
 10
1347.354252030028
 20
152.6623482407361
 30
0.0
 10
1347.360835792198
 20
152.7118412594419
 30
0.0
 10
1347.383676752263
 20
152.7826488193706
 30
0.0
 10
1347.415951242439
 20
152.8484514390925
 30
0.0
 10
1347.458536386656
 20
152.909003186131
 30
0.0
 10
1347.514348398969
 20
152.968269956827
 30
0.0
 10
1347.585757226903
 20
153.0225533907616
 30
0.0
 10
1347.67009195893
 20
153.0633135622562
 30
0.0
 10
1347.759064279327
 20
153.0888406335144
 30
0.0
 10
1347.818680951087
 20
153.0919914267276
 30
0.0
 10
1347.849000293718
 20
153.0935938304876
 30
0.0
  0
LINE
  5
45D6
330
37
100
AcDbEntity
  8
11000_LEFT
370
    13
100
AcDbLine
 10
1345.158566701246
 20
127.5786541233755
 30
0.0
 11
1347.350902952246
 21
152.6371713558755
 31
0.0
  0
SPLINE
  5
45D7
330
37
100
AcDbEntity
  8
11000_LEFT
370
    13
100
AcDbSpline
210
0.0
220
0.0
230
1.0
 70
     8
 71
     3
 72
    12
 73
     8
 74
     0
 42
0.0000000001
 43
0.0000000001
 40
0.0
 40
0.0
 40
0.0
 40
0.0
 40
0.1687453365882257
 40
0.3358325105519618
 40
0.504500659848723
 40
0.7508888412138722
 40
1.0
 40
1.0
 40
1.0
 40
1.0
 10
1345.28789446903
 20
127.1957844582976
 30
0.0
 10
1345.272840525653
 20
127.2136988657572
 30
0.0
 10
1345.242880565277
 20
127.2493516461767
 30
0.0
 10
1345.207750413294
 20
127.3101562984773
 30
0.0
 10
1345.176958722563
 20
127.3847379828381
 30
0.0
 10
1345.155436216047
 20
127.4752374355194
 30
0.0
 10
1345.157519423194
 20
127.5440559768086
 30
0.0
 10
1345.158566750817
 20
127.5786543408776
 30
0.0
  0
SPLINE
  5
45D8
330
37
100
AcDbEntity
  8
11000_LEFT
370
    13
100
AcDbSpline
210
0.0
220
0.0
230
1.0
 70
     8
 71
     3
 72
    12
 73
     8
 74
     0
 42
0.0000000001
 43
0.0000000001
 40
0.0
 40
0.0
 40
0.0
 40
0.0
 40
0.1658015139777849
 40
0.3300848720690228
 40
0.4959270776512761
 40
0.7465346218633231
 40
1.0
 40
1.0
 40
1.0
 40
1.0
 10
1345.658035762776
 20
127.0335795621076
 30
0.0
 10
1345.63506359945
 20
127.0344793669932
 30
0.0
 10
1345.589329616625
 20
127.0362707377318
 30
0.0
 10
1345.521846001376
 20
127.0507419692125
 30
0.0
 10
1345.446005270764
 20
127.0776763080407
 30
0.0
 10
1345.363616285337
 20
127.1226534982067
 30
0.0
 10
1345.313230295339
 20
127.1713155087526
 30
0.0
 10
1345.28789446903
 20
127.1957844582976
 30
0.0
  0
LINE
  5
45D9
330
37
100
AcDbEntity
  8
11000_LEFT
370
    13
100
AcDbLine
 10
1345.730371986546
 20
127.0335789600755
 30
0.0
 11
1345.658035696546
 21
127.0335789600755
 31
0.0
  0
SPLINE
  5
45DA
330
37
100
AcDbEntity
  8
11000_LEFT
370
    13
100
AcDbSpline
210
0.0
220
0.0
230
1.0
 70
     8
 71
     3
 72
    14
 73
    10
 74
     0
 42
0.0000000001
 43
0.0000000001
 40
0.0
 40
0.0
 40
0.0
 40
0.0
 40
0.1022234981625152
 40
0.2017558887648961
 40
0.3002398142931277
 40
0.3993700518690488
 40
0.5008089892760049
 40
0.7482401405676207
 40
1.0
 40
1.0
 40
1.0
 40
1.0
 10
1346.211002787028
 20
127.3957608841976
 30
0.0
 10
1346.204098266411
 20
127.3748885607207
 30
0.0
 10
1346.190470991677
 20
127.3336933927861
 30
0.0
 10
1346.160753783736
 20
127.2761628508664
 30
0.0
 10
1346.124618862513
 20
127.2233824715402
 30
0.0
 10
1346.081402290761
 20
127.1755329594009
 30
0.0
 10
1346.008350997475
 20
127.1129316642185
 30
0.0
 10
1345.892549491604
 20
127.0479397129263
 30
0.0
 10
1345.784742736742
 20
127.0383938711326
 30
0.0
 10
1345.730371939058
 20
127.0335795621076
 30
0.0
  0
LINE
  5
45DB
330
37
100
AcDbEntity
  8
11000_LEFT
370
    13
100
AcDbLine
 10
1346.318715116046
 20
127.7713987807755
 30
0.0
 11
1346.211002770846
 21
127.3957609961755
 31
0.0
  0
SPLINE
  5
45DC
330
37
100
AcDbEntity
  8
11000_LEFT
370
    13
100
AcDbSpline
210
0.0
220
0.0
230
1.0
 70
     8
 71
     3
 72
    10
 73
     6
 74
     0
 42
0.0000000001
 43
0.0000000001
 40
0.0
 40
0.0
 40
0.0
 40
0.0
 40
0.5
 40
0.5
 40
1.0
 40
1.0
 40
1.0
 40
1.0
 10
1346.318715946324
 20
127.7714013116865
 30
0.0
 10
1346.348382933692
 20
127.8748598964763
 30
0.0
 10
1346.412483844712
 20
127.9681263430557
 30
0.0
 10
1346.584395511138
 20
128.0976702142785
 30
0.0
 10
1346.691717808866
 20
128.1335795621076
 30
0.0
 10
1346.799345913496
 20
128.1335795621076
 30
0.0
  0
LINE
  5
45DD
330
37
100
AcDbEntity
  8
11000_LEFT
370
    13
100
AcDbLine
 10
1348.622568863446
 20
128.1335789541755
 30
0.0
 11
1346.799345900346
 21
128.1335789541755
 31
0.0
  0
SPLINE
  5
45DE
330
37
100
AcDbEntity
  8
11000_LEFT
370
    13
100
AcDbSpline
210
0.0
220
0.0
230
1.0
 70
     8
 71
     3
 72
    10
 73
     6
 74
     0
 42
0.0000000001
 43
0.0000000001
 40
0.0
 40
0.0
 40
0.0
 40
0.0
 40
0.5
 40
0.5
 40
1.0
 40
1.0
 40
1.0
 40
1.0
 10
1348.622568888444
 20
128.1335795621076
 30
0.0
 10
1348.753468582344
 20
128.1335795621076
 30
0.0
 10
1348.883562217826
 20
128.0796930139125
 30
0.0
 10
1349.068682340249
 20
127.8945728914892
 30
0.0
 10
1349.122568888444
 20
127.7644792560072
 30
0.0
 10
1349.122568888444
 20
127.6335795621076
 30
0.0
  0
LINE
  5
45DF
330
37
100
AcDbEntity
  8
11000_LEFT
370
    13
100
AcDbLine
 10
1349.122568945446
 20
123.8835796544755
 30
0.0
 11
1349.122568945446
 21
127.6335798034755
 31
0.0
  0
SPLINE
  5
45E0
330
37
100
AcDbEntity
  8
11000_LEFT
370
    13
100
AcDbSpline
210
0.0
220
0.0
230
1.0
 70
     8
 71
     3
 72
    16
 73
    12
 74
     0
 42
0.0000000001
 43
0.0000000001
 40
0.0
 40
0.0
 40
0.0
 40
0.0
 40
0.0807576425694423
 40
0.1603919643991675
 40
0.2400994672200582
 40
0.3685853545823105
 40
0.5000663029152327
 40
0.6285535225007292
 40
0.7600358334767613
 40
0.8779631324779375
 40
1.0
 40
1.0
 40
1.0
 40
1.0
 10
1349.622568888445
 20
123.3835795621076
 30
0.0
 10
1349.60144910759
 20
123.3844530144871
 30
0.0
 10
1349.559503317306
 20
123.386187769719
 30
0.0
 10
1349.497690437801
 20
123.398382516123
 30
0.0
 10
1349.425881087684
 20
123.4213074490765
 30
0.0
 10
1349.346377771564
 20
123.4624209898741
 30
0.0
 10
1349.267187582274
 20
123.527065596446
 30
0.0
 10
1349.201739574323
 20
123.6067040885705
 30
0.0
 10
1349.156272859576
 20
123.695087577924
 30
0.0
 10
1349.127834399815
 20
123.7887915323267
 30
0.0
 10
1349.12434398424
 20
123.8516248626865
 30
0.0
 10
1349.122568888444
 20
123.8835795621076
 30
0.0
  0
SPLINE
  5
45E1
330
37
100
AcDbEntity
  8
11000_LEFT
370
    13
100
AcDbSpline
210
0.0
220
0.0
230
1.0
 70
     8
 71
     3
 72
    13
 73
     9
 74
     0
 42
0.0000000001
 43
0.0000000001
 40
0.0
 40
0.0
 40
0.0
 40
0.0
 40
0.1281482339374695
 40
0.2510936230914249
 40
0.3737471315498758
 40
0.5010535066067999
 40
0.7483541261337204
 40
1.0
 40
1.0
 40
1.0
 40
1.0
 10
1352.922568888444
 20
94.88357956210764
 30
0.0
 10
1352.921809676769
 20
94.87017984972601
 30
0.0
 10
1352.92032207757
 20
94.84392445605491
 30
0.0
 10
1352.908765874043
 20
94.806267601365
 30
0.0
 10
1352.890161403204
 20
94.77175214885845
 30
0.0
 10
1352.856872913817
 20
94.7318081284092
 30
0.0
 10
1352.801696609261
 20
94.69179660077623
 30
0.0
 10
1352.749097488149
 20
94.68633443141696
 30
0.0
 10
1352.722568888444
 20
94.68357956210764
 30
0.0
  0
LINE
  5
45E2
330
37
100
AcDbEntity
  8
11000_LEFT
370
    13
100
AcDbLine
 10
1352.922568776646
 20
97.28357920597552
 30
0.0
 11
1352.922568776646
 21
94.88357955767552
 31
0.0
  0
SPLINE
  5
45E3
330
37
100
AcDbEntity
  8
11000_LEFT
370
    13
100
AcDbSpline
210
0.0
220
0.0
230
1.0
 70
     8
 71
     3
 72
    13
 73
     9
 74
     0
 42
0.0000000001
 43
0.0000000001
 40
0.0
 40
0.0
 40
0.0
 40
0.0
 40
0.128148233937557
 40
0.251093623091543
 40
0.3737471315499585
 40
0.5010535066068207
 40
0.7483541261338412
 40
1.0
 40
1.0
 40
1.0
 40
1.0
 10
1352.722568888444
 20
97.48357956210764
 30
0.0
 10
1352.735968600826
 20
97.48282035043251
 30
0.0
 10
1352.762223994497
 20
97.48133275123315
 30
0.0
 10
1352.799880849187
 20
97.46977654770644
 30
0.0
 10
1352.834396301693
 20
97.45117207686712
 30
0.0
 10
1352.874340322143
 20
97.41788358748074
 30
0.0
 10
1352.914351849776
 20
97.36270728292431
 30
0.0
 10
1352.919814019135
 20
97.31010816181164
 30
0.0
 10
1352.922568888444
 20
97.28357956210764
 30
0.0
  0
LINE
  5
45E4
330
37
100
AcDbEntity
  8
11000_LEFT
370
    13
100
AcDbLine
 10
1349.322568838546
 20
97.48357979757551
 30
0.0
 11
1352.722569116446
 21
97.48357979757551
 31
0.0
  0
SPLINE
  5
45E5
330
37
100
AcDbEntity
  8
11000_LEFT
370
    13
100
AcDbSpline
210
0.0
220
0.0
230
1.0
 70
     8
 71
     3
 72
    13
 73
     9
 74
     0
 42
0.0000000001
 43
0.0000000001
 40
0.0
 40
0.0
 40
0.0
 40
0.0
 40
0.1281482339377345
 40
0.2510936230917847
 40
0.3737471315501469
 40
0.5010535066068566
 40
0.7483541261340783
 40
1.0
 40
1.0
 40
1.0
 40
1.0
 10
1349.122568888444
 20
97.28357956210764
 30
0.0
 10
1349.12332810012
 20
97.29697927448924
 30
0.0
 10
1349.124815699319
 20
97.32323466816023
 30
0.0
 10
1349.136371902845
 20
97.36089152285023
 30
0.0
 10
1349.154976373685
 20
97.3954069753568
 30
0.0
 10
1349.188264863071
 20
97.43535099580595
 30
0.0
 10
1349.243441167628
 20
97.47536252343895
 30
0.0
 10
1349.29604028874
 20
97.48082469279824
 30
0.0
 10
1349.322568888444
 20
97.48357956210764
 30
0.0
  0
LINE
  5
45E6
330
37
100
AcDbEntity
  8
11000_LEFT
370
    13
100
AcDbLine
 10
1349.122568945446
 20
94.88357955767552
 30
0.0
 11
1349.122568945446
 21
97.28357920597552
 31
0.0
  0
SPLINE
  5
45E7
330
37
100
AcDbEntity
  8
11000_LEFT
370
    13
100
AcDbSpline
210
0.0
220
0.0
230
1.0
 70
     8
 71
     3
 72
    13
 73
     9
 74
     0
 42
0.0000000001
 43
0.0000000001
 40
0.0
 40
0.0
 40
0.0
 40
0.0
 40
0.1281482339375579
 40
0.2510936230915438
 40
0.3737471315499581
 40
0.5010535066068062
 40
0.7483541261338404
 40
1.0
 40
1.0
 40
1.0
 40
1.0
 10
1349.322568888444
 20
94.68357956210764
 30
0.0
 10
1349.309169176063
 20
94.68433877378272
 30
0.0
 10
1349.282913782392
 20
94.68582637298204
 30
0.0
 10
1349.245256927702
 20
94.69738257650885
 30
0.0
 10
1349.210741475195
 20
94.71598704734804
 30
0.0
 10
1349.170797454746
 20
94.74927553673454
 30
0.0
 10
1349.130785927113
 20
94.80445184129084
 30
0.0
 10
1349.125323757754
 20
94.85705096240357
 30
0.0
 10
1349.122568888444
 20
94.88357956210764
 30
0.0
  0
LINE
  5
45E8
330
37
100
AcDbEntity
  8
11000_LEFT
370
    13
100
AcDbLine
 10
1352.722569116446
 20
94.68357989737551
 30
0.0
 11
1349.322568838546
 21
94.68357989737551
 31
0.0
  0
LINE
  5
45E9
330
37
100
AcDbEntity
  8
11000_LEFT
370
    25
100
AcDbLine
 10
1433.714857072646
 20
115.8267322758755
 30
0.0
 11
1433.822570116346
 21
115.8248519355755
 31
0.0
  0
LINE
  5
45EA
330
37
100
AcDbEntity
  8
11000_LEFT
370
    25
100
AcDbLine
 10
1433.822570116346
 20
112.5262261199755
 30
0.0
 11
1433.822570116346
 21
115.8248519355755
 31
0.0
  0
SPLINE
  5
45EB
330
37
100
AcDbEntity
  8
11000_LEFT
370
    25
100
AcDbSpline
210
0.0
220
0.0
230
1.0
 70
     8
 71
     3
 72
     8
 73
     4
 74
     0
 42
0.0000000001
 43
0.0000000001
 40
0.0
 40
0.0
 40
0.0
 40
0.0
 40
1.0
 40
1.0
 40
1.0
 40
1.0
 10
1433.123393385794
 20
126.1835795621073
 30
0.0
 10
1433.183947318516
 20
125.3838298959582
 30
0.0
 10
1433.241064996349
 20
124.5838200500333
 30
0.0
 10
1433.294744310408
 20
123.7835795621074
 30
0.0
  0
LINE
  5
45EC
330
37
100
AcDbEntity
  8
11000_LEFT
370
    25
100
AcDbLine
 10
1431.922567755946
 20
126.1835794726755
 30
0.0
 11
1433.123392731946
 21
126.1835794726755
 31
0.0
  0
LINE
  5
45ED
330
37
100
AcDbEntity
  8
11000_LEFT
370
    25
100
AcDbLine
 10
1345.922568793446
 20
67.93359553617553
 30
0.0
 11
1344.422568780446
 21
67.93359553617553
 31
0.0
  0
SPLINE
  5
45EE
330
37
100
AcDbEntity
  8
11000_LEFT
370
    25
100
AcDbSpline
210
0.0
220
0.0
230
1.0
 70
     8
 71
     3
 72
    16
 73
    12
 74
     0
 42
0.0000000001
 43
0.0000000001
 40
0.0
 40
0.0
 40
0.0
 40
0.0
 40
0.0804152154890872
 40
0.1600429305396639
 40
0.2401437714381388
 40
0.3697760140285887
 40
0.5000912907397164
 40
0.6297238400961033
 40
0.760039425152431
 40
0.8795087071229035
 40
1.0
 40
1.0
 40
1.0
 40
1.0
 10
1346.422568888444
 20
67.43359383048759
 30
0.0
 10
1346.421794162965
 20
67.45463085255675
 30
0.0
 10
1346.420252298836
 20
67.49649888264652
 30
0.0
 10
1346.408033178263
 20
67.55834342565032
 30
0.0
 10
1346.38469983998
 20
67.6304416033546
 30
0.0
 10
1346.343597076976
 20
67.71006725568
 30
0.0
 10
1346.278645730793
 20
67.78939431767774
 30
0.0
 10
1346.199185741102
 20
67.85460626193049
 30
0.0
 10
1346.110400427415
 20
67.90013324842752
 30
0.0
 10
1346.016967597052
 20
67.92851464450861
 30
0.0
 10
1345.954124342763
 20
67.93189596805387
 30
0.0
 10
1345.922568888444
 20
67.93359383048759
 30
0.0
  0
LINE
  5
45EF
330
37
100
AcDbEntity
  8
11000_LEFT
370
    25
100
AcDbLine
 10
1346.422568875446
 20
65.93359520837552
 30
0.0
 11
1346.422568875446
 21
67.43359452287553
 31
0.0
  0
LWPOLYLINE
  5
45F0
330
37
100
AcDbEntity
  8
11000_LEFT
370
    13
100
AcDbPolyline
 90
        3
 70
   128
 43
0.0
 10
1344.069015448046
 20
68.08004042307555
 10
1343.983961948246
 20
68.19354256787554
 10
1343.934202314346
 20
68.32636406817553
  0
SPLINE
  5
45F1
330
37
100
AcDbEntity
  8
11000_LEFT
370
    25
100
AcDbSpline
210
0.0
220
0.0
230
1.0
 70
     8
 71
     3
 72
    12
 73
     8
 74
     0
 42
0.0000000001
 43
0.0000000001
 40
0.0
 40
0.0
 40
0.0
 40
0.0
 40
0.1678071629613745
 40
0.3336022757179775
 40
0.5001887428327835
 40
0.7479389529643137
 40
1.0
 40
1.0
 40
1.0
 40
1.0
 10
1344.422568888443
 20
67.93359383048759
 30
0.0
 10
1344.400618175553
 20
67.93447150946693
 30
0.0
 10
1344.356979944356
 20
67.93621634383325
 30
0.0
 10
1344.292626809944
 20
67.94943779544666
 30
0.0
 10
1344.220718276583
 20
67.97379660662362
 30
0.0
 10
1344.142579139044
 20
68.01436780517342
 30
0.0
 10
1344.093677303212
 20
68.05802405097404
 30
0.0
 10
1344.06901549785
 20
68.08004043989761
 30
0.0
  0
LINE
  5
45F2
102
{ACAD_REACTORS
330
461C
102
}
330
37
100
AcDbEntity
  8
10000_FRONT
370
    25
100
AcDbLine
 10
1293.668263367346
 20
154.2835783044755
 30
0.0
 11
1293.67203454688
 21
64.93359318177553
 31
0.0
  0
LINE
  5
45F3
102
{ACAD_REACTORS
330
4634
102
}
330
37
100
AcDbEntity
  8
10000_FRONT
370
    25
100
AcDbLine
 10
1287.564492363712
 20
154.2835783044755
 30
0.0
 11
1287.568263543246
 21
64.93359318177553
 31
0.0
  0
ARC
  5
45F4
330
37
100
AcDbEntity
  8
11000_LEFT
370
    25
100
AcDbCircle
 10
1153.927078998532
 20
105.0437605200887
 30
0.0
 40
279.9954878913865
100
AcDbArc
 50
1.53132733054809
 51
3.83761817950533
  0
DIMENSION
  5
4601
102
{ACAD_XDICTIONARY
360
4610
102
}
102
{ACAD_REACTORS
330
461C
102
}
330
37
100
AcDbEntity
  8
10100_FRONT_DIM
370
    13
100
AcDbDimension
  2
*D13
 10
1293.668263367346
 20
164.2835782955684
 30
0.0
 11
1304.880763367346
 21
167.8835782955684
 31
0.0
 70
    32
  1
6,2
 71
     5
 42
6.099999824099995
  3
DIN_3.5
100
AcDbAlignedDimension
 13
1287.568263543246
 23
154.2835783044755
 33
0.0
 14
1293.668263367346
 24
154.2835783044755
 34
0.0
100
AcDbRotatedDimension
  0
DIMENSION
  5
461D
102
{ACAD_XDICTIONARY
360
462A
102
}
102
{ACAD_REACTORS
330
4634
102
}
330
37
100
AcDbEntity
  8
10100_FRONT_DIM
370
    13
100
AcDbDimension
  2
*D14
 10
1277.568263543246
 20
64.93359318177553
 30
0.0
 11
1274.318263543246
 21
109.6085857431257
 31
0.0
 70
    32
  1
90
 71
     5
 42
89.34998512269997
  3
DIN_3.5
100
AcDbAlignedDimension
 13
1287.568263543246
 23
154.2835783044755
 33
0.0
 14
1287.568263543246
 24
64.93359318177553
 34
0.0
 50
90.0
100
AcDbRotatedDimension
  0
ARC
  5
464F
330
37
100
AcDbEntity
  8
11000_LEFT
370
    25
100
AcDbCircle
 10
1345.424615393906
 20
65.931547007825
 30
0.0
 40
0.9979559243185915
100
AcDbArc
 50
269.8825068300974
 51
0.1267722307842589
  0
DIMENSION
  5
4650
102
{ACAD_XDICTIONARY
360
465D
102
}
102
{ACAD_REACTORS
330
4667
102
}
330
37
100
AcDbEntity
  8
11100_LEFT_DIM
370
    13
100
AcDbDimension
  2
*D15
 10
1433.918926273451
 20
164.2835782955684
 30
0.0
 11
1387.920747580949
 21
167.8835782955684
 31
0.0
 70
    32
  1
92,5
 71
     5
 42
91.99635738500296
  3
DIN_3.5
100
AcDbAlignedDimension
 13
1341.922568888448
 23
70.51205479957762
 33
0.0
 14
1433.918926273451
 24
106.7275734819704
 34
0.0
100
AcDbRotatedDimension
  0
VIEWPORT
  5
BB8
102
{ACAD_XDICTIONARY
360
46E6
102
}
330
33
100
AcDbEntity
 67
     1
  8
0
100
AcDbViewport
 10
210.1928410833346
 20
45.42387874035179
 30
0.0
 40
124.2893586661232
 41
64.77990728116248
 68
     1
 69
     1
 12
210.1928410833346
 22
45.42387874035179
 13
0.0
 23
0.0
 14
10.0
 24
10.0
 15
10.0
 25
10.0
 16
0.0
 26
0.0
 36
1.0
 17
0.0
 27
0.0
 37
0.0
 42
50.0
 43
0.0
 44
0.0
 45
64.77990728116248
 50
0.0
 51
0.0
 72
  1000
 90
   819232
  1

281
     0
 71
     1
 74
     0
110
0.0
120
0.0
130
0.0
111
1.0
121
0.0
131
0.0
112
0.0
122
1.0
132
0.0
 79
     0
146
0.0
  0
VIEWPORT
  5
BBB
102
{ACAD_XDICTIONARY
360
46E8
102
}
330
33
100
AcDbEntity
 67
     1
  8
0
100
AcDbViewport
 10
135.887842408874
 20
108.5470639919251
 30
0.0
 40
273.7630223349524
 41
176.3694630573212
 68
     2
 69
     2
 12
1151.572995521891
 22
746.7373056200671
 13
0.0
 23
0.0
 14
10.0
 24
10.0
 15
10.0
 25
10.0
 16
0.0
 26
0.0
 36
1.0
 17
0.0
 27
0.0
 37
0.0
 42
50.0
 43
0.0
 44
0.0
 45
1673.565958332362
 50
0.0
 51
0.0
 72
  1000
 90
   819296
  1

281
     0
 71
     1
 74
     0
110
0.0
120
0.0
130
0.0
111
1.0
121
0.0
131
0.0
112
0.0
122
1.0
132
0.0
 79
     0
146
0.0
  0
ENDSEC
  0
SECTION
  2
OBJECTS
  0
DICTIONARY
  5
C
330
0
100
AcDbDictionary
281
     1
  3
ACAD_2007HEADERVARS_RT
350
46DD
  3
ACAD_BACKGROUND
350
AA1
  3
ACAD_COLOR
350
30
  3
ACAD_GROUP
350
D
  3
ACAD_LAYOUT
350
2F
  3
ACAD_MATERIAL
350
10
  3
ACAD_MLINESTYLE
350
2C
  3
ACAD_PLOTSETTINGS
350
2E
  3
ACAD_PLOTSTYLENAME
350
E
  3
ACAD_TABLESTYLE
350
31
  3
ACAD_VISUALSTYLE
350
14
  3
AcDbVariableDictionary
350
1BD
  3
ASE_INDEX_DICTIONARY
350
1D94
  3
DWGPROPS
350
46DC
  0
DICTIONARY
  5
B73
330
2
100
AcDbDictionary
280
     1
281
     1
  3
ACAD_LAYERFILTERS
360
1D92
  3
ACAD_LAYERSTATES
360
BBF
  3
ACLYDICTIONARY
360
1D91
  0
DICTIONARY
  5
4CA
330
37
100
AcDbDictionary
280
     1
281
     1
  3
ACAD_SORTENTS
360
4CB
  0
DICTIONARY
  5
1759
330
1758
100
AcDbDictionary
280
     1
281
     1
  0
DICTIONARY
  5
1D18
330
1765
100
AcDbDictionary
280
     1
281
     1
  3
ACAD_ENHANCEDBLOCK
360
1D19
  3
AcDbDynamicBlockRoundTripPurgePreventer
360
1D23
  0
DICTIONARY
  5
177C
330
177B
100
AcDbDictionary
280
     1
281
     1
  0
DICTIONARY
  5
17F0
330
17CE
100
AcDbDictionary
280
     1
281
     1
  3
ACAD_SORTENTS
360
17F1
  0
DICTIONARY
  5
1D43
330
1D24
100
AcDbDictionary
280
     1
281
     1
  0
DICTIONARY
  5
1B24
330
1720
100
AcDbDictionary
280
     1
281
     1
  3
AcDbBlockRepresentation
360
1B25
  0
DICTIONARY
  5
1B2A
330
172C
100
AcDbDictionary
280
     1
281
     1
  3
AcDbBlockRepresentation
360
1B2B
  0
DICTIONARY
  5
1B30
330
1738
100
AcDbDictionary
280
     1
281
     1
  3
AcDbBlockRepresentation
360
1B31
  0
DICTIONARY
  5
1B5A
330
1942
100
AcDbDictionary
280
     1
281
     1
  3
AcDbBlockRepresentation
360
1B5B
  0
DICTIONARY
  5
1B36
330
1750
100
AcDbDictionary
280
     1
281
     1
  3
AcDbBlockRepresentation
360
1B37
  0
DICTIONARY
  5
1B6C
330
195D
100
AcDbDictionary
280
     1
281
     1
  3
AcDbBlockRepresentation
360
1B6D
  0
DICTIONARY
  5
4610
330
4601
100
AcDbDictionary
280
     1
281
     1
  3
ACAD_DIMASSOC
360
461C
  0
DICTIONARY
  5
462A
330
461D
100
AcDbDictionary
280
     1
281
     1
  3
ACAD_DIMASSOC
360
4634
  0
DICTIONARY
  5
465D
330
4650
100
AcDbDictionary
280
     1
281
     1
  3
ACAD_DIMASSOC
360
4667
  0
DICTIONARY
  5
46E6
330
BB8
100
AcDbDictionary
280
     1
281
     1
  3
ACAD_XREC_ROUNDTRIP
360
46E7
  0
DICTIONARY
  5
46E8
330
BBB
100
AcDbDictionary
280
     1
281
     1
  3
ACAD_XREC_ROUNDTRIP
360
46E9
  0
DICTIONARY
  5
46DD
102
{ACAD_REACTORS
330
C
102
}
330
C
100
AcDbDictionary
281
     1
  3
DIMJOGANG
350
46DE
  0
DICTIONARY
  5
AA1
102
{ACAD_REACTORS
330
C
102
}
330
C
100
AcDbDictionary
281
     1
  0
DICTIONARY
  5
30
102
{ACAD_REACTORS
330
C
102
}
330
C
100
AcDbDictionary
281
     1
  0
DICTIONARY
  5
D
102
{ACAD_REACTORS
330
C
102
}
330
C
100
AcDbDictionary
281
     1
  0
DICTIONARY
  5
2F
102
{ACAD_REACTORS
330
C
102
}
330
C
100
AcDbDictionary
281
     1
  3
Layout1
350
36
  3
Layout2
350
3E
  3
Model
350
3A
  0
DICTIONARY
  5
10
102
{ACAD_REACTORS
330
C
102
}
330
C
100
AcDbDictionary
281
     1
  3
ByBlock
350
12
  3
ByLayer
350
11
  3
Global
350
13
  0
DICTIONARY
  5
2C
102
{ACAD_REACTORS
330
C
102
}
330
C
100
AcDbDictionary
281
     1
  3
Standard
350
2D
  0
DICTIONARY
  5
2E
102
{ACAD_REACTORS
330
C
102
}
330
C
100
AcDbDictionary
281
     1
  0
ACDBDICTIONARYWDFLT
  5
E
102
{ACAD_REACTORS
330
C
102
}
330
C
100
AcDbDictionary
281
     1
  3
Normal
350
F
100
AcDbDictionaryWithDefault
340
F
  0
DICTIONARY
  5
31
102
{ACAD_REACTORS
330
C
102
}
330
C
100
AcDbDictionary
281
     1
  3
Standard
350
32
  0
DICTIONARY
  5
14
102
{ACAD_REACTORS
330
C
102
}
330
C
100
AcDbDictionary
281
     1
  3
2dWireframe
350
1A
  3
3D Hidden
350
1C
  3
3dWireframe
350
1B
  3
Basic
350
19
  3
Brighten
350
20
  3
ColorChange
350
24
  3
Conceptual
350
1D
  3
Dim
350
1F
  3
Facepattern
350
23
  3
Flat
350
15
  3
FlatWithEdges
350
16
  3
Gouraud
350
17
  3
GouraudWithEdges
350
18
  3
Linepattern
350
22
  3
Realistic
350
1E
  3
Thicken
350
21
  0
DICTIONARY
  5
1BD
102
{ACAD_REACTORS
330
C
102
}
330
C
100
AcDbDictionary
281
     1
  3
CTABLESTYLE
350
1BE
  3
DIMASSOC
350
1DA4
  3
HIDETEXT
350
1DA3
  3
INDEXCTL
350
1DA2
  3
SORTENTS
350
1DA1
  0
DICTIONARY
  5
1D94
102
{ACAD_REACTORS
330
C
102
}
330
C
100
AcDbDictionary
281
     1
  3
ASEBlockHierarchyIndexRecord
350
1D95
1001
DCO15
1040
1618547951.5
  0
XRECORD
  5
46DC
102
{ACAD_REACTORS
330
C
102
}
330
C
100
AcDbXrecord
280
     1
  1
DWGPROPS COOKIE
  2

  3

  4

  6

  7

  8
adscsu3
  9

300
=
301
=
302
=
303
=
304
=
305
=
306
=
307
=
308
=
309
=
 40
0.1554290509259259
 41
2454508.741726829
 42
2455308.635851736
  1

 90
        0
  0
DICTIONARY
  5
1D92
102
{ACAD_REACTORS
330
B73
102
}
330
B73
100
AcDbDictionary
281
     1
  0
DICTIONARY
  5
BBF
102
{ACAD_REACTORS
330
B73
102
}
330
B73
100
AcDbDictionary
281
     1
  0
DICTIONARY
  5
1D91
102
{ACAD_REACTORS
330
B73
102
}
330
B73
100
AcDbDictionary
281
     1
1001
ACAD
1000
<All
  0
SORTENTSTABLE
  5
4CB
102
{ACAD_REACTORS
330
4CA
102
}
330
4CA
100
AcDbSortentsTable
330
37
331
195C
  5
195C
331
17FD
  5
17FD
331
1804
  5
1804
331
195D
  5
195D
331
195B
  5
195B
331
1807
  5
1807
  0
ACAD_EVALUATION_GRAPH
  5
1D19
102
{ACAD_REACTORS
330
1D18
102
}
330
1D18
100
AcDbEvalGraph
 96
        2
 97
        2
 91
        0
 93
       32
 95
        2
360
1D1A
 92
       -1
 92
       -1
 92
       -1
 92
       -1
  0
ACDB_DYNAMICBLOCKPURGEPREVENTER_VERSION
  5
1D23
102
{ACAD_REACTORS
330
1D18
102
}
330
1D18
100
AcDbDynamicBlockPurgePreventer
 70
     1
  0
SORTENTSTABLE
  5
17F1
102
{ACAD_REACTORS
330
17F0
102
}
330
17F0
100
AcDbSortentsTable
330
17CE
  0
DICTIONARY
  5
1B25
102
{ACAD_REACTORS
330
1B24
102
}
330
1B24
100
AcDbDictionary
280
     1
281
     1
  3
AcDbRepData
360
1B26
  3
AppDataCache
360
1B27
  0
DICTIONARY
  5
1B2B
102
{ACAD_REACTORS
330
1B2A
102
}
330
1B2A
100
AcDbDictionary
280
     1
281
     1
  3
AcDbRepData
360
1B2C
  3
AppDataCache
360
1D46
  0
DICTIONARY
  5
1B31
102
{ACAD_REACTORS
330
1B30
102
}
330
1B30
100
AcDbDictionary
280
     1
281
     1
  3
AcDbRepData
360
1B32
  3
AppDataCache
360
1D49
  0
DICTIONARY
  5
1B5B
102
{ACAD_REACTORS
330
1B5A
102
}
330
1B5A
100
AcDbDictionary
280
     1
281
     1
  3
AcDbRepData
360
1B5C
  3
AppDataCache
360
1D5E
  0
DICTIONARY
  5
1B37
102
{ACAD_REACTORS
330
1B36
102
}
330
1B36
100
AcDbDictionary
280
     1
281
     1
  3
AcDbRepData
360
1B38
  3
AppDataCache
360
1D4C
  0
DICTIONARY
  5
1B6D
102
{ACAD_REACTORS
330
1B6C
102
}
330
1B6C
100
AcDbDictionary
280
     1
281
     1
  3
AcDbRepData
360
1B6E
  3
AppDataCache
360
1D67
  0
DIMASSOC
  5
461C
102
{ACAD_REACTORS
330
4610
102
}
330
4610
100
AcDbDimAssoc
330
4601
 90
        3
 70
     0
 71
     0
  1
AcDbOsnapPointRef
 72
    13
331
4547
 73
     2
 91
        0
 40
0.0
 10
0.0
 20
0.0
 30
2.000000000000000E+50
 75
     0
  1
AcDbOsnapPointRef
 72
    13
331
45F2
 73
     2
 91
        0
 40
0.0
 10
0.0
 20
0.0
 30
2.000000000000000E+50
 75
     0
  0
DIMASSOC
  5
4634
102
{ACAD_REACTORS
330
462A
102
}
330
462A
100
AcDbDimAssoc
330
461D
 90
        2
 70
     0
 71
     0
  1
AcDbOsnapPointRef
 72
     1
331
45F3
 73
     2
 91
        0
 40
1.0
 10
0.0
 20
0.0
 30
2.000000000000000E+50
 75
     0
  0
DIMASSOC
  5
4667
102
{ACAD_REACTORS
330
465D
102
}
330
465D
100
AcDbDimAssoc
330
4650
 90
        1
 70
     0
 71
     0
  1
AcDbOsnapPointRef
 72
    13
331
4565
 73
     2
 91
        0
 40
0.0
 10
0.0
 20
0.0
 30
2.000000000000000E+50
 75
     0
  0
XRECORD
  5
46E7
102
{ACAD_REACTORS
330
46E6
102
}
330
46E6
100
AcDbXrecord
280
     1
102
SHADEPLOT
 70
     0
  0
XRECORD
  5
46E9
102
{ACAD_REACTORS
330
46E8
102
}
330
46E8
100
AcDbXrecord
280
     1
102
SHADEPLOT
 70
     0
  0
XRECORD
  5
46DE
102
{ACAD_REACTORS
330
46DD
102
}
330
46DD
100
AcDbXrecord
280
     1
 40
1.570796326794896
  0
LAYOUT
  5
36
102
{ACAD_XDICTIONARY
360
BC1
102
}
102
{ACAD_REACTORS
330
2F
102
}
330
2F
100
AcDbPlotSettings
  1

  2
Microsoft Office Document Image Writer
  4
A4
  6

 40
3.174999952316281
 41
3.174999952316281
 42
3.175003051757812
 43
3.17498779296875
 44
209.9733276367186
 45
297.0106506347656
 46
0.0
 47
0.0
 48
0.0
 49
0.0
140
0.0
141
0.0
142
1.0
143
1.0
 70
   688
 72
     1
 73
     1
 74
     5
  7

 75
    16
147
1.0
148
0.0
149
0.0
100
AcDbLayout
  1
Layout1
 70
     1
 71
     1
 10
-3.17498779296875
 20
-3.174999952316281
 11
293.8356628417969
 21
206.7983276844024
 12
0.0
 22
0.0
 32
0.0
 14
-0.9936687586022115
 24
20.36233246326446
 34
0.0
 15
272.7693535763502
 25
196.7317955205857
 35
0.0
146
0.0
 13
0.0
 23
0.0
 33
0.0
 16
1.0
 26
0.0
 36
0.0
 17
0.0
 27
1.0
 37
0.0
 76
     0
330
33
331
BB8
1001
ACAD_PSEXT
1000
Microsoft Office Document Image Writer
1000
Microsoft Office Document Image Writer Driver
1000
Microsoft Document Imaging Writer Port:
1000

1070
     0
  0
LAYOUT
  5
3E
102
{ACAD_XDICTIONARY
360
46E4
102
}
102
{ACAD_REACTORS
330
2F
102
}
330
2F
100
AcDbPlotSettings
  1

  2
Microsoft Office Document Image Writer
  4

  6

 40
0.0
 41
0.0
 42
0.0
 43
0.0
 44
0.0
 45
0.0
 46
0.0
 47
0.0
 48
0.0
 49
0.0
140
0.0
141
0.0
142
1.0
143
1.0
 70
   688
 72
     0
 73
     0
 74
     5
  7

 75
    16
147
1.0
148
0.0
149
0.0
100
AcDbLayout
  1
Layout2
 70
     1
 71
     2
 10
0.0
 20
0.0
 11
12.0
 21
9.0
 12
0.0
 22
0.0
 32
0.0
 14
0.0
 24
0.0
 34
0.0
 15
0.0
 25
0.0
 35
0.0
146
0.0
 13
0.0
 23
0.0
 33
0.0
 16
1.0
 26
0.0
 36
0.0
 17
0.0
 27
1.0
 37
0.0
 76
     0
330
3B
  0
LAYOUT
  5
3A
102
{ACAD_XDICTIONARY
360
46E2
102
}
102
{ACAD_REACTORS
330
2F
102
}
330
2F
100
AcDbPlotSettings
  1

  2
Microsoft Office Document Image Writer
  4

  6

 40
0.0
 41
0.0
 42
0.0
 43
0.0
 44
0.0
 45
0.0
 46
0.0
 47
0.0
 48
0.0
 49
0.0
140
0.0
141
0.0
142
1.0
143
1.0
 70
  1712
 72
     0
 73
     0
 74
     0
  7

 75
     0
147
1.0
148
0.0
149
0.0
100
AcDbLayout
  1
Model
 70
     1
 71
     0
 10
0.0
 20
0.0
 11
12.0
 21
9.0
 12
0.0
 22
0.0
 32
0.0
 14
0.0
 24
0.0
 34
0.0
 15
0.0
 25
0.0
 35
0.0
146
0.0
 13
0.0
 23
0.0
 33
0.0
 16
1.0
 26
0.0
 36
0.0
 17
0.0
 27
1.0
 37
0.0
 76
     0
330
37
331
28
  0
MATERIAL
  5
12
102
{ACAD_XDICTIONARY
360
1DA8
102
}
102
{ACAD_REACTORS
330
10
102
}
330
10
100
AcDbMaterial
  1
ByBlock
  0
MATERIAL
  5
11
102
{ACAD_XDICTIONARY
360
1DA6
102
}
102
{ACAD_REACTORS
330
10
102
}
330
10
100
AcDbMaterial
  1
ByLayer
  0
MATERIAL
  5
13
102
{ACAD_XDICTIONARY
360
1DAA
102
}
102
{ACAD_REACTORS
330
10
102
}
330
10
100
AcDbMaterial
  1
Global
  0
MLINESTYLE
  5
2D
102
{ACAD_REACTORS
330
2C
102
}
330
2C
100
AcDbMlineStyle
  2
STANDARD
 70
     0
  3

 62
   256
 51
90.0
 52
90.0
 71
     2
 49
0.5
 62
   256
  6
BYLAYER
 49
-0.5
 62
   256
  6
BYLAYER
  0
ACDBPLACEHOLDER
  5
F
102
{ACAD_REACTORS
330
E
102
}
330
E
  0
TABLESTYLE
  5
32
102
{ACAD_XDICTIONARY
360
46DF
102
}
102
{ACAD_REACTORS
330
31
102
}
330
31
100
AcDbTableStyle
  3
Standard
 70
     0
 71
     0
 40
1.5
 41
1.5
280
     0
281
     0
  7
Standard
140
4.5
170
     2
 62
     0
 63
     7
283
     0
274
    -2
284
     1
 64
     0
275
    -2
285
     1
 65
     0
276
    -2
286
     1
 66
     0
277
    -2
287
     1
 67
     0
278
    -2
288
     1
 68
     0
279
    -2
289
     1
 69
     0
  7
Standard
140
6.0
170
     5
 62
     0
 63
     7
283
     0
274
    -2
284
     1
 64
     0
275
    -2
285
     1
 65
     0
276
    -2
286
     1
 66
     0
277
    -2
287
     1
 67
     0
278
    -2
288
     1
 68
     0
279
    -2
289
     1
 69
     0
  7
Standard
140
4.5
170
     5
 62
     0
 63
     7
283
     0
274
    -2
284
     1
 64
     0
275
    -2
285
     1
 65
     0
276
    -2
286
     1
 66
     0
277
    -2
287
     1
 67
     0
278
    -2
288
     1
 68
     0
279
    -2
289
     1
 69
     0
  0
VISUALSTYLE
  5
1A
102
{ACAD_REACTORS
330
14
102
}
330
14
100
AcDbVisualStyle
  2
2dWireframe
 70
     4
 71
     0
 72
     2
 73
     0
 90
        0
 40
-0.6
 41
-30.0
 62
     5
 63
     7
 74
     1
 91
        4
 64
     7
 65
   257
 75
     1
175
     1
 42
1.0
 92
        0
 66
   257
 43
1.0
 76
     1
 77
     6
 78
     2
 67
     7
 79
     5
170
     0
171
     0
290
     0
174
     0
 93
        1
 44
0.0
173
     0
291
     0
 45
0.0
1001
ACAD
1000
AcDbSavedByObjectVersion
1070
     0
1000
AcDbSavedByObjectVersion
1070
     0
1000
AcDbSavedByObjectVersion
1070
     0
  0
VISUALSTYLE
  5
1C
102
{ACAD_REACTORS
330
14
102
}
330
14
100
AcDbVisualStyle
  2
3D Hidden
 70
     6
 71
     1
 72
     2
 73
     2
 90
        0
 40
-0.6
 41
-30.0
 62
     5
 63
     7
 74
     2
 91
        2
 64
     7
 65
   257
 75
     2
175
     1
 42
40.0
 92
        0
 66
   257
 43
1.0
 76
     1
 77
     6
 78
     2
 67
     7
 79
     3
170
     0
171
     0
290
     0
174
     0
 93
        1
 44
0.0
173
     0
291
     0
 45
0.0
1001
ACAD
1000
AcDbSavedByObjectVersion
1070
     0
1000
AcDbSavedByObjectVersion
1070
     0
1000
AcDbSavedByObjectVersion
1070
     0
  0
VISUALSTYLE
  5
1B
102
{ACAD_REACTORS
330
14
102
}
330
14
100
AcDbVisualStyle
  2
3dWireframe
 70
     5
 71
     0
 72
     2
 73
     0
 90
        0
 40
-0.6
 41
-30.0
 62
     5
 63
     7
 74
     1
 91
        4
 64
     7
 65
   257
 75
     1
175
     1
 42
1.0
 92
        0
 66
   257
 43
1.0
 76
     1
 77
     6
 78
     2
 67
     7
 79
     5
170
     0
171
     0
290
     0
174
     0
 93
        1
 44
0.0
173
     0
291
     0
 45
0.0
1001
ACAD
1000
AcDbSavedByObjectVersion
1070
     0
1000
AcDbSavedByObjectVersion
1070
     0
1000
AcDbSavedByObjectVersion
1070
     0
  0
VISUALSTYLE
  5
19
102
{ACAD_REACTORS
330
14
102
}
330
14
100
AcDbVisualStyle
  2
Basic
 70
     7
 71
     1
 72
     0
 73
     1
 90
        0
 40
-0.6
 41
-30.0
 62
     5
 63
     7
 74
     0
 91
        4
 64
     7
 65
   257
 75
     1
175
     1
 42
1.0
 92
        8
 66
     7
 43
1.0
 76
     1
 77
     6
 78
     2
 67
     7
 79
     5
170
     0
171
     0
290
     0
174
     0
 93
        1
 44
0.0
173
     0
291
     1
 45
0.0
1001
ACAD
1000
AcDbSavedByObjectVersion
1070
     0
1000
AcDbSavedByObjectVersion
1070
     0
1000
AcDbSavedByObjectVersion
1070
     0
  0
VISUALSTYLE
  5
20
102
{ACAD_REACTORS
330
14
102
}
330
14
100
AcDbVisualStyle
  2
Brighten
 70
    12
 71
     2
 72
     2
 73
     0
 90
        0
 40
-0.6
 41
-30.0
 62
     5
 63
     7
 74
     1
 91
        4
 64
     7
 65
   257
 75
     1
175
     1
 42
1.0
 92
        8
 66
     7
 43
1.0
 76
     1
 77
     6
 78
     2
 67
     7
 79
     5
170
     0
171
     0
290
     0
174
     0
 93
        1
 44
50.0
173
     0
291
     1
 45
0.0
1001
ACAD
1000
AcDbSavedByObjectVersion
1070
     0
1000
AcDbSavedByObjectVersion
1070
     0
1000
AcDbSavedByObjectVersion
1070
     0
  0
VISUALSTYLE
  5
24
102
{ACAD_REACTORS
330
14
102
}
330
14
100
AcDbVisualStyle
  2
ColorChange
 70
    16
 71
     2
 72
     2
 73
     3
 90
        0
 40
-0.6
 41
-30.0
 62
     5
 63
     8
 74
     1
 91
        4
 64
     7
 65
   257
 75
     1
175
     1
 42
1.0
 92
        8
 66
     8
 43
1.0
 76
     1
 77
     6
 78
     2
 67
     7
 79
     5
170
     0
171
     0
290
     0
174
     0
 93
        1
 44
0.0
173
     0
291
     1
 45
0.0
1001
ACAD
1000
AcDbSavedByObjectVersion
1070
     0
1000
AcDbSavedByObjectVersion
1070
     0
1000
AcDbSavedByObjectVersion
1070
     0
  0
VISUALSTYLE
  5
1D
102
{ACAD_REACTORS
330
14
102
}
330
14
100
AcDbVisualStyle
  2
Conceptual
 70
     9
 71
     3
 72
     2
 73
     0
 90
        0
 40
-0.6
 41
-30.0
 62
     5
 63
     7
 74
     2
 91
        2
 64
     7
 65
   257
 75
     1
175
     1
 42
40.0
 92
        8
 66
     7
 43
1.0
 76
     1
 77
     6
 78
     2
 67
     7
 79
     3
170
     0
171
     0
290
     0
174
     0
 93
        1
 44
0.0
173
     0
291
     0
 45
0.0
1001
ACAD
1000
AcDbSavedByObjectVersion
1070
     0
1000
AcDbSavedByObjectVersion
1070
     0
1000
AcDbSavedByObjectVersion
1070
     0
  0
VISUALSTYLE
  5
1F
102
{ACAD_REACTORS
330
14
102
}
330
14
100
AcDbVisualStyle
  2
Dim
 70
    11
 71
     2
 72
     2
 73
     0
 90
        0
 40
-0.6
 41
-30.0
 62
     5
 63
     7
 74
     1
 91
        4
 64
     7
 65
   257
 75
     1
175
     1
 42
1.0
 92
        8
 66
     7
 43
1.0
 76
     1
 77
     6
 78
     2
 67
     7
 79
     5
170
     0
171
     0
290
     0
174
     0
 93
        1
 44
-50.0
173
     0
291
     1
 45
0.0
1001
ACAD
1000
AcDbSavedByObjectVersion
1070
     0
1000
AcDbSavedByObjectVersion
1070
     0
1000
AcDbSavedByObjectVersion
1070
     0
  0
VISUALSTYLE
  5
23
102
{ACAD_REACTORS
330
14
102
}
330
14
100
AcDbVisualStyle
  2
Facepattern
 70
    15
 71
     2
 72
     2
 73
     0
 90
        0
 40
-0.6
 41
-30.0
 62
     5
 63
     7
 74
     1
 91
        4
 64
     7
 65
   257
 75
     1
175
     1
 42
1.0
 92
        8
 66
     7
 43
1.0
 76
     1
 77
     6
 78
     2
 67
     7
 79
     5
170
     0
171
     0
290
     0
174
     0
 93
        1
 44
0.0
173
     0
291
     1
 45
0.0
1001
ACAD
1000
AcDbSavedByObjectVersion
1070
     0
1000
AcDbSavedByObjectVersion
1070
     0
1000
AcDbSavedByObjectVersion
1070
     0
  0
VISUALSTYLE
  5
15
102
{ACAD_REACTORS
330
14
102
}
330
14
100
AcDbVisualStyle
  2
Flat
 70
     0
 71
     2
 72
     1
 73
     1
 90
        2
 40
-0.6
 41
30.0
 62
     5
 63
     7
 74
     0
 91
        4
 64
     7
 65
   257
 75
     1
175
     1
 42
1.0
 92
        8
 66
     7
 43
1.0
 76
     1
 77
     6
 78
     2
 67
     7
 79
     5
170
     0
171
     0
290
     0
174
     0
 93
       13
 44
0.0
173
     0
291
     1
 45
0.0
1001
ACAD
1000
AcDbSavedByObjectVersion
1070
     0
1000
AcDbSavedByObjectVersion
1070
     0
1000
AcDbSavedByObjectVersion
1070
     0
  0
VISUALSTYLE
  5
16
102
{ACAD_REACTORS
330
14
102
}
330
14
100
AcDbVisualStyle
  2
FlatWithEdges
 70
     1
 71
     2
 72
     1
 73
     1
 90
        2
 40
-0.6
 41
30.0
 62
     5
 63
     7
 74
     1
 91
        4
 64
     7
 65
   257
 75
     1
175
     1
 42
1.0
 92
        0
 66
   257
 43
1.0
 76
     1
 77
     6
 78
     2
 67
     7
 79
     5
170
     0
171
     0
290
     0
174
     0
 93
       13
 44
0.0
173
     0
291
     1
 45
0.0
1001
ACAD
1000
AcDbSavedByObjectVersion
1070
     0
1000
AcDbSavedByObjectVersion
1070
     0
1000
AcDbSavedByObjectVersion
1070
     0
  0
VISUALSTYLE
  5
17
102
{ACAD_REACTORS
330
14
102
}
330
14
100
AcDbVisualStyle
  2
Gouraud
 70
     2
 71
     2
 72
     2
 73
     1
 90
        2
 40
-0.6
 41
30.0
 62
     5
 63
     7
 74
     0
 91
        4
 64
     7
 65
   257
 75
     1
175
     1
 42
1.0
 92
        0
 66
     7
 43
1.0
 76
     1
 77
     6
 78
     2
 67
     7
 79
     5
170
     0
171
     0
290
     0
174
     0
 93
       13
 44
0.0
173
     0
291
     1
 45
0.0
1001
ACAD
1000
AcDbSavedByObjectVersion
1070
     0
1000
AcDbSavedByObjectVersion
1070
     0
1000
AcDbSavedByObjectVersion
1070
     0
  0
VISUALSTYLE
  5
18
102
{ACAD_REACTORS
330
14
102
}
330
14
100
AcDbVisualStyle
  2
GouraudWithEdges
 70
     3
 71
     2
 72
     2
 73
     1
 90
        2
 40
-0.6
 41
30.0
 62
     5
 63
     7
 74
     1
 91
        4
 64
     7
 65
   257
 75
     1
175
     1
 42
1.0
 92
        0
 66
   257
 43
1.0
 76
     1
 77
     6
 78
     2
 67
     7
 79
     5
170
     0
171
     0
290
     0
174
     0
 93
       13
 44
0.0
173
     0
291
     1
 45
0.0
1001
ACAD
1000
AcDbSavedByObjectVersion
1070
     0
1000
AcDbSavedByObjectVersion
1070
     0
1000
AcDbSavedByObjectVersion
1070
     0
  0
VISUALSTYLE
  5
22
102
{ACAD_REACTORS
330
14
102
}
330
14
100
AcDbVisualStyle
  2
Linepattern
 70
    14
 71
     2
 72
     2
 73
     0
 90
        0
 40
-0.6
 41
-30.0
 62
     5
 63
     7
 74
     1
 91
        4
 64
     7
 65
   257
 75
     7
175
     7
 42
1.0
 92
        8
 66
     7
 43
1.0
 76
     1
 77
     6
 78
     2
 67
     7
 79
     5
170
     0
171
     0
290
     0
174
     0
 93
        1
 44
0.0
173
     0
291
     1
 45
0.0
1001
ACAD
1000
AcDbSavedByObjectVersion
1070
     0
1000
AcDbSavedByObjectVersion
1070
     0
1000
AcDbSavedByObjectVersion
1070
     0
  0
VISUALSTYLE
  5
1E
102
{ACAD_REACTORS
330
14
102
}
330
14
100
AcDbVisualStyle
  2
Realistic
 70
     8
 71
     2
 72
     2
 73
     0
 90
        0
 40
-0.6
 41
-30.0
 62
     5
 63
     7
 74
     1
 91
        0
 64
     7
 65
   257
 75
     1
175
     1
 42
1.0
 92
        8
 66
     8
 43
1.0
 76
     1
 77
     6
 78
     2
 67
     7
 79
     5
170
     0
171
     0
290
     0
174
     0
 93
       13
 44
0.0
173
     0
291
     0
 45
0.0
1001
ACAD
1000
AcDbSavedByObjectVersion
1070
     0
1000
AcDbSavedByObjectVersion
1070
     0
1000
AcDbSavedByObjectVersion
1070
     0
  0
VISUALSTYLE
  5
21
102
{ACAD_REACTORS
330
14
102
}
330
14
100
AcDbVisualStyle
  2
Thicken
 70
    13
 71
     2
 72
     2
 73
     0
 90
        0
 40
-0.6
 41
-30.0
 62
     5
 63
     7
 74
     1
 91
        4
 64
     7
 65
   257
 75
     1
175
     1
 42
1.0
 92
       12
 66
     7
 43
1.0
 76
     1
 77
     6
 78
     2
 67
     7
 79
     5
170
     0
171
     0
290
     0
174
     0
 93
        1
 44
0.0
173
     0
291
     1
 45
0.0
1001
ACAD
1000
AcDbSavedByObjectVersion
1070
     0
1000
AcDbSavedByObjectVersion
1070
     0
1000
AcDbSavedByObjectVersion
1070
     0
  0
DICTIONARYVAR
  5
1BE
102
{ACAD_REACTORS
330
1BD
102
}
330
1BD
100
DictionaryVariables
280
     0
  1
STANDARD
  0
DICTIONARYVAR
  5
1DA4
102
{ACAD_REACTORS
330
1BD
102
}
330
1BD
100
DictionaryVariables
280
     0
  1
2
  0
DICTIONARYVAR
  5
1DA3
102
{ACAD_REACTORS
330
1BD
102
}
330
1BD
100
DictionaryVariables
280
     0
  1
1
  0
DICTIONARYVAR
  5
1DA2
102
{ACAD_REACTORS
330
1BD
102
}
330
1BD
100
DictionaryVariables
280
     0
  1
0
  0
DICTIONARYVAR
  5
1DA1
102
{ACAD_REACTORS
330
1BD
102
}
330
1BD
100
DictionaryVariables
280
     0
  1
127
  0
XRECORD
  5
1D95
102
{ACAD_REACTORS
330
1D94
102
}
330
1D94
100
AcDbXrecord
280
     1
330
18CD
330
18CF
330
18D7
330
18D8
330
18DF
330
18E1
330
18E8
330
18EA
330
190D
330
194B
330
1954
330
195D
330
1965
330
1966
330
196D
330
196F
330
1977
330
197E
330
1980
330
1859
330
171E
330
1720
330
172B
330
172C
330
1736
330
1738
330
1942
330
174E
330
1750
330
1D07
330
17E4
330
17E5
330
17E6
330
17E7
330
17E8
330
17E9
330
17EA
330
17EB
330
17EC
330
17ED
330
17EE
330
17EF
330
1D32
  0
BLOCKBASEPOINTPARAMETER
  5
1D1A
330
1D19
100
AcDbEvalExpr
 90
        2
 98
       27
 99
        1
100
AcDbBlockElement
300
Basispunkt
 98
       25
 99
      104
1071
        0
100
AcDbBlockParameter
280
     1
281
     0
100
AcDbBlock1PtParameter
1010
0.0
1020
0.0
1030
0.0
 93
        0
170
     0
171
     0
100
AcDbBlockBasepointParameter
1011
0.0
1021
0.0
1031
0.0
1012
0.0
1022
0.0
1032
0.0
  0
ACDB_BLOCKREPRESENTATION_DATA
  5
1B26
102
{ACAD_REACTORS
330
1B25
102
}
330
1B25
100
AcDbBlockRepresentationData
 70
     1
340
1765
  0
DICTIONARY
  5
1B27
102
{ACAD_REACTORS
330
1B25
102
}
330
1B25
100
AcDbDictionary
280
     1
281
     1
  3
ACAD_ENHANCEDBLOCKDATA
360
1D44
  0
ACDB_BLOCKREPRESENTATION_DATA
  5
1B2C
102
{ACAD_REACTORS
330
1B2B
102
}
330
1B2B
100
AcDbBlockRepresentationData
 70
     1
340
1765
  0
DICTIONARY
  5
1D46
102
{ACAD_REACTORS
330
1B2B
102
}
330
1B2B
100
AcDbDictionary
280
     1
281
     1
  3
ACAD_ENHANCEDBLOCKDATA
360
1D47
  0
ACDB_BLOCKREPRESENTATION_DATA
  5
1B32
102
{ACAD_REACTORS
330
1B31
102
}
330
1B31
100
AcDbBlockRepresentationData
 70
     1
340
1765
  0
DICTIONARY
  5
1D49
102
{ACAD_REACTORS
330
1B31
102
}
330
1B31
100
AcDbDictionary
280
     1
281
     1
  3
ACAD_ENHANCEDBLOCKDATA
360
1D4A
  0
ACDB_BLOCKREPRESENTATION_DATA
  5
1B5C
102
{ACAD_REACTORS
330
1B5B
102
}
330
1B5B
100
AcDbBlockRepresentationData
 70
     1
340
1765
  0
DICTIONARY
  5
1D5E
102
{ACAD_REACTORS
330
1B5B
102
}
330
1B5B
100
AcDbDictionary
280
     1
281
     1
  3
ACAD_ENHANCEDBLOCKDATA
360
1D5F
  0
ACDB_BLOCKREPRESENTATION_DATA
  5
1B38
102
{ACAD_REACTORS
330
1B37
102
}
330
1B37
100
AcDbBlockRepresentationData
 70
     1
340
1765
  0
DICTIONARY
  5
1D4C
102
{ACAD_REACTORS
330
1B37
102
}
330
1B37
100
AcDbDictionary
280
     1
281
     1
  3
ACAD_ENHANCEDBLOCKDATA
360
1D4D
  0
ACDB_BLOCKREPRESENTATION_DATA
  5
1B6E
102
{ACAD_REACTORS
330
1B6D
102
}
330
1B6D
100
AcDbBlockRepresentationData
 70
     1
340
1765
  0
DICTIONARY
  5
1D67
102
{ACAD_REACTORS
330
1B6D
102
}
330
1B6D
100
AcDbDictionary
280
     1
281
     1
  3
ACAD_ENHANCEDBLOCKDATA
360
1D68
  0
DICTIONARY
  5
BC1
330
36
100
AcDbDictionary
280
     1
281
     1
  3
ACAD_XREC_ROUNDTRIP
360
46E1
  3
ADSK_XREC_LAYOUTTHUMBNAIL
360
BC2
  0
DICTIONARY
  5
46E4
330
3E
100
AcDbDictionary
280
     1
281
     1
  3
ACAD_XREC_ROUNDTRIP
360
46E5
  0
DICTIONARY
  5
46E2
330
3A
100
AcDbDictionary
280
     1
281
     1
  3
ACAD_XREC_ROUNDTRIP
360
46E3
  0
DICTIONARY
  5
1DA8
330
12
100
AcDbDictionary
280
     1
281
     1
  3
ACAD_XREC_ROUNDTRIP
360
1DA9
  0
DICTIONARY
  5
1DA6
330
11
100
AcDbDictionary
280
     1
281
     1
  3
ACAD_XREC_ROUNDTRIP
360
1DA7
  0
DICTIONARY
  5
1DAA
330
13
100
AcDbDictionary
280
     1
281
     1
  3
ACAD_XREC_ROUNDTRIP
360
1DAB
  0
DICTIONARY
  5
46DF
330
32
100
AcDbDictionary
280
     1
281
     1
  3
ACAD_XREC_ROUNDTRIP
360
46E0
  0
DICTIONARY
  5
1D44
102
{ACAD_REACTORS
330
1B27
102
}
330
1B27
100
AcDbDictionary
280
     1
281
     1
  3
2
360
1D45
  0
DICTIONARY
  5
1D47
102
{ACAD_REACTORS
330
1D46
102
}
330
1D46
100
AcDbDictionary
280
     1
281
     1
  3
2
360
1D48
  0
DICTIONARY
  5
1D4A
102
{ACAD_REACTORS
330
1D49
102
}
330
1D49
100
AcDbDictionary
280
     1
281
     1
  3
2
360
1D4B
  0
DICTIONARY
  5
1D5F
102
{ACAD_REACTORS
330
1D5E
102
}
330
1D5E
100
AcDbDictionary
280
     1
281
     1
  3
2
360
1D60
  0
DICTIONARY
  5
1D4D
102
{ACAD_REACTORS
330
1D4C
102
}
330
1D4C
100
AcDbDictionary
280
     1
281
     1
  3
2
360
1D4E
  0
DICTIONARY
  5
1D68
102
{ACAD_REACTORS
330
1D67
102
}
330
1D67
100
AcDbDictionary
280
     1
281
     1
  3
2
360
1D69
  0
XRECORD
  5
46E1
102
{ACAD_REACTORS
330
BC1
102
}
330
BC1
100
AcDbXrecord
280
     1
102
SHADEPLOT
 70
     0
102
SHADEPLOTRESLEVEL
 70
     2
102
SHADEPLOTCUSTOMDPI
 70
   300
  0
XRECORD
  5
BC2
102
{ACAD_REACTORS
330
BC1
102
}
330
BC1
100
AcDbXrecord
280
     1
310
28000000B40000007F00000001000800000000004C59000000000000000000000001000000000000FFFFFF0000000000FFFFFF000000000000000000000000000000000000000000000000000000000000000000330000006600000099000000CC000000FF00000000330000333300006633000099330000CC330000FF3300
310
0000660000336600006666000099660000CC660000FF66000000990000339900006699000099990000CC990000FF99000000CC000033CC000066CC000099CC0000CCCC0000FFCC000000FF000033FF000066FF000099FF0000CCFF0000FFFF000000003300330033006600330099003300CC003300FF003300003333003333
310
33006633330099333300CC333300FF33330000663300336633006666330099663300CC663300FF66330000993300339933006699330099993300CC993300FF99330000CC330033CC330066CC330099CC3300CCCC3300FFCC330000FF330033FF330066FF330099FF3300CCFF3300FFFF330000006600330066006600660099
310
006600CC006600FF00660000336600333366006633660099336600CC336600FF33660000666600336666006666660099666600CC666600FF66660000996600339966006699660099996600CC996600FF99660000CC660033CC660066CC660099CC6600CCCC6600FFCC660000FF660033FF660066FF660099FF6600CCFF6600
310
FFFF660000009900330099006600990099009900CC009900FF00990000339900333399006633990099339900CC339900FF33990000669900336699006666990099669900CC669900FF66990000999900339999006699990099999900CC999900FF99990000CC990033CC990066CC990099CC9900CCCC9900FFCC990000FF99
310
0033FF990066FF990099FF9900CCFF9900FFFF99000000CC003300CC006600CC009900CC00CC00CC00FF00CC000033CC003333CC006633CC009933CC00CC33CC00FF33CC000066CC003366CC006666CC009966CC00CC66CC00FF66CC000099CC003399CC006699CC009999CC00CC99CC00FF99CC0000CCCC0033CCCC0066CC
310
CC0099CCCC00CCCCCC00FFCCCC0000FFCC0033FFCC0066FFCC0099FFCC00CCFFCC00FFFFCC000000FF003300FF006600FF009900FF00CC00FF00FF00FF000033FF003333FF006633FF009933FF00CC33FF00FF33FF000066FF003366FF006666FF009966FF00CC66FF00FF66FF000099FF003399FF006699FF009999FF00CC
310
99FF00FF99FF0000CCFF0033CCFF0066CCFF0099CCFF00CCCCFF00FFCCFF0000FFFF0033FFFF0066FFFF0099FFFF00CCFFFF00FFFFFF00000000000D0D0D001A1A1A00282828003535350043434300505050005D5D5D006B6B6B00787878008686860093939300A1A1A100AEAEAE00BBBBBB00C9C9C900D6D6D600E4E4E400
310
F1F1F100FFFFFF0000000000000000000000000000000000000000000000000000000000000000000000000000000000E2E2E2E2E2E2E2E2E2E2E2E2E2E2E2E2E2E2E2E2E2E2E2E2E2E2E2E2E2E2E2E2E2E2E2E2E2E2E2E2E2E2E2E2E2E2E2E2E2E2E2E2E2E2E2E2E2E2E2E2E2E2E2E2E2E2E2E2E2E2E2E2E2E2E2E2E2E2E2
310
E2E2E2E2E2E2E2E2E2E2E2E2E2E2E2E2E2E2E2E2E2E2E2E2E2E2E2E2E2E2E2E2E2E2E2E2E2E2E2E2E2E2E2E2E2E2E2E2E2E2E2E2E2E2E2E2E2E2E2E2E2E2E2E2E2E2E2E2E2E2E2E2E2E2E2E2E2E2E2E2E2E2E2E2E2E2E2E2E2E2E2E2E2E2E2E2E2E2E2E2E2E2F5F5F5F5F5F5F5F5F5F5F5F5F5F5F5F5F5F5F5F5F5F5F5F5F5
310
F5F5F5F5F5F5F5F5F5F5F5F5F5F5F5F5F5F5F5F5F5F5F5F5F5F5F5F5F5F5F5F5F5F5F5F5F5F5F5F5F5F5F5F5F5F5F5F5F5F5F5F5F5F5F5F5F5F5F5F5F5F5F5F5F5F5F5F5F5F5F5F5F5F5F5F5F5F5F5F5F5F5F5F5F5F5F5F5F5F5F5F5F5F5F5F5F5F5F5F5F5F5F5F5F5F5F5F5F5F5F5F5F5F5F5F5F5F5F5F5F5F5F5F5F5F5F5
310
F5F5F5F5F5F5F5F5F5F5F5F5F5F5F5F5F5F5F5F5F5F5F5F5F5E2E2E2F5E2E2E2E2E2E2E2E2F5F5F5F5F5F5F5F5F5E2E2E2E2E2E2E2E2E2E2E2E2E2E2E2E2F5F5F5F5F5F5F5F5F5E2E2E2E2E2E2E2E2E2E2E2E2E2E2E2E2F5F5F5F5F5F5F5F5F5E2E2E2E2E2E2E2E2E2E2E2E2E2E2E2E2F5F5F5F5F5F5F5F5F5E2E2E2E2E2E2
310
E2E2E2E2E2E2E2E2E2E2F5F5F5F5F5F5F5F5F5E2E2E2E2E2E2E2E2E2E2E2E2E2E2E2E2F5F5F5F5F5F5F5F5F5E2E2E2E2E2E2E2E2E2E2E2E2E2E2E2E2F5F5F5F5F5F5F5F5F5E2E2E2E2E2E2E2E2F5E2E2E2F5E2F5F5F5F5F5F5F5F5F5F5F5F5F5F5F5F5F5F5F5F5F5F5F5F5F5F5F5F5F5F5F5F5F5F5F5F5F5F5F5F5F5F5F5F5
310
F5F5F5F5F5F5F5F5F5F5F5F5F5F5F5F5F5F5F5F5F5F5F5F5F5F5F5F5F5F5F5F5F5F5F5F5F5F5F5F5F5F5F5F5F5F5F5F5F5F5F5F5F5F5F5F5F5F5F5F5F5F5F5F5F5F5F5F5F5F5F5F5F5F5F5F5F5F5F5F5F5F5F5F5F5F5F5F5F5F5F5F5F5F5F5F5F5F5F5F5F5F5F5F5F5F5F5F5F5F5F5F5F5F5F5F5F5F5F5F5F5F5F5F5F5F5F5
310
F5F5E2F5E2E2E2F5E2F5F5F5F5F5F5F5F5F5F5F5F5F5F5F5F5F5F5F5F5F5F5F5F5F5F5F5F5F5F5F5F5F5F5F5F5F5F5F5F5F5F5F5F5F5F5F5F5F5F5F5F5F5F5F5F5F5F5F5F5F5F5F5F5F5F5F5F5F5F5F5F5F5F5F5F5F5F5F5F5F5F5F5F5F5F5F5F5F5F5F5F5F5F5F5F5F5F5F5F5F5F5F5F5F5F5F5F5F5F5F5F5F5F5F5F5F5F5
310
F5F5F5F5F5F5F5F5F5F5F5F5F5F5F5F5F5F5F5F5F5F5F5F5F5F5F5F5F5F5F5F5F5F5F5F5F5F5F5F5F5F5F5F5F5F5F5F5F5F5F5F5F5F5F5E2F5E2E2E2F5E2F5F5F5F5F5F5F5F5F5F5F5F5F5F5F5F5F5F5F5F5F5F5F5F5F5F5F5F5F5F5F5F5F5F5F5F5F5F5F5F5F5F5F5F5F5F5F5F5F5F5F5F5F5F5F5F5F5F5F5F5F5F5F5F5F5
310
F5F5F5F5F5F5F5F5F5F5F5F5F5F5F5F5F5F5F5F5F5F5F5F5F5F5F5F5F5F5F5F5F5F5F5F5F5F5F5F5F5F5F5F5F5F5F5F5F5F5F5F5F5F5F5F5F5F5F5F5F5F5F5F5F5F5F5F5F5F5F5F5F5F5F5F5F5F5F5F5F5F5F5F5F5F5F5F5F5F5F5F5F5F5F5F5F5F5F5F5F5F5F5F5F5F5F5F5E2F5E2E2E2F5E2F5F5F5F5F5F5F5F5F5F5F5F5
310
F5F5F5F5F5F5F5F5F5F5F5F5F5F5F5F5F5F5F5F5F5F5F5F5F5F5F5F5F5F5F5F5F5F5F5F5F5F5F5F5F5F5F5F5F5F5F5F5F5F5F5F5F5F5F5F5F5F5F5F5F5F5F5F5F5F5F5F5F5F5F5F5F5F5F5F5F5F5F5F5F5F5F5F5F5F5F5F5F5F5F5F5F5F5F5F5F5F5F5F5F5F5F5F5F5F5F5F5F5F5F5F5F5F5F5F5F5F5F5F5F5F5F5F5F5F5F5
310
F5F5F5F5F5F5F5F5F5F5F5F5F5F5F5F5F5F5F5F5F5F5F5F5F5F5F5F5F5F5F5F5F5F5E2F5E2E2E2F5E2F5F5F5F5F5F5F5F5F5F5F5F5F5F5F5F5F5F5F5F5F5F5F5F5F5F5F5F5F5F5F5F5F5F5F5F5F5F5F5F5F5F5F5F5F5F5F5F5F5F5F5F5F5F5F5F5F5F5F5F5F5F5F5F5F5F5F5F5F5F5F5F5F5F5F5F5F5F5F5F5F5F5F5F5F5F5
310
F5F5F5F5F5F5F5F5F5F5F5F5F5F5F5F5F5F5F5F5F5F5F5F5F5F5F5F5F5F5F5F5F5F5F5F5F5F5F5F5F5F5F5F5F5F5F5F5F5F5F5F5F5F5F5F5F5F5F5F5F5F5F5F5F5F5F5F5F5F5F5F5F5F5F5F5F5F5F5F5F5F5F5F5F5F5F5E2F5E2E2E2F5E2F5F5F5F5F5F5F5F5F5F5F5F5F5F5F5F5F5F5F5F5F5F5F5F5F5F5F5F5F5F5F5F5F5
310
F5F5F5F5F5F5F5F5F5F5F5F5F5F5F5F5F5F5F5F5F5F5F5F5F5F5F5F5F5F5F5F5F5F5F5F5F5F5F5F5F5F5F5F5F5F5F5F5F5F5F5F5F5F5F5F5F5F5F5F5F5F5F5F5F5F5F5F5F5F5F5F5F5F5F5F5F5F5F5F5F5F5F5F5F5F5F5F5F5F5F5F5F5F5F5F5F5F5F5F5F5F5F5F5F5F5F5F5F5F5F5F5F5F5F5F5F5F5F5F5F5F5F5F5F5F5F5
310
F5F5F5F5F5F5F5F5F5F5F5F5F5E2F5E2E2E2F5E2F5F5F5F5F5F5F5F5F5F5F5F5F5F5F5F5F5F5F5F5F5F5F5F5F5F5F5F5F5F5F5F5F5F5F5F5F5F5F5F5F5F5F5F5F5F5F5F5F5F5F5F5F5F5F5F5F5F5F5F5F5F5F5F5F5F5F5F5F5F5F5F5F5F5F5F5F5F5F5F5F5F5F5F5F5F5F5F5F5F5F5F5F5F5F5F5F5F5F5F5F5F5F5F5F5F5F5
310
F5F5F5F5F5F5F5F5F5F5F5F5F5F5F5F5F5F5F5F5F5F5F5F5F5F5F5F5F5F5F5F5F5F5F5F5F5F5F5F5F5F5F5F5F5F5F5F5F5F5F5F5F5F5F5F5F5F5F5F5F5F5F5F5F5F5E2F5E2E2E2F5F5F5F5F5F5F5F5F5F5F5F5F5F5F5F5F5F5F5F5F5F5F5F5F5F5F5F5F5F5F5F5F5F5F5F5F5F5F5F5F5F5F5F5F5F5F5F5F5F5F5F5F5F5F5F5
310
F5F5F5F5F5F5F5F5F5F5F5F5F5F5F5F5F5F5F5F5F5F5F5F5F5F5F5F5F5F5F5F5F5F5F5F5F5F5F5F5F5F5F5F5F5F5F5F5F5F5F5F5F5F5F5F5F5F5F5F5F5F5F5F5F5F5F5F5F5F5F5F5F5F5F5F5F5F5F5F5F5F5F5F5F5F5F5F5F5F5F5F5F5F5F5F5F5F5F5F5F5F5F5F5F5F5F5F5F5F5F5F5F5F5F5F5F5F5F5F5F5E2E2E2F5F5F5
310
F5F5F5F5F5F5F5F5F5F5F5F5F5F5F5F5F5F5F5F5F5F5F5F5F5F5F5F5F5F5F5F5F5F5F5F5F5F5F5F5F5F5F5F5F5F5F5F5F5F5F5F5F5F5F5F5F5F5F5F5F5F5F5F5F5F5F5F5F5F5F5F5F5F5F5F5F5F5F5F5F5F5F5F5F5F5F5F5F5F5F5F5F5F5F5F5F5F5F5F5F5F5F5F5F5F5F5F5F5F5F5F5F5F5F5F5F5F5F5F5F5F5F5F5F5F5F5
310
F5F5F5F5F5F5F5F5F5F5F5F5F5F5F5F5F5F5F5F5F5F5F5F5F5F5F5F5F5F5F5F5F5F5F5F5F5F5F5F5F5F5F5F5F5F5F5E2E2E2F5F5F5F5F5F5F5F5F5F5F5F5F5F5F5F5F5F5F5F5F5F5F5F5F5F5F5F5F5F5F5F5F5F5F5F5F5F5F5F5F5F5F5F5F5F5F5F5F5F5F5F5F5F5F5F5F5F5F5F5F5F5F5F5F5F5F5F5F5F5F5F5F5F5F5F5F5
310
F5F5F5F5F5F5F5F5F5F5F5F5F5F5F5F5F5F5F5F5F5F5F5F5F5F5F5F5F5F5F5F5F5F5F5F5F5F5F5F5F5F5F5F5F5F5F5F5F5F5F5F5F5F5F5F5F5F5F5F5F5F5F5F5F5F5F5F5F5F5F5F5F5F5F5F5F5F5F5F5F5F5F5F5F5F5F5F5F5F5F5F5F5F5F5F5F5F5F5F5E2E2E2F5F5F5F5F5F5F5F5F5F5F5F5F5F5F5F5F5F5F5F5F5F5F5F5
310
F5F5F5F5F5F5F5F5F5F5F5F5F5F5F5F5F5F5F5F5F5F5F5F5F5F5F5F5F5F5F5F5F5F5F5F5F5F5F5F5F5F5F5F5F5F5F5F5F5F5F5F5F5F5F5F5F5F5F5F5F5F5F5F5F5F5F5F5F5F5F5F5F5F5F5F5F5F5F5F5F5F5F5F5F5F5F5F5F5F5F5F5F5F5F5F5F5F5F5F5F5F5F5F5F5F5F5F5F5F5F5F5F5F5F5F5F5F5F5F5F5F5F5F5F5F5F5
310
F5F5F5F5F5F5F5F5F5F5F5F5F5F5F5F5F5F5F5F5F5F5F5F5F5F5E2E2E2E2E2E2E2E2E2E2E2E2E2E2E2E2E2E2E2E2E2E2E2E2E2E2E2E2E2E2E2E2E2E2E2E2E2E2E2E2E2E2E2E2E2E2E2E2E2E2E2E2E2E2E2E2E2E2E2E2E2E2E2E2E2E2E2E2E2E2E2E2E2E2E2E2E2E2E2E2E2E2E2E2E2E2E2E2E2E2E2E2E2E2E2E2E2E2E2E2E2
310
E2E2E2E2E2E2E2E2E2E2E2E2E2E2E2E2E2E2E2E2E2E2E2E2E2E2E2E2E2E2E2E2E2E2E2E2E2E2E2E2E2E2E2E2E2E2E2E2E2E2E2E2E2E2E2E2E2E2E2E2E2E2E2E2E2E2E2E2F5F5F5F5F5F5F5F5F5F5F5E2E2E2E2F5F5F5F5F5F5F5F5F5F5F5F5F5F5F5F5F5F5F5F5F5F5F5F5F5F5F5F5F5F5F5F5F5F5F5F5F5F5F5F5F5F5F5F5
310
F5F5F5F5F5F5F5F5F5F5F5F5F5F5F5F5F5F5F5F5F5F5F5F5F5F5F5F5F5F5F5F5F5F5F5F5F5F5F5F5F5F5F5F5F5F5F5F5F5F5F5F5F5F5F5F5F5F5F5F5F5F5F5F5F5F5F5F5F5F5F5F5F5F5F5F5F5F5F5F5F5F5F5F5F5F5F5F5F5F5F5F5F5F5F5F5F5F5F5F5F5F5F5F5F5F5F5F5F5F5F5F5F5F5F5F5F5F5F5F5E2F5F5F5F5F5F5
310
F5F5F5F5F5E2E2E2E2F5F5F5F5F5F5F5F5F5F5F5F5F5F5F5F5F5F5F5F5F5F5F5F5F5F5F5F5F5F5F5F5F5F5F5F5F5F5F5F5F5F5F5F5F5F5F5F5F5F5F5F5F5F5F5F5F5F5F5F5F5F5F5F5F5F5F5F5F5F5F5F5F5F5F5F5F5F5F5F5F5F5F5F5F5F5F5F5F5F5F5F5F5F5F5F5F5F5F5F5F5F5F5F5F5F5F5F5F5F5F5F5F5F5F5F5F5F5
310
F5F5F5F5F5F5F5F5E2E2E2E2E2E2E2E2E2E2E2E2F5F5F5F5F5F5F5F5F5F5F5F5F5F5F5F5F5F5F5F5F5F5F5F5F5F5E2F5F5F5F5F5F5F5F5F5F5F5E2E2E2E2F5F5F5F5F5F5F5F5F5F5F5F5F5F5F5F5F5F5F5F5F5F5F5F5F5F5F5F5F5F5F5F5F5F5F5F5F5F5F5F5F5F5F5F5F5F5F5F5F5F5F5F5F5F5F5F5F5F5F5F5F5F5F5F5F5
310
F5F5F5F5F5F5F5F5F5F5F5F5F5F5F5F5F5F5F5F5F5F5F5F5F5F5F5F5F5F5F5F5F5F5F5F5F5F5F5F5F5F5F5F5F5F5F5F5F5F5F5F5F5F5F5F5F5F5F5F5F5E2E2E2E2E2E2E2E2E2E2E2E2F5F5F5F5F5F5F5F5F5F5F5F5F5F5F5F5F5F5F5F5F5F5F5F5F5F5E2F5F5F5F5F5F5F5F5F5F5F5E2E2E2E2F5F5F5F5F5F5F5F5F5F5F5F5
310
F5F5F5F5F5F5F5F5F5F5F5F5F5F5F5F5F5F5F5F5F5F5F5F5F5F5F5F5F5F5F5F5F5F5F5F5F5F5282828282828282828282828282828282828282828282828282828282828F5F5F5F5F5F5F5F5F5F5F5F5F5F5F5F5F5F5F5F5F5F5F5F5F5F5F5F5F52828282828282828282828282828282828F5F5F5E2E2E2F5F5F5F5F5F5F5
310
F5F5F5F5F5F5F5F5F5F5F5F5F5F5F5F5F5F5F5F5F5F5F5F5F5E2F5F5F5F5F5F5F5F5F5F5F5E2E2E2E2E2F5F5F5F5F5F52828282828282828282828282828282828282828282828282828282828282828282828282828282828F5F528E2E2E2E2E2E2E2E2E2E2E2E2E2E2E2E2E2E2E2E2E2E2E2E2E2E2E2E2E2F5F5F5282828
310
28282828282828282828282828282828282828F5F5F5F528E2E2E2E2E2E2E2E2E2E2E2E2E2E2E2E2E2E2E2E2E2E2E2E2E2E2E2E2F5F5F5F5F5F5F5F5F5F5F5F5F5F5F5F5F5F5F5F5F5F5F5F5F5F5E2F5F5F5F5F5F5F5F5F5E2F5E2E2E2E2E2F5F5F5F5F5F528E2E2E2E2E2E2E2E2E2E2E2E2E2E2E2E2E2E2E2E2E2E2E2E2E2
310
E2E2E2E2E2E2E2E2E2E2E2E2E2E2E2F5F528E2E2E2E2E2E2E2E2E2E2E2E2E2E2E2E2E2E2E2E2E2E2E2E2E2E2E2E2E2F5F5F528E2E2E2E2E2E2E2E2E2E2E2E2E2E2E2E2E2E2E2E2E2F5F5F5F528E2E2E2E2E2E2E2E2E2E2E2E2E2E2E2E2F5E2E2E2E2E2E2E2E2E2E2E2F5F5F5F5F5F5F5F5F5F5F5F5F5F5F5F5F5F5F5F5F5F5
310
F5F5F5F5E2F5F5F5F5F5F5F5F5F5E2F5E2E2E2E2E2F5F5F5F5F5F528E2E2E2E2E2E2E2E2E2E2E2E2E2E2E2E2E2E2E2E2E2E2E2E2E2E2E2E2E2E2E2E2E2E2E2E2E2E2E2E2F5F528E2E2F5F5F5F5F5F5F5F5F5F5F5F5F5F5F5F5F5F5F5F5F5F5F5F5F5E2E2F5F5F528E2E2E2E2E2E2E2E2E2E2E2E2E2E2E2E2E2E2E2E2E2F5F5
310
F5F528E2E2F5F5F5F5F5F5F5F5F5F5F5E2E2E2F5E2E2E2E2E2E2E2E2E2E2E2F5F5F5F5F5F5F5F5F5F5F5F5F5F5F5F5F5F5F5F5F5F5F5F5F5F5E2F5F5F5F5F5F5F5F5F5E2F5E2E2E2E2E2F5F5F5F5F5F528E2E2F5F5F5F5F5F5F5F5F5F5F5F5F5F5F5F5F5F5F5F5F5F5F5F5F5F5F5F5F5F5F5F5F5F5F5E2E2E2F5F528E2E2F5
310
F5F5F5F5F5F5F5F5F5F5F5F5F5F5F5F5F5F5F5F5F5F5F5F5E2E2F5F5F528E2E2F5F5F5F5F5F5F5F5F5F5F5F5F5F5F5F5F5E2E2F5F5F5F528E2E2F5F5F5F5F5F5F5F5F5F5F5E2E2E2E2E2E2E2E2E2E2E2E2E2E2E2F5F5F5F5F5F5F5F5F5F5F5F5F5F5F5F5F5F5F5F5F5F5F5F5F5F5E2F5F5F5F5F5F5F5F5F5E2F5E2E2E2E2E2
310
F5F5F5F5F5F528E2E2F5F5F5F5F5F5F5F5F5F5F5F5F5F5F5F5F5F5F5F5F5F5F5F5F5F5F5F5F5F5F5F5F5F5F5E2E2E2F5F528E2E2F5F5F5F5F5F5F5F5F5F5F5F5F5F5F5F5F5F5F5F5F5F5F5F5F5E2E2F5F5F528E2E2F5F5F5F5F5F5F5F5F5F5F5F5F5F5F5F5F5E2E2F5F5F5F528E2E2F5F5F5F5F5F5F5F5F5F5F5E2E2E2F5F5
310
F5E2E2E2F5F5F5F5F5F5F5F5F5F5F5F5F5F5F5F5F5F5F5F5F5F5F5F5F5F5F5F5F5F5F5F5E2F5F5F5F5F5F5F5F5F5E2F5E2E2E2E2E2F5F5F5F5F5F528E2E2F5F5F5F5F5F5F5F5F5F5F5F5F5F5F5F5F5F5F5F5F5F5F5F5F5F5F5F5F5F5F5F5F5F5F5E2E2E2F5F528E2E2F5F5F5F5F5F5F5F5F5F5F5F5F5F5F5F5F5F5F5F5F5F5
310
F5F5F5E2E2F5F5F528E2E2F5F5F5F5F5F5F5F5F5F5F5F5F5F5F5F5F5E2E2F5F5F5F528E2E2F5F5F5F5F5F5F5F5F5F5F5E2E2E2E2E2E2E2E2E2E2E2E2E2E2E2F5F5F5F5F5F5F5F5F5F5F5F5F5F5F5F5F5F5F5F5F5F5F5F5F5F5E2F5F5F5F5F5F5F5F5F5E2F5E2E2E2E2E2F5F5F5F5F5F528E2E2F5F5F5F5F5F5F5F5F5F5F5F5
310
F5F5F5F5F5F5F5F5F5F5F5F5F5F5F5F5F5F5F5F5F5F5F5E2E2E2F5F528E2E2F5F5F5F5F5F5F5F5F5F5F5F5F5F5F5F5F5F5F5F5F5F5F5F5F5E2E2F5F5F528E2E2F5F5F5F5F5F5F5F5F5F5F5F5F5F5F5F5F5E2E2F5F5F5F528E2E2F5F5F5F5F5F5F5F5F5F5F5E2E2E2E2E2E2E2E2E2E2E2E2E2E2E2F5F5F5F5F5F5F5F5F5F5F5
310
F5F5F5F5F5F5F5F5F5F5F5F5F5F5F5E2F5F5F5F5F5F5F5F5F5E2F5E2E2E2E2E2F5F5F5F5F5F528E2E2F5F5F5F5F5F5F5F5F5F5F5F5F5F5F5F5F5F5F5F5F5F5F5F5F5F5F5F5F5F5F5F5F5F5F5E2E2E2F5F528E2E2F5F5F5F5F5F5F5F5F5F5F5F5F5F5F5F5F5F5F5F5F5F5F5F5F5E2E2F5F5F528E2E2F5F5F5F5F5F5F5F5F5F5
310
F5F5F5F5F5F5F5E2E2F5F5F5F528E2E2F5F5F5F5F5F5F5F5F5F5F5E2E2E2F5F5E2E2E2E2E2E2E2E2E2E2F5F5F5F5F5F5F5F5F5F5F5F5F5F5F5F5F5F5F5F5F5F5F5F5F5F5E2F5F5F5F5F5F5F5F5F5E2F5E2E2E2E2E2F5F5F5F5F5F528E2E2F5F5F5F5F5F5F5F5F5F5F5F5F5F5F5F5F5F5F5F5F5F5F5F5F5F5F5F5F5F5F5F5F5
310
F5F5E2E2E2F5F528E2E2F5F5F5F5F5F5F5F5F5F5F5F5F5F5F5F5F5F5F5F5F5F5F5F5F5E2E2F5F5F528E2E2F5F5F5F5F5F5F5F5F5F5F5F5F5F5F5F5F5E2E2F5F5F5F528E2E2F5F5F5F5F5F5F5F5F5F5F5E2E2E2E2E2E2E2E2E2E2E2E2E2E2E2F5F5F5F5F5F5F5F5F5F5F5F5F5F5F5F5F5F5F5F5F5F5F5F5F5F5E2F5F5F5F5F5
310
F5F5F5F5E2F5E2E2E2E2E2F5F5F5F5F5F528E2E2F5F5F5F5F5F5F5F5F5F5F5F5F5F5F5F5F5F5F5F5F5F5F5F5F5F5F5F5F5F5F5F5F5F5F5E2E2E2F5F528E2E2F5F5F5F5F5F5F5F5F5F5F5F5F5F5F5F5F5F5F5F5F5F5F5F5F5E2E2F5F5F528E2E2F5F5F5F5F5F5F5F5F5F5F5F5F5F5F5F5F5E2E2F5F5F5F528E2E2F5F5F5F5F5
310
F5F5F5F5F5F5E2E2E2F5F5F5F5F5F5F5F5F5F5F5F5F5F5F5F5F5F5F5F5F5F5F5F5F5F5F5F5F5F5F5F5F5F5F5F5F5F5E2F5F5F5F5F5F5F5F5F5E2F5E2E2E2E2E2F5F5F5F5F5F528E2E2F5F5F5F5F5F5F5F5F5F5F5F5F5F5F5F5F5F5F5F5F5F5F5F5F5F5F5F5F5F5F5F5F5F5F5E2E2E2F5F528E2E2F5F5F5F5F5F5F5F5F5F5F5
310
F5F5F5F5F5F5F5F5F5F5F5F5F5F5E2E2F5F5F528E2E2F5F5F5F5F5F5F5F5F5F5F5F5F5F5F5F5F5E2E2F5F5F5F528E2E2F5F5F5F5F5F5F5F5F5F5F5E2E2E2E2E2E2E2E2E2E2E2E2E2E2E2F5F5F5E2E2E2E2E2E2E2E2E2E2E2E2F5F5F5F5F5F5F5F5F5F5F5E2F5F5F5F5F5F5F5F5F5E2F5E2E2E2E2E2F5F5F5F5F5F528E2E2F5
310
F5F5F5F5F5F5F5F5F5F5F5F5F5F5F5F5F5F5F5F5F5F5F5F5F5F5F5F5F5F5F5F5F5F5E2E2E2F5F528E2E2F5F5F5F5F5F5F5F5F5F5F5F5F5F5F5F5F5F5F5F5F5F5F5F5F5E2E2F5F5F528E2E2F5F5F5F5F5F5F5F5F5F5F5F5F5F5F5F5F5E2E2F5F5F5F528E2E2F5F5F5F5F5F5F5F5F5F5F5E2E2E2E2E2E2E2E2E2E2E2E2E2E2E2
310
F5F5F5F5E2E2E2E2E2E2E2E2E2E2E2F5F5F5F5F5F5F5F5F5F5F5E2F5F5F5F5F5F5F5F5F5E2F5E2E2E2E2E2F5F5F5F5F5F528E2E2F5F5F5F5F5F5F5F5F5F5F5F5F5F5F5F5F5F5F5F5F5F5F5F5F5F5F5F5F5F5F5F5F5F5F5E2E2E2F5F528E2E2F5F5F5F5F5F5F5F5F5F5F5F5F5F5F5F5F5F5F5F5F5F5F5F5F5E2E2F5F5F528E2
310
E2F5F5F5F5F5F5F5F5F5F5F5F5F5F5F5F5F5E2E2F5F5F5F528E2E2F5F5F5F5F5F5F5F5F5F5F5E2E2E2F5F5F5F5F5F5F5F5F5F5F5F5F5F5F5F5F5F5F5F5F5F5F5F5F5F5F5F5F5F5F5F5F5F5F5F5F5F5E2F5F5F5F5F5F5F5F5F5E2F5E2E2E2E2E2F5F5F5F5F5F528E2E2F5F5F5F5F5F5F5F5F5F5F5F5F5F5F5F5F5F5F5F5F5F5
310
F5F5F5F5F5F5F5F5F5F5F5F5F5E2E2E2F5F528E2E2F5F5F5F5F5F5F5F5F5F5F5F5F5F5F5F5F5F5F5F5F5F5F5F5F5E2E2F5F5F528E2E2F5F5F5F5F5F5F5F5F5F5F5F5F5F5F5F5F5E2E2F5F5F5F528E2E2F5F5F5F5F5F5F5F5F5F5F5E2E2E2F5F5F5F5F5F5F5F5F5F5F5F5F5F5F5F5F5F5F5F5F5F5F5F5F5F5F5F5F5F5F5F5F5
310
F5F5F5F5F5E2F5F5F5F5F5F5F5F5F5E2F5E2E2E2E2E2F5F5F5F5F5F528E2E2F5F5F5F5F5F5F5F5F5F5F5F5F5F5F5F5F5F5F5F5F5F5F5F5F5F5F5F5F5F5F5F5F5F5F5E2E2E2F5F528E2E2F5F5F5F5F5F5F5F5F5F5F5F5F5F5F5F5F5F5F5F5F5F5F5F5F5E2E2F5F5F528E2E2E2E2E2E2E2E2E2E2E2E2E2E2E2E2E2E2E2E2E2F5
310
F5F5F528E2E2F5F5F5F5F5F5F5F5F5F5F5E2E2E2F5F5F5F5F5F5F5F5F5F5F5F5F5F5F5F5F5F5E2E2E2F5F5F5F5F5F5F5F5F5F5F5F5F5F5F5F5F5E2F5F5F5F5F5F5F5F5F5E2F5E2E2E2E2E2F5F5F5F5F5F528E2E2F5F5F5F5F5F5F5F5F5F5F5F5F5F5F5F5F5F5F5F5F5F5F5F5F5F5F5F5F5F5F5F5F5F5F5E2E2E2F5F528E2E2
310
F5F5F5F5F5F5F5F5F5F5F5F5F5F5F5F5F5F5F5F5F5F5F5F5F5E2E2F5F5F528E2E2E2E2E2E2E2E2E2E2E2E2E2E2E2E2E2E2E2E228F5F5F5F528E2E2F5F5F5F5F5F5F5F5F5F5F5E2E2E2F5F5F5F5F5F5F5F5F5F5F5F5F5F5F5E2E2E2E2E2E2E2E2E2E2E2E2F5F5F5F5F5F5F5F5F5F5F5E2F5F5F5F5F5F5F5F5F5E2F5E2E2E2E2
310
F5F5F5F5F5F5F528E2E2F5F5F5F5F5F5F5F5F5F5F5F5F5F5F5F5F5F5F5F5F5F5F5F5F5F5F5F5F5F5F5F5F5F5F5E2E2E2F5F528E2E2F5F5F5F5F5F5F5F5F5F5F5F5F5F5F5F5F5F5F5F5F5F5F5F5F5E2E2F5F5F5F5F5F5F5F5F5F5F5F5F5F5F5F5F5F5F5F5F5F5F5F5F5F5F5F5F528E2E2F5F5F5F5F5F5F5F5F5F5F5E2E2E2F5
310
F5F5F5F5F5F5F5F5F5F5F5F5F5F5F5E2E2E2E2E2E2E2E2E2E2E2F5F5F5F5F5F5F5F5F5F5F5E2F5F5F5F5F5F5F5F5F5F5F5E2E2E2E2F5F5F5F5F5F5F528E2E2F5F5F5F5F5F5F5F5F5F5F5F5F5F5F5F5F5F5F5F5F5F5F5F5F5F5F5F5F5F5F5F5F5F5F5E2E2E2F5F528E2E2F5F5F5F5F5F5F5F5F5F5F5F5F5F5F5F5F5F5F5F5F5
310
F5F5F5F5E2E2F5F5F5F5F5F5F5F5F5F5F5F5F5F5F5F5F5F5F5F5F5F5F5F5F5F5F5F5F528E2E2F5F5F5F5F5F5F5F5F5F5F5E2E2E2F5F5F5F5F5F5F5F5F5F5F5F5F5F5F5F5F5E2E2E2E2E2E2E2E2E2E2F5F5F5F5F5F5F5F5F5F5F5E2F5F5F5F5F5F5F5F5F5F5F5E2E2E2E2F5F5F5F5F5F5F528E2E2F5F5F5F5F5F5F5F5F5F5F5
310
F5F5F5F5F5F5F5F5F5F5F5F5F5F5F5F5F5F5F5F5F5F5F5F5E2E2E2F5F528E2E2E2E2E2E2E2E2E2E2E2E2E2E2E2E2E2E2E2E2E2E2E2E2E2E2E2E2E2F5F5F5F5F5F5F5F5F5F5F5F5F5F5F5F5F5F5F5F5F5F5F5F5F5F5F5F5F528E2E2E2E2E2E2E2E2E2E2E2E2E2E2E2E2F5F5F5F5F5F5F5F5F5F5F5F5F5F5F5E2E2E2E2E2E2E2
310
E2E2E2E2E2F5F5F5F5F5F5F5F5F5F5F5E2F5F5F5F5F5F5F5F5F5F5F5E2E2E2E2F5F5F5F5F5F5F528E2E2F5F5F5F5F5F5F5F5F5F5F5F5F5F5F5F5F5F5F5F5F5F5F5F5F5F5F5F5F5F5F5F5F5F5F5E2E2E2F5F528E2E2E2E2E2E2E2E2E2E2E2E2E2E2E2E2E2E2E2E2E2E2E2E2E2E2E2E228F5F5F5F5F5F5F5F5F5F5F5F5F5F5F5
310
F5F5F5F5F5F5F5F5F5F5F5F5F5F528E2E2E2E2E2E2E2E2E2E2E2E2E2E2E228F5F5F5F5F5F5F5F5F5F5F5F5F5F5F5F5F5F5E2E2E2F5F5F5F5F5F5F5F5F5F5F5F5F5F5F5F5F5E2F5F5F5F5F5F5F5F5F5F5F5E2E2E2E2F5F5F5F5F5F5F528E2E2F5F5F5F5F5F5F5F5F5F5F5F5F5F5F5F5F5F5F5F5F5F5F5F5F5F5F5F5F5F5F5F5
310
F5F5F5E2E2E2F5F5282828282828282828282828282828282828282828282828282828282828F5F5F5F5F5F5F5F5F5F5F5F5F5F5F5F5F5F5F5F5F5F5F5F5F5F5F5F5F52828282828282828282828282828282828F5F5F5F5F5F5F5F5F5F5F5F5F5F5F5E2E2E2E2E2E2E2E2E2E2E2E2F5F5F5F5F5F5F5F5F5F5F5E2F5F5F5F5
310
F5F5F5F5F5F5F5E2E2E2E2F5F5F5F5F5F5F528E2E2F5F5F5F5F5F5F5F5F5F5F5F5F5F5F5F5F5F5F5F5F5F5F5F5F5F5F5F5F5F5F5F5F5F5F5E2E2E2F5F5F5F5F5F5F5F5F5F5F5F5F5F5F5F5F5F5F5F5F5F5F5F5F5F5F5F5F5F5F5F5F5F5F5F5F5F5F5F5F5F5F5F5F5F5F5F5F5F5F5F5F5F5F5F5F5F5F5F5F5F5F5F5F5F5F5F5
310
F5F5F5F5F5F5F5F5F5F5F5F5F5F5F5F5F5F5F5F5F5F5F5F5F5F5F5E2E2E2E2E2E2E2E2E2E2F5F5F5F5F5F5F5F5F5F5F5E2F5F5F5F5F5F5F5F5F5F5F5E2E2E2E2F5F5F5F5F5F5F528E2E2F5F5F5F5F5F5F5F5F5F5F5F5F5F5F5F5F5F5F5F5F5F5F5F5F5F5F5F5F5F5F5F5F5F5F5E2E2E2F5F5F5F5F5F5F5F5F5F5F5F5F5F5F5
310
F5F5F5F5F5F5F5F5F5F5F5F5F5F5F5F5F5F5F5F5F5F5F5F5F5F5F5F5F5F5F5F5F5F5F5F5F5F5F5F5F5F5F5F5F5F5F5F5F5F5F5F5F5F5F5F5F5F5F5F5F5F5F5F5F5F5F5F5F5F5F5F5F5F5F5F5F5F5F5F5F5F5F5F5F5F5F5F5F5F5F5F5F5F5F5F5F5F5F5F5F5E2F5F5F5F5F5F5F5F5F5F5F5E2E2E2E2F5F5F5F5F5F5F528E2E2
310
F5F5F5F5F5F5F5F5F5F5F5F5F5F5F5F5F5F5F5F5F5F5F5F5F5F5F5F5F5F5F5F5F5F5F5E2E2E2F5F5F5F5F5F5F5F5F5F5F5F5F5F5F5F5F5F5F5F5F5F5F5F5F5F5F5F5F5F5F5F5F5F5F5F5F5F5F5F5F5F5F5F5F5F5F5F5F5F5F5F5F5F5F5F5F5F5F5F5F5F5F5F5F5F5F5F5F5F5F5F5F5F5F5F5F5F5F5F5F5F5F5F5F5F5F5F5F5
310
F5F5F5F5F5F5F5F5F5F5F5F5F5F5F5F5F5F5F5F5F5F5F5F5F5F5F5E2F5F5F5F5F5F5F5F5F5F5F5E2E2E2E2E2F5F5F5F5F5F528E2E2F5F5F5F5F5F5F5F5F5F5F5F5F5F5F5F5F5F5F5F5F5F5F5F5F5F5F5F5F5F5F5F5F5F5F5E2E2E2F5F5F5F5F5F5F5F5F5F5F5F5F5F5F5F5F5F5F5F5F5F5F5F5F5F5F5F5F5F5F5F5F5F5F5F5
310
F5F5F5F5F5F5F5F5F5F5F5F5F5F5F5F5F5F5F5F5F5F5F5F5F5F5F5F5F5F5F5F5F5F5F5F5F5F5F5F5F5F5F5F5F5F5F5F5F5F5F5F5F5F5F5F5F5F5F5F5F5F5F5F5F5F5F5F5F5F5F5F5F5F5F5F5F5F5F5F5E2F5F5F5F5F5F5F5F5F5E2F5E2E2E2E2E2F5F5F5F5F5F528E2E2F5F5F5F5F5F5F5F5F5F5F5F5F5F5F5F5F5F5F5F5F5
310
F5F5F5F5F5F5F5F5F5F5F5F5F5F5E2E2E2F5F5F5F5F5F5F5F5F5F5F5F5F5F5F5F5F5F5F5F5F5F5F5F5F5F5F5F5F5F5F5F5F5F5F5F5F5F5F5F5F5F5F5F5F5F5F5F5F5F5F5F5F5F5F5F5F5F5F5F5F5F5F5F5F5F5F5F5F5F5F5F5F5F5F5F5F5F5F5F5F5F5F5F5F5F5F5F5F5F5F5F5F5F5F5F5F5F5F5F5F5F5F5F5F5F5F5F5F5F5
310
F5F5F5F5F5F5E2F5F5F5F5F5F5F5F5F5E2F5E2E2E2E2E2F5F5F5F5F5F528E2E2F5F5F5F5F5F5F5F5F5F5F5F5F5F5F5F5F5F5F5F5F5F5F5F5F5F5F5F5F5F5F5F5F5F5F5E2E2E2F5F5F5F5F5F5F5F5F5F5F5F5F5F5F5F5F5F5F5F5F5F5F5F5F5F5F5F5F5F5F5F5F5F5F5F5F5F5F5F5F5F5F5F5F5F5F5F5F5F5F5F5F5F5F5F5F5
310
F5F5F5F5F5F5F5F5F5F5F5F5F5F5F5F5F5F5F5F5F5F5F5F5F5F5F5F5F5F5F5F5F5F5F5F5F5F5F5F5F5F5F5F5F5F5F5F5F5F5F5F5F5F5F5F5F5F5F5E2F5F5F5F5F5F5F5F5F5E2F5E2E2E2E2E2F5F5F5F5F5F528E2E2E2E2E2E2E2E2E2E2E2E2E2E2E2E2E2E2E2E2E2E2E2E2E2E2E2E2E2E2E2E2E2E2E2E2E2E2E2E2F5F5F5F5
310
F5F5F5F5F5F5F5F5F5F5F5F5F5F5F5F5F5F5F5F5F5F5F5F5F5F5F5F5F5F5F5F5F5F5F5F5F5F5F5F5F5F5F5F5F5F5F5F5F5F5F5F5F5F5F5F5F5F5F5F5F5F5F5F5F5F5F5F5F5F5F5F5F5F5F5F5F5F5F5F5F5F5F5F5F5F5F5F5F5F5F5F5F5F5F5F5F5F5F5F5F5F5F5F5F5F5F5F5F5F5F5F5E2F5F5F5F5F5F5F5F5F5E2F5E2E2E2
310
E2E2F5F5F5F5F5F528E2E2E2E2E2E2E2E2E2E2E2E2E2E2E2E2E2E2E2E2E2E2E2E2E2E2E2E2E2E2E2E2E2E2E2E2E2E2E228F5F5F5F5F5F5F5F5F5F5F5F5F5F5F5F5F5F5F5F5F5F5F5F5F5F5F5F5F5F5F5F5F5F5F5F5F5F5F5F5F5F5F5F5F5F5F5F5F5F5F5F5F5F5F5F5F5F5F5F5F5F5F5F5F5F5F5F5F5F5F5F5F5F5F5F5F5F5
310
F5F5F5F5F5F5F5F5F5F5F5F5F5F5F5F5F5F5F5F5F5F5F5F5F5F5F5F5F5F5F5F5F5F5F5F5F5F5E2F5F5F5F5F5F5F5F5F5E2F5E2E2E2E2E2F5F5F5F5F5F5F5F5F5F5F5F5F5F5F5F5F5F5F5F5F5F5F5F5F5F5F5F5F5F5F5F5F5F5F5F5F5F5F5F5F5F5F5F5F5F5F5F5F5F5F5F5F5F5F5F5F5F5F5F5F5F5F5F5F5F5F5F5F5F5F5F5
310
F5F5F5F5F5F5F5F5F5F5F5F5F5F5F5F5F5F5F5F5F5F5F5F5F5F5F5F5F5F5F5F5F5F5F5F5F5F5F5F5F5F5F5F5F5F5F5F5F5F5F5F5F5F5F5F5F5F5F5F5F5F5F5F5F5F5F5F5F5F5F5F5F5F5F5F5F5F5F5F5F5F5F5F5F5F5F5F5F5F5F5E2F5F5F5F5F5F5F5F5F5E2F5E2E2E2E2E2F5F5F5F5F5F5F5F5F5F5F5F5F5F5F5F5F5F5F5
310
F5F5F5F5F5F5F5F5F5F5F5F5F5F5F5F5F5F5F5F5F5F5F5F5F5F5F5F5F5F5F5F5F5F5F5F5F5F5F5F5F5F5F5F5F5F5F5F5F5F5F5F5F5F5F5F5F5F5F5F5F5F5F5F5F5F5F5F5F5F5F5F5F5F5F5F5F5F5F5F5F5F5F5F5F5F5F5F5F5F5F5F5F5F5F5F5F5F5F5F5F5F5F5F5F5F5F5F5F5F5F5F5F5F5F5F5F5F5F5F5F5F5F5F5F5F5F5
310
F5F5F5F5F5F5F5F5F5F5F5F5F5F5F5F5F5E2F5F5F5F5F5F5F5F5F5E2F5E2E2E2E2E2F5F5F5F5F5F5F5F5F5F5F5F5F5F5F5F5F5F5F5F5F5F5F5F5F5F5F5F5F5F5F5F5F5F5F5F5F5F5F5F5F5F5F5F5F5F5F5F5F5F5F5F5F5F5F5F5F5F5F5F5F5F5F5F5F5F5F5F5F5F5F5F5F5F5F5F5F5F5F5F5F5F5F5F5F5F5F5F5F5F5F5F5F5
310
F5F5F5F5F5F5F5F5F5F5F5F5F5F5F5F5F5F5F5F5F5F5F5F5F5F5F5F5F5F5F5F5F5F5F5F5F5F5F5F5F5F5F5F5F5F5F5F5F5F5F5F5F5F5F5F5F5F5F5F5F5F5F5F5F5F5F5F5F5F5E2F5F5F5F5F5F5F5F5F5E2F5E2E2E2E2E2F5F5F5F5F5F528282828282828282828282828282828282828282828282828282828282828282828
310
282828282828282828282828282828282828282828282828282828282828282828282828282828282828282828F5F5F5F5282828282828282828282828282828282828282828282828282828282828282828282828282828282828282828282828282828282828282828F5F5F5F5F5F5F5F5F5F5F5F5F5F5F5F5F5E2F5F5F5
310
F5F5F5F5F5F5E2F5E2E2E2E2E2F5F5F5F5F5F528F5E2E2E2E2E2E2E2E2E2E2E2E2E2E2E2E2E2E2E2E2E2E2E2E2E2E2E2E2E2E2E2E2E2E2E2E2E2E2E2E2E2E2E2E2E2E2E2E2E2E2E2E2E2E2E2E2E2E2E2E2E2E2E2E2E2E2E2E2E2E2E2E2E2E2E2E2E2F5F5F5F528E2E2E2E2E2E2E2E2E2E2E2E2E2E2E2E2E2E2E2E2E2E2E2E2
310
E2E2E2E2E2E2E2E2E2E2E2E2E2E2E2E2E2E2E2E2E2E2E2E2E2E2E2E2E2E2E2E2F5F5F5F5F5F5F5F5F5F5F5F5F5F5F5F5F5E2F5F5F5F5F5F5F5F5F5E2F5E2E2E2E2E2F5F5F5F5F5F528F5E2E2E2E2E2E2E2E2E2E2E2E2E2E2E2E2E2E2E2E2E2E2E2E2E2E2E2E2E2E2E2E2E2E2E2E2E2E2E2E2E2E2E2E2E2E2E2E2E2E2E2E2E2
310
E2E2E2E2E2E2E2E2E2E2E2E2E2E2E2E2E2E2E2E2E2E2E2E2F5F5F5F528E2E2E2E2E2E2E2E2E2E2E2E2E2E2E2E2E2E2E2E2E2E2E2E2E2E2E2E2E2E2E2E2E2E2E2E2E2E2E2E2E2E2E2E2E2E2E2E2E2E2E2E2E2E2E2E2F5F5F5F5F5F5F5F5F5F5F5F5F5F5F5F5F5E2F5F5F5F5F5F5F5F5F5E2F5E2E2E2E2E2F5F5F5F5F5F528F5
310
E2E2F5F5F5F5F5F5F5F5F5F5F5F5F5F5F5F5F5F5F5F5F5F5F5F5F5F5F5F5F5F5F5F5F5F5F5F5F5F5F5F5F5F5F5F5F5F5F5F5F5F5F5F5F5F5F5F5F5F5F5F5F5F5F5F5E2E2E2E2E2E2E2E2E2E2E2F5F5F5F528E2E2F5F5F5F5F5F5F5F5F5F5F5F5F5F5F5F5F5F5F5F5F5F5F5F5F5F5F5F5F5F5F5F5F5F5F5F5F5F5F5F5F5F5F5
310
F5F5F5F5F5F5F5F5E2E2E2F5F5F5F5F5F5F5F5F5F5F5F5F5F5F5F5F5E2F5F5F5F5F5F5F5F5F5E2F5E2E2E2E2E2F5F5F5F5F5F528F5E2E2F5F5F5F5F5F5F5F5F5F5F5F5F5F5F5F5F5F5F5F5F5F5F5F5F5F5F5F5F5F5F5F5F5F5F5F5F5F5F5F5F5F5F5F5F5F5F5F5F5F5F5F5F5F5F5F5F5F5F5F5F5F5F5F5F5F5F5F5F5F5F5F5
310
F5E2E2F5F5F5F528E2E2F5F5F5F5F5F5F5F5F5F5F5F5F5F5F5F5F5F5F5F5F5F5F5F5F5F5F5F5F5F5F5F5F5F5F5F5F5F5F5F5F5F5F5F5F5F5F5F5F5F5F5E2E2E2F5F5F5F5F5F5F5F5F5F5F5F5F5F5F5F5F5E2F5F5F5F5F5F5F5F5F5E2F5E2E2E2E2E2F5F5F5F5F5F528F5E2E2F5F5F5F5F5F5F5F5F5F5F5F5F5F5F5F5F5F5F5
310
F5F5F5F5F5F5F5F5F5F5F5F5F5F5F5F5F5F5F5F5F5F5F5F5F5F5F5F5F5F5F5F5F5F5F5F5F5F5F5F5F5F5F5F5F5F5F5F5F5F5F5F5F5F5E2E2F5F5F5F528E2E2F5F5F5F5F5F5F5F5F5F5F5F5F5F5F5F5F5F5F5F5F5F5F5F5F5F5F5F5F5F5F5F5F5F5F5F5F5F5F5F5F5F5F5F5F5F5F5F5F5F5F5E2E2E2F5F5F5F5F5F5F5F5F5F5
310
F5F5F5F5F5F5F5E2F5F5F5F5F5F5F5F5F5E2F5E2E2E2E2E2F5F5F5F5F5F528F5E2E2F5F5F5F5F5F5F5F5F5F5F5F5F5F5F5F5F5F5F5F5F5F5F5F5F5F5F5F5F5F5F5F5F5F5F5F5F5F5F5F5F5F5F5F5F5F5F5F5F5F5F5F5F5F5F5F5F5F5F5F5F5F5F5F5F5F5F5F5F5F5F5F5F5E2E2F5F5F5F528E2E2F5F5F5F5F5F5F5F5F5F5F5
310
F5F5F5F5F5F5F5F5F5F5F5F5F5F5F5F5F5F5F5F5F5F5F5F5F5F5F5F5F5F5F5F5F5F5F5F5F5F5F5F5E2E2E2F5F5F5F5F5F5F5F5F5F5F5F5F5F5F5F5F5E2F5F5F5F5F5F5F5F5F5E2F5E2E2E2E2E2F5F5F5F5F5F528F5E2E2F5F5F5F5F5F5F5F5F5F5F5F5F5F5F5F5F5F5F5F5F5F5F5F5F5F5F5F5F5F5F5F5F5F5F5F5F5F5F5F5
310
F5F5F5F5F5F5F5F5F5F5F5F5F5F5F5F5F5F5F5F5F5F5F5F5F5F5F5F5F5F5F5F5F5E2E2F5F5F5F528E2E2F5F5F5F5F5F5F5F5F5F5F5F5F5F5F5F5F5F5F5F5F5F5F5F5F5F5F5F5F5F5F5F5F5F5F5F5F5F5F5F5F5F5F5F5F5F5F5F5F5F5F5E2E2E2F5F5F5F5F5F5F5F5F5F5F5F5F5F5F5F5F5E2F5F5F5F5F5F5F5F5F5E2F5E2E2
310
E2E2F5F5F5F5F5F5F528F5E2E2F5F5F5F5F5F5F5F5F5F5F5F5F5F5F5F5F5F5F5F5F5F5F5F5F5F5F5F5F5F5F5F5F5F5F5F5F5F5F5F5F5F5F5F5F5F5F5F5F5F5F5F5F5F5F5F5F5F5F5F5F5F5F5F5F5F5F5F5F5F5F5F5F5E2E2F5F5F5F528E2E2F5F5F5F5F5F5F5F5F5F5F5F5F5F5F5F5F5F5F5F5F5F5F5F5F5F5F5F5F5F5F5F5
310
F5F5F5F5F5F5F5F5F5F5F5F5F5F5F5F5F5F5F5E2E2E2F5F5F5F5F5F5F5F5F5F5F5F5F5F5F5F5F5E2F5F5F5F5F5F5F5F5F5F5F5E2E2E2E2F5F5F5F5F5F5F528F5E2E2F5F5F5F5F5F5F5F5F5F5F5F5F5F5F5F5F5F5F5F5F5F5F5F5F5F5F5F5F5F5F5F5F5F5F5F5F5F5F5F5F5F5F5F5F5F5F5F5F5F5F5F5F5F5F5F5F5F5F5F5F5
310
F5F5F5F5F5F5F5F5F5F5F5F5E2E2F5F5F5F528E2E2F5F5F5F5F5F5F5F5F5F5F5F5F5F5F5F5F5F5F5F5F5F5F5F5F5F5F5F5F5F5F5F5F5F5F5F5F5F5F5F5F5F5F5F5F5F5F5F5F5F5F5E2E2E2F5F5F5F5F5F5F5F5F5F5F5F5F5F5F5F5F5E2F5F5F5F5F5F5F5F5F5F5F5E2E2E2E2F5F5F5F5F5F5F528F5E2E2F5F5F5F5F5F5F5F5
310
F5F5F5F5F5F5F5F5F5F5F5F5F5F5F5F5F5F5F5F5F5F5F5F5F5F5F5F5F5F5F5F5F5F5F5F5F5F5F5F5F5F5F5F5F5F5F5F5F5F5F5F5F5F5F5F5F5F5F5F5F5F5F5F5F5E2E2F5F5F5F528E2E2F5F5F5F5F5F5F5F5F5F5F5F5F5F5F5F5F5F5F5F5F5F5F5F5F5F5F5F5F5F5F5F5F5F5F5F5F5F5F5F5F5F5F5F5F5F5F5F5F5F5F5E2E2
310
E2F5F5F5F5F5F5F5F5F5F5F5F5F5F5F5F5F5E2F5F5F5F5F5F5F5F5F5F5F5E2E2E2E2F5F5F5F5F5F5F528F5E2E2F5F5F5F5F5F5F5F5F5F5F5F5F5F5F5F5F5F5F5F5F5F5F5F5F5F5F5F5F5F5F5F5F5F5F5F5F5F5F5F5F5F5F5F5F5F5F5F5F5F5F5F5F5F5F5F5F5F5F5F5F5F5F5F5F5F5F5F5F5F5F5F5F5E2E2F5F5F5F528E2E2
310
F5F5F5F5F5F5F5F5F5F5F5F5F5F5F5F5F5F5F5F5F5F5F5F5F5F5F5F5F5F5F5F5F5F5F5F5F5F5F5F5F5F5F5F5F5F5F5F5F5F5F5E2E2E2F5F5F5F5F5F5F5F5F5F5F5F5F5F5F5F5F5E2F5F5F5F5F5F5F5F5F5F5F5E2E2E2E2F5F5F5F5F5F5F528F5E2E2F5F5F5F5F5F5F5F5F5F5F5F5F5F5F5F5F5F5F5F5F5F5F5F5F5F5F5F5F5
310
F5F5F5F5F5F5F5F5F5F5F5F5F5F5F5F5F5F5F5F5F5F5F5F5F5F5F5F5F5F5F5F5F5F5F5F5F5F5F5F5F5F5F5F5E2E2F5F5F5F528E2E2F5F5F5F5F5F5F5F5F5F5F5F5F5F5F5F5F5F5F5F5F5F5F5F5F5F5F5F5F5F5F5F5F5F5F5F5F5F5F5F5F5F5F5F5F5F5F5F5F5F5F5E2E2E2F5F5F5F5F5F5F5F5F5F5F5F5F5F5F5F5F5E2F5F5
310
F5F5F5F5F5F5F5F5F5E2E2E2E2F5F5F5F5F5F5F528F5E2E2F5F5F5F5F5F5F5F5F5F5F5F5F5F5F5F5F5F5F5F5F5F5F5F5F5F5F5F5F5F5F5F5F5F5F5F5F5F5F5F5F5F5F5F5F5F5F5F5F5F5F5F5F5F5F5F5F5F5F5F5F5F5F5F5F5F5F5F5F5F5F5F5F5E2E2F5F5F5F528E2E2F5F5F5F5F5F5F5F5F5F5F5F5F5F5F5F5F5F5F5F5F5
310
F5F5F5F5F5F5F5F5F5F5F5F5F5F5F5F5F5F5F5F5F5F5F5F5F5F5F5F5F5F5E2E2E2F5F5F5F5F5F5F5F5F5F5F5F5F5F5F5F5F5E2F5F5F5F5F5F5F5F5F5F5F5E2E2E2E2F5F5F5F5F5F5F528F5E2E2F5F5F5F5F5F5F5F5F5F5F5F5F5F5F5F5F5F5F5F5F5F5F5F5F5F5F5F5F5F5F5F5F5F5F5F5F5F5F5F5F5F5F5F5F5F5F5F5F5F5
310
F5F5F5F5F5F5F5F5F5F5F5F5F5F5F5F5F5F5F5F5F5F5F5E2E2F5F5F5F528E2E2F5F5F5F5F5F5F5F5F5F5F5F5F5F5F5F5F5F5F5F5F5F5F5F5F5F5F5F5F5F5F5F5F5F5F5F5F5F5F5F5F5F5F5F5F5F5F5F5F5F5F5E2E2E2F5F5F5F5F5F5F5F5F5F5F5F5F5F5F5F5F5E2F5F5F5F5F5F5F5F5F5F5F5E2E2E2E2F5F5F5F5F5F5F528
310
F5E2E2F5F5F5F5F5F5F5F5F5F5F5F5F5F5F5F5F5F5F5F5F5F5F5F5F5F5F5F5F5F5F5F5F5F5F5F5F5F5F5F5F5F5F5F5F5F5F5F5F5F5F5F5F5F5F5F5F5F5F5F5F5F5F5F5F5F5F5F5F5F5F5F5F5E2E2F5F5F5F528E2E2F5F5F5F5F5F5F5F5F5F5F5F5F5F5F5F5F5F5F5F5F5F5F5F5F5F5F5F5F5F5F5F5F5F5F5F5F5F5F5F5F5F5
310
F5F5F5F5F5F5F5F5F5E2E2E2F5F5F5F5F5F5F5F5F5F5F5F5F5F5F5F5F5E2F5F5F5F5F5F5F5F5F5F5F5E2E2E2E2F5F5F5F5F5F5F528F5E2E2F5F5F5F5F5F5F5F5F5F5F5F5F5F5F5F5F5F5F5F5F5F5F5F5F5F5F5F5F5F5F5F5F5F5F5F5F5F5F5F5F5F5F5F5F5F5F5F5F5F5F5F5F5F5F5F5F5F5F5F5F5F5F5F5F5F5F5F5F5F5F5
310
F5F5E2E2F5F5F5F528E2E2F5F5F5F5F5F5F5F5F5F5F5F5F5F5F5F5F5F5F5F5F5F5F5F5F5F5F5F5F5F5F5F5F5F5F5F5F5F5F5F5F5F5F5F5F5F5F5F5F5F5F5E2E2E2F5F5F5F5F5F5F5F5F5F5F5F5F5F5F5F5F5E2F5F5F5F5F5F5F5F5F5F5F5E2E2E2E2E2F5F5F5F5F5F528F5E2E2F5F5F5F5F5F5F5F5F5F5F5F5F5F5F5F5F5F5
310
F5F5F5F5F5F5F5F5F5F5F5F5F5F5F5F5F5F5F5F5F5F5F5F5F5F5F5F5F5F5F5F5F5F5F5F5F5F5F5F5F5F5F5F5F5F5F5F5F5F5F5F5F5F5F5E2E2F5F5F5F528E2E2F5F5F5F5F5F5F5F5F5F5F5F5F5F5F5F5F5F5F5F5F5F5F5F5F5F5F5F5F5F5F5F5F5F5F5F5F5F5F5F5F5F5F5F5F5F5F5F5F5F5F5E2E2E2F5F5F5F5F5F5F5F5F5
310
F5F5F5F5F5F5F5F5E2F5F5F5F5F5F5F5F5F5E2F5E2E2E2E2E2F5F5F5F5F5F528F5E2E2F5F5F5F5F5F5F5F5F5F5F5F5F5F5F5F5F5F5F5F5F5F5F5F5F5F5F5F5F5F5F5F5F5F5F5F5F5F5F5F5F5F5F5F5F5F5F5F5F5F5F5F5F5F5F5F5F5F5F5F5F5F5F5F5F5F5F5F5F5F5F5F5F5E2E2F5F5F5F528E2E2F5F5F5F5F5F5F5F5F5F5
310
F5F5F5F5F5F5F5F5F5F5F5F5F5F5F5F5F5F5F5F5F5F5F5F5F5F5F5F5F5F5F5F5F5F5F5F5F5F5F5F5F5E2E2E2F5F5F5F5F5F5F5F5F5F5F5F5F5F5F5F5F5E2F5F5F5F5F5F5F5F5F5E2F5E2E2E2E2E2F5F5F5F5F5F528F5E2E2F5F5F5F5F5F5F5F5F5F5F5F5F5F5F5F5F5F5F5F5F5F5F5F5F5F5F5F5F5F5F5F5F5F5F5F5F5F5F5
310
F5F5F5F5F5F5F5F5F5F5F5F5F5F5F5F5F5F5F5F5F5F5F5F5F5F5F5F5F5F5F5F5F5F5E2E2F5F5F5F528E2E2F5F5F5F5F5F5F5F5F5F5F5F5F5F5F5F5F5F5F5F5F5F5F5F5F5F5F5F5F5F5F5F5F5F5F5F5F5F5F5F5F5F5F5F5F5F5F5F5F5F5F5E2E2E2F5F5F5F5F5F5F5F5F5F5F5F5F5F5F5F5F5E2F5F5F5F5F5F5F5F5F5E2F5E2
310
E2E2E2E2F5F5F5F5F5F528F5E2E2F5F5F5F5F5F5F5F5F5F5F5F5F5F5F5F5F5F5F5F5F5F5F5F5F5F5F5F5F5F5F5F5F5F5F5F5F5F5F5F5F5F5F5F5F5F5F5F5F5F5F5F5F5F5F5F5F5F5F5F5F5F5F5F5F5F5F5F5F5F5F5F5F5E2E2F5F5F5F528E2E2F5F5F5F5F5F5F5F5F5F5F5F5F5F5F5F5F5F5F5F5F5F5F5F5F5F5F5F5F5F5F5
310
F5F5F5F5F5F5F5F5F5F5F5F5F5F5F5F5F5F5F5F5E2E2E2F5F5F5F5F5F5F5F5F5F5F5F5F5F5F5F5F5E2F5F5F5F5F5F5F5F5F5E2F5E2E2E2E2E2F5F5F5F5F5F528F5E2E2F5F5F5F5F5F5F5F5F5F5F5F5F5F5F5F5F5F5F5F5F5F5F5F5F5F5F5F5F5F5F5F5F5F5F5F5F5F5F5F5F5F5F5F5F5F5F5F5F5F5F5F5F5F5F5F5F5F5F5F5
310
F5F5F5F5F5F5F5F5F5F5F5F5F5E2E2F5F5F5F528E2E2F5F5F5F5F5F5F5F5F5F5F5F5F5F5F5F5F5F5F5F5F5F5F5F5F5F5F5F5F5F5F5F5F5F5F5F5F5F5F5F5F5F5F5F5F5F5F5F5F5F5F5E2E2E2F5F5F5F5F5F5F5F5F5F5F5F5F5F5F5F5F5E2F5F5F5F5F5F5F5F5F5E2F5E2E2E2E2E2F5F5F5F5F5F528F5E2E2F5F5F5F5F5F5F5
310
F5F5F5F5F5F5F5F5F5F5F5F5F5F5F5F5F5F5F5F5F5F5F5F5F5F5F5F5F5F5F5F5F5F5F5F5F5F5F5F5F5F5F5F5F5F5F5F5F5F5F5F5F5F5F5F5F5F5F5F5F5F5F5F5F5F5E2E2F5F5F5F528E2E2F5F5F5F5F5F5F5F5F5F5F5F5F5F5F5F5F5F5F5F5F5F5F5F5F5F5F5F5F5F5F5F5F5F5F5F5F5F5F5F5F5F5F5F5F5F5F5F5F5F5F5E2
310
E2E2F5F5F5F5F5F5F5F5F5F5F5F5F5F5F5F5F5E2F5F5F5F5F5F5F5F5F5E2F5E2E2E2E2E2F5F5F5F5F5F528F5E2E2F5F5F5F5F5F5F5F5F5F5F5F5F5F5F5F5F5F5F5F5F5F5F5F5F5F5F5F5F5F5F5F5F5F5F5F5F5F5F5F5F5F5F5F5F5F5F5F5F5F5F5F5F5F5F5F5F5F5F5F5F5F5F5F5F5F5F5F5F5F5F5F5F5E2E2F5F5F5F528E2
310
E2F5F5F5F5F5F5F5F5F5F5F5F5F5F5F5F5F5F5F5F5F5F5F5F5F5F5F5F5F5F5F5F5F5F5F5F5F5F5F5F5F5F5F5F5F5F5F5F5F5F5F5E2E2E2F5F5F5F5F5F5F5F5F5F5F5F5F5F5F5F5F5E2F5F5F5F5F5F5F5F5F5E2F5E2E2E2E2E2F5F5F5F5F5F528F5E2E2F5F5F5F5F5F5F5F5F5F5F5F5F5F5F5F5F5F5F5F5F5F5F5F5F5F5F5F5
310
F5F5F5F5F5F5F5F5F5F5F5F5F5F5F5F5F5F5F5F5F5F5F5F5F5F5F5F5F5F5F5F5F5F5F5F5F5F5F5F5F5F5F5F5F5E2E2F5F5F5F528E2E2F5F5F5F5F5F5F5F5F5F5F5F5F5F5F5F5F5F5F5F5F5F5F5F5F5F5F5F5F5F5F5F5F5F5F5F5F5F5F5F5F5F5F5F5F5F5F5F5F5F5F5E2E2E2F5F5F5F5F5F5F5F5F5F5F5F5F5F5F5F5F5E2F5
310
F5F5F5F5F5F5F5F5E2F5E2E2E2E2E2F5F5F5F5F5F528F5E2E2F5F5F5F5F5F5F5F5F5F5F5F5F5F5F5F5F5F5F5F5F5F5F5F5F5F5F5F5F5F5F5F5F5F5F5F5F5F5F5F5F5F5F5F5F5F5F5F5F5F5F5F5F5F5F5F5F5F5F5F5F5F5F5F5F5F5F5F5F5F5F5F5F5E2E2F5F5F5F528E2E2F5F5F5F5F5F5F5F5F5F5F5F5F5F5F5F5F5F5F5F5
310
F5F5F5F5F5F5F5F5F5F5F5F5F5F5F5F5F5F5F5F5F5F5F5F5F5F5F5F5F5F5F5E2E2E2F5F5F5F5F5F5F5F5F5F5F5F5F5F5F5F5F5E2F5F5F5F5F5F5F5F5F5E2F5E2E2E2E2E2F5F5F5F5F5F528F5E2E2F5F5F5F5F5F5F5F5F5F5F5F5F5F5F5F5F5F5F5F5F5F5F5F5F5F5F5F5F5F5F5F5F5F5F5F5F5F5F5F5F5F5F5F5F5F5F5F5F5
310
F5F5F5F5F5F5F5F5F5F5F5F5F5F5F5F5F5F5F5F5F5F5F5F5E2E2F5F5F5F528E2E2F5F5F5F5F5F5F5F5F5F5F5F5F5F5F5F5F5F5F5F5F5F5F5F5F5F5F5F5F5F5F5F5F5F5F5F5F5F5F5F5F5F5F5F5F5F5F5F5F5F5F5E2E2E2F5F5F5F5F5F5F5F5F5F5F5F5F5F5F5F5F5E2F5F5F5F5F5F5F5F5F5E2F5E2E2E2E2E2F5F5F5F5F5F5
310
28F5E2E2F5F5F5F5F5F5F5F5F5F5F5F5F5F5F5F5F5F5F5F5F5F5F5F5F5F5F5F5F5F5F5F5F5F5F5F5F5F5F5F5F5F5F5F5F5F5F5F5F5F5F5F5F5F5F5F5F5F5F5F5F5F5F5F5F5F5F5F5F5F5F5F5F5E2E2F5F5F5F528E2E2F5F5F5F5F5F5F5F5F5F5F5F5F5F5F5F5F5F5F5F5F5F5F5F5F5F5F5F5F5F5F5F5F5F5F5F5F5F5F5F5F5
310
F5F5F5F5F5F5F5F5F5F5E2E2E2F5F5F5F5F5F5F5F5F5F5F5F5F5F5F5F5F5E2F5F5F5F5F5F5F5F5F5E2F5E2E2E2E2E2F5F5F5F5F5F528F5E2E2F5F5F5F5F5F5F5F5F5F5F5F5F5F5F5F5F5F5F5F5F5F5F5F5F5F5F5F5F5F5F5F5F5F5F5F5F5F5F5F5F5F5F5F5F5F5F5F5F5F5F5F5F5F5F5F5F5F5F5F5F5F5F5F5F5F5F5F5F5F5
310
F5F5F5E2E2F5F5F5F528E2E2F5F5F5F5F5F5F5F5F5F5F5F5F5F5F5F5F5F5F5F5F5F5F5F5F5F5F5F5F5F5F5F5F5F5F5F5F5F5F5F5F5F5F5F5F5F5F5F5F5F5F5E2E2E2F5F5F5F5F5F5F5F5F5F5F5F5F5F5F5F5F5E2F5F5F5F5F5F5F5F5F5E2F5E2E2E2E2E2F5F5F5F5F5F528F5E2E2F5F5F5F5F5F5F5F5F5F5F5F5F5F5F5F5F5
310
F5F5F5F5F5F5F5F5F5F5F5F5F5F5F5F5F5F5F5F5F5F5F5F5F5F5F5F5F5F5F5F5F5F5F5F5F5F5F5F5F5F5F5F5F5F5F5F5F5F5F5F5F5F5F5F5E2E2F5F5F5F528E2E2F5F5F5F5F5F5F5F5F5F5F5F5F5F5F5F5F5F5F5F5F5F5F5F5F5F5F5F5F5F5F5F5F5F5F5F5F5F5F5F5F5F5F5F5F5F5F5F5F5F5F5E2E2E2F5F5F5F5F5F5F5F5
310
F5F5F5F5F5F5F5F5F5E2F5F5F5F5F5F5F5F5F5E2F5E2E2E2E2E2F5F5F5F5F5F528F5E2E2F5F5F5F5F5F5F5F5F5F5F5F5F5F5F5F5F5F5F5F5F5F5F5F5F5F5F5F5F5F5F5F5F5F5F5F5F5F5F5F5F5F5F5F5F5F5F5F5F5F5F5F5F5F5F5F5F5F5F5F5F5F5F5F5F5F5F5F5F5F5F5F5F5E2E2F5F5F5F528E2E2F5F5F5F5F5F5F5F5F5
310
F5F5F5F5F5F5F5F5F5F5F5F5F5F5F5F5F5F5F5F5F5F5F5F5F5F5F5F5F5F5F5F5F5F5F5F5F5F5F5F5F5F5E2E2E2F5F5F5F5F5F5F5F5F5F5F5F5F5F5F5F5F5E2F5F5F5F5F5F5F5F5F5E2F5E2E2E2E2E2F5F5F5F5F5F528F5E2E2F5F5F5F5F5F5F5F5F5F5F5F5F5F5F5F5F5F5F5F5F5F5F5F5F5F5F5F5F5F5F5F5F5F5F5F5F5F5
310
F5F5F5F5F5F5F5F5F5F5F5F5F5F5F5F5F5F5F5F5F5F5F5F5F5F5F5F5F5F5F5F5F5F5F5E2E2F5F5F5F528E2E2F5F5F5F5F5F5F5F5F5F5F5F5F5F5F5F5F5F5F5F5F5F5F5F5F5F5F5F5F5F5F5F5F5F5F5F5F5F5F5F5F5F5F5F5F5F5F5F5F5F5F5E2E2E2F5F5F5F5F5F5F5F5F5F5F5F5F5F5F5F5F5E2F5F5F5F5F5F5F5F5F5E2F5
310
E2E2E2E2E2F5F5F5F5F5F528F5E2E2F5F5F5F5F5F5F5F5F5F5F5F5F5F5F5F5F5F5F5F5F5F5F5F5F5F5F5F5F5F5F5F5F5F5F5F5F5F5F5F5F5F5F5F5F5F5F5F5F5F5F5F5F5F5F5F5F5F5F5F5F5F5F5F5F5F5F5F5F5F5F5F5F5E2E2F5F5F5F528E2E2F5F5F5F5F5F5F5F5F5F5F5F5F5F5F5F5F5F5F5F5F5F5F5F5F5F5F5F5F5F5
310
F5F5F5F5F5F5F5F5F5F5F5F5F5F5F5F5F5F5F5F5F5E2E2E2F5F5F5F5F5F5F5F5F5F5F5F5F5F5F5F5F5E2F5F5F5F5F5F5F5F5F5E2F5E2E2E2E2F5F5F5F5F5F5F528F5E2E2F5F5F5F5F5F5F5F5F5F5F5F5F5F5F5F5F5F5F5F5F5F5F5F5F5F5F5F5F5F5F5F5F5F5F5F5F5F5F5F5F5F5F5F5F5F5F5F5F5F5F5F5F5F5F5F5F5F5F5
310
F5F5F5F5F5F5F5F5F5F5F5F5F5F5E2E2F5F5F5F528E2E2F5F5F5F5F5F5F5F5F5F5F5F5F5F5F5F5F5F5F5F5F5F5F5F5F5F5F5F5F5F5F5F5F5F5F5F5F5F5F5F5F5F5F5F5F5F5F5F5F5F5F5E2E2E2F5F5F5F5F5F5F5F5F5F5F5F5F5F5F5F5F5E2F5F5F5F5F5F5F5F5F5F5F5E2E2E2E2F5F5F5F5F5F5F528F5E2E2F5F5F5F5F5F5
310
F5F5F5F5F5F5F5F5F5F5F5F5F5F5F5F5F5F5F5F5F5F5F5F5F5F5F5F5F5F5F5F5F5F5F5F5F5F5F5F5F5F5F5F5F5F5F5F5F5F5F5F5F5F5F5F5F5F5F5F5F5F5F5F5F5F5F5E2E2F5F5F5F528E2E2F5F5F5F5F5F5F5F5F5F5F5F5F5F5F5F5F5F5F5F5F5F5F5F5F5F5F5F5F5F5F5F5F5F5F5F5F5F5F5F5F5F5F5F5F5F5F5F5F5F5F5
310
E2E2E2F5F5F5F5F5F5F5F5F5F5F5F5F5F5F5F5F5E2F5F5F5F5F5F5F5F5F5F5F5E2E2E2E2F5F5F5F5F5F5F528F5E2E2F5F5F5F5F5F5F5F5F5F5F5F5F5F5F5F5F5F5F5F5F5F5F5F5F5F5F5F5F5F5F5F5F5F5F5F5F5F5F5F5F5F5F5F5F5F5F5F5F5F5F5F5F5F5F5F5F5F5F5F5F5F5F5F5F5F5F5F5F5F5F5F5F5E2E2F5F5F5F528
310
E2E2F5F5F5F5F5F5F5F5F5F5F5F5F5F5F5F5F5F5F5F5F5F5F5F5F5F5F5F5F5F5F5F5F5F5F5F5F5F5F5F5F5F5F5F5F5F5F5F5F5F5F5E2E2E2F5F5F5F5F5F5F5F5F5F5F5F5F5F5F5F5F5E2F5F5F5F5F5F5F5F5F5F5F5E2E2E2E2F5F5F5F5F5F5F528F5E2E2F5F5F5F5F5F5F5F5F5F5F5F5F5F5F5F5F5F5F5F5F5F5F5F5F5F5F5
310
F5F5F5F5F5F5F5F5F5F5F5F5F5F5F5F5F5F5F5F5F5F5F5F5F5F5F5F5F5F5F5F5F5F5F5F5F5F5F5F5F5F5F5F5F5F5E2E2F5F5F5F528E2E2F5F5F5F5F5F5F5F5F5F5F5F5F5F5F5F5F5F5F5F5F5F5F5F5F5F5F5F5F5F5F5F5F5F5F5F5F5F5F5F5F5F5F5F5F5F5F5F5F5F5F5E2E2E2F5F5F5F5F5F5F5F5F5F5F5F5F5F5F5F5F5E2
310
F5F5F5F5F5F5F5F5F5F5F5E2E2E2E2F5F5F5F5F5F5F528F5E2E2F5F5F5F5F5F5F5F5F5F5F5F5F5F5F5F5F5F5F5F5F5F5F5F5F5F5F5F5F5F5F5F5F5F5F5F5F5F5F5F5F5F5F5F5F5F5F5F5F5F5F5F5F5F5F5F5F5F5F5F5F5F5F5F5F5F5F5F5F5F5F5F5F5E2E2F5F5F5F528E2E2F5F5F5F5F5F5F5F5F5F5F5F5F5F5F5F5F5F5F5
310
F5F5F5F5F5F5F5F5F5F5F5F5F5F5F5F5F5F5F5F5F5F5F5F5F5F5F5F5F5F5F5F5E2E2E2F5F5F5F5F5F5F5F5F5F5F5F5F5F5F5F5F5E2F5F5F5F5F5F5F5F5F5F5F5E2E2E2E2F5F5F5F5F5F5F528F5E2E2F5F5F5F5F5F5F5F5F5F5F5F5F5F5F5F5F5F5F5F5F5F5F5F5F5F5F5F5F5F5F5F5F5F5F5F5F5F5F5F5F5F5F5F5F5F5F5F5
310
F5F5F5F5F5F5F5F5F5F5F5F5F5F5F5F5F5F5F5F5F5F5F5F5F5E2E2F5F5F5F528E2E2E2E2E2E2E2E2E2E2E2E2E2E2E2E2E2E2E2E2E2E2E2E2E2E2E2E2E2E2E2E2E2E2E2E2E2E2E2E2E2E2E2E2E2E2E2E2E2E2E2E2E2E2E2E2F5F5F5F5F5F5F5F5F5F5F5F5F5F5F5F5F5E2F5F5F5F5F5F5F5F5F5F5F5E2E2E2E2F5F5F5F5F5F5
310
F528F5E2E2F5F5F5F5F5F5F5F5F5F5F5F5F5F5F5F5F5F5F5F5F5F5F5F5F5F5F5F5F5F5F5F5F5F5F5F5F5F5F5F5F5F5F5F5F5F5F5F5F5F5F5F5F5F5F5F5F5F5F5F5F5F5F5F5F5F5F5F5F5F5F5F5F5E2E2F5F5F5F528E2E2E2E2E2E2E2E2E2E2E2E2E2E2E2E2E2E2E2E2E2E2E2E2E2E2E2E2E2E2E2E2E2E2E2E2E2E2E2E2E2E2
310
E2E2E2E2E2E2E2E2E2E2E2E2E228F5F5F5F5F5F5F5F5F5F5F5F5F5F5F5F5F5E2F5F5F5F5F5F5F5F5F5F5F5E2E2E2E2F5F5F5F5F5F5F528F5E2E2F5F5F5F5F5F5F5F5F5F5F5F5F5F5F5F5F5F5F5F5F5F5F5F5F5F5F5F5F5F5F5F5F5F5F5F5F5F5F5F5F5F5F5F5F5F5F5F5F5F5F5F5F5F5F5F5F5F5F5F5F5F5F5F5F5F5F5F5F5
310
F5F5F5F5E2E2F5F5F5F5F5F5F5F5F5F5F5F5F5F5F5F5F5F5F5F5F5F5F5F5F5F5F5F5F5F5F5F5F5F5F5F5F5F5F5F5F5F5F5F5F5F5F5F5F5F5F5F5F5F5F5F5F5F5F5F5F5F5F5F5F5F5F5F5F5F5F5F5F5F5F5F5F5F5E2F5F5F5F5F5F5F5F5F5F5F5E2E2E2E2E2F5F5F5F5F5F528F5E2E2F5F5F5F5F5F5F5F5F5F5F5F5F5F5F5F5
310
F5F5F5F5F5F5F5F5F5F5F5F5F5F5F5F5F5F5F5F5F5F5F5F5F5F5F5F5F5F5F5F5F5F5F5F5F5F5F5F5F5F5F5F5F5F5F5F5F5F5F5F5F5F5F5F5F5E2E2F5F5F5F5F5F5F5F5F5F5F5F5F5F5F5F5F5F5F5F5F5F5F5F5F5F5F5F5F5F5F5F5F5F5F5F5F5F5F5F5F5F5F5F5F5F5F5F5F5F5F5F5F5F5F5F5F5F5F5F5F5F5F5F5F5F5F5F5
310
F5F5F5F5F5F5F5F5F5F5E2F5F5F5F5F5F5F5F5F5E2F5E2E2E2E2E2F5F5F5F5F5F528F5E2E2F5F5F5F5F5F5F5F5F5F5F5F5F5F5F5F5F5F5F5F5F5F5F5F5F5F5F5F5F5F5F5F5F5F5F5F5F5F5F5F5F5F5F5F5F5F5F5F5F5F5F5F5F5F5F5F5F5F5F5F5F5F5F5F5F5F5F5F5F5F5F5F5F5E2E2F5F5F5F5F5F5F5F5F5F5F5F5F5F5F5
310
F5F5F5F5F5F5F5F5F5F5F5F5F5F5F5F5F5F5F5F5F5F5F5F5F5F5F5F5F5F5F5F5F5F5F5F5F5F5F5F5F5F5F5F5F5F5F5F5F5F5F5F5F5F5F5F5F5F5F5F5F5F5F5E2F5F5F5F5F5F5F5F5F5E2F5E2E2E2E2E2F5F5F5F5F5F528F5E2E2F5F5F5F5F5F5F5F5F5F5F5F5F5F5F5F5F5F5F5F5F5F5F5F5F5F5F5F5F5F5F5F5F5F5F5F5F5
310
F5F5F5F5F5F5F5F5F5F5F5F5F5F5F5F5F5F5F5F5F5F5F5F5F5F5F5F5F5F5F5F5F5F5F5F5E2E2F5F5F5F5F5F5F5F5F5F5F5F5F5F5F5F5F5F5F5F5F5F5F5F5F5F5F5F5F5F5F5F5F5F5F5F5F5F5F5F5F5F5F5F5F5F5F5F5F5F5F5F5F5F5F5F5F5F5F5F5F5F5F5F5F5F5F5F5F5F5F5F5F5F5F5F5F5F5E2F5F5F5F5F5F5F5F5F5E2
310
F5E2E2E2E2E2F5F5F5F5F5F528F5E2E2F5F5F5F5F5F5F5F5F5F5F5F5F5F5F5F5F5F5F5F5F5F5F5F5F5F5F5F5F5F5F5F5F5F5F5F5F5F5F5F5F5F5F5F5F5F5F5F5F5F5F5F5F5F5F5F5F5F5F5F5F5F5F5F5F5F5F5F5F5F5F5F5F5E2E2F5F5F5F5F5F5F5F5F5F5F5F5F5F5F5F5F5F5F5F5F5F5F5F5F5F5F5F5F5F5F5F5F5F5F5F5
310
F5F5F5F5F5F5F5F5F5F5F5F5F5F5F5F5F5F5F5F5F5F5F5F5F5F5F5F5F5F5F5F5F5F5F5F5F5F5F5F5F5F5E2F5F5F5F5F5F5F5F5F5E2F5E2E2E2E2E2F5F5F5F5F5F528F5E2E2F5F5F5F5F5F5F5F5F5F5F5F5F5F5F5F5F5F5F5F5F5F5F5F5F5F5F5F5F5F5F5F5F5F5F5F5F5F5F5F5F5F5F5F5F5F5F5F5F5F5F5F5F5F5F5F5F5F5
310
F5F5F5F5F5F5F5F5F5F5F5F5F5F5F5E2E2F5F5F5F5F5F5F5F5F5F5F5F5F5F5F5F5F5F5F5F5F5F5F5F5F5F5F5F5F5F5F5F5F5F5F5F5F5F5F5F5F5F5F5F5F5F5F5F5F5F5F5F5F5F5F5F5F5F5F5F5F5F5F5F5F5F5F5F5F5F5F5F5F5F5F5F5F5F5E2F5F5F5F5F5F5F5F5F5E2F5E2E2E2E2E2F5F5F5F5F5F528F5E2E2F5F5F5F5F5
310
F5F5F5F5F5F5F5F5F5F5F5F5F5F5F5F5F5F5F5F5F5F5F5F5F5F5F5F5F5F5F5F5F5F5F5F5F5F5F5F5F5F5F5F5F5F5F5F5F5F5F5F5F5F5F5F5F5F5F5F5F5F5F5F5F5F5F5F5E2E2F5F5F5F5F5F5F5F5F5F5F5F5F5F5F5F5F5F5F5F5F5F5F5F5F5F5F5F5F5F5F5F5F5F5F5F5F5F5F5F5F5F5F5F5F5F5F5F5F5F5F5F5F5F5F5F5F5
310
F5F5F5F5F5F5F5F5F5F5F5F5F5F5F5F5F5F5F5F5F5E2F5F5F5F5F5F5F5F5F5E2F5E2E2E2E2E2F5F5F5F5F5F528F5E2E2F5F5F5F5F5F5F5F5F5F5F5F5F5F5F5F5F5F5F5F5F5F5F5F5F5F5F5F5F5F5F5F5F5F5F5F5F5F5F5F5F5F5F5F5F5F5F5F5F5F5F5F5F5F5F5F5F5F5F5F5F5F5F5F5F5F5F5F5F5F5F5F5F5E2E2F5F5F5F5
310
F5F5F5F5F5F5F5F5F5F5F5F5F5F5F5F5F5F5F5F5F5F5F5F5F5F5F5F5F5F5F5F5F5F5F5F5F5F5F5F5F5F5F5F5F5F5F5F5F5F5F5F5F5F5F5F5F5F5F5F5F5F5F5F5F5F5F5F5F5F5F5F5F5F5E2F5F5F5F5F5F5F5F5F5E2F5E2E2E2E2E2F5F5F5F5F5F528F5E2E2F5F5F5F5F5F5F5F5F5F5F5F5F5F5F5F5F5F5F5F5F5F5F5F5F5F5
310
F5F5F5F5F5F5F5F5F5F5F5F5F5F5F5F5F5F5F5F5F5F5F5F5F5F5F5F5F5F5F5F5F5F5F5F5F5F5F5F5F5F5F5F5F5F5F5E2E2F5F5F5F5F5F5F5F5F5F5F5F5F5F5F5F5F5F5F5F5F5F5F5F5F5F5F5F5F5F5F5F5F5F5F5F5F5F5F5F5F5F5F5F5F5F5F5F5F5F5F5F5F5F5F5F5F5F5F5F5F5F5F5F5F5F5F5F5F5F5F5F5F5F5F5F5F5F5
310
E2F5F5F5F5F5F5F5F5F5E2F5E2E2E2E2E2F5F5F5F5F5F528F5E2E2F5F5F5F5F5F5F5F5F5F5F5F5F5F5F5F5F5F5F5F5F5F5F5F5F5F5F5F5F5F5F5F5F5F5F5F5F5F5F5F5F5F5F5F5F5F5F5F5F5F5F5F5F5F5F5F5F5F5F5F5F5F5F5F5F5F5F5F5F5F5F5F5F5E2E2F5F5F5F5F5F5F5F5F5F5F5F5F5F5F5F5F5F5F5F5F5F5F5F5F5
310
F5F5F5F5F5F5F5F5F5F5F5F5F5F5F5F5F5F5F5F5F5F5F5F5F5F5F5F5F5F5F5F5F5F5F5F5F5F5F5F5F5F5F5F5F5F5F5F5F5F5F5F5F5E2F5F5F5F5F5F5F5F5F5E2F5E2E2E2E2E2F5F5F5F5F5F528F5E2E2F5F5F5F5F5F5F5F5F5F5F5F5F5F5F5F5F5F5F5F5F5F5F5F5F5F5F5F5F5F5F5F5F5F5F5F5F5F5F5F5F5F5F5F5F5F5F5
310
F5F5F5F5F5F5F5F5F5F5F5F5F5F5F5F5F5F5F5F5F5F5F5F5F5F5E2E2F5F5F5F5F5F5F5F5F5F5F5F5F5F5F5F5F5F5F5F5F5F5F5F5F5F5F5F5F5F5F5F5F5F5F5F5F5F5F5F5F5F5F5F5F5F5F5F5F5F5F5F5F5F5F5F5F5F5F5F5F5F5F5F5F5F5F5F5F5F5F5F5F5F5F5F5F5F5E2F5F5F5F5F5F5F5F5F5E2F5E2E2E2E2E2F5F5F5F5
310
F5F528F5E2E2F5F5F5F5F5F5F5F5F5F5F5F5F5F5F5F5F5F5F5F5F5F5F5F5F5F5F5F5F5F5F5F5F5F5F5F5F5F5F5F5F5F5F5F5F5F5F5F5F5F5F5F5F5F5F5F5F5F5F5F5F5F5F5F5F5F5F5F5F5F5F5F5F5E2E2F5F5F5F5F5F5F5F5F5F5F5F5F5F5F5F5F5F5F5F5F5F5F5F5F5F5F5F5F5F5F5F5F5F5F5F5F5F5F5F5F5F5F5F5F5F5
310
F5F5F5F5F5F5F5F5F5F5F5F5F5F5F5F5F5F5F5F5F5F5F5F5F5F5F5F5F5F5F5F5E2F5F5F5F5F5F5F5F5F5E2F5E2E2E2E2E2F5F5F5F5F5F528F5E2E2F5F5F5F5F5F5F5F5F5F5F5F5F5F5F5F5F5F5F5F5F5F5F5F5F5F5F5F5F5F5F5F5F5F5F5F5F5F5F5F5F5F5F5F5F5F5F5F5F5F5F5F5F5F5F5F5F5F5F5F5F5F5F5F5F5F5F5F5
310
F5F5F5F5F5E2E2F5F5F5F5F5F5F5F5F5F5F5F5F5F5F5F5F5F5F5F5F5F5F5F5F5F5F5F5F5F5F5F5F5F5F5F5F5F5F5F5F5F5F5F5F5F5F5F5F5F5F5F5F5F5F5F5F5F5F5F5F5F5F5F5F5F5F5F5F5F5F5F5F5F5F5F5F5F5E2F5F5F5F5F5F5F5F5F5E2F5E2E2E2E2E2F5F5F5F5F5F528F5E2E2F5F5F5F5F5F5F5F5F5F5F5F5F5F5F5
310
F5F5F5F5F5F5F5F5F5F5F5F5F5F5F5F5F5F5F5F5F5F5F5F5F5F5F5F5F5F5F5F5F5F5F5F5F5F5F5F5F5F5F5F5F5F5F5F5F5F5F5F5F5F5F5F5F5F5E2E2F5F5F5F5F5F5F5F5F5F5F5F5F5F5F5F5F5F5F5F5F5F5F5F5F5F5F5F5F5F5F5F5F5F5F5F5F5F5F5F5F5F5F5F5F5F5F5F5F5F5F5F5F5F5F5F5F5F5F5F5F5F5F5F5F5F5F5
310
F5F5F5F5F5F5F5F5F5F5F5E2F5F5F5F5F5F5F5F5F5E2F5E2E2E2E2E2F5F5F5F5F5F528F5E2E2E2E2E2E2E2E2E2E2E2E2E2E2E2E2E2E2E2E2E2E2E2E2E2E2E2E2E2E2E2E2E2E2E2E2E2E2E2E2E2E2E2E2E2E2E2E2E2E2E2E2E2E2E2E2E2E2E2E2E2E2E2E2E2E2E2E2E2E2E2E2E2E2E2E2E2F5F5F5F5F5F5F5F5F5F5F5F5F5F5
310
F5F5F5F5F5F5F5F5F5F5F5F5F5F5F5F5F5F5F5F5F5F5F5F5F5F5F5F5F5F5F5F5F5F5F5F5F5F5F5F5F5F5F5F5F5F5F5F5F5F5F5F5F5F5F5F5F5F5F5F5F5F5F5F5E2F5F5F5F5F5F5F5F5F5E2F5E2E2E2E2E2F5F5F5F5F5F52828E2E2E2E2E2E2E2E2E2E2E2E2E2E2E2E2E2E2E2E2E2E2E2E2E2E2E2E2E2E2E2E2E2E2E2E2E2E2
310
E2E2E2E2E2E2E2E2E2E2E2E2E2E2E2E2E2E2E2E2E2E2E2E2E2E2E2E2E2E2E2E2E2E2E2E2E2E228F5F5F5F5F5F5F5F5F5F5F5F5F5F5F5F5F5F5F5F5F5F5F5F5F5F5F5F5F5F5F5F5F5F5F5F5F5F5F5F5F5F5F5F5F5F5F5F5F5F5F5F5F5F5F5F5F5F5F5F5F5F5F5F5F5F5F5F5F5F5F5F5F5F5F5F5F5F5E2F5F5F5F5F5F5F5F5F5
310
E2F5E2E2E2E2E2F5F5F5F5F5F5F5F5F5F5F5F5F5F5F5F5F5F5F5F5F5F5F5F5F5F5F5F5F5F5F5F5F5F5F5F5F5F5F5F5F5F5F5F5F5F5F5F5F5F5F5F5F5F5F5F5F5F5F5F5F5F5F5F5F5F5F5F5F5F5F5F5F5F5F5F5F5F5F5F5F5F5F5F5F5F5F5F5F5F5F5F5F5F5F5F5F5F5F5F5F5F5F5F5F5F5F5F5F5F5F5F5F5F5F5F5F5F5F5F5
310
F5F5F5F5F5F5F5F5F5F5F5F5F5F5F5F5F5F5F5F5F5F5F5F5F5F5F5F5F5F5F5F5F5F5F5F5F5F5F5F5F5F5F5E2F5F5F5F5F5F5F5F5F5E2F5E2E2E2E2F5F5F5F5F5F5F5F5F5F5F5F5F5F5F5F5F5F5F5F5F5F5F5F5F5F5F5F5F5F5F5F5F5F5F5F5F5F5F5F5F5F5F5F5F5F5F5F5F5F5F5F5F5F5F5F5F5F5F5F5F5F5F5F5F5F5F5F5
310
F5F5F5F5F5F5F5F5F5F5F5F5F5F5F5F5F5F5F5F5F5F5F5F5F5F5F5F5F5F5F5F5F5F5F5F5F5F5F5F5F5F5F5F5F5F5F5F5F5F5F5F5F5F5F5F5F5F5F5F5F5F5F5F5F5F5F5F5F5F5F5F5F5F5F5F5F5F5F5F5F5F5F5F5F5F5F5F5F5F5F5F5F5F5F5F5E2F5F5F5F5F5F5F5F5F5F5F5E2E2E2E2F5F5F5F5F5F5F5F5F5F5F5F5F5F5F5
310
F5F5F5F5F5F5F5F5F5F5F5F5F5F5F5F5F5F5F5F5F5F5F5F5F5F5F5F5F5F5F5F5F5F5F5F5F5F5F5F5F5F5F5F5F5F5F5F5F5F5F5F5F5F5F5F5F5F5F5F5F5F5F5F5F5F5F5F5F5F5F5F5F5F5F5F5F5F5F5F5F5F5F5F5F5F5F5F5F5F5F5F5F5F5F5F5F5F5F5F5F5F5F5F5F5F5F5F5F5F5F5F5F5F5F5F5F5F5F5F5F5F5F5F5F5F5F5
310
F5F5F5F5F5F5F5F5F5F5F5F5F5F5F5F5F5F5F5F5F5F5E2F5F5F5F5F5F5F5F5F5F5F5E2E2E2E2F5F5F5F5F5F5F5F5F5F5F5F5F5F5F5F5F5F5F5F5F5F5F5F5F5F5F5F5F5F5F5F5F5F5F5F5F5F5F5F5F5F5F5F5F5F5F5F5F5F5F5F5F5F5F5F5F5F5F5F5F5F5F5F5F5F5F5F5F5F5F5F5F5F5F5F5F5F5F5F5F5F5F5F5F5F5F5F5F5
310
F5F5F5F5F5F5F5F5F5F5F5F5F5F5F5F5F5F5F5F5F5F5F5F5F5F5F5F5F5F5F5F5F5F5F5F5F5F5F5F5F5F5F5F5F5F5F5F5F5F5F5F5F5F5F5F5F5F5F5F5F5F5F5F5F5F5F5F5F5F5F5F5F5F5F5E2F5F5F5F5F5F5F5F5F5F5F5E2E2E2E2F5F5F5F5F5F5F5F5F5F5F5F5F5F5F5F5F5F5F5F5F5F5F5F5F5F5F5F5F5F5F5F5F5F5F5F5
310
F5F5F5F5F5F5F5F5F5F5F5F5F5F5F5F5F5F5F5F5F5F5F5F5F5F5F5F5F5F5F5F5F5F5F5F5F5F5F5F5F5F5F5F5F5F5F5F5F5F5F5F5F5F5F5F5F5F5F5F5F5F5F5F5F5F5F5F5F5F5F5F5F5F5F5F5F5F5F5F5F5F5F5F5F5F5F5F5F5F5F5F5F5F5F5F5F5F5F5F5F5F5F5F5F5F5F5F5F5F5F5F5F5F5F5F5F5F5F5F5F5F5F5F5F5F5F5
310
F5E2F5F5F5F5F5F5F5F5F5F5F5E2E2E2E2F5F5F5F5F5F5F5F5F5F5F5F5F5F5F5F5F5F5F5F5F5F5F5F5F5F5F5F5F5F5F5F5F5F5F5F5F5F5F5F5F5F5F5F5F5F5F5F5F5F5F5F5F5F5F5F5F5F5F5F5F5F5F5F5F5F5F5F5F5F5F5F5F5F5F5F5F5F5F5F5F5F5F5F5F5F5F5F5F5F5F5F5F5F5F5F5F5F5F5F5F5F5F5F5F5F5F5F5F5F5
310
F5F5F5F5F5F5F5F5F5F5F5F5F5F5F5F5F5F5F5F5F5F5F5F5F5F5F5F5F5F5F5F5F5F5F5F5F5F5F5F5F5F5F5F5F5F5F5F5F5F5F5F5F5F5E2F5F5F5F5F5F5F5F5F5F5F5E2E2E2E2F5F5F5F5F5F5F5F5F5F5F5F5F5F5F5F5F5F5F5F5F5F5F5F5F5F5F5F5F5F5F5F5F5F5F5F5F5F5F5F5F5F5F5F5F5F5F5F5F5F5F5F5F5F5F5F5F5
310
F5F5F5F5F5F5F5F5F5F5F5F5F5F5F5F5F5F5F5F5F5F5F5F5F5F5F5F5F5F5F5F5F5F5F5F5F5F5F5F5F5F5F5F5F5F5F5F5F5F5F5F5F5F5F5F5F5F5F5F5F5F5F5F5F5F5F5F5F5F5F5F5F5F5F5F5F5F5F5F5F5F5F5F5F5F5F5F5F5F5F5F5F5F5F5F5F5F5F5F5F5F5F5F5F5F5F5E2F5F5F5F5F5F5F5F5F5F5F5E2E2E2E2F5F5F5F5
310
F5F5F5F5F5F5F5F5F5F5F5F5F5F5F5F5F5F5F5F5F5F5F5F5F5F5F5F5F5F5F5F5F5F5F5F5F5F5F5F5F5F5F5F5F5F5F5F5F5F5F5F5F5F5F5F5F5F5F5F5F5F5F5F5F5F5F5F5F5F5F5F5F5F5F5F5F5F5F5F5F5F5F5F5F5F5F5F5F5F5F5F5F5F5F5F5F5F5F5F5F5F5F5F5F5F5F5F5F5F5F5F5F5F5F5F5F5F5F5F5F5F5F5F5F5F5F5
310
F5F5F5F5F5F5F5F5F5F5F5F5F5F5F5F5F5F5F5F5F5F5F5F5F5F5F5F5F5F5F5F5F5E2F5F5F5F5F5F5F5F5F5F5F5E2E2E2E2F5F5F5F5F5F5F5F5F5F5F5F5F5F5F5F5F5F5F5F5F5F5F5F5F5F5F5F5F5F5F5F5F5F5F5F5F5F5F5F5F5F5F5F5F5F5F5F5F5F5F5F5F5F5F5F5F5F5F5F5F5F5F5F5F5F5F5F5F5F5F5F5F5F5F5F5F5F5
310
F5F5F5F5F5F5F5F5F5F5F5F5F5F5F5F5F5F5F5F5F5F5F5F5F5F5F5F5F5F5F5F5F5F5F5F5F5F5F5F5F5F5F5F5F5F5F5F5F5F5F5F5F5F5F5F5F5F5F5F5F5F5F5F5F5F5F5F5F5F5F5F5F5F5F5F5F5F5F5F5F5F5F5F5F5F5E2F5F5F5F5F5F5F5F5F5F5F5E2E2E2E2F5F5F5F5F5F5F5F5F5F5F5F5F5F5F5F5F5F5F5F5F5F5F5F5F5
310
F5F5F5F5F5F5F5F5F5F5F5F5F5F5F5F5F5F5F5F5F5F5F5F5F5F5F5F5F5F5F5F5F5F5F5F5F5F5F5F5F5F5F5F5F5F5F5F5F5F5F5F5F5F5F5F5F5F5F5F5F5F5F5F5F5F5F5F5F5F5F5F5F5F5F5F5F5F5F5F5F5F5F5F5F5F5F5F5F5F5F5F5F5F5F5F5F5F5F5F5F5F5F5F5F5F5F5F5F5F5F5F5F5F5F5F5F5F5F5F5F5F5F5F5F5F5F5
310
F5F5F5F5F5F5F5F5F5F5F5F5E2F5F5F5F5F5F5F5F5F5F5F5E2E2E2E2E2F5F5F5F5F5F5F5F5F5F5F5F5F5F5F5F5F5F5F5F5F5F5F5F5F5F5F5F5F5F5F5F5F5F5F5F5F5F5F5F5F5F5F5F5F5F5F5F5F5F5F5F5F5F5F5F5F5F5F5F5F5F5F5F5F5F5F5F5F5F5F5F5F5F5F5F5F5F5F5F5F5F5F5F5F5F5F5F5F5F5F5F5F5F5F5F5F5F5
310
F5F5F5F5F5F5F5F5F5F5F5F5F5F5F5F5F5F5F5F5F5F5F5F5F5F5F5F5F5F5F5F5F5F5F5F5F5F5F5F5F5F5F5F5F5F5F5F5F5F5F5F5F5F5F5F5F5F5F5F5F5F5F5F5F5E2F5F5F5F5F5F5F5F5F5E2F5E2E2E2E2E2F5F5F5F5F5F5F5F5F5F5F5F5F5F5F5F5F5F5F5F5F5F5F5F5F5F5F5F5F5F5F5F5F5F5F5F5F5F5F5F5F5F5F5F5F5
310
F5F5F5F5F5F5F5F5F5F5F5F5F5F5F5F5F5F5F5F5F5F5F5F5F5F5F5F5F5F5F5F5F5F5F5F5F5F5F5F5F5F5F5F5F5F5F5F5F5F5F5F5F5F5F5F5F5F5F5F5F5F5F5F5F5F5F5F5F5F5F5F5F5F5F5F5F5F5F5F5F5F5F5F5F5F5F5F5F5F5F5F5F5F5F5F5F5F5F5F5F5F5F5F5F5F5F5F5F5F5F5F5F5F5F5F5F5F5E2F5F5F5F5F5F5F5F5
310
F5E2F5E2E2E2E2E2F5F5F5F5F5F5F5F5F5F5F5F5F5F5F5F5F5F5F5F5F5F5F5F5F5F5F5F5F5F5F5F5F5F5F5F5F5F5F5F5F5F5F5F5F5F5F5F5F5F5F5F5F5F5F5F5F5F5F5F5F5F5F5F5F5F5F5F5F5F5F5F5F5F5F5F5F5F5F5F5F5F5F5F5F5F5F5F5F5F5F5F5F5F5F5F5F5F5F5F5F5F5F5F5F5F5F5F5F5F5F5F5F5F5F5F5F5F5F5
310
F5F5F5F5F5F5F5F5F5F5F5F5F5F5F5F5F5F5F5F5F5F5F5F5F5F5F5F5F5F5F5F5F5F5F5F5F5F5F5F5F5F5F5F5E2F5F5F5F5F5F5F5F5F5E2F5E2E2E2E2E2E2E2E2E2E2E2E2E2E2E2E2E2E2E2E2E2E2E2E2E2E2E2E2E2E2E2E2E2E2E2E2E2E2E2E2E2E2E2E2E2E2E2E2E2E2E2E2E2E2E2E2E2E2E2E2E2E2E2E2E2E2E2E2E2E2E2
310
E2E2E2E2E2E2E2E2E2E2E2E2E2E2E2E2E2E2E2E2E2E2E2E2E2E2E2E2E2E2E2E2E2E2E2E2E2E2E2E2E2E2E2E2E2E2E2E2E2E2E2E2E2E2E2E2E2E2E2E2E2E2E2E2E2E2E2E2E2E2E2E2E2E2E2E2E2E2E2E2E2E2E2E2E2E2E2E2E2E2E2E2E2E2E2E2E2E2F5F5F5F5F5F5F5F5F5E2F5E2E2E2F5E2F5F5F5F5F5F5F5F5F5F5F5F5F5
310
F5F5F5F5F5F5F5F5F5F5F5F5F5F5F5F5F5F5F5F5F5F5F5F5F5F5F5F5F5F5F5F5F5F5F5F5F5F5F5F5F5F5F5F5F5F5F5F5F5F5F5F5F5F5F5F5F5F5F5F5F5F5F5F5F5F5F5F5F5F5F5F5F5F5F5F5F5F5F5F5F5F5F5F5F5F5F5F5F5F5F5F5F5F5F5F5F5F5F5F5F5F5F5F5F5F5F5F5F5F5F5F5F5F5F5F5F5F5F5F5F5F5F5F5F5F5F5
310
F5F5F5F5F5F5F5F5F5F5F5F5F5F5F5F5F5F5F5F5F5F5F5F5F5F5F5F5F5F5F5F5F5E2F5E2E2E2F5E2F5F5F5F5F5F5F5F5F5F5F5F5F5F5F5F5F5F5F5F5F5F5F5F5F5F5F5F5F5F5F5F5F5F5F5F5F5F5F5F5F5F5F5F5F5F5F5F5F5F5F5F5F5F5F5F5F5F5F5F5F5F5F5F5F5F5F5F5F5F5F5F5F5F5F5F5F5F5F5F5F5F5F5F5F5F5F5
310
F5F5F5F5F5F5F5F5F5F5F5F5F5F5F5F5F5F5F5F5F5F5F5F5F5F5F5F5F5F5F5F5F5F5F5F5F5F5F5F5F5F5F5F5F5F5F5F5F5F5F5F5F5F5F5F5F5F5F5F5F5F5F5F5F5F5F5F5F5F5F5F5F5F5F5F5F5F5F5F5F5F5F5F5F5F5E2F5E2E2E2F5E2F5F5F5F5F5F5F5F5F5F5F5F5F5F5F5F5F5F5F5F5F5F5F5F5F5F5F5F5F5F5F5F5F5F5
310
F5F5F5F5F5F5F5F5F5F5F5F5F5F5F5F5F5F5F5F5F5F5F5F5F5F5F5F5F5F5F5F5F5F5F5F5F5F5F5F5F5F5F5F5F5F5F5F5F5F5F5F5F5F5F5F5F5F5F5F5F5F5F5F5F5F5F5F5F5F5F5F5F5F5F5F5F5F5F5F5F5F5F5F5F5F5F5F5F5F5F5F5F5F5F5F5F5F5F5F5F5F5F5F5F5F5F5F5F5F5F5F5F5F5F5F5F5F5F5F5F5F5F5F5F5F5F5
310
F5F5F5F5F5F5F5F5F5F5F5F5E2F5E2E2E2F5E2E2E2E2E2E2E2E2F5F5F5F5F5F5F5F5F5E2E2E2E2E2E2E2E2E2E2E2E2E2E2E2E2F5F5F5F5F5F5F5F5F5E2E2E2E2E2E2E2E2E2E2E2E2E2E2E2E2F5F5F5F5F5F5F5F5F5E2E2E2E2E2E2E2E2E2E2E2E2E2E2E2E2F5F5F5F5F5F5F5F5F5E2E2E2E2E2E2E2E2E2E2E2E2E2E2E2E2F5
310
F5F5F5F5F5F5F5F5E2E2E2E2E2E2E2E2E2E2E2E2E2E2E2E2F5F5F5F5F5F5F5F5F5E2E2E2E2E2E2E2E2E2E2E2E2E2E2E2E2F5F5F5F5F5F5F5F5F5E2E2E2E2E2E2E2E2F5E2E2E2F5F5F5F5F5F5F5F5F5F5F5F5F5F5F5F5F5F5F5F5F5F5F5F5F5F5F5F5F5F5F5F5F5F5F5F5F5F5F5F5F5F5F5F5F5F5F5F5F5F5F5F5F5F5F5F5F5
310
F5F5F5F5F5F5F5F5F5F5F5F5F5F5F5F5F5F5F5F5F5F5F5F5F5F5F5F5F5F5F5F5F5F5F5F5F5F5F5F5F5F5F5F5F5F5F5F5F5F5F5F5F5F5F5F5F5F5F5F5F5F5F5F5F5F5F5F5F5F5F5F5F5F5F5F5F5F5F5F5F5F5F5F5F5F5F5F5F5F5F5F5F5F5F5F5F5F5F5F5F5F5F5F5F5F5F5F5F5F5F5F5F5F5F5F5F5F5F5F5E2EFE2E2E2E2E2
310
E2E2E2E2E2E2E2E2E2E2E2E2E2E2E2E2E2E2E2E2E2E2E2E2E2E2E2E2E2E2E2E2E2E2E2E2E2E2E2E2E2E2E2E2E2E2E2E2E2E2E2E2E2E2E2E2E2E2E2E2E2E2E2E2E2E2E2E2E2E2E2E2E2E2E2E2E2E2E2E2E2E2E2E2E2E2E2E2E2E2E2E2E2E2E2E2E2E2E2E2E2E2E2E2E2E2E2E2E2E2E2E2E2E2E2E2E2E2E2E2E2E2E2E2E2E2E2
310
E2E2E2E2E2E2E2E2E2E2E2E2E2E2E2E2E2E2E2E2E2E2E2E2E2E2E2E2E2E2E2E2E2E2E2E2E2E2E2E2E2E2E2E2E2E2E2EF
  0
XRECORD
  5
46E5
102
{ACAD_REACTORS
330
46E4
102
}
330
46E4
100
AcDbXrecord
280
     1
102
SHADEPLOT
 70
     0
102
SHADEPLOTRESLEVEL
 70
     2
102
SHADEPLOTCUSTOMDPI
 70
   300
  0
XRECORD
  5
46E3
102
{ACAD_REACTORS
330
46E2
102
}
330
46E2
100
AcDbXrecord
280
     1
102
SHADEPLOT
 70
     0
102
SHADEPLOTRESLEVEL
 70
     2
102
SHADEPLOTCUSTOMDPI
 70
   300
  0
XRECORD
  5
1DA9
102
{ACAD_REACTORS
330
1DA8
102
}
330
1DA8
100
AcDbXrecord
280
     1
102
MATERIAL
148
0.0
149
0.0
149
0.0
 93
        0
 94
       63
282
     0
 72
     1
 77
     1
171
     1
175
     1
179
     1
273
     0
  0
XRECORD
  5
1DA7
102
{ACAD_REACTORS
330
1DA6
102
}
330
1DA6
100
AcDbXrecord
280
     1
102
MATERIAL
148
0.0
149
0.0
149
0.0
 93
        0
 94
       63
282
     0
 72
     1
 77
     1
171
     1
175
     1
179
     1
273
     0
  0
XRECORD
  5
1DAB
102
{ACAD_REACTORS
330
1DAA
102
}
330
1DAA
100
AcDbXrecord
280
     1
102
MATERIAL
148
0.0
149
0.0
149
0.0
 93
        0
 94
       63
282
     0
 72
     1
 77
     1
171
     1
175
     1
179
     1
273
     0
  0
XRECORD
  5
46E0
102
{ACAD_REACTORS
330
46DF
102
}
330
46DF
100
AcDbXrecord
280
     1
102
ACAD_ROUNDTRIP_PRE2007_TABLESTYLE
 90
      512
 91
        0
  1

 92
      512
 93
        0
  2

 94
      512
 95
        0
  3

  0
XRECORD
  5
1D45
102
{ACAD_REACTORS
330
1D44
102
}
330
1D44
100
AcDbXrecord
280
     1
1071
 82437801
1071
112294725
 70
    25
 70
   104
 10
0.0
 20
0.0
 30
0.0
  0
XRECORD
  5
1D48
102
{ACAD_REACTORS
330
1D47
102
}
330
1D47
100
AcDbXrecord
280
     1
1071
 82437801
1071
112294725
 70
    25
 70
   104
 10
0.0
 20
0.0
 30
0.0
  0
XRECORD
  5
1D4B
102
{ACAD_REACTORS
330
1D4A
102
}
330
1D4A
100
AcDbXrecord
280
     1
1071
 82437801
1071
112294725
 70
    25
 70
   104
 10
0.0
 20
0.0
 30
0.0
  0
XRECORD
  5
1D60
102
{ACAD_REACTORS
330
1D5F
102
}
330
1D5F
100
AcDbXrecord
280
     1
1071
 82437801
1071
112294725
 70
    25
 70
   104
 10
0.0
 20
0.0
 30
0.0
  0
XRECORD
  5
1D4E
102
{ACAD_REACTORS
330
1D4D
102
}
330
1D4D
100
AcDbXrecord
280
     1
1071
 82437801
1071
112294725
 70
    25
 70
   104
 10
0.0
 20
0.0
 30
0.0
  0
XRECORD
  5
1D69
102
{ACAD_REACTORS
330
1D68
102
}
330
1D68
100
AcDbXrecord
280
     1
1071
 82437801
1071
112294725
 70
    25
 70
   104
 10
0.0
 20
0.0
 30
0.0
  0
ENDSEC
  0
EOF
