  0
SECTION
  2
HEADER
  9
$ACADVER
  1
AC1012
  9
$DWGCODEPAGE
  3
ANSI_1252
  9
$INSBASE
 10
0.0
 20
0.0
 30
0.0
  9
$EXTMIN
 10
5.0
 20
5.0
 30
0.0
  9
$EXTMAX
 10
205.000037
 20
292.000183
 30
0.0
  9
$LIMMIN
 10
0.0
 20
0.0
  9
$LIMMAX
 10
210.0
 20
296.0
  9
$ORTHOMODE
 70
     1
  9
$REGENMODE
 70
     1
  9
$FILLMODE
 70
     1
  9
$QTEXTMODE
 70
     0
  9
$MIRRTEXT
 70
     0
  9
$DRAGMODE
 70
     2
  9
$LTSCALE
 40
1.0
  9
$OSMODE
 70
    37
  9
$ATTMODE
 70
     1
  9
$TEXTSIZE
 40
1.8
  9
$TRACEWID
 40
0.05
  9
$TEXTSTYLE
  7
FINDER
  9
$CLAYER
  8
0
  9
$CELTYPE
  6
CONTINUOUS
  9
$CECOLOR
 62
   256
  9
$CELTSCALE
 40
1.0
  9
$DELOBJ
 70
     1
  9
$DISPSILH
 70
     0
  9
$DIMSCALE
 40
1.0
  9
$DIMASZ
 40
2.5
  9
$DIMEXO
 40
2.0
  9
$DIMDLI
 40
6.5
  9
$DIMRND
 40
0.0
  9
$DIMDLE
 40
0.0
  9
$DIMEXE
 40
1.25
  9
$DIMTP
 40
0.0
  9
$DIMTM
 40
0.0
  9
$DIMTXT
 40
3.5
  9
$DIMCEN
 40
2.5
  9
$DIMTSZ
 40
0.0
  9
$DIMTOL
 70
     0
  9
$DIMLIM
 70
     0
  9
$DIMTIH
 70
     0
  9
$DIMTOH
 70
     0
  9
$DIMSE1
 70
     0
  9
$DIMSE2
 70
     0
  9
$DIMTAD
 70
     1
  9
$DIMZIN
 70
     8
  9
$DIMBLK
  1

  9
$DIMASO
 70
     1
  9
$DIMSHO
 70
     1
  9
$DIMPOST
  1

  9
$DIMAPOST
  1

  9
$DIMALT
 70
     0
  9
$DIMALTD
 70
     3
  9
$DIMALTF
 40
0.03937
  9
$DIMLFAC
 40
1.0
  9
$DIMTOFL
 70
     1
  9
$DIMTVP
 40
0.0
  9
$DIMTIX
 70
     0
  9
$DIMSOXD
 70
     0
  9
$DIMSAH
 70
     0
  9
$DIMBLK1
  1

  9
$DIMBLK2
  1

  9
$DIMSTYLE
  2
FINDER
  9
$DIMCLRD
 70
   256
  9
$DIMCLRE
 70
   256
  9
$DIMCLRT
 70
     2
  9
$DIMTFAC
 40
1.0
  9
$DIMGAP
 40
0.625
  9
$DIMJUST
 70
     0
  9
$DIMSD1
 70
     0
  9
$DIMSD2
 70
     0
  9
$DIMTOLJ
 70
     0
  9
$DIMTZIN
 70
     8
  9
$DIMALTZ
 70
     0
  9
$DIMALTTZ
 70
     0
  9
$DIMFIT
 70
     3
  9
$DIMUPT
 70
     0
  9
$DIMUNIT
 70
     2
  9
$DIMDEC
 70
     2
  9
$DIMTDEC
 70
     2
  9
$DIMALTU
 70
     2
  9
$DIMALTTD
 70
     3
  9
$DIMTXSTY
  7
FINDER
  9
$DIMAUNIT
 70
     0
  9
$LUNITS
 70
     2
  9
$LUPREC
 70
     4
  9
$SKETCHINC
 40
0.1
  9
$FILLETRAD
 40
0.3
  9
$AUNITS
 70
     0
  9
$AUPREC
 70
     3
  9
$MENU
  1
acad
  9
$ELEVATION
 40
0.0
  9
$PELEVATION
 40
0.0
  9
$THICKNESS
 40
0.0
  9
$LIMCHECK
 70
     0
  9
$BLIPMODE
 70
     1
  9
$CHAMFERA
 40
0.0
  9
$CHAMFERB
 40
0.0
  9
$CHAMFERC
 40
0.0
  9
$CHAMFERD
 40
0.0
  9
$SKPOLY
 70
     0
  9
$TDCREATE
 40
2451901.420981018
  9
$TDUPDATE
 40
2451961.584298495
  9
$TDINDWG
 40
0.8660701389
  9
$TDUSRTIMER
 40
0.8660701389
  9
$USRTIMER
 70
     1
  9
$ANGBASE
 50
0.0
  9
$ANGDIR
 70
     0
  9
$PDMODE
 70
     0
  9
$PDSIZE
 40
0.0
  9
$PLINEWID
 40
0.0
  9
$COORDS
 70
     2
  9
$SPLFRAME
 70
     0
  9
$SPLINETYPE
 70
     6
  9
$SPLINESEGS
 70
     8
  9
$ATTDIA
 70
     0
  9
$ATTREQ
 70
     1
  9
$HANDLING
 70
     1
  9
$HANDSEED
  5
3C3D
  9
$SURFTAB1
 70
     6
  9
$SURFTAB2
 70
     6
  9
$SURFTYPE
 70
     6
  9
$SURFU
 70
     6
  9
$SURFV
 70
     6
  9
$UCSNAME
  2

  9
$UCSORG
 10
0.0
 20
0.0
 30
0.0
  9
$UCSXDIR
 10
1.0
 20
0.0
 30
0.0
  9
$UCSYDIR
 10
0.0
 20
1.0
 30
0.0
  9
$PUCSNAME
  2

  9
$PUCSORG
 10
0.0
 20
0.0
 30
0.0
  9
$PUCSXDIR
 10
1.0
 20
0.0
 30
0.0
  9
$PUCSYDIR
 10
0.0
 20
1.0
 30
0.0
  9
$USERI1
 70
     0
  9
$USERI2
 70
     0
  9
$USERI3
 70
     0
  9
$USERI4
 70
     0
  9
$USERI5
 70
     0
  9
$USERR1
 40
0.0
  9
$USERR2
 40
0.0
  9
$USERR3
 40
0.0
  9
$USERR4
 40
0.0
  9
$USERR5
 40
0.0
  9
$WORLDVIEW
 70
     1
  9
$SHADEDGE
 70
     3
  9
$SHADEDIF
 70
    70
  9
$TILEMODE
 70
     1
  9
$MAXACTVP
 70
    16
  9
$PINSBASE
 10
0.0
 20
0.0
 30
0.0
  9
$PLIMCHECK
 70
     0
  9
$PEXTMIN
 10
1.000000E+20
 20
1.000000E+20
 30
1.000000E+20
  9
$PEXTMAX
 10
-1.000000E+20
 20
-1.000000E+20
 30
-1.000000E+20
  9
$PLIMMIN
 10
0.0
 20
0.0
  9
$PLIMMAX
 10
100.0
 20
100.0
  9
$UNITMODE
 70
     0
  9
$VISRETAIN
 70
     0
  9
$PLINEGEN
 70
     1
  9
$PSLTSCALE
 70
     0
  9
$TREEDEPTH
 70
  3020
  9
$PICKSTYLE
 70
     0
  9
$CMLSTYLE
  2
STANDARD
  9
$CMLJUST
 70
     0
  9
$CMLSCALE
 40
1.0
  9
$SAVEIMAGES
 70
     0
  0
ENDSEC
  0
SECTION
  2
CLASSES
  0
CLASS
  1
LWPOLYLINE
  2
AcDbPolyline
  3
"AutoCAD"
 90
    32768
280
     0
281
     1
  0
CLASS
  1
IMAGE
  2
AcDbRasterImage
  3
ISM
 90
    32895
280
     0
281
     1
  0
CLASS
  1
OLE2FRAME
  2
AcDbOle2Frame
  3
""
 90
    32768
280
     0
281
     1
  0
CLASS
  1
HATCH
  2
AcDbHatch
  3
"ACAD_SEDONA"
 90
    32768
280
     0
281
     1
  0
CLASS
  1
DICTIONARYVAR
  2
AcDbDictionaryVar
  3
"AutoCAD"
 90
    32768
280
     0
281
     0
  0
CLASS
  1
RASTERVARIABLES
  2
AcDbRasterVariables
  3
ISM
 90
    32768
280
     0
281
     0
  0
CLASS
  1
IMAGEDEF
  2
AcDbRasterImageDef
  3
ISM
 90
    32768
280
     0
281
     0
  0
CLASS
  1
IMAGEDEF_REACTOR
  2
AcDbRasterImageDefReactor
  3
ISM
 90
    32769
280
     0
281
     0
  0
CLASS
  1
SPATIAL_FILTER
  2
AcDbSpatialFilter
  3
"Acad"
 90
    32768
280
     0
281
     0
  0
CLASS
  1
XRECORD
  2
AcDbXrecord
  3
"<Built In>"
 90
    32768
280
     0
281
     0
  0
CLASS
  1
SORTENTSTABLE
  2
AcDbSortentsTable
  3
"AutoCAD"
 90
    32768
280
     0
281
     0
  0
CLASS
  1
LAYER_INDEX
  2
AcDbLayerIndex
  3
"Acad"
 90
    32768
280
     0
281
     0
  0
CLASS
  1
SPATIAL_INDEX
  2
AcDbSpatialIndex
  3
"Acad"
 90
    32768
280
     0
281
     0
  0
CLASS
  1
OBJECT_PTR
  2
CAseDLPNTableRecord
  3
ASE-LPNTableRecord
 90
    32769
280
     0
281
     0
  0
CLASS
  1
LAYOUT
  2
AcDbLayout
  3
"AutoCAD 2000"
 90
    32769
280
     1
281
     0
  0
CLASS
  1
PLOTSETTINGS
  2
AcDbPlotSettings
  3
"AutoCAD 2000"
 90
    32769
280
     1
281
     0
  0
CLASS
  1
ACDBDICTIONARYWDFLT
  2
AcDbDictionaryWithDefault
  3
"AutoCAD 2000"
 90
    32769
280
     1
281
     0
  0
CLASS
  1
ACDBPLACEHOLDER
  2
AcDbPlaceHolder
  3
"AutoCAD 2000"
 90
    32769
280
     1
281
     0
  0
CLASS
  1
VBA_PROJECT
  2
AcDbVbaProject
  3
"acadvba"
 90
    32769
280
     1
281
     0
  0
CLASS
  1
WIPEOUT
  2
AcDbWipeout
  3
WipeOut|AutoCAD Express Tool|expresstools@autodesk.com
 90
    32895
280
     1
281
     1
  0
CLASS
  1
WIPEOUTVARIABLES
  2
AcDbWipeoutVariables
  3
WipeOut|AutoCAD Express Tool|expresstools@autodesk.com
 90
    32768
280
     1
281
     0
  0
CLASS
  1
RTEXT
  2
RText
  3
RText|AutoCAD Express Tool|expresstools@autodesk.com
 90
    32768
280
     1
281
     1
  0
CLASS
  1
ARCALIGNEDTEXT
  2
AcDbArcAlignedText
  3
ATEXT|AutoCAD Express Tool|expresstools@autodesk.com
 90
    32768
280
     1
281
     1
  0
ENDSEC
  0
SECTION
  2
TABLES
  0
TABLE
  2
VPORT
  5
12
100
AcDbSymbolTable
 70
     2
  0
VPORT
  5
3C3C
100
AcDbSymbolTableRecord
100
AcDbViewportTableRecord
  2
*ACTIVE
 70
     0
 10
0.0
 20
0.0
 11
1.0
 21
1.0
 12
105.0
 22
148.496827
 13
0.0
 23
0.0
 14
1.0
 24
1.0
 15
2.0
 25
2.0
 16
0.0
 26
0.0
 36
1.0
 17
0.0
 27
0.0
 37
0.0
 40
289.716738
 41
1.645313
 42
50.0
 43
0.0
 44
0.0
 50
0.0
 51
0.0
 71
     0
 72
   100
 73
     1
 74
     1
 75
     0
 76
     0
 77
     0
 78
     0
  0
ENDTAB
  0
TABLE
  2
LTYPE
  5
D
100
AcDbSymbolTable
 70
     1
  0
LTYPE
  5
E
100
AcDbSymbolTableRecord
100
AcDbLinetypeTableRecord
  2
BYBLOCK
 70
     0
  3

 72
    65
 73
     0
 40
0.0
  0
LTYPE
  5
F
100
AcDbSymbolTableRecord
100
AcDbLinetypeTableRecord
  2
BYLAYER
 70
     0
  3

 72
    65
 73
     0
 40
0.0
  0
LTYPE
  5
5
100
AcDbSymbolTableRecord
100
AcDbLinetypeTableRecord
  2
CONTINUOUS
 70
     0
  3
Solid line
 72
    65
 73
     0
 40
0.0
  0
ENDTAB
  0
TABLE
  2
LAYER
  5
A
100
AcDbSymbolTable
 70
     6
  0
LAYER
  5
4
100
AcDbSymbolTableRecord
100
AcDbLayerTableRecord
  2
0
 70
     0
 62
     7
  6
CONTINUOUS
  0
LAYER
  5
24
100
AcDbSymbolTableRecord
100
AcDbLayerTableRecord
  2
DRAW
 70
     0
 62
     7
  6
CONTINUOUS
  0
LAYER
  5
1F
100
AcDbSymbolTableRecord
100
AcDbLayerTableRecord
  2
CARTOUCHE
 70
     0
 62
     7
  6
CONTINUOUS
  0
LAYER
  5
8C
100
AcDbSymbolTableRecord
100
AcDbLayerTableRecord
  2
DRAW-TEXT
 70
     0
 62
     1
  6
CONTINUOUS
  0
LAYER
  5
571
100
AcDbSymbolTableRecord
100
AcDbLayerTableRecord
  2
DIM
 70
     0
 62
     3
  6
CONTINUOUS
  0
LAYER
  5
2FD4
100
AcDbSymbolTableRecord
100
AcDbLayerTableRecord
  2
DEFPOINTS
 70
     0
 62
     7
  6
CONTINUOUS
  0
ENDTAB
  0
TABLE
  2
STYLE
  5
B
100
AcDbSymbolTable
 70
     2
  0
STYLE
  5
C
100
AcDbSymbolTableRecord
100
AcDbTextStyleTableRecord
  2
STANDARD
 70
     0
 40
0.0
 41
1.0
 50
0.0
 71
     0
 42
0.2
  3
txt
  4

  0
STYLE
  5
1B
100
AcDbSymbolTableRecord
100
AcDbTextStyleTableRecord
  2
FINDER
 70
     0
 40
1.8
 41
1.0
 50
0.0
 71
     0
 42
1.8
  3
ARIAL.TTF
  4

1001
ACAD
1000
Arial
1071
       34
  0
ENDTAB
  0
TABLE
  2
VIEW
  5
10
100
AcDbSymbolTable
 70
     0
  0
ENDTAB
  0
TABLE
  2
UCS
  5
11
100
AcDbSymbolTable
 70
     0
  0
ENDTAB
  0
TABLE
  2
APPID
  5
14
100
AcDbSymbolTable
 70
     1
  0
APPID
  5
15
100
AcDbSymbolTableRecord
100
AcDbRegAppTableRecord
  2
ACAD
 70
     0
  0
ENDTAB
  0
TABLE
  2
DIMSTYLE
  5
16
100
AcDbSymbolTable
 70
     1
  0
DIMSTYLE
105
1D
102
{ACAD_REACTORS
330
3153
330
3160
330
316D
102
}
100
AcDbSymbolTableRecord
100
AcDbDimStyleTableRecord
  2
FINDER
 70
     0
  3

  4

  5

  6

  7

 40
1.0
 41
2.5
 42
2.0
 43
6.5
 44
1.25
 45
0.0
 46
0.0
 47
0.0
 48
0.0
140
3.5
141
2.5
142
0.0
143
0.03937
144
1.0
145
0.0
146
1.0
147
0.625
 71
     0
 72
     0
 73
     0
 74
     0
 75
     0
 76
     0
 77
     1
 78
     8
170
     0
171
     3
172
     1
173
     0
174
     0
175
     0
176
   256
177
   256
178
     2
270
     2
271
     2
272
     2
273
     2
274
     3
340
1B
275
     0
280
     0
281
     0
282
     0
283
     0
284
     8
285
     0
286
     0
287
     3
288
     0
  0
ENDTAB
  0
TABLE
  2
BLOCK_RECORD
  5
1
100
AcDbSymbolTable
 70
    13
  0
BLOCK_RECORD
  5
2
100
AcDbSymbolTableRecord
100
AcDbBlockTableRecord
  2
*MODEL_SPACE
  0
BLOCK_RECORD
  5
7
100
AcDbSymbolTableRecord
100
AcDbBlockTableRecord
  2
*PAPER_SPACE
  0
BLOCK_RECORD
  5
3145
100
AcDbSymbolTableRecord
100
AcDbBlockTableRecord
  2
*D0
  0
BLOCK_RECORD
  5
3154
100
AcDbSymbolTableRecord
100
AcDbBlockTableRecord
  2
*D1
  0
BLOCK_RECORD
  5
3161
100
AcDbSymbolTableRecord
100
AcDbBlockTableRecord
  2
*D2
  0
BLOCK_RECORD
  5
371C
100
AcDbSymbolTableRecord
100
AcDbBlockTableRecord
  2
*X3
  0
BLOCK_RECORD
  5
374F
100
AcDbSymbolTableRecord
100
AcDbBlockTableRecord
  2
*X4
  0
BLOCK_RECORD
  5
3766
100
AcDbSymbolTableRecord
100
AcDbBlockTableRecord
  2
*X5
  0
BLOCK_RECORD
  5
3773
100
AcDbSymbolTableRecord
100
AcDbBlockTableRecord
  2
*X6
  0
BLOCK_RECORD
  5
3804
100
AcDbSymbolTableRecord
100
AcDbBlockTableRecord
  2
*X7
  0
BLOCK_RECORD
  5
3824
100
AcDbSymbolTableRecord
100
AcDbBlockTableRecord
  2
*X8
  0
BLOCK_RECORD
  5
3853
100
AcDbSymbolTableRecord
100
AcDbBlockTableRecord
  2
*X9
  0
BLOCK_RECORD
  5
387D
100
AcDbSymbolTableRecord
100
AcDbBlockTableRecord
  2
*X10
  0
BLOCK_RECORD
  5
38BF
100
AcDbSymbolTableRecord
100
AcDbBlockTableRecord
  2
*X11
  0
BLOCK_RECORD
  5
3B56
100
AcDbSymbolTableRecord
100
AcDbBlockTableRecord
  2
*X12
  0
ENDTAB
  0
ENDSEC
  0
SECTION
  2
BLOCKS
  0
BLOCK
  5
3
100
AcDbEntity
  8
0
100
AcDbBlockBegin
  2
*MODEL_SPACE
 70
     0
 10
0.0
 20
0.0
 30
0.0
  3
*MODEL_SPACE
  1

  0
ENDBLK
  5
6
100
AcDbEntity
  8
0
100
AcDbBlockEnd
  0
BLOCK
  5
8
100
AcDbEntity
 67
     1
  8
0
100
AcDbBlockBegin
  2
*PAPER_SPACE
 70
     0
 10
0.0
 20
0.0
 30
0.0
  3
*PAPER_SPACE
  1

  0
ENDBLK
  5
9
100
AcDbEntity
 67
     1
  8
0
100
AcDbBlockEnd
  0
BLOCK
  5
3146
100
AcDbEntity
  8
0
100
AcDbBlockBegin
  2
*D0
 70
     1
 10
0.0
 20
0.0
 30
0.0
  3
*D0
  1

  0
LINE
  5
3147
100
AcDbEntity
  8
0
  6
BYBLOCK
100
AcDbLine
 10
48.76289
 20
234.012814
 30
0.0
 11
48.76289
 21
238.25
 31
0.0
  0
LINE
  5
3148
100
AcDbEntity
  8
0
  6
BYBLOCK
100
AcDbLine
 10
54.96289
 20
234.012814
 30
0.0
 11
54.96289
 21
238.25
 31
0.0
  0
LINE
  5
3149
100
AcDbEntity
  8
0
  6
BYBLOCK
100
AcDbLine
 10
46.26289
 20
237.0
 30
0.0
 11
43.76289
 21
237.0
 31
0.0
  0
LINE
  5
314A
100
AcDbEntity
  8
0
  6
BYBLOCK
100
AcDbLine
 10
57.46289
 20
237.0
 30
0.0
 11
59.96289
 21
237.0
 31
0.0
  0
LINE
  5
314B
100
AcDbEntity
  8
0
  6
BYBLOCK
100
AcDbLine
 10
48.76289
 20
237.0
 30
0.0
 11
54.96289
 21
237.0
 31
0.0
  0
SOLID
  5
314C
100
AcDbEntity
  8
0
  6
BYBLOCK
100
AcDbTrace
 10
46.26289
 20
237.416667
 30
0.0
 11
46.26289
 21
236.583333
 31
0.0
 12
48.76289
 22
237.0
 32
0.0
 13
48.76289
 23
237.0
 33
0.0
  0
SOLID
  5
314D
100
AcDbEntity
  8
0
  6
BYBLOCK
100
AcDbTrace
 10
57.46289
 20
237.416667
 30
0.0
 11
57.46289
 21
236.583333
 31
0.0
 12
54.96289
 22
237.0
 32
0.0
 13
54.96289
 23
237.0
 33
0.0
  0
MTEXT
  5
314E
100
AcDbEntity
  8
0
  6
BYBLOCK
 62
     2
100
AcDbMText
 10
51.86289
 20
238.544031
 30
0.0
 40
1.8
 41
0.0
 71
     5
 72
     1
  1
6.2
  7
FINDER
  0
POINT
  5
314F
100
AcDbEntity
  8
DEFPOINTS
  6
BYBLOCK
 62
     0
100
AcDbPoint
 10
48.76289
 20
232.012814
 30
0.0
  0
POINT
  5
3150
100
AcDbEntity
  8
DEFPOINTS
  6
BYBLOCK
 62
     0
100
AcDbPoint
 10
54.96289
 20
232.012814
 30
0.0
  0
POINT
  5
3151
100
AcDbEntity
  8
DEFPOINTS
  6
BYBLOCK
 62
     0
100
AcDbPoint
 10
54.96289
 20
237.0
 30
0.0
  0
ENDBLK
  5
3152
100
AcDbEntity
  8
0
100
AcDbBlockEnd
  0
BLOCK
  5
31CA
100
AcDbEntity
  8
0
100
AcDbBlockBegin
  2
*D1
 70
     1
 10
0.0
 20
0.0
 30
0.0
  3
*D1
  1

  0
LINE
  5
31CB
100
AcDbEntity
  8
0
  6
BYBLOCK
100
AcDbLine
 10
46.76289
 20
211.312814
 30
0.0
 11
41.75
 21
211.312814
 31
0.0
  0
LINE
  5
31CC
100
AcDbEntity
  8
0
  6
BYBLOCK
100
AcDbLine
 10
46.76289
 20
124.012814
 30
0.0
 11
41.75
 21
124.012814
 31
0.0
  0
LINE
  5
31CD
100
AcDbEntity
  8
0
  6
BYBLOCK
100
AcDbLine
 10
43.0
 20
208.812814
 30
0.0
 11
43.0
 21
126.512814
 31
0.0
  0
SOLID
  5
31CE
100
AcDbEntity
  8
0
  6
BYBLOCK
100
AcDbTrace
 10
42.583333
 20
208.812814
 30
0.0
 11
43.416667
 21
208.812814
 31
0.0
 12
43.0
 22
211.312814
 32
0.0
 13
43.0
 23
211.312814
 33
0.0
  0
SOLID
  5
31CF
100
AcDbEntity
  8
0
  6
BYBLOCK
100
AcDbTrace
 10
42.583333
 20
126.512814
 30
0.0
 11
43.416667
 21
126.512814
 31
0.0
 12
43.0
 22
124.012814
 32
0.0
 13
43.0
 23
124.012814
 33
0.0
  0
MTEXT
  5
31D0
100
AcDbEntity
  8
0
  6
BYBLOCK
 62
     2
100
AcDbMText
 10
41.455355
 20
167.662814
 30
0.0
 40
1.8
 41
0.0
 71
     5
 72
     1
  1
87.3
  7
FINDER
 11
0.0
 21
1.0
 31
0.0
  0
POINT
  5
31D1
100
AcDbEntity
  8
DEFPOINTS
  6
BYBLOCK
 62
     0
100
AcDbPoint
 10
48.76289
 20
211.312814
 30
0.0
  0
POINT
  5
31D2
100
AcDbEntity
  8
DEFPOINTS
  6
BYBLOCK
 62
     0
100
AcDbPoint
 10
48.76289
 20
124.012814
 30
0.0
  0
POINT
  5
31D3
100
AcDbEntity
  8
DEFPOINTS
  6
BYBLOCK
 62
     0
100
AcDbPoint
 10
43.0
 20
124.012814
 30
0.0
  0
ENDBLK
  5
31D4
100
AcDbEntity
  8
0
100
AcDbBlockEnd
  0
BLOCK
  5
31AD
100
AcDbEntity
  8
0
100
AcDbBlockBegin
  2
*D2
 70
     1
 10
0.0
 20
0.0
 30
0.0
  3
*D2
  1

  0
LINE
  5
31AE
100
AcDbEntity
  8
0
  6
BYBLOCK
100
AcDbLine
 10
108.899105
 20
213.312814
 30
0.0
 11
108.899105
 21
218.05
 31
0.0
  0
LINE
  5
31AF
100
AcDbEntity
  8
0
  6
BYBLOCK
100
AcDbLine
 10
184.499105
 20
175.655198
 30
0.0
 11
184.499105
 21
218.05
 31
0.0
  0
LINE
  5
31B0
100
AcDbEntity
  8
0
  6
BYBLOCK
100
AcDbLine
 10
111.399105
 20
216.8
 30
0.0
 11
181.999105
 21
216.8
 31
0.0
  0
SOLID
  5
31B1
100
AcDbEntity
  8
0
  6
BYBLOCK
100
AcDbTrace
 10
111.399105
 20
217.216667
 30
0.0
 11
111.399105
 21
216.383333
 31
0.0
 12
108.899105
 22
216.8
 32
0.0
 13
108.899105
 23
216.8
 33
0.0
  0
SOLID
  5
31B2
100
AcDbEntity
  8
0
  6
BYBLOCK
100
AcDbTrace
 10
181.999105
 20
217.216667
 30
0.0
 11
181.999105
 21
216.383333
 31
0.0
 12
184.499105
 22
216.8
 32
0.0
 13
184.499105
 23
216.8
 33
0.0
  0
MTEXT
  5
31B3
100
AcDbEntity
  8
0
  6
BYBLOCK
 62
     2
100
AcDbMText
 10
146.699105
 20
218.344031
 30
0.0
 40
1.8
 41
0.0
 71
     5
 72
     1
  1
75.6
  7
FINDER
  0
POINT
  5
31B4
100
AcDbEntity
  8
DEFPOINTS
  6
BYBLOCK
 62
     0
100
AcDbPoint
 10
108.899105
 20
211.312814
 30
0.0
  0
POINT
  5
31B5
100
AcDbEntity
  8
DEFPOINTS
  6
BYBLOCK
 62
     0
100
AcDbPoint
 10
184.499105
 20
173.655198
 30
0.0
  0
POINT
  5
31B6
100
AcDbEntity
  8
DEFPOINTS
  6
BYBLOCK
 62
     0
100
AcDbPoint
 10
184.499105
 20
216.8
 30
0.0
  0
ENDBLK
  5
31B7
100
AcDbEntity
  8
0
100
AcDbBlockEnd
  0
BLOCK
  5
374D
100
AcDbEntity
  8
0
100
AcDbBlockBegin
  2
*X3
 70
     1
 10
0.0
 20
0.0
 30
0.0
  3
*X3
  1

  0
LINE
  5
371D
100
AcDbEntity
  8
0
  6
CONTINUOUS
 62
     0
100
AcDbLine
 10
41.233824
 20
20.814544
 30
0.0
 11
42.038521
 21
21.619241
 31
0.0
  0
LINE
  5
371E
100
AcDbEntity
  8
0
  6
CONTINUOUS
 62
     0
100
AcDbLine
 10
40.761924
 20
20.625487
 30
0.0
 11
41.992081
 21
21.855644
 31
0.0
  0
LINE
  5
371F
100
AcDbEntity
  8
0
  6
CONTINUOUS
 62
     0
100
AcDbLine
 10
42.109364
 20
22.25577
 30
0.0
 11
42.234688
 21
22.381093
 31
0.0
  0
LINE
  5
3720
100
AcDbEntity
  8
0
  6
CONTINUOUS
 62
     0
100
AcDbLine
 10
40.387144
 20
20.533549
 30
0.0
 11
41.709238
 21
21.855644
 31
0.0
  0
LINE
  5
3721
100
AcDbEntity
  8
0
  6
CONTINUOUS
 62
     0
100
AcDbLine
 10
41.825433
 20
22.254682
 30
0.0
 11
42.248624
 21
22.677873
 31
0.0
  0
LINE
  5
3722
100
AcDbEntity
  8
0
  6
CONTINUOUS
 62
     0
100
AcDbLine
 10
40.05278
 20
20.482029
 30
0.0
 11
41.426395
 21
21.855644
 31
0.0
  0
LINE
  5
3723
100
AcDbEntity
  8
0
  6
CONTINUOUS
 62
     0
100
AcDbLine
 10
41.541502
 20
22.253593
 30
0.0
 11
42.21409
 21
22.926181
 31
0.0
  0
LINE
  5
3724
100
AcDbEntity
  8
0
  6
CONTINUOUS
 62
     0
100
AcDbLine
 10
39.74394
 20
20.456031
 30
0.0
 11
41.143553
 21
21.855644
 31
0.0
  0
LINE
  5
3725
100
AcDbEntity
  8
0
  6
CONTINUOUS
 62
     0
100
AcDbLine
 10
41.257572
 20
22.252505
 30
0.0
 11
42.156032
 21
23.150966
 31
0.0
  0
LINE
  5
3726
100
AcDbEntity
  8
0
  6
CONTINUOUS
 62
     0
100
AcDbLine
 10
39.448788
 20
20.443722
 30
0.0
 11
40.86071
 21
21.855644
 31
0.0
  0
LINE
  5
3727
100
AcDbEntity
  8
0
  6
CONTINUOUS
 62
     0
100
AcDbLine
 10
40.973641
 20
22.251417
 30
0.0
 11
42.082697
 21
23.360473
 31
0.0
  0
LINE
  5
3728
100
AcDbEntity
  8
0
  6
CONTINUOUS
 62
     0
100
AcDbLine
 10
39.166766
 20
20.444542
 30
0.0
 11
40.577867
 21
21.855644
 31
0.0
  0
LINE
  5
3729
100
AcDbEntity
  8
0
  6
CONTINUOUS
 62
     0
100
AcDbLine
 10
40.68971
 20
22.250329
 30
0.0
 11
41.992262
 21
23.552881
 31
0.0
  0
LINE
  5
372A
100
AcDbEntity
  8
0
  6
CONTINUOUS
 62
     0
100
AcDbLine
 10
38.902535
 20
20.463154
 30
0.0
 11
40.178872
 21
21.739491
 31
0.0
  0
LINE
  5
372B
100
AcDbEntity
  8
0
  6
CONTINUOUS
 62
     0
100
AcDbLine
 10
40.405779
 20
22.249241
 30
0.0
 11
41.885758
 21
23.729219
 31
0.0
  0
LINE
  5
372C
100
AcDbEntity
  8
0
  6
CONTINUOUS
 62
     0
100
AcDbLine
 10
38.650769
 20
20.494231
 30
0.0
 11
39.711135
 21
21.554596
 31
0.0
  0
LINE
  5
372D
100
AcDbEntity
  8
0
  6
CONTINUOUS
 62
     0
100
AcDbLine
 10
40.121848
 20
22.248152
 30
0.0
 11
41.763132
 21
23.889436
 31
0.0
  0
LINE
  5
372E
100
AcDbEntity
  8
0
  6
CONTINUOUS
 62
     0
100
AcDbLine
 10
38.407693
 20
20.533998
 30
0.0
 11
39.411545
 21
21.53785
 31
0.0
  0
LINE
  5
372F
100
AcDbEntity
  8
0
  6
CONTINUOUS
 62
     0
100
AcDbLine
 10
39.837917
 20
22.247064
 30
0.0
 11
41.624849
 21
24.033997
 31
0.0
  0
LINE
  5
3730
100
AcDbEntity
  8
0
  6
CONTINUOUS
 62
     0
100
AcDbLine
 10
38.180128
 20
20.589276
 30
0.0
 11
39.162324
 21
21.571471
 31
0.0
  0
LINE
  5
3731
100
AcDbEntity
  8
0
  6
CONTINUOUS
 62
     0
100
AcDbLine
 10
39.553986
 20
22.245976
 30
0.0
 11
41.470496
 21
24.162486
 31
0.0
  0
LINE
  5
3732
100
AcDbEntity
  8
0
  6
CONTINUOUS
 62
     0
100
AcDbLine
 10
37.96719
 20
20.65918
 30
0.0
 11
38.94359
 21
21.63558
 31
0.0
  0
LINE
  5
3733
100
AcDbEntity
  8
0
  6
CONTINUOUS
 62
     0
100
AcDbLine
 10
39.270055
 20
22.244888
 30
0.0
 11
40.104361
 21
23.079194
 31
0.0
  0
LINE
  5
3734
100
AcDbEntity
  8
0
  6
CONTINUOUS
 62
     0
100
AcDbLine
 10
40.296756
 20
23.271589
 30
0.0
 11
41.306075
 21
24.280908
 31
0.0
  0
LINE
  5
3735
100
AcDbEntity
  8
0
  6
CONTINUOUS
 62
     0
100
AcDbLine
 10
37.762127
 20
20.736959
 30
0.0
 11
38.751667
 21
21.7265
 31
0.0
  0
LINE
  5
3736
100
AcDbEntity
  8
0
  6
CONTINUOUS
 62
     0
100
AcDbLine
 10
38.986768
 20
22.244444
 30
0.0
 11
39.821518
 21
23.079194
 31
0.0
  0
LINE
  5
3737
100
AcDbEntity
  8
0
  6
CONTINUOUS
 62
     0
100
AcDbLine
 10
40.185855
 20
23.443531
 30
0.0
 11
41.127162
 21
24.384837
 31
0.0
  0
LINE
  5
3738
100
AcDbEntity
  8
0
  6
CONTINUOUS
 62
     0
100
AcDbLine
 10
37.567077
 20
20.824752
 30
0.0
 11
38.587242
 21
21.844917
 31
0.0
  0
LINE
  5
3739
100
AcDbEntity
  8
0
  6
CONTINUOUS
 62
     0
100
AcDbLine
 10
38.703926
 20
22.244444
 30
0.0
 11
39.538676
 21
23.079194
 31
0.0
  0
LINE
  5
373A
100
AcDbEntity
  8
0
  6
CONTINUOUS
 62
     0
100
AcDbLine
 10
40.035599
 20
23.576117
 30
0.0
 11
40.932542
 21
24.47306
 31
0.0
  0
LINE
  5
373B
100
AcDbEntity
  8
0
  6
CONTINUOUS
 62
     0
100
AcDbLine
 10
37.386162
 20
20.92668
 30
0.0
 11
38.458814
 21
21.999332
 31
0.0
  0
LINE
  5
373C
100
AcDbEntity
  8
0
  6
CONTINUOUS
 62
     0
100
AcDbLine
 10
38.421083
 20
22.244444
 30
0.0
 11
39.255833
 21
23.079194
 31
0.0
  0
LINE
  5
373D
100
AcDbEntity
  8
0
  6
CONTINUOUS
 62
     0
100
AcDbLine
 10
39.853662
 20
23.677023
 30
0.0
 11
40.721945
 21
24.545306
 31
0.0
  0
LINE
  5
373E
100
AcDbEntity
  8
0
  6
CONTINUOUS
 62
     0
100
AcDbLine
 10
37.22185
 20
21.045211
 30
0.0
 11
38.375638
 21
22.198999
 31
0.0
  0
LINE
  5
373F
100
AcDbEntity
  8
0
  6
CONTINUOUS
 62
     0
100
AcDbLine
 10
39.638454
 20
23.744657
 30
0.0
 11
40.501236
 21
24.607439
 31
0.0
  0
LINE
  5
3740
100
AcDbEntity
  8
0
  6
CONTINUOUS
 62
     0
100
AcDbLine
 10
37.07656
 20
21.182763
 30
0.0
 11
38.97299
 21
23.079194
 31
0.0
  0
LINE
  5
3741
100
AcDbEntity
  8
0
  6
CONTINUOUS
 62
     0
100
AcDbLine
 10
39.38488
 20
23.773926
 30
0.0
 11
40.269576
 21
24.658623
 31
0.0
  0
LINE
  5
3742
100
AcDbEntity
  8
0
  6
CONTINUOUS
 62
     0
100
AcDbLine
 10
36.946052
 20
21.335098
 30
0.0
 11
38.690147
 21
23.079194
 31
0.0
  0
LINE
  5
3743
100
AcDbEntity
  8
0
  6
CONTINUOUS
 62
     0
100
AcDbLine
 10
39.069245
 20
23.741134
 30
0.0
 11
40.026103
 21
24.697992
 31
0.0
  0
LINE
  5
3744
100
AcDbEntity
  8
0
  6
CONTINUOUS
 62
     0
100
AcDbLine
 10
36.825922
 20
21.497811
 30
0.0
 11
38.407305
 21
23.079194
 31
0.0
  0
LINE
  5
3745
100
AcDbEntity
  8
0
  6
CONTINUOUS
 62
     0
100
AcDbLine
 10
36.722045
 20
21.676776
 30
0.0
 11
39.769169
 21
24.723901
 31
0.0
  0
LINE
  5
3746
100
AcDbEntity
  8
0
  6
CONTINUOUS
 62
     0
100
AcDbLine
 10
36.633672
 20
21.871247
 30
0.0
 11
39.492393
 21
24.729967
 31
0.0
  0
LINE
  5
3747
100
AcDbEntity
  8
0
  6
CONTINUOUS
 62
     0
100
AcDbLine
 10
36.558727
 20
22.079144
 30
0.0
 11
39.214889
 21
24.735306
 31
0.0
  0
LINE
  5
3748
100
AcDbEntity
  8
0
  6
CONTINUOUS
 62
     0
100
AcDbLine
 10
36.503475
 20
22.306735
 30
0.0
 11
38.910338
 21
24.713597
 31
0.0
  0
LINE
  5
3749
100
AcDbEntity
  8
0
  6
CONTINUOUS
 62
     0
100
AcDbLine
 10
36.478924
 20
22.565027
 30
0.0
 11
38.599964
 21
24.686067
 31
0.0
  0
LINE
  5
374A
100
AcDbEntity
  8
0
  6
CONTINUOUS
 62
     0
100
AcDbLine
 10
36.497306
 20
22.866251
 30
0.0
 11
38.252546
 21
24.621491
 31
0.0
  0
LINE
  5
374B
100
AcDbEntity
  8
0
  6
CONTINUOUS
 62
     0
100
AcDbLine
 10
36.58207
 20
23.233858
 30
0.0
 11
37.861674
 21
24.513462
 31
0.0
  0
LINE
  5
374C
100
AcDbEntity
  8
0
  6
CONTINUOUS
 62
     0
100
AcDbLine
 10
36.878958
 20
23.813588
 30
0.0
 11
37.289934
 21
24.224564
 31
0.0
  0
ENDBLK
  5
374E
100
AcDbEntity
  8
0
100
AcDbBlockEnd
  0
BLOCK
  5
3764
100
AcDbEntity
  8
0
100
AcDbBlockBegin
  2
*X4
 70
     1
 10
0.0
 20
0.0
 30
0.0
  3
*X4
  1

  0
LINE
  5
3750
100
AcDbEntity
  8
0
  6
CONTINUOUS
 62
     0
100
AcDbLine
 10
23.515125
 20
20.632094
 30
0.0
 11
23.625973
 21
20.742941
 31
0.0
  0
LINE
  5
3751
100
AcDbEntity
  8
0
  6
CONTINUOUS
 62
     0
100
AcDbLine
 10
23.232282
 20
20.632094
 30
0.0
 11
23.625973
 21
21.025784
 31
0.0
  0
LINE
  5
3752
100
AcDbEntity
  8
0
  6
CONTINUOUS
 62
     0
100
AcDbLine
 10
22.94944
 20
20.632094
 30
0.0
 11
23.625973
 21
21.308627
 31
0.0
  0
LINE
  5
3753
100
AcDbEntity
  8
0
  6
CONTINUOUS
 62
     0
100
AcDbLine
 10
22.666597
 20
20.632094
 30
0.0
 11
23.625973
 21
21.59147
 31
0.0
  0
LINE
  5
3754
100
AcDbEntity
  8
0
  6
CONTINUOUS
 62
     0
100
AcDbLine
 10
22.383754
 20
20.632094
 30
0.0
 11
23.625973
 21
21.874312
 31
0.0
  0
LINE
  5
3755
100
AcDbEntity
  8
0
  6
CONTINUOUS
 62
     0
100
AcDbLine
 10
22.100912
 20
20.632094
 30
0.0
 11
23.625973
 21
22.157155
 31
0.0
  0
LINE
  5
3756
100
AcDbEntity
  8
0
  6
CONTINUOUS
 62
     0
100
AcDbLine
 10
21.818069
 20
20.632094
 30
0.0
 11
23.625973
 21
22.439998
 31
0.0
  0
LINE
  5
3757
100
AcDbEntity
  8
0
  6
CONTINUOUS
 62
     0
100
AcDbLine
 10
21.807973
 20
20.90484
 30
0.0
 11
23.625973
 21
22.72284
 31
0.0
  0
LINE
  5
3758
100
AcDbEntity
  8
0
  6
CONTINUOUS
 62
     0
100
AcDbLine
 10
21.807973
 20
21.187683
 30
0.0
 11
23.625973
 21
23.005683
 31
0.0
  0
LINE
  5
3759
100
AcDbEntity
  8
0
  6
CONTINUOUS
 62
     0
100
AcDbLine
 10
21.807973
 20
21.470526
 30
0.0
 11
23.625973
 21
23.288526
 31
0.0
  0
LINE
  5
375A
100
AcDbEntity
  8
0
  6
CONTINUOUS
 62
     0
100
AcDbLine
 10
21.807973
 20
21.753369
 30
0.0
 11
23.625973
 21
23.571369
 31
0.0
  0
LINE
  5
375B
100
AcDbEntity
  8
0
  6
CONTINUOUS
 62
     0
100
AcDbLine
 10
21.807973
 20
22.036211
 30
0.0
 11
23.625973
 21
23.854211
 31
0.0
  0
LINE
  5
375C
100
AcDbEntity
  8
0
  6
CONTINUOUS
 62
     0
100
AcDbLine
 10
21.807973
 20
22.319054
 30
0.0
 11
23.625973
 21
24.137054
 31
0.0
  0
LINE
  5
375D
100
AcDbEntity
  8
0
  6
CONTINUOUS
 62
     0
100
AcDbLine
 10
21.807973
 20
22.601897
 30
0.0
 11
23.625973
 21
24.419897
 31
0.0
  0
LINE
  5
375E
100
AcDbEntity
  8
0
  6
CONTINUOUS
 62
     0
100
AcDbLine
 10
21.807973
 20
22.884739
 30
0.0
 11
23.431627
 21
24.508394
 31
0.0
  0
LINE
  5
375F
100
AcDbEntity
  8
0
  6
CONTINUOUS
 62
     0
100
AcDbLine
 10
21.807973
 20
23.167582
 30
0.0
 11
23.148784
 21
24.508394
 31
0.0
  0
LINE
  5
3760
100
AcDbEntity
  8
0
  6
CONTINUOUS
 62
     0
100
AcDbLine
 10
21.807973
 20
23.450425
 30
0.0
 11
22.865942
 21
24.508394
 31
0.0
  0
LINE
  5
3761
100
AcDbEntity
  8
0
  6
CONTINUOUS
 62
     0
100
AcDbLine
 10
21.807973
 20
23.733268
 30
0.0
 11
22.583099
 21
24.508394
 31
0.0
  0
LINE
  5
3762
100
AcDbEntity
  8
0
  6
CONTINUOUS
 62
     0
100
AcDbLine
 10
21.807973
 20
24.01611
 30
0.0
 11
22.300256
 21
24.508394
 31
0.0
  0
LINE
  5
3763
100
AcDbEntity
  8
0
  6
CONTINUOUS
 62
     0
100
AcDbLine
 10
21.807973
 20
24.298953
 30
0.0
 11
22.017414
 21
24.508394
 31
0.0
  0
ENDBLK
  5
3765
100
AcDbEntity
  8
0
100
AcDbBlockEnd
  0
BLOCK
  5
3771
100
AcDbEntity
  8
0
100
AcDbBlockBegin
  2
*X5
 70
     1
 10
0.0
 20
0.0
 30
0.0
  3
*X5
  1

  0
LINE
  5
3767
100
AcDbEntity
  8
0
  6
CONTINUOUS
 62
     0
100
AcDbLine
 10
23.583484
 20
24.943094
 30
0.0
 11
23.625973
 21
24.985582
 31
0.0
  0
LINE
  5
3768
100
AcDbEntity
  8
0
  6
CONTINUOUS
 62
     0
100
AcDbLine
 10
23.300642
 20
24.943094
 30
0.0
 11
23.625973
 21
25.268425
 31
0.0
  0
LINE
  5
3769
100
AcDbEntity
  8
0
  6
CONTINUOUS
 62
     0
100
AcDbLine
 10
23.017799
 20
24.943094
 30
0.0
 11
23.625973
 21
25.551268
 31
0.0
  0
LINE
  5
376A
100
AcDbEntity
  8
0
  6
CONTINUOUS
 62
     0
100
AcDbLine
 10
22.734956
 20
24.943094
 30
0.0
 11
23.625973
 21
25.83411
 31
0.0
  0
LINE
  5
376B
100
AcDbEntity
  8
0
  6
CONTINUOUS
 62
     0
100
AcDbLine
 10
22.452114
 20
24.943094
 30
0.0
 11
23.344014
 21
25.834994
 31
0.0
  0
LINE
  5
376C
100
AcDbEntity
  8
0
  6
CONTINUOUS
 62
     0
100
AcDbLine
 10
22.169271
 20
24.943094
 30
0.0
 11
23.061171
 21
25.834994
 31
0.0
  0
LINE
  5
376D
100
AcDbEntity
  8
0
  6
CONTINUOUS
 62
     0
100
AcDbLine
 10
21.886428
 20
24.943094
 30
0.0
 11
22.778328
 21
25.834994
 31
0.0
  0
LINE
  5
376E
100
AcDbEntity
  8
0
  6
CONTINUOUS
 62
     0
100
AcDbLine
 10
21.807973
 20
25.147481
 30
0.0
 11
22.495485
 21
25.834994
 31
0.0
  0
LINE
  5
376F
100
AcDbEntity
  8
0
  6
CONTINUOUS
 62
     0
100
AcDbLine
 10
21.807973
 20
25.430324
 30
0.0
 11
22.212643
 21
25.834994
 31
0.0
  0
LINE
  5
3770
100
AcDbEntity
  8
0
  6
CONTINUOUS
 62
     0
100
AcDbLine
 10
21.807973
 20
25.713167
 30
0.0
 11
21.9298
 21
25.834994
 31
0.0
  0
ENDBLK
  5
3772
100
AcDbEntity
  8
0
100
AcDbBlockEnd
  0
BLOCK
  5
3802
100
AcDbEntity
  8
0
100
AcDbBlockBegin
  2
*X6
 70
     1
 10
0.0
 20
0.0
 30
0.0
  3
*X6
  1

  0
LINE
  5
3774
100
AcDbEntity
  8
0
  6
CONTINUOUS
 62
     0
100
AcDbLine
 10
14.989467
 20
20.308874
 30
0.0
 11
15.516193
 21
20.8356
 31
0.0
  0
LINE
  5
3775
100
AcDbEntity
  8
0
  6
CONTINUOUS
 62
     0
100
AcDbLine
 10
14.112517
 20
19.714767
 30
0.0
 11
16.1103
 21
21.71255
 31
0.0
  0
LINE
  5
3776
100
AcDbEntity
  8
0
  6
CONTINUOUS
 62
     0
100
AcDbLine
 10
13.596595
 20
19.481687
 30
0.0
 11
16.34338
 21
22.228473
 31
0.0
  0
LINE
  5
3777
100
AcDbEntity
  8
0
  6
CONTINUOUS
 62
     0
100
AcDbLine
 10
13.174894
 20
19.342829
 30
0.0
 11
16.482238
 21
22.650174
 31
0.0
  0
LINE
  5
3778
100
AcDbEntity
  8
0
  6
CONTINUOUS
 62
     0
100
AcDbLine
 10
12.804844
 20
19.255622
 30
0.0
 11
16.569445
 21
23.020223
 31
0.0
  0
LINE
  5
3779
100
AcDbEntity
  8
0
  6
CONTINUOUS
 62
     0
100
AcDbLine
 10
14.795352
 20
21.528973
 30
0.0
 11
16.622133
 21
23.355754
 31
0.0
  0
LINE
  5
377A
100
AcDbEntity
  8
0
  6
CONTINUOUS
 62
     0
100
AcDbLine
 10
12.469313
 20
19.202934
 30
0.0
 11
14.296095
 21
21.029715
 31
0.0
  0
LINE
  5
377B
100
AcDbEntity
  8
0
  6
CONTINUOUS
 62
     0
100
AcDbLine
 10
15.293536
 20
22.309999
 30
0.0
 11
16.649275
 21
23.665738
 31
0.0
  0
LINE
  5
377C
100
AcDbEntity
  8
0
  6
CONTINUOUS
 62
     0
100
AcDbLine
 10
12.159329
 20
19.175793
 30
0.0
 11
13.515068
 21
20.531532
 31
0.0
  0
LINE
  5
377D
100
AcDbEntity
  8
0
  6
CONTINUOUS
 62
     0
100
AcDbLine
 10
15.479088
 20
22.778394
 30
0.0
 11
16.656273
 21
23.955579
 31
0.0
  0
LINE
  5
377E
100
AcDbEntity
  8
0
  6
CONTINUOUS
 62
     0
100
AcDbLine
 10
11.869488
 20
19.168795
 30
0.0
 11
13.046674
 21
20.34598
 31
0.0
  0
LINE
  5
377F
100
AcDbEntity
  8
0
  6
CONTINUOUS
 62
     0
100
AcDbLine
 10
15.580082
 20
23.162231
 30
0.0
 11
16.646682
 21
24.228831
 31
0.0
  0
LINE
  5
3780
100
AcDbEntity
  8
0
  6
CONTINUOUS
 62
     0
100
AcDbLine
 10
11.596236
 20
19.178385
 30
0.0
 11
12.662836
 21
20.244985
 31
0.0
  0
LINE
  5
3781
100
AcDbEntity
  8
0
  6
CONTINUOUS
 62
     0
100
AcDbLine
 10
12.654531
 20
20.519523
 30
0.0
 11
13.323223
 21
21.188215
 31
0.0
  0
LINE
  5
3782
100
AcDbEntity
  8
0
  6
CONTINUOUS
 62
     0
100
AcDbLine
 10
15.634125
 20
23.499117
 30
0.0
 11
16.622986
 21
24.487978
 31
0.0
  0
LINE
  5
3783
100
AcDbEntity
  8
0
  6
CONTINUOUS
 62
     0
100
AcDbLine
 10
11.33709
 20
19.202082
 30
0.0
 11
12.325951
 21
20.190943
 31
0.0
  0
LINE
  5
3784
100
AcDbEntity
  8
0
  6
CONTINUOUS
 62
     0
100
AcDbLine
 10
12.404347
 20
20.552181
 30
0.0
 11
13.323223
 21
21.471057
 31
0.0
  0
LINE
  5
3785
100
AcDbEntity
  8
0
  6
CONTINUOUS
 62
     0
100
AcDbLine
 10
15.656425
 20
23.804259
 30
0.0
 11
16.586997
 21
24.734832
 31
0.0
  0
LINE
  5
3786
100
AcDbEntity
  8
0
  6
CONTINUOUS
 62
     0
100
AcDbLine
 10
11.090236
 20
19.23807
 30
0.0
 11
12.020808
 21
20.168643
 31
0.0
  0
LINE
  5
3787
100
AcDbEntity
  8
0
  6
CONTINUOUS
 62
     0
100
AcDbLine
 10
12.212553
 20
20.64323
 30
0.0
 11
13.323223
 21
21.7539
 31
0.0
  0
LINE
  5
3788
100
AcDbEntity
  8
0
  6
CONTINUOUS
 62
     0
100
AcDbLine
 10
15.654961
 20
24.085639
 30
0.0
 11
16.540085
 21
24.970762
 31
0.0
  0
LINE
  5
3789
100
AcDbEntity
  8
0
  6
CONTINUOUS
 62
     0
100
AcDbLine
 10
10.854306
 20
19.284983
 30
0.0
 11
11.739429
 21
20.170106
 31
0.0
  0
LINE
  5
378A
100
AcDbEntity
  8
0
  6
CONTINUOUS
 62
     0
100
AcDbLine
 10
12.063213
 20
20.776733
 30
0.0
 11
13.323223
 21
22.036743
 31
0.0
  0
LINE
  5
378B
100
AcDbEntity
  8
0
  6
CONTINUOUS
 62
     0
100
AcDbLine
 10
15.634541
 20
24.34806
 30
0.0
 11
16.483306
 21
25.196826
 31
0.0
  0
LINE
  5
378C
100
AcDbEntity
  8
0
  6
CONTINUOUS
 62
     0
100
AcDbLine
 10
10.628242
 20
19.341761
 30
0.0
 11
11.477007
 21
20.190527
 31
0.0
  0
LINE
  5
378D
100
AcDbEntity
  8
0
  6
CONTINUOUS
 62
     0
100
AcDbLine
 10
11.920447
 20
20.916809
 30
0.0
 11
13.323223
 21
22.319586
 31
0.0
  0
LINE
  5
378E
100
AcDbEntity
  8
0
  6
CONTINUOUS
 62
     0
100
AcDbLine
 10
15.598315
 20
24.594678
 30
0.0
 11
16.417496
 21
25.413858
 31
0.0
  0
LINE
  5
378F
100
AcDbEntity
  8
0
  6
CONTINUOUS
 62
     0
100
AcDbLine
 10
10.411209
 20
19.407572
 30
0.0
 11
11.23039
 21
20.226752
 31
0.0
  0
LINE
  5
3790
100
AcDbEntity
  8
0
  6
CONTINUOUS
 62
     0
100
AcDbLine
 10
11.77768
 20
21.056886
 30
0.0
 11
13.323223
 21
22.602428
 31
0.0
  0
LINE
  5
3791
100
AcDbEntity
  8
0
  6
CONTINUOUS
 62
     0
100
AcDbLine
 10
15.548478
 20
24.827684
 30
0.0
 11
16.343321
 21
25.622526
 31
0.0
  0
LINE
  5
3792
100
AcDbEntity
  8
0
  6
CONTINUOUS
 62
     0
100
AcDbLine
 10
10.202541
 20
19.481747
 30
0.0
 11
10.997384
 21
20.276589
 31
0.0
  0
LINE
  5
3793
100
AcDbEntity
  8
0
  6
CONTINUOUS
 62
     0
100
AcDbLine
 10
12.362923
 20
21.924971
 30
0.0
 11
13.323223
 21
22.885271
 31
0.0
  0
LINE
  5
3794
100
AcDbEntity
  8
0
  6
CONTINUOUS
 62
     0
100
AcDbLine
 10
11.634914
 20
21.196962
 30
0.0
 11
12.307877
 21
21.869925
 31
0.0
  0
LINE
  5
3795
100
AcDbEntity
  8
0
  6
CONTINUOUS
 62
     0
100
AcDbLine
 10
15.486619
 20
25.048667
 30
0.0
 11
16.261321
 21
25.823369
 31
0.0
  0
LINE
  5
3796
100
AcDbEntity
  8
0
  6
CONTINUOUS
 62
     0
100
AcDbLine
 10
10.001699
 20
19.563747
 30
0.0
 11
10.776401
 21
20.338449
 31
0.0
  0
LINE
  5
3797
100
AcDbEntity
  8
0
  6
CONTINUOUS
 62
     0
100
AcDbLine
 10
12.362923
 20
22.207814
 30
0.0
 11
13.323223
 21
23.168114
 31
0.0
  0
LINE
  5
3798
100
AcDbEntity
  8
0
  6
CONTINUOUS
 62
     0
100
AcDbLine
 10
11.492148
 20
21.337039
 30
0.0
 11
12.172228
 21
22.017119
 31
0.0
  0
LINE
  5
3799
100
AcDbEntity
  8
0
  6
CONTINUOUS
 62
     0
100
AcDbLine
 10
15.41392
 20
25.258811
 30
0.0
 11
16.171934
 21
26.016825
 31
0.0
  0
LINE
  5
379A
100
AcDbEntity
  8
0
  6
CONTINUOUS
 62
     0
100
AcDbLine
 10
9.808243
 20
19.653134
 30
0.0
 11
10.566257
 21
20.411147
 31
0.0
  0
LINE
  5
379B
100
AcDbEntity
  8
0
  6
CONTINUOUS
 62
     0
100
AcDbLine
 10
12.362923
 20
22.490656
 30
0.0
 11
13.323223
 21
23.450956
 31
0.0
  0
LINE
  5
379C
100
AcDbEntity
  8
0
  6
CONTINUOUS
 62
     0
100
AcDbLine
 10
14.38066
 20
24.508394
 30
0.0
 11
14.903943
 21
25.031677
 31
0.0
  0
LINE
  5
379D
100
AcDbEntity
  8
0
  6
CONTINUOUS
 62
     0
100
AcDbLine
 10
11.349382
 20
21.477115
 30
0.0
 11
12.03658
 21
22.164313
 31
0.0
  0
LINE
  5
379E
100
AcDbEntity
  8
0
  6
CONTINUOUS
 62
     0
100
AcDbLine
 10
15.331283
 20
25.459017
 30
0.0
 11
16.075518
 21
26.203251
 31
0.0
  0
LINE
  5
379F
100
AcDbEntity
  8
0
  6
CONTINUOUS
 62
     0
100
AcDbLine
 10
9.621817
 20
19.74955
 30
0.0
 11
10.366051
 21
20.493784
 31
0.0
  0
LINE
  5
37A0
100
AcDbEntity
  8
0
  6
CONTINUOUS
 62
     0
100
AcDbLine
 10
12.362923
 20
22.773499
 30
0.0
 11
13.323223
 21
23.733799
 31
0.0
  0
LINE
  5
37A1
100
AcDbEntity
  8
0
  6
CONTINUOUS
 62
     0
100
AcDbLine
 10
14.097817
 20
24.508394
 30
0.0
 11
14.840413
 21
25.25099
 31
0.0
  0
LINE
  5
37A2
100
AcDbEntity
  8
0
  6
CONTINUOUS
 62
     0
100
AcDbLine
 10
11.206616
 20
21.617192
 30
0.0
 11
11.900931
 21
22.311507
 31
0.0
  0
LINE
  5
37A3
100
AcDbEntity
  8
0
  6
CONTINUOUS
 62
     0
100
AcDbLine
 10
15.2394
 20
25.649976
 30
0.0
 11
15.972362
 21
26.382939
 31
0.0
  0
LINE
  5
37A4
100
AcDbEntity
  8
0
  6
CONTINUOUS
 62
     0
100
AcDbLine
 10
9.442129
 20
19.852705
 30
0.0
 11
10.175091
 21
20.585668
 31
0.0
  0
LINE
  5
37A5
100
AcDbEntity
  8
0
  6
CONTINUOUS
 62
     0
100
AcDbLine
 10
12.362923
 20
23.056342
 30
0.0
 11
13.323223
 21
24.016642
 31
0.0
  0
LINE
  5
37A6
100
AcDbEntity
  8
0
  6
CONTINUOUS
 62
     0
100
AcDbLine
 10
13.814975
 20
24.508394
 30
0.0
 11
14.709087
 21
25.402506
 31
0.0
  0
LINE
  5
37A7
100
AcDbEntity
  8
0
  6
CONTINUOUS
 62
     0
100
AcDbLine
 10
11.063849
 20
21.757268
 30
0.0
 11
11.765282
 21
22.458701
 31
0.0
  0
LINE
  5
37A8
100
AcDbEntity
  8
0
  6
CONTINUOUS
 62
     0
100
AcDbLine
 10
15.138805
 20
25.832223
 30
0.0
 11
15.862703
 21
26.556122
 31
0.0
  0
LINE
  5
37A9
100
AcDbEntity
  8
0
  6
CONTINUOUS
 62
     0
100
AcDbLine
 10
9.268945
 20
19.962364
 30
0.0
 11
9.992844
 21
20.686263
 31
0.0
  0
LINE
  5
37AA
100
AcDbEntity
  8
0
  6
CONTINUOUS
 62
     0
100
AcDbLine
 10
12.362923
 20
23.339185
 30
0.0
 11
13.323223
 21
24.299485
 31
0.0
  0
LINE
  5
37AB
100
AcDbEntity
  8
0
  6
CONTINUOUS
 62
     0
100
AcDbLine
 10
13.532132
 20
24.508394
 30
0.0
 11
14.516893
 21
25.493154
 31
0.0
  0
LINE
  5
37AC
100
AcDbEntity
  8
0
  6
CONTINUOUS
 62
     0
100
AcDbLine
 10
10.921083
 20
21.897345
 30
0.0
 11
11.629634
 21
22.605895
 31
0.0
  0
LINE
  5
37AD
100
AcDbEntity
  8
0
  6
CONTINUOUS
 62
     0
100
AcDbLine
 10
15.029907
 20
26.006168
 30
0.0
 11
15.746727
 21
26.722988
 31
0.0
  0
LINE
  5
37AE
100
AcDbEntity
  8
0
  6
CONTINUOUS
 62
     0
100
AcDbLine
 10
9.102079
 20
20.078341
 30
0.0
 11
9.818899
 21
20.795161
 31
0.0
  0
LINE
  5
37AF
100
AcDbEntity
  8
0
  6
CONTINUOUS
 62
     0
100
AcDbLine
 10
12.362923
 20
23.622027
 30
0.0
 11
14.244239
 21
25.503344
 31
0.0
  0
LINE
  5
37B0
100
AcDbEntity
  8
0
  6
CONTINUOUS
 62
     0
100
AcDbLine
 10
10.778317
 20
22.037421
 30
0.0
 11
11.493985
 21
22.753089
 31
0.0
  0
LINE
  5
37B1
100
AcDbEntity
  8
0
  6
CONTINUOUS
 62
     0
100
AcDbLine
 10
14.913014
 20
26.172119
 30
0.0
 11
15.624577
 21
26.883681
 31
0.0
  0
LINE
  5
37B2
100
AcDbEntity
  8
0
  6
CONTINUOUS
 62
     0
100
AcDbLine
 10
8.941386
 20
20.200491
 30
0.0
 11
9.652949
 21
20.912053
 31
0.0
  0
LINE
  5
37B3
100
AcDbEntity
  8
0
  6
CONTINUOUS
 62
     0
100
AcDbLine
 10
12.362923
 20
23.90487
 30
0.0
 11
13.961397
 21
25.503344
 31
0.0
  0
LINE
  5
37B4
100
AcDbEntity
  8
0
  6
CONTINUOUS
 62
     0
100
AcDbLine
 10
10.635551
 20
22.177498
 30
0.0
 11
11.358336
 21
22.900283
 31
0.0
  0
LINE
  5
37B5
100
AcDbEntity
  8
0
  6
CONTINUOUS
 62
     0
100
AcDbLine
 10
14.78835
 20
26.330297
 30
0.0
 11
15.49636
 21
27.038307
 31
0.0
  0
LINE
  5
37B6
100
AcDbEntity
  8
0
  6
CONTINUOUS
 62
     0
100
AcDbLine
 10
8.78676
 20
20.328707
 30
0.0
 11
9.494771
 21
21.036718
 31
0.0
  0
LINE
  5
37B7
100
AcDbEntity
  8
0
  6
CONTINUOUS
 62
     0
100
AcDbLine
 10
12.362923
 20
24.187713
 30
0.0
 11
13.678554
 21
25.503344
 31
0.0
  0
LINE
  5
37B8
100
AcDbEntity
  8
0
  6
CONTINUOUS
 62
     0
100
AcDbLine
 10
10.492785
 20
22.317574
 30
0.0
 11
11.222688
 21
23.047477
 31
0.0
  0
LINE
  5
37B9
100
AcDbEntity
  8
0
  6
CONTINUOUS
 62
     0
100
AcDbLine
 10
14.65606
 20
26.48085
 30
0.0
 11
15.362148
 21
27.186938
 31
0.0
  0
LINE
  5
37BA
100
AcDbEntity
  8
0
  6
CONTINUOUS
 62
     0
100
AcDbLine
 10
8.63813
 20
20.462919
 30
0.0
 11
9.344218
 21
21.169008
 31
0.0
  0
LINE
  5
37BB
100
AcDbEntity
  8
0
  6
CONTINUOUS
 62
     0
100
AcDbLine
 10
12.362923
 20
24.470555
 30
0.0
 11
13.395711
 21
25.503344
 31
0.0
  0
LINE
  5
37BC
100
AcDbEntity
  8
0
  6
CONTINUOUS
 62
     0
100
AcDbLine
 10
10.350018
 20
22.457651
 30
0.0
 11
11.087039
 21
23.194672
 31
0.0
  0
LINE
  5
37BD
100
AcDbEntity
  8
0
  6
CONTINUOUS
 62
     0
100
AcDbLine
 10
14.516224
 20
26.623856
 30
0.0
 11
15.221979
 21
27.329612
 31
0.0
  0
LINE
  5
37BE
100
AcDbEntity
  8
0
  6
CONTINUOUS
 62
     0
100
AcDbLine
 10
8.495456
 20
20.603088
 30
0.0
 11
9.201211
 21
21.308844
 31
0.0
  0
LINE
  5
37BF
100
AcDbEntity
  8
0
  6
CONTINUOUS
 62
     0
100
AcDbLine
 10
11.020368
 20
23.410844
 30
0.0
 11
11.413873
 21
23.804348
 31
0.0
  0
LINE
  5
37C0
100
AcDbEntity
  8
0
  6
CONTINUOUS
 62
     0
100
AcDbLine
 10
12.362923
 20
24.753398
 30
0.0
 11
13.323223
 21
25.713698
 31
0.0
  0
LINE
  5
37C1
100
AcDbEntity
  8
0
  6
CONTINUOUS
 62
     0
100
AcDbLine
 10
10.207252
 20
22.597727
 30
0.0
 11
10.951391
 21
23.341866
 31
0.0
  0
LINE
  5
37C2
100
AcDbEntity
  8
0
  6
CONTINUOUS
 62
     0
100
AcDbLine
 10
14.368854
 20
26.75933
 30
0.0
 11
15.07586
 21
27.466336
 31
0.0
  0
LINE
  5
37C3
100
AcDbEntity
  8
0
  6
CONTINUOUS
 62
     0
100
AcDbLine
 10
8.358732
 20
20.749207
 30
0.0
 11
9.065738
 21
21.456213
 31
0.0
  0
LINE
  5
37C4
100
AcDbEntity
  8
0
  6
CONTINUOUS
 62
     0
100
AcDbLine
 10
12.362923
 20
25.036241
 30
0.0
 11
13.323223
 21
25.996541
 31
0.0
  0
LINE
  5
37C5
100
AcDbEntity
  8
0
  6
CONTINUOUS
 62
     0
100
AcDbLine
 10
10.064486
 20
22.737804
 30
0.0
 11
11.413873
 21
24.087191
 31
0.0
  0
LINE
  5
37C6
100
AcDbEntity
  8
0
  6
CONTINUOUS
 62
     0
100
AcDbLine
 10
14.213901
 20
26.887219
 30
0.0
 11
14.923766
 21
27.597084
 31
0.0
  0
LINE
  5
37C7
100
AcDbEntity
  8
0
  6
CONTINUOUS
 62
     0
100
AcDbLine
 10
8.227983
 20
20.901301
 30
0.0
 11
8.937848
 21
21.611166
 31
0.0
  0
LINE
  5
37C8
100
AcDbEntity
  8
0
  6
CONTINUOUS
 62
     0
100
AcDbLine
 10
12.362923
 20
25.319084
 30
0.0
 11
13.323223
 21
26.279384
 31
0.0
  0
LINE
  5
37C9
100
AcDbEntity
  8
0
  6
CONTINUOUS
 62
     0
100
AcDbLine
 10
9.92172
 20
22.87788
 30
0.0
 11
11.413873
 21
24.370034
 31
0.0
  0
LINE
  5
37CA
100
AcDbEntity
  8
0
  6
CONTINUOUS
 62
     0
100
AcDbLine
 10
14.051246
 20
27.007407
 30
0.0
 11
14.76564
 21
27.7218
 31
0.0
  0
LINE
  5
37CB
100
AcDbEntity
  8
0
  6
CONTINUOUS
 62
     0
100
AcDbLine
 10
8.103267
 20
21.059428
 30
0.0
 11
8.81766
 21
21.773821
 31
0.0
  0
LINE
  5
37CC
100
AcDbEntity
  8
0
  6
CONTINUOUS
 62
     0
100
AcDbLine
 10
12.362923
 20
25.601926
 30
0.0
 11
13.323223
 21
26.562226
 31
0.0
  0
LINE
  5
37CD
100
AcDbEntity
  8
0
  6
CONTINUOUS
 62
     0
100
AcDbLine
 10
9.778954
 20
23.017957
 30
0.0
 11
11.413873
 21
24.652876
 31
0.0
  0
LINE
  5
37CE
100
AcDbEntity
  8
0
  6
CONTINUOUS
 62
     0
100
AcDbLine
 10
13.880701
 20
27.119704
 30
0.0
 11
14.601389
 21
27.840392
 31
0.0
  0
LINE
  5
37CF
100
AcDbEntity
  8
0
  6
CONTINUOUS
 62
     0
100
AcDbLine
 10
7.984675
 20
21.223678
 30
0.0
 11
8.705364
 21
21.944367
 31
0.0
  0
LINE
  5
37D0
100
AcDbEntity
  8
0
  6
CONTINUOUS
 62
     0
100
AcDbLine
 10
12.362923
 20
25.884769
 30
0.0
 11
13.323223
 21
26.845069
 31
0.0
  0
LINE
  5
37D1
100
AcDbEntity
  8
0
  6
CONTINUOUS
 62
     0
100
AcDbLine
 10
9.636187
 20
23.158033
 30
0.0
 11
11.413873
 21
24.935719
 31
0.0
  0
LINE
  5
37D2
100
AcDbEntity
  8
0
  6
CONTINUOUS
 62
     0
100
AcDbLine
 10
13.701993
 20
27.223839
 30
0.0
 11
14.430886
 21
27.952732
 31
0.0
  0
LINE
  5
37D3
100
AcDbEntity
  8
0
  6
CONTINUOUS
 62
     0
100
AcDbLine
 10
7.872335
 20
21.394181
 30
0.0
 11
8.601228
 21
22.123074
 31
0.0
  0
LINE
  5
37D4
100
AcDbEntity
  8
0
  6
CONTINUOUS
 62
     0
100
AcDbLine
 10
12.362923
 20
26.167612
 30
0.0
 11
13.323223
 21
27.127912
 31
0.0
  0
LINE
  5
37D5
100
AcDbEntity
  8
0
  6
CONTINUOUS
 62
     0
100
AcDbLine
 10
9.493421
 20
23.29811
 30
0.0
 11
11.413873
 21
25.218562
 31
0.0
  0
LINE
  5
37D6
100
AcDbEntity
  8
0
  6
CONTINUOUS
 62
     0
100
AcDbLine
 10
13.51476
 20
27.319448
 30
0.0
 11
14.253964
 21
28.058653
 31
0.0
  0
LINE
  5
37D7
100
AcDbEntity
  8
0
  6
CONTINUOUS
 62
     0
100
AcDbLine
 10
7.766415
 20
21.571104
 30
0.0
 11
8.505619
 21
22.310308
 31
0.0
  0
LINE
  5
37D8
100
AcDbEntity
  8
0
  6
CONTINUOUS
 62
     0
100
AcDbLine
 10
10.464823
 20
24.552354
 30
0.0
 11
11.413873
 21
25.501404
 31
0.0
  0
LINE
  5
37D9
100
AcDbEntity
  8
0
  6
CONTINUOUS
 62
     0
100
AcDbLine
 10
9.323312
 20
23.410844
 30
0.0
 11
10.341212
 21
24.428744
 31
0.0
  0
LINE
  5
37DA
100
AcDbEntity
  8
0
  6
CONTINUOUS
 62
     0
100
AcDbLine
 10
12.362923
 20
26.450454
 30
0.0
 11
14.070408
 21
28.157939
 31
0.0
  0
LINE
  5
37DB
100
AcDbEntity
  8
0
  6
CONTINUOUS
 62
     0
100
AcDbLine
 10
7.667128
 20
21.75466
 30
0.0
 11
8.419014
 21
22.506545
 31
0.0
  0
LINE
  5
37DC
100
AcDbEntity
  8
0
  6
CONTINUOUS
 62
     0
100
AcDbLine
 10
10.464823
 20
24.835197
 30
0.0
 11
11.413873
 21
25.784247
 31
0.0
  0
LINE
  5
37DD
100
AcDbEntity
  8
0
  6
CONTINUOUS
 62
     0
100
AcDbLine
 10
9.040469
 20
23.410844
 30
0.0
 11
10.058369
 21
24.428744
 31
0.0
  0
LINE
  5
37DE
100
AcDbEntity
  8
0
  6
CONTINUOUS
 62
     0
100
AcDbLine
 10
12.362923
 20
26.733297
 30
0.0
 11
13.879952
 21
28.250326
 31
0.0
  0
LINE
  5
37DF
100
AcDbEntity
  8
0
  6
CONTINUOUS
 62
     0
100
AcDbLine
 10
7.574741
 20
21.945116
 30
0.0
 11
8.342034
 21
22.712408
 31
0.0
  0
LINE
  5
37E0
100
AcDbEntity
  8
0
  6
CONTINUOUS
 62
     0
100
AcDbLine
 10
10.464823
 20
25.11804
 30
0.0
 11
11.413873
 21
26.06709
 31
0.0
  0
LINE
  5
37E1
100
AcDbEntity
  8
0
  6
CONTINUOUS
 62
     0
100
AcDbLine
 10
8.757627
 20
23.410844
 30
0.0
 11
9.775527
 21
24.428744
 31
0.0
  0
LINE
  5
37E2
100
AcDbEntity
  8
0
  6
CONTINUOUS
 62
     0
100
AcDbLine
 10
12.362923
 20
27.01614
 30
0.0
 11
13.682269
 21
28.335486
 31
0.0
  0
LINE
  5
37E3
100
AcDbEntity
  8
0
  6
CONTINUOUS
 62
     0
100
AcDbLine
 10
7.489582
 20
22.142799
 30
0.0
 11
8.275484
 21
22.928701
 31
0.0
  0
LINE
  5
37E4
100
AcDbEntity
  8
0
  6
CONTINUOUS
 62
     0
100
AcDbLine
 10
10.464823
 20
25.400883
 30
0.0
 11
11.413873
 21
26.349933
 31
0.0
  0
LINE
  5
37E5
100
AcDbEntity
  8
0
  6
CONTINUOUS
 62
     0
100
AcDbLine
 10
8.474784
 20
23.410844
 30
0.0
 11
9.492684
 21
24.428744
 31
0.0
  0
LINE
  5
37E6
100
AcDbEntity
  8
0
  6
CONTINUOUS
 62
     0
100
AcDbLine
 10
12.362923
 20
27.298983
 30
0.0
 11
13.476956
 21
28.413016
 31
0.0
  0
LINE
  5
37E7
100
AcDbEntity
  8
0
  6
CONTINUOUS
 62
     0
100
AcDbLine
 10
7.412052
 20
22.348111
 30
0.0
 11
8.220417
 21
23.156477
 31
0.0
  0
LINE
  5
37E8
100
AcDbEntity
  8
0
  6
CONTINUOUS
 62
     0
100
AcDbLine
 10
10.464823
 20
25.683725
 30
0.0
 11
11.413873
 21
26.632775
 31
0.0
  0
LINE
  5
37E9
100
AcDbEntity
  8
0
  6
CONTINUOUS
 62
     0
100
AcDbLine
 10
8.191941
 20
23.410844
 30
0.0
 11
9.209841
 21
24.428744
 31
0.0
  0
LINE
  5
37EA
100
AcDbEntity
  8
0
  6
CONTINUOUS
 62
     0
100
AcDbLine
 10
12.362923
 20
27.581825
 30
0.0
 11
13.26352
 21
28.482423
 31
0.0
  0
LINE
  5
37EB
100
AcDbEntity
  8
0
  6
CONTINUOUS
 62
     0
100
AcDbLine
 10
7.342645
 20
22.561547
 30
0.0
 11
8.178233
 21
23.397136
 31
0.0
  0
LINE
  5
37EC
100
AcDbEntity
  8
0
  6
CONTINUOUS
 62
     0
100
AcDbLine
 10
10.464823
 20
25.966568
 30
0.0
 11
11.413873
 21
26.915618
 31
0.0
  0
LINE
  5
37ED
100
AcDbEntity
  8
0
  6
CONTINUOUS
 62
     0
100
AcDbLine
 10
12.172484
 20
27.674229
 30
0.0
 11
13.041351
 21
28.543096
 31
0.0
  0
LINE
  5
37EE
100
AcDbEntity
  8
0
  6
CONTINUOUS
 62
     0
100
AcDbLine
 10
7.281971
 20
22.783716
 30
0.0
 11
8.926999
 21
24.428744
 31
0.0
  0
LINE
  5
37EF
100
AcDbEntity
  8
0
  6
CONTINUOUS
 62
     0
100
AcDbLine
 10
10.464823
 20
26.249411
 30
0.0
 11
11.413873
 21
27.198461
 31
0.0
  0
LINE
  5
37F0
100
AcDbEntity
  8
0
  6
CONTINUOUS
 62
     0
100
AcDbLine
 10
11.899556
 20
27.684144
 30
0.0
 11
12.809691
 21
28.594279
 31
0.0
  0
LINE
  5
37F1
100
AcDbEntity
  8
0
  6
CONTINUOUS
 62
     0
100
AcDbLine
 10
7.230788
 20
23.015376
 30
0.0
 11
8.644156
 21
24.428744
 31
0.0
  0
LINE
  5
37F2
100
AcDbEntity
  8
0
  6
CONTINUOUS
 62
     0
100
AcDbLine
 10
10.464823
 20
26.532253
 30
0.0
 11
11.413873
 21
27.481303
 31
0.0
  0
LINE
  5
37F3
100
AcDbEntity
  8
0
  6
CONTINUOUS
 62
     0
100
AcDbLine
 10
11.605159
 20
27.672589
 30
0.0
 11
12.567584
 21
28.635015
 31
0.0
  0
LINE
  5
37F4
100
AcDbEntity
  8
0
  6
CONTINUOUS
 62
     0
100
AcDbLine
 10
7.190052
 20
23.257483
 30
0.0
 11
8.361313
 21
24.428744
 31
0.0
  0
LINE
  5
37F5
100
AcDbEntity
  8
0
  6
CONTINUOUS
 62
     0
100
AcDbLine
 10
10.464823
 20
26.815096
 30
0.0
 11
12.313807
 21
28.66408
 31
0.0
  0
LINE
  5
37F6
100
AcDbEntity
  8
0
  6
CONTINUOUS
 62
     0
100
AcDbLine
 10
7.160988
 20
23.511261
 30
0.0
 11
8.191864
 21
24.542137
 31
0.0
  0
LINE
  5
37F7
100
AcDbEntity
  8
0
  6
CONTINUOUS
 62
     0
100
AcDbLine
 10
10.464823
 20
27.097939
 30
0.0
 11
12.046753
 21
28.679869
 31
0.0
  0
LINE
  5
37F8
100
AcDbEntity
  8
0
  6
CONTINUOUS
 62
     0
100
AcDbLine
 10
7.145198
 20
23.778314
 30
0.0
 11
8.270421
 21
24.903537
 31
0.0
  0
LINE
  5
37F9
100
AcDbEntity
  8
0
  6
CONTINUOUS
 62
     0
100
AcDbLine
 10
10.464823
 20
27.380782
 30
0.0
 11
11.764259
 21
28.680217
 31
0.0
  0
LINE
  5
37FA
100
AcDbEntity
  8
0
  6
CONTINUOUS
 62
     0
100
AcDbLine
 10
7.14485
 20
24.060809
 30
0.0
 11
8.412672
 21
25.328631
 31
0.0
  0
LINE
  5
37FB
100
AcDbEntity
  8
0
  6
CONTINUOUS
 62
     0
100
AcDbLine
 10
9.92464
 20
27.123441
 30
0.0
 11
11.463286
 21
28.662087
 31
0.0
  0
LINE
  5
37FC
100
AcDbEntity
  8
0
  6
CONTINUOUS
 62
     0
100
AcDbLine
 10
7.16298
 20
24.361781
 30
0.0
 11
8.701626
 21
25.900428
 31
0.0
  0
LINE
  5
37FD
100
AcDbEntity
  8
0
  6
CONTINUOUS
 62
     0
100
AcDbLine
 10
7.204078
 20
24.685722
 30
0.0
 11
11.139345
 21
28.620989
 31
0.0
  0
LINE
  5
37FE
100
AcDbEntity
  8
0
  6
CONTINUOUS
 62
     0
100
AcDbLine
 10
7.275296
 20
25.039783
 30
0.0
 11
10.785285
 21
28.549771
 31
0.0
  0
LINE
  5
37FF
100
AcDbEntity
  8
0
  6
CONTINUOUS
 62
     0
100
AcDbLine
 10
7.389393
 20
25.436722
 30
0.0
 11
10.388345
 21
28.435675
 31
0.0
  0
LINE
  5
3800
100
AcDbEntity
  8
0
  6
CONTINUOUS
 62
     0
100
AcDbLine
 10
7.574054
 20
25.904226
 30
0.0
 11
9.920841
 21
28.251013
 31
0.0
  0
LINE
  5
3801
100
AcDbEntity
  8
0
  6
CONTINUOUS
 62
     0
100
AcDbLine
 10
7.923915
 20
26.53693
 30
0.0
 11
9.288138
 21
27.901153
 31
0.0
  0
ENDBLK
  5
3803
100
AcDbEntity
  8
0
100
AcDbBlockEnd
  0
BLOCK
  5
3822
100
AcDbEntity
  8
0
100
AcDbBlockBegin
  2
*X7
 70
     1
 10
0.0
 20
0.0
 30
0.0
  3
*X7
  1

  0
LINE
  5
3805
100
AcDbEntity
  8
0
  6
CONTINUOUS
 62
     0
100
AcDbLine
 10
20.403855
 20
20.632094
 30
0.0
 11
20.470123
 21
20.698361
 31
0.0
  0
LINE
  5
3806
100
AcDbEntity
  8
0
  6
CONTINUOUS
 62
     0
100
AcDbLine
 10
20.121013
 20
20.632094
 30
0.0
 11
20.470123
 21
20.981204
 31
0.0
  0
LINE
  5
3807
100
AcDbEntity
  8
0
  6
CONTINUOUS
 62
     0
100
AcDbLine
 10
19.83817
 20
20.632094
 30
0.0
 11
20.470123
 21
21.264047
 31
0.0
  0
LINE
  5
3808
100
AcDbEntity
  8
0
  6
CONTINUOUS
 62
     0
100
AcDbLine
 10
19.555327
 20
20.632094
 30
0.0
 11
20.470123
 21
21.546889
 31
0.0
  0
LINE
  5
3809
100
AcDbEntity
  8
0
  6
CONTINUOUS
 62
     0
100
AcDbLine
 10
19.272484
 20
20.632094
 30
0.0
 11
20.470123
 21
21.829732
 31
0.0
  0
LINE
  5
380A
100
AcDbEntity
  8
0
  6
CONTINUOUS
 62
     0
100
AcDbLine
 10
18.989642
 20
20.632094
 30
0.0
 11
20.470123
 21
22.112575
 31
0.0
  0
LINE
  5
380B
100
AcDbEntity
  8
0
  6
CONTINUOUS
 62
     0
100
AcDbLine
 10
18.706799
 20
20.632094
 30
0.0
 11
20.470123
 21
22.395418
 31
0.0
  0
LINE
  5
380C
100
AcDbEntity
  8
0
  6
CONTINUOUS
 62
     0
100
AcDbLine
 10
18.674623
 20
20.88276
 30
0.0
 11
20.470123
 21
22.67826
 31
0.0
  0
LINE
  5
380D
100
AcDbEntity
  8
0
  6
CONTINUOUS
 62
     0
100
AcDbLine
 10
20.919864
 20
23.410844
 30
0.0
 11
21.087523
 21
23.578503
 31
0.0
  0
LINE
  5
380E
100
AcDbEntity
  8
0
  6
CONTINUOUS
 62
     0
100
AcDbLine
 10
18.674623
 20
21.165603
 30
0.0
 11
20.470123
 21
22.961103
 31
0.0
  0
LINE
  5
380F
100
AcDbEntity
  8
0
  6
CONTINUOUS
 62
     0
100
AcDbLine
 10
20.637021
 20
23.410844
 30
0.0
 11
21.087523
 21
23.861346
 31
0.0
  0
LINE
  5
3810
100
AcDbEntity
  8
0
  6
CONTINUOUS
 62
     0
100
AcDbLine
 10
18.674623
 20
21.448446
 30
0.0
 11
20.470123
 21
23.243946
 31
0.0
  0
LINE
  5
3811
100
AcDbEntity
  8
0
  6
CONTINUOUS
 62
     0
100
AcDbLine
 10
18.674623
 20
21.731288
 30
0.0
 11
21.087523
 21
24.144188
 31
0.0
  0
LINE
  5
3812
100
AcDbEntity
  8
0
  6
CONTINUOUS
 62
     0
100
AcDbLine
 10
18.674623
 20
22.014131
 30
0.0
 11
21.087523
 21
24.427031
 31
0.0
  0
LINE
  5
3813
100
AcDbEntity
  8
0
  6
CONTINUOUS
 62
     0
100
AcDbLine
 10
18.674623
 20
22.296974
 30
0.0
 11
20.886043
 21
24.508394
 31
0.0
  0
LINE
  5
3814
100
AcDbEntity
  8
0
  6
CONTINUOUS
 62
     0
100
AcDbLine
 10
21.02665
 20
24.931844
 30
0.0
 11
21.087523
 21
24.992717
 31
0.0
  0
LINE
  5
3815
100
AcDbEntity
  8
0
  6
CONTINUOUS
 62
     0
100
AcDbLine
 10
18.674623
 20
22.579817
 30
0.0
 11
20.6032
 21
24.508394
 31
0.0
  0
LINE
  5
3816
100
AcDbEntity
  8
0
  6
CONTINUOUS
 62
     0
100
AcDbLine
 10
20.743807
 20
24.931844
 30
0.0
 11
21.087523
 21
25.275559
 31
0.0
  0
LINE
  5
3817
100
AcDbEntity
  8
0
  6
CONTINUOUS
 62
     0
100
AcDbLine
 10
18.674623
 20
22.862659
 30
0.0
 11
20.433977
 21
24.622013
 31
0.0
  0
LINE
  5
3818
100
AcDbEntity
  8
0
  6
CONTINUOUS
 62
     0
100
AcDbLine
 10
18.674623
 20
23.145502
 30
0.0
 11
21.087523
 21
25.558402
 31
0.0
  0
LINE
  5
3819
100
AcDbEntity
  8
0
  6
CONTINUOUS
 62
     0
100
AcDbLine
 10
18.657122
 20
23.410844
 30
0.0
 11
21.081272
 21
25.834994
 31
0.0
  0
LINE
  5
381A
100
AcDbEntity
  8
0
  6
CONTINUOUS
 62
     0
100
AcDbLine
 10
18.374279
 20
23.410844
 30
0.0
 11
20.798429
 21
25.834994
 31
0.0
  0
LINE
  5
381B
100
AcDbEntity
  8
0
  6
CONTINUOUS
 62
     0
100
AcDbLine
 10
18.137323
 20
23.45673
 30
0.0
 11
20.515586
 21
25.834994
 31
0.0
  0
LINE
  5
381C
100
AcDbEntity
  8
0
  6
CONTINUOUS
 62
     0
100
AcDbLine
 10
18.137323
 20
23.739573
 30
0.0
 11
20.232744
 21
25.834994
 31
0.0
  0
LINE
  5
381D
100
AcDbEntity
  8
0
  6
CONTINUOUS
 62
     0
100
AcDbLine
 10
18.674623
 20
24.559716
 30
0.0
 11
19.949901
 21
25.834994
 31
0.0
  0
LINE
  5
381E
100
AcDbEntity
  8
0
  6
CONTINUOUS
 62
     0
100
AcDbLine
 10
18.137323
 20
24.022416
 30
0.0
 11
18.623301
 21
24.508394
 31
0.0
  0
LINE
  5
381F
100
AcDbEntity
  8
0
  6
CONTINUOUS
 62
     0
100
AcDbLine
 10
18.674623
 20
24.842558
 30
0.0
 11
19.667058
 21
25.834994
 31
0.0
  0
LINE
  5
3820
100
AcDbEntity
  8
0
  6
CONTINUOUS
 62
     0
100
AcDbLine
 10
18.137323
 20
24.305258
 30
0.0
 11
18.340458
 21
24.508394
 31
0.0
  0
LINE
  5
3821
100
AcDbEntity
  8
0
  6
CONTINUOUS
 62
     0
100
AcDbLine
 10
18.702805
 20
25.153583
 30
0.0
 11
19.356077
 21
25.806855
 31
0.0
  0
ENDBLK
  5
3823
100
AcDbEntity
  8
0
100
AcDbBlockEnd
  0
BLOCK
  5
3851
100
AcDbEntity
  8
0
100
AcDbBlockBegin
  2
*X8
 70
     1
 10
0.0
 20
0.0
 30
0.0
  3
*X8
  1

  0
LINE
  5
3825
100
AcDbEntity
  8
0
  6
CONTINUOUS
 62
     0
100
AcDbLine
 10
35.948955
 20
20.620844
 30
0.0
 11
35.986573
 21
20.658462
 31
0.0
  0
LINE
  5
3826
100
AcDbEntity
  8
0
  6
CONTINUOUS
 62
     0
100
AcDbLine
 10
35.666112
 20
20.620844
 30
0.0
 11
35.986573
 21
20.941305
 31
0.0
  0
LINE
  5
3827
100
AcDbEntity
  8
0
  6
CONTINUOUS
 62
     0
100
AcDbLine
 10
35.383269
 20
20.620844
 30
0.0
 11
35.986573
 21
21.224147
 31
0.0
  0
LINE
  5
3828
100
AcDbEntity
  8
0
  6
CONTINUOUS
 62
     0
100
AcDbLine
 10
35.100427
 20
20.620844
 30
0.0
 11
35.986573
 21
21.50699
 31
0.0
  0
LINE
  5
3829
100
AcDbEntity
  8
0
  6
CONTINUOUS
 62
     0
100
AcDbLine
 10
34.817584
 20
20.620844
 30
0.0
 11
35.986573
 21
21.789833
 31
0.0
  0
LINE
  5
382A
100
AcDbEntity
  8
0
  6
CONTINUOUS
 62
     0
100
AcDbLine
 10
34.534741
 20
20.620844
 30
0.0
 11
35.986573
 21
22.072675
 31
0.0
  0
LINE
  5
382B
100
AcDbEntity
  8
0
  6
CONTINUOUS
 62
     0
100
AcDbLine
 10
34.251898
 20
20.620844
 30
0.0
 11
35.986573
 21
22.355518
 31
0.0
  0
LINE
  5
382C
100
AcDbEntity
  8
0
  6
CONTINUOUS
 62
     0
100
AcDbLine
 10
34.191523
 20
20.843311
 30
0.0
 11
35.986573
 21
22.638361
 31
0.0
  0
LINE
  5
382D
100
AcDbEntity
  8
0
  6
CONTINUOUS
 62
     0
100
AcDbLine
 10
33.76931
 20
20.703941
 30
0.0
 11
35.986573
 21
22.921204
 31
0.0
  0
LINE
  5
382E
100
AcDbEntity
  8
0
  6
CONTINUOUS
 62
     0
100
AcDbLine
 10
33.392366
 20
20.60984
 30
0.0
 11
35.986573
 21
23.204046
 31
0.0
  0
LINE
  5
382F
100
AcDbEntity
  8
0
  6
CONTINUOUS
 62
     0
100
AcDbLine
 10
33.081013
 20
20.58133
 30
0.0
 11
35.986573
 21
23.486889
 31
0.0
  0
LINE
  5
3830
100
AcDbEntity
  8
0
  6
CONTINUOUS
 62
     0
100
AcDbLine
 10
32.788122
 20
20.571281
 30
0.0
 11
35.986573
 21
23.769732
 31
0.0
  0
LINE
  5
3831
100
AcDbEntity
  8
0
  6
CONTINUOUS
 62
     0
100
AcDbLine
 10
32.507524
 20
20.573525
 30
0.0
 11
35.986573
 21
24.052574
 31
0.0
  0
LINE
  5
3832
100
AcDbEntity
  8
0
  6
CONTINUOUS
 62
     0
100
AcDbLine
 10
34.178814
 20
22.527659
 30
0.0
 11
35.986573
 21
24.335417
 31
0.0
  0
LINE
  5
3833
100
AcDbEntity
  8
0
  6
CONTINUOUS
 62
     0
100
AcDbLine
 10
32.243083
 20
20.591928
 30
0.0
 11
33.594792
 21
21.943636
 31
0.0
  0
LINE
  5
3834
100
AcDbEntity
  8
0
  6
CONTINUOUS
 62
     0
100
AcDbLine
 10
34.181643
 20
22.81333
 30
0.0
 11
35.986573
 21
24.61826
 31
0.0
  0
LINE
  5
3835
100
AcDbEntity
  8
0
  6
CONTINUOUS
 62
     0
100
AcDbLine
 10
32.000516
 20
20.632203
 30
0.0
 11
33.247555
 21
21.879242
 31
0.0
  0
LINE
  5
3836
100
AcDbEntity
  8
0
  6
CONTINUOUS
 62
     0
100
AcDbLine
 10
34.100287
 20
23.014817
 30
0.0
 11
35.986573
 21
24.901103
 31
0.0
  0
LINE
  5
3837
100
AcDbEntity
  8
0
  6
CONTINUOUS
 62
     0
100
AcDbLine
 10
31.777522
 20
20.692051
 30
0.0
 11
32.988078
 21
21.902608
 31
0.0
  0
LINE
  5
3838
100
AcDbEntity
  8
0
  6
CONTINUOUS
 62
     0
100
AcDbLine
 10
33.969461
 20
23.166833
 30
0.0
 11
35.986573
 21
25.183945
 31
0.0
  0
LINE
  5
3839
100
AcDbEntity
  8
0
  6
CONTINUOUS
 62
     0
100
AcDbLine
 10
31.577357
 20
20.774729
 30
0.0
 11
32.769161
 21
21.966533
 31
0.0
  0
LINE
  5
383A
100
AcDbEntity
  8
0
  6
CONTINUOUS
 62
     0
100
AcDbLine
 10
33.798691
 20
23.278906
 30
0.0
 11
35.986573
 21
25.466788
 31
0.0
  0
LINE
  5
383B
100
AcDbEntity
  8
0
  6
CONTINUOUS
 62
     0
100
AcDbLine
 10
31.394628
 20
20.874843
 30
0.0
 11
32.578781
 21
22.058996
 31
0.0
  0
LINE
  5
383C
100
AcDbEntity
  8
0
  6
CONTINUOUS
 62
     0
100
AcDbLine
 10
33.595067
 20
23.358124
 30
0.0
 11
35.986573
 21
25.749631
 31
0.0
  0
LINE
  5
383D
100
AcDbEntity
  8
0
  6
CONTINUOUS
 62
     0
100
AcDbLine
 10
31.223131
 20
20.986189
 30
0.0
 11
32.424733
 21
22.187791
 31
0.0
  0
LINE
  5
383E
100
AcDbEntity
  8
0
  6
CONTINUOUS
 62
     0
100
AcDbLine
 10
33.373037
 20
23.418937
 30
0.0
 11
35.777843
 21
25.823744
 31
0.0
  0
LINE
  5
383F
100
AcDbEntity
  8
0
  6
CONTINUOUS
 62
     0
100
AcDbLine
 10
31.067037
 20
21.112937
 30
0.0
 11
32.307803
 21
22.353704
 31
0.0
  0
LINE
  5
3840
100
AcDbEntity
  8
0
  6
CONTINUOUS
 62
     0
100
AcDbLine
 10
33.115995
 20
23.444738
 30
0.0
 11
34.077945
 21
24.406688
 31
0.0
  0
LINE
  5
3841
100
AcDbEntity
  8
0
  6
CONTINUOUS
 62
     0
100
AcDbLine
 10
34.191523
 20
24.520266
 30
0.0
 11
35.495
 21
25.823744
 31
0.0
  0
LINE
  5
3842
100
AcDbEntity
  8
0
  6
CONTINUOUS
 62
     0
100
AcDbLine
 10
30.922891
 20
21.251634
 30
0.0
 11
32.233585
 21
22.562329
 31
0.0
  0
LINE
  5
3843
100
AcDbEntity
  8
0
  6
CONTINUOUS
 62
     0
100
AcDbLine
 10
32.748174
 20
23.35976
 30
0.0
 11
33.885911
 21
24.497497
 31
0.0
  0
LINE
  5
3844
100
AcDbEntity
  8
0
  6
CONTINUOUS
 62
     0
100
AcDbLine
 10
34.191523
 20
24.803109
 30
0.0
 11
35.212158
 21
25.823744
 31
0.0
  0
LINE
  5
3845
100
AcDbEntity
  8
0
  6
CONTINUOUS
 62
     0
100
AcDbLine
 10
30.795736
 20
21.407322
 30
0.0
 11
32.266041
 21
22.877627
 31
0.0
  0
LINE
  5
3846
100
AcDbEntity
  8
0
  6
CONTINUOUS
 62
     0
100
AcDbLine
 10
34.191523
 20
25.085952
 30
0.0
 11
34.929315
 21
25.823744
 31
0.0
  0
LINE
  5
3847
100
AcDbEntity
  8
0
  6
CONTINUOUS
 62
     0
100
AcDbLine
 10
30.684862
 20
21.579291
 30
0.0
 11
33.65908
 21
24.553509
 31
0.0
  0
LINE
  5
3848
100
AcDbEntity
  8
0
  6
CONTINUOUS
 62
     0
100
AcDbLine
 10
34.191523
 20
25.368794
 30
0.0
 11
34.646472
 21
25.823744
 31
0.0
  0
LINE
  5
3849
100
AcDbEntity
  8
0
  6
CONTINUOUS
 62
     0
100
AcDbLine
 10
30.591179
 20
21.76845
 30
0.0
 11
33.418127
 21
24.595399
 31
0.0
  0
LINE
  5
384A
100
AcDbEntity
  8
0
  6
CONTINUOUS
 62
     0
100
AcDbLine
 10
34.191523
 20
25.651637
 30
0.0
 11
34.363629
 21
25.823744
 31
0.0
  0
LINE
  5
384B
100
AcDbEntity
  8
0
  6
CONTINUOUS
 62
     0
100
AcDbLine
 10
30.51714
 20
21.977254
 30
0.0
 11
33.172249
 21
24.632364
 31
0.0
  0
LINE
  5
384C
100
AcDbEntity
  8
0
  6
CONTINUOUS
 62
     0
100
AcDbLine
 10
30.459126
 20
22.202083
 30
0.0
 11
32.905926
 21
24.648883
 31
0.0
  0
LINE
  5
384D
100
AcDbEntity
  8
0
  6
CONTINUOUS
 62
     0
100
AcDbLine
 10
30.423694
 20
22.449493
 30
0.0
 11
32.621475
 21
24.647275
 31
0.0
  0
LINE
  5
384E
100
AcDbEntity
  8
0
  6
CONTINUOUS
 62
     0
100
AcDbLine
 10
30.424318
 20
22.732961
 30
0.0
 11
32.321114
 21
24.629756
 31
0.0
  0
LINE
  5
384F
100
AcDbEntity
  8
0
  6
CONTINUOUS
 62
     0
100
AcDbLine
 10
30.48456
 20
23.076045
 30
0.0
 11
31.978931
 21
24.570416
 31
0.0
  0
LINE
  5
3850
100
AcDbEntity
  8
0
  6
CONTINUOUS
 62
     0
100
AcDbLine
 10
30.667096
 20
23.541423
 30
0.0
 11
31.516241
 21
24.390569
 31
0.0
  0
ENDBLK
  5
3852
100
AcDbEntity
  8
0
100
AcDbBlockEnd
  0
BLOCK
  5
387B
100
AcDbEntity
  8
0
100
AcDbBlockBegin
  2
*X9
 70
     1
 10
0.0
 20
0.0
 30
0.0
  3
*X9
  1

  0
LINE
  5
3854
100
AcDbEntity
  8
0
  6
CONTINUOUS
 62
     0
100
AcDbLine
 10
29.737665
 20
20.632094
 30
0.0
 11
29.892223
 21
20.786652
 31
0.0
  0
LINE
  5
3855
100
AcDbEntity
  8
0
  6
CONTINUOUS
 62
     0
100
AcDbLine
 10
29.454822
 20
20.632094
 30
0.0
 11
29.892223
 21
21.069494
 31
0.0
  0
LINE
  5
3856
100
AcDbEntity
  8
0
  6
CONTINUOUS
 62
     0
100
AcDbLine
 10
29.171979
 20
20.632094
 30
0.0
 11
29.892223
 21
21.352337
 31
0.0
  0
LINE
  5
3857
100
AcDbEntity
  8
0
  6
CONTINUOUS
 62
     0
100
AcDbLine
 10
28.889137
 20
20.632094
 30
0.0
 11
29.892223
 21
21.63518
 31
0.0
  0
LINE
  5
3858
100
AcDbEntity
  8
0
  6
CONTINUOUS
 62
     0
100
AcDbLine
 10
28.606294
 20
20.632094
 30
0.0
 11
29.892223
 21
21.918023
 31
0.0
  0
LINE
  5
3859
100
AcDbEntity
  8
0
  6
CONTINUOUS
 62
     0
100
AcDbLine
 10
28.323451
 20
20.632094
 30
0.0
 11
29.892223
 21
22.200865
 31
0.0
  0
LINE
  5
385A
100
AcDbEntity
  8
0
  6
CONTINUOUS
 62
     0
100
AcDbLine
 10
28.108423
 20
20.699908
 30
0.0
 11
29.892223
 21
22.483708
 31
0.0
  0
LINE
  5
385B
100
AcDbEntity
  8
0
  6
CONTINUOUS
 62
     0
100
AcDbLine
 10
28.108423
 20
20.982751
 30
0.0
 11
29.892223
 21
22.766551
 31
0.0
  0
LINE
  5
385C
100
AcDbEntity
  8
0
  6
CONTINUOUS
 62
     0
100
AcDbLine
 10
28.108423
 20
21.265593
 30
0.0
 11
29.892223
 21
23.049393
 31
0.0
  0
LINE
  5
385D
100
AcDbEntity
  8
0
  6
CONTINUOUS
 62
     0
100
AcDbLine
 10
28.108423
 20
21.548436
 30
0.0
 11
29.891843
 21
23.331856
 31
0.0
  0
LINE
  5
385E
100
AcDbEntity
  8
0
  6
CONTINUOUS
 62
     0
100
AcDbLine
 10
28.108423
 20
21.831279
 30
0.0
 11
29.853268
 21
23.576124
 31
0.0
  0
LINE
  5
385F
100
AcDbEntity
  8
0
  6
CONTINUOUS
 62
     0
100
AcDbLine
 10
28.108423
 20
22.114122
 30
0.0
 11
29.777815
 21
23.783513
 31
0.0
  0
LINE
  5
3860
100
AcDbEntity
  8
0
  6
CONTINUOUS
 62
     0
100
AcDbLine
 10
28.108423
 20
22.396964
 30
0.0
 11
29.67413
 21
23.962671
 31
0.0
  0
LINE
  5
3861
100
AcDbEntity
  8
0
  6
CONTINUOUS
 62
     0
100
AcDbLine
 10
28.084087
 20
22.655471
 30
0.0
 11
29.54593
 21
24.117314
 31
0.0
  0
LINE
  5
3862
100
AcDbEntity
  8
0
  6
CONTINUOUS
 62
     0
100
AcDbLine
 10
26.06071
 20
20.632094
 30
0.0
 11
26.289973
 21
20.861357
 31
0.0
  0
LINE
  5
3863
100
AcDbEntity
  8
0
  6
CONTINUOUS
 62
     0
100
AcDbLine
 10
27.9938
 20
22.848027
 30
0.0
 11
29.394359
 21
24.248585
 31
0.0
  0
LINE
  5
3864
100
AcDbEntity
  8
0
  6
CONTINUOUS
 62
     0
100
AcDbLine
 10
25.777867
 20
20.632094
 30
0.0
 11
26.289973
 21
21.1442
 31
0.0
  0
LINE
  5
3865
100
AcDbEntity
  8
0
  6
CONTINUOUS
 62
     0
100
AcDbLine
 10
27.856431
 20
22.993501
 30
0.0
 11
29.218545
 21
24.355614
 31
0.0
  0
LINE
  5
3866
100
AcDbEntity
  8
0
  6
CONTINUOUS
 62
     0
100
AcDbLine
 10
25.495024
 20
20.632094
 30
0.0
 11
26.289973
 21
21.427042
 31
0.0
  0
LINE
  5
3867
100
AcDbEntity
  8
0
  6
CONTINUOUS
 62
     0
100
AcDbLine
 10
27.673361
 20
23.093274
 30
0.0
 11
29.008732
 21
24.428645
 31
0.0
  0
LINE
  5
3868
100
AcDbEntity
  8
0
  6
CONTINUOUS
 62
     0
100
AcDbLine
 10
25.212181
 20
20.632094
 30
0.0
 11
26.289973
 21
21.709885
 31
0.0
  0
LINE
  5
3869
100
AcDbEntity
  8
0
  6
CONTINUOUS
 62
     0
100
AcDbLine
 10
27.426682
 20
23.129436
 30
0.0
 11
28.781111
 21
24.483866
 31
0.0
  0
LINE
  5
386A
100
AcDbEntity
  8
0
  6
CONTINUOUS
 62
     0
100
AcDbLine
 10
24.929339
 20
20.632094
 30
0.0
 11
26.289973
 21
21.992728
 31
0.0
  0
LINE
  5
386B
100
AcDbEntity
  8
0
  6
CONTINUOUS
 62
     0
100
AcDbLine
 10
27.093379
 20
23.078976
 30
0.0
 11
28.539658
 21
24.525255
 31
0.0
  0
LINE
  5
386C
100
AcDbEntity
  8
0
  6
CONTINUOUS
 62
     0
100
AcDbLine
 10
24.646496
 20
20.632094
 30
0.0
 11
26.289973
 21
22.275571
 31
0.0
  0
LINE
  5
386D
100
AcDbEntity
  8
0
  6
CONTINUOUS
 62
     0
100
AcDbLine
 10
24.494923
 20
20.763363
 30
0.0
 11
28.282141
 21
24.550582
 31
0.0
  0
LINE
  5
386E
100
AcDbEntity
  8
0
  6
CONTINUOUS
 62
     0
100
AcDbLine
 10
24.494923
 20
21.046206
 30
0.0
 11
28.005321
 21
24.556604
 31
0.0
  0
LINE
  5
386F
100
AcDbEntity
  8
0
  6
CONTINUOUS
 62
     0
100
AcDbLine
 10
24.494923
 20
21.329049
 30
0.0
 11
27.704195
 21
24.538321
 31
0.0
  0
LINE
  5
3870
100
AcDbEntity
  8
0
  6
CONTINUOUS
 62
     0
100
AcDbLine
 10
24.494923
 20
21.611891
 30
0.0
 11
27.370303
 21
24.487272
 31
0.0
  0
LINE
  5
3871
100
AcDbEntity
  8
0
  6
CONTINUOUS
 62
     0
100
AcDbLine
 10
24.494923
 20
21.894734
 30
0.0
 11
26.987035
 21
24.386846
 31
0.0
  0
LINE
  5
3872
100
AcDbEntity
  8
0
  6
CONTINUOUS
 62
     0
100
AcDbLine
 10
24.494923
 20
22.177577
 30
0.0
 11
26.510566
 21
24.19322
 31
0.0
  0
LINE
  5
3873
100
AcDbEntity
  8
0
  6
CONTINUOUS
 62
     0
100
AcDbLine
 10
24.494923
 20
22.46042
 30
0.0
 11
26.289973
 21
24.25547
 31
0.0
  0
LINE
  5
3874
100
AcDbEntity
  8
0
  6
CONTINUOUS
 62
     0
100
AcDbLine
 10
24.494923
 20
22.743262
 30
0.0
 11
26.260054
 21
24.508394
 31
0.0
  0
LINE
  5
3875
100
AcDbEntity
  8
0
  6
CONTINUOUS
 62
     0
100
AcDbLine
 10
24.494923
 20
23.026105
 30
0.0
 11
25.977212
 21
24.508394
 31
0.0
  0
LINE
  5
3876
100
AcDbEntity
  8
0
  6
CONTINUOUS
 62
     0
100
AcDbLine
 10
24.494923
 20
23.308948
 30
0.0
 11
25.694369
 21
24.508394
 31
0.0
  0
LINE
  5
3877
100
AcDbEntity
  8
0
  6
CONTINUOUS
 62
     0
100
AcDbLine
 10
24.494923
 20
23.59179
 30
0.0
 11
25.411526
 21
24.508394
 31
0.0
  0
LINE
  5
3878
100
AcDbEntity
  8
0
  6
CONTINUOUS
 62
     0
100
AcDbLine
 10
24.494923
 20
23.874633
 30
0.0
 11
25.128683
 21
24.508394
 31
0.0
  0
LINE
  5
3879
100
AcDbEntity
  8
0
  6
CONTINUOUS
 62
     0
100
AcDbLine
 10
24.494923
 20
24.157476
 30
0.0
 11
24.845841
 21
24.508394
 31
0.0
  0
LINE
  5
387A
100
AcDbEntity
  8
0
  6
CONTINUOUS
 62
     0
100
AcDbLine
 10
24.494923
 20
24.440319
 30
0.0
 11
24.562998
 21
24.508394
 31
0.0
  0
ENDBLK
  5
387C
100
AcDbEntity
  8
0
100
AcDbBlockEnd
  0
BLOCK
  5
389E
100
AcDbEntity
  8
0
100
AcDbBlockBegin
  2
*X10
 70
     1
 10
0.0
 20
0.0
 30
0.0
  3
*X10
  1

  0
LINE
  5
387E
100
AcDbEntity
  8
0
  6
CONTINUOUS
 62
     0
100
AcDbLine
 10
47.249714
 20
22.587794
 30
0.0
 11
47.287957
 21
22.626036
 31
0.0
  0
LINE
  5
387F
100
AcDbEntity
  8
0
  6
CONTINUOUS
 62
     0
100
AcDbLine
 10
46.966872
 20
22.587794
 30
0.0
 11
47.307662
 21
22.928584
 31
0.0
  0
LINE
  5
3880
100
AcDbEntity
  8
0
  6
CONTINUOUS
 62
     0
100
AcDbLine
 10
46.684029
 20
22.587794
 30
0.0
 11
47.296115
 21
23.19988
 31
0.0
  0
LINE
  5
3881
100
AcDbEntity
  8
0
  6
CONTINUOUS
 62
     0
100
AcDbLine
 10
46.401186
 20
22.587794
 30
0.0
 11
47.261533
 21
23.448141
 31
0.0
  0
LINE
  5
3882
100
AcDbEntity
  8
0
  6
CONTINUOUS
 62
     0
100
AcDbLine
 10
44.445486
 20
20.632094
 30
0.0
 11
44.459623
 21
20.64623
 31
0.0
  0
LINE
  5
3883
100
AcDbEntity
  8
0
  6
CONTINUOUS
 62
     0
100
AcDbLine
 10
46.118343
 20
22.587794
 30
0.0
 11
47.209214
 21
23.678665
 31
0.0
  0
LINE
  5
3884
100
AcDbEntity
  8
0
  6
CONTINUOUS
 62
     0
100
AcDbLine
 10
44.162643
 20
20.632094
 30
0.0
 11
44.459623
 21
20.929073
 31
0.0
  0
LINE
  5
3885
100
AcDbEntity
  8
0
  6
CONTINUOUS
 62
     0
100
AcDbLine
 10
45.835501
 20
22.587794
 30
0.0
 11
47.132011
 21
23.884304
 31
0.0
  0
LINE
  5
3886
100
AcDbEntity
  8
0
  6
CONTINUOUS
 62
     0
100
AcDbLine
 10
43.879801
 20
20.632094
 30
0.0
 11
44.459623
 21
21.211916
 31
0.0
  0
LINE
  5
3887
100
AcDbEntity
  8
0
  6
CONTINUOUS
 62
     0
100
AcDbLine
 10
45.552658
 20
22.587794
 30
0.0
 11
47.029303
 21
24.064438
 31
0.0
  0
LINE
  5
3888
100
AcDbEntity
  8
0
  6
CONTINUOUS
 62
     0
100
AcDbLine
 10
43.596958
 20
20.632094
 30
0.0
 11
44.459623
 21
21.494759
 31
0.0
  0
LINE
  5
3889
100
AcDbEntity
  8
0
  6
CONTINUOUS
 62
     0
100
AcDbLine
 10
45.454573
 20
22.772551
 30
0.0
 11
46.900895
 21
24.218874
 31
0.0
  0
LINE
  5
388A
100
AcDbEntity
  8
0
  6
CONTINUOUS
 62
     0
100
AcDbLine
 10
43.314115
 20
20.632094
 30
0.0
 11
44.459623
 21
21.777601
 31
0.0
  0
LINE
  5
388B
100
AcDbEntity
  8
0
  6
CONTINUOUS
 62
     0
100
AcDbLine
 10
45.418199
 20
23.01902
 30
0.0
 11
46.74471
 21
24.345531
 31
0.0
  0
LINE
  5
388C
100
AcDbEntity
  8
0
  6
CONTINUOUS
 62
     0
100
AcDbLine
 10
43.031273
 20
20.632094
 30
0.0
 11
44.459623
 21
22.060444
 31
0.0
  0
LINE
  5
388D
100
AcDbEntity
  8
0
  6
CONTINUOUS
 62
     0
100
AcDbLine
 10
45.294614
 20
23.178278
 30
0.0
 11
46.558784
 21
24.442448
 31
0.0
  0
LINE
  5
388E
100
AcDbEntity
  8
0
  6
CONTINUOUS
 62
     0
100
AcDbLine
 10
42.74843
 20
20.632094
 30
0.0
 11
44.459623
 21
22.343287
 31
0.0
  0
LINE
  5
388F
100
AcDbEntity
  8
0
  6
CONTINUOUS
 62
     0
100
AcDbLine
 10
45.102547
 20
23.269053
 30
0.0
 11
46.346357
 21
24.512863
 31
0.0
  0
LINE
  5
3890
100
AcDbEntity
  8
0
  6
CONTINUOUS
 62
     0
100
AcDbLine
 10
42.732973
 20
20.899479
 30
0.0
 11
44.459623
 21
22.626129
 31
0.0
  0
LINE
  5
3891
100
AcDbEntity
  8
0
  6
CONTINUOUS
 62
     0
100
AcDbLine
 10
44.797622
 20
23.246971
 30
0.0
 11
46.115166
 21
24.564515
 31
0.0
  0
LINE
  5
3892
100
AcDbEntity
  8
0
  6
CONTINUOUS
 62
     0
100
AcDbLine
 10
42.732973
 20
21.182322
 30
0.0
 11
44.492506
 21
22.941855
 31
0.0
  0
LINE
  5
3893
100
AcDbEntity
  8
0
  6
CONTINUOUS
 62
     0
100
AcDbLine
 10
42.732973
 20
21.465165
 30
0.0
 11
45.857715
 21
24.589906
 31
0.0
  0
LINE
  5
3894
100
AcDbEntity
  8
0
  6
CONTINUOUS
 62
     0
100
AcDbLine
 10
42.732973
 20
21.748008
 30
0.0
 11
45.563093
 21
24.578127
 31
0.0
  0
LINE
  5
3895
100
AcDbEntity
  8
0
  6
CONTINUOUS
 62
     0
100
AcDbLine
 10
42.732973
 20
22.03085
 30
0.0
 11
45.222277
 21
24.520155
 31
0.0
  0
LINE
  5
3896
100
AcDbEntity
  8
0
  6
CONTINUOUS
 62
     0
100
AcDbLine
 10
42.732973
 20
22.313693
 30
0.0
 11
44.777089
 21
24.357809
 31
0.0
  0
LINE
  5
3897
100
AcDbEntity
  8
0
  6
CONTINUOUS
 62
     0
100
AcDbLine
 10
42.732973
 20
22.596536
 30
0.0
 11
44.459623
 21
24.323186
 31
0.0
  0
LINE
  5
3898
100
AcDbEntity
  8
0
  6
CONTINUOUS
 62
     0
100
AcDbLine
 10
42.732973
 20
22.879378
 30
0.0
 11
44.361988
 21
24.508394
 31
0.0
  0
LINE
  5
3899
100
AcDbEntity
  8
0
  6
CONTINUOUS
 62
     0
100
AcDbLine
 10
42.732973
 20
23.162221
 30
0.0
 11
44.079145
 21
24.508394
 31
0.0
  0
LINE
  5
389A
100
AcDbEntity
  8
0
  6
CONTINUOUS
 62
     0
100
AcDbLine
 10
42.732973
 20
23.445064
 30
0.0
 11
43.796303
 21
24.508394
 31
0.0
  0
LINE
  5
389B
100
AcDbEntity
  8
0
  6
CONTINUOUS
 62
     0
100
AcDbLine
 10
42.732973
 20
23.727907
 30
0.0
 11
43.51346
 21
24.508394
 31
0.0
  0
LINE
  5
389C
100
AcDbEntity
  8
0
  6
CONTINUOUS
 62
     0
100
AcDbLine
 10
42.732973
 20
24.010749
 30
0.0
 11
43.230617
 21
24.508394
 31
0.0
  0
LINE
  5
389D
100
AcDbEntity
  8
0
  6
CONTINUOUS
 62
     0
100
AcDbLine
 10
42.732973
 20
24.293592
 30
0.0
 11
42.947775
 21
24.508394
 31
0.0
  0
ENDBLK
  5
389F
100
AcDbEntity
  8
0
100
AcDbBlockEnd
  0
BLOCK
  5
3B36
100
AcDbEntity
  8
0
100
AcDbBlockBegin
  2
*X11
 70
     1
 10
0.0
 20
0.0
 30
0.0
  3
*X11
  1

  0
LINE
  5
38C0
100
AcDbEntity
  8
0
  6
CONTINUOUS
 62
     0
100
AcDbLine
 10
178.0625
 20
173.98969
 30
0.0
 11
178.0225
 21
174.058972
 31
0.0
  0
LINE
  5
38C1
100
AcDbEntity
  8
0
  6
CONTINUOUS
 62
     0
100
AcDbLine
 10
176.0625
 20
173.98969
 30
0.0
 11
176.0225
 21
174.058972
 31
0.0
  0
LINE
  5
38C2
100
AcDbEntity
  8
0
  6
CONTINUOUS
 62
     0
100
AcDbLine
 10
177.0625
 20
172.25764
 30
0.0
 11
177.0225
 21
172.326922
 31
0.0
  0
LINE
  5
38C3
100
AcDbEntity
  8
0
  6
CONTINUOUS
 62
     0
100
AcDbLine
 10
178.0625
 20
170.525589
 30
0.0
 11
178.0225
 21
170.594871
 31
0.0
  0
LINE
  5
38C4
100
AcDbEntity
  8
0
  6
CONTINUOUS
 62
     0
100
AcDbLine
 10
174.0625
 20
173.98969
 30
0.0
 11
174.0225
 21
174.058972
 31
0.0
  0
LINE
  5
38C5
100
AcDbEntity
  8
0
  6
CONTINUOUS
 62
     0
100
AcDbLine
 10
175.0625
 20
172.25764
 30
0.0
 11
175.0225
 21
172.326922
 31
0.0
  0
LINE
  5
38C6
100
AcDbEntity
  8
0
  6
CONTINUOUS
 62
     0
100
AcDbLine
 10
176.0625
 20
170.525589
 30
0.0
 11
176.0225
 21
170.594871
 31
0.0
  0
LINE
  5
38C7
100
AcDbEntity
  8
0
  6
CONTINUOUS
 62
     0
100
AcDbLine
 10
177.0625
 20
168.793538
 30
0.0
 11
177.0225
 21
168.86282
 31
0.0
  0
LINE
  5
38C8
100
AcDbEntity
  8
0
  6
CONTINUOUS
 62
     0
100
AcDbLine
 10
178.0625
 20
167.061487
 30
0.0
 11
178.0225
 21
167.130769
 31
0.0
  0
LINE
  5
38C9
100
AcDbEntity
  8
0
  6
CONTINUOUS
 62
     0
100
AcDbLine
 10
172.0625
 20
173.98969
 30
0.0
 11
172.0225
 21
174.058972
 31
0.0
  0
LINE
  5
38CA
100
AcDbEntity
  8
0
  6
CONTINUOUS
 62
     0
100
AcDbLine
 10
173.0625
 20
172.25764
 30
0.0
 11
173.0225
 21
172.326922
 31
0.0
  0
LINE
  5
38CB
100
AcDbEntity
  8
0
  6
CONTINUOUS
 62
     0
100
AcDbLine
 10
174.0625
 20
170.525589
 30
0.0
 11
174.0225
 21
170.594871
 31
0.0
  0
LINE
  5
38CC
100
AcDbEntity
  8
0
  6
CONTINUOUS
 62
     0
100
AcDbLine
 10
175.0625
 20
168.793538
 30
0.0
 11
175.0225
 21
168.86282
 31
0.0
  0
LINE
  5
38CD
100
AcDbEntity
  8
0
  6
CONTINUOUS
 62
     0
100
AcDbLine
 10
176.0625
 20
167.061487
 30
0.0
 11
176.0225
 21
167.130769
 31
0.0
  0
LINE
  5
38CE
100
AcDbEntity
  8
0
  6
CONTINUOUS
 62
     0
100
AcDbLine
 10
177.0625
 20
165.329436
 30
0.0
 11
177.0225
 21
165.398718
 31
0.0
  0
LINE
  5
38CF
100
AcDbEntity
  8
0
  6
CONTINUOUS
 62
     0
100
AcDbLine
 10
178.0625
 20
163.597386
 30
0.0
 11
178.0225
 21
163.666668
 31
0.0
  0
LINE
  5
38D0
100
AcDbEntity
  8
0
  6
CONTINUOUS
 62
     0
100
AcDbLine
 10
170.0625
 20
173.98969
 30
0.0
 11
170.0225
 21
174.058972
 31
0.0
  0
LINE
  5
38D1
100
AcDbEntity
  8
0
  6
CONTINUOUS
 62
     0
100
AcDbLine
 10
171.0625
 20
172.25764
 30
0.0
 11
171.0225
 21
172.326922
 31
0.0
  0
LINE
  5
38D2
100
AcDbEntity
  8
0
  6
CONTINUOUS
 62
     0
100
AcDbLine
 10
172.0625
 20
170.525589
 30
0.0
 11
172.0225
 21
170.594871
 31
0.0
  0
LINE
  5
38D3
100
AcDbEntity
  8
0
  6
CONTINUOUS
 62
     0
100
AcDbLine
 10
173.0625
 20
168.793538
 30
0.0
 11
173.0225
 21
168.86282
 31
0.0
  0
LINE
  5
38D4
100
AcDbEntity
  8
0
  6
CONTINUOUS
 62
     0
100
AcDbLine
 10
174.0625
 20
167.061487
 30
0.0
 11
174.0225
 21
167.130769
 31
0.0
  0
LINE
  5
38D5
100
AcDbEntity
  8
0
  6
CONTINUOUS
 62
     0
100
AcDbLine
 10
175.0625
 20
165.329436
 30
0.0
 11
175.0225
 21
165.398718
 31
0.0
  0
LINE
  5
38D6
100
AcDbEntity
  8
0
  6
CONTINUOUS
 62
     0
100
AcDbLine
 10
176.0625
 20
163.597386
 30
0.0
 11
176.0225
 21
163.666668
 31
0.0
  0
LINE
  5
38D7
100
AcDbEntity
  8
0
  6
CONTINUOUS
 62
     0
100
AcDbLine
 10
177.0625
 20
161.865335
 30
0.0
 11
177.0225
 21
161.934617
 31
0.0
  0
LINE
  5
38D8
100
AcDbEntity
  8
0
  6
CONTINUOUS
 62
     0
100
AcDbLine
 10
178.0625
 20
160.133284
 30
0.0
 11
178.0225
 21
160.202566
 31
0.0
  0
LINE
  5
38D9
100
AcDbEntity
  8
0
  6
CONTINUOUS
 62
     0
100
AcDbLine
 10
168.0625
 20
173.98969
 30
0.0
 11
168.0225
 21
174.058972
 31
0.0
  0
LINE
  5
38DA
100
AcDbEntity
  8
0
  6
CONTINUOUS
 62
     0
100
AcDbLine
 10
169.0625
 20
172.25764
 30
0.0
 11
169.0225
 21
172.326922
 31
0.0
  0
LINE
  5
38DB
100
AcDbEntity
  8
0
  6
CONTINUOUS
 62
     0
100
AcDbLine
 10
170.0625
 20
170.525589
 30
0.0
 11
170.0225
 21
170.594871
 31
0.0
  0
LINE
  5
38DC
100
AcDbEntity
  8
0
  6
CONTINUOUS
 62
     0
100
AcDbLine
 10
171.0625
 20
168.793538
 30
0.0
 11
171.0225
 21
168.86282
 31
0.0
  0
LINE
  5
38DD
100
AcDbEntity
  8
0
  6
CONTINUOUS
 62
     0
100
AcDbLine
 10
172.0625
 20
167.061487
 30
0.0
 11
172.0225
 21
167.130769
 31
0.0
  0
LINE
  5
38DE
100
AcDbEntity
  8
0
  6
CONTINUOUS
 62
     0
100
AcDbLine
 10
173.0625
 20
165.329436
 30
0.0
 11
173.0225
 21
165.398718
 31
0.0
  0
LINE
  5
38DF
100
AcDbEntity
  8
0
  6
CONTINUOUS
 62
     0
100
AcDbLine
 10
174.0625
 20
163.597386
 30
0.0
 11
174.0225
 21
163.666668
 31
0.0
  0
LINE
  5
38E0
100
AcDbEntity
  8
0
  6
CONTINUOUS
 62
     0
100
AcDbLine
 10
175.0625
 20
161.865335
 30
0.0
 11
175.0225
 21
161.934617
 31
0.0
  0
LINE
  5
38E1
100
AcDbEntity
  8
0
  6
CONTINUOUS
 62
     0
100
AcDbLine
 10
176.0625
 20
160.133284
 30
0.0
 11
176.0225
 21
160.202566
 31
0.0
  0
LINE
  5
38E2
100
AcDbEntity
  8
0
  6
CONTINUOUS
 62
     0
100
AcDbLine
 10
177.0625
 20
158.401233
 30
0.0
 11
177.0225
 21
158.470515
 31
0.0
  0
LINE
  5
38E3
100
AcDbEntity
  8
0
  6
CONTINUOUS
 62
     0
100
AcDbLine
 10
178.0625
 20
156.669182
 30
0.0
 11
178.0225
 21
156.738464
 31
0.0
  0
LINE
  5
38E4
100
AcDbEntity
  8
0
  6
CONTINUOUS
 62
     0
100
AcDbLine
 10
166.0625
 20
173.98969
 30
0.0
 11
166.0225
 21
174.058972
 31
0.0
  0
LINE
  5
38E5
100
AcDbEntity
  8
0
  6
CONTINUOUS
 62
     0
100
AcDbLine
 10
167.0625
 20
172.25764
 30
0.0
 11
167.0225
 21
172.326922
 31
0.0
  0
LINE
  5
38E6
100
AcDbEntity
  8
0
  6
CONTINUOUS
 62
     0
100
AcDbLine
 10
168.0625
 20
170.525589
 30
0.0
 11
168.0225
 21
170.594871
 31
0.0
  0
LINE
  5
38E7
100
AcDbEntity
  8
0
  6
CONTINUOUS
 62
     0
100
AcDbLine
 10
169.0625
 20
168.793538
 30
0.0
 11
169.0225
 21
168.86282
 31
0.0
  0
LINE
  5
38E8
100
AcDbEntity
  8
0
  6
CONTINUOUS
 62
     0
100
AcDbLine
 10
170.0625
 20
167.061487
 30
0.0
 11
170.0225
 21
167.130769
 31
0.0
  0
LINE
  5
38E9
100
AcDbEntity
  8
0
  6
CONTINUOUS
 62
     0
100
AcDbLine
 10
171.0625
 20
165.329436
 30
0.0
 11
171.0225
 21
165.398718
 31
0.0
  0
LINE
  5
38EA
100
AcDbEntity
  8
0
  6
CONTINUOUS
 62
     0
100
AcDbLine
 10
172.0625
 20
163.597386
 30
0.0
 11
172.0225
 21
163.666668
 31
0.0
  0
LINE
  5
38EB
100
AcDbEntity
  8
0
  6
CONTINUOUS
 62
     0
100
AcDbLine
 10
173.0625
 20
161.865335
 30
0.0
 11
173.0225
 21
161.934617
 31
0.0
  0
LINE
  5
38EC
100
AcDbEntity
  8
0
  6
CONTINUOUS
 62
     0
100
AcDbLine
 10
174.0625
 20
160.133284
 30
0.0
 11
174.0225
 21
160.202566
 31
0.0
  0
LINE
  5
38ED
100
AcDbEntity
  8
0
  6
CONTINUOUS
 62
     0
100
AcDbLine
 10
175.0625
 20
158.401233
 30
0.0
 11
175.0225
 21
158.470515
 31
0.0
  0
LINE
  5
38EE
100
AcDbEntity
  8
0
  6
CONTINUOUS
 62
     0
100
AcDbLine
 10
176.0625
 20
156.669182
 30
0.0
 11
176.0225
 21
156.738464
 31
0.0
  0
LINE
  5
38EF
100
AcDbEntity
  8
0
  6
CONTINUOUS
 62
     0
100
AcDbLine
 10
177.0625
 20
154.937131
 30
0.0
 11
177.0225
 21
155.006414
 31
0.0
  0
LINE
  5
38F0
100
AcDbEntity
  8
0
  6
CONTINUOUS
 62
     0
100
AcDbLine
 10
178.0625
 20
153.205081
 30
0.0
 11
178.0225
 21
153.274363
 31
0.0
  0
LINE
  5
38F1
100
AcDbEntity
  8
0
  6
CONTINUOUS
 62
     0
100
AcDbLine
 10
165.0625
 20
172.25764
 30
0.0
 11
165.0225
 21
172.326922
 31
0.0
  0
LINE
  5
38F2
100
AcDbEntity
  8
0
  6
CONTINUOUS
 62
     0
100
AcDbLine
 10
166.0625
 20
170.525589
 30
0.0
 11
166.0225
 21
170.594871
 31
0.0
  0
LINE
  5
38F3
100
AcDbEntity
  8
0
  6
CONTINUOUS
 62
     0
100
AcDbLine
 10
167.0625
 20
168.793538
 30
0.0
 11
167.0225
 21
168.86282
 31
0.0
  0
LINE
  5
38F4
100
AcDbEntity
  8
0
  6
CONTINUOUS
 62
     0
100
AcDbLine
 10
168.0625
 20
167.061487
 30
0.0
 11
168.0225
 21
167.130769
 31
0.0
  0
LINE
  5
38F5
100
AcDbEntity
  8
0
  6
CONTINUOUS
 62
     0
100
AcDbLine
 10
169.0625
 20
165.329436
 30
0.0
 11
169.0225
 21
165.398718
 31
0.0
  0
LINE
  5
38F6
100
AcDbEntity
  8
0
  6
CONTINUOUS
 62
     0
100
AcDbLine
 10
170.0625
 20
163.597386
 30
0.0
 11
170.0225
 21
163.666668
 31
0.0
  0
LINE
  5
38F7
100
AcDbEntity
  8
0
  6
CONTINUOUS
 62
     0
100
AcDbLine
 10
171.0625
 20
161.865335
 30
0.0
 11
171.0225
 21
161.934617
 31
0.0
  0
LINE
  5
38F8
100
AcDbEntity
  8
0
  6
CONTINUOUS
 62
     0
100
AcDbLine
 10
172.0625
 20
160.133284
 30
0.0
 11
172.0225
 21
160.202566
 31
0.0
  0
LINE
  5
38F9
100
AcDbEntity
  8
0
  6
CONTINUOUS
 62
     0
100
AcDbLine
 10
173.0625
 20
158.401233
 30
0.0
 11
173.0225
 21
158.470515
 31
0.0
  0
LINE
  5
38FA
100
AcDbEntity
  8
0
  6
CONTINUOUS
 62
     0
100
AcDbLine
 10
174.0625
 20
156.669182
 30
0.0
 11
174.0225
 21
156.738464
 31
0.0
  0
LINE
  5
38FB
100
AcDbEntity
  8
0
  6
CONTINUOUS
 62
     0
100
AcDbLine
 10
175.0625
 20
154.937131
 30
0.0
 11
175.0225
 21
155.006414
 31
0.0
  0
LINE
  5
38FC
100
AcDbEntity
  8
0
  6
CONTINUOUS
 62
     0
100
AcDbLine
 10
176.0625
 20
153.205081
 30
0.0
 11
176.0225
 21
153.274363
 31
0.0
  0
LINE
  5
38FD
100
AcDbEntity
  8
0
  6
CONTINUOUS
 62
     0
100
AcDbLine
 10
177.0625
 20
151.47303
 30
0.0
 11
177.0225
 21
151.542312
 31
0.0
  0
LINE
  5
38FE
100
AcDbEntity
  8
0
  6
CONTINUOUS
 62
     0
100
AcDbLine
 10
178.0625
 20
149.740979
 30
0.0
 11
178.0225
 21
149.810261
 31
0.0
  0
LINE
  5
38FF
100
AcDbEntity
  8
0
  6
CONTINUOUS
 62
     0
100
AcDbLine
 10
165.0625
 20
168.793538
 30
0.0
 11
165.0225
 21
168.86282
 31
0.0
  0
LINE
  5
3900
100
AcDbEntity
  8
0
  6
CONTINUOUS
 62
     0
100
AcDbLine
 10
166.0625
 20
167.061487
 30
0.0
 11
166.0225
 21
167.130769
 31
0.0
  0
LINE
  5
3901
100
AcDbEntity
  8
0
  6
CONTINUOUS
 62
     0
100
AcDbLine
 10
167.0625
 20
165.329436
 30
0.0
 11
167.0225
 21
165.398718
 31
0.0
  0
LINE
  5
3902
100
AcDbEntity
  8
0
  6
CONTINUOUS
 62
     0
100
AcDbLine
 10
168.0625
 20
163.597386
 30
0.0
 11
168.0225
 21
163.666668
 31
0.0
  0
LINE
  5
3903
100
AcDbEntity
  8
0
  6
CONTINUOUS
 62
     0
100
AcDbLine
 10
169.0625
 20
161.865335
 30
0.0
 11
169.0225
 21
161.934617
 31
0.0
  0
LINE
  5
3904
100
AcDbEntity
  8
0
  6
CONTINUOUS
 62
     0
100
AcDbLine
 10
170.0625
 20
160.133284
 30
0.0
 11
170.0225
 21
160.202566
 31
0.0
  0
LINE
  5
3905
100
AcDbEntity
  8
0
  6
CONTINUOUS
 62
     0
100
AcDbLine
 10
171.0625
 20
158.401233
 30
0.0
 11
171.0225
 21
158.470515
 31
0.0
  0
LINE
  5
3906
100
AcDbEntity
  8
0
  6
CONTINUOUS
 62
     0
100
AcDbLine
 10
172.0625
 20
156.669182
 30
0.0
 11
172.0225
 21
156.738464
 31
0.0
  0
LINE
  5
3907
100
AcDbEntity
  8
0
  6
CONTINUOUS
 62
     0
100
AcDbLine
 10
173.0625
 20
154.937131
 30
0.0
 11
173.0225
 21
155.006414
 31
0.0
  0
LINE
  5
3908
100
AcDbEntity
  8
0
  6
CONTINUOUS
 62
     0
100
AcDbLine
 10
174.0625
 20
153.205081
 30
0.0
 11
174.0225
 21
153.274363
 31
0.0
  0
LINE
  5
3909
100
AcDbEntity
  8
0
  6
CONTINUOUS
 62
     0
100
AcDbLine
 10
175.0625
 20
151.47303
 30
0.0
 11
175.0225
 21
151.542312
 31
0.0
  0
LINE
  5
390A
100
AcDbEntity
  8
0
  6
CONTINUOUS
 62
     0
100
AcDbLine
 10
176.0625
 20
149.740979
 30
0.0
 11
176.0225
 21
149.810261
 31
0.0
  0
LINE
  5
390B
100
AcDbEntity
  8
0
  6
CONTINUOUS
 62
     0
100
AcDbLine
 10
165.0625
 20
165.329436
 30
0.0
 11
165.0225
 21
165.398718
 31
0.0
  0
LINE
  5
390C
100
AcDbEntity
  8
0
  6
CONTINUOUS
 62
     0
100
AcDbLine
 10
166.0625
 20
163.597386
 30
0.0
 11
166.0225
 21
163.666668
 31
0.0
  0
LINE
  5
390D
100
AcDbEntity
  8
0
  6
CONTINUOUS
 62
     0
100
AcDbLine
 10
167.0625
 20
161.865335
 30
0.0
 11
167.0225
 21
161.934617
 31
0.0
  0
LINE
  5
390E
100
AcDbEntity
  8
0
  6
CONTINUOUS
 62
     0
100
AcDbLine
 10
168.0625
 20
160.133284
 30
0.0
 11
168.0225
 21
160.202566
 31
0.0
  0
LINE
  5
390F
100
AcDbEntity
  8
0
  6
CONTINUOUS
 62
     0
100
AcDbLine
 10
169.0625
 20
158.401233
 30
0.0
 11
169.0225
 21
158.470515
 31
0.0
  0
LINE
  5
3910
100
AcDbEntity
  8
0
  6
CONTINUOUS
 62
     0
100
AcDbLine
 10
170.0625
 20
156.669182
 30
0.0
 11
170.0225
 21
156.738464
 31
0.0
  0
LINE
  5
3911
100
AcDbEntity
  8
0
  6
CONTINUOUS
 62
     0
100
AcDbLine
 10
171.0625
 20
154.937131
 30
0.0
 11
171.0225
 21
155.006414
 31
0.0
  0
LINE
  5
3912
100
AcDbEntity
  8
0
  6
CONTINUOUS
 62
     0
100
AcDbLine
 10
172.0625
 20
153.205081
 30
0.0
 11
172.0225
 21
153.274363
 31
0.0
  0
LINE
  5
3913
100
AcDbEntity
  8
0
  6
CONTINUOUS
 62
     0
100
AcDbLine
 10
173.0625
 20
151.47303
 30
0.0
 11
173.0225
 21
151.542312
 31
0.0
  0
LINE
  5
3914
100
AcDbEntity
  8
0
  6
CONTINUOUS
 62
     0
100
AcDbLine
 10
174.0625
 20
149.740979
 30
0.0
 11
174.0225
 21
149.810261
 31
0.0
  0
LINE
  5
3915
100
AcDbEntity
  8
0
  6
CONTINUOUS
 62
     0
100
AcDbLine
 10
165.0625
 20
161.865335
 30
0.0
 11
165.0225
 21
161.934617
 31
0.0
  0
LINE
  5
3916
100
AcDbEntity
  8
0
  6
CONTINUOUS
 62
     0
100
AcDbLine
 10
166.0625
 20
160.133284
 30
0.0
 11
166.0225
 21
160.202566
 31
0.0
  0
LINE
  5
3917
100
AcDbEntity
  8
0
  6
CONTINUOUS
 62
     0
100
AcDbLine
 10
167.0625
 20
158.401233
 30
0.0
 11
167.0225
 21
158.470515
 31
0.0
  0
LINE
  5
3918
100
AcDbEntity
  8
0
  6
CONTINUOUS
 62
     0
100
AcDbLine
 10
168.0625
 20
156.669182
 30
0.0
 11
168.0225
 21
156.738464
 31
0.0
  0
LINE
  5
3919
100
AcDbEntity
  8
0
  6
CONTINUOUS
 62
     0
100
AcDbLine
 10
169.0625
 20
154.937131
 30
0.0
 11
169.0225
 21
155.006414
 31
0.0
  0
LINE
  5
391A
100
AcDbEntity
  8
0
  6
CONTINUOUS
 62
     0
100
AcDbLine
 10
170.0625
 20
153.205081
 30
0.0
 11
170.0225
 21
153.274363
 31
0.0
  0
LINE
  5
391B
100
AcDbEntity
  8
0
  6
CONTINUOUS
 62
     0
100
AcDbLine
 10
171.0625
 20
151.47303
 30
0.0
 11
171.0225
 21
151.542312
 31
0.0
  0
LINE
  5
391C
100
AcDbEntity
  8
0
  6
CONTINUOUS
 62
     0
100
AcDbLine
 10
172.0625
 20
149.740979
 30
0.0
 11
172.0225
 21
149.810261
 31
0.0
  0
LINE
  5
391D
100
AcDbEntity
  8
0
  6
CONTINUOUS
 62
     0
100
AcDbLine
 10
165.0625
 20
158.401233
 30
0.0
 11
165.0225
 21
158.470515
 31
0.0
  0
LINE
  5
391E
100
AcDbEntity
  8
0
  6
CONTINUOUS
 62
     0
100
AcDbLine
 10
166.0625
 20
156.669182
 30
0.0
 11
166.0225
 21
156.738464
 31
0.0
  0
LINE
  5
391F
100
AcDbEntity
  8
0
  6
CONTINUOUS
 62
     0
100
AcDbLine
 10
167.0625
 20
154.937131
 30
0.0
 11
167.0225
 21
155.006414
 31
0.0
  0
LINE
  5
3920
100
AcDbEntity
  8
0
  6
CONTINUOUS
 62
     0
100
AcDbLine
 10
168.0625
 20
153.205081
 30
0.0
 11
168.0225
 21
153.274363
 31
0.0
  0
LINE
  5
3921
100
AcDbEntity
  8
0
  6
CONTINUOUS
 62
     0
100
AcDbLine
 10
169.0625
 20
151.47303
 30
0.0
 11
169.0225
 21
151.542312
 31
0.0
  0
LINE
  5
3922
100
AcDbEntity
  8
0
  6
CONTINUOUS
 62
     0
100
AcDbLine
 10
170.0625
 20
149.740979
 30
0.0
 11
170.0225
 21
149.810261
 31
0.0
  0
LINE
  5
3923
100
AcDbEntity
  8
0
  6
CONTINUOUS
 62
     0
100
AcDbLine
 10
165.0625
 20
154.937131
 30
0.0
 11
165.0225
 21
155.006414
 31
0.0
  0
LINE
  5
3924
100
AcDbEntity
  8
0
  6
CONTINUOUS
 62
     0
100
AcDbLine
 10
166.0625
 20
153.205081
 30
0.0
 11
166.0225
 21
153.274363
 31
0.0
  0
LINE
  5
3925
100
AcDbEntity
  8
0
  6
CONTINUOUS
 62
     0
100
AcDbLine
 10
167.0625
 20
151.47303
 30
0.0
 11
167.0225
 21
151.542312
 31
0.0
  0
LINE
  5
3926
100
AcDbEntity
  8
0
  6
CONTINUOUS
 62
     0
100
AcDbLine
 10
168.0625
 20
149.740979
 30
0.0
 11
168.0225
 21
149.810261
 31
0.0
  0
LINE
  5
3927
100
AcDbEntity
  8
0
  6
CONTINUOUS
 62
     0
100
AcDbLine
 10
165.0625
 20
151.47303
 30
0.0
 11
165.0225
 21
151.542312
 31
0.0
  0
LINE
  5
3928
100
AcDbEntity
  8
0
  6
CONTINUOUS
 62
     0
100
AcDbLine
 10
166.0625
 20
149.740979
 30
0.0
 11
166.0225
 21
149.810261
 31
0.0
  0
LINE
  5
3929
100
AcDbEntity
  8
0
  6
CONTINUOUS
 62
     0
100
AcDbLine
 10
178.1875
 20
149.740979
 30
0.0
 11
178.2275
 21
149.810261
 31
0.0
  0
LINE
  5
392A
100
AcDbEntity
  8
0
  6
CONTINUOUS
 62
     0
100
AcDbLine
 10
178.1875
 20
153.205081
 30
0.0
 11
178.2275
 21
153.274363
 31
0.0
  0
LINE
  5
392B
100
AcDbEntity
  8
0
  6
CONTINUOUS
 62
     0
100
AcDbLine
 10
177.1875
 20
151.47303
 30
0.0
 11
177.2275
 21
151.542312
 31
0.0
  0
LINE
  5
392C
100
AcDbEntity
  8
0
  6
CONTINUOUS
 62
     0
100
AcDbLine
 10
176.1875
 20
149.740979
 30
0.0
 11
176.2275
 21
149.810261
 31
0.0
  0
LINE
  5
392D
100
AcDbEntity
  8
0
  6
CONTINUOUS
 62
     0
100
AcDbLine
 10
178.1875
 20
156.669182
 30
0.0
 11
178.2275
 21
156.738464
 31
0.0
  0
LINE
  5
392E
100
AcDbEntity
  8
0
  6
CONTINUOUS
 62
     0
100
AcDbLine
 10
177.1875
 20
154.937132
 30
0.0
 11
177.2275
 21
155.006414
 31
0.0
  0
LINE
  5
392F
100
AcDbEntity
  8
0
  6
CONTINUOUS
 62
     0
100
AcDbLine
 10
176.1875
 20
153.205081
 30
0.0
 11
176.2275
 21
153.274363
 31
0.0
  0
LINE
  5
3930
100
AcDbEntity
  8
0
  6
CONTINUOUS
 62
     0
100
AcDbLine
 10
175.1875
 20
151.47303
 30
0.0
 11
175.2275
 21
151.542312
 31
0.0
  0
LINE
  5
3931
100
AcDbEntity
  8
0
  6
CONTINUOUS
 62
     0
100
AcDbLine
 10
174.1875
 20
149.740979
 30
0.0
 11
174.2275
 21
149.810261
 31
0.0
  0
LINE
  5
3932
100
AcDbEntity
  8
0
  6
CONTINUOUS
 62
     0
100
AcDbLine
 10
178.1875
 20
160.133284
 30
0.0
 11
178.2275
 21
160.202566
 31
0.0
  0
LINE
  5
3933
100
AcDbEntity
  8
0
  6
CONTINUOUS
 62
     0
100
AcDbLine
 10
177.1875
 20
158.401233
 30
0.0
 11
177.2275
 21
158.470515
 31
0.0
  0
LINE
  5
3934
100
AcDbEntity
  8
0
  6
CONTINUOUS
 62
     0
100
AcDbLine
 10
176.1875
 20
156.669182
 30
0.0
 11
176.2275
 21
156.738464
 31
0.0
  0
LINE
  5
3935
100
AcDbEntity
  8
0
  6
CONTINUOUS
 62
     0
100
AcDbLine
 10
175.1875
 20
154.937132
 30
0.0
 11
175.2275
 21
155.006414
 31
0.0
  0
LINE
  5
3936
100
AcDbEntity
  8
0
  6
CONTINUOUS
 62
     0
100
AcDbLine
 10
174.1875
 20
153.205081
 30
0.0
 11
174.2275
 21
153.274363
 31
0.0
  0
LINE
  5
3937
100
AcDbEntity
  8
0
  6
CONTINUOUS
 62
     0
100
AcDbLine
 10
173.1875
 20
151.47303
 30
0.0
 11
173.2275
 21
151.542312
 31
0.0
  0
LINE
  5
3938
100
AcDbEntity
  8
0
  6
CONTINUOUS
 62
     0
100
AcDbLine
 10
172.1875
 20
149.740979
 30
0.0
 11
172.2275
 21
149.810261
 31
0.0
  0
LINE
  5
3939
100
AcDbEntity
  8
0
  6
CONTINUOUS
 62
     0
100
AcDbLine
 10
178.1875
 20
163.597386
 30
0.0
 11
178.2275
 21
163.666668
 31
0.0
  0
LINE
  5
393A
100
AcDbEntity
  8
0
  6
CONTINUOUS
 62
     0
100
AcDbLine
 10
177.1875
 20
161.865335
 30
0.0
 11
177.2275
 21
161.934617
 31
0.0
  0
LINE
  5
393B
100
AcDbEntity
  8
0
  6
CONTINUOUS
 62
     0
100
AcDbLine
 10
176.1875
 20
160.133284
 30
0.0
 11
176.2275
 21
160.202566
 31
0.0
  0
LINE
  5
393C
100
AcDbEntity
  8
0
  6
CONTINUOUS
 62
     0
100
AcDbLine
 10
175.1875
 20
158.401233
 30
0.0
 11
175.2275
 21
158.470515
 31
0.0
  0
LINE
  5
393D
100
AcDbEntity
  8
0
  6
CONTINUOUS
 62
     0
100
AcDbLine
 10
174.1875
 20
156.669182
 30
0.0
 11
174.2275
 21
156.738464
 31
0.0
  0
LINE
  5
393E
100
AcDbEntity
  8
0
  6
CONTINUOUS
 62
     0
100
AcDbLine
 10
173.1875
 20
154.937132
 30
0.0
 11
173.2275
 21
155.006414
 31
0.0
  0
LINE
  5
393F
100
AcDbEntity
  8
0
  6
CONTINUOUS
 62
     0
100
AcDbLine
 10
172.1875
 20
153.205081
 30
0.0
 11
172.2275
 21
153.274363
 31
0.0
  0
LINE
  5
3940
100
AcDbEntity
  8
0
  6
CONTINUOUS
 62
     0
100
AcDbLine
 10
171.1875
 20
151.47303
 30
0.0
 11
171.2275
 21
151.542312
 31
0.0
  0
LINE
  5
3941
100
AcDbEntity
  8
0
  6
CONTINUOUS
 62
     0
100
AcDbLine
 10
170.1875
 20
149.740979
 30
0.0
 11
170.2275
 21
149.810261
 31
0.0
  0
LINE
  5
3942
100
AcDbEntity
  8
0
  6
CONTINUOUS
 62
     0
100
AcDbLine
 10
178.1875
 20
167.061487
 30
0.0
 11
178.2275
 21
167.130769
 31
0.0
  0
LINE
  5
3943
100
AcDbEntity
  8
0
  6
CONTINUOUS
 62
     0
100
AcDbLine
 10
177.1875
 20
165.329436
 30
0.0
 11
177.2275
 21
165.398718
 31
0.0
  0
LINE
  5
3944
100
AcDbEntity
  8
0
  6
CONTINUOUS
 62
     0
100
AcDbLine
 10
176.1875
 20
163.597386
 30
0.0
 11
176.2275
 21
163.666668
 31
0.0
  0
LINE
  5
3945
100
AcDbEntity
  8
0
  6
CONTINUOUS
 62
     0
100
AcDbLine
 10
175.1875
 20
161.865335
 30
0.0
 11
175.2275
 21
161.934617
 31
0.0
  0
LINE
  5
3946
100
AcDbEntity
  8
0
  6
CONTINUOUS
 62
     0
100
AcDbLine
 10
174.1875
 20
160.133284
 30
0.0
 11
174.2275
 21
160.202566
 31
0.0
  0
LINE
  5
3947
100
AcDbEntity
  8
0
  6
CONTINUOUS
 62
     0
100
AcDbLine
 10
173.1875
 20
158.401233
 30
0.0
 11
173.2275
 21
158.470515
 31
0.0
  0
LINE
  5
3948
100
AcDbEntity
  8
0
  6
CONTINUOUS
 62
     0
100
AcDbLine
 10
172.1875
 20
156.669182
 30
0.0
 11
172.2275
 21
156.738464
 31
0.0
  0
LINE
  5
3949
100
AcDbEntity
  8
0
  6
CONTINUOUS
 62
     0
100
AcDbLine
 10
171.1875
 20
154.937132
 30
0.0
 11
171.2275
 21
155.006414
 31
0.0
  0
LINE
  5
394A
100
AcDbEntity
  8
0
  6
CONTINUOUS
 62
     0
100
AcDbLine
 10
170.1875
 20
153.205081
 30
0.0
 11
170.2275
 21
153.274363
 31
0.0
  0
LINE
  5
394B
100
AcDbEntity
  8
0
  6
CONTINUOUS
 62
     0
100
AcDbLine
 10
169.1875
 20
151.47303
 30
0.0
 11
169.2275
 21
151.542312
 31
0.0
  0
LINE
  5
394C
100
AcDbEntity
  8
0
  6
CONTINUOUS
 62
     0
100
AcDbLine
 10
168.1875
 20
149.740979
 30
0.0
 11
168.2275
 21
149.810261
 31
0.0
  0
LINE
  5
394D
100
AcDbEntity
  8
0
  6
CONTINUOUS
 62
     0
100
AcDbLine
 10
178.1875
 20
170.525589
 30
0.0
 11
178.2275
 21
170.594871
 31
0.0
  0
LINE
  5
394E
100
AcDbEntity
  8
0
  6
CONTINUOUS
 62
     0
100
AcDbLine
 10
177.1875
 20
168.793538
 30
0.0
 11
177.2275
 21
168.86282
 31
0.0
  0
LINE
  5
394F
100
AcDbEntity
  8
0
  6
CONTINUOUS
 62
     0
100
AcDbLine
 10
176.1875
 20
167.061487
 30
0.0
 11
176.2275
 21
167.130769
 31
0.0
  0
LINE
  5
3950
100
AcDbEntity
  8
0
  6
CONTINUOUS
 62
     0
100
AcDbLine
 10
175.1875
 20
165.329436
 30
0.0
 11
175.2275
 21
165.398718
 31
0.0
  0
LINE
  5
3951
100
AcDbEntity
  8
0
  6
CONTINUOUS
 62
     0
100
AcDbLine
 10
174.1875
 20
163.597386
 30
0.0
 11
174.2275
 21
163.666668
 31
0.0
  0
LINE
  5
3952
100
AcDbEntity
  8
0
  6
CONTINUOUS
 62
     0
100
AcDbLine
 10
173.1875
 20
161.865335
 30
0.0
 11
173.2275
 21
161.934617
 31
0.0
  0
LINE
  5
3953
100
AcDbEntity
  8
0
  6
CONTINUOUS
 62
     0
100
AcDbLine
 10
172.1875
 20
160.133284
 30
0.0
 11
172.2275
 21
160.202566
 31
0.0
  0
LINE
  5
3954
100
AcDbEntity
  8
0
  6
CONTINUOUS
 62
     0
100
AcDbLine
 10
171.1875
 20
158.401233
 30
0.0
 11
171.2275
 21
158.470515
 31
0.0
  0
LINE
  5
3955
100
AcDbEntity
  8
0
  6
CONTINUOUS
 62
     0
100
AcDbLine
 10
170.1875
 20
156.669182
 30
0.0
 11
170.2275
 21
156.738464
 31
0.0
  0
LINE
  5
3956
100
AcDbEntity
  8
0
  6
CONTINUOUS
 62
     0
100
AcDbLine
 10
169.1875
 20
154.937132
 30
0.0
 11
169.2275
 21
155.006414
 31
0.0
  0
LINE
  5
3957
100
AcDbEntity
  8
0
  6
CONTINUOUS
 62
     0
100
AcDbLine
 10
168.1875
 20
153.205081
 30
0.0
 11
168.2275
 21
153.274363
 31
0.0
  0
LINE
  5
3958
100
AcDbEntity
  8
0
  6
CONTINUOUS
 62
     0
100
AcDbLine
 10
167.1875
 20
151.47303
 30
0.0
 11
167.2275
 21
151.542312
 31
0.0
  0
LINE
  5
3959
100
AcDbEntity
  8
0
  6
CONTINUOUS
 62
     0
100
AcDbLine
 10
166.1875
 20
149.740979
 30
0.0
 11
166.2275
 21
149.810261
 31
0.0
  0
LINE
  5
395A
100
AcDbEntity
  8
0
  6
CONTINUOUS
 62
     0
100
AcDbLine
 10
178.1875
 20
173.98969
 30
0.0
 11
178.2275
 21
174.058972
 31
0.0
  0
LINE
  5
395B
100
AcDbEntity
  8
0
  6
CONTINUOUS
 62
     0
100
AcDbLine
 10
177.1875
 20
172.25764
 30
0.0
 11
177.2275
 21
172.326922
 31
0.0
  0
LINE
  5
395C
100
AcDbEntity
  8
0
  6
CONTINUOUS
 62
     0
100
AcDbLine
 10
176.1875
 20
170.525589
 30
0.0
 11
176.2275
 21
170.594871
 31
0.0
  0
LINE
  5
395D
100
AcDbEntity
  8
0
  6
CONTINUOUS
 62
     0
100
AcDbLine
 10
175.1875
 20
168.793538
 30
0.0
 11
175.2275
 21
168.86282
 31
0.0
  0
LINE
  5
395E
100
AcDbEntity
  8
0
  6
CONTINUOUS
 62
     0
100
AcDbLine
 10
174.1875
 20
167.061487
 30
0.0
 11
174.2275
 21
167.130769
 31
0.0
  0
LINE
  5
395F
100
AcDbEntity
  8
0
  6
CONTINUOUS
 62
     0
100
AcDbLine
 10
173.1875
 20
165.329436
 30
0.0
 11
173.2275
 21
165.398718
 31
0.0
  0
LINE
  5
3960
100
AcDbEntity
  8
0
  6
CONTINUOUS
 62
     0
100
AcDbLine
 10
172.1875
 20
163.597386
 30
0.0
 11
172.2275
 21
163.666668
 31
0.0
  0
LINE
  5
3961
100
AcDbEntity
  8
0
  6
CONTINUOUS
 62
     0
100
AcDbLine
 10
171.1875
 20
161.865335
 30
0.0
 11
171.2275
 21
161.934617
 31
0.0
  0
LINE
  5
3962
100
AcDbEntity
  8
0
  6
CONTINUOUS
 62
     0
100
AcDbLine
 10
170.1875
 20
160.133284
 30
0.0
 11
170.2275
 21
160.202566
 31
0.0
  0
LINE
  5
3963
100
AcDbEntity
  8
0
  6
CONTINUOUS
 62
     0
100
AcDbLine
 10
169.1875
 20
158.401233
 30
0.0
 11
169.2275
 21
158.470515
 31
0.0
  0
LINE
  5
3964
100
AcDbEntity
  8
0
  6
CONTINUOUS
 62
     0
100
AcDbLine
 10
168.1875
 20
156.669182
 30
0.0
 11
168.2275
 21
156.738464
 31
0.0
  0
LINE
  5
3965
100
AcDbEntity
  8
0
  6
CONTINUOUS
 62
     0
100
AcDbLine
 10
167.1875
 20
154.937132
 30
0.0
 11
167.2275
 21
155.006414
 31
0.0
  0
LINE
  5
3966
100
AcDbEntity
  8
0
  6
CONTINUOUS
 62
     0
100
AcDbLine
 10
166.1875
 20
153.205081
 30
0.0
 11
166.2275
 21
153.274363
 31
0.0
  0
LINE
  5
3967
100
AcDbEntity
  8
0
  6
CONTINUOUS
 62
     0
100
AcDbLine
 10
165.1875
 20
151.47303
 30
0.0
 11
165.2275
 21
151.542312
 31
0.0
  0
LINE
  5
3968
100
AcDbEntity
  8
0
  6
CONTINUOUS
 62
     0
100
AcDbLine
 10
176.1875
 20
173.98969
 30
0.0
 11
176.2275
 21
174.058972
 31
0.0
  0
LINE
  5
3969
100
AcDbEntity
  8
0
  6
CONTINUOUS
 62
     0
100
AcDbLine
 10
175.1875
 20
172.25764
 30
0.0
 11
175.2275
 21
172.326922
 31
0.0
  0
LINE
  5
396A
100
AcDbEntity
  8
0
  6
CONTINUOUS
 62
     0
100
AcDbLine
 10
174.1875
 20
170.525589
 30
0.0
 11
174.2275
 21
170.594871
 31
0.0
  0
LINE
  5
396B
100
AcDbEntity
  8
0
  6
CONTINUOUS
 62
     0
100
AcDbLine
 10
173.1875
 20
168.793538
 30
0.0
 11
173.2275
 21
168.86282
 31
0.0
  0
LINE
  5
396C
100
AcDbEntity
  8
0
  6
CONTINUOUS
 62
     0
100
AcDbLine
 10
172.1875
 20
167.061487
 30
0.0
 11
172.2275
 21
167.130769
 31
0.0
  0
LINE
  5
396D
100
AcDbEntity
  8
0
  6
CONTINUOUS
 62
     0
100
AcDbLine
 10
171.1875
 20
165.329436
 30
0.0
 11
171.2275
 21
165.398718
 31
0.0
  0
LINE
  5
396E
100
AcDbEntity
  8
0
  6
CONTINUOUS
 62
     0
100
AcDbLine
 10
170.1875
 20
163.597386
 30
0.0
 11
170.2275
 21
163.666668
 31
0.0
  0
LINE
  5
396F
100
AcDbEntity
  8
0
  6
CONTINUOUS
 62
     0
100
AcDbLine
 10
169.1875
 20
161.865335
 30
0.0
 11
169.2275
 21
161.934617
 31
0.0
  0
LINE
  5
3970
100
AcDbEntity
  8
0
  6
CONTINUOUS
 62
     0
100
AcDbLine
 10
168.1875
 20
160.133284
 30
0.0
 11
168.2275
 21
160.202566
 31
0.0
  0
LINE
  5
3971
100
AcDbEntity
  8
0
  6
CONTINUOUS
 62
     0
100
AcDbLine
 10
167.1875
 20
158.401233
 30
0.0
 11
167.2275
 21
158.470515
 31
0.0
  0
LINE
  5
3972
100
AcDbEntity
  8
0
  6
CONTINUOUS
 62
     0
100
AcDbLine
 10
166.1875
 20
156.669182
 30
0.0
 11
166.2275
 21
156.738464
 31
0.0
  0
LINE
  5
3973
100
AcDbEntity
  8
0
  6
CONTINUOUS
 62
     0
100
AcDbLine
 10
165.1875
 20
154.937132
 30
0.0
 11
165.2275
 21
155.006414
 31
0.0
  0
LINE
  5
3974
100
AcDbEntity
  8
0
  6
CONTINUOUS
 62
     0
100
AcDbLine
 10
174.1875
 20
173.98969
 30
0.0
 11
174.2275
 21
174.058972
 31
0.0
  0
LINE
  5
3975
100
AcDbEntity
  8
0
  6
CONTINUOUS
 62
     0
100
AcDbLine
 10
173.1875
 20
172.25764
 30
0.0
 11
173.2275
 21
172.326922
 31
0.0
  0
LINE
  5
3976
100
AcDbEntity
  8
0
  6
CONTINUOUS
 62
     0
100
AcDbLine
 10
172.1875
 20
170.525589
 30
0.0
 11
172.2275
 21
170.594871
 31
0.0
  0
LINE
  5
3977
100
AcDbEntity
  8
0
  6
CONTINUOUS
 62
     0
100
AcDbLine
 10
171.1875
 20
168.793538
 30
0.0
 11
171.2275
 21
168.86282
 31
0.0
  0
LINE
  5
3978
100
AcDbEntity
  8
0
  6
CONTINUOUS
 62
     0
100
AcDbLine
 10
170.1875
 20
167.061487
 30
0.0
 11
170.2275
 21
167.130769
 31
0.0
  0
LINE
  5
3979
100
AcDbEntity
  8
0
  6
CONTINUOUS
 62
     0
100
AcDbLine
 10
169.1875
 20
165.329436
 30
0.0
 11
169.2275
 21
165.398718
 31
0.0
  0
LINE
  5
397A
100
AcDbEntity
  8
0
  6
CONTINUOUS
 62
     0
100
AcDbLine
 10
168.1875
 20
163.597386
 30
0.0
 11
168.2275
 21
163.666668
 31
0.0
  0
LINE
  5
397B
100
AcDbEntity
  8
0
  6
CONTINUOUS
 62
     0
100
AcDbLine
 10
167.1875
 20
161.865335
 30
0.0
 11
167.2275
 21
161.934617
 31
0.0
  0
LINE
  5
397C
100
AcDbEntity
  8
0
  6
CONTINUOUS
 62
     0
100
AcDbLine
 10
166.1875
 20
160.133284
 30
0.0
 11
166.2275
 21
160.202566
 31
0.0
  0
LINE
  5
397D
100
AcDbEntity
  8
0
  6
CONTINUOUS
 62
     0
100
AcDbLine
 10
165.1875
 20
158.401233
 30
0.0
 11
165.2275
 21
158.470515
 31
0.0
  0
LINE
  5
397E
100
AcDbEntity
  8
0
  6
CONTINUOUS
 62
     0
100
AcDbLine
 10
172.1875
 20
173.98969
 30
0.0
 11
172.2275
 21
174.058972
 31
0.0
  0
LINE
  5
397F
100
AcDbEntity
  8
0
  6
CONTINUOUS
 62
     0
100
AcDbLine
 10
171.1875
 20
172.25764
 30
0.0
 11
171.2275
 21
172.326922
 31
0.0
  0
LINE
  5
3980
100
AcDbEntity
  8
0
  6
CONTINUOUS
 62
     0
100
AcDbLine
 10
170.1875
 20
170.525589
 30
0.0
 11
170.2275
 21
170.594871
 31
0.0
  0
LINE
  5
3981
100
AcDbEntity
  8
0
  6
CONTINUOUS
 62
     0
100
AcDbLine
 10
169.1875
 20
168.793538
 30
0.0
 11
169.2275
 21
168.86282
 31
0.0
  0
LINE
  5
3982
100
AcDbEntity
  8
0
  6
CONTINUOUS
 62
     0
100
AcDbLine
 10
168.1875
 20
167.061487
 30
0.0
 11
168.2275
 21
167.130769
 31
0.0
  0
LINE
  5
3983
100
AcDbEntity
  8
0
  6
CONTINUOUS
 62
     0
100
AcDbLine
 10
167.1875
 20
165.329436
 30
0.0
 11
167.2275
 21
165.398718
 31
0.0
  0
LINE
  5
3984
100
AcDbEntity
  8
0
  6
CONTINUOUS
 62
     0
100
AcDbLine
 10
166.1875
 20
163.597386
 30
0.0
 11
166.2275
 21
163.666668
 31
0.0
  0
LINE
  5
3985
100
AcDbEntity
  8
0
  6
CONTINUOUS
 62
     0
100
AcDbLine
 10
165.1875
 20
161.865335
 30
0.0
 11
165.2275
 21
161.934617
 31
0.0
  0
LINE
  5
3986
100
AcDbEntity
  8
0
  6
CONTINUOUS
 62
     0
100
AcDbLine
 10
170.1875
 20
173.98969
 30
0.0
 11
170.2275
 21
174.058972
 31
0.0
  0
LINE
  5
3987
100
AcDbEntity
  8
0
  6
CONTINUOUS
 62
     0
100
AcDbLine
 10
169.1875
 20
172.25764
 30
0.0
 11
169.2275
 21
172.326922
 31
0.0
  0
LINE
  5
3988
100
AcDbEntity
  8
0
  6
CONTINUOUS
 62
     0
100
AcDbLine
 10
168.1875
 20
170.525589
 30
0.0
 11
168.2275
 21
170.594871
 31
0.0
  0
LINE
  5
3989
100
AcDbEntity
  8
0
  6
CONTINUOUS
 62
     0
100
AcDbLine
 10
167.1875
 20
168.793538
 30
0.0
 11
167.2275
 21
168.86282
 31
0.0
  0
LINE
  5
398A
100
AcDbEntity
  8
0
  6
CONTINUOUS
 62
     0
100
AcDbLine
 10
166.1875
 20
167.061487
 30
0.0
 11
166.2275
 21
167.130769
 31
0.0
  0
LINE
  5
398B
100
AcDbEntity
  8
0
  6
CONTINUOUS
 62
     0
100
AcDbLine
 10
165.1875
 20
165.329436
 30
0.0
 11
165.2275
 21
165.398718
 31
0.0
  0
LINE
  5
398C
100
AcDbEntity
  8
0
  6
CONTINUOUS
 62
     0
100
AcDbLine
 10
168.1875
 20
173.98969
 30
0.0
 11
168.2275
 21
174.058972
 31
0.0
  0
LINE
  5
398D
100
AcDbEntity
  8
0
  6
CONTINUOUS
 62
     0
100
AcDbLine
 10
167.1875
 20
172.25764
 30
0.0
 11
167.2275
 21
172.326922
 31
0.0
  0
LINE
  5
398E
100
AcDbEntity
  8
0
  6
CONTINUOUS
 62
     0
100
AcDbLine
 10
166.1875
 20
170.525589
 30
0.0
 11
166.2275
 21
170.594871
 31
0.0
  0
LINE
  5
398F
100
AcDbEntity
  8
0
  6
CONTINUOUS
 62
     0
100
AcDbLine
 10
165.1875
 20
168.793538
 30
0.0
 11
165.2275
 21
168.86282
 31
0.0
  0
LINE
  5
3990
100
AcDbEntity
  8
0
  6
CONTINUOUS
 62
     0
100
AcDbLine
 10
166.1875
 20
173.98969
 30
0.0
 11
166.2275
 21
174.058972
 31
0.0
  0
LINE
  5
3991
100
AcDbEntity
  8
0
  6
CONTINUOUS
 62
     0
100
AcDbLine
 10
165.1875
 20
172.25764
 30
0.0
 11
165.2275
 21
172.326922
 31
0.0
  0
LINE
  5
3992
100
AcDbEntity
  8
0
  6
CONTINUOUS
 62
     0
100
AcDbLine
 10
178.09375
 20
173.98969
 30
0.0
 11
178.09375
 21
174.08969
 31
0.0
  0
LINE
  5
3993
100
AcDbEntity
  8
0
  6
CONTINUOUS
 62
     0
100
AcDbLine
 10
178.09375
 20
170.525589
 30
0.0
 11
178.09375
 21
170.625589
 31
0.0
  0
LINE
  5
3994
100
AcDbEntity
  8
0
  6
CONTINUOUS
 62
     0
100
AcDbLine
 10
178.09375
 20
167.061487
 30
0.0
 11
178.09375
 21
167.161487
 31
0.0
  0
LINE
  5
3995
100
AcDbEntity
  8
0
  6
CONTINUOUS
 62
     0
100
AcDbLine
 10
178.09375
 20
163.597385
 30
0.0
 11
178.09375
 21
163.697385
 31
0.0
  0
LINE
  5
3996
100
AcDbEntity
  8
0
  6
CONTINUOUS
 62
     0
100
AcDbLine
 10
178.09375
 20
160.133284
 30
0.0
 11
178.09375
 21
160.233284
 31
0.0
  0
LINE
  5
3997
100
AcDbEntity
  8
0
  6
CONTINUOUS
 62
     0
100
AcDbLine
 10
178.09375
 20
156.669182
 30
0.0
 11
178.09375
 21
156.769182
 31
0.0
  0
LINE
  5
3998
100
AcDbEntity
  8
0
  6
CONTINUOUS
 62
     0
100
AcDbLine
 10
178.09375
 20
153.205081
 30
0.0
 11
178.09375
 21
153.305081
 31
0.0
  0
LINE
  5
3999
100
AcDbEntity
  8
0
  6
CONTINUOUS
 62
     0
100
AcDbLine
 10
178.09375
 20
149.740979
 30
0.0
 11
178.09375
 21
149.840979
 31
0.0
  0
LINE
  5
399A
100
AcDbEntity
  8
0
  6
CONTINUOUS
 62
     0
100
AcDbLine
 10
177.09375
 20
172.257639
 30
0.0
 11
177.09375
 21
172.357639
 31
0.0
  0
LINE
  5
399B
100
AcDbEntity
  8
0
  6
CONTINUOUS
 62
     0
100
AcDbLine
 10
177.09375
 20
168.793538
 30
0.0
 11
177.09375
 21
168.893538
 31
0.0
  0
LINE
  5
399C
100
AcDbEntity
  8
0
  6
CONTINUOUS
 62
     0
100
AcDbLine
 10
177.09375
 20
165.329436
 30
0.0
 11
177.09375
 21
165.429436
 31
0.0
  0
LINE
  5
399D
100
AcDbEntity
  8
0
  6
CONTINUOUS
 62
     0
100
AcDbLine
 10
177.09375
 20
161.865335
 30
0.0
 11
177.09375
 21
161.965335
 31
0.0
  0
LINE
  5
399E
100
AcDbEntity
  8
0
  6
CONTINUOUS
 62
     0
100
AcDbLine
 10
177.09375
 20
158.401233
 30
0.0
 11
177.09375
 21
158.501233
 31
0.0
  0
LINE
  5
399F
100
AcDbEntity
  8
0
  6
CONTINUOUS
 62
     0
100
AcDbLine
 10
177.09375
 20
154.937131
 30
0.0
 11
177.09375
 21
155.037131
 31
0.0
  0
LINE
  5
39A0
100
AcDbEntity
  8
0
  6
CONTINUOUS
 62
     0
100
AcDbLine
 10
177.09375
 20
151.47303
 30
0.0
 11
177.09375
 21
151.57303
 31
0.0
  0
LINE
  5
39A1
100
AcDbEntity
  8
0
  6
CONTINUOUS
 62
     0
100
AcDbLine
 10
176.09375
 20
173.98969
 30
0.0
 11
176.09375
 21
174.08969
 31
0.0
  0
LINE
  5
39A2
100
AcDbEntity
  8
0
  6
CONTINUOUS
 62
     0
100
AcDbLine
 10
176.09375
 20
170.525589
 30
0.0
 11
176.09375
 21
170.625589
 31
0.0
  0
LINE
  5
39A3
100
AcDbEntity
  8
0
  6
CONTINUOUS
 62
     0
100
AcDbLine
 10
176.09375
 20
167.061487
 30
0.0
 11
176.09375
 21
167.161487
 31
0.0
  0
LINE
  5
39A4
100
AcDbEntity
  8
0
  6
CONTINUOUS
 62
     0
100
AcDbLine
 10
176.09375
 20
163.597385
 30
0.0
 11
176.09375
 21
163.697385
 31
0.0
  0
LINE
  5
39A5
100
AcDbEntity
  8
0
  6
CONTINUOUS
 62
     0
100
AcDbLine
 10
176.09375
 20
160.133284
 30
0.0
 11
176.09375
 21
160.233284
 31
0.0
  0
LINE
  5
39A6
100
AcDbEntity
  8
0
  6
CONTINUOUS
 62
     0
100
AcDbLine
 10
176.09375
 20
156.669182
 30
0.0
 11
176.09375
 21
156.769182
 31
0.0
  0
LINE
  5
39A7
100
AcDbEntity
  8
0
  6
CONTINUOUS
 62
     0
100
AcDbLine
 10
176.09375
 20
153.205081
 30
0.0
 11
176.09375
 21
153.305081
 31
0.0
  0
LINE
  5
39A8
100
AcDbEntity
  8
0
  6
CONTINUOUS
 62
     0
100
AcDbLine
 10
176.09375
 20
149.740979
 30
0.0
 11
176.09375
 21
149.840979
 31
0.0
  0
LINE
  5
39A9
100
AcDbEntity
  8
0
  6
CONTINUOUS
 62
     0
100
AcDbLine
 10
175.09375
 20
172.257639
 30
0.0
 11
175.09375
 21
172.357639
 31
0.0
  0
LINE
  5
39AA
100
AcDbEntity
  8
0
  6
CONTINUOUS
 62
     0
100
AcDbLine
 10
175.09375
 20
168.793538
 30
0.0
 11
175.09375
 21
168.893538
 31
0.0
  0
LINE
  5
39AB
100
AcDbEntity
  8
0
  6
CONTINUOUS
 62
     0
100
AcDbLine
 10
175.09375
 20
165.329436
 30
0.0
 11
175.09375
 21
165.429436
 31
0.0
  0
LINE
  5
39AC
100
AcDbEntity
  8
0
  6
CONTINUOUS
 62
     0
100
AcDbLine
 10
175.09375
 20
161.865335
 30
0.0
 11
175.09375
 21
161.965335
 31
0.0
  0
LINE
  5
39AD
100
AcDbEntity
  8
0
  6
CONTINUOUS
 62
     0
100
AcDbLine
 10
175.09375
 20
158.401233
 30
0.0
 11
175.09375
 21
158.501233
 31
0.0
  0
LINE
  5
39AE
100
AcDbEntity
  8
0
  6
CONTINUOUS
 62
     0
100
AcDbLine
 10
175.09375
 20
154.937131
 30
0.0
 11
175.09375
 21
155.037131
 31
0.0
  0
LINE
  5
39AF
100
AcDbEntity
  8
0
  6
CONTINUOUS
 62
     0
100
AcDbLine
 10
175.09375
 20
151.47303
 30
0.0
 11
175.09375
 21
151.57303
 31
0.0
  0
LINE
  5
39B0
100
AcDbEntity
  8
0
  6
CONTINUOUS
 62
     0
100
AcDbLine
 10
174.09375
 20
173.98969
 30
0.0
 11
174.09375
 21
174.08969
 31
0.0
  0
LINE
  5
39B1
100
AcDbEntity
  8
0
  6
CONTINUOUS
 62
     0
100
AcDbLine
 10
174.09375
 20
170.525589
 30
0.0
 11
174.09375
 21
170.625589
 31
0.0
  0
LINE
  5
39B2
100
AcDbEntity
  8
0
  6
CONTINUOUS
 62
     0
100
AcDbLine
 10
174.09375
 20
167.061487
 30
0.0
 11
174.09375
 21
167.161487
 31
0.0
  0
LINE
  5
39B3
100
AcDbEntity
  8
0
  6
CONTINUOUS
 62
     0
100
AcDbLine
 10
174.09375
 20
163.597385
 30
0.0
 11
174.09375
 21
163.697385
 31
0.0
  0
LINE
  5
39B4
100
AcDbEntity
  8
0
  6
CONTINUOUS
 62
     0
100
AcDbLine
 10
174.09375
 20
160.133284
 30
0.0
 11
174.09375
 21
160.233284
 31
0.0
  0
LINE
  5
39B5
100
AcDbEntity
  8
0
  6
CONTINUOUS
 62
     0
100
AcDbLine
 10
174.09375
 20
156.669182
 30
0.0
 11
174.09375
 21
156.769182
 31
0.0
  0
LINE
  5
39B6
100
AcDbEntity
  8
0
  6
CONTINUOUS
 62
     0
100
AcDbLine
 10
174.09375
 20
153.205081
 30
0.0
 11
174.09375
 21
153.305081
 31
0.0
  0
LINE
  5
39B7
100
AcDbEntity
  8
0
  6
CONTINUOUS
 62
     0
100
AcDbLine
 10
174.09375
 20
149.740979
 30
0.0
 11
174.09375
 21
149.840979
 31
0.0
  0
LINE
  5
39B8
100
AcDbEntity
  8
0
  6
CONTINUOUS
 62
     0
100
AcDbLine
 10
173.09375
 20
172.257639
 30
0.0
 11
173.09375
 21
172.357639
 31
0.0
  0
LINE
  5
39B9
100
AcDbEntity
  8
0
  6
CONTINUOUS
 62
     0
100
AcDbLine
 10
173.09375
 20
168.793538
 30
0.0
 11
173.09375
 21
168.893538
 31
0.0
  0
LINE
  5
39BA
100
AcDbEntity
  8
0
  6
CONTINUOUS
 62
     0
100
AcDbLine
 10
173.09375
 20
165.329436
 30
0.0
 11
173.09375
 21
165.429436
 31
0.0
  0
LINE
  5
39BB
100
AcDbEntity
  8
0
  6
CONTINUOUS
 62
     0
100
AcDbLine
 10
173.09375
 20
161.865335
 30
0.0
 11
173.09375
 21
161.965335
 31
0.0
  0
LINE
  5
39BC
100
AcDbEntity
  8
0
  6
CONTINUOUS
 62
     0
100
AcDbLine
 10
173.09375
 20
158.401233
 30
0.0
 11
173.09375
 21
158.501233
 31
0.0
  0
LINE
  5
39BD
100
AcDbEntity
  8
0
  6
CONTINUOUS
 62
     0
100
AcDbLine
 10
173.09375
 20
154.937131
 30
0.0
 11
173.09375
 21
155.037131
 31
0.0
  0
LINE
  5
39BE
100
AcDbEntity
  8
0
  6
CONTINUOUS
 62
     0
100
AcDbLine
 10
173.09375
 20
151.47303
 30
0.0
 11
173.09375
 21
151.57303
 31
0.0
  0
LINE
  5
39BF
100
AcDbEntity
  8
0
  6
CONTINUOUS
 62
     0
100
AcDbLine
 10
172.09375
 20
173.98969
 30
0.0
 11
172.09375
 21
174.08969
 31
0.0
  0
LINE
  5
39C0
100
AcDbEntity
  8
0
  6
CONTINUOUS
 62
     0
100
AcDbLine
 10
172.09375
 20
170.525589
 30
0.0
 11
172.09375
 21
170.625589
 31
0.0
  0
LINE
  5
39C1
100
AcDbEntity
  8
0
  6
CONTINUOUS
 62
     0
100
AcDbLine
 10
172.09375
 20
167.061487
 30
0.0
 11
172.09375
 21
167.161487
 31
0.0
  0
LINE
  5
39C2
100
AcDbEntity
  8
0
  6
CONTINUOUS
 62
     0
100
AcDbLine
 10
172.09375
 20
163.597385
 30
0.0
 11
172.09375
 21
163.697385
 31
0.0
  0
LINE
  5
39C3
100
AcDbEntity
  8
0
  6
CONTINUOUS
 62
     0
100
AcDbLine
 10
172.09375
 20
160.133284
 30
0.0
 11
172.09375
 21
160.233284
 31
0.0
  0
LINE
  5
39C4
100
AcDbEntity
  8
0
  6
CONTINUOUS
 62
     0
100
AcDbLine
 10
172.09375
 20
156.669182
 30
0.0
 11
172.09375
 21
156.769182
 31
0.0
  0
LINE
  5
39C5
100
AcDbEntity
  8
0
  6
CONTINUOUS
 62
     0
100
AcDbLine
 10
172.09375
 20
153.205081
 30
0.0
 11
172.09375
 21
153.305081
 31
0.0
  0
LINE
  5
39C6
100
AcDbEntity
  8
0
  6
CONTINUOUS
 62
     0
100
AcDbLine
 10
172.09375
 20
149.740979
 30
0.0
 11
172.09375
 21
149.840979
 31
0.0
  0
LINE
  5
39C7
100
AcDbEntity
  8
0
  6
CONTINUOUS
 62
     0
100
AcDbLine
 10
171.09375
 20
172.257639
 30
0.0
 11
171.09375
 21
172.357639
 31
0.0
  0
LINE
  5
39C8
100
AcDbEntity
  8
0
  6
CONTINUOUS
 62
     0
100
AcDbLine
 10
171.09375
 20
168.793538
 30
0.0
 11
171.09375
 21
168.893538
 31
0.0
  0
LINE
  5
39C9
100
AcDbEntity
  8
0
  6
CONTINUOUS
 62
     0
100
AcDbLine
 10
171.09375
 20
165.329436
 30
0.0
 11
171.09375
 21
165.429436
 31
0.0
  0
LINE
  5
39CA
100
AcDbEntity
  8
0
  6
CONTINUOUS
 62
     0
100
AcDbLine
 10
171.09375
 20
161.865335
 30
0.0
 11
171.09375
 21
161.965335
 31
0.0
  0
LINE
  5
39CB
100
AcDbEntity
  8
0
  6
CONTINUOUS
 62
     0
100
AcDbLine
 10
171.09375
 20
158.401233
 30
0.0
 11
171.09375
 21
158.501233
 31
0.0
  0
LINE
  5
39CC
100
AcDbEntity
  8
0
  6
CONTINUOUS
 62
     0
100
AcDbLine
 10
171.09375
 20
154.937131
 30
0.0
 11
171.09375
 21
155.037131
 31
0.0
  0
LINE
  5
39CD
100
AcDbEntity
  8
0
  6
CONTINUOUS
 62
     0
100
AcDbLine
 10
171.09375
 20
151.47303
 30
0.0
 11
171.09375
 21
151.57303
 31
0.0
  0
LINE
  5
39CE
100
AcDbEntity
  8
0
  6
CONTINUOUS
 62
     0
100
AcDbLine
 10
170.09375
 20
173.98969
 30
0.0
 11
170.09375
 21
174.08969
 31
0.0
  0
LINE
  5
39CF
100
AcDbEntity
  8
0
  6
CONTINUOUS
 62
     0
100
AcDbLine
 10
170.09375
 20
170.525589
 30
0.0
 11
170.09375
 21
170.625589
 31
0.0
  0
LINE
  5
39D0
100
AcDbEntity
  8
0
  6
CONTINUOUS
 62
     0
100
AcDbLine
 10
170.09375
 20
167.061487
 30
0.0
 11
170.09375
 21
167.161487
 31
0.0
  0
LINE
  5
39D1
100
AcDbEntity
  8
0
  6
CONTINUOUS
 62
     0
100
AcDbLine
 10
170.09375
 20
163.597385
 30
0.0
 11
170.09375
 21
163.697385
 31
0.0
  0
LINE
  5
39D2
100
AcDbEntity
  8
0
  6
CONTINUOUS
 62
     0
100
AcDbLine
 10
170.09375
 20
160.133284
 30
0.0
 11
170.09375
 21
160.233284
 31
0.0
  0
LINE
  5
39D3
100
AcDbEntity
  8
0
  6
CONTINUOUS
 62
     0
100
AcDbLine
 10
170.09375
 20
156.669182
 30
0.0
 11
170.09375
 21
156.769182
 31
0.0
  0
LINE
  5
39D4
100
AcDbEntity
  8
0
  6
CONTINUOUS
 62
     0
100
AcDbLine
 10
170.09375
 20
153.205081
 30
0.0
 11
170.09375
 21
153.305081
 31
0.0
  0
LINE
  5
39D5
100
AcDbEntity
  8
0
  6
CONTINUOUS
 62
     0
100
AcDbLine
 10
170.09375
 20
149.740979
 30
0.0
 11
170.09375
 21
149.840979
 31
0.0
  0
LINE
  5
39D6
100
AcDbEntity
  8
0
  6
CONTINUOUS
 62
     0
100
AcDbLine
 10
169.09375
 20
172.257639
 30
0.0
 11
169.09375
 21
172.357639
 31
0.0
  0
LINE
  5
39D7
100
AcDbEntity
  8
0
  6
CONTINUOUS
 62
     0
100
AcDbLine
 10
169.09375
 20
168.793538
 30
0.0
 11
169.09375
 21
168.893538
 31
0.0
  0
LINE
  5
39D8
100
AcDbEntity
  8
0
  6
CONTINUOUS
 62
     0
100
AcDbLine
 10
169.09375
 20
165.329436
 30
0.0
 11
169.09375
 21
165.429436
 31
0.0
  0
LINE
  5
39D9
100
AcDbEntity
  8
0
  6
CONTINUOUS
 62
     0
100
AcDbLine
 10
169.09375
 20
161.865335
 30
0.0
 11
169.09375
 21
161.965335
 31
0.0
  0
LINE
  5
39DA
100
AcDbEntity
  8
0
  6
CONTINUOUS
 62
     0
100
AcDbLine
 10
169.09375
 20
158.401233
 30
0.0
 11
169.09375
 21
158.501233
 31
0.0
  0
LINE
  5
39DB
100
AcDbEntity
  8
0
  6
CONTINUOUS
 62
     0
100
AcDbLine
 10
169.09375
 20
154.937131
 30
0.0
 11
169.09375
 21
155.037131
 31
0.0
  0
LINE
  5
39DC
100
AcDbEntity
  8
0
  6
CONTINUOUS
 62
     0
100
AcDbLine
 10
169.09375
 20
151.47303
 30
0.0
 11
169.09375
 21
151.57303
 31
0.0
  0
LINE
  5
39DD
100
AcDbEntity
  8
0
  6
CONTINUOUS
 62
     0
100
AcDbLine
 10
168.09375
 20
173.98969
 30
0.0
 11
168.09375
 21
174.08969
 31
0.0
  0
LINE
  5
39DE
100
AcDbEntity
  8
0
  6
CONTINUOUS
 62
     0
100
AcDbLine
 10
168.09375
 20
170.525589
 30
0.0
 11
168.09375
 21
170.625589
 31
0.0
  0
LINE
  5
39DF
100
AcDbEntity
  8
0
  6
CONTINUOUS
 62
     0
100
AcDbLine
 10
168.09375
 20
167.061487
 30
0.0
 11
168.09375
 21
167.161487
 31
0.0
  0
LINE
  5
39E0
100
AcDbEntity
  8
0
  6
CONTINUOUS
 62
     0
100
AcDbLine
 10
168.09375
 20
163.597385
 30
0.0
 11
168.09375
 21
163.697385
 31
0.0
  0
LINE
  5
39E1
100
AcDbEntity
  8
0
  6
CONTINUOUS
 62
     0
100
AcDbLine
 10
168.09375
 20
160.133284
 30
0.0
 11
168.09375
 21
160.233284
 31
0.0
  0
LINE
  5
39E2
100
AcDbEntity
  8
0
  6
CONTINUOUS
 62
     0
100
AcDbLine
 10
168.09375
 20
156.669182
 30
0.0
 11
168.09375
 21
156.769182
 31
0.0
  0
LINE
  5
39E3
100
AcDbEntity
  8
0
  6
CONTINUOUS
 62
     0
100
AcDbLine
 10
168.09375
 20
153.205081
 30
0.0
 11
168.09375
 21
153.305081
 31
0.0
  0
LINE
  5
39E4
100
AcDbEntity
  8
0
  6
CONTINUOUS
 62
     0
100
AcDbLine
 10
168.09375
 20
149.740979
 30
0.0
 11
168.09375
 21
149.840979
 31
0.0
  0
LINE
  5
39E5
100
AcDbEntity
  8
0
  6
CONTINUOUS
 62
     0
100
AcDbLine
 10
167.09375
 20
172.257639
 30
0.0
 11
167.09375
 21
172.357639
 31
0.0
  0
LINE
  5
39E6
100
AcDbEntity
  8
0
  6
CONTINUOUS
 62
     0
100
AcDbLine
 10
167.09375
 20
168.793538
 30
0.0
 11
167.09375
 21
168.893538
 31
0.0
  0
LINE
  5
39E7
100
AcDbEntity
  8
0
  6
CONTINUOUS
 62
     0
100
AcDbLine
 10
167.09375
 20
165.329436
 30
0.0
 11
167.09375
 21
165.429436
 31
0.0
  0
LINE
  5
39E8
100
AcDbEntity
  8
0
  6
CONTINUOUS
 62
     0
100
AcDbLine
 10
167.09375
 20
161.865335
 30
0.0
 11
167.09375
 21
161.965335
 31
0.0
  0
LINE
  5
39E9
100
AcDbEntity
  8
0
  6
CONTINUOUS
 62
     0
100
AcDbLine
 10
167.09375
 20
158.401233
 30
0.0
 11
167.09375
 21
158.501233
 31
0.0
  0
LINE
  5
39EA
100
AcDbEntity
  8
0
  6
CONTINUOUS
 62
     0
100
AcDbLine
 10
167.09375
 20
154.937131
 30
0.0
 11
167.09375
 21
155.037131
 31
0.0
  0
LINE
  5
39EB
100
AcDbEntity
  8
0
  6
CONTINUOUS
 62
     0
100
AcDbLine
 10
167.09375
 20
151.47303
 30
0.0
 11
167.09375
 21
151.57303
 31
0.0
  0
LINE
  5
39EC
100
AcDbEntity
  8
0
  6
CONTINUOUS
 62
     0
100
AcDbLine
 10
166.09375
 20
173.98969
 30
0.0
 11
166.09375
 21
174.08969
 31
0.0
  0
LINE
  5
39ED
100
AcDbEntity
  8
0
  6
CONTINUOUS
 62
     0
100
AcDbLine
 10
166.09375
 20
170.525589
 30
0.0
 11
166.09375
 21
170.625589
 31
0.0
  0
LINE
  5
39EE
100
AcDbEntity
  8
0
  6
CONTINUOUS
 62
     0
100
AcDbLine
 10
166.09375
 20
167.061487
 30
0.0
 11
166.09375
 21
167.161487
 31
0.0
  0
LINE
  5
39EF
100
AcDbEntity
  8
0
  6
CONTINUOUS
 62
     0
100
AcDbLine
 10
166.09375
 20
163.597385
 30
0.0
 11
166.09375
 21
163.697385
 31
0.0
  0
LINE
  5
39F0
100
AcDbEntity
  8
0
  6
CONTINUOUS
 62
     0
100
AcDbLine
 10
166.09375
 20
160.133284
 30
0.0
 11
166.09375
 21
160.233284
 31
0.0
  0
LINE
  5
39F1
100
AcDbEntity
  8
0
  6
CONTINUOUS
 62
     0
100
AcDbLine
 10
166.09375
 20
156.669182
 30
0.0
 11
166.09375
 21
156.769182
 31
0.0
  0
LINE
  5
39F2
100
AcDbEntity
  8
0
  6
CONTINUOUS
 62
     0
100
AcDbLine
 10
166.09375
 20
153.205081
 30
0.0
 11
166.09375
 21
153.305081
 31
0.0
  0
LINE
  5
39F3
100
AcDbEntity
  8
0
  6
CONTINUOUS
 62
     0
100
AcDbLine
 10
166.09375
 20
149.740979
 30
0.0
 11
166.09375
 21
149.840979
 31
0.0
  0
LINE
  5
39F4
100
AcDbEntity
  8
0
  6
CONTINUOUS
 62
     0
100
AcDbLine
 10
165.09375
 20
172.257639
 30
0.0
 11
165.09375
 21
172.357639
 31
0.0
  0
LINE
  5
39F5
100
AcDbEntity
  8
0
  6
CONTINUOUS
 62
     0
100
AcDbLine
 10
165.09375
 20
168.793538
 30
0.0
 11
165.09375
 21
168.893538
 31
0.0
  0
LINE
  5
39F6
100
AcDbEntity
  8
0
  6
CONTINUOUS
 62
     0
100
AcDbLine
 10
165.09375
 20
165.329436
 30
0.0
 11
165.09375
 21
165.429436
 31
0.0
  0
LINE
  5
39F7
100
AcDbEntity
  8
0
  6
CONTINUOUS
 62
     0
100
AcDbLine
 10
165.09375
 20
161.865335
 30
0.0
 11
165.09375
 21
161.965335
 31
0.0
  0
LINE
  5
39F8
100
AcDbEntity
  8
0
  6
CONTINUOUS
 62
     0
100
AcDbLine
 10
165.09375
 20
158.401233
 30
0.0
 11
165.09375
 21
158.501233
 31
0.0
  0
LINE
  5
39F9
100
AcDbEntity
  8
0
  6
CONTINUOUS
 62
     0
100
AcDbLine
 10
165.09375
 20
154.937131
 30
0.0
 11
165.09375
 21
155.037131
 31
0.0
  0
LINE
  5
39FA
100
AcDbEntity
  8
0
  6
CONTINUOUS
 62
     0
100
AcDbLine
 10
165.09375
 20
151.47303
 30
0.0
 11
165.09375
 21
151.57303
 31
0.0
  0
LINE
  5
39FB
100
AcDbEntity
  8
0
  6
CONTINUOUS
 62
     0
100
AcDbLine
 10
178.15625
 20
173.98969
 30
0.0
 11
178.15625
 21
174.08969
 31
0.0
  0
LINE
  5
39FC
100
AcDbEntity
  8
0
  6
CONTINUOUS
 62
     0
100
AcDbLine
 10
178.15625
 20
170.525589
 30
0.0
 11
178.15625
 21
170.625589
 31
0.0
  0
LINE
  5
39FD
100
AcDbEntity
  8
0
  6
CONTINUOUS
 62
     0
100
AcDbLine
 10
178.15625
 20
167.061487
 30
0.0
 11
178.15625
 21
167.161487
 31
0.0
  0
LINE
  5
39FE
100
AcDbEntity
  8
0
  6
CONTINUOUS
 62
     0
100
AcDbLine
 10
178.15625
 20
163.597385
 30
0.0
 11
178.15625
 21
163.697385
 31
0.0
  0
LINE
  5
39FF
100
AcDbEntity
  8
0
  6
CONTINUOUS
 62
     0
100
AcDbLine
 10
178.15625
 20
160.133284
 30
0.0
 11
178.15625
 21
160.233284
 31
0.0
  0
LINE
  5
3A00
100
AcDbEntity
  8
0
  6
CONTINUOUS
 62
     0
100
AcDbLine
 10
178.15625
 20
156.669182
 30
0.0
 11
178.15625
 21
156.769182
 31
0.0
  0
LINE
  5
3A01
100
AcDbEntity
  8
0
  6
CONTINUOUS
 62
     0
100
AcDbLine
 10
178.15625
 20
153.205081
 30
0.0
 11
178.15625
 21
153.305081
 31
0.0
  0
LINE
  5
3A02
100
AcDbEntity
  8
0
  6
CONTINUOUS
 62
     0
100
AcDbLine
 10
178.15625
 20
149.740979
 30
0.0
 11
178.15625
 21
149.840979
 31
0.0
  0
LINE
  5
3A03
100
AcDbEntity
  8
0
  6
CONTINUOUS
 62
     0
100
AcDbLine
 10
177.15625
 20
172.257639
 30
0.0
 11
177.15625
 21
172.357639
 31
0.0
  0
LINE
  5
3A04
100
AcDbEntity
  8
0
  6
CONTINUOUS
 62
     0
100
AcDbLine
 10
177.15625
 20
168.793538
 30
0.0
 11
177.15625
 21
168.893538
 31
0.0
  0
LINE
  5
3A05
100
AcDbEntity
  8
0
  6
CONTINUOUS
 62
     0
100
AcDbLine
 10
177.15625
 20
165.329436
 30
0.0
 11
177.15625
 21
165.429436
 31
0.0
  0
LINE
  5
3A06
100
AcDbEntity
  8
0
  6
CONTINUOUS
 62
     0
100
AcDbLine
 10
177.15625
 20
161.865335
 30
0.0
 11
177.15625
 21
161.965335
 31
0.0
  0
LINE
  5
3A07
100
AcDbEntity
  8
0
  6
CONTINUOUS
 62
     0
100
AcDbLine
 10
177.15625
 20
158.401233
 30
0.0
 11
177.15625
 21
158.501233
 31
0.0
  0
LINE
  5
3A08
100
AcDbEntity
  8
0
  6
CONTINUOUS
 62
     0
100
AcDbLine
 10
177.15625
 20
154.937131
 30
0.0
 11
177.15625
 21
155.037131
 31
0.0
  0
LINE
  5
3A09
100
AcDbEntity
  8
0
  6
CONTINUOUS
 62
     0
100
AcDbLine
 10
177.15625
 20
151.47303
 30
0.0
 11
177.15625
 21
151.57303
 31
0.0
  0
LINE
  5
3A0A
100
AcDbEntity
  8
0
  6
CONTINUOUS
 62
     0
100
AcDbLine
 10
176.15625
 20
173.98969
 30
0.0
 11
176.15625
 21
174.08969
 31
0.0
  0
LINE
  5
3A0B
100
AcDbEntity
  8
0
  6
CONTINUOUS
 62
     0
100
AcDbLine
 10
176.15625
 20
170.525589
 30
0.0
 11
176.15625
 21
170.625589
 31
0.0
  0
LINE
  5
3A0C
100
AcDbEntity
  8
0
  6
CONTINUOUS
 62
     0
100
AcDbLine
 10
176.15625
 20
167.061487
 30
0.0
 11
176.15625
 21
167.161487
 31
0.0
  0
LINE
  5
3A0D
100
AcDbEntity
  8
0
  6
CONTINUOUS
 62
     0
100
AcDbLine
 10
176.15625
 20
163.597385
 30
0.0
 11
176.15625
 21
163.697385
 31
0.0
  0
LINE
  5
3A0E
100
AcDbEntity
  8
0
  6
CONTINUOUS
 62
     0
100
AcDbLine
 10
176.15625
 20
160.133284
 30
0.0
 11
176.15625
 21
160.233284
 31
0.0
  0
LINE
  5
3A0F
100
AcDbEntity
  8
0
  6
CONTINUOUS
 62
     0
100
AcDbLine
 10
176.15625
 20
156.669182
 30
0.0
 11
176.15625
 21
156.769182
 31
0.0
  0
LINE
  5
3A10
100
AcDbEntity
  8
0
  6
CONTINUOUS
 62
     0
100
AcDbLine
 10
176.15625
 20
153.205081
 30
0.0
 11
176.15625
 21
153.305081
 31
0.0
  0
LINE
  5
3A11
100
AcDbEntity
  8
0
  6
CONTINUOUS
 62
     0
100
AcDbLine
 10
176.15625
 20
149.740979
 30
0.0
 11
176.15625
 21
149.840979
 31
0.0
  0
LINE
  5
3A12
100
AcDbEntity
  8
0
  6
CONTINUOUS
 62
     0
100
AcDbLine
 10
175.15625
 20
172.257639
 30
0.0
 11
175.15625
 21
172.357639
 31
0.0
  0
LINE
  5
3A13
100
AcDbEntity
  8
0
  6
CONTINUOUS
 62
     0
100
AcDbLine
 10
175.15625
 20
168.793538
 30
0.0
 11
175.15625
 21
168.893538
 31
0.0
  0
LINE
  5
3A14
100
AcDbEntity
  8
0
  6
CONTINUOUS
 62
     0
100
AcDbLine
 10
175.15625
 20
165.329436
 30
0.0
 11
175.15625
 21
165.429436
 31
0.0
  0
LINE
  5
3A15
100
AcDbEntity
  8
0
  6
CONTINUOUS
 62
     0
100
AcDbLine
 10
175.15625
 20
161.865335
 30
0.0
 11
175.15625
 21
161.965335
 31
0.0
  0
LINE
  5
3A16
100
AcDbEntity
  8
0
  6
CONTINUOUS
 62
     0
100
AcDbLine
 10
175.15625
 20
158.401233
 30
0.0
 11
175.15625
 21
158.501233
 31
0.0
  0
LINE
  5
3A17
100
AcDbEntity
  8
0
  6
CONTINUOUS
 62
     0
100
AcDbLine
 10
175.15625
 20
154.937131
 30
0.0
 11
175.15625
 21
155.037131
 31
0.0
  0
LINE
  5
3A18
100
AcDbEntity
  8
0
  6
CONTINUOUS
 62
     0
100
AcDbLine
 10
175.15625
 20
151.47303
 30
0.0
 11
175.15625
 21
151.57303
 31
0.0
  0
LINE
  5
3A19
100
AcDbEntity
  8
0
  6
CONTINUOUS
 62
     0
100
AcDbLine
 10
174.15625
 20
173.98969
 30
0.0
 11
174.15625
 21
174.08969
 31
0.0
  0
LINE
  5
3A1A
100
AcDbEntity
  8
0
  6
CONTINUOUS
 62
     0
100
AcDbLine
 10
174.15625
 20
170.525589
 30
0.0
 11
174.15625
 21
170.625589
 31
0.0
  0
LINE
  5
3A1B
100
AcDbEntity
  8
0
  6
CONTINUOUS
 62
     0
100
AcDbLine
 10
174.15625
 20
167.061487
 30
0.0
 11
174.15625
 21
167.161487
 31
0.0
  0
LINE
  5
3A1C
100
AcDbEntity
  8
0
  6
CONTINUOUS
 62
     0
100
AcDbLine
 10
174.15625
 20
163.597385
 30
0.0
 11
174.15625
 21
163.697385
 31
0.0
  0
LINE
  5
3A1D
100
AcDbEntity
  8
0
  6
CONTINUOUS
 62
     0
100
AcDbLine
 10
174.15625
 20
160.133284
 30
0.0
 11
174.15625
 21
160.233284
 31
0.0
  0
LINE
  5
3A1E
100
AcDbEntity
  8
0
  6
CONTINUOUS
 62
     0
100
AcDbLine
 10
174.15625
 20
156.669182
 30
0.0
 11
174.15625
 21
156.769182
 31
0.0
  0
LINE
  5
3A1F
100
AcDbEntity
  8
0
  6
CONTINUOUS
 62
     0
100
AcDbLine
 10
174.15625
 20
153.205081
 30
0.0
 11
174.15625
 21
153.305081
 31
0.0
  0
LINE
  5
3A20
100
AcDbEntity
  8
0
  6
CONTINUOUS
 62
     0
100
AcDbLine
 10
174.15625
 20
149.740979
 30
0.0
 11
174.15625
 21
149.840979
 31
0.0
  0
LINE
  5
3A21
100
AcDbEntity
  8
0
  6
CONTINUOUS
 62
     0
100
AcDbLine
 10
173.15625
 20
172.257639
 30
0.0
 11
173.15625
 21
172.357639
 31
0.0
  0
LINE
  5
3A22
100
AcDbEntity
  8
0
  6
CONTINUOUS
 62
     0
100
AcDbLine
 10
173.15625
 20
168.793538
 30
0.0
 11
173.15625
 21
168.893538
 31
0.0
  0
LINE
  5
3A23
100
AcDbEntity
  8
0
  6
CONTINUOUS
 62
     0
100
AcDbLine
 10
173.15625
 20
165.329436
 30
0.0
 11
173.15625
 21
165.429436
 31
0.0
  0
LINE
  5
3A24
100
AcDbEntity
  8
0
  6
CONTINUOUS
 62
     0
100
AcDbLine
 10
173.15625
 20
161.865335
 30
0.0
 11
173.15625
 21
161.965335
 31
0.0
  0
LINE
  5
3A25
100
AcDbEntity
  8
0
  6
CONTINUOUS
 62
     0
100
AcDbLine
 10
173.15625
 20
158.401233
 30
0.0
 11
173.15625
 21
158.501233
 31
0.0
  0
LINE
  5
3A26
100
AcDbEntity
  8
0
  6
CONTINUOUS
 62
     0
100
AcDbLine
 10
173.15625
 20
154.937131
 30
0.0
 11
173.15625
 21
155.037131
 31
0.0
  0
LINE
  5
3A27
100
AcDbEntity
  8
0
  6
CONTINUOUS
 62
     0
100
AcDbLine
 10
173.15625
 20
151.47303
 30
0.0
 11
173.15625
 21
151.57303
 31
0.0
  0
LINE
  5
3A28
100
AcDbEntity
  8
0
  6
CONTINUOUS
 62
     0
100
AcDbLine
 10
172.15625
 20
173.98969
 30
0.0
 11
172.15625
 21
174.08969
 31
0.0
  0
LINE
  5
3A29
100
AcDbEntity
  8
0
  6
CONTINUOUS
 62
     0
100
AcDbLine
 10
172.15625
 20
170.525589
 30
0.0
 11
172.15625
 21
170.625589
 31
0.0
  0
LINE
  5
3A2A
100
AcDbEntity
  8
0
  6
CONTINUOUS
 62
     0
100
AcDbLine
 10
172.15625
 20
167.061487
 30
0.0
 11
172.15625
 21
167.161487
 31
0.0
  0
LINE
  5
3A2B
100
AcDbEntity
  8
0
  6
CONTINUOUS
 62
     0
100
AcDbLine
 10
172.15625
 20
163.597385
 30
0.0
 11
172.15625
 21
163.697385
 31
0.0
  0
LINE
  5
3A2C
100
AcDbEntity
  8
0
  6
CONTINUOUS
 62
     0
100
AcDbLine
 10
172.15625
 20
160.133284
 30
0.0
 11
172.15625
 21
160.233284
 31
0.0
  0
LINE
  5
3A2D
100
AcDbEntity
  8
0
  6
CONTINUOUS
 62
     0
100
AcDbLine
 10
172.15625
 20
156.669182
 30
0.0
 11
172.15625
 21
156.769182
 31
0.0
  0
LINE
  5
3A2E
100
AcDbEntity
  8
0
  6
CONTINUOUS
 62
     0
100
AcDbLine
 10
172.15625
 20
153.205081
 30
0.0
 11
172.15625
 21
153.305081
 31
0.0
  0
LINE
  5
3A2F
100
AcDbEntity
  8
0
  6
CONTINUOUS
 62
     0
100
AcDbLine
 10
172.15625
 20
149.740979
 30
0.0
 11
172.15625
 21
149.840979
 31
0.0
  0
LINE
  5
3A30
100
AcDbEntity
  8
0
  6
CONTINUOUS
 62
     0
100
AcDbLine
 10
171.15625
 20
172.257639
 30
0.0
 11
171.15625
 21
172.357639
 31
0.0
  0
LINE
  5
3A31
100
AcDbEntity
  8
0
  6
CONTINUOUS
 62
     0
100
AcDbLine
 10
171.15625
 20
168.793538
 30
0.0
 11
171.15625
 21
168.893538
 31
0.0
  0
LINE
  5
3A32
100
AcDbEntity
  8
0
  6
CONTINUOUS
 62
     0
100
AcDbLine
 10
171.15625
 20
165.329436
 30
0.0
 11
171.15625
 21
165.429436
 31
0.0
  0
LINE
  5
3A33
100
AcDbEntity
  8
0
  6
CONTINUOUS
 62
     0
100
AcDbLine
 10
171.15625
 20
161.865335
 30
0.0
 11
171.15625
 21
161.965335
 31
0.0
  0
LINE
  5
3A34
100
AcDbEntity
  8
0
  6
CONTINUOUS
 62
     0
100
AcDbLine
 10
171.15625
 20
158.401233
 30
0.0
 11
171.15625
 21
158.501233
 31
0.0
  0
LINE
  5
3A35
100
AcDbEntity
  8
0
  6
CONTINUOUS
 62
     0
100
AcDbLine
 10
171.15625
 20
154.937131
 30
0.0
 11
171.15625
 21
155.037131
 31
0.0
  0
LINE
  5
3A36
100
AcDbEntity
  8
0
  6
CONTINUOUS
 62
     0
100
AcDbLine
 10
171.15625
 20
151.47303
 30
0.0
 11
171.15625
 21
151.57303
 31
0.0
  0
LINE
  5
3A37
100
AcDbEntity
  8
0
  6
CONTINUOUS
 62
     0
100
AcDbLine
 10
170.15625
 20
173.98969
 30
0.0
 11
170.15625
 21
174.08969
 31
0.0
  0
LINE
  5
3A38
100
AcDbEntity
  8
0
  6
CONTINUOUS
 62
     0
100
AcDbLine
 10
170.15625
 20
170.525589
 30
0.0
 11
170.15625
 21
170.625589
 31
0.0
  0
LINE
  5
3A39
100
AcDbEntity
  8
0
  6
CONTINUOUS
 62
     0
100
AcDbLine
 10
170.15625
 20
167.061487
 30
0.0
 11
170.15625
 21
167.161487
 31
0.0
  0
LINE
  5
3A3A
100
AcDbEntity
  8
0
  6
CONTINUOUS
 62
     0
100
AcDbLine
 10
170.15625
 20
163.597385
 30
0.0
 11
170.15625
 21
163.697385
 31
0.0
  0
LINE
  5
3A3B
100
AcDbEntity
  8
0
  6
CONTINUOUS
 62
     0
100
AcDbLine
 10
170.15625
 20
160.133284
 30
0.0
 11
170.15625
 21
160.233284
 31
0.0
  0
LINE
  5
3A3C
100
AcDbEntity
  8
0
  6
CONTINUOUS
 62
     0
100
AcDbLine
 10
170.15625
 20
156.669182
 30
0.0
 11
170.15625
 21
156.769182
 31
0.0
  0
LINE
  5
3A3D
100
AcDbEntity
  8
0
  6
CONTINUOUS
 62
     0
100
AcDbLine
 10
170.15625
 20
153.205081
 30
0.0
 11
170.15625
 21
153.305081
 31
0.0
  0
LINE
  5
3A3E
100
AcDbEntity
  8
0
  6
CONTINUOUS
 62
     0
100
AcDbLine
 10
170.15625
 20
149.740979
 30
0.0
 11
170.15625
 21
149.840979
 31
0.0
  0
LINE
  5
3A3F
100
AcDbEntity
  8
0
  6
CONTINUOUS
 62
     0
100
AcDbLine
 10
169.15625
 20
172.257639
 30
0.0
 11
169.15625
 21
172.357639
 31
0.0
  0
LINE
  5
3A40
100
AcDbEntity
  8
0
  6
CONTINUOUS
 62
     0
100
AcDbLine
 10
169.15625
 20
168.793538
 30
0.0
 11
169.15625
 21
168.893538
 31
0.0
  0
LINE
  5
3A41
100
AcDbEntity
  8
0
  6
CONTINUOUS
 62
     0
100
AcDbLine
 10
169.15625
 20
165.329436
 30
0.0
 11
169.15625
 21
165.429436
 31
0.0
  0
LINE
  5
3A42
100
AcDbEntity
  8
0
  6
CONTINUOUS
 62
     0
100
AcDbLine
 10
169.15625
 20
161.865335
 30
0.0
 11
169.15625
 21
161.965335
 31
0.0
  0
LINE
  5
3A43
100
AcDbEntity
  8
0
  6
CONTINUOUS
 62
     0
100
AcDbLine
 10
169.15625
 20
158.401233
 30
0.0
 11
169.15625
 21
158.501233
 31
0.0
  0
LINE
  5
3A44
100
AcDbEntity
  8
0
  6
CONTINUOUS
 62
     0
100
AcDbLine
 10
169.15625
 20
154.937131
 30
0.0
 11
169.15625
 21
155.037131
 31
0.0
  0
LINE
  5
3A45
100
AcDbEntity
  8
0
  6
CONTINUOUS
 62
     0
100
AcDbLine
 10
169.15625
 20
151.47303
 30
0.0
 11
169.15625
 21
151.57303
 31
0.0
  0
LINE
  5
3A46
100
AcDbEntity
  8
0
  6
CONTINUOUS
 62
     0
100
AcDbLine
 10
168.15625
 20
173.98969
 30
0.0
 11
168.15625
 21
174.08969
 31
0.0
  0
LINE
  5
3A47
100
AcDbEntity
  8
0
  6
CONTINUOUS
 62
     0
100
AcDbLine
 10
168.15625
 20
170.525589
 30
0.0
 11
168.15625
 21
170.625589
 31
0.0
  0
LINE
  5
3A48
100
AcDbEntity
  8
0
  6
CONTINUOUS
 62
     0
100
AcDbLine
 10
168.15625
 20
167.061487
 30
0.0
 11
168.15625
 21
167.161487
 31
0.0
  0
LINE
  5
3A49
100
AcDbEntity
  8
0
  6
CONTINUOUS
 62
     0
100
AcDbLine
 10
168.15625
 20
163.597385
 30
0.0
 11
168.15625
 21
163.697385
 31
0.0
  0
LINE
  5
3A4A
100
AcDbEntity
  8
0
  6
CONTINUOUS
 62
     0
100
AcDbLine
 10
168.15625
 20
160.133284
 30
0.0
 11
168.15625
 21
160.233284
 31
0.0
  0
LINE
  5
3A4B
100
AcDbEntity
  8
0
  6
CONTINUOUS
 62
     0
100
AcDbLine
 10
168.15625
 20
156.669182
 30
0.0
 11
168.15625
 21
156.769182
 31
0.0
  0
LINE
  5
3A4C
100
AcDbEntity
  8
0
  6
CONTINUOUS
 62
     0
100
AcDbLine
 10
168.15625
 20
153.205081
 30
0.0
 11
168.15625
 21
153.305081
 31
0.0
  0
LINE
  5
3A4D
100
AcDbEntity
  8
0
  6
CONTINUOUS
 62
     0
100
AcDbLine
 10
168.15625
 20
149.740979
 30
0.0
 11
168.15625
 21
149.840979
 31
0.0
  0
LINE
  5
3A4E
100
AcDbEntity
  8
0
  6
CONTINUOUS
 62
     0
100
AcDbLine
 10
167.15625
 20
172.257639
 30
0.0
 11
167.15625
 21
172.357639
 31
0.0
  0
LINE
  5
3A4F
100
AcDbEntity
  8
0
  6
CONTINUOUS
 62
     0
100
AcDbLine
 10
167.15625
 20
168.793538
 30
0.0
 11
167.15625
 21
168.893538
 31
0.0
  0
LINE
  5
3A50
100
AcDbEntity
  8
0
  6
CONTINUOUS
 62
     0
100
AcDbLine
 10
167.15625
 20
165.329436
 30
0.0
 11
167.15625
 21
165.429436
 31
0.0
  0
LINE
  5
3A51
100
AcDbEntity
  8
0
  6
CONTINUOUS
 62
     0
100
AcDbLine
 10
167.15625
 20
161.865335
 30
0.0
 11
167.15625
 21
161.965335
 31
0.0
  0
LINE
  5
3A52
100
AcDbEntity
  8
0
  6
CONTINUOUS
 62
     0
100
AcDbLine
 10
167.15625
 20
158.401233
 30
0.0
 11
167.15625
 21
158.501233
 31
0.0
  0
LINE
  5
3A53
100
AcDbEntity
  8
0
  6
CONTINUOUS
 62
     0
100
AcDbLine
 10
167.15625
 20
154.937131
 30
0.0
 11
167.15625
 21
155.037131
 31
0.0
  0
LINE
  5
3A54
100
AcDbEntity
  8
0
  6
CONTINUOUS
 62
     0
100
AcDbLine
 10
167.15625
 20
151.47303
 30
0.0
 11
167.15625
 21
151.57303
 31
0.0
  0
LINE
  5
3A55
100
AcDbEntity
  8
0
  6
CONTINUOUS
 62
     0
100
AcDbLine
 10
166.15625
 20
173.98969
 30
0.0
 11
166.15625
 21
174.08969
 31
0.0
  0
LINE
  5
3A56
100
AcDbEntity
  8
0
  6
CONTINUOUS
 62
     0
100
AcDbLine
 10
166.15625
 20
170.525589
 30
0.0
 11
166.15625
 21
170.625589
 31
0.0
  0
LINE
  5
3A57
100
AcDbEntity
  8
0
  6
CONTINUOUS
 62
     0
100
AcDbLine
 10
166.15625
 20
167.061487
 30
0.0
 11
166.15625
 21
167.161487
 31
0.0
  0
LINE
  5
3A58
100
AcDbEntity
  8
0
  6
CONTINUOUS
 62
     0
100
AcDbLine
 10
166.15625
 20
163.597385
 30
0.0
 11
166.15625
 21
163.697385
 31
0.0
  0
LINE
  5
3A59
100
AcDbEntity
  8
0
  6
CONTINUOUS
 62
     0
100
AcDbLine
 10
166.15625
 20
160.133284
 30
0.0
 11
166.15625
 21
160.233284
 31
0.0
  0
LINE
  5
3A5A
100
AcDbEntity
  8
0
  6
CONTINUOUS
 62
     0
100
AcDbLine
 10
166.15625
 20
156.669182
 30
0.0
 11
166.15625
 21
156.769182
 31
0.0
  0
LINE
  5
3A5B
100
AcDbEntity
  8
0
  6
CONTINUOUS
 62
     0
100
AcDbLine
 10
166.15625
 20
153.205081
 30
0.0
 11
166.15625
 21
153.305081
 31
0.0
  0
LINE
  5
3A5C
100
AcDbEntity
  8
0
  6
CONTINUOUS
 62
     0
100
AcDbLine
 10
166.15625
 20
149.740979
 30
0.0
 11
166.15625
 21
149.840979
 31
0.0
  0
LINE
  5
3A5D
100
AcDbEntity
  8
0
  6
CONTINUOUS
 62
     0
100
AcDbLine
 10
165.15625
 20
172.257639
 30
0.0
 11
165.15625
 21
172.357639
 31
0.0
  0
LINE
  5
3A5E
100
AcDbEntity
  8
0
  6
CONTINUOUS
 62
     0
100
AcDbLine
 10
165.15625
 20
168.793538
 30
0.0
 11
165.15625
 21
168.893538
 31
0.0
  0
LINE
  5
3A5F
100
AcDbEntity
  8
0
  6
CONTINUOUS
 62
     0
100
AcDbLine
 10
165.15625
 20
165.329436
 30
0.0
 11
165.15625
 21
165.429436
 31
0.0
  0
LINE
  5
3A60
100
AcDbEntity
  8
0
  6
CONTINUOUS
 62
     0
100
AcDbLine
 10
165.15625
 20
161.865335
 30
0.0
 11
165.15625
 21
161.965335
 31
0.0
  0
LINE
  5
3A61
100
AcDbEntity
  8
0
  6
CONTINUOUS
 62
     0
100
AcDbLine
 10
165.15625
 20
158.401233
 30
0.0
 11
165.15625
 21
158.501233
 31
0.0
  0
LINE
  5
3A62
100
AcDbEntity
  8
0
  6
CONTINUOUS
 62
     0
100
AcDbLine
 10
165.15625
 20
154.937131
 30
0.0
 11
165.15625
 21
155.037131
 31
0.0
  0
LINE
  5
3A63
100
AcDbEntity
  8
0
  6
CONTINUOUS
 62
     0
100
AcDbLine
 10
165.15625
 20
151.47303
 30
0.0
 11
165.15625
 21
151.57303
 31
0.0
  0
LINE
  5
3A64
100
AcDbEntity
  8
0
  6
CONTINUOUS
 62
     0
100
AcDbLine
 10
178.125
 20
173.98969
 30
0.0
 11
178.125
 21
174.11469
 31
0.0
  0
LINE
  5
3A65
100
AcDbEntity
  8
0
  6
CONTINUOUS
 62
     0
100
AcDbLine
 10
178.125
 20
170.525589
 30
0.0
 11
178.125
 21
170.650589
 31
0.0
  0
LINE
  5
3A66
100
AcDbEntity
  8
0
  6
CONTINUOUS
 62
     0
100
AcDbLine
 10
178.125
 20
167.061487
 30
0.0
 11
178.125
 21
167.186487
 31
0.0
  0
LINE
  5
3A67
100
AcDbEntity
  8
0
  6
CONTINUOUS
 62
     0
100
AcDbLine
 10
178.125
 20
163.597385
 30
0.0
 11
178.125
 21
163.722385
 31
0.0
  0
LINE
  5
3A68
100
AcDbEntity
  8
0
  6
CONTINUOUS
 62
     0
100
AcDbLine
 10
178.125
 20
160.133284
 30
0.0
 11
178.125
 21
160.258284
 31
0.0
  0
LINE
  5
3A69
100
AcDbEntity
  8
0
  6
CONTINUOUS
 62
     0
100
AcDbLine
 10
178.125
 20
156.669182
 30
0.0
 11
178.125
 21
156.794182
 31
0.0
  0
LINE
  5
3A6A
100
AcDbEntity
  8
0
  6
CONTINUOUS
 62
     0
100
AcDbLine
 10
178.125
 20
153.205081
 30
0.0
 11
178.125
 21
153.330081
 31
0.0
  0
LINE
  5
3A6B
100
AcDbEntity
  8
0
  6
CONTINUOUS
 62
     0
100
AcDbLine
 10
178.125
 20
149.740979
 30
0.0
 11
178.125
 21
149.865979
 31
0.0
  0
LINE
  5
3A6C
100
AcDbEntity
  8
0
  6
CONTINUOUS
 62
     0
100
AcDbLine
 10
177.125
 20
172.257639
 30
0.0
 11
177.125
 21
172.382639
 31
0.0
  0
LINE
  5
3A6D
100
AcDbEntity
  8
0
  6
CONTINUOUS
 62
     0
100
AcDbLine
 10
177.125
 20
168.793538
 30
0.0
 11
177.125
 21
168.918538
 31
0.0
  0
LINE
  5
3A6E
100
AcDbEntity
  8
0
  6
CONTINUOUS
 62
     0
100
AcDbLine
 10
177.125
 20
165.329436
 30
0.0
 11
177.125
 21
165.454436
 31
0.0
  0
LINE
  5
3A6F
100
AcDbEntity
  8
0
  6
CONTINUOUS
 62
     0
100
AcDbLine
 10
177.125
 20
161.865335
 30
0.0
 11
177.125
 21
161.990335
 31
0.0
  0
LINE
  5
3A70
100
AcDbEntity
  8
0
  6
CONTINUOUS
 62
     0
100
AcDbLine
 10
177.125
 20
158.401233
 30
0.0
 11
177.125
 21
158.526233
 31
0.0
  0
LINE
  5
3A71
100
AcDbEntity
  8
0
  6
CONTINUOUS
 62
     0
100
AcDbLine
 10
177.125
 20
154.937131
 30
0.0
 11
177.125
 21
155.062131
 31
0.0
  0
LINE
  5
3A72
100
AcDbEntity
  8
0
  6
CONTINUOUS
 62
     0
100
AcDbLine
 10
177.125
 20
151.47303
 30
0.0
 11
177.125
 21
151.59803
 31
0.0
  0
LINE
  5
3A73
100
AcDbEntity
  8
0
  6
CONTINUOUS
 62
     0
100
AcDbLine
 10
176.125
 20
173.98969
 30
0.0
 11
176.125
 21
174.11469
 31
0.0
  0
LINE
  5
3A74
100
AcDbEntity
  8
0
  6
CONTINUOUS
 62
     0
100
AcDbLine
 10
176.125
 20
170.525589
 30
0.0
 11
176.125
 21
170.650589
 31
0.0
  0
LINE
  5
3A75
100
AcDbEntity
  8
0
  6
CONTINUOUS
 62
     0
100
AcDbLine
 10
176.125
 20
167.061487
 30
0.0
 11
176.125
 21
167.186487
 31
0.0
  0
LINE
  5
3A76
100
AcDbEntity
  8
0
  6
CONTINUOUS
 62
     0
100
AcDbLine
 10
176.125
 20
163.597385
 30
0.0
 11
176.125
 21
163.722385
 31
0.0
  0
LINE
  5
3A77
100
AcDbEntity
  8
0
  6
CONTINUOUS
 62
     0
100
AcDbLine
 10
176.125
 20
160.133284
 30
0.0
 11
176.125
 21
160.258284
 31
0.0
  0
LINE
  5
3A78
100
AcDbEntity
  8
0
  6
CONTINUOUS
 62
     0
100
AcDbLine
 10
176.125
 20
156.669182
 30
0.0
 11
176.125
 21
156.794182
 31
0.0
  0
LINE
  5
3A79
100
AcDbEntity
  8
0
  6
CONTINUOUS
 62
     0
100
AcDbLine
 10
176.125
 20
153.205081
 30
0.0
 11
176.125
 21
153.330081
 31
0.0
  0
LINE
  5
3A7A
100
AcDbEntity
  8
0
  6
CONTINUOUS
 62
     0
100
AcDbLine
 10
176.125
 20
149.740979
 30
0.0
 11
176.125
 21
149.865979
 31
0.0
  0
LINE
  5
3A7B
100
AcDbEntity
  8
0
  6
CONTINUOUS
 62
     0
100
AcDbLine
 10
175.125
 20
172.257639
 30
0.0
 11
175.125
 21
172.382639
 31
0.0
  0
LINE
  5
3A7C
100
AcDbEntity
  8
0
  6
CONTINUOUS
 62
     0
100
AcDbLine
 10
175.125
 20
168.793538
 30
0.0
 11
175.125
 21
168.918538
 31
0.0
  0
LINE
  5
3A7D
100
AcDbEntity
  8
0
  6
CONTINUOUS
 62
     0
100
AcDbLine
 10
175.125
 20
165.329436
 30
0.0
 11
175.125
 21
165.454436
 31
0.0
  0
LINE
  5
3A7E
100
AcDbEntity
  8
0
  6
CONTINUOUS
 62
     0
100
AcDbLine
 10
175.125
 20
161.865335
 30
0.0
 11
175.125
 21
161.990335
 31
0.0
  0
LINE
  5
3A7F
100
AcDbEntity
  8
0
  6
CONTINUOUS
 62
     0
100
AcDbLine
 10
175.125
 20
158.401233
 30
0.0
 11
175.125
 21
158.526233
 31
0.0
  0
LINE
  5
3A80
100
AcDbEntity
  8
0
  6
CONTINUOUS
 62
     0
100
AcDbLine
 10
175.125
 20
154.937131
 30
0.0
 11
175.125
 21
155.062131
 31
0.0
  0
LINE
  5
3A81
100
AcDbEntity
  8
0
  6
CONTINUOUS
 62
     0
100
AcDbLine
 10
175.125
 20
151.47303
 30
0.0
 11
175.125
 21
151.59803
 31
0.0
  0
LINE
  5
3A82
100
AcDbEntity
  8
0
  6
CONTINUOUS
 62
     0
100
AcDbLine
 10
174.125
 20
173.98969
 30
0.0
 11
174.125
 21
174.11469
 31
0.0
  0
LINE
  5
3A83
100
AcDbEntity
  8
0
  6
CONTINUOUS
 62
     0
100
AcDbLine
 10
174.125
 20
170.525589
 30
0.0
 11
174.125
 21
170.650589
 31
0.0
  0
LINE
  5
3A84
100
AcDbEntity
  8
0
  6
CONTINUOUS
 62
     0
100
AcDbLine
 10
174.125
 20
167.061487
 30
0.0
 11
174.125
 21
167.186487
 31
0.0
  0
LINE
  5
3A85
100
AcDbEntity
  8
0
  6
CONTINUOUS
 62
     0
100
AcDbLine
 10
174.125
 20
163.597385
 30
0.0
 11
174.125
 21
163.722385
 31
0.0
  0
LINE
  5
3A86
100
AcDbEntity
  8
0
  6
CONTINUOUS
 62
     0
100
AcDbLine
 10
174.125
 20
160.133284
 30
0.0
 11
174.125
 21
160.258284
 31
0.0
  0
LINE
  5
3A87
100
AcDbEntity
  8
0
  6
CONTINUOUS
 62
     0
100
AcDbLine
 10
174.125
 20
156.669182
 30
0.0
 11
174.125
 21
156.794182
 31
0.0
  0
LINE
  5
3A88
100
AcDbEntity
  8
0
  6
CONTINUOUS
 62
     0
100
AcDbLine
 10
174.125
 20
153.205081
 30
0.0
 11
174.125
 21
153.330081
 31
0.0
  0
LINE
  5
3A89
100
AcDbEntity
  8
0
  6
CONTINUOUS
 62
     0
100
AcDbLine
 10
174.125
 20
149.740979
 30
0.0
 11
174.125
 21
149.865979
 31
0.0
  0
LINE
  5
3A8A
100
AcDbEntity
  8
0
  6
CONTINUOUS
 62
     0
100
AcDbLine
 10
173.125
 20
172.257639
 30
0.0
 11
173.125
 21
172.382639
 31
0.0
  0
LINE
  5
3A8B
100
AcDbEntity
  8
0
  6
CONTINUOUS
 62
     0
100
AcDbLine
 10
173.125
 20
168.793538
 30
0.0
 11
173.125
 21
168.918538
 31
0.0
  0
LINE
  5
3A8C
100
AcDbEntity
  8
0
  6
CONTINUOUS
 62
     0
100
AcDbLine
 10
173.125
 20
165.329436
 30
0.0
 11
173.125
 21
165.454436
 31
0.0
  0
LINE
  5
3A8D
100
AcDbEntity
  8
0
  6
CONTINUOUS
 62
     0
100
AcDbLine
 10
173.125
 20
161.865335
 30
0.0
 11
173.125
 21
161.990335
 31
0.0
  0
LINE
  5
3A8E
100
AcDbEntity
  8
0
  6
CONTINUOUS
 62
     0
100
AcDbLine
 10
173.125
 20
158.401233
 30
0.0
 11
173.125
 21
158.526233
 31
0.0
  0
LINE
  5
3A8F
100
AcDbEntity
  8
0
  6
CONTINUOUS
 62
     0
100
AcDbLine
 10
173.125
 20
154.937131
 30
0.0
 11
173.125
 21
155.062131
 31
0.0
  0
LINE
  5
3A90
100
AcDbEntity
  8
0
  6
CONTINUOUS
 62
     0
100
AcDbLine
 10
173.125
 20
151.47303
 30
0.0
 11
173.125
 21
151.59803
 31
0.0
  0
LINE
  5
3A91
100
AcDbEntity
  8
0
  6
CONTINUOUS
 62
     0
100
AcDbLine
 10
172.125
 20
173.98969
 30
0.0
 11
172.125
 21
174.11469
 31
0.0
  0
LINE
  5
3A92
100
AcDbEntity
  8
0
  6
CONTINUOUS
 62
     0
100
AcDbLine
 10
172.125
 20
170.525589
 30
0.0
 11
172.125
 21
170.650589
 31
0.0
  0
LINE
  5
3A93
100
AcDbEntity
  8
0
  6
CONTINUOUS
 62
     0
100
AcDbLine
 10
172.125
 20
167.061487
 30
0.0
 11
172.125
 21
167.186487
 31
0.0
  0
LINE
  5
3A94
100
AcDbEntity
  8
0
  6
CONTINUOUS
 62
     0
100
AcDbLine
 10
172.125
 20
163.597385
 30
0.0
 11
172.125
 21
163.722385
 31
0.0
  0
LINE
  5
3A95
100
AcDbEntity
  8
0
  6
CONTINUOUS
 62
     0
100
AcDbLine
 10
172.125
 20
160.133284
 30
0.0
 11
172.125
 21
160.258284
 31
0.0
  0
LINE
  5
3A96
100
AcDbEntity
  8
0
  6
CONTINUOUS
 62
     0
100
AcDbLine
 10
172.125
 20
156.669182
 30
0.0
 11
172.125
 21
156.794182
 31
0.0
  0
LINE
  5
3A97
100
AcDbEntity
  8
0
  6
CONTINUOUS
 62
     0
100
AcDbLine
 10
172.125
 20
153.205081
 30
0.0
 11
172.125
 21
153.330081
 31
0.0
  0
LINE
  5
3A98
100
AcDbEntity
  8
0
  6
CONTINUOUS
 62
     0
100
AcDbLine
 10
172.125
 20
149.740979
 30
0.0
 11
172.125
 21
149.865979
 31
0.0
  0
LINE
  5
3A99
100
AcDbEntity
  8
0
  6
CONTINUOUS
 62
     0
100
AcDbLine
 10
171.125
 20
172.257639
 30
0.0
 11
171.125
 21
172.382639
 31
0.0
  0
LINE
  5
3A9A
100
AcDbEntity
  8
0
  6
CONTINUOUS
 62
     0
100
AcDbLine
 10
171.125
 20
168.793538
 30
0.0
 11
171.125
 21
168.918538
 31
0.0
  0
LINE
  5
3A9B
100
AcDbEntity
  8
0
  6
CONTINUOUS
 62
     0
100
AcDbLine
 10
171.125
 20
165.329436
 30
0.0
 11
171.125
 21
165.454436
 31
0.0
  0
LINE
  5
3A9C
100
AcDbEntity
  8
0
  6
CONTINUOUS
 62
     0
100
AcDbLine
 10
171.125
 20
161.865335
 30
0.0
 11
171.125
 21
161.990335
 31
0.0
  0
LINE
  5
3A9D
100
AcDbEntity
  8
0
  6
CONTINUOUS
 62
     0
100
AcDbLine
 10
171.125
 20
158.401233
 30
0.0
 11
171.125
 21
158.526233
 31
0.0
  0
LINE
  5
3A9E
100
AcDbEntity
  8
0
  6
CONTINUOUS
 62
     0
100
AcDbLine
 10
171.125
 20
154.937131
 30
0.0
 11
171.125
 21
155.062131
 31
0.0
  0
LINE
  5
3A9F
100
AcDbEntity
  8
0
  6
CONTINUOUS
 62
     0
100
AcDbLine
 10
171.125
 20
151.47303
 30
0.0
 11
171.125
 21
151.59803
 31
0.0
  0
LINE
  5
3AA0
100
AcDbEntity
  8
0
  6
CONTINUOUS
 62
     0
100
AcDbLine
 10
170.125
 20
173.98969
 30
0.0
 11
170.125
 21
174.11469
 31
0.0
  0
LINE
  5
3AA1
100
AcDbEntity
  8
0
  6
CONTINUOUS
 62
     0
100
AcDbLine
 10
170.125
 20
170.525589
 30
0.0
 11
170.125
 21
170.650589
 31
0.0
  0
LINE
  5
3AA2
100
AcDbEntity
  8
0
  6
CONTINUOUS
 62
     0
100
AcDbLine
 10
170.125
 20
167.061487
 30
0.0
 11
170.125
 21
167.186487
 31
0.0
  0
LINE
  5
3AA3
100
AcDbEntity
  8
0
  6
CONTINUOUS
 62
     0
100
AcDbLine
 10
170.125
 20
163.597385
 30
0.0
 11
170.125
 21
163.722385
 31
0.0
  0
LINE
  5
3AA4
100
AcDbEntity
  8
0
  6
CONTINUOUS
 62
     0
100
AcDbLine
 10
170.125
 20
160.133284
 30
0.0
 11
170.125
 21
160.258284
 31
0.0
  0
LINE
  5
3AA5
100
AcDbEntity
  8
0
  6
CONTINUOUS
 62
     0
100
AcDbLine
 10
170.125
 20
156.669182
 30
0.0
 11
170.125
 21
156.794182
 31
0.0
  0
LINE
  5
3AA6
100
AcDbEntity
  8
0
  6
CONTINUOUS
 62
     0
100
AcDbLine
 10
170.125
 20
153.205081
 30
0.0
 11
170.125
 21
153.330081
 31
0.0
  0
LINE
  5
3AA7
100
AcDbEntity
  8
0
  6
CONTINUOUS
 62
     0
100
AcDbLine
 10
170.125
 20
149.740979
 30
0.0
 11
170.125
 21
149.865979
 31
0.0
  0
LINE
  5
3AA8
100
AcDbEntity
  8
0
  6
CONTINUOUS
 62
     0
100
AcDbLine
 10
169.125
 20
172.257639
 30
0.0
 11
169.125
 21
172.382639
 31
0.0
  0
LINE
  5
3AA9
100
AcDbEntity
  8
0
  6
CONTINUOUS
 62
     0
100
AcDbLine
 10
169.125
 20
168.793538
 30
0.0
 11
169.125
 21
168.918538
 31
0.0
  0
LINE
  5
3AAA
100
AcDbEntity
  8
0
  6
CONTINUOUS
 62
     0
100
AcDbLine
 10
169.125
 20
165.329436
 30
0.0
 11
169.125
 21
165.454436
 31
0.0
  0
LINE
  5
3AAB
100
AcDbEntity
  8
0
  6
CONTINUOUS
 62
     0
100
AcDbLine
 10
169.125
 20
161.865335
 30
0.0
 11
169.125
 21
161.990335
 31
0.0
  0
LINE
  5
3AAC
100
AcDbEntity
  8
0
  6
CONTINUOUS
 62
     0
100
AcDbLine
 10
169.125
 20
158.401233
 30
0.0
 11
169.125
 21
158.526233
 31
0.0
  0
LINE
  5
3AAD
100
AcDbEntity
  8
0
  6
CONTINUOUS
 62
     0
100
AcDbLine
 10
169.125
 20
154.937131
 30
0.0
 11
169.125
 21
155.062131
 31
0.0
  0
LINE
  5
3AAE
100
AcDbEntity
  8
0
  6
CONTINUOUS
 62
     0
100
AcDbLine
 10
169.125
 20
151.47303
 30
0.0
 11
169.125
 21
151.59803
 31
0.0
  0
LINE
  5
3AAF
100
AcDbEntity
  8
0
  6
CONTINUOUS
 62
     0
100
AcDbLine
 10
168.125
 20
173.98969
 30
0.0
 11
168.125
 21
174.11469
 31
0.0
  0
LINE
  5
3AB0
100
AcDbEntity
  8
0
  6
CONTINUOUS
 62
     0
100
AcDbLine
 10
168.125
 20
170.525589
 30
0.0
 11
168.125
 21
170.650589
 31
0.0
  0
LINE
  5
3AB1
100
AcDbEntity
  8
0
  6
CONTINUOUS
 62
     0
100
AcDbLine
 10
168.125
 20
167.061487
 30
0.0
 11
168.125
 21
167.186487
 31
0.0
  0
LINE
  5
3AB2
100
AcDbEntity
  8
0
  6
CONTINUOUS
 62
     0
100
AcDbLine
 10
168.125
 20
163.597385
 30
0.0
 11
168.125
 21
163.722385
 31
0.0
  0
LINE
  5
3AB3
100
AcDbEntity
  8
0
  6
CONTINUOUS
 62
     0
100
AcDbLine
 10
168.125
 20
160.133284
 30
0.0
 11
168.125
 21
160.258284
 31
0.0
  0
LINE
  5
3AB4
100
AcDbEntity
  8
0
  6
CONTINUOUS
 62
     0
100
AcDbLine
 10
168.125
 20
156.669182
 30
0.0
 11
168.125
 21
156.794182
 31
0.0
  0
LINE
  5
3AB5
100
AcDbEntity
  8
0
  6
CONTINUOUS
 62
     0
100
AcDbLine
 10
168.125
 20
153.205081
 30
0.0
 11
168.125
 21
153.330081
 31
0.0
  0
LINE
  5
3AB6
100
AcDbEntity
  8
0
  6
CONTINUOUS
 62
     0
100
AcDbLine
 10
168.125
 20
149.740979
 30
0.0
 11
168.125
 21
149.865979
 31
0.0
  0
LINE
  5
3AB7
100
AcDbEntity
  8
0
  6
CONTINUOUS
 62
     0
100
AcDbLine
 10
167.125
 20
172.257639
 30
0.0
 11
167.125
 21
172.382639
 31
0.0
  0
LINE
  5
3AB8
100
AcDbEntity
  8
0
  6
CONTINUOUS
 62
     0
100
AcDbLine
 10
167.125
 20
168.793538
 30
0.0
 11
167.125
 21
168.918538
 31
0.0
  0
LINE
  5
3AB9
100
AcDbEntity
  8
0
  6
CONTINUOUS
 62
     0
100
AcDbLine
 10
167.125
 20
165.329436
 30
0.0
 11
167.125
 21
165.454436
 31
0.0
  0
LINE
  5
3ABA
100
AcDbEntity
  8
0
  6
CONTINUOUS
 62
     0
100
AcDbLine
 10
167.125
 20
161.865335
 30
0.0
 11
167.125
 21
161.990335
 31
0.0
  0
LINE
  5
3ABB
100
AcDbEntity
  8
0
  6
CONTINUOUS
 62
     0
100
AcDbLine
 10
167.125
 20
158.401233
 30
0.0
 11
167.125
 21
158.526233
 31
0.0
  0
LINE
  5
3ABC
100
AcDbEntity
  8
0
  6
CONTINUOUS
 62
     0
100
AcDbLine
 10
167.125
 20
154.937131
 30
0.0
 11
167.125
 21
155.062131
 31
0.0
  0
LINE
  5
3ABD
100
AcDbEntity
  8
0
  6
CONTINUOUS
 62
     0
100
AcDbLine
 10
167.125
 20
151.47303
 30
0.0
 11
167.125
 21
151.59803
 31
0.0
  0
LINE
  5
3ABE
100
AcDbEntity
  8
0
  6
CONTINUOUS
 62
     0
100
AcDbLine
 10
166.125
 20
173.98969
 30
0.0
 11
166.125
 21
174.11469
 31
0.0
  0
LINE
  5
3ABF
100
AcDbEntity
  8
0
  6
CONTINUOUS
 62
     0
100
AcDbLine
 10
166.125
 20
170.525589
 30
0.0
 11
166.125
 21
170.650589
 31
0.0
  0
LINE
  5
3AC0
100
AcDbEntity
  8
0
  6
CONTINUOUS
 62
     0
100
AcDbLine
 10
166.125
 20
167.061487
 30
0.0
 11
166.125
 21
167.186487
 31
0.0
  0
LINE
  5
3AC1
100
AcDbEntity
  8
0
  6
CONTINUOUS
 62
     0
100
AcDbLine
 10
166.125
 20
163.597385
 30
0.0
 11
166.125
 21
163.722385
 31
0.0
  0
LINE
  5
3AC2
100
AcDbEntity
  8
0
  6
CONTINUOUS
 62
     0
100
AcDbLine
 10
166.125
 20
160.133284
 30
0.0
 11
166.125
 21
160.258284
 31
0.0
  0
LINE
  5
3AC3
100
AcDbEntity
  8
0
  6
CONTINUOUS
 62
     0
100
AcDbLine
 10
166.125
 20
156.669182
 30
0.0
 11
166.125
 21
156.794182
 31
0.0
  0
LINE
  5
3AC4
100
AcDbEntity
  8
0
  6
CONTINUOUS
 62
     0
100
AcDbLine
 10
166.125
 20
153.205081
 30
0.0
 11
166.125
 21
153.330081
 31
0.0
  0
LINE
  5
3AC5
100
AcDbEntity
  8
0
  6
CONTINUOUS
 62
     0
100
AcDbLine
 10
166.125
 20
149.740979
 30
0.0
 11
166.125
 21
149.865979
 31
0.0
  0
LINE
  5
3AC6
100
AcDbEntity
  8
0
  6
CONTINUOUS
 62
     0
100
AcDbLine
 10
165.125
 20
172.257639
 30
0.0
 11
165.125
 21
172.382639
 31
0.0
  0
LINE
  5
3AC7
100
AcDbEntity
  8
0
  6
CONTINUOUS
 62
     0
100
AcDbLine
 10
165.125
 20
168.793538
 30
0.0
 11
165.125
 21
168.918538
 31
0.0
  0
LINE
  5
3AC8
100
AcDbEntity
  8
0
  6
CONTINUOUS
 62
     0
100
AcDbLine
 10
165.125
 20
165.329436
 30
0.0
 11
165.125
 21
165.454436
 31
0.0
  0
LINE
  5
3AC9
100
AcDbEntity
  8
0
  6
CONTINUOUS
 62
     0
100
AcDbLine
 10
165.125
 20
161.865335
 30
0.0
 11
165.125
 21
161.990335
 31
0.0
  0
LINE
  5
3ACA
100
AcDbEntity
  8
0
  6
CONTINUOUS
 62
     0
100
AcDbLine
 10
165.125
 20
158.401233
 30
0.0
 11
165.125
 21
158.526233
 31
0.0
  0
LINE
  5
3ACB
100
AcDbEntity
  8
0
  6
CONTINUOUS
 62
     0
100
AcDbLine
 10
165.125
 20
154.937131
 30
0.0
 11
165.125
 21
155.062131
 31
0.0
  0
LINE
  5
3ACC
100
AcDbEntity
  8
0
  6
CONTINUOUS
 62
     0
100
AcDbLine
 10
165.125
 20
151.47303
 30
0.0
 11
165.125
 21
151.59803
 31
0.0
  0
LINE
  5
3ACD
100
AcDbEntity
  8
0
  6
CONTINUOUS
 62
     0
100
AcDbLine
 10
178.0
 20
149.740979
 30
0.0
 11
178.25
 21
149.740979
 31
0.0
  0
LINE
  5
3ACE
100
AcDbEntity
  8
0
  6
CONTINUOUS
 62
     0
100
AcDbLine
 10
176.0
 20
149.740979
 30
0.0
 11
176.25
 21
149.740979
 31
0.0
  0
LINE
  5
3ACF
100
AcDbEntity
  8
0
  6
CONTINUOUS
 62
     0
100
AcDbLine
 10
174.0
 20
149.740979
 30
0.0
 11
174.25
 21
149.740979
 31
0.0
  0
LINE
  5
3AD0
100
AcDbEntity
  8
0
  6
CONTINUOUS
 62
     0
100
AcDbLine
 10
172.0
 20
149.740979
 30
0.0
 11
172.25
 21
149.740979
 31
0.0
  0
LINE
  5
3AD1
100
AcDbEntity
  8
0
  6
CONTINUOUS
 62
     0
100
AcDbLine
 10
170.0
 20
149.740979
 30
0.0
 11
170.25
 21
149.740979
 31
0.0
  0
LINE
  5
3AD2
100
AcDbEntity
  8
0
  6
CONTINUOUS
 62
     0
100
AcDbLine
 10
168.0
 20
149.740979
 30
0.0
 11
168.25
 21
149.740979
 31
0.0
  0
LINE
  5
3AD3
100
AcDbEntity
  8
0
  6
CONTINUOUS
 62
     0
100
AcDbLine
 10
166.0
 20
149.740979
 30
0.0
 11
166.25
 21
149.740979
 31
0.0
  0
LINE
  5
3AD4
100
AcDbEntity
  8
0
  6
CONTINUOUS
 62
     0
100
AcDbLine
 10
177.0
 20
151.47303
 30
0.0
 11
177.25
 21
151.47303
 31
0.0
  0
LINE
  5
3AD5
100
AcDbEntity
  8
0
  6
CONTINUOUS
 62
     0
100
AcDbLine
 10
175.0
 20
151.47303
 30
0.0
 11
175.25
 21
151.47303
 31
0.0
  0
LINE
  5
3AD6
100
AcDbEntity
  8
0
  6
CONTINUOUS
 62
     0
100
AcDbLine
 10
173.0
 20
151.47303
 30
0.0
 11
173.25
 21
151.47303
 31
0.0
  0
LINE
  5
3AD7
100
AcDbEntity
  8
0
  6
CONTINUOUS
 62
     0
100
AcDbLine
 10
171.0
 20
151.47303
 30
0.0
 11
171.25
 21
151.47303
 31
0.0
  0
LINE
  5
3AD8
100
AcDbEntity
  8
0
  6
CONTINUOUS
 62
     0
100
AcDbLine
 10
169.0
 20
151.47303
 30
0.0
 11
169.25
 21
151.47303
 31
0.0
  0
LINE
  5
3AD9
100
AcDbEntity
  8
0
  6
CONTINUOUS
 62
     0
100
AcDbLine
 10
167.0
 20
151.47303
 30
0.0
 11
167.25
 21
151.47303
 31
0.0
  0
LINE
  5
3ADA
100
AcDbEntity
  8
0
  6
CONTINUOUS
 62
     0
100
AcDbLine
 10
165.0
 20
151.47303
 30
0.0
 11
165.25
 21
151.47303
 31
0.0
  0
LINE
  5
3ADB
100
AcDbEntity
  8
0
  6
CONTINUOUS
 62
     0
100
AcDbLine
 10
178.0
 20
153.205081
 30
0.0
 11
178.25
 21
153.205081
 31
0.0
  0
LINE
  5
3ADC
100
AcDbEntity
  8
0
  6
CONTINUOUS
 62
     0
100
AcDbLine
 10
176.0
 20
153.205081
 30
0.0
 11
176.25
 21
153.205081
 31
0.0
  0
LINE
  5
3ADD
100
AcDbEntity
  8
0
  6
CONTINUOUS
 62
     0
100
AcDbLine
 10
174.0
 20
153.205081
 30
0.0
 11
174.25
 21
153.205081
 31
0.0
  0
LINE
  5
3ADE
100
AcDbEntity
  8
0
  6
CONTINUOUS
 62
     0
100
AcDbLine
 10
172.0
 20
153.205081
 30
0.0
 11
172.25
 21
153.205081
 31
0.0
  0
LINE
  5
3ADF
100
AcDbEntity
  8
0
  6
CONTINUOUS
 62
     0
100
AcDbLine
 10
170.0
 20
153.205081
 30
0.0
 11
170.25
 21
153.205081
 31
0.0
  0
LINE
  5
3AE0
100
AcDbEntity
  8
0
  6
CONTINUOUS
 62
     0
100
AcDbLine
 10
168.0
 20
153.205081
 30
0.0
 11
168.25
 21
153.205081
 31
0.0
  0
LINE
  5
3AE1
100
AcDbEntity
  8
0
  6
CONTINUOUS
 62
     0
100
AcDbLine
 10
166.0
 20
153.205081
 30
0.0
 11
166.25
 21
153.205081
 31
0.0
  0
LINE
  5
3AE2
100
AcDbEntity
  8
0
  6
CONTINUOUS
 62
     0
100
AcDbLine
 10
177.0
 20
154.937131
 30
0.0
 11
177.25
 21
154.937131
 31
0.0
  0
LINE
  5
3AE3
100
AcDbEntity
  8
0
  6
CONTINUOUS
 62
     0
100
AcDbLine
 10
175.0
 20
154.937131
 30
0.0
 11
175.25
 21
154.937131
 31
0.0
  0
LINE
  5
3AE4
100
AcDbEntity
  8
0
  6
CONTINUOUS
 62
     0
100
AcDbLine
 10
173.0
 20
154.937131
 30
0.0
 11
173.25
 21
154.937131
 31
0.0
  0
LINE
  5
3AE5
100
AcDbEntity
  8
0
  6
CONTINUOUS
 62
     0
100
AcDbLine
 10
171.0
 20
154.937131
 30
0.0
 11
171.25
 21
154.937131
 31
0.0
  0
LINE
  5
3AE6
100
AcDbEntity
  8
0
  6
CONTINUOUS
 62
     0
100
AcDbLine
 10
169.0
 20
154.937131
 30
0.0
 11
169.25
 21
154.937131
 31
0.0
  0
LINE
  5
3AE7
100
AcDbEntity
  8
0
  6
CONTINUOUS
 62
     0
100
AcDbLine
 10
167.0
 20
154.937131
 30
0.0
 11
167.25
 21
154.937131
 31
0.0
  0
LINE
  5
3AE8
100
AcDbEntity
  8
0
  6
CONTINUOUS
 62
     0
100
AcDbLine
 10
165.0
 20
154.937131
 30
0.0
 11
165.25
 21
154.937131
 31
0.0
  0
LINE
  5
3AE9
100
AcDbEntity
  8
0
  6
CONTINUOUS
 62
     0
100
AcDbLine
 10
178.0
 20
156.669182
 30
0.0
 11
178.25
 21
156.669182
 31
0.0
  0
LINE
  5
3AEA
100
AcDbEntity
  8
0
  6
CONTINUOUS
 62
     0
100
AcDbLine
 10
176.0
 20
156.669182
 30
0.0
 11
176.25
 21
156.669182
 31
0.0
  0
LINE
  5
3AEB
100
AcDbEntity
  8
0
  6
CONTINUOUS
 62
     0
100
AcDbLine
 10
174.0
 20
156.669182
 30
0.0
 11
174.25
 21
156.669182
 31
0.0
  0
LINE
  5
3AEC
100
AcDbEntity
  8
0
  6
CONTINUOUS
 62
     0
100
AcDbLine
 10
172.0
 20
156.669182
 30
0.0
 11
172.25
 21
156.669182
 31
0.0
  0
LINE
  5
3AED
100
AcDbEntity
  8
0
  6
CONTINUOUS
 62
     0
100
AcDbLine
 10
170.0
 20
156.669182
 30
0.0
 11
170.25
 21
156.669182
 31
0.0
  0
LINE
  5
3AEE
100
AcDbEntity
  8
0
  6
CONTINUOUS
 62
     0
100
AcDbLine
 10
168.0
 20
156.669182
 30
0.0
 11
168.25
 21
156.669182
 31
0.0
  0
LINE
  5
3AEF
100
AcDbEntity
  8
0
  6
CONTINUOUS
 62
     0
100
AcDbLine
 10
166.0
 20
156.669182
 30
0.0
 11
166.25
 21
156.669182
 31
0.0
  0
LINE
  5
3AF0
100
AcDbEntity
  8
0
  6
CONTINUOUS
 62
     0
100
AcDbLine
 10
177.0
 20
158.401233
 30
0.0
 11
177.25
 21
158.401233
 31
0.0
  0
LINE
  5
3AF1
100
AcDbEntity
  8
0
  6
CONTINUOUS
 62
     0
100
AcDbLine
 10
175.0
 20
158.401233
 30
0.0
 11
175.25
 21
158.401233
 31
0.0
  0
LINE
  5
3AF2
100
AcDbEntity
  8
0
  6
CONTINUOUS
 62
     0
100
AcDbLine
 10
173.0
 20
158.401233
 30
0.0
 11
173.25
 21
158.401233
 31
0.0
  0
LINE
  5
3AF3
100
AcDbEntity
  8
0
  6
CONTINUOUS
 62
     0
100
AcDbLine
 10
171.0
 20
158.401233
 30
0.0
 11
171.25
 21
158.401233
 31
0.0
  0
LINE
  5
3AF4
100
AcDbEntity
  8
0
  6
CONTINUOUS
 62
     0
100
AcDbLine
 10
169.0
 20
158.401233
 30
0.0
 11
169.25
 21
158.401233
 31
0.0
  0
LINE
  5
3AF5
100
AcDbEntity
  8
0
  6
CONTINUOUS
 62
     0
100
AcDbLine
 10
167.0
 20
158.401233
 30
0.0
 11
167.25
 21
158.401233
 31
0.0
  0
LINE
  5
3AF6
100
AcDbEntity
  8
0
  6
CONTINUOUS
 62
     0
100
AcDbLine
 10
165.0
 20
158.401233
 30
0.0
 11
165.25
 21
158.401233
 31
0.0
  0
LINE
  5
3AF7
100
AcDbEntity
  8
0
  6
CONTINUOUS
 62
     0
100
AcDbLine
 10
178.0
 20
160.133284
 30
0.0
 11
178.25
 21
160.133284
 31
0.0
  0
LINE
  5
3AF8
100
AcDbEntity
  8
0
  6
CONTINUOUS
 62
     0
100
AcDbLine
 10
176.0
 20
160.133284
 30
0.0
 11
176.25
 21
160.133284
 31
0.0
  0
LINE
  5
3AF9
100
AcDbEntity
  8
0
  6
CONTINUOUS
 62
     0
100
AcDbLine
 10
174.0
 20
160.133284
 30
0.0
 11
174.25
 21
160.133284
 31
0.0
  0
LINE
  5
3AFA
100
AcDbEntity
  8
0
  6
CONTINUOUS
 62
     0
100
AcDbLine
 10
172.0
 20
160.133284
 30
0.0
 11
172.25
 21
160.133284
 31
0.0
  0
LINE
  5
3AFB
100
AcDbEntity
  8
0
  6
CONTINUOUS
 62
     0
100
AcDbLine
 10
170.0
 20
160.133284
 30
0.0
 11
170.25
 21
160.133284
 31
0.0
  0
LINE
  5
3AFC
100
AcDbEntity
  8
0
  6
CONTINUOUS
 62
     0
100
AcDbLine
 10
168.0
 20
160.133284
 30
0.0
 11
168.25
 21
160.133284
 31
0.0
  0
LINE
  5
3AFD
100
AcDbEntity
  8
0
  6
CONTINUOUS
 62
     0
100
AcDbLine
 10
166.0
 20
160.133284
 30
0.0
 11
166.25
 21
160.133284
 31
0.0
  0
LINE
  5
3AFE
100
AcDbEntity
  8
0
  6
CONTINUOUS
 62
     0
100
AcDbLine
 10
177.0
 20
161.865335
 30
0.0
 11
177.25
 21
161.865335
 31
0.0
  0
LINE
  5
3AFF
100
AcDbEntity
  8
0
  6
CONTINUOUS
 62
     0
100
AcDbLine
 10
175.0
 20
161.865335
 30
0.0
 11
175.25
 21
161.865335
 31
0.0
  0
LINE
  5
3B00
100
AcDbEntity
  8
0
  6
CONTINUOUS
 62
     0
100
AcDbLine
 10
173.0
 20
161.865335
 30
0.0
 11
173.25
 21
161.865335
 31
0.0
  0
LINE
  5
3B01
100
AcDbEntity
  8
0
  6
CONTINUOUS
 62
     0
100
AcDbLine
 10
171.0
 20
161.865335
 30
0.0
 11
171.25
 21
161.865335
 31
0.0
  0
LINE
  5
3B02
100
AcDbEntity
  8
0
  6
CONTINUOUS
 62
     0
100
AcDbLine
 10
169.0
 20
161.865335
 30
0.0
 11
169.25
 21
161.865335
 31
0.0
  0
LINE
  5
3B03
100
AcDbEntity
  8
0
  6
CONTINUOUS
 62
     0
100
AcDbLine
 10
167.0
 20
161.865335
 30
0.0
 11
167.25
 21
161.865335
 31
0.0
  0
LINE
  5
3B04
100
AcDbEntity
  8
0
  6
CONTINUOUS
 62
     0
100
AcDbLine
 10
165.0
 20
161.865335
 30
0.0
 11
165.25
 21
161.865335
 31
0.0
  0
LINE
  5
3B05
100
AcDbEntity
  8
0
  6
CONTINUOUS
 62
     0
100
AcDbLine
 10
178.0
 20
163.597385
 30
0.0
 11
178.25
 21
163.597385
 31
0.0
  0
LINE
  5
3B06
100
AcDbEntity
  8
0
  6
CONTINUOUS
 62
     0
100
AcDbLine
 10
176.0
 20
163.597385
 30
0.0
 11
176.25
 21
163.597385
 31
0.0
  0
LINE
  5
3B07
100
AcDbEntity
  8
0
  6
CONTINUOUS
 62
     0
100
AcDbLine
 10
174.0
 20
163.597385
 30
0.0
 11
174.25
 21
163.597385
 31
0.0
  0
LINE
  5
3B08
100
AcDbEntity
  8
0
  6
CONTINUOUS
 62
     0
100
AcDbLine
 10
172.0
 20
163.597385
 30
0.0
 11
172.25
 21
163.597385
 31
0.0
  0
LINE
  5
3B09
100
AcDbEntity
  8
0
  6
CONTINUOUS
 62
     0
100
AcDbLine
 10
170.0
 20
163.597385
 30
0.0
 11
170.25
 21
163.597385
 31
0.0
  0
LINE
  5
3B0A
100
AcDbEntity
  8
0
  6
CONTINUOUS
 62
     0
100
AcDbLine
 10
168.0
 20
163.597385
 30
0.0
 11
168.25
 21
163.597385
 31
0.0
  0
LINE
  5
3B0B
100
AcDbEntity
  8
0
  6
CONTINUOUS
 62
     0
100
AcDbLine
 10
166.0
 20
163.597385
 30
0.0
 11
166.25
 21
163.597385
 31
0.0
  0
LINE
  5
3B0C
100
AcDbEntity
  8
0
  6
CONTINUOUS
 62
     0
100
AcDbLine
 10
177.0
 20
165.329436
 30
0.0
 11
177.25
 21
165.329436
 31
0.0
  0
LINE
  5
3B0D
100
AcDbEntity
  8
0
  6
CONTINUOUS
 62
     0
100
AcDbLine
 10
175.0
 20
165.329436
 30
0.0
 11
175.25
 21
165.329436
 31
0.0
  0
LINE
  5
3B0E
100
AcDbEntity
  8
0
  6
CONTINUOUS
 62
     0
100
AcDbLine
 10
173.0
 20
165.329436
 30
0.0
 11
173.25
 21
165.329436
 31
0.0
  0
LINE
  5
3B0F
100
AcDbEntity
  8
0
  6
CONTINUOUS
 62
     0
100
AcDbLine
 10
171.0
 20
165.329436
 30
0.0
 11
171.25
 21
165.329436
 31
0.0
  0
LINE
  5
3B10
100
AcDbEntity
  8
0
  6
CONTINUOUS
 62
     0
100
AcDbLine
 10
169.0
 20
165.329436
 30
0.0
 11
169.25
 21
165.329436
 31
0.0
  0
LINE
  5
3B11
100
AcDbEntity
  8
0
  6
CONTINUOUS
 62
     0
100
AcDbLine
 10
167.0
 20
165.329436
 30
0.0
 11
167.25
 21
165.329436
 31
0.0
  0
LINE
  5
3B12
100
AcDbEntity
  8
0
  6
CONTINUOUS
 62
     0
100
AcDbLine
 10
165.0
 20
165.329436
 30
0.0
 11
165.25
 21
165.329436
 31
0.0
  0
LINE
  5
3B13
100
AcDbEntity
  8
0
  6
CONTINUOUS
 62
     0
100
AcDbLine
 10
178.0
 20
167.061487
 30
0.0
 11
178.25
 21
167.061487
 31
0.0
  0
LINE
  5
3B14
100
AcDbEntity
  8
0
  6
CONTINUOUS
 62
     0
100
AcDbLine
 10
176.0
 20
167.061487
 30
0.0
 11
176.25
 21
167.061487
 31
0.0
  0
LINE
  5
3B15
100
AcDbEntity
  8
0
  6
CONTINUOUS
 62
     0
100
AcDbLine
 10
174.0
 20
167.061487
 30
0.0
 11
174.25
 21
167.061487
 31
0.0
  0
LINE
  5
3B16
100
AcDbEntity
  8
0
  6
CONTINUOUS
 62
     0
100
AcDbLine
 10
172.0
 20
167.061487
 30
0.0
 11
172.25
 21
167.061487
 31
0.0
  0
LINE
  5
3B17
100
AcDbEntity
  8
0
  6
CONTINUOUS
 62
     0
100
AcDbLine
 10
170.0
 20
167.061487
 30
0.0
 11
170.25
 21
167.061487
 31
0.0
  0
LINE
  5
3B18
100
AcDbEntity
  8
0
  6
CONTINUOUS
 62
     0
100
AcDbLine
 10
168.0
 20
167.061487
 30
0.0
 11
168.25
 21
167.061487
 31
0.0
  0
LINE
  5
3B19
100
AcDbEntity
  8
0
  6
CONTINUOUS
 62
     0
100
AcDbLine
 10
166.0
 20
167.061487
 30
0.0
 11
166.25
 21
167.061487
 31
0.0
  0
LINE
  5
3B1A
100
AcDbEntity
  8
0
  6
CONTINUOUS
 62
     0
100
AcDbLine
 10
177.0
 20
168.793538
 30
0.0
 11
177.25
 21
168.793538
 31
0.0
  0
LINE
  5
3B1B
100
AcDbEntity
  8
0
  6
CONTINUOUS
 62
     0
100
AcDbLine
 10
175.0
 20
168.793538
 30
0.0
 11
175.25
 21
168.793538
 31
0.0
  0
LINE
  5
3B1C
100
AcDbEntity
  8
0
  6
CONTINUOUS
 62
     0
100
AcDbLine
 10
173.0
 20
168.793538
 30
0.0
 11
173.25
 21
168.793538
 31
0.0
  0
LINE
  5
3B1D
100
AcDbEntity
  8
0
  6
CONTINUOUS
 62
     0
100
AcDbLine
 10
171.0
 20
168.793538
 30
0.0
 11
171.25
 21
168.793538
 31
0.0
  0
LINE
  5
3B1E
100
AcDbEntity
  8
0
  6
CONTINUOUS
 62
     0
100
AcDbLine
 10
169.0
 20
168.793538
 30
0.0
 11
169.25
 21
168.793538
 31
0.0
  0
LINE
  5
3B1F
100
AcDbEntity
  8
0
  6
CONTINUOUS
 62
     0
100
AcDbLine
 10
167.0
 20
168.793538
 30
0.0
 11
167.25
 21
168.793538
 31
0.0
  0
LINE
  5
3B20
100
AcDbEntity
  8
0
  6
CONTINUOUS
 62
     0
100
AcDbLine
 10
165.0
 20
168.793538
 30
0.0
 11
165.25
 21
168.793538
 31
0.0
  0
LINE
  5
3B21
100
AcDbEntity
  8
0
  6
CONTINUOUS
 62
     0
100
AcDbLine
 10
178.0
 20
170.525589
 30
0.0
 11
178.25
 21
170.525589
 31
0.0
  0
LINE
  5
3B22
100
AcDbEntity
  8
0
  6
CONTINUOUS
 62
     0
100
AcDbLine
 10
176.0
 20
170.525589
 30
0.0
 11
176.25
 21
170.525589
 31
0.0
  0
LINE
  5
3B23
100
AcDbEntity
  8
0
  6
CONTINUOUS
 62
     0
100
AcDbLine
 10
174.0
 20
170.525589
 30
0.0
 11
174.25
 21
170.525589
 31
0.0
  0
LINE
  5
3B24
100
AcDbEntity
  8
0
  6
CONTINUOUS
 62
     0
100
AcDbLine
 10
172.0
 20
170.525589
 30
0.0
 11
172.25
 21
170.525589
 31
0.0
  0
LINE
  5
3B25
100
AcDbEntity
  8
0
  6
CONTINUOUS
 62
     0
100
AcDbLine
 10
170.0
 20
170.525589
 30
0.0
 11
170.25
 21
170.525589
 31
0.0
  0
LINE
  5
3B26
100
AcDbEntity
  8
0
  6
CONTINUOUS
 62
     0
100
AcDbLine
 10
168.0
 20
170.525589
 30
0.0
 11
168.25
 21
170.525589
 31
0.0
  0
LINE
  5
3B27
100
AcDbEntity
  8
0
  6
CONTINUOUS
 62
     0
100
AcDbLine
 10
166.0
 20
170.525589
 30
0.0
 11
166.25
 21
170.525589
 31
0.0
  0
LINE
  5
3B28
100
AcDbEntity
  8
0
  6
CONTINUOUS
 62
     0
100
AcDbLine
 10
177.0
 20
172.257639
 30
0.0
 11
177.25
 21
172.257639
 31
0.0
  0
LINE
  5
3B29
100
AcDbEntity
  8
0
  6
CONTINUOUS
 62
     0
100
AcDbLine
 10
175.0
 20
172.257639
 30
0.0
 11
175.25
 21
172.257639
 31
0.0
  0
LINE
  5
3B2A
100
AcDbEntity
  8
0
  6
CONTINUOUS
 62
     0
100
AcDbLine
 10
173.0
 20
172.257639
 30
0.0
 11
173.25
 21
172.257639
 31
0.0
  0
LINE
  5
3B2B
100
AcDbEntity
  8
0
  6
CONTINUOUS
 62
     0
100
AcDbLine
 10
171.0
 20
172.257639
 30
0.0
 11
171.25
 21
172.257639
 31
0.0
  0
LINE
  5
3B2C
100
AcDbEntity
  8
0
  6
CONTINUOUS
 62
     0
100
AcDbLine
 10
169.0
 20
172.257639
 30
0.0
 11
169.25
 21
172.257639
 31
0.0
  0
LINE
  5
3B2D
100
AcDbEntity
  8
0
  6
CONTINUOUS
 62
     0
100
AcDbLine
 10
167.0
 20
172.257639
 30
0.0
 11
167.25
 21
172.257639
 31
0.0
  0
LINE
  5
3B2E
100
AcDbEntity
  8
0
  6
CONTINUOUS
 62
     0
100
AcDbLine
 10
165.0
 20
172.257639
 30
0.0
 11
165.25
 21
172.257639
 31
0.0
  0
LINE
  5
3B2F
100
AcDbEntity
  8
0
  6
CONTINUOUS
 62
     0
100
AcDbLine
 10
178.0
 20
173.98969
 30
0.0
 11
178.25
 21
173.98969
 31
0.0
  0
LINE
  5
3B30
100
AcDbEntity
  8
0
  6
CONTINUOUS
 62
     0
100
AcDbLine
 10
176.0
 20
173.98969
 30
0.0
 11
176.25
 21
173.98969
 31
0.0
  0
LINE
  5
3B31
100
AcDbEntity
  8
0
  6
CONTINUOUS
 62
     0
100
AcDbLine
 10
174.0
 20
173.98969
 30
0.0
 11
174.25
 21
173.98969
 31
0.0
  0
LINE
  5
3B32
100
AcDbEntity
  8
0
  6
CONTINUOUS
 62
     0
100
AcDbLine
 10
172.0
 20
173.98969
 30
0.0
 11
172.25
 21
173.98969
 31
0.0
  0
LINE
  5
3B33
100
AcDbEntity
  8
0
  6
CONTINUOUS
 62
     0
100
AcDbLine
 10
170.0
 20
173.98969
 30
0.0
 11
170.25
 21
173.98969
 31
0.0
  0
LINE
  5
3B34
100
AcDbEntity
  8
0
  6
CONTINUOUS
 62
     0
100
AcDbLine
 10
168.0
 20
173.98969
 30
0.0
 11
168.25
 21
173.98969
 31
0.0
  0
LINE
  5
3B35
100
AcDbEntity
  8
0
  6
CONTINUOUS
 62
     0
100
AcDbLine
 10
166.0
 20
173.98969
 30
0.0
 11
166.25
 21
173.98969
 31
0.0
  0
ENDBLK
  5
3B37
100
AcDbEntity
  8
0
100
AcDbBlockEnd
  0
BLOCK
  5
3C35
100
AcDbEntity
  8
0
100
AcDbBlockBegin
  2
*X12
 70
     1
 10
0.0
 20
0.0
 30
0.0
  3
*X12
  1

  0
LINE
  5
3B57
100
AcDbEntity
  8
0
  6
CONTINUOUS
 62
     0
100
AcDbLine
 10
53.0625
 20
172.25764
 30
0.0
 11
53.0225
 21
172.326922
 31
0.0
  0
LINE
  5
3B58
100
AcDbEntity
  8
0
  6
CONTINUOUS
 62
     0
100
AcDbLine
 10
54.0625
 20
170.525589
 30
0.0
 11
54.0225
 21
170.594871
 31
0.0
  0
LINE
  5
3B59
100
AcDbEntity
  8
0
  6
CONTINUOUS
 62
     0
100
AcDbLine
 10
51.0625
 20
172.25764
 30
0.0
 11
51.0225
 21
172.326922
 31
0.0
  0
LINE
  5
3B5A
100
AcDbEntity
  8
0
  6
CONTINUOUS
 62
     0
100
AcDbLine
 10
52.0625
 20
170.525589
 30
0.0
 11
52.0225
 21
170.594871
 31
0.0
  0
LINE
  5
3B5B
100
AcDbEntity
  8
0
  6
CONTINUOUS
 62
     0
100
AcDbLine
 10
53.0625
 20
168.793538
 30
0.0
 11
53.0225
 21
168.86282
 31
0.0
  0
LINE
  5
3B5C
100
AcDbEntity
  8
0
  6
CONTINUOUS
 62
     0
100
AcDbLine
 10
54.0625
 20
167.061487
 30
0.0
 11
54.0225
 21
167.130769
 31
0.0
  0
LINE
  5
3B5D
100
AcDbEntity
  8
0
  6
CONTINUOUS
 62
     0
100
AcDbLine
 10
50.0625
 20
170.525589
 30
0.0
 11
50.0225
 21
170.594871
 31
0.0
  0
LINE
  5
3B5E
100
AcDbEntity
  8
0
  6
CONTINUOUS
 62
     0
100
AcDbLine
 10
51.0625
 20
168.793538
 30
0.0
 11
51.0225
 21
168.86282
 31
0.0
  0
LINE
  5
3B5F
100
AcDbEntity
  8
0
  6
CONTINUOUS
 62
     0
100
AcDbLine
 10
52.0625
 20
167.061487
 30
0.0
 11
52.0225
 21
167.130769
 31
0.0
  0
LINE
  5
3B60
100
AcDbEntity
  8
0
  6
CONTINUOUS
 62
     0
100
AcDbLine
 10
53.0625
 20
165.329436
 30
0.0
 11
53.0225
 21
165.398718
 31
0.0
  0
LINE
  5
3B61
100
AcDbEntity
  8
0
  6
CONTINUOUS
 62
     0
100
AcDbLine
 10
54.0625
 20
163.597386
 30
0.0
 11
54.0225
 21
163.666668
 31
0.0
  0
LINE
  5
3B62
100
AcDbEntity
  8
0
  6
CONTINUOUS
 62
     0
100
AcDbLine
 10
50.0625
 20
167.061487
 30
0.0
 11
50.0225
 21
167.130769
 31
0.0
  0
LINE
  5
3B63
100
AcDbEntity
  8
0
  6
CONTINUOUS
 62
     0
100
AcDbLine
 10
51.0625
 20
165.329436
 30
0.0
 11
51.0225
 21
165.398718
 31
0.0
  0
LINE
  5
3B64
100
AcDbEntity
  8
0
  6
CONTINUOUS
 62
     0
100
AcDbLine
 10
52.0625
 20
163.597386
 30
0.0
 11
52.0225
 21
163.666668
 31
0.0
  0
LINE
  5
3B65
100
AcDbEntity
  8
0
  6
CONTINUOUS
 62
     0
100
AcDbLine
 10
53.0625
 20
161.865335
 30
0.0
 11
53.0225
 21
161.934617
 31
0.0
  0
LINE
  5
3B66
100
AcDbEntity
  8
0
  6
CONTINUOUS
 62
     0
100
AcDbLine
 10
54.0625
 20
160.133284
 30
0.0
 11
54.0225
 21
160.202566
 31
0.0
  0
LINE
  5
3B67
100
AcDbEntity
  8
0
  6
CONTINUOUS
 62
     0
100
AcDbLine
 10
50.0625
 20
163.597386
 30
0.0
 11
50.0225
 21
163.666668
 31
0.0
  0
LINE
  5
3B68
100
AcDbEntity
  8
0
  6
CONTINUOUS
 62
     0
100
AcDbLine
 10
51.0625
 20
161.865335
 30
0.0
 11
51.0225
 21
161.934617
 31
0.0
  0
LINE
  5
3B69
100
AcDbEntity
  8
0
  6
CONTINUOUS
 62
     0
100
AcDbLine
 10
52.0625
 20
160.133284
 30
0.0
 11
52.0225
 21
160.202566
 31
0.0
  0
LINE
  5
3B6A
100
AcDbEntity
  8
0
  6
CONTINUOUS
 62
     0
100
AcDbLine
 10
53.0625
 20
158.401233
 30
0.0
 11
53.0225
 21
158.470515
 31
0.0
  0
LINE
  5
3B6B
100
AcDbEntity
  8
0
  6
CONTINUOUS
 62
     0
100
AcDbLine
 10
54.0625
 20
156.669182
 30
0.0
 11
54.0225
 21
156.738464
 31
0.0
  0
LINE
  5
3B6C
100
AcDbEntity
  8
0
  6
CONTINUOUS
 62
     0
100
AcDbLine
 10
50.0625
 20
160.133284
 30
0.0
 11
50.0225
 21
160.202566
 31
0.0
  0
LINE
  5
3B6D
100
AcDbEntity
  8
0
  6
CONTINUOUS
 62
     0
100
AcDbLine
 10
51.0625
 20
158.401233
 30
0.0
 11
51.0225
 21
158.470515
 31
0.0
  0
LINE
  5
3B6E
100
AcDbEntity
  8
0
  6
CONTINUOUS
 62
     0
100
AcDbLine
 10
52.0625
 20
156.669182
 30
0.0
 11
52.0225
 21
156.738464
 31
0.0
  0
LINE
  5
3B6F
100
AcDbEntity
  8
0
  6
CONTINUOUS
 62
     0
100
AcDbLine
 10
53.0625
 20
154.937132
 30
0.0
 11
53.0225
 21
155.006414
 31
0.0
  0
LINE
  5
3B70
100
AcDbEntity
  8
0
  6
CONTINUOUS
 62
     0
100
AcDbLine
 10
54.0625
 20
153.205081
 30
0.0
 11
54.0225
 21
153.274363
 31
0.0
  0
LINE
  5
3B71
100
AcDbEntity
  8
0
  6
CONTINUOUS
 62
     0
100
AcDbLine
 10
50.0625
 20
156.669182
 30
0.0
 11
50.0225
 21
156.738464
 31
0.0
  0
LINE
  5
3B72
100
AcDbEntity
  8
0
  6
CONTINUOUS
 62
     0
100
AcDbLine
 10
51.0625
 20
154.937132
 30
0.0
 11
51.0225
 21
155.006414
 31
0.0
  0
LINE
  5
3B73
100
AcDbEntity
  8
0
  6
CONTINUOUS
 62
     0
100
AcDbLine
 10
52.0625
 20
153.205081
 30
0.0
 11
52.0225
 21
153.274363
 31
0.0
  0
LINE
  5
3B74
100
AcDbEntity
  8
0
  6
CONTINUOUS
 62
     0
100
AcDbLine
 10
53.0625
 20
151.47303
 30
0.0
 11
53.0225
 21
151.542312
 31
0.0
  0
LINE
  5
3B75
100
AcDbEntity
  8
0
  6
CONTINUOUS
 62
     0
100
AcDbLine
 10
54.0625
 20
149.740979
 30
0.0
 11
54.0225
 21
149.810261
 31
0.0
  0
LINE
  5
3B76
100
AcDbEntity
  8
0
  6
CONTINUOUS
 62
     0
100
AcDbLine
 10
50.0625
 20
153.205081
 30
0.0
 11
50.0225
 21
153.274363
 31
0.0
  0
LINE
  5
3B77
100
AcDbEntity
  8
0
  6
CONTINUOUS
 62
     0
100
AcDbLine
 10
51.0625
 20
151.47303
 30
0.0
 11
51.0225
 21
151.542312
 31
0.0
  0
LINE
  5
3B78
100
AcDbEntity
  8
0
  6
CONTINUOUS
 62
     0
100
AcDbLine
 10
52.0625
 20
149.740979
 30
0.0
 11
52.0225
 21
149.810261
 31
0.0
  0
LINE
  5
3B79
100
AcDbEntity
  8
0
  6
CONTINUOUS
 62
     0
100
AcDbLine
 10
53.0625
 20
148.008928
 30
0.0
 11
53.0225
 21
148.07821
 31
0.0
  0
LINE
  5
3B7A
100
AcDbEntity
  8
0
  6
CONTINUOUS
 62
     0
100
AcDbLine
 10
50.0625
 20
149.740979
 30
0.0
 11
50.0225
 21
149.810261
 31
0.0
  0
LINE
  5
3B7B
100
AcDbEntity
  8
0
  6
CONTINUOUS
 62
     0
100
AcDbLine
 10
51.0625
 20
148.008928
 30
0.0
 11
51.0225
 21
148.07821
 31
0.0
  0
LINE
  5
3B7C
100
AcDbEntity
  8
0
  6
CONTINUOUS
 62
     0
100
AcDbLine
 10
54.1875
 20
149.740979
 30
0.0
 11
54.2275
 21
149.810261
 31
0.0
  0
LINE
  5
3B7D
100
AcDbEntity
  8
0
  6
CONTINUOUS
 62
     0
100
AcDbLine
 10
53.1875
 20
148.008928
 30
0.0
 11
53.2275
 21
148.07821
 31
0.0
  0
LINE
  5
3B7E
100
AcDbEntity
  8
0
  6
CONTINUOUS
 62
     0
100
AcDbLine
 10
54.1875
 20
153.205081
 30
0.0
 11
54.2275
 21
153.274363
 31
0.0
  0
LINE
  5
3B7F
100
AcDbEntity
  8
0
  6
CONTINUOUS
 62
     0
100
AcDbLine
 10
53.1875
 20
151.47303
 30
0.0
 11
53.2275
 21
151.542312
 31
0.0
  0
LINE
  5
3B80
100
AcDbEntity
  8
0
  6
CONTINUOUS
 62
     0
100
AcDbLine
 10
52.1875
 20
149.740979
 30
0.0
 11
52.2275
 21
149.810261
 31
0.0
  0
LINE
  5
3B81
100
AcDbEntity
  8
0
  6
CONTINUOUS
 62
     0
100
AcDbLine
 10
51.1875
 20
148.008928
 30
0.0
 11
51.2275
 21
148.07821
 31
0.0
  0
LINE
  5
3B82
100
AcDbEntity
  8
0
  6
CONTINUOUS
 62
     0
100
AcDbLine
 10
54.1875
 20
156.669182
 30
0.0
 11
54.2275
 21
156.738464
 31
0.0
  0
LINE
  5
3B83
100
AcDbEntity
  8
0
  6
CONTINUOUS
 62
     0
100
AcDbLine
 10
53.1875
 20
154.937132
 30
0.0
 11
53.2275
 21
155.006414
 31
0.0
  0
LINE
  5
3B84
100
AcDbEntity
  8
0
  6
CONTINUOUS
 62
     0
100
AcDbLine
 10
52.1875
 20
153.205081
 30
0.0
 11
52.2275
 21
153.274363
 31
0.0
  0
LINE
  5
3B85
100
AcDbEntity
  8
0
  6
CONTINUOUS
 62
     0
100
AcDbLine
 10
51.1875
 20
151.47303
 30
0.0
 11
51.2275
 21
151.542312
 31
0.0
  0
LINE
  5
3B86
100
AcDbEntity
  8
0
  6
CONTINUOUS
 62
     0
100
AcDbLine
 10
50.1875
 20
149.740979
 30
0.0
 11
50.2275
 21
149.810261
 31
0.0
  0
LINE
  5
3B87
100
AcDbEntity
  8
0
  6
CONTINUOUS
 62
     0
100
AcDbLine
 10
54.1875
 20
160.133284
 30
0.0
 11
54.2275
 21
160.202566
 31
0.0
  0
LINE
  5
3B88
100
AcDbEntity
  8
0
  6
CONTINUOUS
 62
     0
100
AcDbLine
 10
53.1875
 20
158.401233
 30
0.0
 11
53.2275
 21
158.470515
 31
0.0
  0
LINE
  5
3B89
100
AcDbEntity
  8
0
  6
CONTINUOUS
 62
     0
100
AcDbLine
 10
52.1875
 20
156.669182
 30
0.0
 11
52.2275
 21
156.738464
 31
0.0
  0
LINE
  5
3B8A
100
AcDbEntity
  8
0
  6
CONTINUOUS
 62
     0
100
AcDbLine
 10
51.1875
 20
154.937132
 30
0.0
 11
51.2275
 21
155.006414
 31
0.0
  0
LINE
  5
3B8B
100
AcDbEntity
  8
0
  6
CONTINUOUS
 62
     0
100
AcDbLine
 10
50.1875
 20
153.205081
 30
0.0
 11
50.2275
 21
153.274363
 31
0.0
  0
LINE
  5
3B8C
100
AcDbEntity
  8
0
  6
CONTINUOUS
 62
     0
100
AcDbLine
 10
54.1875
 20
163.597386
 30
0.0
 11
54.2275
 21
163.666668
 31
0.0
  0
LINE
  5
3B8D
100
AcDbEntity
  8
0
  6
CONTINUOUS
 62
     0
100
AcDbLine
 10
53.1875
 20
161.865335
 30
0.0
 11
53.2275
 21
161.934617
 31
0.0
  0
LINE
  5
3B8E
100
AcDbEntity
  8
0
  6
CONTINUOUS
 62
     0
100
AcDbLine
 10
52.1875
 20
160.133284
 30
0.0
 11
52.2275
 21
160.202566
 31
0.0
  0
LINE
  5
3B8F
100
AcDbEntity
  8
0
  6
CONTINUOUS
 62
     0
100
AcDbLine
 10
51.1875
 20
158.401233
 30
0.0
 11
51.2275
 21
158.470515
 31
0.0
  0
LINE
  5
3B90
100
AcDbEntity
  8
0
  6
CONTINUOUS
 62
     0
100
AcDbLine
 10
50.1875
 20
156.669182
 30
0.0
 11
50.2275
 21
156.738464
 31
0.0
  0
LINE
  5
3B91
100
AcDbEntity
  8
0
  6
CONTINUOUS
 62
     0
100
AcDbLine
 10
54.1875
 20
167.061487
 30
0.0
 11
54.2275
 21
167.130769
 31
0.0
  0
LINE
  5
3B92
100
AcDbEntity
  8
0
  6
CONTINUOUS
 62
     0
100
AcDbLine
 10
53.1875
 20
165.329436
 30
0.0
 11
53.2275
 21
165.398718
 31
0.0
  0
LINE
  5
3B93
100
AcDbEntity
  8
0
  6
CONTINUOUS
 62
     0
100
AcDbLine
 10
52.1875
 20
163.597386
 30
0.0
 11
52.2275
 21
163.666668
 31
0.0
  0
LINE
  5
3B94
100
AcDbEntity
  8
0
  6
CONTINUOUS
 62
     0
100
AcDbLine
 10
51.1875
 20
161.865335
 30
0.0
 11
51.2275
 21
161.934617
 31
0.0
  0
LINE
  5
3B95
100
AcDbEntity
  8
0
  6
CONTINUOUS
 62
     0
100
AcDbLine
 10
50.1875
 20
160.133284
 30
0.0
 11
50.2275
 21
160.202566
 31
0.0
  0
LINE
  5
3B96
100
AcDbEntity
  8
0
  6
CONTINUOUS
 62
     0
100
AcDbLine
 10
54.1875
 20
170.525589
 30
0.0
 11
54.2275
 21
170.594871
 31
0.0
  0
LINE
  5
3B97
100
AcDbEntity
  8
0
  6
CONTINUOUS
 62
     0
100
AcDbLine
 10
53.1875
 20
168.793538
 30
0.0
 11
53.2275
 21
168.86282
 31
0.0
  0
LINE
  5
3B98
100
AcDbEntity
  8
0
  6
CONTINUOUS
 62
     0
100
AcDbLine
 10
52.1875
 20
167.061487
 30
0.0
 11
52.2275
 21
167.130769
 31
0.0
  0
LINE
  5
3B99
100
AcDbEntity
  8
0
  6
CONTINUOUS
 62
     0
100
AcDbLine
 10
51.1875
 20
165.329436
 30
0.0
 11
51.2275
 21
165.398718
 31
0.0
  0
LINE
  5
3B9A
100
AcDbEntity
  8
0
  6
CONTINUOUS
 62
     0
100
AcDbLine
 10
50.1875
 20
163.597386
 30
0.0
 11
50.2275
 21
163.666668
 31
0.0
  0
LINE
  5
3B9B
100
AcDbEntity
  8
0
  6
CONTINUOUS
 62
     0
100
AcDbLine
 10
53.1875
 20
172.25764
 30
0.0
 11
53.2275
 21
172.326922
 31
0.0
  0
LINE
  5
3B9C
100
AcDbEntity
  8
0
  6
CONTINUOUS
 62
     0
100
AcDbLine
 10
52.1875
 20
170.525589
 30
0.0
 11
52.2275
 21
170.594871
 31
0.0
  0
LINE
  5
3B9D
100
AcDbEntity
  8
0
  6
CONTINUOUS
 62
     0
100
AcDbLine
 10
51.1875
 20
168.793538
 30
0.0
 11
51.2275
 21
168.86282
 31
0.0
  0
LINE
  5
3B9E
100
AcDbEntity
  8
0
  6
CONTINUOUS
 62
     0
100
AcDbLine
 10
50.1875
 20
167.061487
 30
0.0
 11
50.2275
 21
167.130769
 31
0.0
  0
LINE
  5
3B9F
100
AcDbEntity
  8
0
  6
CONTINUOUS
 62
     0
100
AcDbLine
 10
51.1875
 20
172.25764
 30
0.0
 11
51.2275
 21
172.326922
 31
0.0
  0
LINE
  5
3BA0
100
AcDbEntity
  8
0
  6
CONTINUOUS
 62
     0
100
AcDbLine
 10
50.1875
 20
170.525589
 30
0.0
 11
50.2275
 21
170.594871
 31
0.0
  0
LINE
  5
3BA1
100
AcDbEntity
  8
0
  6
CONTINUOUS
 62
     0
100
AcDbLine
 10
54.09375
 20
170.525589
 30
0.0
 11
54.09375
 21
170.625589
 31
0.0
  0
LINE
  5
3BA2
100
AcDbEntity
  8
0
  6
CONTINUOUS
 62
     0
100
AcDbLine
 10
54.09375
 20
167.061487
 30
0.0
 11
54.09375
 21
167.161487
 31
0.0
  0
LINE
  5
3BA3
100
AcDbEntity
  8
0
  6
CONTINUOUS
 62
     0
100
AcDbLine
 10
54.09375
 20
163.597385
 30
0.0
 11
54.09375
 21
163.697385
 31
0.0
  0
LINE
  5
3BA4
100
AcDbEntity
  8
0
  6
CONTINUOUS
 62
     0
100
AcDbLine
 10
54.09375
 20
160.133284
 30
0.0
 11
54.09375
 21
160.233284
 31
0.0
  0
LINE
  5
3BA5
100
AcDbEntity
  8
0
  6
CONTINUOUS
 62
     0
100
AcDbLine
 10
54.09375
 20
156.669182
 30
0.0
 11
54.09375
 21
156.769182
 31
0.0
  0
LINE
  5
3BA6
100
AcDbEntity
  8
0
  6
CONTINUOUS
 62
     0
100
AcDbLine
 10
54.09375
 20
153.205081
 30
0.0
 11
54.09375
 21
153.305081
 31
0.0
  0
LINE
  5
3BA7
100
AcDbEntity
  8
0
  6
CONTINUOUS
 62
     0
100
AcDbLine
 10
54.09375
 20
149.740979
 30
0.0
 11
54.09375
 21
149.840979
 31
0.0
  0
LINE
  5
3BA8
100
AcDbEntity
  8
0
  6
CONTINUOUS
 62
     0
100
AcDbLine
 10
53.09375
 20
172.257639
 30
0.0
 11
53.09375
 21
172.357639
 31
0.0
  0
LINE
  5
3BA9
100
AcDbEntity
  8
0
  6
CONTINUOUS
 62
     0
100
AcDbLine
 10
53.09375
 20
168.793538
 30
0.0
 11
53.09375
 21
168.893538
 31
0.0
  0
LINE
  5
3BAA
100
AcDbEntity
  8
0
  6
CONTINUOUS
 62
     0
100
AcDbLine
 10
53.09375
 20
165.329436
 30
0.0
 11
53.09375
 21
165.429436
 31
0.0
  0
LINE
  5
3BAB
100
AcDbEntity
  8
0
  6
CONTINUOUS
 62
     0
100
AcDbLine
 10
53.09375
 20
161.865335
 30
0.0
 11
53.09375
 21
161.965335
 31
0.0
  0
LINE
  5
3BAC
100
AcDbEntity
  8
0
  6
CONTINUOUS
 62
     0
100
AcDbLine
 10
53.09375
 20
158.401233
 30
0.0
 11
53.09375
 21
158.501233
 31
0.0
  0
LINE
  5
3BAD
100
AcDbEntity
  8
0
  6
CONTINUOUS
 62
     0
100
AcDbLine
 10
53.09375
 20
154.937131
 30
0.0
 11
53.09375
 21
155.037131
 31
0.0
  0
LINE
  5
3BAE
100
AcDbEntity
  8
0
  6
CONTINUOUS
 62
     0
100
AcDbLine
 10
53.09375
 20
151.47303
 30
0.0
 11
53.09375
 21
151.57303
 31
0.0
  0
LINE
  5
3BAF
100
AcDbEntity
  8
0
  6
CONTINUOUS
 62
     0
100
AcDbLine
 10
53.09375
 20
148.008928
 30
0.0
 11
53.09375
 21
148.108928
 31
0.0
  0
LINE
  5
3BB0
100
AcDbEntity
  8
0
  6
CONTINUOUS
 62
     0
100
AcDbLine
 10
52.09375
 20
170.525589
 30
0.0
 11
52.09375
 21
170.625589
 31
0.0
  0
LINE
  5
3BB1
100
AcDbEntity
  8
0
  6
CONTINUOUS
 62
     0
100
AcDbLine
 10
52.09375
 20
167.061487
 30
0.0
 11
52.09375
 21
167.161487
 31
0.0
  0
LINE
  5
3BB2
100
AcDbEntity
  8
0
  6
CONTINUOUS
 62
     0
100
AcDbLine
 10
52.09375
 20
163.597385
 30
0.0
 11
52.09375
 21
163.697385
 31
0.0
  0
LINE
  5
3BB3
100
AcDbEntity
  8
0
  6
CONTINUOUS
 62
     0
100
AcDbLine
 10
52.09375
 20
160.133284
 30
0.0
 11
52.09375
 21
160.233284
 31
0.0
  0
LINE
  5
3BB4
100
AcDbEntity
  8
0
  6
CONTINUOUS
 62
     0
100
AcDbLine
 10
52.09375
 20
156.669182
 30
0.0
 11
52.09375
 21
156.769182
 31
0.0
  0
LINE
  5
3BB5
100
AcDbEntity
  8
0
  6
CONTINUOUS
 62
     0
100
AcDbLine
 10
52.09375
 20
153.205081
 30
0.0
 11
52.09375
 21
153.305081
 31
0.0
  0
LINE
  5
3BB6
100
AcDbEntity
  8
0
  6
CONTINUOUS
 62
     0
100
AcDbLine
 10
52.09375
 20
149.740979
 30
0.0
 11
52.09375
 21
149.840979
 31
0.0
  0
LINE
  5
3BB7
100
AcDbEntity
  8
0
  6
CONTINUOUS
 62
     0
100
AcDbLine
 10
51.09375
 20
172.257639
 30
0.0
 11
51.09375
 21
172.357639
 31
0.0
  0
LINE
  5
3BB8
100
AcDbEntity
  8
0
  6
CONTINUOUS
 62
     0
100
AcDbLine
 10
51.09375
 20
168.793538
 30
0.0
 11
51.09375
 21
168.893538
 31
0.0
  0
LINE
  5
3BB9
100
AcDbEntity
  8
0
  6
CONTINUOUS
 62
     0
100
AcDbLine
 10
51.09375
 20
165.329436
 30
0.0
 11
51.09375
 21
165.429436
 31
0.0
  0
LINE
  5
3BBA
100
AcDbEntity
  8
0
  6
CONTINUOUS
 62
     0
100
AcDbLine
 10
51.09375
 20
161.865335
 30
0.0
 11
51.09375
 21
161.965335
 31
0.0
  0
LINE
  5
3BBB
100
AcDbEntity
  8
0
  6
CONTINUOUS
 62
     0
100
AcDbLine
 10
51.09375
 20
158.401233
 30
0.0
 11
51.09375
 21
158.501233
 31
0.0
  0
LINE
  5
3BBC
100
AcDbEntity
  8
0
  6
CONTINUOUS
 62
     0
100
AcDbLine
 10
51.09375
 20
154.937131
 30
0.0
 11
51.09375
 21
155.037131
 31
0.0
  0
LINE
  5
3BBD
100
AcDbEntity
  8
0
  6
CONTINUOUS
 62
     0
100
AcDbLine
 10
51.09375
 20
151.47303
 30
0.0
 11
51.09375
 21
151.57303
 31
0.0
  0
LINE
  5
3BBE
100
AcDbEntity
  8
0
  6
CONTINUOUS
 62
     0
100
AcDbLine
 10
51.09375
 20
148.008928
 30
0.0
 11
51.09375
 21
148.108928
 31
0.0
  0
LINE
  5
3BBF
100
AcDbEntity
  8
0
  6
CONTINUOUS
 62
     0
100
AcDbLine
 10
50.09375
 20
170.525589
 30
0.0
 11
50.09375
 21
170.625589
 31
0.0
  0
LINE
  5
3BC0
100
AcDbEntity
  8
0
  6
CONTINUOUS
 62
     0
100
AcDbLine
 10
50.09375
 20
167.061487
 30
0.0
 11
50.09375
 21
167.161487
 31
0.0
  0
LINE
  5
3BC1
100
AcDbEntity
  8
0
  6
CONTINUOUS
 62
     0
100
AcDbLine
 10
50.09375
 20
163.597385
 30
0.0
 11
50.09375
 21
163.697385
 31
0.0
  0
LINE
  5
3BC2
100
AcDbEntity
  8
0
  6
CONTINUOUS
 62
     0
100
AcDbLine
 10
50.09375
 20
160.133284
 30
0.0
 11
50.09375
 21
160.233284
 31
0.0
  0
LINE
  5
3BC3
100
AcDbEntity
  8
0
  6
CONTINUOUS
 62
     0
100
AcDbLine
 10
50.09375
 20
156.669182
 30
0.0
 11
50.09375
 21
156.769182
 31
0.0
  0
LINE
  5
3BC4
100
AcDbEntity
  8
0
  6
CONTINUOUS
 62
     0
100
AcDbLine
 10
50.09375
 20
153.205081
 30
0.0
 11
50.09375
 21
153.305081
 31
0.0
  0
LINE
  5
3BC5
100
AcDbEntity
  8
0
  6
CONTINUOUS
 62
     0
100
AcDbLine
 10
50.09375
 20
149.740979
 30
0.0
 11
50.09375
 21
149.840979
 31
0.0
  0
LINE
  5
3BC6
100
AcDbEntity
  8
0
  6
CONTINUOUS
 62
     0
100
AcDbLine
 10
54.15625
 20
170.525589
 30
0.0
 11
54.15625
 21
170.625589
 31
0.0
  0
LINE
  5
3BC7
100
AcDbEntity
  8
0
  6
CONTINUOUS
 62
     0
100
AcDbLine
 10
54.15625
 20
167.061487
 30
0.0
 11
54.15625
 21
167.161487
 31
0.0
  0
LINE
  5
3BC8
100
AcDbEntity
  8
0
  6
CONTINUOUS
 62
     0
100
AcDbLine
 10
54.15625
 20
163.597385
 30
0.0
 11
54.15625
 21
163.697385
 31
0.0
  0
LINE
  5
3BC9
100
AcDbEntity
  8
0
  6
CONTINUOUS
 62
     0
100
AcDbLine
 10
54.15625
 20
160.133284
 30
0.0
 11
54.15625
 21
160.233284
 31
0.0
  0
LINE
  5
3BCA
100
AcDbEntity
  8
0
  6
CONTINUOUS
 62
     0
100
AcDbLine
 10
54.15625
 20
156.669182
 30
0.0
 11
54.15625
 21
156.769182
 31
0.0
  0
LINE
  5
3BCB
100
AcDbEntity
  8
0
  6
CONTINUOUS
 62
     0
100
AcDbLine
 10
54.15625
 20
153.205081
 30
0.0
 11
54.15625
 21
153.305081
 31
0.0
  0
LINE
  5
3BCC
100
AcDbEntity
  8
0
  6
CONTINUOUS
 62
     0
100
AcDbLine
 10
54.15625
 20
149.740979
 30
0.0
 11
54.15625
 21
149.840979
 31
0.0
  0
LINE
  5
3BCD
100
AcDbEntity
  8
0
  6
CONTINUOUS
 62
     0
100
AcDbLine
 10
53.15625
 20
172.257639
 30
0.0
 11
53.15625
 21
172.357639
 31
0.0
  0
LINE
  5
3BCE
100
AcDbEntity
  8
0
  6
CONTINUOUS
 62
     0
100
AcDbLine
 10
53.15625
 20
168.793538
 30
0.0
 11
53.15625
 21
168.893538
 31
0.0
  0
LINE
  5
3BCF
100
AcDbEntity
  8
0
  6
CONTINUOUS
 62
     0
100
AcDbLine
 10
53.15625
 20
165.329436
 30
0.0
 11
53.15625
 21
165.429436
 31
0.0
  0
LINE
  5
3BD0
100
AcDbEntity
  8
0
  6
CONTINUOUS
 62
     0
100
AcDbLine
 10
53.15625
 20
161.865335
 30
0.0
 11
53.15625
 21
161.965335
 31
0.0
  0
LINE
  5
3BD1
100
AcDbEntity
  8
0
  6
CONTINUOUS
 62
     0
100
AcDbLine
 10
53.15625
 20
158.401233
 30
0.0
 11
53.15625
 21
158.501233
 31
0.0
  0
LINE
  5
3BD2
100
AcDbEntity
  8
0
  6
CONTINUOUS
 62
     0
100
AcDbLine
 10
53.15625
 20
154.937131
 30
0.0
 11
53.15625
 21
155.037131
 31
0.0
  0
LINE
  5
3BD3
100
AcDbEntity
  8
0
  6
CONTINUOUS
 62
     0
100
AcDbLine
 10
53.15625
 20
151.47303
 30
0.0
 11
53.15625
 21
151.57303
 31
0.0
  0
LINE
  5
3BD4
100
AcDbEntity
  8
0
  6
CONTINUOUS
 62
     0
100
AcDbLine
 10
53.15625
 20
148.008928
 30
0.0
 11
53.15625
 21
148.108928
 31
0.0
  0
LINE
  5
3BD5
100
AcDbEntity
  8
0
  6
CONTINUOUS
 62
     0
100
AcDbLine
 10
52.15625
 20
170.525589
 30
0.0
 11
52.15625
 21
170.625589
 31
0.0
  0
LINE
  5
3BD6
100
AcDbEntity
  8
0
  6
CONTINUOUS
 62
     0
100
AcDbLine
 10
52.15625
 20
167.061487
 30
0.0
 11
52.15625
 21
167.161487
 31
0.0
  0
LINE
  5
3BD7
100
AcDbEntity
  8
0
  6
CONTINUOUS
 62
     0
100
AcDbLine
 10
52.15625
 20
163.597385
 30
0.0
 11
52.15625
 21
163.697385
 31
0.0
  0
LINE
  5
3BD8
100
AcDbEntity
  8
0
  6
CONTINUOUS
 62
     0
100
AcDbLine
 10
52.15625
 20
160.133284
 30
0.0
 11
52.15625
 21
160.233284
 31
0.0
  0
LINE
  5
3BD9
100
AcDbEntity
  8
0
  6
CONTINUOUS
 62
     0
100
AcDbLine
 10
52.15625
 20
156.669182
 30
0.0
 11
52.15625
 21
156.769182
 31
0.0
  0
LINE
  5
3BDA
100
AcDbEntity
  8
0
  6
CONTINUOUS
 62
     0
100
AcDbLine
 10
52.15625
 20
153.205081
 30
0.0
 11
52.15625
 21
153.305081
 31
0.0
  0
LINE
  5
3BDB
100
AcDbEntity
  8
0
  6
CONTINUOUS
 62
     0
100
AcDbLine
 10
52.15625
 20
149.740979
 30
0.0
 11
52.15625
 21
149.840979
 31
0.0
  0
LINE
  5
3BDC
100
AcDbEntity
  8
0
  6
CONTINUOUS
 62
     0
100
AcDbLine
 10
51.15625
 20
172.257639
 30
0.0
 11
51.15625
 21
172.357639
 31
0.0
  0
LINE
  5
3BDD
100
AcDbEntity
  8
0
  6
CONTINUOUS
 62
     0
100
AcDbLine
 10
51.15625
 20
168.793538
 30
0.0
 11
51.15625
 21
168.893538
 31
0.0
  0
LINE
  5
3BDE
100
AcDbEntity
  8
0
  6
CONTINUOUS
 62
     0
100
AcDbLine
 10
51.15625
 20
165.329436
 30
0.0
 11
51.15625
 21
165.429436
 31
0.0
  0
LINE
  5
3BDF
100
AcDbEntity
  8
0
  6
CONTINUOUS
 62
     0
100
AcDbLine
 10
51.15625
 20
161.865335
 30
0.0
 11
51.15625
 21
161.965335
 31
0.0
  0
LINE
  5
3BE0
100
AcDbEntity
  8
0
  6
CONTINUOUS
 62
     0
100
AcDbLine
 10
51.15625
 20
158.401233
 30
0.0
 11
51.15625
 21
158.501233
 31
0.0
  0
LINE
  5
3BE1
100
AcDbEntity
  8
0
  6
CONTINUOUS
 62
     0
100
AcDbLine
 10
51.15625
 20
154.937131
 30
0.0
 11
51.15625
 21
155.037131
 31
0.0
  0
LINE
  5
3BE2
100
AcDbEntity
  8
0
  6
CONTINUOUS
 62
     0
100
AcDbLine
 10
51.15625
 20
151.47303
 30
0.0
 11
51.15625
 21
151.57303
 31
0.0
  0
LINE
  5
3BE3
100
AcDbEntity
  8
0
  6
CONTINUOUS
 62
     0
100
AcDbLine
 10
51.15625
 20
148.008928
 30
0.0
 11
51.15625
 21
148.108928
 31
0.0
  0
LINE
  5
3BE4
100
AcDbEntity
  8
0
  6
CONTINUOUS
 62
     0
100
AcDbLine
 10
50.15625
 20
170.525589
 30
0.0
 11
50.15625
 21
170.625589
 31
0.0
  0
LINE
  5
3BE5
100
AcDbEntity
  8
0
  6
CONTINUOUS
 62
     0
100
AcDbLine
 10
50.15625
 20
167.061487
 30
0.0
 11
50.15625
 21
167.161487
 31
0.0
  0
LINE
  5
3BE6
100
AcDbEntity
  8
0
  6
CONTINUOUS
 62
     0
100
AcDbLine
 10
50.15625
 20
163.597385
 30
0.0
 11
50.15625
 21
163.697385
 31
0.0
  0
LINE
  5
3BE7
100
AcDbEntity
  8
0
  6
CONTINUOUS
 62
     0
100
AcDbLine
 10
50.15625
 20
160.133284
 30
0.0
 11
50.15625
 21
160.233284
 31
0.0
  0
LINE
  5
3BE8
100
AcDbEntity
  8
0
  6
CONTINUOUS
 62
     0
100
AcDbLine
 10
50.15625
 20
156.669182
 30
0.0
 11
50.15625
 21
156.769182
 31
0.0
  0
LINE
  5
3BE9
100
AcDbEntity
  8
0
  6
CONTINUOUS
 62
     0
100
AcDbLine
 10
50.15625
 20
153.205081
 30
0.0
 11
50.15625
 21
153.305081
 31
0.0
  0
LINE
  5
3BEA
100
AcDbEntity
  8
0
  6
CONTINUOUS
 62
     0
100
AcDbLine
 10
50.15625
 20
149.740979
 30
0.0
 11
50.15625
 21
149.840979
 31
0.0
  0
LINE
  5
3BEB
100
AcDbEntity
  8
0
  6
CONTINUOUS
 62
     0
100
AcDbLine
 10
54.125
 20
170.525589
 30
0.0
 11
54.125
 21
170.650589
 31
0.0
  0
LINE
  5
3BEC
100
AcDbEntity
  8
0
  6
CONTINUOUS
 62
     0
100
AcDbLine
 10
54.125
 20
167.061487
 30
0.0
 11
54.125
 21
167.186487
 31
0.0
  0
LINE
  5
3BED
100
AcDbEntity
  8
0
  6
CONTINUOUS
 62
     0
100
AcDbLine
 10
54.125
 20
163.597385
 30
0.0
 11
54.125
 21
163.722385
 31
0.0
  0
LINE
  5
3BEE
100
AcDbEntity
  8
0
  6
CONTINUOUS
 62
     0
100
AcDbLine
 10
54.125
 20
160.133284
 30
0.0
 11
54.125
 21
160.258284
 31
0.0
  0
LINE
  5
3BEF
100
AcDbEntity
  8
0
  6
CONTINUOUS
 62
     0
100
AcDbLine
 10
54.125
 20
156.669182
 30
0.0
 11
54.125
 21
156.794182
 31
0.0
  0
LINE
  5
3BF0
100
AcDbEntity
  8
0
  6
CONTINUOUS
 62
     0
100
AcDbLine
 10
54.125
 20
153.205081
 30
0.0
 11
54.125
 21
153.330081
 31
0.0
  0
LINE
  5
3BF1
100
AcDbEntity
  8
0
  6
CONTINUOUS
 62
     0
100
AcDbLine
 10
54.125
 20
149.740979
 30
0.0
 11
54.125
 21
149.865979
 31
0.0
  0
LINE
  5
3BF2
100
AcDbEntity
  8
0
  6
CONTINUOUS
 62
     0
100
AcDbLine
 10
53.125
 20
172.257639
 30
0.0
 11
53.125
 21
172.382639
 31
0.0
  0
LINE
  5
3BF3
100
AcDbEntity
  8
0
  6
CONTINUOUS
 62
     0
100
AcDbLine
 10
53.125
 20
168.793538
 30
0.0
 11
53.125
 21
168.918538
 31
0.0
  0
LINE
  5
3BF4
100
AcDbEntity
  8
0
  6
CONTINUOUS
 62
     0
100
AcDbLine
 10
53.125
 20
165.329436
 30
0.0
 11
53.125
 21
165.454436
 31
0.0
  0
LINE
  5
3BF5
100
AcDbEntity
  8
0
  6
CONTINUOUS
 62
     0
100
AcDbLine
 10
53.125
 20
161.865335
 30
0.0
 11
53.125
 21
161.990335
 31
0.0
  0
LINE
  5
3BF6
100
AcDbEntity
  8
0
  6
CONTINUOUS
 62
     0
100
AcDbLine
 10
53.125
 20
158.401233
 30
0.0
 11
53.125
 21
158.526233
 31
0.0
  0
LINE
  5
3BF7
100
AcDbEntity
  8
0
  6
CONTINUOUS
 62
     0
100
AcDbLine
 10
53.125
 20
154.937131
 30
0.0
 11
53.125
 21
155.062131
 31
0.0
  0
LINE
  5
3BF8
100
AcDbEntity
  8
0
  6
CONTINUOUS
 62
     0
100
AcDbLine
 10
53.125
 20
151.47303
 30
0.0
 11
53.125
 21
151.59803
 31
0.0
  0
LINE
  5
3BF9
100
AcDbEntity
  8
0
  6
CONTINUOUS
 62
     0
100
AcDbLine
 10
53.125
 20
148.008928
 30
0.0
 11
53.125
 21
148.133928
 31
0.0
  0
LINE
  5
3BFA
100
AcDbEntity
  8
0
  6
CONTINUOUS
 62
     0
100
AcDbLine
 10
52.125
 20
170.525589
 30
0.0
 11
52.125
 21
170.650589
 31
0.0
  0
LINE
  5
3BFB
100
AcDbEntity
  8
0
  6
CONTINUOUS
 62
     0
100
AcDbLine
 10
52.125
 20
167.061487
 30
0.0
 11
52.125
 21
167.186487
 31
0.0
  0
LINE
  5
3BFC
100
AcDbEntity
  8
0
  6
CONTINUOUS
 62
     0
100
AcDbLine
 10
52.125
 20
163.597385
 30
0.0
 11
52.125
 21
163.722385
 31
0.0
  0
LINE
  5
3BFD
100
AcDbEntity
  8
0
  6
CONTINUOUS
 62
     0
100
AcDbLine
 10
52.125
 20
160.133284
 30
0.0
 11
52.125
 21
160.258284
 31
0.0
  0
LINE
  5
3BFE
100
AcDbEntity
  8
0
  6
CONTINUOUS
 62
     0
100
AcDbLine
 10
52.125
 20
156.669182
 30
0.0
 11
52.125
 21
156.794182
 31
0.0
  0
LINE
  5
3BFF
100
AcDbEntity
  8
0
  6
CONTINUOUS
 62
     0
100
AcDbLine
 10
52.125
 20
153.205081
 30
0.0
 11
52.125
 21
153.330081
 31
0.0
  0
LINE
  5
3C00
100
AcDbEntity
  8
0
  6
CONTINUOUS
 62
     0
100
AcDbLine
 10
52.125
 20
149.740979
 30
0.0
 11
52.125
 21
149.865979
 31
0.0
  0
LINE
  5
3C01
100
AcDbEntity
  8
0
  6
CONTINUOUS
 62
     0
100
AcDbLine
 10
51.125
 20
172.257639
 30
0.0
 11
51.125
 21
172.382639
 31
0.0
  0
LINE
  5
3C02
100
AcDbEntity
  8
0
  6
CONTINUOUS
 62
     0
100
AcDbLine
 10
51.125
 20
168.793538
 30
0.0
 11
51.125
 21
168.918538
 31
0.0
  0
LINE
  5
3C03
100
AcDbEntity
  8
0
  6
CONTINUOUS
 62
     0
100
AcDbLine
 10
51.125
 20
165.329436
 30
0.0
 11
51.125
 21
165.454436
 31
0.0
  0
LINE
  5
3C04
100
AcDbEntity
  8
0
  6
CONTINUOUS
 62
     0
100
AcDbLine
 10
51.125
 20
161.865335
 30
0.0
 11
51.125
 21
161.990335
 31
0.0
  0
LINE
  5
3C05
100
AcDbEntity
  8
0
  6
CONTINUOUS
 62
     0
100
AcDbLine
 10
51.125
 20
158.401233
 30
0.0
 11
51.125
 21
158.526233
 31
0.0
  0
LINE
  5
3C06
100
AcDbEntity
  8
0
  6
CONTINUOUS
 62
     0
100
AcDbLine
 10
51.125
 20
154.937131
 30
0.0
 11
51.125
 21
155.062131
 31
0.0
  0
LINE
  5
3C07
100
AcDbEntity
  8
0
  6
CONTINUOUS
 62
     0
100
AcDbLine
 10
51.125
 20
151.47303
 30
0.0
 11
51.125
 21
151.59803
 31
0.0
  0
LINE
  5
3C08
100
AcDbEntity
  8
0
  6
CONTINUOUS
 62
     0
100
AcDbLine
 10
51.125
 20
148.008928
 30
0.0
 11
51.125
 21
148.133928
 31
0.0
  0
LINE
  5
3C09
100
AcDbEntity
  8
0
  6
CONTINUOUS
 62
     0
100
AcDbLine
 10
50.125
 20
170.525589
 30
0.0
 11
50.125
 21
170.650589
 31
0.0
  0
LINE
  5
3C0A
100
AcDbEntity
  8
0
  6
CONTINUOUS
 62
     0
100
AcDbLine
 10
50.125
 20
167.061487
 30
0.0
 11
50.125
 21
167.186487
 31
0.0
  0
LINE
  5
3C0B
100
AcDbEntity
  8
0
  6
CONTINUOUS
 62
     0
100
AcDbLine
 10
50.125
 20
163.597385
 30
0.0
 11
50.125
 21
163.722385
 31
0.0
  0
LINE
  5
3C0C
100
AcDbEntity
  8
0
  6
CONTINUOUS
 62
     0
100
AcDbLine
 10
50.125
 20
160.133284
 30
0.0
 11
50.125
 21
160.258284
 31
0.0
  0
LINE
  5
3C0D
100
AcDbEntity
  8
0
  6
CONTINUOUS
 62
     0
100
AcDbLine
 10
50.125
 20
156.669182
 30
0.0
 11
50.125
 21
156.794182
 31
0.0
  0
LINE
  5
3C0E
100
AcDbEntity
  8
0
  6
CONTINUOUS
 62
     0
100
AcDbLine
 10
50.125
 20
153.205081
 30
0.0
 11
50.125
 21
153.330081
 31
0.0
  0
LINE
  5
3C0F
100
AcDbEntity
  8
0
  6
CONTINUOUS
 62
     0
100
AcDbLine
 10
50.125
 20
149.740979
 30
0.0
 11
50.125
 21
149.865979
 31
0.0
  0
LINE
  5
3C10
100
AcDbEntity
  8
0
  6
CONTINUOUS
 62
     0
100
AcDbLine
 10
53.0
 20
148.008928
 30
0.0
 11
53.25
 21
148.008928
 31
0.0
  0
LINE
  5
3C11
100
AcDbEntity
  8
0
  6
CONTINUOUS
 62
     0
100
AcDbLine
 10
51.0
 20
148.008928
 30
0.0
 11
51.25
 21
148.008928
 31
0.0
  0
LINE
  5
3C12
100
AcDbEntity
  8
0
  6
CONTINUOUS
 62
     0
100
AcDbLine
 10
54.0
 20
149.740979
 30
0.0
 11
54.25
 21
149.740979
 31
0.0
  0
LINE
  5
3C13
100
AcDbEntity
  8
0
  6
CONTINUOUS
 62
     0
100
AcDbLine
 10
52.0
 20
149.740979
 30
0.0
 11
52.25
 21
149.740979
 31
0.0
  0
LINE
  5
3C14
100
AcDbEntity
  8
0
  6
CONTINUOUS
 62
     0
100
AcDbLine
 10
50.0
 20
149.740979
 30
0.0
 11
50.25
 21
149.740979
 31
0.0
  0
LINE
  5
3C15
100
AcDbEntity
  8
0
  6
CONTINUOUS
 62
     0
100
AcDbLine
 10
53.0
 20
151.47303
 30
0.0
 11
53.25
 21
151.47303
 31
0.0
  0
LINE
  5
3C16
100
AcDbEntity
  8
0
  6
CONTINUOUS
 62
     0
100
AcDbLine
 10
51.0
 20
151.47303
 30
0.0
 11
51.25
 21
151.47303
 31
0.0
  0
LINE
  5
3C17
100
AcDbEntity
  8
0
  6
CONTINUOUS
 62
     0
100
AcDbLine
 10
54.0
 20
153.205081
 30
0.0
 11
54.25
 21
153.205081
 31
0.0
  0
LINE
  5
3C18
100
AcDbEntity
  8
0
  6
CONTINUOUS
 62
     0
100
AcDbLine
 10
52.0
 20
153.205081
 30
0.0
 11
52.25
 21
153.205081
 31
0.0
  0
LINE
  5
3C19
100
AcDbEntity
  8
0
  6
CONTINUOUS
 62
     0
100
AcDbLine
 10
50.0
 20
153.205081
 30
0.0
 11
50.25
 21
153.205081
 31
0.0
  0
LINE
  5
3C1A
100
AcDbEntity
  8
0
  6
CONTINUOUS
 62
     0
100
AcDbLine
 10
53.0
 20
154.937131
 30
0.0
 11
53.25
 21
154.937131
 31
0.0
  0
LINE
  5
3C1B
100
AcDbEntity
  8
0
  6
CONTINUOUS
 62
     0
100
AcDbLine
 10
51.0
 20
154.937131
 30
0.0
 11
51.25
 21
154.937131
 31
0.0
  0
LINE
  5
3C1C
100
AcDbEntity
  8
0
  6
CONTINUOUS
 62
     0
100
AcDbLine
 10
54.0
 20
156.669182
 30
0.0
 11
54.25
 21
156.669182
 31
0.0
  0
LINE
  5
3C1D
100
AcDbEntity
  8
0
  6
CONTINUOUS
 62
     0
100
AcDbLine
 10
52.0
 20
156.669182
 30
0.0
 11
52.25
 21
156.669182
 31
0.0
  0
LINE
  5
3C1E
100
AcDbEntity
  8
0
  6
CONTINUOUS
 62
     0
100
AcDbLine
 10
50.0
 20
156.669182
 30
0.0
 11
50.25
 21
156.669182
 31
0.0
  0
LINE
  5
3C1F
100
AcDbEntity
  8
0
  6
CONTINUOUS
 62
     0
100
AcDbLine
 10
53.0
 20
158.401233
 30
0.0
 11
53.25
 21
158.401233
 31
0.0
  0
LINE
  5
3C20
100
AcDbEntity
  8
0
  6
CONTINUOUS
 62
     0
100
AcDbLine
 10
51.0
 20
158.401233
 30
0.0
 11
51.25
 21
158.401233
 31
0.0
  0
LINE
  5
3C21
100
AcDbEntity
  8
0
  6
CONTINUOUS
 62
     0
100
AcDbLine
 10
54.0
 20
160.133284
 30
0.0
 11
54.25
 21
160.133284
 31
0.0
  0
LINE
  5
3C22
100
AcDbEntity
  8
0
  6
CONTINUOUS
 62
     0
100
AcDbLine
 10
52.0
 20
160.133284
 30
0.0
 11
52.25
 21
160.133284
 31
0.0
  0
LINE
  5
3C23
100
AcDbEntity
  8
0
  6
CONTINUOUS
 62
     0
100
AcDbLine
 10
50.0
 20
160.133284
 30
0.0
 11
50.25
 21
160.133284
 31
0.0
  0
LINE
  5
3C24
100
AcDbEntity
  8
0
  6
CONTINUOUS
 62
     0
100
AcDbLine
 10
53.0
 20
161.865335
 30
0.0
 11
53.25
 21
161.865335
 31
0.0
  0
LINE
  5
3C25
100
AcDbEntity
  8
0
  6
CONTINUOUS
 62
     0
100
AcDbLine
 10
51.0
 20
161.865335
 30
0.0
 11
51.25
 21
161.865335
 31
0.0
  0
LINE
  5
3C26
100
AcDbEntity
  8
0
  6
CONTINUOUS
 62
     0
100
AcDbLine
 10
54.0
 20
163.597385
 30
0.0
 11
54.25
 21
163.597385
 31
0.0
  0
LINE
  5
3C27
100
AcDbEntity
  8
0
  6
CONTINUOUS
 62
     0
100
AcDbLine
 10
52.0
 20
163.597385
 30
0.0
 11
52.25
 21
163.597385
 31
0.0
  0
LINE
  5
3C28
100
AcDbEntity
  8
0
  6
CONTINUOUS
 62
     0
100
AcDbLine
 10
50.0
 20
163.597385
 30
0.0
 11
50.25
 21
163.597385
 31
0.0
  0
LINE
  5
3C29
100
AcDbEntity
  8
0
  6
CONTINUOUS
 62
     0
100
AcDbLine
 10
53.0
 20
165.329436
 30
0.0
 11
53.25
 21
165.329436
 31
0.0
  0
LINE
  5
3C2A
100
AcDbEntity
  8
0
  6
CONTINUOUS
 62
     0
100
AcDbLine
 10
51.0
 20
165.329436
 30
0.0
 11
51.25
 21
165.329436
 31
0.0
  0
LINE
  5
3C2B
100
AcDbEntity
  8
0
  6
CONTINUOUS
 62
     0
100
AcDbLine
 10
54.0
 20
167.061487
 30
0.0
 11
54.25
 21
167.061487
 31
0.0
  0
LINE
  5
3C2C
100
AcDbEntity
  8
0
  6
CONTINUOUS
 62
     0
100
AcDbLine
 10
52.0
 20
167.061487
 30
0.0
 11
52.25
 21
167.061487
 31
0.0
  0
LINE
  5
3C2D
100
AcDbEntity
  8
0
  6
CONTINUOUS
 62
     0
100
AcDbLine
 10
50.0
 20
167.061487
 30
0.0
 11
50.25
 21
167.061487
 31
0.0
  0
LINE
  5
3C2E
100
AcDbEntity
  8
0
  6
CONTINUOUS
 62
     0
100
AcDbLine
 10
53.0
 20
168.793538
 30
0.0
 11
53.25
 21
168.793538
 31
0.0
  0
LINE
  5
3C2F
100
AcDbEntity
  8
0
  6
CONTINUOUS
 62
     0
100
AcDbLine
 10
51.0
 20
168.793538
 30
0.0
 11
51.25
 21
168.793538
 31
0.0
  0
LINE
  5
3C30
100
AcDbEntity
  8
0
  6
CONTINUOUS
 62
     0
100
AcDbLine
 10
54.0
 20
170.525589
 30
0.0
 11
54.25
 21
170.525589
 31
0.0
  0
LINE
  5
3C31
100
AcDbEntity
  8
0
  6
CONTINUOUS
 62
     0
100
AcDbLine
 10
52.0
 20
170.525589
 30
0.0
 11
52.25
 21
170.525589
 31
0.0
  0
LINE
  5
3C32
100
AcDbEntity
  8
0
  6
CONTINUOUS
 62
     0
100
AcDbLine
 10
50.0
 20
170.525589
 30
0.0
 11
50.25
 21
170.525589
 31
0.0
  0
LINE
  5
3C33
100
AcDbEntity
  8
0
  6
CONTINUOUS
 62
     0
100
AcDbLine
 10
53.0
 20
172.257639
 30
0.0
 11
53.25
 21
172.257639
 31
0.0
  0
LINE
  5
3C34
100
AcDbEntity
  8
0
  6
CONTINUOUS
 62
     0
100
AcDbLine
 10
51.0
 20
172.257639
 30
0.0
 11
51.25
 21
172.257639
 31
0.0
  0
ENDBLK
  5
3C36
100
AcDbEntity
  8
0
100
AcDbBlockEnd
  0
ENDSEC
  0
SECTION
  2
ENTITIES
  0
POLYLINE
  5
1E
100
AcDbEntity
  8
CARTOUCHE
  6
CONTINUOUS
 62
     7
100
AcDb2dPolyline
 66
     1
 10
0.0
 20
0.0
 30
0.0
 70
   129
  0
VERTEX
  5
3716
100
AcDbEntity
  8
CARTOUCHE
  6
CONTINUOUS
 62
     7
100
AcDbVertex
100
AcDb2dVertex
 10
205.000037
 20
292.000183
 30
0.0
  0
VERTEX
  5
3717
100
AcDbEntity
  8
CARTOUCHE
  6
CONTINUOUS
 62
     7
100
AcDbVertex
100
AcDb2dVertex
 10
205.000037
 20
5.000183
 30
0.0
  0
VERTEX
  5
3718
100
AcDbEntity
  8
CARTOUCHE
  6
CONTINUOUS
 62
     7
100
AcDbVertex
100
AcDb2dVertex
 10
5.0
 20
5.0
 30
0.0
  0
VERTEX
  5
3719
100
AcDbEntity
  8
CARTOUCHE
  6
CONTINUOUS
 62
     7
100
AcDbVertex
100
AcDb2dVertex
 10
5.0
 20
292.0
 30
0.0
  0
VERTEX
  5
371A
100
AcDbEntity
  8
CARTOUCHE
  6
CONTINUOUS
 62
     7
100
AcDbVertex
100
AcDb2dVertex
 10
204.999774
 20
292.000183
 30
0.0
  0
SEQEND
  5
371B
100
AcDbEntity
  8
CARTOUCHE
  6
CONTINUOUS
 62
     7
  0
LINE
  5
20
100
AcDbEntity
  8
CARTOUCHE
  6
CONTINUOUS
 62
     7
100
AcDbLine
 10
205.000037
 20
36.845156
 30
0.0
 11
5.0
 21
36.845462
 31
0.0
  0
LINE
  5
21
100
AcDbEntity
  8
CARTOUCHE
  6
CONTINUOUS
 62
     7
100
AcDbLine
 10
205.000008
 20
20.002808
 30
0.0
 11
49.999973
 21
20.003045
 31
0.0
  0
LINE
  5
22
100
AcDbEntity
  8
CARTOUCHE
  6
CONTINUOUS
 62
     7
100
AcDbLine
 10
205.000037
 20
10.000793
 30
0.0
 11
5.0
 21
10.001068
 31
0.0
  0
INSERT
  5
26
100
AcDbEntity
  8
CARTOUCHE
  6
CONTINUOUS
 62
     4
100
AcDbBlockReference
  2
*X3
 10
0.0
 20
0.0
 30
0.0
1001
ACAD
1000
HATCH
1002
{
1070
    19
1000
ANSI31
1040
0.062992
1040
0.0
1000
R14_HATCH_DATA
1000
26
1011
1.0
1021
0.0
1031
0.0
1011
0.0
1021
1.0
1031
0.0
1011
0.0
1021
0.0
1031
1.0
1040
0.0
1010
0.0
1020
0.0
1030
1.0
1000
ANSI31
1070
     0
1070
     0
1071
        1
1071
        1
1071
      165
1070
     1
1040
39.051073
1040
22.244444
1040
39.154123
1040
22.244444
1070
     1
1040
39.154123
1040
22.244444
1040
42.206923
1040
22.256144
1070
     1
1040
42.206923
1040
22.256144
1040
42.232378
1040
22.365847
1070
     1
1040
42.232378
1040
22.365847
1040
42.245048
1040
22.449462
1070
     1
1040
42.245048
1040
22.449462
1040
42.251874
1040
22.533703
1070
     1
1040
42.251874
1040
22.533703
1040
42.251735
1040
22.646969
1070
     1
1040
42.251735
1040
22.646969
1040
42.23471
1040
22.816096
1070
     1
1040
42.23471
1040
22.816096
1040
42.208465
1040
22.956213
1070
     1
1040
42.208465
1040
22.956213
1040
42.173579
1040
23.094368
1070
     1
1040
42.173579
1040
23.094368
1040
42.131795
1040
23.229146
1070
     1
1040
42.131795
1040
23.229146
1040
42.082342
1040
23.361421
1070
     1
1040
42.082342
1040
23.361421
1040
42.036862
1040
23.464716
1070
     1
1040
42.036862
1040
23.464716
1040
41.985861
1040
23.565535
1070
     1
1040
41.985861
1040
23.565535
1040
41.92928
1040
23.663323
1070
     1
1040
41.92928
1040
23.663323
1040
41.867061
1040
23.757527
1070
     1
1040
41.867061
1040
23.757527
1040
41.799145
1040
23.847595
1070
     1
1040
41.799145
1040
23.847595
1040
41.725524
1040
23.93313
1070
     1
1040
41.725524
1040
23.93313
1040
41.646719
1040
24.014004
1070
     1
1040
41.646719
1040
24.014004
1040
41.563309
1040
24.090255
1070
     1
1040
41.563309
1040
24.090255
1040
41.384996
1040
24.229026
1070
     1
1040
41.384996
1040
24.229026
1040
41.266986
1040
24.306605
1070
     1
1040
41.266986
1040
24.306605
1040
41.14445
1040
24.376442
1070
     1
1040
41.14445
1040
24.376442
1040
41.017719
1040
24.437986
1070
     1
1040
41.017719
1040
24.437986
1040
40.887396
1040
24.491649
1070
     1
1040
40.887396
1040
24.491649
1040
40.618872
1040
24.578734
1070
     1
1040
40.618872
1040
24.578734
1040
40.344652
1040
24.645649
1070
     1
1040
40.344652
1040
24.645649
1040
40.067005
1040
24.69363
1070
     1
1040
40.067005
1040
24.69363
1040
39.786778
1040
24.723515
1070
     1
1040
39.786778
1040
24.723515
1040
39.222855
1040
24.735874
1070
     1
1040
39.222855
1040
24.735874
1040
38.660586
1040
24.695795
1070
     1
1040
38.660586
1040
24.695795
1040
38.3823
1040
24.651139
1070
     1
1040
38.3823
1040
24.651139
1040
38.107283
1040
24.5883
1070
     1
1040
38.107283
1040
24.5883
1040
37.890593
1040
24.52408
1070
     1
1040
37.890593
1040
24.52408
1040
37.731586
1040
24.465697
1070
     1
1040
37.731586
1040
24.465697
1040
37.57691
1040
24.396625
1070
     1
1040
37.57691
1040
24.396625
1040
37.477006
1040
24.343979
1070
     1
1040
37.477006
1040
24.343979
1040
37.380067
1040
24.285863
1070
     1
1040
37.380067
1040
24.285863
1040
37.286613
1040
24.222306
1070
     1
1040
37.286613
1040
24.222306
1040
37.197165
1040
24.15334
1070
     1
1040
37.197165
1040
24.15334
1040
37.112243
1040
24.078995
1070
     1
1040
37.112243
1040
24.078995
1040
37.03232
1040
23.999414
1070
     1
1040
37.03232
1040
23.999414
1040
36.957469
1040
23.914974
1070
     1
1040
36.957469
1040
23.914974
1040
36.887723
1040
23.826164
1070
     1
1040
36.887723
1040
23.826164
1040
36.823113
1040
23.733469
1070
     1
1040
36.823113
1040
23.733469
1040
36.763669
1040
23.637375
1070
     1
1040
36.763669
1040
23.637375
1040
36.660491
1040
23.436489
1070
     1
1040
36.660491
1040
23.436489
1040
36.617061
1040
23.332299
1070
     1
1040
36.617061
1040
23.332299
1040
36.579257
1040
23.225943
1070
     1
1040
36.579257
1040
23.225943
1040
36.547222
1040
23.117674
1070
     1
1040
36.547222
1040
23.117674
1040
36.521104
1040
23.00779
1070
     1
1040
36.521104
1040
23.00779
1040
36.501051
1040
22.896613
1070
     1
1040
36.501051
1040
22.896613
1040
36.487223
1040
22.784512
1070
     1
1040
36.487223
1040
22.784512
1040
36.479778
1040
22.671856
1070
     1
1040
36.479778
1040
22.671856
1040
36.478876
1040
22.559014
1070
     1
1040
36.478876
1040
22.559014
1040
36.484758
1040
22.446072
1070
     1
1040
36.484758
1040
22.446072
1040
36.507303
1040
22.278243
1070
     1
1040
36.507303
1040
22.278243
1040
36.531842
1040
22.168363
1070
     1
1040
36.531842
1040
22.168363
1040
36.580661
1040
22.006354
1070
     1
1040
36.580661
1040
22.006354
1040
36.663176
1040
21.796051
1070
     1
1040
36.663176
1040
21.796051
1040
36.738102
1040
21.644243
1070
     1
1040
36.738102
1040
21.644243
1040
36.824876
1040
21.499285
1070
     1
1040
36.824876
1040
21.499285
1040
36.906565
1040
21.38422
1070
     1
1040
36.906565
1040
21.38422
1040
36.995075
1040
21.274114
1070
     1
1040
36.995075
1040
21.274114
1040
37.069976
1040
21.189232
1070
     1
1040
37.069976
1040
21.189232
1040
37.190906
1040
21.070408
1070
     1
1040
37.190906
1040
21.070408
1040
37.27814
1040
20.999373
1070
     1
1040
37.27814
1040
20.999373
1040
37.418207
1040
20.905115
1070
     1
1040
37.418207
1040
20.905115
1040
37.541992
1040
20.836757
1070
     1
1040
37.541992
1040
20.836757
1040
37.669631
1040
20.775673
1070
     1
1040
37.669631
1040
20.775673
1040
37.878008
1040
20.688457
1070
     1
1040
37.878008
1040
20.688457
1040
38.199606
1040
20.582881
1070
     1
1040
38.199606
1040
20.582881
1040
38.419015
1040
20.531338
1070
     1
1040
38.419015
1040
20.531338
1040
38.753153
1040
20.477838
1070
     1
1040
38.753153
1040
20.477838
1040
39.03388
1040
20.450243
1070
     1
1040
39.03388
1040
20.450243
1040
39.315482
1040
20.438162
1070
     1
1040
39.315482
1040
20.438162
1040
39.878324
1040
20.461635
1070
     1
1040
39.878324
1040
20.461635
1040
40.159192
1040
20.494468
1070
     1
1040
40.159192
1040
20.494468
1040
40.437804
1040
20.542235
1070
     1
1040
40.437804
1040
20.542235
1040
40.712118
1040
20.608344
1070
     1
1040
40.712118
1040
20.608344
1040
40.978222
1040
20.699934
1070
     1
1040
40.978222
1040
20.699934
1040
41.235564
1040
20.815324
1070
     1
1040
41.235564
1040
20.815324
1040
41.361299
1040
20.879186
1070
     1
1040
41.361299
1040
20.879186
1040
41.48298
1040
20.950245
1070
     1
1040
41.48298
1040
20.950245
1040
41.575618
1040
21.014782
1070
     1
1040
41.575618
1040
21.014782
1040
41.641621
1040
21.067895
1070
     1
1040
41.641621
1040
21.067895
1040
41.704176
1040
21.124947
1070
     1
1040
41.704176
1040
21.124947
1040
41.78171
1040
21.206815
1070
     1
1040
41.78171
1040
21.206815
1040
41.886125
1040
21.340089
1070
     1
1040
41.886125
1040
21.340089
1040
41.948068
1040
21.434593
1070
     1
1040
41.948068
1040
21.434593
1040
41.989546
1040
21.508386
1070
     1
1040
41.989546
1040
21.508386
1040
42.02581
1040
21.584828
1070
     1
1040
42.02581
1040
21.584828
1040
42.064953
1040
21.690806
1070
     1
1040
42.064953
1040
21.690806
1040
42.08735
1040
21.7726
1070
     1
1040
42.08735
1040
21.7726
1040
42.103873
1040
21.855644
1070
     1
1040
42.103873
1040
21.855644
1040
40.343023
1040
21.855644
1070
     1
1040
40.343023
1040
21.855644
1040
40.23476
1040
21.775139
1070
     1
1040
40.23476
1040
21.775139
1040
40.149342
1040
21.720655
1070
     1
1040
40.149342
1040
21.720655
1040
40.060776
1040
21.671433
1070
     1
1040
40.060776
1040
21.671433
1040
39.984758
1040
21.634773
1070
     1
1040
39.984758
1040
21.634773
1040
39.906576
1040
21.603307
1070
     1
1040
39.906576
1040
21.603307
1040
39.842277
1040
21.582635
1070
     1
1040
39.842277
1040
21.582635
1040
39.743651
1040
21.559088
1070
     1
1040
39.743651
1040
21.559088
1040
39.609337
1040
21.540536
1070
     1
1040
39.609337
1040
21.540536
1040
39.507639
1040
21.535656
1070
     1
1040
39.507639
1040
21.535656
1040
39.405809
1040
21.537981
1070
     1
1040
39.405809
1040
21.537981
1040
39.271392
1040
21.551496
1070
     1
1040
39.271392
1040
21.551496
1040
39.171681
1040
21.569188
1070
     1
1040
39.171681
1040
21.569188
1040
39.073329
1040
21.593186
1070
     1
1040
39.073329
1040
21.593186
1040
38.944884
1040
21.635037
1070
     1
1040
38.944884
1040
21.635037
1040
38.851395
1040
21.674301
1070
     1
1040
38.851395
1040
21.674301
1040
38.760981
1040
21.720846
1070
     1
1040
38.760981
1040
21.720846
1040
38.70284
1040
21.75614
1070
     1
1040
38.70284
1040
21.75614
1040
38.647077
1040
21.795104
1070
     1
1040
38.647077
1040
21.795104
1040
38.59445
1040
21.837967
1070
     1
1040
38.59445
1040
21.837967
1040
38.545719
1040
21.884956
1070
     1
1040
38.545719
1040
21.884956
1040
38.501642
1040
21.9363
1070
     1
1040
38.501642
1040
21.9363
1040
38.462877
1040
21.99205
1070
     1
1040
38.462877
1040
21.99205
1040
38.429669
1040
22.051562
1070
     1
1040
38.429669
1040
22.051562
1040
38.402161
1040
22.114013
1070
     1
1040
38.402161
1040
22.114013
1040
38.380498
1040
22.178581
1070
     1
1040
38.380498
1040
22.178581
1040
38.364823
1040
22.244444
1070
     1
1040
38.364823
1040
22.244444
1040
39.051073
1040
22.244444
1070
     1
1040
38.364823
1040
23.079194
1040
39.154123
1040
23.079194
1070
     1
1040
39.154123
1040
23.079194
1040
40.343023
1040
23.079194
1070
     1
1040
40.343023
1040
23.079194
1040
40.339099
1040
23.116416
1070
     1
1040
40.339099
1040
23.116416
1040
40.333002
1040
23.153431
1070
     1
1040
40.333002
1040
23.153431
1040
40.324692
1040
23.190049
1070
     1
1040
40.324692
1040
23.190049
1040
40.314132
1040
23.226078
1070
     1
1040
40.314132
1040
23.226078
1040
40.301285
1040
23.261329
1070
     1
1040
40.301285
1040
23.261329
1040
40.286156
1040
23.295606
1070
     1
1040
40.286156
1040
23.295606
1040
40.268864
1040
23.328846
1070
     1
1040
40.268864
1040
23.328846
1040
40.249567
1040
23.360982
1070
     1
1040
40.249567
1040
23.360982
1040
40.228425
1040
23.391944
1070
     1
1040
40.228425
1040
23.391944
1040
40.205595
1040
23.421664
1070
     1
1040
40.205595
1040
23.421664
1040
40.155158
1040
23.477534
1070
     1
1040
40.155158
1040
23.477534
1040
40.113888
1040
23.516059
1070
     1
1040
40.113888
1040
23.516059
1040
40.070149
1040
23.551768
1070
     1
1040
40.070149
1040
23.551768
1040
40.008897
1040
23.594936
1070
     1
1040
40.008897
1040
23.594936
1040
39.960894
1040
23.624144
1070
     1
1040
39.960894
1040
23.624144
1040
39.911351
1040
23.650643
1070
     1
1040
39.911351
1040
23.650643
1040
39.843213
1040
23.681802
1070
     1
1040
39.843213
1040
23.681802
1040
39.737463
1040
23.719811
1070
     1
1040
39.737463
1040
23.719811
1040
39.665034
1040
23.739546
1070
     1
1040
39.665034
1040
23.739546
1040
39.554475
1040
23.760807
1070
     1
1040
39.554475
1040
23.760807
1040
39.479582
1040
23.769534
1070
     1
1040
39.479582
1040
23.769534
1040
39.366678
1040
23.77477
1070
     1
1040
39.366678
1040
23.77477
1040
39.291229
1040
23.773226
1070
     1
1040
39.291229
1040
23.773226
1040
39.178244
1040
23.762802
1070
     1
1040
39.178244
1040
23.762802
1040
39.104388
1040
23.749824
1070
     1
1040
39.104388
1040
23.749824
1040
39.068085
1040
23.740847
1070
     1
1040
39.068085
1040
23.740847
1040
39.032514
1040
23.729811
1070
     1
1040
39.032514
1040
23.729811
1040
38.997912
1040
23.716418
1070
     1
1040
38.997912
1040
23.716418
1040
38.964344
1040
23.700508
1070
     1
1040
38.964344
1040
23.700508
1040
38.834843
1040
23.625681
1070
     1
1040
38.834843
1040
23.625681
1040
38.671594
1040
23.535581
1070
     1
1040
38.671594
1040
23.535581
1040
38.640976
1040
23.51416
1070
     1
1040
38.640976
1040
23.51416
1040
38.611625
1040
23.49088
1070
     1
1040
38.611625
1040
23.49088
1040
38.583591
1040
23.465911
1070
     1
1040
38.583591
1040
23.465911
1040
38.531681
1040
23.41159
1070
     1
1040
38.531681
1040
23.41159
1040
38.485341
1040
23.352025
1070
     1
1040
38.485341
1040
23.352025
1040
38.454621
1040
23.304551
1070
     1
1040
38.454621
1040
23.304551
1040
38.427457
1040
23.254932
1070
     1
1040
38.427457
1040
23.254932
1040
38.3972
1040
23.186473
1070
     1
1040
38.3972
1040
23.186473
1040
38.37898
1040
23.133395
1070
     1
1040
38.37898
1040
23.133395
1040
38.364823
1040
23.079194
1071
        0
1070
     0
1070
     1
1040
0.0
1040
0.062992
1070
     0
1070
     1
1040
0.785398
1040
-6.22517
1040
-28.624349
1040
-0.141421
1040
0.141421
1070
     0
1071
        1
1040
-6.22517
1040
-28.624349
1040
0.0
1002
}
  0
SPLINE
  5
27
100
AcDbEntity
  8
CARTOUCHE
  6
CONTINUOUS
 62
     4
100
AcDbSpline
210
0.0
220
0.0
230
-1.0
 70
     8
 71
     3
 72
    21
 73
    17
 74
    15
 42
0.0000001
 43
0.0000001
 44
0.000001
 12
-0.0762450288998757
 22
0.9970891111470715
 32
0.0
 13
-0.2154301143740796
 23
-0.9765192603429648
 33
0.0
 40
0.0
 40
0.0
 40
0.0
 40
0.0
 40
0.1868552544910631
 40
0.3735743379497275
 40
0.5613842505736386
 40
0.7484489883359557
 40
0.9355885045750216
 40
1.123112117669891
 40
1.311428171606846
 40
1.500241975701495
 40
1.68644341515699
 40
1.873056879838249
 40
2.059519584354549
 40
2.246467155624063
 40
2.434628048413954
 40
2.621193228285582
 40
2.621193228285582
 40
2.621193228285582
 40
2.621193228285582
 10
40.3430229762125
 20
23.07919360711669
 30
0.0
 10
40.33827404811957
 20
23.14129738698791
 30
0.0
 10
40.31098575637731
 20
23.26532095743951
 30
0.0
 10
40.21176942058871
 20
23.42743837256688
 30
0.0
 10
40.07410479994639
 20
23.55667608106139
 30
0.0
 10
39.9138008107931
 20
23.65566247942489
 30
0.0
 10
39.73873429209119
 20
23.72452107693797
 30
0.0
 10
39.55489941934138
 20
23.76544062640578
 30
0.0
 10
39.36639702832007
 20
23.77885734971313
 30
0.0
 10
39.17902204364417
 20
23.76782173584163
 30
0.0
 10
38.99274789300326
 20
23.72745922539276
 30
0.0
 10
38.83748771726681
 20
23.62068032967624
 30
0.0
 10
38.66640566438338
 20
23.54392781271009
 30
0.0
 10
38.52524856751328
 20
23.41621622896002
 30
0.0
 10
38.42100497412087
 20
23.25892330491868
 30
0.0
 10
38.37822022889183
 20
23.1399217709347
 30
0.0
 10
38.36482297621251
 20
23.0791936071167
 30
0.0
 11
40.3430229762125
 21
23.07919360711669
 31
0.0
 11
40.30128482007762
 21
23.26132867168497
 31
0.0
 11
40.20559522220136
 21
23.42166431604199
 31
0.0
 11
40.07014905358668
 21
23.55176773224803
 31
0.0
 11
39.91135088271828
 21
23.6506431736504
 31
0.0
 11
39.7374628559249
 21
23.71981068462436
 31
0.0
 11
39.55447534379333
 21
23.76080659501808
 31
0.0
 11
39.36667772831406
 21
23.77477007425147
 31
0.0
 11
39.17824365086322
 21
23.76280187157366
 31
0.0
 11
38.99791204207538
 21
23.71641788353441
 31
0.0
 11
38.83484335052719
 21
23.62568105970969
 31
0.0
 11
38.6715939776077
 21
23.53558123947115
 31
0.0
 11
38.53168126994678
 21
23.41159000587155
 31
0.0
 11
38.42745670868595
 21
23.25493190905037
 31
0.0
 11
38.36482297621251
 21
23.0791936071167
 31
0.0
  0
SPLINE
  5
28
100
AcDbEntity
  8
CARTOUCHE
  6
CONTINUOUS
 62
     4
100
AcDbSpline
210
0.0
220
0.0
230
1.0
 70
     8
 71
     3
 72
    15
 73
    11
 74
     9
 42
0.0000001
 43
0.0000001
 44
0.000001
 12
0.1873467659221653
 22
-0.9822938406090642
 32
0.0
 13
0.7770129286964091
 23
0.6294846373332945
 33
0.0
 40
0.0
 40
0.0
 40
0.0
 40
0.0
 40
0.3371521140362622
 40
0.6743125245575566
 40
1.011741450839519
 40
1.34877367337186
 40
1.687274841773488
 40
1.856093329057823
 40
2.024672152796235
 40
2.361712998590453
 40
2.361712998590453
 40
2.361712998590453
 40
2.361712998590453
 10
38.3648229762125
 20
22.24444360711669
 30
0.0
 10
38.38587776227534
 20
22.13404945879465
 30
0.0
 10
38.47908885254962
 20
21.91720273148486
 30
0.0
 10
38.75430937478617
 20
21.70645023854778
 30
0.0
 10
39.06998691557769
 20
21.58181099425638
 30
0.0
 10
39.40539548706931
 20
21.52556359245149
 30
0.0
 10
39.6894951413102
 20
21.54062625211872
 30
0.0
 10
39.90812750047185
 20
21.5988745675465
 30
0.0
 10
40.11328304540707
 20
21.69222607636082
 30
0.0
 10
40.25572794465221
 20
21.78492292892293
 30
0.0
 10
40.3430229762125
 20
21.85564360711669
 30
0.0
 11
38.3648229762125
 21
22.24444360711669
 31
0.0
 11
38.50164219830394
 21
21.93629966675314
 31
0.0
 11
38.76098099155704
 21
21.72084551731241
 31
0.0
 11
39.07332908880515
 21
21.59318639542836
 31
0.0
 11
39.40580907592665
 21
21.53798084006903
 31
0.0
 11
39.7436513990388
 21
21.55908759838489
 31
0.0
 11
39.90657573481705
 21
21.60330661466393
 31
0.0
 11
40.06077578326683
 21
21.67143258943228
 31
0.0
 11
40.3430229762125
 21
21.85564360711669
 31
0.0
  0
SPLINE
  5
29
100
AcDbEntity
  8
CARTOUCHE
  6
CONTINUOUS
 62
     4
100
AcDbSpline
210
0.0
220
0.0
230
1.0
 70
     8
 71
     3
 72
    46
 73
    42
 74
    40
 42
0.0000001
 43
0.0000001
 44
0.000001
 12
0.2679235453433934
 22
0.9634401765811029
 32
0.0
 13
0.1610223945668763
 23
0.9869507527977013
 33
0.0
 40
0.0
 40
0.0
 40
0.0
 40
0.0
 40
0.2811750796503045
 40
0.564088879055396
 40
0.848996137055497
 40
1.131203953305268
 40
1.693846441362772
 40
2.256881955637969
 40
2.539005752871453
 40
2.82069577771237
 40
3.10298742486103
 40
3.38525403659849
 40
3.948536069069792
 40
4.512593829792804
 40
5.076289826652828
 40
5.639937838168406
 40
6.2038840903654
 40
6.766736771207038
 40
7.329349297989459
 40
7.892321937217589
 40
8.455146667050026
 40
8.73735324357032
 40
9.018964818970465
 40
9.581779450805994
 40
9.864036877849454
 40
10.14660719714255
 40
10.42765468170207
 40
10.71044306512549
 40
11.27439538244285
 40
11.83782003463079
 40
12.40154780658862
 40
12.96487894167
 40
13.53013446902046
 40
13.81230156690056
 40
14.09372679950091
 40
14.37575459410578
 40
14.65756756838715
 40
14.93943336458308
 40
15.22119875341787
 40
15.50299432171135
 40
15.78483572811754
 40
15.78483572811754
 40
15.78483572811754
 40
15.78483572811754
 10
42.2069229762125
 20
22.2561436071167
 30
0.0
 10
42.2320341176132
 20
22.3464420632462
 30
0.0
 10
42.26336464147739
 20
22.53399287488758
 30
0.0
 10
42.24149608329661
 20
22.8180131107924
 30
0.0
 10
42.17836727502067
 20
23.09483389003594
 30
0.0
 10
42.05825120664016
 20
23.45212571811312
 30
0.0
 10
41.8230662027482
 20
23.86724960201155
 30
0.0
 10
41.46781625684352
 20
24.18453336175033
 30
0.0
 10
41.14761116479388
 20
24.3819623925892
 30
0.0
 10
40.88897513028328
 20
24.49665746156387
 30
0.0
 10
40.61969351239294
 20
24.58173320376633
 30
0.0
 10
40.25431466085239
 20
24.67112506006321
 30
0.0
 10
39.78717015303302
 20
24.73491686377472
 30
0.0
 10
39.22286191438472
 20
24.74314560896781
 30
0.0
 10
38.6591207586762
 20
24.70776700654681
 30
0.0
 10
38.10430963940351
 20
24.60055453197603
 30
0.0
 10
37.56703414053914
 20
24.41975287868164
 30
0.0
 10
37.09128408887103
 20
24.10132422112936
 30
0.0
 10
36.74193896822071
 20
23.64941350842831
 30
0.0
 10
36.52262166648302
 20
23.12465092345435
 30
0.0
 10
36.4628624049949
 20
22.65237441832042
 30
0.0
 10
36.49897198241179
 20
22.27677365581592
 30
0.0
 10
36.60138551467248
 20
21.91447858732574
 30
0.0
 10
36.76185476287774
 20
21.56953964406969
 30
0.0
 10
36.99184530900153
 20
21.27135464682456
 30
0.0
 10
37.18412182401923
 20
21.06372998507461
 30
0.0
 10
37.41499111831874
 20
20.89811018872763
 30
0.0
 10
37.75233271639089
 20
20.73108027472569
 30
0.0
 10
38.19505509243059
 20
20.56630128617908
 30
0.0
 10
38.75227464306411
 20
20.46845476892714
 30
0.0
 10
39.31516439613785
 20
20.42686299267516
 30
0.0
 10
39.87978550253785
 20
20.45310470204113
 30
0.0
 10
40.3463620097438
 20
20.51793315533649
 30
0.0
 10
40.71316996174686
 20
20.60361914488436
 30
0.0
 10
40.98020763016106
 20
20.69575720930983
 30
0.0
 10
41.23634075531815
 20
20.81337147401733
 30
0.0
 10
41.48756161568505
 20
20.94257950230669
 30
0.0
 10
41.71131144352496
 20
21.1177966629821
 30
0.0
 10
41.89210360145349
 20
21.33577522622756
 30
0.0
 10
42.03705337486477
 20
21.5796890671691
 30
0.0
 10
42.08874538349662
 20
21.76292241104264
 30
0.0
 10
42.10387297621249
 20
21.85564360711669
 30
0.0
 11
42.2069229762125
 21
22.2561436071167
 31
0.0
 11
42.25187369928078
 21
22.53370336692195
 31
0.0
 11
42.23470970538826
 21
22.81609604661632
 31
0.0
 11
42.1735788783549
 21
23.0943678180467
 31
0.0
 11
42.08234233059616
 21
23.36142053588839
 31
0.0
 11
41.79914459059214
 21
23.84759505388021
 31
0.0
 11
41.38499580886721
 21
24.22902637720731
 31
0.0
 11
41.1444496714726
 21
24.37644216492157
 31
0.0
 11
40.88739588735783
 21
24.49164913231013
 31
0.0
 11
40.61887239332167
 21
24.57873375105808
 31
0.0
 11
40.34465192624326
 21
24.64564860681681
 31
0.0
 11
39.78677780416955
 21
24.72351512572941
 31
0.0
 11
39.22285539283774
 21
24.73587418697074
 31
0.0
 11
38.66058598489463
 21
24.6957948090196
 31
0.0
 11
38.10728319880826
 21
24.58829981854138
 31
0.0
 11
37.57690963109762
 21
24.3966247732279
 31
0.0
 11
37.1122433036989
 21
24.07899538626728
 31
0.0
 11
36.76366857941348
 21
23.63737494458054
 31
0.0
 11
36.54722159336241
 21
23.11767406956402
 31
0.0
 11
36.47887604508949
 21
22.55901436160784
 31
0.0
 11
36.50730298839907
 21
22.27824312562695
 31
0.0
 11
36.58066141679664
 21
22.00635409419069
 31
0.0
 11
36.82487619371594
 21
21.49928452588675
 31
0.0
 11
36.99507455897878
 21
21.27411393911514
 31
0.0
 11
37.19090624714094
 21
21.07040837833609
 31
0.0
 11
37.41820717151092
 21
20.90511471530929
 31
0.0
 11
37.66963145788086
 21
20.77567317677089
 31
0.0
 11
38.1996064863776
 21
20.58288122875969
 31
0.0
 11
38.75315260795133
 21
20.4778380326807
 31
0.0
 11
39.3154824739789
 21
20.43816227630538
 31
0.0
 11
39.87832438970059
 21
20.46163547548925
 31
0.0
 11
40.43780417420945
 21
20.54223471097222
 31
0.0
 11
40.71211753370237
 21
20.60834422386486
 31
0.0
 11
40.97822189579761
 21
20.69993377525822
 31
0.0
 11
41.23556355576588
 21
20.81532426148599
 31
0.0
 11
41.48298030283661
 21
20.95024471011851
 31
0.0
 11
41.70417597333143
 21
21.12494680466518
 31
0.0
 11
41.88612496759311
 21
21.3400893433574
 31
0.0
 11
42.02581025553314
 21
21.58482751880403
 31
0.0
 11
42.10387297621249
 21
21.85564360711669
 31
0.0
  0
LINE
  5
2A
100
AcDbEntity
  8
CARTOUCHE
  6
CONTINUOUS
 62
     4
100
AcDbLine
 10
39.154123
 20
23.079194
 30
0.0
 11
40.343023
 21
23.079194
 31
0.0
  0
LINE
  5
2B
100
AcDbEntity
  8
CARTOUCHE
  6
CONTINUOUS
 62
     4
100
AcDbLine
 10
42.206923
 20
22.256144
 30
0.0
 11
39.154123
 21
22.244444
 31
0.0
  0
TEXT
  5
2C
100
AcDbEntity
  8
CARTOUCHE
  6
CONTINUOUS
 62
     2
100
AcDbText
 10
19.49393
 20
6.600975
 30
0.0
 40
1.8
  1
MOD. UT 902
 50
359.999908
 41
1.05
  7
FINDER
 72
     1
 11
27.500001
 21
6.600962
 31
0.0
100
AcDbText
  0
TEXT
  5
2D
100
AcDbEntity
  8
CARTOUCHE
  6
CONTINUOUS
 62
     2
100
AcDbText
 10
16.190942
 20
14.308782
 30
0.0
 40
1.8
  1
www.findernet.com
 50
359.999908
 41
1.05
  7
FINDER
 72
     1
 11
27.500001
 21
14.308764
 31
0.0
100
AcDbText
  0
INSERT
  5
2E
100
AcDbEntity
  8
CARTOUCHE
  6
CONTINUOUS
 62
     4
100
AcDbBlockReference
  2
*X4
 10
0.0
 20
0.0
 30
0.0
1001
ACAD
1000
HATCH
1002
{
1070
    19
1000
ANSI31
1040
0.062992
1040
0.0
1000
R14_HATCH_DATA
1000
2E
1011
1.0
1021
0.0
1031
0.0
1011
0.0
1021
1.0
1031
0.0
1011
0.0
1021
0.0
1031
1.0
1040
0.0
1010
0.0
1020
0.0
1030
1.0
1000
ANSI31
1070
     0
1070
     0
1071
        1
1071
        1
1071
        4
1070
     1
1040
21.807973
1040
24.508394
1040
21.807973
1040
20.632094
1070
     1
1040
21.807973
1040
20.632094
1040
23.625973
1040
20.632094
1070
     1
1040
23.625973
1040
20.632094
1040
23.625973
1040
24.508394
1070
     1
1040
23.625973
1040
24.508394
1040
21.807973
1040
24.508394
1071
        0
1070
     0
1070
     1
1040
0.0
1040
0.062992
1070
     0
1070
     1
1040
0.785398
1040
-6.22517
1040
-28.624349
1040
-0.141421
1040
0.141421
1070
     0
1071
        1
1040
-6.22517
1040
-28.624349
1040
0.0
1002
}
  0
INSERT
  5
2F
100
AcDbEntity
  8
CARTOUCHE
  6
CONTINUOUS
 62
     4
100
AcDbBlockReference
  2
*X5
 10
0.0
 20
0.0
 30
0.0
1001
ACAD
1000
HATCH
1002
{
1070
    19
1000
ANSI31
1040
0.062992
1040
0.0
1000
R14_HATCH_DATA
1000
2F
1011
1.0
1021
0.0
1031
0.0
1011
0.0
1021
1.0
1031
0.0
1011
0.0
1021
0.0
1031
1.0
1040
0.0
1010
0.0
1020
0.0
1030
1.0
1000
ANSI31
1070
     0
1070
     0
1071
        1
1071
        1
1071
        4
1070
     1
1040
21.807973
1040
25.834994
1040
21.807973
1040
24.943094
1070
     1
1040
21.807973
1040
24.943094
1040
23.625973
1040
24.943094
1070
     1
1040
23.625973
1040
24.943094
1040
23.625973
1040
25.834994
1070
     1
1040
23.625973
1040
25.834994
1040
21.807973
1040
25.834994
1071
        0
1070
     0
1070
     1
1040
0.0
1040
0.062992
1070
     0
1070
     1
1040
0.785398
1040
-6.22517
1040
-28.624349
1040
-0.141421
1040
0.141421
1070
     0
1071
        1
1040
-6.22517
1040
-28.624349
1040
0.0
1002
}
  0
LINE
  5
30
100
AcDbEntity
  8
CARTOUCHE
  6
CONTINUOUS
 62
     4
100
AcDbLine
 10
23.625973
 20
24.943094
 30
0.0
 11
21.807973
 21
24.943094
 31
0.0
  0
LINE
  5
31
100
AcDbEntity
  8
CARTOUCHE
  6
CONTINUOUS
 62
     4
100
AcDbLine
 10
21.807973
 20
25.834994
 30
0.0
 11
23.625973
 21
25.834994
 31
0.0
  0
LINE
  5
32
100
AcDbEntity
  8
CARTOUCHE
  6
CONTINUOUS
 62
     4
100
AcDbLine
 10
23.625973
 20
20.632094
 30
0.0
 11
21.807973
 21
20.632094
 31
0.0
  0
LINE
  5
33
100
AcDbEntity
  8
CARTOUCHE
  6
CONTINUOUS
 62
     4
100
AcDbLine
 10
21.807973
 20
24.508394
 30
0.0
 11
23.625973
 21
24.508394
 31
0.0
  0
INSERT
  5
34
100
AcDbEntity
  8
CARTOUCHE
  6
CONTINUOUS
 62
     4
100
AcDbBlockReference
  2
*X6
 10
0.0
 20
0.0
 30
0.0
1001
ACAD
1000
HATCH
1002
{
1070
    19
1000
ANSI31
1040
0.062992
1040
0.0
1000
R14_HATCH_DATA
1000
34
1011
1.0
1021
0.0
1031
0.0
1011
0.0
1021
1.0
1031
0.0
1011
0.0
1021
0.0
1031
1.0
1040
0.0
1010
0.0
1020
0.0
1030
1.0
1000
ANSI31
1070
     0
1070
     0
1071
        1
1071
        1
1071
       50
1070
     1
1040
10.464823
1040
24.428744
1040
10.464823
1040
27.399506
1070
     1
1040
8.174776
1040
24.428744
1040
10.464823
1040
24.428744
1070
     1
1040
11.413873
1040
27.652621
1040
11.413873
1040
23.766514
1070
     1
1040
11.116423
1040
23.410844
1040
10.887823
1040
23.410844
1070
     1
1040
10.887823
1040
23.410844
1040
12.362923
1040
21.810194
1070
     1
1040
12.362923
1040
21.810194
1040
12.362923
1040
27.655485
1070
     1
1040
9.378523
1040
23.410844
1040
8.176313
1040
23.410844
1070
     1
1040
13.323223
1040
27.404134
1040
13.323223
1040
25.503344
1070
     1
1040
13.323223
1040
25.503344
1040
14.353656
1040
25.503344
1070
     1
1040
14.455423
1040
24.508394
1040
13.323223
1040
24.508394
1070
     1
1040
13.323223
1040
24.508394
1040
13.323223
1040
21.169844
1070
     1
1040
13.323223
1040
21.169844
1040
13.318835
1040
21.126412
1070
     1
1040
13.318835
1040
21.126412
1040
13.311632
1040
21.083268
1070
     1
1040
13.311632
1040
21.083268
1040
13.301677
1040
21.040602
1070
     1
1040
13.301677
1040
21.040602
1040
13.289029
1040
20.998605
1070
     1
1040
13.289029
1040
20.998605
1040
13.27375
1040
20.957468
1070
     1
1040
13.27375
1040
20.957468
1040
13.255877
1040
20.91734
1070
     1
1040
13.255877
1040
20.91734
1040
13.23548
1040
20.878466
1070
     1
1040
13.23548
1040
20.878466
1040
13.212608
1040
20.841045
1070
     1
1040
13.212608
1040
20.841045
1040
13.187312
1040
20.805278
1070
     1
1040
13.187312
1040
20.805278
1040
13.159643
1040
20.771365
1070
     1
1040
13.159643
1040
20.771365
1040
13.129815
1040
20.739605
1070
     1
1040
13.129815
1040
20.739605
1040
13.09792
1040
20.709874
1070
     1
1040
13.09792
1040
20.709874
1040
13.064194
1040
20.682164
1070
     1
1040
13.064194
1040
20.682164
1040
13.028871
1040
20.656467
1070
     1
1040
13.028871
1040
20.656467
1040
12.992187
1040
20.632775
1070
     1
1040
12.992187
1040
20.632775
1040
12.914787
1040
20.591129
1070
     1
1040
12.914787
1040
20.591129
1040
12.874555
1040
20.573479
1070
     1
1040
12.874555
1040
20.573479
1040
12.8334
1040
20.55801
1070
     1
1040
12.8334
1040
20.55801
1040
12.791398
1040
20.544775
1070
     1
1040
12.791398
1040
20.544775
1040
12.749249
1040
20.533994
1070
     1
1040
12.749249
1040
20.533994
1040
12.706539
1040
20.525678
1070
     1
1040
12.706539
1040
20.525678
1040
12.663456
1040
20.52007
1070
     1
1040
12.663456
1040
20.52007
1040
12.620191
1040
20.517416
1070
     1
1040
12.620191
1040
20.517416
1040
12.576934
1040
20.51796
1070
     1
1040
12.576934
1040
20.51796
1040
12.533829
1040
20.52186
1070
     1
1040
12.533829
1040
20.52186
1040
12.491053
1040
20.528907
1070
     1
1040
12.491053
1040
20.528907
1040
12.448736
1040
20.538797
1070
     1
1040
12.448736
1040
20.538797
1040
12.407007
1040
20.551229
1070
     1
1040
12.407007
1040
20.551229
1040
12.365998
1040
20.565901
1070
     1
1040
12.365998
1040
20.565901
1040
12.286013
1040
20.601363
1070
     1
1040
12.286013
1040
20.601363
1040
12.228617
1040
20.632853
1070
     1
1040
12.228617
1040
20.632853
1040
12.173699
1040
20.668328
1070
     1
1040
12.173699
1040
20.668328
1040
9.378523
1040
23.410844
1070
     2
1040
11.899646
1040
23.925422
1040
4.756723
1040
0.0
1040
6.283185
1070
     1
1070
     2
1040
11.899651
1040
23.925417
1040
3.758727
1040
1.962466
1040
3.00728
1070
     1
1070
     2
1040
10.950954
1040
23.851493
1040
0.470607
1040
5.071609
1040
6.101635
1070
     1
1070
     2
1040
11.899651
1040
23.925417
1040
3.758727
1040
1.44723
1040
1.700399
1070
     1
1070
     2
1040
11.899651
1040
23.925417
1040
3.758727
1040
3.278925
1040
7.465549
1070
     1
1070
     2
1040
14.404539
1040
25.005869
1040
0.500071
1040
4.814318
1040
7.955911
1070
     1
1071
        0
1070
     0
1070
     1
1040
0.0
1040
0.062992
1070
     0
1070
     1
1040
0.785398
1040
-6.22517
1040
-28.624349
1040
-0.141421
1040
0.141421
1070
     0
1071
        1
1040
-6.22517
1040
-28.624349
1040
0.0
1002
}
  0
ARC
  5
35
100
AcDbEntity
  8
CARTOUCHE
  6
CONTINUOUS
 62
     4
100
AcDbCircle
 10
14.404539
 20
25.005869
 30
0.0
 40
0.500071
100
AcDbArc
 50
275.840125
 51
95.840125
  0
ARC
  5
36
100
AcDbEntity
  8
CARTOUCHE
  6
CONTINUOUS
 62
     4
100
AcDbCircle
 10
11.899651
 20
23.925417
 30
0.0
 40
3.758727
100
AcDbArc
 50
187.868554
 51
67.744476
  0
CIRCLE
  5
37
100
AcDbEntity
  8
CARTOUCHE
  6
CONTINUOUS
 62
     4
100
AcDbCircle
 10
11.899646
 20
23.925422
 30
0.0
 40
4.756723
  0
SPLINE
  5
38
100
AcDbEntity
  8
CARTOUCHE
  6
CONTINUOUS
 62
     4
100
AcDbSpline
210
0.0
220
0.0
230
1.0
 70
     8
 71
     3
 72
    14
 73
    10
 74
     8
 42
0.0000001
 43
0.0000001
 44
0.000001
 12
-0.0678904074543379
 22
-0.9976927846665446
 32
0.0
 13
-0.8200536786282524
 23
0.5722866101598663
 33
0.0
 40
0.0
 40
0.0
 40
0.0
 40
0.0
 40
0.2180605659125796
 40
0.4363602901220761
 40
0.6537282770324749
 40
0.8729550900782449
 40
1.089088660433416
 40
1.305404211068232
 40
1.523279999837271
 40
1.523279999837271
 40
1.523279999837271
 40
1.523279999837271
 10
13.32322297621251
 20
21.16984360711669
 30
0.0
 10
13.31828823598933
 20
21.0973244560396
 30
0.0
 10
13.2844408636731
 20
20.95301310268235
 30
0.0
 10
13.16948287756626
 20
20.76307428111757
 30
0.0
 10
12.99638504773296
 20
20.62406330263204
 30
0.0
 10
12.79557417189416
 20
20.53568034010336
 30
0.0
 10
12.57604637235984
 20
20.50360648332739
 30
0.0
 10
12.3619451595874
 20
20.55796150196734
 30
0.0
 10
12.23325559313034
 20
20.62676560806014
 30
0.0
 10
12.17369897910899
 20
20.66832807359032
 30
0.0
 11
13.32322297621251
 21
21.16984360711669
 31
0.0
 11
13.27374961772985
 21
20.95746843688553
 31
0.0
 11
13.15964273339541
 21
20.77136537381492
 31
0.0
 11
12.99218699760145
 21
20.63277473124213
 31
0.0
 11
12.79139755994316
 21
20.54477508934442
 31
0.0
 11
12.57693403206401
 21
20.51795972590457
 31
0.0
 11
12.36599789339048
 21
20.56590052451097
 31
0.0
 11
12.17369897910899
 21
20.66832807359032
 31
0.0
  0
LINE
  5
39
100
AcDbEntity
  8
CARTOUCHE
  6
CONTINUOUS
 62
     4
100
AcDbLine
 10
9.378523
 20
23.410844
 30
0.0
 11
12.173699
 21
20.668328
 31
0.0
  0
ARC
  5
3A
100
AcDbEntity
  8
CARTOUCHE
  6
CONTINUOUS
 62
     4
100
AcDbCircle
 10
11.899651
 20
23.925417
 30
0.0
 40
3.758727
100
AcDbArc
 50
112.441032
 51
172.30447
  0
LINE
  5
3B
100
AcDbEntity
  8
CARTOUCHE
  6
CONTINUOUS
 62
     4
100
AcDbLine
 10
10.464823
 20
27.399506
 30
0.0
 11
10.464823
 21
24.428744
 31
0.0
  0
LINE
  5
3C
100
AcDbEntity
  8
CARTOUCHE
  6
CONTINUOUS
 62
     4
100
AcDbLine
 10
8.176313
 20
23.410844
 30
0.0
 11
9.378523
 21
23.410844
 31
0.0
  0
LINE
  5
3D
100
AcDbEntity
  8
CARTOUCHE
  6
CONTINUOUS
 62
     4
100
AcDbLine
 10
10.464823
 20
24.428744
 30
0.0
 11
8.174776
 21
24.428744
 31
0.0
  0
LINE
  5
3E
100
AcDbEntity
  8
CARTOUCHE
  6
CONTINUOUS
 62
     4
100
AcDbLine
 10
13.323223
 20
25.503344
 30
0.0
 11
13.323223
 21
27.404134
 31
0.0
  0
LINE
  5
3F
100
AcDbEntity
  8
CARTOUCHE
  6
CONTINUOUS
 62
     4
100
AcDbLine
 10
11.413873
 20
23.766514
 30
0.0
 11
11.413873
 21
27.652621
 31
0.0
  0
LINE
  5
40
100
AcDbEntity
  8
CARTOUCHE
  6
CONTINUOUS
 62
     4
100
AcDbLine
 10
12.362923
 20
27.655485
 30
0.0
 11
12.362923
 21
21.810194
 31
0.0
  0
ARC
  5
41
100
AcDbEntity
  8
CARTOUCHE
  6
CONTINUOUS
 62
     4
100
AcDbCircle
 10
10.950954
 20
23.851493
 30
0.0
 40
0.470607
100
AcDbArc
 50
290.581791
 51
349.597912
  0
LINE
  5
42
100
AcDbEntity
  8
CARTOUCHE
  6
CONTINUOUS
 62
     4
100
AcDbLine
 10
10.887823
 20
23.410844
 30
0.0
 11
11.116423
 21
23.410844
 31
0.0
  0
LINE
  5
43
100
AcDbEntity
  8
CARTOUCHE
  6
CONTINUOUS
 62
     4
100
AcDbLine
 10
12.362923
 20
21.810194
 30
0.0
 11
10.887823
 21
23.410844
 31
0.0
  0
LINE
  5
44
100
AcDbEntity
  8
CARTOUCHE
  6
CONTINUOUS
 62
     4
100
AcDbLine
 10
14.353656
 20
25.503344
 30
0.0
 11
13.323223
 21
25.503344
 31
0.0
  0
LINE
  5
45
100
AcDbEntity
  8
CARTOUCHE
  6
CONTINUOUS
 62
     4
100
AcDbLine
 10
13.323223
 20
24.508394
 30
0.0
 11
14.455423
 21
24.508394
 31
0.0
  0
LINE
  5
46
100
AcDbEntity
  8
CARTOUCHE
  6
CONTINUOUS
 62
     4
100
AcDbLine
 10
13.323223
 20
21.169844
 30
0.0
 11
13.323223
 21
24.508394
 31
0.0
  0
ARC
  5
47
100
AcDbEntity
  8
CARTOUCHE
  6
CONTINUOUS
 62
     4
100
AcDbCircle
 10
11.899651
 20
23.925417
 30
0.0
 40
3.758727
100
AcDbArc
 50
82.920154
 51
97.425676
  0
INSERT
  5
48
100
AcDbEntity
  8
CARTOUCHE
  6
CONTINUOUS
 62
     4
100
AcDbBlockReference
  2
*X7
 10
0.0
 20
0.0
 30
0.0
1001
ACAD
1000
HATCH
1002
{
1070
    19
1000
ANSI31
1040
0.062992
1040
0.0
1000
R14_HATCH_DATA
1000
48
1011
1.0
1021
0.0
1031
0.0
1011
0.0
1021
1.0
1031
0.0
1011
0.0
1021
0.0
1031
1.0
1040
0.0
1010
0.0
1020
0.0
1030
1.0
1000
ANSI31
1070
     0
1070
     0
1071
        1
1071
        1
1071
       16
1070
     1
1040
18.674623
1040
24.508394
1040
18.674623
1040
24.929401
1070
     1
1040
19.580259
1040
25.834994
1040
21.087523
1040
25.834994
1070
     1
1040
21.087523
1040
25.834994
1040
21.087523
1040
24.931844
1070
     1
1040
21.087523
1040
24.931844
1040
20.679053
1040
24.931844
1070
     1
1040
20.461079
1040
24.768622
1040
20.412973
1040
24.508394
1070
     1
1040
20.412973
1040
24.508394
1040
21.087523
1040
24.508394
1070
     1
1040
21.087523
1040
24.508394
1040
21.087523
1040
23.410844
1070
     1
1040
21.087523
1040
23.410844
1040
20.470123
1040
23.410844
1070
     1
1040
20.470123
1040
23.410844
1040
20.470123
1040
20.632094
1070
     1
1040
20.470123
1040
20.632094
1040
18.674623
1040
20.632094
1070
     1
1040
18.674623
1040
20.632094
1040
18.674623
1040
23.410844
1070
     1
1040
18.674623
1040
23.410844
1040
18.137323
1040
23.410844
1070
     1
1040
18.137323
1040
23.410844
1040
18.137323
1040
24.508394
1070
     1
1040
18.137323
1040
24.508394
1040
18.674623
1040
24.508394
1070
     2
1040
19.580259
1040
24.929401
1040
0.905639
1040
1.570796
1040
3.141593
1070
     1
1070
     2
1040
20.705988
1040
24.668716
1040
0.264503
1040
1.672805
1040
2.754266
1070
     1
1071
        0
1070
     0
1070
     1
1040
0.0
1040
0.062992
1070
     0
1070
     1
1040
0.785398
1040
-6.22517
1040
-28.624349
1040
-0.141421
1040
0.141421
1070
     0
1071
        1
1040
-6.22517
1040
-28.624349
1040
0.0
1002
}
  0
LINE
  5
49
100
AcDbEntity
  8
CARTOUCHE
  6
CONTINUOUS
 62
     4
100
AcDbLine
 10
21.807973
 20
20.632094
 30
0.0
 11
21.807973
 21
24.508394
 31
0.0
  0
LINE
  5
4A
100
AcDbEntity
  8
CARTOUCHE
  6
CONTINUOUS
 62
     4
100
AcDbLine
 10
20.470123
 20
20.632094
 30
0.0
 11
20.470123
 21
23.410844
 31
0.0
  0
LINE
  5
4B
100
AcDbEntity
  8
CARTOUCHE
  6
CONTINUOUS
 62
     4
100
AcDbLine
 10
18.674623
 20
23.410844
 30
0.0
 11
18.674623
 21
20.632094
 31
0.0
  0
LINE
  5
4C
100
AcDbEntity
  8
CARTOUCHE
  6
CONTINUOUS
 62
     4
100
AcDbLine
 10
18.674623
 20
20.632094
 30
0.0
 11
20.470123
 21
20.632094
 31
0.0
  0
ARC
  5
4D
100
AcDbEntity
  8
CARTOUCHE
  6
CONTINUOUS
 62
     4
100
AcDbCircle
 10
19.580259
 20
24.929401
 30
0.0
 40
0.905639
100
AcDbArc
 50
90.0
 51
180.0
  0
LINE
  5
4E
100
AcDbEntity
  8
CARTOUCHE
  6
CONTINUOUS
 62
     4
100
AcDbLine
 10
18.137323
 20
23.410844
 30
0.0
 11
18.674623
 21
23.410844
 31
0.0
  0
LINE
  5
4F
100
AcDbEntity
  8
CARTOUCHE
  6
CONTINUOUS
 62
     4
100
AcDbLine
 10
18.137323
 20
24.508394
 30
0.0
 11
18.137323
 21
23.410844
 31
0.0
  0
LINE
  5
50
100
AcDbEntity
  8
CARTOUCHE
  6
CONTINUOUS
 62
     4
100
AcDbLine
 10
18.674623
 20
24.508394
 30
0.0
 11
18.137323
 21
24.508394
 31
0.0
  0
LINE
  5
51
100
AcDbEntity
  8
CARTOUCHE
  6
CONTINUOUS
 62
     4
100
AcDbLine
 10
18.674623
 20
24.931844
 30
0.0
 11
18.674623
 21
24.508394
 31
0.0
  0
LINE
  5
52
100
AcDbEntity
  8
CARTOUCHE
  6
CONTINUOUS
 62
     4
100
AcDbLine
 10
20.679053
 20
24.931844
 30
0.0
 11
21.087523
 21
24.931844
 31
0.0
  0
LINE
  5
53
100
AcDbEntity
  8
CARTOUCHE
  6
CONTINUOUS
 62
     4
100
AcDbLine
 10
21.087523
 20
24.508394
 30
0.0
 11
20.412973
 21
24.508394
 31
0.0
  0
LINE
  5
54
100
AcDbEntity
  8
CARTOUCHE
  6
CONTINUOUS
 62
     4
100
AcDbLine
 10
20.470123
 20
23.410844
 30
0.0
 11
21.087523
 21
23.410844
 31
0.0
  0
LINE
  5
55
100
AcDbEntity
  8
CARTOUCHE
  6
CONTINUOUS
 62
     4
100
AcDbLine
 10
21.087523
 20
25.834994
 30
0.0
 11
19.589473
 21
25.834994
 31
0.0
  0
ARC
  5
56
100
AcDbEntity
  8
CARTOUCHE
  6
CONTINUOUS
 62
     4
100
AcDbCircle
 10
20.705988
 20
24.668716
 30
0.0
 40
0.264503
100
AcDbArc
 50
95.844673
 51
157.807812
  0
LINE
  5
57
100
AcDbEntity
  8
CARTOUCHE
  6
CONTINUOUS
 62
     4
100
AcDbLine
 10
20.412973
 20
24.508394
 30
0.0
 11
20.461079
 21
24.768622
 31
0.0
  0
LINE
  5
58
100
AcDbEntity
  8
CARTOUCHE
  6
CONTINUOUS
 62
     4
100
AcDbLine
 10
21.807973
 20
24.943094
 30
0.0
 11
21.807973
 21
25.834994
 31
0.0
  0
LINE
  5
59
100
AcDbEntity
  8
CARTOUCHE
  6
CONTINUOUS
 62
     4
100
AcDbLine
 10
21.087523
 20
23.410844
 30
0.0
 11
21.087523
 21
24.508394
 31
0.0
  0
LINE
  5
5A
100
AcDbEntity
  8
CARTOUCHE
  6
CONTINUOUS
 62
     4
100
AcDbLine
 10
21.087523
 20
24.931844
 30
0.0
 11
21.087523
 21
25.834994
 31
0.0
  0
INSERT
  5
5B
100
AcDbEntity
  8
CARTOUCHE
  6
CONTINUOUS
 62
     4
100
AcDbBlockReference
  2
*X8
 10
0.0
 20
0.0
 30
0.0
1001
ACAD
1000
HATCH
1002
{
1070
    19
1000
ANSI31
1040
0.062992
1040
0.0
1000
R14_HATCH_DATA
1000
5B
1011
1.0
1021
0.0
1031
0.0
1011
0.0
1021
1.0
1031
0.0
1011
0.0
1021
0.0
1031
1.0
1040
0.0
1010
0.0
1020
0.0
1030
1.0
1000
ANSI31
1070
     0
1070
     0
1071
        1
1071
        1
1071
      154
1070
     1
1040
34.191523
1040
24.319904
1040
34.136639
1040
24.365465
1070
     1
1040
34.136639
1040
24.365465
1040
34.093353
1040
24.396952
1070
     1
1040
34.093353
1040
24.396952
1040
34.048146
1040
24.425518
1070
     1
1040
34.048146
1040
24.425518
1040
33.985315
1040
24.458243
1070
     1
1040
33.985315
1040
24.458243
1040
33.936415
1040
24.479183
1070
     1
1040
33.936415
1040
24.479183
1040
33.886414
1040
24.497349
1070
     1
1040
33.886414
1040
24.497349
1040
33.800369
1040
24.52267
1070
     1
1040
33.800369
1040
24.52267
1040
33.713056
1040
24.543137
1070
     1
1040
33.713056
1040
24.543137
1040
33.535985
1040
24.577164
1070
     1
1040
33.535985
1040
24.577164
1040
33.183861
1040
24.631643
1070
     1
1040
33.183861
1040
24.631643
1040
32.829714
1040
24.653611
1070
     1
1040
32.829714
1040
24.653611
1040
32.473075
1040
24.642759
1070
     1
1040
32.473075
1040
24.642759
1040
32.295535
1040
24.627567
1070
     1
1040
32.295535
1040
24.627567
1040
32.119422
1040
24.601922
1070
     1
1040
32.119422
1040
24.601922
1040
31.980393
1040
24.570874
1070
     1
1040
31.980393
1040
24.570874
1040
31.776269
1040
24.506919
1070
     1
1040
31.776269
1040
24.506919
1040
31.643857
1040
24.453442
1070
     1
1040
31.643857
1040
24.453442
1040
31.547199
1040
24.407478
1070
     1
1040
31.547199
1040
24.407478
1040
31.453318
1040
24.3562
1070
     1
1040
31.453318
1040
24.3562
1040
31.333276
1040
24.279541
1070
     1
1040
31.333276
1040
24.279541
1040
31.164251
1040
24.148688
1070
     1
1040
31.164251
1040
24.148688
1040
31.058938
1040
24.052358
1070
     1
1040
31.058938
1040
24.052358
1040
30.912683
1040
23.896114
1070
     1
1040
30.912683
1040
23.896114
1040
30.823445
1040
23.784931
1070
     1
1040
30.823445
1040
23.784931
1040
30.703793
1040
23.607819
1070
     1
1040
30.703793
1040
23.607819
1040
30.634816
1040
23.48302
1070
     1
1040
30.634816
1040
23.48302
1040
30.589096
1040
23.38631
1070
     1
1040
30.589096
1040
23.38631
1040
30.548661
1040
23.287292
1070
     1
1040
30.548661
1040
23.287292
1040
30.503077
1040
23.152132
1070
     1
1040
30.503077
1040
23.152132
1040
30.452473
1040
22.944199
1070
     1
1040
30.452473
1040
22.944199
1040
30.430632
1040
22.80315
1070
     1
1040
30.430632
1040
22.80315
1040
30.421047
1040
22.696588
1070
     1
1040
30.421047
1040
22.696588
1040
30.41782
1040
22.58973
1070
     1
1040
30.41782
1040
22.58973
1040
30.423783
1040
22.447355
1070
     1
1040
30.423783
1040
22.447355
1040
30.452047
1040
22.235266
1070
     1
1040
30.452047
1040
22.235266
1040
30.481823
1040
22.095683
1070
     1
1040
30.481823
1040
22.095683
1040
30.542941
1040
21.890737
1070
     1
1040
30.542941
1040
21.890737
1040
30.595245
1040
21.758144
1070
     1
1040
30.595245
1040
21.758144
1040
30.640663
1040
21.661326
1070
     1
1040
30.640663
1040
21.661326
1040
30.691396
1040
21.567163
1070
     1
1040
30.691396
1040
21.567163
1040
30.767341
1040
21.446302
1070
     1
1040
30.767341
1040
21.446302
1040
30.830371
1040
21.359778
1070
     1
1040
30.830371
1040
21.359778
1040
30.89849
1040
21.27725
1070
     1
1040
30.89849
1040
21.27725
1040
30.996767
1040
21.17408
1070
     1
1040
30.996767
1040
21.17408
1040
31.158025
1040
21.033767
1070
     1
1040
31.158025
1040
21.033767
1040
31.273232
1040
20.949577
1070
     1
1040
31.273232
1040
20.949577
1040
31.455483
1040
20.837379
1070
     1
1040
31.455483
1040
20.837379
1040
31.582285
1040
20.772196
1070
     1
1040
31.582285
1040
20.772196
1040
31.680038
1040
20.728943
1070
     1
1040
31.680038
1040
20.728943
1040
31.77997
1040
20.691125
1070
     1
1040
31.77997
1040
20.691125
1040
31.916406
1040
20.649737
1070
     1
1040
31.916406
1040
20.649737
1040
32.125814
1040
20.606082
1070
     1
1040
32.125814
1040
20.606082
1040
32.302677
1040
20.584734
1070
     1
1040
32.302677
1040
20.584734
1040
32.480504
1040
20.573741
1070
     1
1040
32.480504
1040
20.573741
1040
32.83642
1040
20.570894
1070
     1
1040
32.83642
1040
20.570894
1040
33.19287
1040
20.586102
1070
     1
1040
33.19287
1040
20.586102
1040
33.334597
1040
20.6
1070
     1
1040
33.334597
1040
20.6
1040
33.545271
1040
20.635884
1070
     1
1040
33.545271
1040
20.635884
1040
33.682853
1040
20.673016
1070
     1
1040
33.682853
1040
20.673016
1040
33.817433
1040
20.721154
1070
     1
1040
33.817433
1040
20.721154
1040
33.947848
1040
20.779822
1070
     1
1040
33.947848
1040
20.779822
1040
34.072933
1040
20.848544
1070
     1
1040
34.072933
1040
20.848544
1040
34.191523
1040
20.926844
1070
     1
1040
34.191523
1040
20.926844
1040
34.191523
1040
20.620844
1070
     1
1040
34.191523
1040
20.620844
1040
35.986573
1040
20.620844
1070
     1
1040
35.986573
1040
20.620844
1040
35.986573
1040
25.823744
1070
     1
1040
35.986573
1040
25.823744
1040
34.191523
1040
25.823744
1070
     1
1040
34.191523
1040
25.823744
1040
34.191523
1040
24.319904
1070
     1
1040
34.191523
1040
22.759244
1040
34.185224
1040
22.797429
1070
     1
1040
34.185224
1040
22.797429
1040
34.176704
1040
22.835258
1070
     1
1040
34.176704
1040
22.835258
1040
34.165972
1040
22.872565
1070
     1
1040
34.165972
1040
22.872565
1040
34.153041
1040
22.909184
1070
     1
1040
34.153041
1040
22.909184
1040
34.137919
1040
22.94495
1070
     1
1040
34.137919
1040
22.94495
1040
34.120622
1040
22.979724
1070
     1
1040
34.120622
1040
22.979724
1040
34.101241
1040
23.01337
1070
     1
1040
34.101241
1040
23.01337
1040
34.079871
1040
23.045781
1070
     1
1040
34.079871
1040
23.045781
1040
34.05661
1040
23.076848
1070
     1
1040
34.05661
1040
23.076848
1040
34.031554
1040
23.106464
1070
     1
1040
34.031554
1040
23.106464
1040
34.004808
1040
23.13454
1070
     1
1040
34.004808
1040
23.13454
1040
33.976513
1040
23.161059
1070
     1
1040
33.976513
1040
23.161059
1040
33.931497
1040
23.19792
1070
     1
1040
33.931497
1040
23.19792
1040
33.883839
1040
23.231288
1070
     1
1040
33.883839
1040
23.231288
1040
33.817408
1040
23.270254
1070
     1
1040
33.817408
1040
23.270254
1040
33.7126
1040
23.318705
1070
     1
1040
33.7126
1040
23.318705
1040
33.529126
1040
23.38024
1070
     1
1040
33.529126
1040
23.38024
1040
33.341295
1040
23.426807
1070
     1
1040
33.341295
1040
23.426807
1040
33.265367
1040
23.43872
1070
     1
1040
33.265367
1040
23.43872
1040
33.207992
1040
23.444184
1070
     1
1040
33.207992
1040
23.444184
1040
33.150433
1040
23.446185
1070
     1
1040
33.150433
1040
23.446185
1040
33.073206
1040
23.442941
1070
     1
1040
33.073206
1040
23.442941
1040
33.01556
1040
23.436269
1070
     1
1040
33.01556
1040
23.436269
1040
32.958383
1040
23.426252
1070
     1
1040
32.958383
1040
23.426252
1040
32.882791
1040
23.40795
1070
     1
1040
32.882791
1040
23.40795
1040
32.827093
1040
23.390689
1070
     1
1040
32.827093
1040
23.390689
1040
32.772401
1040
23.370479
1070
     1
1040
32.772401
1040
23.370479
1040
32.701623
1040
23.339164
1070
     1
1040
32.701623
1040
23.339164
1040
32.650176
1040
23.312245
1070
     1
1040
32.650176
1040
23.312245
1040
32.600378
1040
23.2823
1070
     1
1040
32.600378
1040
23.2823
1040
32.537441
1040
23.23798
1070
     1
1040
32.537441
1040
23.23798
1040
32.478372
1040
23.188413
1070
     1
1040
32.478372
1040
23.188413
1040
32.423769
1040
23.133776
1070
     1
1040
32.423769
1040
23.133776
1040
32.37423
1040
23.074247
1070
     1
1040
32.37423
1040
23.074247
1040
32.330353
1040
23.010003
1070
     1
1040
32.330353
1040
23.010003
1040
32.292818
1040
22.941394
1070
     1
1040
32.292818
1040
22.941394
1040
32.262521
1040
22.869246
1070
     1
1040
32.262521
1040
22.869246
1040
32.250396
1040
22.832155
1070
     1
1040
32.250396
1040
22.832155
1040
32.240449
1040
22.794552
1070
     1
1040
32.240449
1040
22.794552
1040
32.232805
1040
22.756561
1070
     1
1040
32.232805
1040
22.756561
1040
32.227586
1040
22.718306
1070
     1
1040
32.227586
1040
22.718306
1040
32.224917
1040
22.679912
1070
     1
1040
32.224917
1040
22.679912
1040
32.224919
1040
22.641503
1070
     1
1040
32.224919
1040
22.641503
1040
32.227693
1040
22.60294
1070
     1
1040
32.227693
1040
22.60294
1040
32.233111
1040
22.564618
1070
     1
1040
32.233111
1040
22.564618
1040
32.240981
1040
22.526667
1070
     1
1040
32.240981
1040
22.526667
1040
32.251114
1040
22.489217
1070
     1
1040
32.251114
1040
22.489217
1040
32.263318
1040
22.4524
1070
     1
1040
32.263318
1040
22.4524
1040
32.293645
1040
22.380425
1070
     1
1040
32.293645
1040
22.380425
1040
32.321048
1040
22.328706
1070
     1
1040
32.321048
1040
22.328706
1040
32.352154
1040
22.2791
1070
     1
1040
32.352154
1040
22.2791
1040
32.398586
1040
22.217113
1070
     1
1040
32.398586
1040
22.217113
1040
32.437235
1040
22.173772
1070
     1
1040
32.437235
1040
22.173772
1040
32.479066
1040
22.133554
1070
     1
1040
32.479066
1040
22.133554
1040
32.539186
1040
22.085487
1070
     1
1040
32.539186
1040
22.085487
1040
32.587212
1040
22.053355
1070
     1
1040
32.587212
1040
22.053355
1040
32.637257
1040
22.024481
1070
     1
1040
32.637257
1040
22.024481
1040
32.707048
1040
21.990519
1070
     1
1040
32.707048
1040
21.990519
1040
32.815648
1040
21.948581
1070
     1
1040
32.815648
1040
21.948581
1040
32.889663
1040
21.925699
1070
     1
1040
32.889663
1040
21.925699
1040
33.002738
1040
21.899168
1070
     1
1040
33.002738
1040
21.899168
1040
33.078914
1040
21.887245
1070
     1
1040
33.078914
1040
21.887245
1040
33.194199
1040
21.878646
1070
     1
1040
33.194199
1040
21.878646
1040
33.271463
1040
21.879509
1070
     1
1040
33.271463
1040
21.879509
1040
33.386902
1040
21.8909
1070
     1
1040
33.386902
1040
21.8909
1040
33.46279
1040
21.905127
1070
     1
1040
33.46279
1040
21.905127
1040
33.537631
1040
21.924554
1070
     1
1040
33.537631
1040
21.924554
1040
33.611002
1040
21.949047
1070
     1
1040
33.611002
1040
21.949047
1040
33.682477
1040
21.978473
1070
     1
1040
33.682477
1040
21.978473
1040
33.751634
1040
22.012698
1070
     1
1040
33.751634
1040
22.012698
1040
33.818499
1040
22.051846
1070
     1
1040
33.818499
1040
22.051846
1040
33.91321
1040
22.119126
1070
     1
1040
33.91321
1040
22.119126
1040
33.972146
1040
22.169599
1070
     1
1040
33.972146
1040
22.169599
1040
34.013325
1040
22.210664
1070
     1
1040
34.013325
1040
22.210664
1040
34.051197
1040
22.254741
1070
     1
1040
34.051197
1040
22.254741
1040
34.074237
1040
22.285782
1070
     1
1040
34.074237
1040
22.285782
1040
34.09545
1040
22.318141
1070
     1
1040
34.09545
1040
22.318141
1040
34.114752
1040
22.351701
1070
     1
1040
34.114752
1040
22.351701
1040
34.13206
1040
22.386344
1070
     1
1040
34.13206
1040
22.386344
1040
34.147289
1040
22.421954
1070
     1
1040
34.147289
1040
22.421954
1040
34.160411
1040
22.458525
1070
     1
1040
34.160411
1040
22.458525
1040
34.171377
1040
22.495797
1070
     1
1040
34.171377
1040
22.495797
1040
34.180205
1040
22.533619
1070
     1
1040
34.180205
1040
22.533619
1040
34.186914
1040
22.571835
1070
     1
1040
34.186914
1040
22.571835
1040
34.191523
1040
22.610294
1070
     1
1040
34.191523
1040
22.610294
1040
34.191523
1040
22.759244
1071
        0
1070
     0
1070
     1
1040
0.0
1040
0.062992
1070
     0
1070
     1
1040
0.785398
1040
-6.22517
1040
-28.624349
1040
-0.141421
1040
0.141421
1070
     0
1071
        1
1040
-6.22517
1040
-28.624349
1040
0.0
1002
}
  0
SPLINE
  5
5C
100
AcDbEntity
  8
CARTOUCHE
  6
CONTINUOUS
 62
     4
100
AcDbSpline
210
0.0
220
0.0
230
-1.0
 70
     8
 71
     3
 72
    36
 73
    32
 74
    30
 42
0.0000001
 43
0.0000001
 44
0.000001
 12
-0.7486966541787443
 22
0.6629127544568397
 32
0.0
 13
0.8109899424984487
 23
0.5850600936368528
 33
0.0
 40
0.0
 40
0.0
 40
0.0
 40
0.0
 40
0.1780757831166552
 40
0.3550411304737638
 40
0.5343443125649352
 40
0.714655491811149
 40
1.070968606639404
 40
1.425796208074303
 40
1.782600543780741
 40
2.138603420097711
 40
2.494664590840577
 40
2.851053865932449
 40
3.206892455734438
 40
3.563375304300148
 40
3.919393169056189
 40
4.275488633957715
 40
4.63180939296686
 40
4.98796819639783
 40
5.344080709448852
 40
5.700397923933461
 40
6.056402401153455
 40
6.412684881890918
 40
6.768553141959223
 40
7.124993202679218
 40
7.480917853860609
 40
7.837064146578088
 40
8.193225691107732
 40
8.549152693439989
 40
8.905926847727792
 40
9.261827245523043
 40
9.970556688389352
 40
9.970556688389352
 40
9.970556688389352
 40
9.970556688389352
 10
34.19152297621249
 20
24.31990419713182
 30
0.0
 10
34.14708139520926
 20
24.35925376642779
 30
0.0
 10
34.05217150086914
 20
24.43173507527464
 30
0.0
 10
33.88702571777853
 20
24.50226704153207
 30
0.0
 10
33.71305219922994
 20
24.54495620852745
 30
0.0
 10
33.47834936508675
 20
24.58798228938456
 30
0.0
 10
33.1851820926192
 20
24.6380068096761
 30
0.0
 10
32.82899740219373
 20
24.65936878443557
 30
0.0
 10
32.47326766739478
 20
24.64621351281227
 30
0.0
 10
32.11757587007376
 20
24.61242842857664
 30
0.0
 10
31.7729929656132
 20
24.51557066505452
 30
0.0
 10
31.44749961346493
 20
24.36660637828334
 30
0.0
 10
31.15775792247553
 20
24.15567786292991
 30
0.0
 10
30.90609575122359
 20
23.90204661589372
 30
0.0
 10
30.69450217558054
 20
23.61346823741279
 30
0.0
 10
30.53862680930607
 20
23.29089595113819
 30
0.0
 10
30.4427778154184
 20
22.94623291404152
 30
0.0
 10
30.40515987330755
 20
22.5896805608234
 30
0.0
 10
30.44352428304454
 20
22.23351812056702
 30
0.0
 10
30.53308942379928
 20
21.88748882621621
 30
0.0
 10
30.68157948277334
 20
21.56148503257428
 30
0.0
 10
30.88917782475931
 20
21.26919472073597
 30
0.0
 10
31.15221375027256
 20
21.02575919010237
 30
0.0
 10
31.45092615893588
 20
20.82973489264703
 30
0.0
 10
31.77615974301296
 20
20.68002674890266
 30
0.0
 10
32.12459917705964
 20
20.59680902996356
 30
0.0
 10
32.48036304556569
 20
20.56921473627849
 30
0.0
 10
32.83672036586225
 20
20.56880375590484
 30
0.0
 10
33.1928878270672
 20
20.5809605165969
 30
0.0
 10
33.66419136840351
 20
20.63797128162552
 30
0.0
 10
33.99993215950679
 20
20.78862716904784
 30
0.0
 10
34.19152297621249
 20
20.92684360711669
 30
0.0
 11
34.19152297621249
 21
24.31990419713182
 31
0.0
 11
34.04814564948316
 21
24.42551803537496
 31
0.0
 11
33.886414432493
 21
24.49734946038967
 31
0.0
 11
33.71305596481814
 21
24.54313679053143
 31
0.0
 11
33.53598457982956
 21
24.57716399139704
 31
0.0
 11
33.18386096308204
 21
24.63164336554592
 31
0.0
 11
32.8297140010732
 21
24.65361067318905
 31
0.0
 11
32.47307470160767
 21
24.6427593690914
 31
0.0
 11
32.11942187052807
 21
24.60192152108414
 31
0.0
 11
31.77626880985488
 21
24.50691864896159
 31
0.0
 11
31.45331806594562
 21
24.35619987525168
 31
0.0
 11
31.16425081659299
 21
24.14868782982736
 31
0.0
 11
30.91268311986691
 21
23.89611360248224
 31
0.0
 11
30.70379325220439
 21
23.60781901266322
 31
0.0
 11
30.54866063637869
 21
23.28729150751013
 31
0.0
 11
30.45247328846812
 21
22.94419894098582
 31
0.0
 11
30.4178204424804
 21
22.58972989255913
 31
0.0
 11
30.4520470898832
 21
22.23526594311771
 31
0.0
 11
30.54294059487364
 21
21.89073675637875
 31
0.0
 11
30.691396483504
 21
21.56716285752306
 31
0.0
 11
30.89849041843911
 21
21.27725022136696
 31
0.0
 11
31.15802450035081
 21
21.03376654019861
 31
0.0
 11
31.45548308742885
 21
20.83737935540596
 31
0.0
 11
31.77997022332717
 21
20.69112453447919
 31
0.0
 11
32.12581407620214
 21
20.60608206244056
 31
0.0
 11
32.48050427697165
 21
20.57374147270578
 31
0.0
 11
32.83641989969535
 21
20.57089422013113
 31
0.0
 11
33.19286980656467
 21
20.58610182742617
 31
0.0
 11
33.54527140198384
 21
20.63588357412756
 31
0.0
 11
34.19152297621249
 21
20.92684360711669
 31
0.0
  0
INSERT
  5
5D
100
AcDbEntity
  8
CARTOUCHE
  6
CONTINUOUS
 62
     4
100
AcDbBlockReference
  2
*X9
 10
0.0
 20
0.0
 30
0.0
1001
ACAD
1000
HATCH
1002
{
1070
    19
1000
ANSI31
1040
0.062992
1040
0.0
1000
R14_HATCH_DATA
1000
5D
1011
1.0
1021
0.0
1031
0.0
1011
0.0
1021
1.0
1031
0.0
1011
0.0
1021
0.0
1031
1.0
1040
0.0
1010
0.0
1020
0.0
1030
1.0
1000
ANSI31
1070
     0
1070
     0
1071
        1
1071
        1
1071
       12
1070
     1
1040
26.289973
1040
24.508394
1040
26.289973
1040
24.074144
1070
     1
1040
29.892223
1040
23.324553
1040
29.892223
1040
20.632094
1070
     1
1040
29.892223
1040
20.632094
1040
28.108423
1040
20.632094
1070
     1
1040
28.108423
1040
20.632094
1040
28.108423
1040
22.479034
1070
     1
1040
26.289973
1040
22.433499
1040
26.289973
1040
20.632094
1070
     1
1040
26.289973
1040
20.632094
1040
24.494923
1040
20.632094
1070
     1
1040
24.494923
1040
20.632094
1040
24.494923
1040
24.508394
1070
     1
1040
24.494923
1040
24.508394
1040
26.289973
1040
24.508394
1070
     2
1040
28.067403
1040
21.045261
1040
3.511892
1040
1.25441
1040
2.101473
1070
     1
1070
     2
1040
28.675028
1040
23.264873
1040
1.218658
1040
0.048991
1040
1.161443
1070
     1
1070
     2
1040
27.457324
1040
22.479034
1040
0.651124
1040
0.0
1040
1.695599
1070
     1
1070
     2
1040
27.44381
1040
21.820079
1040
1.306761
1040
1.622502
1040
2.652958
1070
     1
1071
        0
1070
     0
1070
     1
1040
0.0
1040
0.062992
1070
     0
1070
     1
1040
0.785398
1040
-6.22517
1040
-28.624349
1040
-0.141421
1040
0.141421
1070
     0
1071
        1
1040
-6.22517
1040
-28.624349
1040
0.0
1002
}
  0
LINE
  5
5E
100
AcDbEntity
  8
CARTOUCHE
  6
CONTINUOUS
 62
     4
100
AcDbLine
 10
23.625973
 20
24.508394
 30
0.0
 11
23.625973
 21
20.632094
 31
0.0
  0
LINE
  5
5F
100
AcDbEntity
  8
CARTOUCHE
  6
CONTINUOUS
 62
     4
100
AcDbLine
 10
26.289973
 20
20.632094
 30
0.0
 11
26.289973
 21
22.433499
 31
0.0
  0
LINE
  5
60
100
AcDbEntity
  8
CARTOUCHE
  6
CONTINUOUS
 62
     4
100
AcDbLine
 10
24.494923
 20
24.508394
 30
0.0
 11
24.494923
 21
20.632094
 31
0.0
  0
LINE
  5
61
100
AcDbEntity
  8
CARTOUCHE
  6
CONTINUOUS
 62
     4
100
AcDbLine
 10
29.892223
 20
20.632094
 30
0.0
 11
29.892223
 21
23.324553
 31
0.0
  0
LINE
  5
62
100
AcDbEntity
  8
CARTOUCHE
  6
CONTINUOUS
 62
     4
100
AcDbLine
 10
28.108423
 20
22.479034
 30
0.0
 11
28.108423
 21
20.632094
 31
0.0
  0
LINE
  5
63
100
AcDbEntity
  8
CARTOUCHE
  6
CONTINUOUS
 62
     4
100
AcDbLine
 10
24.494923
 20
20.632094
 30
0.0
 11
26.289973
 21
20.632094
 31
0.0
  0
LINE
  5
64
100
AcDbEntity
  8
CARTOUCHE
  6
CONTINUOUS
 62
     4
100
AcDbLine
 10
28.108423
 20
20.632094
 30
0.0
 11
29.892223
 21
20.632094
 31
0.0
  0
ARC
  5
65
100
AcDbEntity
  8
CARTOUCHE
  6
CONTINUOUS
 62
     4
100
AcDbCircle
 10
27.44381
 20
21.820079
 30
0.0
 40
1.306761
100
AcDbArc
 50
92.962513
 51
152.003324
  0
ARC
  5
66
100
AcDbEntity
  8
CARTOUCHE
  6
CONTINUOUS
 62
     4
100
AcDbCircle
 10
28.067403
 20
21.045261
 30
0.0
 40
3.511892
100
AcDbArc
 50
71.872392
 51
120.405557
  0
LINE
  5
67
100
AcDbEntity
  8
CARTOUCHE
  6
CONTINUOUS
 62
     4
100
AcDbLine
 10
26.289973
 20
24.508394
 30
0.0
 11
24.494923
 21
24.508394
 31
0.0
  0
LINE
  5
68
100
AcDbEntity
  8
CARTOUCHE
  6
CONTINUOUS
 62
     4
100
AcDbLine
 10
23.625973
 20
25.834994
 30
0.0
 11
23.625973
 21
24.943094
 31
0.0
  0
LINE
  5
69
100
AcDbEntity
  8
CARTOUCHE
  6
CONTINUOUS
 62
     4
100
AcDbLine
 10
26.289973
 20
24.074144
 30
0.0
 11
26.289973
 21
24.508394
 31
0.0
  0
ARC
  5
6A
100
AcDbEntity
  8
CARTOUCHE
  6
CONTINUOUS
 62
     4
100
AcDbCircle
 10
27.457324
 20
22.479034
 30
0.0
 40
0.651124
100
AcDbArc
 50
0.0
 51
97.150683
  0
ARC
  5
6B
100
AcDbEntity
  8
CARTOUCHE
  6
CONTINUOUS
 62
     4
100
AcDbCircle
 10
28.675028
 20
23.264873
 30
0.0
 40
1.218658
100
AcDbArc
 50
2.806997
 51
66.545781
  0
LINE
  5
6C
100
AcDbEntity
  8
CARTOUCHE
  6
CONTINUOUS
 62
     4
100
AcDbLine
 10
34.191523
 20
20.620844
 30
0.0
 11
34.191523
 21
20.926844
 31
0.0
  0
LINE
  5
6D
100
AcDbEntity
  8
CARTOUCHE
  6
CONTINUOUS
 62
     4
100
AcDbLine
 10
35.986573
 20
25.823744
 30
0.0
 11
35.986573
 21
20.620844
 31
0.0
  0
LINE
  5
6E
100
AcDbEntity
  8
CARTOUCHE
  6
CONTINUOUS
 62
     4
100
AcDbLine
 10
35.986573
 20
20.620844
 30
0.0
 11
34.191523
 21
20.620844
 31
0.0
  0
LINE
  5
6F
100
AcDbEntity
  8
CARTOUCHE
  6
CONTINUOUS
 62
     4
100
AcDbLine
 10
34.191523
 20
25.823744
 30
0.0
 11
35.986573
 21
25.823744
 31
0.0
  0
SPLINE
  5
70
100
AcDbEntity
  8
CARTOUCHE
  6
CONTINUOUS
 62
     4
100
AcDbSpline
210
0.0
220
0.0
230
1.0
 70
     8
 71
     3
 72
    32
 73
    28
 74
    26
 42
0.0000001
 43
0.0000001
 44
0.000001
 12
-0.1341089932713914
 22
0.9909665876929121
 32
0.0
 13
0.0921211275959058
 23
0.9957478083583508
 33
0.0
 40
0.0
 40
0.0
 40
0.0
 40
0.0
 40
0.1932867580524454
 40
0.3866788451150791
 40
0.5800711654485758
 40
0.7723325873166358
 40
0.9658511975047813
 40
1.159367686947902
 40
1.351211207743471
 40
1.544292792016133
 40
1.738457494080144
 40
1.931763602335261
 40
2.315246619553241
 40
2.69853312463332
 40
2.891495447689225
 40
3.086238095910866
 40
3.279344938314636
 40
3.471493433338554
 40
3.665360119317714
 40
3.858864929667114
 40
4.051423127032069
 40
4.24451564009766
 40
4.629045942604745
 40
4.822524541072649
 40
5.015996623878569
 40
5.208854618112321
 40
5.402317524092618
 40
5.402317524092618
 40
5.402317524092618
 40
5.402317524092618
 10
34.19152297621249
 20
22.75924360711669
 30
0.0
 10
34.1828824787008
 20
22.82309051347451
 30
0.0
 10
34.14698932765786
 20
22.94923029275335
 30
0.0
 10
34.03863076707331
 20
23.1129580496783
 30
0.0
 10
33.88808648116188
 20
23.23750470853534
 30
0.0
 10
33.71390301491271
 20
23.32349543169012
 30
0.0
 10
33.52952349037025
 20
23.38166617796113
 30
0.0
 10
33.34290557585106
 20
23.43125883501366
 30
0.0
 10
33.15005919966966
 20
23.45345604214745
 30
0.0
 10
32.95676615887827
 20
23.43192373593081
 30
0.0
 10
32.77056087653815
 20
23.37588590159822
 30
0.0
 10
32.54005639299716
 20
23.25927858270805
 30
0.0
 10
32.30432079782051
 20
23.02895618029821
 30
0.0
 10
32.19918324987907
 20
22.70410851499887
 30
0.0
 10
32.25560999634822
 20
22.44863366086686
 30
0.0
 10
32.3455292506966
 20
22.27538556520209
 30
0.0
 10
32.47312188731868
 20
22.12730587473819
 30
0.0
 10
32.63483108758956
 20
22.0182966283113
 30
0.0
 10
32.81426083384697
 20
21.94472718644528
 30
0.0
 10
33.0014437485347
 20
21.89441517126608
 30
0.0
 10
33.19428281780493
 20
21.87304368275571
 30
0.0
 10
33.45148771916182
 20
21.88934859964266
 30
0.0
 10
33.70119731467648
 20
21.97262997799401
 30
0.0
 10
33.91655313581233
 20
22.11456177388942
 30
0.0
 10
34.05836074509369
 20
22.24858637370176
 30
0.0
 10
34.15639752139457
 20
22.41859021075639
 30
0.0
 10
34.1855823025302
 20
22.54608018557384
 30
0.0
 10
34.19152297621249
 20
22.61029360711668
 30
0.0
 11
34.19152297621249
 21
22.75924360711669
 31
0.0
 11
34.13791895137521
 21
22.94494973500174
 31
0.0
 11
34.03155373353056
 21
23.10646429401779
 31
0.0
 11
33.88383915758775
 21
23.2312882243935
 31
0.0
 11
33.71260018090836
 21
23.31870497950504
 31
0.0
 11
33.52912571204567
 21
23.38024026476581
 31
0.0
 11
33.34129541646134
 21
23.4268066350183
 31
0.0
 11
33.15043306379559
 21
23.44618483007101
 31
0.0
 11
32.95838311054932
 21
23.42625160056325
 31
0.0
 11
32.77240099875644
 21
23.37047876932411
 31
0.0
 11
32.6003783004499
 21
23.2823001555606
 31
0.0
 11
32.3303531106979
 21
23.01000300398824
 31
0.0
 11
32.22491909320101
 21
22.64150286445184
 31
0.0
 11
32.26331822628609
 21
22.45239971642014
 31
0.0
 11
32.35215412813562
 21
22.27909964132739
 31
0.0
 11
32.4790661567678
 21
22.13355370124998
 31
0.0
 11
32.63725672616545
 21
22.02448118124886
 31
0.0
 11
32.81564788989768
 21
21.94858052993354
 31
0.0
 11
33.00273750412712
 21
21.89916786421673
 31
0.0
 11
33.19419909206249
 21
21.87864610808738
 31
0.0
 11
33.38690243953788
 21
21.89090007892743
 31
0.0
 11
33.7516338226573
 21
22.01269765064039
 31
0.0
 11
33.91321018639743
 21
22.11912633605072
 31
0.0
 11
34.05119662359747
 21
22.25474052514756
 31
0.0
 11
34.14728879489485
 21
22.42195449774152
 31
0.0
 11
34.19152297621249
 21
22.61029360711668
 31
0.0
  0
LINE
  5
71
100
AcDbEntity
  8
CARTOUCHE
  6
CONTINUOUS
 62
     4
100
AcDbLine
 10
34.191523
 20
22.610294
 30
0.0
 11
34.191523
 21
22.759244
 31
0.0
  0
LINE
  5
72
100
AcDbEntity
  8
CARTOUCHE
  6
CONTINUOUS
 62
     4
100
AcDbLine
 10
34.191523
 20
24.319904
 30
0.0
 11
34.191523
 21
25.823744
 31
0.0
  0
LINE
  5
73
100
AcDbEntity
  8
CARTOUCHE
  6
CONTINUOUS
 62
     4
100
AcDbLine
 10
38.364823
 20
23.079194
 30
0.0
 11
39.154123
 21
23.079194
 31
0.0
  0
LINE
  5
74
100
AcDbEntity
  8
CARTOUCHE
  6
CONTINUOUS
 62
     4
100
AcDbLine
 10
39.051073
 20
22.244444
 30
0.0
 11
38.364823
 21
22.244444
 31
0.0
  0
LINE
  5
75
100
AcDbEntity
  8
CARTOUCHE
  6
CONTINUOUS
 62
     4
100
AcDbLine
 10
39.154123
 20
22.244444
 30
0.0
 11
39.051073
 21
22.244444
 31
0.0
  0
LINE
  5
76
100
AcDbEntity
  8
CARTOUCHE
  6
CONTINUOUS
 62
     7
100
AcDbLine
 10
50.000001
 20
36.845393
 30
0.0
 11
50.000001
 21
5.000041
 31
0.0
  0
INSERT
  5
77
100
AcDbEntity
  8
CARTOUCHE
  6
CONTINUOUS
 62
     4
100
AcDbBlockReference
  2
*X10
 10
0.0
 20
0.0
 30
0.0
1001
ACAD
1000
HATCH
1002
{
1070
    19
1000
ANSI31
1040
0.062992
1040
0.0
1000
R14_HATCH_DATA
1000
77
1011
1.0
1021
0.0
1031
0.0
1011
0.0
1021
1.0
1031
0.0
1011
0.0
1021
0.0
1031
1.0
1040
0.0
1010
0.0
1020
0.0
1030
1.0
1000
ANSI31
1070
     0
1070
     0
1071
        1
1071
        1
1071
       78
1070
     1
1040
42.732973
1040
24.508394
1040
42.732973
1040
20.632094
1070
     1
1040
42.732973
1040
20.632094
1040
44.459623
1040
20.632094
1070
     1
1040
44.459623
1040
20.632094
1040
44.459623
1040
22.782194
1070
     1
1040
44.459623
1040
22.782194
1040
44.463488
1040
22.825563
1070
     1
1040
44.463488
1040
22.825563
1040
44.470946
1040
22.868586
1070
     1
1040
44.470946
1040
22.868586
1040
44.481879
1040
22.910991
1070
     1
1040
44.481879
1040
22.910991
1040
44.496172
1040
22.952504
1070
     1
1040
44.496172
1040
22.952504
1040
44.513707
1040
22.992851
1070
     1
1040
44.513707
1040
22.992851
1040
44.534386
1040
23.031755
1070
     1
1040
44.534386
1040
23.031755
1040
44.558122
1040
23.068814
1070
     1
1040
44.558122
1040
23.068814
1040
44.584841
1040
23.103624
1070
     1
1040
44.584841
1040
23.103624
1040
44.614473
1040
23.13578
1070
     1
1040
44.614473
1040
23.13578
1040
44.646943
1040
23.164878
1070
     1
1040
44.646943
1040
23.164878
1040
44.682109
1040
23.190587
1070
     1
1040
44.682109
1040
23.190587
1040
44.719626
1040
23.212933
1070
     1
1040
44.719626
1040
23.212933
1040
44.759083
1040
23.232012
1070
     1
1040
44.759083
1040
23.232012
1040
44.800067
1040
23.24792
1070
     1
1040
44.800067
1040
23.24792
1040
44.842166
1040
23.260755
1070
     1
1040
44.842166
1040
23.260755
1040
44.885455
1040
23.270655
1070
     1
1040
44.885455
1040
23.270655
1040
44.929241
1040
23.277344
1070
     1
1040
44.929241
1040
23.277344
1040
44.973307
1040
23.280649
1070
     1
1040
44.973307
1040
23.280649
1040
45.017433
1040
23.280401
1070
     1
1040
45.017433
1040
23.280401
1040
45.061399
1040
23.276428
1070
     1
1040
45.061399
1040
23.276428
1040
45.104319
1040
23.268736
1070
     1
1040
45.104319
1040
23.268736
1040
45.146471
1040
23.257294
1070
     1
1040
45.146471
1040
23.257294
1040
45.187456
1040
23.242136
1070
     1
1040
45.187456
1040
23.242136
1040
45.226873
1040
23.223293
1070
     1
1040
45.226873
1040
23.223293
1040
45.264321
1040
23.200797
1070
     1
1040
45.264321
1040
23.200797
1040
45.299504
1040
23.174642
1070
     1
1040
45.299504
1040
23.174642
1040
45.331947
1040
23.145119
1070
     1
1040
45.331947
1040
23.145119
1040
45.361291
1040
23.112499
1070
     1
1040
45.361291
1040
23.112499
1040
45.387181
1040
23.077054
1070
     1
1040
45.387181
1040
23.077054
1040
45.409257
1040
23.039056
1070
     1
1040
45.409257
1040
23.039056
1040
45.427129
1040
22.999011
1070
     1
1040
45.427129
1040
22.999011
1040
45.440732
1040
22.957277
1070
     1
1040
45.440732
1040
22.957277
1040
45.44993
1040
22.914423
1070
     1
1040
45.44993
1040
22.914423
1040
45.454589
1040
22.871022
1070
     1
1040
45.454589
1040
22.871022
1040
45.455174
1040
22.849294
1070
     1
1040
45.455174
1040
22.849294
1040
45.454573
1040
22.827644
1070
     1
1040
45.454573
1040
22.827644
1040
45.454573
1040
22.587794
1070
     1
1040
45.454573
1040
22.587794
1040
47.283823
1040
22.587794
1070
     1
1040
47.283823
1040
22.587794
1040
47.30048
1040
22.741901
1070
     1
1040
47.30048
1040
22.741901
1040
47.308034
1040
22.896764
1070
     1
1040
47.308034
1040
22.896764
1040
47.306223
1040
23.051921
1070
     1
1040
47.306223
1040
23.051921
1040
47.295648
1040
23.206716
1070
     1
1040
47.295648
1040
23.206716
1040
47.276908
1040
23.360972
1070
     1
1040
47.276908
1040
23.360972
1040
47.2499
1040
23.514097
1070
     1
1040
47.2499
1040
23.514097
1040
47.221874
1040
23.635072
1070
     1
1040
47.221874
1040
23.635072
1040
47.19592
1040
23.724445
1070
     1
1040
47.19592
1040
23.724445
1040
47.16468
1040
23.812049
1070
     1
1040
47.16468
1040
23.812049
1040
47.113499
1040
23.92525
1070
     1
1040
47.113499
1040
23.92525
1040
47.067867
1040
24.006615
1070
     1
1040
47.067867
1040
24.006615
1040
47.016057
1040
24.0843
1070
     1
1040
47.016057
1040
24.0843
1040
46.978018
1040
24.133848
1070
     1
1040
46.978018
1040
24.133848
1040
46.937287
1040
24.181208
1070
     1
1040
46.937287
1040
24.181208
1040
46.893917
1040
24.226097
1070
     1
1040
46.893917
1040
24.226097
1040
46.847963
1040
24.26823
1070
     1
1040
46.847963
1040
24.26823
1040
46.799476
1040
24.307326
1070
     1
1040
46.799476
1040
24.307326
1040
46.748847
1040
24.342981
1070
     1
1040
46.748847
1040
24.342981
1040
46.696087
1040
24.375497
1070
     1
1040
46.696087
1040
24.375497
1040
46.613657
1040
24.418703
1070
     1
1040
46.613657
1040
24.418703
1040
46.528242
1040
24.455664
1070
     1
1040
46.528242
1040
24.455664
1040
46.410285
1040
24.496534
1070
     1
1040
46.410285
1040
24.496534
1040
46.22888
1040
24.542872
1070
     1
1040
46.22888
1040
24.542872
1040
46.106971
1040
24.566075
1070
     1
1040
46.106971
1040
24.566075
1040
45.922386
1040
24.587821
1070
     1
1040
45.922386
1040
24.587821
1040
45.798504
1040
24.591816
1070
     1
1040
45.798504
1040
24.591816
1040
45.612568
1040
24.583703
1070
     1
1040
45.612568
1040
24.583703
1040
45.457926
1040
24.566274
1070
     1
1040
45.457926
1040
24.566274
1040
45.304716
1040
24.539482
1070
     1
1040
45.304716
1040
24.539482
1040
45.183805
1040
24.511135
1070
     1
1040
45.183805
1040
24.511135
1040
45.005799
1040
24.45603
1070
     1
1040
45.005799
1040
24.45603
1040
44.890434
1040
24.410518
1070
     1
1040
44.890434
1040
24.410518
1040
44.777817
1040
24.358198
1070
     1
1040
44.777817
1040
24.358198
1040
44.668264
1040
24.29958
1070
     1
1040
44.668264
1040
24.29958
1040
44.459623
1040
24.165494
1070
     1
1040
44.459623
1040
24.165494
1040
44.459623
1040
24.508394
1070
     1
1040
44.459623
1040
24.508394
1040
42.732973
1040
24.508394
1071
        0
1070
     0
1070
     1
1040
0.0
1040
0.062992
1070
     0
1070
     1
1040
0.785398
1040
-6.22517
1040
-28.624349
1040
-0.141421
1040
0.141421
1070
     0
1071
        1
1040
-6.22517
1040
-28.624349
1040
0.0
1002
}
  0
LINE
  5
78
100
AcDbEntity
  8
CARTOUCHE
  6
CONTINUOUS
 62
     4
100
AcDbLine
 10
42.732973
 20
20.632094
 30
0.0
 11
42.732973
 21
24.508394
 31
0.0
  0
LINE
  5
79
100
AcDbEntity
  8
CARTOUCHE
  6
CONTINUOUS
 62
     4
100
AcDbLine
 10
44.459623
 20
22.782194
 30
0.0
 11
44.459623
 21
20.632094
 31
0.0
  0
LINE
  5
7A
100
AcDbEntity
  8
CARTOUCHE
  6
CONTINUOUS
 62
     4
100
AcDbLine
 10
44.459623
 20
20.632094
 30
0.0
 11
42.732973
 21
20.632094
 31
0.0
  0
LINE
  5
7B
100
AcDbEntity
  8
CARTOUCHE
  6
CONTINUOUS
 62
     4
100
AcDbLine
 10
42.732973
 20
24.508394
 30
0.0
 11
44.459623
 21
24.508394
 31
0.0
  0
LINE
  5
7C
100
AcDbEntity
  8
CARTOUCHE
  6
CONTINUOUS
 62
     4
100
AcDbLine
 10
40.343023
 20
21.855644
 30
0.0
 11
42.103873
 21
21.855644
 31
0.0
  0
SPLINE
  5
7D
100
AcDbEntity
  8
CARTOUCHE
  6
CONTINUOUS
 62
     4
100
AcDbSpline
210
0.0
220
0.0
230
-1.0
 70
     8
 71
     3
 72
    20
 73
    16
 74
    14
 42
0.0000001
 43
0.0000001
 44
0.000001
 12
0.1358608544273129
 22
0.9907279284618359
 32
0.0
 13
-0.8123777522852272
 23
-0.583131535412039
 33
0.0
 40
0.0
 40
0.0
 40
0.0
 40
0.0
 40
0.3099164094844504
 40
0.620115935849634
 40
0.9308830016378429
 40
1.240782440235695
 40
1.550958544551884
 40
1.861841568787858
 40
2.170989242543665
 40
2.482794625570478
 40
2.792567094310104
 40
3.102412505173151
 40
3.413423989889623
 40
3.723771516235911
 40
4.342414481743269
 40
4.342414481743269
 40
4.342414481743269
 40
4.342414481743269
 10
47.28382297621251
 20
22.58779360711669
 30
0.0
 10
47.29785814561036
 20
22.69014122123831
 30
0.0
 10
47.31442412809633
 20
22.89676939405084
 30
0.0
 10
47.3009300446424
 20
23.20747589800257
 30
0.0
 10
47.25565471224022
 20
23.51474414590117
 30
0.0
 10
47.17620454100132
 20
23.81641630141703
 30
0.0
 10
47.02732837572081
 20
24.0924084229208
 30
0.0
 10
46.81020876026039
 20
24.32073903095973
 30
0.0
 10
46.53096593187423
 20
24.46673548372093
 30
0.0
 10
46.23076173615316
 20
24.54812143120015
 30
0.0
 10
45.92302812013527
 20
24.59724620003242
 30
0.0
 10
45.61154982347273
 20
24.58971058619114
 30
0.0
 10
45.30365644994705
 20
24.5459331430227
 30
0.0
 10
44.90384885766133
 20
24.43649450290007
 30
0.0
 10
44.62714690347446
 20
24.28574368123275
 30
0.0
 10
44.45962297621249
 20
24.16549360711669
 30
0.0
 11
47.28382297621251
 21
22.58779360711669
 31
0.0
 11
47.3080338234398
 21
22.8967638790771
 31
0.0
 11
47.29564801913904
 21
23.20671600883972
 31
0.0
 11
47.24989999164073
 21
23.51409730955235
 31
0.0
 11
47.16468005782961
 21
23.81204898160464
 31
0.0
 11
47.01605698726017
 21
24.08429955967585
 31
0.0
 11
46.79947591694869
 21
24.30732619143858
 31
0.0
 11
46.52824151124928
 21
24.45566419975128
 31
0.0
 11
46.22887996193932
 21
24.5428722112578
 31
0.0
 11
45.92238599753447
 21
24.58782115591738
 31
0.0
 11
45.61256799206709
 21
24.58370341795764
 31
0.0
 11
45.3047164351297
 21
24.53948194901727
 31
0.0
 11
45.00579935951135
 21
24.45603046599671
 31
0.0
 11
44.45962297621249
 21
24.16549360711669
 31
0.0
  0
LINE
  5
7E
100
AcDbEntity
  8
CARTOUCHE
  6
CONTINUOUS
 62
     4
100
AcDbLine
 10
47.283823
 20
22.587794
 30
0.0
 11
45.454573
 21
22.587794
 31
0.0
  0
SPLINE
  5
7F
100
AcDbEntity
  8
CARTOUCHE
  6
CONTINUOUS
 62
     4
100
AcDbSpline
210
0.0
220
0.0
230
-1.0
 70
     8
 71
     3
 72
    14
 73
    10
 74
     8
 42
0.0000001
 43
0.0000001
 44
0.000001
 12
0.0554704849890783
 22
0.9984603273516061
 32
0.0
 13
-0.0466631639368038
 23
-0.9989106812580427
 33
0.0
 40
0.0
 40
0.0
 40
0.0
 40
0.0
 40
0.2162139231727977
 40
0.4333925507518398
 40
0.6499496526662421
 40
0.8697430299868365
 40
1.087237840365025
 40
1.304827906875886
 40
1.522316014566312
 40
1.522316014566312
 40
1.522316014566312
 40
1.522316014566312
 10
45.4545729762125
 20
22.82764360711668
 30
0.0
 10
45.45857080660576
 20
22.89960394861971
 30
0.0
 10
45.4264083633415
 20
23.04880721389077
 30
0.0
 10
45.27439513245806
 20
23.21580478488278
 30
0.0
 10
45.06187418617559
 20
23.29256557144738
 30
0.0
 10
44.83996015173
 20
23.2734915919662
 30
0.0
 10
44.63539375174635
 20
23.17927808332161
 30
0.0
 10
44.50069195487549
 20
22.99887927082835
 30
0.0
 10
44.46300587062029
 20
22.85461067172287
 30
0.0
 10
44.45962297621247
 20
22.78219360711668
 30
0.0
 11
45.4545729762125
 21
22.82764360711668
 31
0.0
 11
45.40925657835891
 21
23.03905624439607
 31
0.0
 11
45.2643208173426
 21
23.20079736409237
 31
0.0
 11
45.06139949806013
 21
23.27642755731508
 31
0.0
 11
44.84216559415751
 21
23.2607549970325
 31
0.0
 11
44.64694347697346
 21
23.16487840855711
 31
0.0
 11
44.51370731348553
 21
22.99285063220138
 31
0.0
 11
44.45962297621247
 21
22.78219360711668
 31
0.0
  0
LINE
  5
80
100
AcDbEntity
  8
CARTOUCHE
  6
CONTINUOUS
 62
     4
100
AcDbLine
 10
45.454573
 20
22.587794
 30
0.0
 11
45.454573
 21
22.827644
 31
0.0
  0
LINE
  5
81
100
AcDbEntity
  8
CARTOUCHE
  6
CONTINUOUS
 62
     4
100
AcDbLine
 10
44.459623
 20
24.508394
 30
0.0
 11
44.459623
 21
24.165494
 31
0.0
  0
TEXT
  5
82
100
AcDbEntity
  8
CARTOUCHE
  6
CONTINUOUS
 62
     1
100
AcDbText
 10
75.188142
 20
11.776279
 30
0.0
 40
2.1
  1
0
 50
359.999908
 41
0.8
  7
FINDER
 72
     1
 11
75.833326
 21
11.776278
 31
0.0
100
AcDbText
  0
TEXT
  5
83
100
AcDbEntity
  8
CARTOUCHE
  6
CONTINUOUS
 62
     7
100
AcDbText
 10
73.494063
 20
16.624305
 30
0.0
 40
1.8
  1
REV.
 50
359.999908
 41
0.8
  7
FINDER
 72
     1
 11
75.833326
 21
16.624301
 31
0.0
100
AcDbText
  0
LINE
  5
84
100
AcDbEntity
  8
CARTOUCHE
  6
CONTINUOUS
 62
     7
100
AcDbLine
 10
101.666651
 20
20.002966
 30
0.0
 11
101.666651
 21
10.001024
 31
0.0
  0
TEXT
  5
53A
100
AcDbEntity
  8
CARTOUCHE
  6
CONTINUOUS
 62
     7
100
AcDbText
 10
119.722419
 20
32.435966
 30
0.0
 40
1.8
  1
PRODUCT TYPE
 50
359.999908
 41
0.8
  7
FINDER
 72
     1
 11
127.499991
 21
32.435954
 31
0.0
100
AcDbText
  0
TEXT
  5
53B
100
AcDbEntity
  8
CARTOUCHE
  6
CONTINUOUS
 62
     1
100
AcDbText
 10
123.79849
 20
22.43596
 30
0.0
 40
3.0
  1
3851
 50
359.999908
 41
0.8
  7
FINDER
 72
     1
 11
127.499991
 21
22.435954
 31
0.0
100
AcDbText
  0
TEXT
  5
53C
100
AcDbEntity
  8
CARTOUCHE
  6
CONTINUOUS
 62
     1
100
AcDbText
 10
121.646907
 20
11.776208
 30
0.0
 40
2.1
  1
01/01/2001
 50
359.999908
 41
0.8
  7
FINDER
 72
     1
 11
127.499977
 21
11.776199
 31
0.0
100
AcDbText
  0
TEXT
  5
53D
100
AcDbEntity
  8
CARTOUCHE
  6
CONTINUOUS
 62
     7
100
AcDbText
 10
124.919567
 20
16.624226
 30
0.0
 40
1.8
  1
DATE
 50
359.999908
 41
0.8
  7
FINDER
 72
     1
 11
127.499977
 21
16.624222
 31
0.0
100
AcDbText
  0
LINE
  5
53E
100
AcDbEntity
  8
CARTOUCHE
  6
CONTINUOUS
 62
     7
100
AcDbLine
 10
153.33333
 20
20.002887
 30
0.0
 11
153.33333
 21
10.000945
 31
0.0
  0
TEXT
  5
53F
100
AcDbEntity
  8
CARTOUCHE
  6
CONTINUOUS
 62
     1
100
AcDbText
 10
177.623026
 20
11.776122
 30
0.0
 40
2.1
  1
1:1
 50
359.999908
 41
0.8
  7
FINDER
 72
     1
 11
179.166655
 21
11.77612
 31
0.0
100
AcDbText
  0
TEXT
  5
540
100
AcDbEntity
  8
CARTOUCHE
  6
CONTINUOUS
 62
     7
100
AcDbText
 10
175.87705
 20
16.624148
 30
0.0
 40
1.8
  1
SCALE
 50
359.999908
 41
0.8
  7
FINDER
 72
     1
 11
179.166655
 21
16.624143
 31
0.0
100
AcDbText
  0
POLYLINE
  5
2E30
100
AcDbEntity
  8
DRAW
  6
CONTINUOUS
 62
     1
100
AcDb2dPolyline
 66
     1
 10
0.0
 20
0.0
 30
0.0
1001
ACAD
1000
ASC_BOUNDS
1002
{
1070
    19
1005
2EA7
1005
2EA7
1005
2EA7
1002
}
  0
VERTEX
  5
38A0
100
AcDbEntity
  8
DRAW
  6
CONTINUOUS
 62
     1
100
AcDbVertex
100
AcDb2dVertex
 10
164.256059
 20
149.155198
 30
0.0
  0
VERTEX
  5
38A1
100
AcDbEntity
  8
DRAW
  6
CONTINUOUS
 62
     1
100
AcDbVertex
100
AcDb2dVertex
 10
164.256059
 20
174.655198
 30
0.0
  0
SEQEND
  5
38A2
100
AcDbEntity
  8
DRAW
  6
CONTINUOUS
 62
     1
  0
POLYLINE
  5
2E31
100
AcDbEntity
  8
DRAW
  6
CONTINUOUS
 62
     1
100
AcDb2dPolyline
 66
     1
 10
0.0
 20
0.0
 30
0.0
1001
ACAD
1000
ASC_BOUNDS
1002
{
1070
    19
1005
30F9
1002
}
  0
VERTEX
  5
38A3
100
AcDbEntity
  8
DRAW
  6
CONTINUOUS
 62
     1
100
AcDbVertex
100
AcDb2dVertex
 10
49.36289
 20
172.655198
 30
0.0
  0
VERTEX
  5
38A4
100
AcDbEntity
  8
DRAW
  6
CONTINUOUS
 62
     1
100
AcDbVertex
100
AcDb2dVertex
 10
49.36289
 20
147.905198
 30
0.0
  0
VERTEX
  5
38A5
100
AcDbEntity
  8
DRAW
  6
CONTINUOUS
 62
     1
100
AcDbVertex
100
AcDb2dVertex
 10
54.36289
 20
147.905198
 30
0.0
  0
VERTEX
  5
38A6
100
AcDbEntity
  8
DRAW
  6
CONTINUOUS
 62
     1
100
AcDbVertex
100
AcDb2dVertex
 10
54.36289
 20
172.655198
 30
0.0
  0
SEQEND
  5
38A7
100
AcDbEntity
  8
DRAW
  6
CONTINUOUS
 62
     1
  0
LINE
  5
2E39
100
AcDbEntity
  8
DRAW
  6
CONTINUOUS
 62
     1
100
AcDbLine
 10
163.756059
 20
151.580198
 30
0.0
 11
164.256059
 21
151.580198
 31
0.0
1001
ACAD
1000
ASC_BOUNDS
1002
{
1070
    19
1005
2EA7
1002
}
  0
LINE
  5
2E3A
100
AcDbEntity
  8
DRAW
  6
CONTINUOUS
 62
     1
100
AcDbLine
 10
163.756059
 20
150.580198
 30
0.0
 11
164.256059
 21
150.580198
 31
0.0
1001
ACAD
1000
ASC_BOUNDS
1002
{
1070
    19
1005
2EA7
1002
}
  0
LINE
  5
2E48
100
AcDbEntity
  8
DRAW
  6
CONTINUOUS
 62
     1
100
AcDbLine
 10
163.756059
 20
172.605198
 30
0.0
 11
164.256059
 21
172.605198
 31
0.0
1001
ACAD
1000
ASC_BOUNDS
1002
{
1070
    19
1005
2EA7
1002
}
  0
LINE
  5
2E49
100
AcDbEntity
  8
DRAW
  6
CONTINUOUS
 62
     1
100
AcDbLine
 10
163.756059
 20
171.605198
 30
0.0
 11
164.256059
 21
171.605198
 31
0.0
1001
ACAD
1000
ASC_BOUNDS
1002
{
1070
    19
1005
2EA7
1002
}
  0
LINE
  5
2E4B
100
AcDbEntity
  8
DRAW
  6
CONTINUOUS
100
AcDbLine
 10
108.899105
 20
211.312814
 30
0.0
 11
108.899105
 21
182.512814
 31
0.0
  0
LINE
  5
2E4D
100
AcDbEntity
  8
DRAW
  6
CONTINUOUS
100
AcDbLine
 10
124.899105
 20
211.512814
 30
0.0
 11
124.899105
 21
200.812814
 31
0.0
  0
LINE
  5
2E53
100
AcDbEntity
  8
DRAW
  6
CONTINUOUS
100
AcDbLine
 10
119.899105
 20
211.812814
 30
0.0
 11
124.599105
 21
211.812814
 31
0.0
  0
LINE
  5
2E57
100
AcDbEntity
  8
DRAW
  6
CONTINUOUS
100
AcDbLine
 10
124.899105
 20
200.812814
 30
0.0
 11
122.899105
 21
195.812814
 31
0.0
  0
LINE
  5
2E5B
100
AcDbEntity
  8
DRAW
  6
CONTINUOUS
100
AcDbLine
 10
126.70186
 20
196.819701
 30
0.0
 11
125.899105
 21
194.812814
 31
0.0
  0
LINE
  5
2E5C
100
AcDbEntity
  8
DRAW
  6
CONTINUOUS
100
AcDbLine
 10
125.899105
 20
194.812814
 30
0.0
 11
122.899105
 21
195.812814
 31
0.0
  0
LINE
  5
2E5E
100
AcDbEntity
  8
DRAW
  6
CONTINUOUS
100
AcDbLine
 10
127.166099
 20
197.134006
 30
0.0
 11
129.327582
 21
197.134006
 31
0.0
  0
ARC
  5
2E5F
100
AcDbEntity
  8
DRAW
  6
CONTINUOUS
100
AcDbCircle
 10
127.166099
 20
196.634006
 30
0.0
 40
0.5
100
AcDbArc
 50
90.0
 51
158.198591
  0
LINE
  5
2E60
100
AcDbEntity
  8
DRAW
  6
CONTINUOUS
100
AcDbLine
 10
129.327582
 20
197.134006
 30
0.0
 11
129.327582
 21
201.134006
 31
0.0
  0
LINE
  5
2E61
100
AcDbEntity
  8
DRAW
  6
CONTINUOUS
100
AcDbLine
 10
128.327582
 20
197.134006
 30
0.0
 11
128.327582
 21
201.834006
 31
0.0
  0
LINE
  5
2E63
100
AcDbEntity
  8
DRAW
  6
CONTINUOUS
100
AcDbLine
 10
128.327582
 20
201.134006
 30
0.0
 11
129.327582
 21
201.134006
 31
0.0
  0
LINE
  5
2E67
100
AcDbEntity
  8
DRAW
  6
CONTINUOUS
100
AcDbLine
 10
147.756059
 20
191.455198
 30
0.0
 11
148.756059
 21
191.455198
 31
0.0
  0
LINE
  5
2E68
100
AcDbEntity
  8
DRAW
  6
CONTINUOUS
100
AcDbLine
 10
146.594575
 20
187.455198
 30
0.0
 11
148.756059
 21
187.455198
 31
0.0
  0
LINE
  5
2E69
100
AcDbEntity
  8
DRAW
  6
CONTINUOUS
100
AcDbLine
 10
147.756059
 20
187.455198
 30
0.0
 11
147.756059
 21
192.155198
 31
0.0
  0
ARC
  5
2E6A
100
AcDbEntity
  8
DRAW
  6
CONTINUOUS
100
AcDbCircle
 10
146.594575
 20
186.955198
 30
0.0
 40
0.5
100
AcDbArc
 50
90.0
 51
158.198591
  0
LINE
  5
2E6B
100
AcDbEntity
  8
DRAW
  6
CONTINUOUS
100
AcDbLine
 10
144.327582
 20
191.134006
 30
0.0
 11
142.327582
 21
186.134006
 31
0.0
  0
LINE
  5
2E6C
100
AcDbEntity
  8
DRAW
  6
CONTINUOUS
100
AcDbLine
 10
145.327582
 20
185.134006
 30
0.0
 11
142.327582
 21
186.134006
 31
0.0
  0
LINE
  5
2E6D
100
AcDbEntity
  8
DRAW
  6
CONTINUOUS
100
AcDbLine
 10
146.130337
 20
187.140893
 30
0.0
 11
145.327582
 21
185.134006
 31
0.0
  0
LINE
  5
2E6E
100
AcDbEntity
  8
DRAW
  6
CONTINUOUS
100
AcDbLine
 10
144.327582
 20
202.334006
 30
0.0
 11
144.327582
 21
191.134006
 31
0.0
  0
LINE
  5
2E6F
100
AcDbEntity
  8
DRAW
  6
CONTINUOUS
100
AcDbLine
 10
148.756059
 20
187.455198
 30
0.0
 11
148.756059
 21
191.455198
 31
0.0
  0
LINE
  5
2E71
100
AcDbEntity
  8
DRAW
  6
CONTINUOUS
100
AcDbLine
 10
163.756059
 20
192.655198
 30
0.0
 11
163.756059
 21
184.455198
 31
0.0
  0
LINE
  5
2E72
100
AcDbEntity
  8
DRAW
  6
CONTINUOUS
100
AcDbLine
 10
119.899105
 20
210.812814
 30
0.0
 11
123.899105
 21
210.812814
 31
0.0
  0
LINE
  5
2E74
100
AcDbEntity
  8
DRAW
  6
CONTINUOUS
100
AcDbLine
 10
123.899105
 20
211.812814
 30
0.0
 11
123.899105
 21
204.812814
 31
0.0
  0
LINE
  5
2E75
100
AcDbEntity
  8
DRAW
  6
CONTINUOUS
100
AcDbLine
 10
123.899105
 20
204.812814
 30
0.0
 11
124.899105
 21
204.812814
 31
0.0
  0
LINE
  5
2E76
100
AcDbEntity
  8
DRAW
  6
CONTINUOUS
100
AcDbLine
 10
119.899105
 20
210.812814
 30
0.0
 11
119.899105
 21
211.812814
 31
0.0
  0
LINE
  5
2E77
100
AcDbEntity
  8
DRAW
  6
CONTINUOUS
100
AcDbLine
 10
108.899105
 20
211.312814
 30
0.0
 11
118.399105
 21
211.312814
 31
0.0
  0
LINE
  5
2E79
100
AcDbEntity
  8
DRAW
  6
CONTINUOUS
100
AcDbLine
 10
119.899105
 20
211.812814
 30
0.0
 11
118.399105
 21
211.312814
 31
0.0
  0
LINE
  5
2E7B
100
AcDbEntity
  8
DRAW
  6
CONTINUOUS
100
AcDbLine
 10
128.627582
 20
202.134006
 30
0.0
 11
137.827582
 21
202.134006
 31
0.0
  0
LINE
  5
2E7C
100
AcDbEntity
  8
DRAW
  6
CONTINUOUS
100
AcDbLine
 10
139.327582
 20
202.634006
 30
0.0
 11
144.027582
 21
202.634006
 31
0.0
  0
LINE
  5
2E7D
100
AcDbEntity
  8
DRAW
  6
CONTINUOUS
100
AcDbLine
 10
139.327582
 20
201.634006
 30
0.0
 11
143.327582
 21
201.634006
 31
0.0
  0
LINE
  5
2E7E
100
AcDbEntity
  8
DRAW
  6
CONTINUOUS
100
AcDbLine
 10
139.327582
 20
202.634006
 30
0.0
 11
137.827582
 21
202.134006
 31
0.0
  0
LINE
  5
2E7F
100
AcDbEntity
  8
DRAW
  6
CONTINUOUS
100
AcDbLine
 10
139.327582
 20
201.634006
 30
0.0
 11
139.327582
 21
202.634006
 31
0.0
  0
LINE
  5
2E80
100
AcDbEntity
  8
DRAW
  6
CONTINUOUS
100
AcDbLine
 10
143.327582
 20
202.634006
 30
0.0
 11
143.327582
 21
195.634006
 31
0.0
  0
LINE
  5
2E81
100
AcDbEntity
  8
DRAW
  6
CONTINUOUS
100
AcDbLine
 10
143.327582
 20
195.634006
 30
0.0
 11
144.327582
 21
195.634006
 31
0.0
  0
LINE
  5
2E82
100
AcDbEntity
  8
DRAW
  6
CONTINUOUS
100
AcDbLine
 10
148.056059
 20
192.455198
 30
0.0
 11
157.256059
 21
192.455198
 31
0.0
  0
LINE
  5
2E83
100
AcDbEntity
  8
DRAW
  6
CONTINUOUS
100
AcDbLine
 10
162.756059
 20
192.955198
 30
0.0
 11
162.756059
 21
185.955198
 31
0.0
  0
LINE
  5
2E84
100
AcDbEntity
  8
DRAW
  6
CONTINUOUS
100
AcDbLine
 10
162.756059
 20
185.955198
 30
0.0
 11
163.756059
 21
185.955198
 31
0.0
  0
LINE
  5
2E85
100
AcDbEntity
  8
DRAW
  6
CONTINUOUS
100
AcDbLine
 10
158.756059
 20
191.955198
 30
0.0
 11
162.756059
 21
191.955198
 31
0.0
  0
LINE
  5
2E86
100
AcDbEntity
  8
DRAW
  6
CONTINUOUS
100
AcDbLine
 10
158.756059
 20
192.955198
 30
0.0
 11
163.456059
 21
192.955198
 31
0.0
  0
LINE
  5
2E87
100
AcDbEntity
  8
DRAW
  6
CONTINUOUS
100
AcDbLine
 10
158.756059
 20
192.955198
 30
0.0
 11
157.256059
 21
192.455198
 31
0.0
  0
LINE
  5
2E88
100
AcDbEntity
  8
DRAW
  6
CONTINUOUS
100
AcDbLine
 10
158.756059
 20
191.955198
 30
0.0
 11
158.756059
 21
192.955198
 31
0.0
  0
LINE
  5
2E8B
100
AcDbEntity
  8
DRAW
  6
CONTINUOUS
100
AcDbLine
 10
163.756059
 20
184.455198
 30
0.0
 11
177.756059
 21
184.455198
 31
0.0
  0
POLYLINE
  5
2E8C
100
AcDbEntity
  8
DRAW
  6
CONTINUOUS
100
AcDb2dPolyline
 66
     1
 10
0.0
 20
0.0
 30
0.0
 70
     1
  0
VERTEX
  5
38A8
100
AcDbEntity
  8
DRAW
  6
CONTINUOUS
100
AcDbVertex
100
AcDb2dVertex
 10
116.899105
 20
202.312814
 30
0.0
  0
VERTEX
  5
38A9
100
AcDbEntity
  8
DRAW
  6
CONTINUOUS
100
AcDbVertex
100
AcDb2dVertex
 10
120.899105
 20
202.312814
 30
0.0
  0
VERTEX
  5
38AA
100
AcDbEntity
  8
DRAW
  6
CONTINUOUS
100
AcDbVertex
100
AcDb2dVertex
 10
120.899105
 20
203.312814
 30
0.0
  0
VERTEX
  5
38AB
100
AcDbEntity
  8
DRAW
  6
CONTINUOUS
100
AcDbVertex
100
AcDb2dVertex
 10
116.899105
 20
203.312814
 30
0.0
  0
SEQEND
  5
38AC
100
AcDbEntity
  8
DRAW
  6
CONTINUOUS
  0
POLYLINE
  5
2E8F
100
AcDbEntity
  8
DRAW
  6
CONTINUOUS
100
AcDb2dPolyline
 66
     1
 10
0.0
 20
0.0
 30
0.0
 70
     1
  0
VERTEX
  5
38AD
100
AcDbEntity
  8
DRAW
  6
CONTINUOUS
100
AcDbVertex
100
AcDb2dVertex
 10
136.327582
 20
193.134006
 30
0.0
  0
VERTEX
  5
38AE
100
AcDbEntity
  8
DRAW
  6
CONTINUOUS
100
AcDbVertex
100
AcDb2dVertex
 10
140.327582
 20
193.134006
 30
0.0
  0
VERTEX
  5
38AF
100
AcDbEntity
  8
DRAW
  6
CONTINUOUS
100
AcDbVertex
100
AcDb2dVertex
 10
140.327582
 20
194.134006
 30
0.0
  0
VERTEX
  5
38B0
100
AcDbEntity
  8
DRAW
  6
CONTINUOUS
100
AcDbVertex
100
AcDb2dVertex
 10
136.327582
 20
194.134006
 30
0.0
  0
SEQEND
  5
38B1
100
AcDbEntity
  8
DRAW
  6
CONTINUOUS
  0
POLYLINE
  5
2E90
100
AcDbEntity
  8
DRAW
  6
CONTINUOUS
100
AcDb2dPolyline
 66
     1
 10
0.0
 20
0.0
 30
0.0
 70
     1
  0
VERTEX
  5
38B2
100
AcDbEntity
  8
DRAW
  6
CONTINUOUS
100
AcDbVertex
100
AcDb2dVertex
 10
155.756059
 20
183.455198
 30
0.0
  0
VERTEX
  5
38B3
100
AcDbEntity
  8
DRAW
  6
CONTINUOUS
100
AcDbVertex
100
AcDb2dVertex
 10
159.756059
 20
183.455198
 30
0.0
  0
VERTEX
  5
38B4
100
AcDbEntity
  8
DRAW
  6
CONTINUOUS
100
AcDbVertex
100
AcDb2dVertex
 10
159.756059
 20
184.455198
 30
0.0
  0
VERTEX
  5
38B5
100
AcDbEntity
  8
DRAW
  6
CONTINUOUS
100
AcDbVertex
100
AcDb2dVertex
 10
155.756059
 20
184.455198
 30
0.0
  0
SEQEND
  5
38B6
100
AcDbEntity
  8
DRAW
  6
CONTINUOUS
  0
POLYLINE
  5
2E91
100
AcDbEntity
  8
DRAW
  6
CONTINUOUS
100
AcDb2dPolyline
 66
     1
 10
0.0
 20
0.0
 30
0.0
 70
     1
  0
VERTEX
  5
38B7
100
AcDbEntity
  8
DRAW
  6
CONTINUOUS
100
AcDbVertex
100
AcDb2dVertex
 10
169.756059
 20
182.455198
 30
0.0
  0
VERTEX
  5
38B8
100
AcDbEntity
  8
DRAW
  6
CONTINUOUS
100
AcDbVertex
100
AcDb2dVertex
 10
173.756059
 20
182.455198
 30
0.0
  0
VERTEX
  5
38B9
100
AcDbEntity
  8
DRAW
  6
CONTINUOUS
100
AcDbVertex
100
AcDb2dVertex
 10
173.756059
 20
183.455198
 30
0.0
  0
VERTEX
  5
38BA
100
AcDbEntity
  8
DRAW
  6
CONTINUOUS
100
AcDbVertex
100
AcDb2dVertex
 10
169.756059
 20
183.455198
 30
0.0
  0
SEQEND
  5
38BB
100
AcDbEntity
  8
DRAW
  6
CONTINUOUS
  0
LINE
  5
2E94
100
AcDbEntity
  8
DRAW
  6
CONTINUOUS
100
AcDbLine
 10
163.756059
 20
174.655198
 30
0.0
 11
179.156059
 21
174.655198
 31
0.0
1001
ACAD
1000
ASC_BOUNDS
1002
{
1070
    19
1005
2EA7
1002
}
  0
LINE
  5
2E97
100
AcDbEntity
  8
DRAW
  6
CONTINUOUS
100
AcDbLine
 10
163.756059
 20
149.155198
 30
0.0
 11
179.156059
 21
149.155198
 31
0.0
1001
ACAD
1000
ASC_BOUNDS
1002
{
1070
    19
1005
2EA7
1002
}
  0
LINE
  5
2E98
100
AcDbEntity
  8
DRAW
  6
CONTINUOUS
100
AcDbLine
 10
163.756059
 20
174.655198
 30
0.0
 11
163.756059
 21
149.155198
 31
0.0
1001
ACAD
1000
ASC_BOUNDS
1002
{
1070
    19
1005
2EA7
1005
2EA7
1002
}
  0
POLYLINE
  5
2E9A
100
AcDbEntity
  8
DRAW
  6
CONTINUOUS
 62
     1
100
AcDb2dPolyline
 66
     1
 10
0.0
 20
0.0
 30
0.0
1001
ACAD
1000
ASC_BOUNDS
1002
{
1070
    19
1005
2EA7
1002
}
  0
VERTEX
  5
38BC
100
AcDbEntity
  8
DRAW
  6
CONTINUOUS
 62
     1
100
AcDbVertex
100
AcDb2dVertex
 10
178.756059
 20
174.655198
 30
0.0
  0
VERTEX
  5
38BD
100
AcDbEntity
  8
DRAW
  6
CONTINUOUS
 62
     1
100
AcDbVertex
100
AcDb2dVertex
 10
178.756059
 20
149.155198
 30
0.0
  0
SEQEND
  5
38BE
100
AcDbEntity
  8
DRAW
  6
CONTINUOUS
 62
     1
  0
INSERT
  5
2EA7
100
AcDbEntity
  8
DRAW
  6
CONTINUOUS
 62
     1
100
AcDbBlockReference
  2
*X11
 10
0.0
 20
0.0
 30
0.0
1001
ACAD
1000
HATCH
1002
{
1070
    19
1000
SWAMP
1040
2.0
1040
0.0
1000
ASC_BOUNDS
1070
     3
1070
     1
1070
     4
1005
2E30
1005
2E3A
1005
2E98
1005
2E39
1070
     1
1070
     4
1005
2E30
1005
2E49
1005
2E98
1005
2E48
1070
     1
1070
     4
1005
2E9A
1005
2E97
1005
2E30
1005
2E94
1000
ASC_SEEDPOINT
1011
174.148476
1021
167.503572
1031
0.0
1000
R14_HATCH_DATA
1000
2EA7
1011
1.0
1021
0.0
1031
0.0
1011
0.0
1021
1.0
1031
0.0
1011
0.0
1021
0.0
1031
1.0
1040
0.0
1010
0.0
1020
0.0
1030
1.0
1000
SWAMP
1070
     0
1070
     1
1071
        3
1071
        7
1070
     0
1070
     1
1071
        4
1040
178.756059
1040
174.655198
1040
164.256059
1040
174.655198
1040
164.256059
1040
149.155198
1040
178.756059
1040
149.155198
1071
        4
1005
2E94
1005
2E30
1005
2E97
1005
2E9A
1071
        7
1070
     0
1070
     1
1071
        4
1040
163.756059
1040
171.605198
1040
164.256059
1040
171.605198
1040
164.256059
1040
172.605198
1040
163.756059
1040
172.605198
1071
        4
1005
2E48
1005
2E98
1005
2E49
1005
2E30
1071
        7
1070
     0
1070
     1
1071
        4
1040
163.756059
1040
150.580198
1040
164.256059
1040
150.580198
1040
164.256059
1040
151.580198
1040
163.756059
1040
151.580198
1071
        4
1005
2E39
1005
2E98
1005
2E3A
1005
2E30
1070
     0
1070
     1
1040
0.0
1040
2.0
1070
     0
1070
     6
1040
0.0
1040
40.0
1040
-20.0
1040
1.0
1040
1.732051
1070
     2
1040
0.25
1040
-1.75
1040
1.570796
1040
40.125
1040
-20.0
1040
-1.0
1040
1.732051
1070
     2
1040
0.125
1040
-3.339102
1040
1.570796
1040
40.15625
1040
-20.0
1040
-1.0
1040
1.732051
1070
     2
1040
0.1
1040
-3.364102
1040
1.570796
1040
40.09375
1040
-20.0
1040
-1.0
1040
1.732051
1070
     2
1040
0.1
1040
-3.364102
1040
1.047198
1040
40.1875
1040
-20.0
1040
-1.0
1040
1.732051
1070
     2
1040
0.08
1040
-1.92
1040
2.094395
1040
40.0625
1040
-20.0
1040
-2.0
1040
0.0
1070
     2
1040
0.08
1040
-1.92
1040
0.060388
1071
        3
1040
174.148476
1040
167.503572
1040
0.0
1040
163.996761
1040
171.972281
1040
0.0
1040
163.996761
1040
151.017662
1040
0.0
1002
}
  0
LINE
  5
2EAA
100
AcDbEntity
  8
DRAW
  6
CONTINUOUS
100
AcDbLine
 10
179.156059
 20
173.955198
 30
0.0
 11
179.156059
 21
176.655198
 31
0.0
  0
LINE
  5
2EAB
100
AcDbEntity
  8
DRAW
  6
CONTINUOUS
100
AcDbLine
 10
179.156059
 20
176.655198
 30
0.0
 11
178.193559
 21
181.955198
 31
0.0
  0
LINE
  5
2EAE
100
AcDbEntity
  8
DRAW
  6
CONTINUOUS
100
AcDbLine
 10
184.499105
 20
173.655198
 30
0.0
 11
184.499105
 21
172.655198
 31
0.0
  0
LINE
  5
2EAF
100
AcDbEntity
  8
DRAW
  6
CONTINUOUS
100
AcDbLine
 10
177.68596
 20
181.955198
 30
0.0
 11
177.33596
 21
183.955198
 31
0.0
  0
LINE
  5
2EB1
100
AcDbEntity
  8
DRAW
  6
CONTINUOUS
100
AcDbLine
 10
177.68596
 20
181.955198
 30
0.0
 11
178.193559
 21
181.955198
 31
0.0
  0
LINE
  5
2EB2
100
AcDbEntity
  8
DRAW
  6
CONTINUOUS
100
AcDbLine
 10
177.843559
 20
183.955198
 30
0.0
 11
177.756059
 21
184.455198
 31
0.0
  0
LINE
  5
2EB4
100
AcDbEntity
  8
DRAW
  6
CONTINUOUS
100
AcDbLine
 10
182.756059
 20
173.655198
 30
0.0
 11
182.756059
 21
176.155198
 31
0.0
  0
LINE
  5
2EB5
100
AcDbEntity
  8
DRAW
  6
CONTINUOUS
100
AcDbLine
 10
182.756059
 20
173.655198
 30
0.0
 11
184.499105
 21
173.655198
 31
0.0
  0
LINE
  5
2EB6
100
AcDbEntity
  8
DRAW
  6
CONTINUOUS
100
AcDbLine
 10
180.156059
 20
182.455198
 30
0.0
 11
181.156059
 21
182.455198
 31
0.0
  0
LINE
  5
2EB7
100
AcDbEntity
  8
DRAW
  6
CONTINUOUS
100
AcDbLine
 10
180.156059
 20
176.155198
 30
0.0
 11
181.156059
 21
176.155198
 31
0.0
  0
LINE
  5
2EBA
100
AcDbEntity
  8
DRAW
  6
CONTINUOUS
100
AcDbLine
 10
180.156059
 20
176.155198
 30
0.0
 11
180.156059
 21
177.905198
 31
0.0
  0
LINE
  5
2EBB
100
AcDbEntity
  8
DRAW
  6
CONTINUOUS
100
AcDbLine
 10
181.156059
 20
176.155198
 30
0.0
 11
181.156059
 21
176.955198
 31
0.0
  0
LINE
  5
2EBC
100
AcDbEntity
  8
DRAW
  6
CONTINUOUS
100
AcDbLine
 10
182.756059
 20
176.155198
 30
0.0
 11
181.556059
 21
176.955198
 31
0.0
  0
LINE
  5
2EBD
100
AcDbEntity
  8
DRAW
  6
CONTINUOUS
100
AcDbLine
 10
182.590223
 20
182.37228
 30
0.0
 11
181.556059
 21
181.655198
 31
0.0
  0
LINE
  5
2EBE
100
AcDbEntity
  8
DRAW
  6
CONTINUOUS
100
AcDbLine
 10
181.156059
 20
181.655198
 30
0.0
 11
181.156059
 21
182.455198
 31
0.0
  0
LINE
  5
2EBF
100
AcDbEntity
  8
DRAW
  6
CONTINUOUS
100
AcDbLine
 10
182.756059
 20
182.640608
 30
0.0
 11
182.756059
 21
184.455198
 31
0.0
  0
LINE
  5
2EC0
100
AcDbEntity
  8
DRAW
  6
CONTINUOUS
100
AcDbLine
 10
180.156059
 20
179.705198
 30
0.0
 11
180.656059
 21
179.705198
 31
0.0
  0
LINE
  5
2EC1
100
AcDbEntity
  8
DRAW
  6
CONTINUOUS
100
AcDbLine
 10
180.156059
 20
180.205198
 30
0.0
 11
180.656059
 21
180.205198
 31
0.0
  0
LINE
  5
2EC2
100
AcDbEntity
  8
DRAW
  6
CONTINUOUS
100
AcDbLine
 10
180.156059
 20
177.905198
 30
0.0
 11
180.656059
 21
177.905198
 31
0.0
  0
LINE
  5
2EC3
100
AcDbEntity
  8
DRAW
  6
CONTINUOUS
100
AcDbLine
 10
180.156059
 20
178.405198
 30
0.0
 11
180.656059
 21
178.405198
 31
0.0
  0
LINE
  5
2EC4
100
AcDbEntity
  8
DRAW
  6
CONTINUOUS
100
AcDbLine
 10
180.656059
 20
177.905198
 30
0.0
 11
180.656059
 21
178.405198
 31
0.0
  0
LINE
  5
2EC5
100
AcDbEntity
  8
DRAW
  6
CONTINUOUS
100
AcDbLine
 10
180.656059
 20
179.705198
 30
0.0
 11
180.656059
 21
180.205198
 31
0.0
  0
LINE
  5
2EC6
100
AcDbEntity
  8
DRAW
  6
CONTINUOUS
100
AcDbLine
 10
180.156059
 20
178.405198
 30
0.0
 11
180.156059
 21
179.705198
 31
0.0
  0
LINE
  5
2EC7
100
AcDbEntity
  8
DRAW
  6
CONTINUOUS
100
AcDbLine
 10
180.156059
 20
180.205198
 30
0.0
 11
180.156059
 21
182.455198
 31
0.0
  0
LINE
  5
2EC9
100
AcDbEntity
  8
DRAW
  6
CONTINUOUS
100
AcDbLine
 10
177.33596
 20
183.955198
 30
0.0
 11
178.83596
 21
183.955198
 31
0.0
  0
LINE
  5
2ECA
100
AcDbEntity
  8
DRAW
  6
CONTINUOUS
100
AcDbLine
 10
178.83596
 20
183.955198
 30
0.0
 11
178.83596
 21
184.155198
 31
0.0
  0
LINE
  5
2ECB
100
AcDbEntity
  8
DRAW
  6
CONTINUOUS
100
AcDbLine
 10
179.13596
 20
184.455198
 30
0.0
 11
182.756059
 21
184.455198
 31
0.0
  0
ARC
  5
2ECE
100
AcDbEntity
  8
DRAW
  6
CONTINUOUS
100
AcDbCircle
 10
179.456059
 20
173.955198
 30
0.0
 40
0.3
100
AcDbArc
 50
180.0
 51
270.0
  0
ARC
  5
2ED3
100
AcDbEntity
  8
DRAW
  6
CONTINUOUS
100
AcDbCircle
 10
182.456059
 20
182.640608
 30
0.0
 40
0.3
100
AcDbArc
 50
296.565051
 51
0.0
  0
ARC
  5
2ED5
100
AcDbEntity
  8
DRAW
  6
CONTINUOUS
100
AcDbCircle
 10
179.13596
 20
184.155198
 30
0.0
 40
0.3
100
AcDbArc
 50
90.0
 51
180.0
  0
LINE
  5
2ED6
100
AcDbEntity
  8
DRAW
  6
CONTINUOUS
100
AcDbLine
 10
181.156059
 20
181.655198
 30
0.0
 11
181.556059
 21
181.655198
 31
0.0
  0
LINE
  5
2ED7
100
AcDbEntity
  8
DRAW
  6
CONTINUOUS
100
AcDbLine
 10
181.156059
 20
176.955198
 30
0.0
 11
181.556059
 21
176.955198
 31
0.0
  0
LINE
  5
2EDB
100
AcDbEntity
  8
DRAW
  6
CONTINUOUS
100
AcDbLine
 10
182.627582
 20
172.655198
 30
0.0
 11
184.499105
 21
172.655198
 31
0.0
  0
LINE
  5
2EDE
100
AcDbEntity
  8
DRAW
  6
CONTINUOUS
100
AcDbLine
 10
181.156059
 20
173.655198
 30
0.0
 11
179.456059
 21
173.655198
 31
0.0
  0
ARC
  5
2EDF
100
AcDbEntity
  8
DRAW
  6
CONTINUOUS
100
AcDbCircle
 10
182.545883
 20
174.117665
 30
0.0
 40
1.464748
100
AcDbArc
 50
198.405007
 51
273.197455
  0
LINE
  5
2EE2
100
AcDbEntity
  8
DRAW
  6
CONTINUOUS
100
AcDbLine
 10
179.156059
 20
149.155198
 30
0.0
 11
179.156059
 21
140.655198
 31
0.0
  0
LINE
  5
2EE3
100
AcDbEntity
  8
DRAW
  6
CONTINUOUS
100
AcDbLine
 10
179.156059
 20
140.655198
 30
0.0
 11
163.756059
 21
140.655198
 31
0.0
  0
ARC
  5
2EE4
100
AcDbEntity
  8
DRAW
  6
CONTINUOUS
100
AcDbCircle
 10
180.406059
 20
144.905198
 30
0.0
 40
1.25
100
AcDbArc
 50
270.0
 51
90.0
  0
LINE
  5
2EE6
100
AcDbEntity
  8
DRAW
  6
CONTINUOUS
100
AcDbLine
 10
180.406059
 20
146.155198
 30
0.0
 11
179.156059
 21
146.155198
 31
0.0
  0
LINE
  5
2EE7
100
AcDbEntity
  8
DRAW
  6
CONTINUOUS
100
AcDbLine
 10
180.406059
 20
143.655198
 30
0.0
 11
179.156059
 21
143.655198
 31
0.0
  0
POLYLINE
  5
2EEB
100
AcDbEntity
  8
DRAW
  6
CONTINUOUS
100
AcDb2dPolyline
 66
     1
 10
0.0
 20
0.0
 30
0.0
 70
     1
  0
VERTEX
  5
3B38
100
AcDbEntity
  8
DRAW
  6
CONTINUOUS
100
AcDbVertex
100
AcDb2dVertex
 10
169.756059
 20
141.655198
 30
0.0
  0
VERTEX
  5
3B39
100
AcDbEntity
  8
DRAW
  6
CONTINUOUS
100
AcDbVertex
100
AcDb2dVertex
 10
173.756059
 20
141.655198
 30
0.0
  0
VERTEX
  5
3B3A
100
AcDbEntity
  8
DRAW
  6
CONTINUOUS
100
AcDbVertex
100
AcDb2dVertex
 10
173.756059
 20
142.655198
 30
0.0
  0
VERTEX
  5
3B3B
100
AcDbEntity
  8
DRAW
  6
CONTINUOUS
100
AcDbVertex
100
AcDb2dVertex
 10
169.756059
 20
142.655198
 30
0.0
  0
SEQEND
  5
3B3C
100
AcDbEntity
  8
DRAW
  6
CONTINUOUS
  0
POLYLINE
  5
2EEC
100
AcDbEntity
  8
DRAW
  6
CONTINUOUS
100
AcDb2dPolyline
 66
     1
 10
0.0
 20
0.0
 30
0.0
 70
     1
  0
VERTEX
  5
3B3D
100
AcDbEntity
  8
DRAW
  6
CONTINUOUS
100
AcDbVertex
100
AcDb2dVertex
 10
169.756059
 20
145.655198
 30
0.0
  0
VERTEX
  5
3B3E
100
AcDbEntity
  8
DRAW
  6
CONTINUOUS
100
AcDbVertex
100
AcDb2dVertex
 10
173.756059
 20
145.655198
 30
0.0
  0
VERTEX
  5
3B3F
100
AcDbEntity
  8
DRAW
  6
CONTINUOUS
100
AcDbVertex
100
AcDb2dVertex
 10
173.756059
 20
146.655198
 30
0.0
  0
VERTEX
  5
3B40
100
AcDbEntity
  8
DRAW
  6
CONTINUOUS
100
AcDbVertex
100
AcDb2dVertex
 10
169.756059
 20
146.655198
 30
0.0
  0
SEQEND
  5
3B41
100
AcDbEntity
  8
DRAW
  6
CONTINUOUS
  0
LINE
  5
2EEE
100
AcDbEntity
  8
DRAW
  6
CONTINUOUS
100
AcDbLine
 10
144.327582
 20
124.312814
 30
0.0
 11
144.327582
 21
135.512814
 31
0.0
  0
LINE
  5
2EEF
100
AcDbEntity
  8
DRAW
  6
CONTINUOUS
100
AcDbLine
 10
143.327582
 20
124.012814
 30
0.0
 11
143.327582
 21
131.012814
 31
0.0
  0
POLYLINE
  5
2EF0
100
AcDbEntity
  8
DRAW
  6
CONTINUOUS
100
AcDb2dPolyline
 66
     1
 10
0.0
 20
0.0
 30
0.0
 70
     1
  0
VERTEX
  5
3B42
100
AcDbEntity
  8
DRAW
  6
CONTINUOUS
100
AcDbVertex
100
AcDb2dVertex
 10
136.327582
 20
133.512814
 30
0.0
  0
VERTEX
  5
3B43
100
AcDbEntity
  8
DRAW
  6
CONTINUOUS
100
AcDbVertex
100
AcDb2dVertex
 10
140.327582
 20
133.512814
 30
0.0
  0
VERTEX
  5
3B44
100
AcDbEntity
  8
DRAW
  6
CONTINUOUS
100
AcDbVertex
100
AcDb2dVertex
 10
140.327582
 20
132.512814
 30
0.0
  0
VERTEX
  5
3B45
100
AcDbEntity
  8
DRAW
  6
CONTINUOUS
100
AcDbVertex
100
AcDb2dVertex
 10
136.327582
 20
132.512814
 30
0.0
  0
SEQEND
  5
3B46
100
AcDbEntity
  8
DRAW
  6
CONTINUOUS
  0
LINE
  5
2EF1
100
AcDbEntity
  8
DRAW
  6
CONTINUOUS
100
AcDbLine
 10
144.327582
 20
135.512814
 30
0.0
 11
142.327582
 21
140.512814
 31
0.0
  0
LINE
  5
2EF2
100
AcDbEntity
  8
DRAW
  6
CONTINUOUS
100
AcDbLine
 10
143.327582
 20
131.012814
 30
0.0
 11
144.327582
 21
131.012814
 31
0.0
  0
LINE
  5
2EF3
100
AcDbEntity
  8
DRAW
  6
CONTINUOUS
100
AcDbLine
 10
158.756059
 20
133.691622
 30
0.0
 11
163.456059
 21
133.691622
 31
0.0
  0
LINE
  5
2EF4
100
AcDbEntity
  8
DRAW
  6
CONTINUOUS
100
AcDbLine
 10
158.756059
 20
134.691622
 30
0.0
 11
162.756059
 21
134.691622
 31
0.0
  0
LINE
  5
2EF5
100
AcDbEntity
  8
DRAW
  6
CONTINUOUS
100
AcDbLine
 10
148.056059
 20
134.191622
 30
0.0
 11
157.256059
 21
134.191622
 31
0.0
  0
LINE
  5
2EF6
100
AcDbEntity
  8
DRAW
  6
CONTINUOUS
100
AcDbLine
 10
148.756059
 20
139.191622
 30
0.0
 11
148.756059
 21
135.191622
 31
0.0
  0
LINE
  5
2EF7
100
AcDbEntity
  8
DRAW
  6
CONTINUOUS
100
AcDbLine
 10
147.756059
 20
139.191622
 30
0.0
 11
147.756059
 21
134.491622
 31
0.0
  0
LINE
  5
2EF8
100
AcDbEntity
  8
DRAW
  6
CONTINUOUS
100
AcDbLine
 10
147.756059
 20
135.191622
 30
0.0
 11
148.756059
 21
135.191622
 31
0.0
  0
LINE
  5
2EF9
100
AcDbEntity
  8
DRAW
  6
CONTINUOUS
100
AcDbLine
 10
158.756059
 20
133.691622
 30
0.0
 11
157.256059
 21
134.191622
 31
0.0
  0
LINE
  5
2EFA
100
AcDbEntity
  8
DRAW
  6
CONTINUOUS
100
AcDbLine
 10
158.756059
 20
134.691622
 30
0.0
 11
158.756059
 21
133.691622
 31
0.0
  0
LINE
  5
2EFB
100
AcDbEntity
  8
DRAW
  6
CONTINUOUS
100
AcDbLine
 10
163.756059
 20
133.991622
 30
0.0
 11
163.756059
 21
140.655198
 31
0.0
  0
LINE
  5
2EFC
100
AcDbEntity
  8
DRAW
  6
CONTINUOUS
100
AcDbLine
 10
162.756059
 20
133.691622
 30
0.0
 11
162.756059
 21
138.691622
 31
0.0
  0
LINE
  5
2EFD
100
AcDbEntity
  8
DRAW
  6
CONTINUOUS
100
AcDbLine
 10
128.627582
 20
124.512814
 30
0.0
 11
137.827582
 21
124.512814
 31
0.0
  0
LINE
  5
2EFE
100
AcDbEntity
  8
DRAW
  6
CONTINUOUS
100
AcDbLine
 10
128.327582
 20
125.512814
 30
0.0
 11
129.327582
 21
125.512814
 31
0.0
  0
LINE
  5
2EFF
100
AcDbEntity
  8
DRAW
  6
CONTINUOUS
100
AcDbLine
 10
127.166099
 20
129.512814
 30
0.0
 11
129.327582
 21
129.512814
 31
0.0
  0
LINE
  5
2F00
100
AcDbEntity
  8
DRAW
  6
CONTINUOUS
100
AcDbLine
 10
128.327582
 20
129.512814
 30
0.0
 11
128.327582
 21
124.812814
 31
0.0
  0
LINE
  5
2F01
100
AcDbEntity
  8
DRAW
  6
CONTINUOUS
100
AcDbLine
 10
129.327582
 20
129.512814
 30
0.0
 11
129.327582
 21
125.512814
 31
0.0
  0
LINE
  5
2F02
100
AcDbEntity
  8
DRAW
  6
CONTINUOUS
100
AcDbLine
 10
139.327582
 20
124.012814
 30
0.0
 11
144.027582
 21
124.012814
 31
0.0
  0
LINE
  5
2F03
100
AcDbEntity
  8
DRAW
  6
CONTINUOUS
100
AcDbLine
 10
139.327582
 20
125.012814
 30
0.0
 11
143.327582
 21
125.012814
 31
0.0
  0
LINE
  5
2F04
100
AcDbEntity
  8
DRAW
  6
CONTINUOUS
100
AcDbLine
 10
139.327582
 20
124.012814
 30
0.0
 11
137.827582
 21
124.512814
 31
0.0
  0
LINE
  5
2F05
100
AcDbEntity
  8
DRAW
  6
CONTINUOUS
100
AcDbLine
 10
139.327582
 20
125.012814
 30
0.0
 11
139.327582
 21
124.012814
 31
0.0
  0
LINE
  5
2F06
100
AcDbEntity
  8
DRAW
  6
CONTINUOUS
100
AcDbLine
 10
146.130337
 20
139.505927
 30
0.0
 11
145.327582
 21
141.512814
 31
0.0
  0
LINE
  5
2F07
100
AcDbEntity
  8
DRAW
  6
CONTINUOUS
100
AcDbLine
 10
146.594575
 20
139.191622
 30
0.0
 11
148.756059
 21
139.191622
 31
0.0
  0
ARC
  5
2F08
100
AcDbEntity
  8
DRAW
  6
CONTINUOUS
100
AcDbCircle
 10
146.594575
 20
139.691622
 30
0.0
 40
0.5
100
AcDbArc
 50
201.801409
 51
270.0
  0
ARC
  5
2F09
100
AcDbEntity
  8
DRAW
  6
CONTINUOUS
100
AcDbCircle
 10
127.166099
 20
130.012814
 30
0.0
 40
0.5
100
AcDbArc
 50
201.801409
 51
270.0
  0
LINE
  5
2F0B
100
AcDbEntity
  8
DRAW
  6
CONTINUOUS
100
AcDbLine
 10
125.899105
 20
131.834006
 30
0.0
 11
122.899105
 21
130.834006
 31
0.0
  0
LINE
  5
2F0C
100
AcDbEntity
  8
DRAW
  6
CONTINUOUS
100
AcDbLine
 10
126.70186
 20
129.827119
 30
0.0
 11
125.899105
 21
131.834006
 31
0.0
  0
LINE
  5
2F0D
100
AcDbEntity
  8
DRAW
  6
CONTINUOUS
100
AcDbLine
 10
145.327582
 20
141.512814
 30
0.0
 11
142.327582
 21
140.512814
 31
0.0
  0
LINE
  5
2F0F
100
AcDbEntity
  8
DRAW
  6
CONTINUOUS
100
AcDbLine
 10
162.756059
 20
138.691622
 30
0.0
 11
163.756059
 21
138.691622
 31
0.0
  0
POLYLINE
  5
2F13
100
AcDbEntity
  8
DRAW
  6
CONTINUOUS
100
AcDb2dPolyline
 66
     1
 10
0.0
 20
0.0
 30
0.0
 70
     1
  0
VERTEX
  5
3B47
100
AcDbEntity
  8
DRAW
  6
CONTINUOUS
100
AcDbVertex
100
AcDb2dVertex
 10
155.756059
 20
143.191622
 30
0.0
  0
VERTEX
  5
3B48
100
AcDbEntity
  8
DRAW
  6
CONTINUOUS
100
AcDbVertex
100
AcDb2dVertex
 10
159.756059
 20
143.191622
 30
0.0
  0
VERTEX
  5
3B49
100
AcDbEntity
  8
DRAW
  6
CONTINUOUS
100
AcDbVertex
100
AcDb2dVertex
 10
159.756059
 20
142.191622
 30
0.0
  0
VERTEX
  5
3B4A
100
AcDbEntity
  8
DRAW
  6
CONTINUOUS
100
AcDbVertex
100
AcDb2dVertex
 10
155.756059
 20
142.191622
 30
0.0
  0
SEQEND
  5
3B4B
100
AcDbEntity
  8
DRAW
  6
CONTINUOUS
  0
LINE
  5
2F15
100
AcDbEntity
  8
DRAW
  6
CONTINUOUS
100
AcDbLine
 10
120.199105
 20
124.012814
 30
0.0
 11
124.899105
 21
124.012814
 31
0.0
  0
LINE
  5
2F16
100
AcDbEntity
  8
DRAW
  6
CONTINUOUS
100
AcDbLine
 10
124.899105
 20
125.834006
 30
0.0
 11
122.899105
 21
130.834006
 31
0.0
  0
LINE
  5
2F17
100
AcDbEntity
  8
DRAW
  6
CONTINUOUS
100
AcDbLine
 10
124.899105
 20
125.834006
 30
0.0
 11
124.899105
 21
124.012814
 31
0.0
  0
LINE
  5
2F1A
100
AcDbEntity
  8
DRAW
  6
CONTINUOUS
100
AcDbLine
 10
119.899105
 20
125.012814
 30
0.0
 11
120.899105
 21
125.012814
 31
0.0
  0
LINE
  5
2F1B
100
AcDbEntity
  8
DRAW
  6
CONTINUOUS
100
AcDbLine
 10
119.899105
 20
129.012814
 30
0.0
 11
119.899105
 21
124.312814
 31
0.0
  0
LINE
  5
2F1C
100
AcDbEntity
  8
DRAW
  6
CONTINUOUS
100
AcDbLine
 10
120.899105
 20
129.012814
 30
0.0
 11
120.899105
 21
125.012814
 31
0.0
  0
LINE
  5
2F1D
100
AcDbEntity
  8
DRAW
  6
CONTINUOUS
100
AcDbLine
 10
108.899105
 20
129.012814
 30
0.0
 11
120.899105
 21
129.012814
 31
0.0
  0
LINE
  5
2F1F
100
AcDbEntity
  8
DRAW
  6
CONTINUOUS
100
AcDbLine
 10
117.399105
 20
129.012814
 30
0.0
 11
117.399105
 21
124.012814
 31
0.0
  0
LINE
  5
2F20
100
AcDbEntity
  8
DRAW
  6
CONTINUOUS
100
AcDbLine
 10
117.399105
 20
124.012814
 30
0.0
 11
108.899105
 21
124.012814
 31
0.0
  0
POLYLINE
  5
2F22
100
AcDbEntity
  8
DRAW
  6
CONTINUOUS
100
AcDb2dPolyline
 66
     1
 10
0.0
 20
0.0
 30
0.0
 70
     1
  0
VERTEX
  5
3B4C
100
AcDbEntity
  8
DRAW
  6
CONTINUOUS
100
AcDbVertex
100
AcDb2dVertex
 10
169.756059
 20
176.655198
 30
0.0
  0
VERTEX
  5
3B4D
100
AcDbEntity
  8
DRAW
  6
CONTINUOUS
100
AcDbVertex
100
AcDb2dVertex
 10
173.756059
 20
176.655198
 30
0.0
  0
VERTEX
  5
3B4E
100
AcDbEntity
  8
DRAW
  6
CONTINUOUS
100
AcDbVertex
100
AcDb2dVertex
 10
173.756059
 20
177.655198
 30
0.0
  0
VERTEX
  5
3B4F
100
AcDbEntity
  8
DRAW
  6
CONTINUOUS
100
AcDbVertex
100
AcDb2dVertex
 10
169.756059
 20
177.655198
 30
0.0
  0
SEQEND
  5
3B50
100
AcDbEntity
  8
DRAW
  6
CONTINUOUS
  0
LINE
  5
2F25
100
AcDbEntity
  8
DRAW
  6
CONTINUOUS
100
AcDbLine
 10
109.899105
 20
210.312814
 30
0.0
 11
109.899105
 21
206.312814
 31
0.0
  0
LINE
  5
2F26
100
AcDbEntity
  8
DRAW
  6
CONTINUOUS
100
AcDbLine
 10
108.899105
 20
206.312814
 30
0.0
 11
109.899105
 21
206.312814
 31
0.0
  0
LINE
  5
2F27
100
AcDbEntity
  8
DRAW
  6
CONTINUOUS
100
AcDbLine
 10
108.899105
 20
210.312814
 30
0.0
 11
109.899105
 21
210.312814
 31
0.0
  0
LINE
  5
2F29
100
AcDbEntity
  8
DRAW
  6
CONTINUOUS
100
AcDbLine
 10
109.899105
 20
196.312814
 30
0.0
 11
109.899105
 21
192.312814
 31
0.0
  0
LINE
  5
2F2A
100
AcDbEntity
  8
DRAW
  6
CONTINUOUS
100
AcDbLine
 10
108.899105
 20
192.312814
 30
0.0
 11
109.899105
 21
192.312814
 31
0.0
  0
LINE
  5
2F2B
100
AcDbEntity
  8
DRAW
  6
CONTINUOUS
100
AcDbLine
 10
108.899105
 20
196.312814
 30
0.0
 11
109.899105
 21
196.312814
 31
0.0
  0
POLYLINE
  5
2F2C
100
AcDbEntity
  8
DRAW
  6
CONTINUOUS
100
AcDb2dPolyline
 66
     1
 10
0.0
 20
0.0
 30
0.0
 70
     1
  0
VERTEX
  5
3B51
100
AcDbEntity
  8
DRAW
  6
CONTINUOUS
100
AcDbVertex
100
AcDb2dVertex
 10
113.399105
 20
133.012814
 30
0.0
  0
VERTEX
  5
3B52
100
AcDbEntity
  8
DRAW
  6
CONTINUOUS
100
AcDbVertex
100
AcDb2dVertex
 10
113.399105
 20
137.012814
 30
0.0
  0
VERTEX
  5
3B53
100
AcDbEntity
  8
DRAW
  6
CONTINUOUS
100
AcDbVertex
100
AcDb2dVertex
 10
114.399105
 20
137.012814
 30
0.0
  0
VERTEX
  5
3B54
100
AcDbEntity
  8
DRAW
  6
CONTINUOUS
100
AcDbVertex
100
AcDb2dVertex
 10
114.399105
 20
133.012814
 30
0.0
  0
SEQEND
  5
3B55
100
AcDbEntity
  8
DRAW
  6
CONTINUOUS
  0
LINE
  5
2F45
100
AcDbEntity
  8
DRAW
  6
CONTINUOUS
100
AcDbLine
 10
112.899439
 20
147.512266
 30
0.0
 11
108.899105
 21
147.512265
 31
0.0
  0
LINE
  5
2F46
100
AcDbEntity
  8
DRAW
  6
CONTINUOUS
100
AcDbLine
 10
111.59949
 20
150.012248
 30
0.0
 11
111.599484
 21
147.512144
 31
0.0
  0
LINE
  5
2F47
100
AcDbEntity
  8
DRAW
  6
CONTINUOUS
100
AcDbLine
 10
108.899438
 20
147.512265
 30
0.0
 11
110.499475
 21
150.01225
 31
0.0
  0
LINE
  5
2F48
100
AcDbEntity
  8
DRAW
  6
CONTINUOUS
100
AcDbLine
 10
110.499475
 20
150.01225
 30
0.0
 11
111.599473
 21
150.012248
 31
0.0
  0
LINE
  5
2F49
100
AcDbEntity
  8
DRAW
  6
CONTINUOUS
100
AcDbLine
 10
111.099108
 20
182.51282
 30
0.0
 11
110.563378
 21
180.513429
 31
0.0
  0
LINE
  5
2F4A
100
AcDbEntity
  8
DRAW
  6
CONTINUOUS
100
AcDbLine
 10
108.899105
 20
182.512814
 30
0.0
 11
110.053727
 21
180.512712
 31
0.0
  0
LINE
  5
2F4B
100
AcDbEntity
  8
DRAW
  6
CONTINUOUS
100
AcDbLine
 10
110.563141
 20
180.512544
 30
0.0
 11
110.053727
 21
180.512712
 31
0.0
  0
LINE
  5
2F4C
100
AcDbEntity
  8
DRAW
  6
CONTINUOUS
100
AcDbLine
 10
112.899422
 20
182.512266
 30
0.0
 11
112.899439
 21
147.512266
 31
0.0
  0
LINE
  5
2F4F
100
AcDbEntity
  8
DRAW
  6
CONTINUOUS
100
AcDbLine
 10
111.899423
 20
179.512392
 30
0.0
 11
112.899431
 21
177.512392
 31
0.0
  0
LINE
  5
2F51
100
AcDbEntity
  8
DRAW
  6
CONTINUOUS
100
AcDbLine
 10
111.899423
 20
179.512392
 30
0.0
 11
112.899423
 21
179.512392
 31
0.0
  0
LINE
  5
2F52
100
AcDbEntity
  8
DRAW
  6
CONTINUOUS
100
AcDbLine
 10
112.899422
 20
182.512266
 30
0.0
 11
111.09896
 21
182.512266
 31
0.0
  0
LINE
  5
2F56
100
AcDbEntity
  8
DRAW
  6
CONTINUOUS
100
AcDbLine
 10
108.899105
 20
147.512265
 30
0.0
 11
108.899105
 21
124.012814
 31
0.0
  0
LINE
  5
2F58
100
AcDbEntity
  8
DRAW
  6
CONTINUOUS
100
AcDbLine
 10
54.96289
 20
211.812814
 30
0.0
 11
48.76289
 21
211.812814
 31
0.0
  0
LINE
  5
2F59
100
AcDbEntity
  8
DRAW
  6
CONTINUOUS
100
AcDbLine
 10
54.96289
 20
124.012814
 30
0.0
 11
48.76289
 21
124.012814
 31
0.0
  0
LINE
  5
2F5A
100
AcDbEntity
  8
DRAW
  6
CONTINUOUS
100
AcDbLine
 10
48.76289
 20
124.012814
 30
0.0
 11
48.76289
 21
211.812814
 31
0.0
  0
LINE
  5
2F5B
100
AcDbEntity
  8
DRAW
  6
CONTINUOUS
100
AcDbLine
 10
54.96289
 20
124.012814
 30
0.0
 11
54.96289
 21
211.812814
 31
0.0
  0
CIRCLE
  5
2F5D
100
AcDbEntity
  8
DRAW
  6
CONTINUOUS
100
AcDbCircle
 10
51.86289
 20
144.905198
 30
0.0
 40
1.25
  0
LINE
  5
30F1
100
AcDbEntity
  8
DRAW
  6
CONTINUOUS
100
AcDbLine
 10
54.96289
 20
149.155198
 30
0.0
 11
54.36289
 21
149.155198
 31
0.0
  0
LINE
  5
30F3
100
AcDbEntity
  8
DRAW
  6
CONTINUOUS
100
AcDbLine
 10
49.36289
 20
149.155198
 30
0.0
 11
48.76289
 21
149.155198
 31
0.0
  0
LINE
  5
30F4
100
AcDbEntity
  8
DRAW
  6
CONTINUOUS
100
AcDbLine
 10
54.96289
 20
172.655198
 30
0.0
 11
48.76289
 21
172.655198
 31
0.0
1001
ACAD
1000
ASC_BOUNDS
1002
{
1070
    19
1005
30F9
1002
}
  0
INSERT
  5
30F9
100
AcDbEntity
  8
DRAW
  6
CONTINUOUS
 62
     1
100
AcDbBlockReference
  2
*X12
 10
0.0
 20
0.0
 30
0.0
1001
ACAD
1000
HATCH
1002
{
1070
    19
1000
SWAMP
1040
2.0
1040
0.0
1000
ASC_BOUNDS
1070
     1
1070
     1
1070
     2
1005
2E31
1005
30F4
1000
ASC_SEEDPOINT
1011
52.032897
1021
156.362474
1031
0.0
1000
R14_HATCH_DATA
1000
30F9
1011
1.0
1021
0.0
1031
0.0
1011
0.0
1021
1.0
1031
0.0
1011
0.0
1021
0.0
1031
1.0
1040
0.0
1010
0.0
1020
0.0
1030
1.0
1000
SWAMP
1070
     0
1070
     1
1071
        1
1071
        7
1070
     0
1070
     1
1071
        4
1040
54.36289
1040
172.655198
1040
49.36289
1040
172.655198
1040
49.36289
1040
147.905198
1040
54.36289
1040
147.905198
1071
        2
1005
30F4
1005
2E31
1070
     0
1070
     1
1040
0.0
1040
2.0
1070
     0
1070
     6
1040
0.0
1040
0.0
1040
-20.0
1040
1.0
1040
1.732051
1070
     2
1040
0.25
1040
-1.75
1040
1.570796
1040
0.125
1040
-20.0
1040
-1.0
1040
1.732051
1070
     2
1040
0.125
1040
-3.339102
1040
1.570796
1040
0.15625
1040
-20.0
1040
-1.0
1040
1.732051
1070
     2
1040
0.1
1040
-3.364102
1040
1.570796
1040
0.09375
1040
-20.0
1040
-1.0
1040
1.732051
1070
     2
1040
0.1
1040
-3.364102
1040
1.047198
1040
0.1875
1040
-20.0
1040
-1.0
1040
1.732051
1070
     2
1040
0.08
1040
-1.92
1040
2.094395
1040
0.0625
1040
-20.0
1040
-2.0
1040
0.0
1070
     2
1040
0.08
1040
-1.92
1040
0.163323
1071
        1
1040
52.032897
1040
156.362474
1040
0.0
1002
}
  0
LINE
  5
30FA
100
AcDbEntity
  8
DRAW
  6
CONTINUOUS
100
AcDbLine
 10
54.96289
 20
133.691622
 30
0.0
 11
48.76289
 21
133.691622
 31
0.0
  0
LINE
  5
30FC
100
AcDbEntity
  8
DRAW
  6
CONTINUOUS
100
AcDbLine
 10
54.96289
 20
140.655198
 30
0.0
 11
48.76289
 21
140.655198
 31
0.0
  0
CIRCLE
  5
30FF
100
AcDbEntity
  8
DRAW
  6
CONTINUOUS
100
AcDbCircle
 10
51.86289
 20
138.528435
 30
0.0
 40
1.75
  0
LINE
  5
3101
100
AcDbEntity
  8
DRAW
  6
CONTINUOUS
100
AcDbLine
 10
52.827838
 20
137.068512
 30
0.0
 11
50.402967
 21
139.493383
 31
0.0
  0
LINE
  5
3102
100
AcDbEntity
  8
DRAW
  6
CONTINUOUS
100
AcDbLine
 10
53.322813
 20
137.563487
 30
0.0
 11
50.897941
 21
139.988358
 31
0.0
  0
CIRCLE
  5
3103
100
AcDbEntity
  8
DRAW
  6
CONTINUOUS
100
AcDbCircle
 10
51.86289
 20
138.528435
 30
0.0
 40
1.85
  0
LINE
  5
3104
100
AcDbEntity
  8
DRAW
  6
CONTINUOUS
100
AcDbLine
 10
54.96289
 20
134.691622
 30
0.0
 11
53.96289
 21
134.691622
 31
0.0
  0
LINE
  5
3105
100
AcDbEntity
  8
DRAW
  6
CONTINUOUS
100
AcDbLine
 10
53.96289
 20
133.691622
 30
0.0
 11
53.96289
 21
134.691622
 31
0.0
  0
TEXT
  5
3107
100
AcDbEntity
  8
DRAW-TEXT
  6
CONTINUOUS
100
AcDbText
 10
50.151566
 20
134.291622
 30
0.0
 40
2.0
  1
A1+
 41
0.7
  7
FINDER
 72
     1
 11
51.86289
 21
134.291622
 31
0.0
100
AcDbText
  0
LINE
  5
3109
100
AcDbEntity
  8
DRAW
  6
CONTINUOUS
100
AcDbLine
 10
53.322813
 20
127.884679
 30
0.0
 11
50.897941
 21
130.30955
 31
0.0
  0
CIRCLE
  5
310A
100
AcDbEntity
  8
DRAW
  6
CONTINUOUS
100
AcDbCircle
 10
51.86289
 20
128.849627
 30
0.0
 40
1.75
  0
TEXT
  5
310B
100
AcDbEntity
  8
DRAW-TEXT
  6
CONTINUOUS
100
AcDbText
 10
50.373122
 20
124.612814
 30
0.0
 40
2.0
  1
A2-
 41
0.7
  7
FINDER
 72
     1
 11
51.86289
 21
124.612814
 31
0.0
100
AcDbText
  0
LINE
  5
310C
100
AcDbEntity
  8
DRAW
  6
CONTINUOUS
100
AcDbLine
 10
52.827838
 20
127.389704
 30
0.0
 11
50.402967
 21
129.814575
 31
0.0
  0
LINE
  5
310D
100
AcDbEntity
  8
DRAW
  6
CONTINUOUS
100
AcDbLine
 10
53.96289
 20
124.012814
 30
0.0
 11
53.96289
 21
125.012814
 31
0.0
  0
LINE
  5
310E
100
AcDbEntity
  8
DRAW
  6
CONTINUOUS
100
AcDbLine
 10
54.96289
 20
125.012814
 30
0.0
 11
53.96289
 21
125.012814
 31
0.0
  0
CIRCLE
  5
310F
100
AcDbEntity
  8
DRAW
  6
CONTINUOUS
100
AcDbCircle
 10
51.86289
 20
128.849627
 30
0.0
 40
1.85
  0
LINE
  5
3112
100
AcDbEntity
  8
DRAW
  6
CONTINUOUS
100
AcDbLine
 10
54.96289
 20
184.455198
 30
0.0
 11
48.76289
 21
184.455198
 31
0.0
  0
LINE
  5
3113
100
AcDbEntity
  8
DRAW
  6
CONTINUOUS
100
AcDbLine
 10
54.96289
 20
192.955198
 30
0.0
 11
48.76289
 21
192.955198
 31
0.0
  0
LINE
  5
3114
100
AcDbEntity
  8
DRAW
  6
CONTINUOUS
100
AcDbLine
 10
54.96289
 20
202.634006
 30
0.0
 11
48.76289
 21
202.634006
 31
0.0
  0
CIRCLE
  5
3125
100
AcDbEntity
  8
DRAW
  6
CONTINUOUS
100
AcDbCircle
 10
51.86289
 20
187.618385
 30
0.0
 40
1.85
  0
LINE
  5
3126
100
AcDbEntity
  8
DRAW
  6
CONTINUOUS
100
AcDbLine
 10
52.827838
 20
189.078308
 30
0.0
 11
50.402967
 21
186.653437
 31
0.0
  0
CIRCLE
  5
3127
100
AcDbEntity
  8
DRAW
  6
CONTINUOUS
100
AcDbCircle
 10
51.86289
 20
187.618385
 30
0.0
 40
1.75
  0
LINE
  5
3128
100
AcDbEntity
  8
DRAW
  6
CONTINUOUS
100
AcDbLine
 10
53.322813
 20
188.583333
 30
0.0
 11
50.897941
 21
186.158462
 31
0.0
  0
TEXT
  5
3129
100
AcDbEntity
  8
DRAW-TEXT
  6
CONTINUOUS
100
AcDbText
 10
50.838197
 20
189.847012
 30
0.0
 40
2.0
  1
14
 41
0.7
  7
FINDER
 72
     1
 11
51.86289
 21
189.847012
 31
0.0
100
AcDbText
  0
LINE
  5
312A
100
AcDbEntity
  8
DRAW
  6
CONTINUOUS
100
AcDbLine
 10
54.96289
 20
191.955198
 30
0.0
 11
53.96289
 21
191.955198
 31
0.0
  0
LINE
  5
312B
100
AcDbEntity
  8
DRAW
  6
CONTINUOUS
100
AcDbLine
 10
53.96289
 20
192.955198
 30
0.0
 11
53.96289
 21
191.955198
 31
0.0
  0
CIRCLE
  5
312C
100
AcDbEntity
  8
DRAW
  6
CONTINUOUS
100
AcDbCircle
 10
51.86289
 20
197.297193
 30
0.0
 40
1.85
  0
LINE
  5
312D
100
AcDbEntity
  8
DRAW
  6
CONTINUOUS
100
AcDbLine
 10
52.827838
 20
198.757116
 30
0.0
 11
50.402967
 21
196.332245
 31
0.0
  0
CIRCLE
  5
312E
100
AcDbEntity
  8
DRAW
  6
CONTINUOUS
100
AcDbCircle
 10
51.86289
 20
197.297193
 30
0.0
 40
1.75
  0
LINE
  5
312F
100
AcDbEntity
  8
DRAW
  6
CONTINUOUS
100
AcDbLine
 10
53.322813
 20
198.262141
 30
0.0
 11
50.897941
 21
195.83727
 31
0.0
  0
TEXT
  5
3130
100
AcDbEntity
  8
DRAW-TEXT
  6
CONTINUOUS
100
AcDbText
 10
50.848224
 20
199.52582
 30
0.0
 40
2.0
  1
11
 41
0.7
  7
FINDER
 72
     1
 11
51.86289
 21
199.52582
 31
0.0
100
AcDbText
  0
LINE
  5
3131
100
AcDbEntity
  8
DRAW
  6
CONTINUOUS
100
AcDbLine
 10
54.96289
 20
201.634006
 30
0.0
 11
53.96289
 21
201.634006
 31
0.0
  0
LINE
  5
3132
100
AcDbEntity
  8
DRAW
  6
CONTINUOUS
100
AcDbLine
 10
53.96289
 20
202.634006
 30
0.0
 11
53.96289
 21
201.634006
 31
0.0
  0
CIRCLE
  5
3133
100
AcDbEntity
  8
DRAW
  6
CONTINUOUS
100
AcDbCircle
 10
51.86289
 20
206.976001
 30
0.0
 40
1.85
  0
LINE
  5
3134
100
AcDbEntity
  8
DRAW
  6
CONTINUOUS
100
AcDbLine
 10
52.827838
 20
208.435924
 30
0.0
 11
50.402967
 21
206.011053
 31
0.0
  0
CIRCLE
  5
3135
100
AcDbEntity
  8
DRAW
  6
CONTINUOUS
100
AcDbCircle
 10
51.86289
 20
206.976001
 30
0.0
 40
1.75
  0
LINE
  5
3136
100
AcDbEntity
  8
DRAW
  6
CONTINUOUS
100
AcDbLine
 10
53.322813
 20
207.94095
 30
0.0
 11
50.897941
 21
205.516078
 31
0.0
  0
TEXT
  5
3137
100
AcDbEntity
  8
DRAW-TEXT
  6
CONTINUOUS
100
AcDbText
 10
50.842494
 20
209.204629
 30
0.0
 40
2.0
  1
12
 41
0.7
  7
FINDER
 72
     1
 11
51.86289
 21
209.204629
 31
0.0
100
AcDbText
  0
LINE
  5
3138
100
AcDbEntity
  8
DRAW
  6
CONTINUOUS
100
AcDbLine
 10
54.96289
 20
210.812814
 30
0.0
 11
53.96289
 21
210.812814
 31
0.0
  0
LINE
  5
3139
100
AcDbEntity
  8
DRAW
  6
CONTINUOUS
100
AcDbLine
 10
53.96289
 20
211.812814
 30
0.0
 11
53.96289
 21
210.812814
 31
0.0
  0
LINE
  5
313B
100
AcDbEntity
  8
DRAW
  6
CONTINUOUS
100
AcDbLine
 10
54.96289
 20
182.640608
 30
0.0
 11
48.76289
 21
182.640608
 31
0.0
  0
LINE
  5
313C
100
AcDbEntity
  8
DRAW
  6
CONTINUOUS
100
AcDbLine
 10
54.96289
 20
176.155198
 30
0.0
 11
48.76289
 21
176.155198
 31
0.0
  0
LINE
  5
313D
100
AcDbEntity
  8
DRAW
  6
CONTINUOUS
100
AcDbLine
 10
54.96289
 20
181.655198
 30
0.0
 11
48.76289
 21
181.655198
 31
0.0
  0
LINE
  5
313E
100
AcDbEntity
  8
DRAW
  6
CONTINUOUS
100
AcDbLine
 10
54.96289
 20
176.955198
 30
0.0
 11
48.76289
 21
176.955198
 31
0.0
  0
LINE
  5
3140
100
AcDbEntity
  8
DRAW
  6
CONTINUOUS
100
AcDbLine
 10
54.96289
 20
180.205198
 30
0.0
 11
48.76289
 21
180.205198
 31
0.0
  0
LINE
  5
3141
100
AcDbEntity
  8
DRAW
  6
CONTINUOUS
100
AcDbLine
 10
54.96289
 20
179.905198
 30
0.0
 11
48.76289
 21
179.905198
 31
0.0
  0
LINE
  5
3142
100
AcDbEntity
  8
DRAW
  6
CONTINUOUS
100
AcDbLine
 10
54.96289
 20
178.405198
 30
0.0
 11
48.76289
 21
178.405198
 31
0.0
  0
LINE
  5
3143
100
AcDbEntity
  8
DRAW
  6
CONTINUOUS
100
AcDbLine
 10
54.96289
 20
177.905198
 30
0.0
 11
48.76289
 21
177.905198
 31
0.0
  0
LINE
  5
3144
100
AcDbEntity
  8
DRAW
  6
CONTINUOUS
100
AcDbLine
 10
54.96289
 20
173.655198
 30
0.0
 11
48.76289
 21
173.655198
 31
0.0
  0
DIMENSION
  5
3153
100
AcDbEntity
  8
DIM
  6
CONTINUOUS
100
AcDbDimension
  2
*D0
 10
54.96289
 20
216.8
 30
0.0
 11
51.86289
 21
218.544031
 31
0.0
 12
0.0
 22
-20.2
 32
0.0
 70
    32
  3
FINDER
100
AcDbAlignedDimension
 13
48.76289
 23
211.812814
 33
0.0
 14
54.96289
 24
211.812814
 34
0.0
100
AcDbRotatedDimension
  0
DIMENSION
  5
3160
100
AcDbEntity
  8
DIM
  6
CONTINUOUS
100
AcDbDimension
  2
*D1
 10
43.0
 20
124.012814
 30
0.0
 11
41.455355
 21
167.662814
 31
0.0
 70
    32
  3
FINDER
100
AcDbAlignedDimension
 13
48.76289
 23
211.312814
 33
0.0
 14
48.76289
 24
124.012814
 34
0.0
 50
90.0
100
AcDbRotatedDimension
  0
DIMENSION
  5
316D
100
AcDbEntity
  8
DIM
  6
CONTINUOUS
100
AcDbDimension
  2
*D2
 10
184.499105
 20
216.8
 30
0.0
 11
146.699105
 21
218.344031
 31
0.0
 70
    32
  3
FINDER
100
AcDbAlignedDimension
 13
108.899105
 23
211.312814
 33
0.0
 14
184.499105
 24
173.655198
 34
0.0
100
AcDbRotatedDimension
  0
ARC
  5
316E
100
AcDbEntity
  8
DRAW
  6
CONTINUOUS
100
AcDbCircle
 10
124.599105
 20
211.512814
 30
0.0
 40
0.3
100
AcDbArc
 50
0.0
 51
90.0
  0
ARC
  5
316F
100
AcDbEntity
  8
DRAW
  6
CONTINUOUS
100
AcDbCircle
 10
144.027582
 20
202.334006
 30
0.0
 40
0.3
100
AcDbArc
 50
0.0
 51
90.0
  0
ARC
  5
3170
100
AcDbEntity
  8
DRAW
  6
CONTINUOUS
100
AcDbCircle
 10
163.456059
 20
192.655198
 30
0.0
 40
0.3
100
AcDbArc
 50
0.0
 51
90.0
  0
ARC
  5
3171
100
AcDbEntity
  8
DRAW
  6
CONTINUOUS
100
AcDbCircle
 10
144.027582
 20
124.312814
 30
0.0
 40
0.3
100
AcDbArc
 50
270.0
 51
0.0
  0
ARC
  5
3172
100
AcDbEntity
  8
DRAW
  6
CONTINUOUS
100
AcDbCircle
 10
163.456059
 20
133.991622
 30
0.0
 40
0.3
100
AcDbArc
 50
270.0
 51
0.0
  0
ARC
  5
3173
100
AcDbEntity
  8
DRAW
  6
CONTINUOUS
100
AcDbCircle
 10
148.056059
 20
134.491622
 30
0.0
 40
0.3
100
AcDbArc
 50
180.0
 51
270.0
  0
ARC
  5
3174
100
AcDbEntity
  8
DRAW
  6
CONTINUOUS
100
AcDbCircle
 10
128.627582
 20
124.812814
 30
0.0
 40
0.3
100
AcDbArc
 50
180.0
 51
270.0
  0
ARC
  5
3175
100
AcDbEntity
  8
DRAW
  6
CONTINUOUS
100
AcDbCircle
 10
120.199105
 20
124.312814
 30
0.0
 40
0.3
100
AcDbArc
 50
180.0
 51
270.0
  0
ARC
  5
3176
100
AcDbEntity
  8
DRAW
  6
CONTINUOUS
100
AcDbCircle
 10
128.627582
 20
201.834006
 30
0.0
 40
0.3
100
AcDbArc
 50
90.0
 51
180.0
  0
ARC
  5
3177
100
AcDbEntity
  8
DRAW
  6
CONTINUOUS
100
AcDbCircle
 10
148.056059
 20
192.155198
 30
0.0
 40
0.3
100
AcDbArc
 50
90.0
 51
180.0
  0
LINE
  5
317C
100
AcDbEntity
  8
DRAW
  6
CONTINUOUS
100
AcDbLine
 10
113.899422
 20
176.012266
 30
0.0
 11
113.899422
 21
172.012266
 31
0.0
  0
LINE
  5
317D
100
AcDbEntity
  8
DRAW
  6
CONTINUOUS
100
AcDbLine
 10
112.899422
 20
172.012266
 30
0.0
 11
113.899422
 21
172.012266
 31
0.0
  0
LINE
  5
317E
100
AcDbEntity
  8
DRAW
  6
CONTINUOUS
100
AcDbLine
 10
112.899422
 20
176.012266
 30
0.0
 11
113.899422
 21
176.012266
 31
0.0
  0
LINE
  5
317F
100
AcDbEntity
  8
DRAW
  6
CONTINUOUS
100
AcDbLine
 10
112.899422
 20
155.012266
 30
0.0
 11
113.899422
 21
155.012266
 31
0.0
  0
LINE
  5
3180
100
AcDbEntity
  8
DRAW
  6
CONTINUOUS
100
AcDbLine
 10
112.899422
 20
159.012266
 30
0.0
 11
113.899422
 21
159.012266
 31
0.0
  0
LINE
  5
3181
100
AcDbEntity
  8
DRAW
  6
CONTINUOUS
100
AcDbLine
 10
113.899422
 20
159.012266
 30
0.0
 11
113.899422
 21
155.012266
 31
0.0
  0
POLYLINE
  5
3182
100
AcDbEntity
  8
DRAW
  6
CONTINUOUS
100
AcDb2dPolyline
 66
     1
 10
0.0
 20
0.0
 30
0.0
 70
     1
  0
VERTEX
  5
3C37
100
AcDbEntity
  8
DRAW
  6
CONTINUOUS
100
AcDbVertex
100
AcDb2dVertex
 10
161.756059
 20
156.155198
 30
0.0
  0
VERTEX
  5
3C38
100
AcDbEntity
  8
DRAW
  6
CONTINUOUS
100
AcDbVertex
100
AcDb2dVertex
 10
161.756059
 20
160.155198
 30
0.0
  0
VERTEX
  5
3C39
100
AcDbEntity
  8
DRAW
  6
CONTINUOUS
100
AcDbVertex
100
AcDb2dVertex
 10
162.756059
 20
160.155198
 30
0.0
  0
VERTEX
  5
3C3A
100
AcDbEntity
  8
DRAW
  6
CONTINUOUS
100
AcDbVertex
100
AcDb2dVertex
 10
162.756059
 20
156.155198
 30
0.0
  0
SEQEND
  5
3C3B
100
AcDbEntity
  8
DRAW
  6
CONTINUOUS
  0
CIRCLE
  5
3183
100
AcDbEntity
  8
DRAW
  6
CONTINUOUS
100
AcDbCircle
 10
161.756059
 20
177.155198
 30
0.0
 40
1.0
  0
TEXT
  5
31DB
100
AcDbEntity
  8
DRAW-TEXT
  6
CONTINUOUS
100
AcDbText
 10
50.689697
 20
141.255198
 30
0.0
 40
2.0
  1
V=
 41
0.7
  7
FINDER
 72
     1
 11
51.86289
 21
141.255198
 31
0.0
100
AcDbText
  0
TEXT
  5
31DC
100
AcDbEntity
  8
DRAW-TEXT
  6
CONTINUOUS
100
AcDbText
 10
50.194268
 20
146.547012
 30
0.0
 40
1.2
  1
6-24
  7
FINDER
 72
     1
 11
51.86289
 21
146.547012
 31
0.0
100
AcDbText
  0
ENDSEC
  0
SECTION
  2
OBJECTS
  0
DICTIONARY
  5
1A
100
AcDbDictionary
  3
ACAD_GROUP
350
18
  3
ACAD_MLINESTYLE
350
19
  3
ACDBVARIABLEDICTIONARY
350
2CA6
  0
DICTIONARY
  5
18
102
{ACAD_REACTORS
330
1A
102
}
100
AcDbDictionary
  0
DICTIONARY
  5
19
102
{ACAD_REACTORS
330
1A
102
}
100
AcDbDictionary
  3
STANDARD
350
1C
  0
DICTIONARY
  5
2CA6
102
{ACAD_REACTORS
330
1A
102
}
100
AcDbDictionary
  3
SORTENTS
350
2CA7
  0
MLINESTYLE
  5
1C
102
{ACAD_REACTORS
330
19
102
}
100
AcDbMlineStyle
  2
STANDARD
 70
     0
  3

 62
     0
 51
90.0
 52
90.0
 71
     2
 49
0.5
 62
   256
  6
BYLAYER
 49
-0.5
 62
   256
  6
BYLAYER
  0
DICTIONARYVAR
  5
2CA7
102
{ACAD_REACTORS
330
2CA6
102
}
100
DictionaryVariables
280
     0
  1
96
  0
ENDSEC
  0
EOF
