  0
SECTION
  2
HEADER
  9
$ACADVER
  1
AC1012
  9
$DWGCODEPAGE
  3
ANSI_1252
  9
$INSBASE
 10
0.0
 20
0.0
 30
0.0
  9
$EXTMIN
 10
5.0
 20
5.0
 30
0.0
  9
$EXTMAX
 10
205.000037
 20
292.0001829999999
 30
0.0
  9
$LIMMIN
 10
0.0
 20
0.0
  9
$LIMMAX
 10
210.0
 20
296.0
  9
$ORTHOMODE
 70
     1
  9
$REGENMODE
 70
     1
  9
$FILLMODE
 70
     1
  9
$QTEXTMODE
 70
     0
  9
$MIRRTEXT
 70
     0
  9
$DRAGMODE
 70
     2
  9
$LTSCALE
 40
0.5
  9
$OSMODE
 70
    37
  9
$ATTMODE
 70
     1
  9
$TEXTSIZE
 40
0.2
  9
$TRACEWID
 40
0.05
  9
$TEXTSTYLE
  7
FINDER
  9
$CLAYER
  8
0
  9
$CELTYPE
  6
CONTINUOUS
  9
$CECOLOR
 62
   256
  9
$CELTSCALE
 40
1.0
  9
$DELOBJ
 70
     1
  9
$DISPSILH
 70
     0
  9
$DIMSCALE
 40
1.0
  9
$DIMASZ
 40
2.5
  9
$DIMEXO
 40
2.0
  9
$DIMDLI
 40
6.5
  9
$DIMRND
 40
0.0
  9
$DIMDLE
 40
0.0
  9
$DIMEXE
 40
1.25
  9
$DIMTP
 40
0.0
  9
$DIMTM
 40
0.0
  9
$DIMTXT
 40
3.5
  9
$DIMCEN
 40
2.5
  9
$DIMTSZ
 40
0.0
  9
$DIMTOL
 70
     0
  9
$DIMLIM
 70
     0
  9
$DIMTIH
 70
     0
  9
$DIMTOH
 70
     0
  9
$DIMSE1
 70
     0
  9
$DIMSE2
 70
     0
  9
$DIMTAD
 70
     1
  9
$DIMZIN
 70
     8
  9
$DIMBLK
  1

  9
$DIMASO
 70
     1
  9
$DIMSHO
 70
     1
  9
$DIMPOST
  1

  9
$DIMAPOST
  1

  9
$DIMALT
 70
     0
  9
$DIMALTD
 70
     3
  9
$DIMALTF
 40
0.03937
  9
$DIMLFAC
 40
1.0
  9
$DIMTOFL
 70
     1
  9
$DIMTVP
 40
0.0
  9
$DIMTIX
 70
     0
  9
$DIMSOXD
 70
     0
  9
$DIMSAH
 70
     0
  9
$DIMBLK1
  1

  9
$DIMBLK2
  1

  9
$DIMSTYLE
  2
FINDER
  9
$DIMCLRD
 70
   256
  9
$DIMCLRE
 70
   256
  9
$DIMCLRT
 70
     2
  9
$DIMTFAC
 40
1.0
  9
$DIMGAP
 40
0.625
  9
$DIMJUST
 70
     0
  9
$DIMSD1
 70
     0
  9
$DIMSD2
 70
     0
  9
$DIMTOLJ
 70
     0
  9
$DIMTZIN
 70
     8
  9
$DIMALTZ
 70
     0
  9
$DIMALTTZ
 70
     0
  9
$DIMFIT
 70
     3
  9
$DIMUPT
 70
     0
  9
$DIMUNIT
 70
     2
  9
$DIMDEC
 70
     2
  9
$DIMTDEC
 70
     2
  9
$DIMALTU
 70
     2
  9
$DIMALTTD
 70
     3
  9
$DIMTXSTY
  7
FINDER
  9
$DIMAUNIT
 70
     0
  9
$LUNITS
 70
     2
  9
$LUPREC
 70
     4
  9
$SKETCHINC
 40
0.1
  9
$FILLETRAD
 40
0.5
  9
$AUNITS
 70
     0
  9
$AUPREC
 70
     3
  9
$MENU
  1
acad
  9
$ELEVATION
 40
0.0
  9
$PELEVATION
 40
0.0
  9
$THICKNESS
 40
0.0
  9
$LIMCHECK
 70
     0
  9
$BLIPMODE
 70
     0
  9
$CHAMFERA
 40
0.0
  9
$CHAMFERB
 40
0.0
  9
$CHAMFERC
 40
0.0
  9
$CHAMFERD
 40
0.0
  9
$SKPOLY
 70
     0
  9
$TDCREATE
 40
2451901.420981018
  9
$TDUPDATE
 40
2453881.371103507
  9
$TDINDWG
 40
0.5014625347
  9
$TDUSRTIMER
 40
0.5014618056
  9
$USRTIMER
 70
     1
  9
$ANGBASE
 50
0.0
  9
$ANGDIR
 70
     0
  9
$PDMODE
 70
     0
  9
$PDSIZE
 40
0.0
  9
$PLINEWID
 40
0.0
  9
$COORDS
 70
     1
  9
$SPLFRAME
 70
     0
  9
$SPLINETYPE
 70
     6
  9
$SPLINESEGS
 70
     8
  9
$ATTDIA
 70
     0
  9
$ATTREQ
 70
     1
  9
$HANDLING
 70
 22529
  9
$HANDSEED
  5
3CA1
  9
$SURFTAB1
 70
     6
  9
$SURFTAB2
 70
     6
  9
$SURFTYPE
 70
     6
  9
$SURFU
 70
     6
  9
$SURFV
 70
     6
  9
$UCSNAME
  2

  9
$UCSORG
 10
0.0
 20
0.0
 30
0.0
  9
$UCSXDIR
 10
1.0
 20
0.0
 30
0.0
  9
$UCSYDIR
 10
0.0
 20
1.0
 30
0.0
  9
$PUCSNAME
  2

  9
$PUCSORG
 10
0.0
 20
0.0
 30
0.0
  9
$PUCSXDIR
 10
1.0
 20
0.0
 30
0.0
  9
$PUCSYDIR
 10
0.0
 20
1.0
 30
0.0
  9
$USERI1
 70
     0
  9
$USERI2
 70
     0
  9
$USERI3
 70
     0
  9
$USERI4
 70
     0
  9
$USERI5
 70
     0
  9
$USERR1
 40
0.0
  9
$USERR2
 40
0.0
  9
$USERR3
 40
0.0
  9
$USERR4
 40
0.0
  9
$USERR5
 40
0.0
  9
$WORLDVIEW
 70
     1
  9
$SHADEDGE
 70
     3
  9
$SHADEDIF
 70
    70
  9
$TILEMODE
 70
     1
  9
$MAXACTVP
 70
    16
  9
$PINSBASE
 10
0.0
 20
0.0
 30
0.0
  9
$PLIMCHECK
 70
     0
  9
$PEXTMIN
 10
1.000000000000000E+20
 20
1.000000000000000E+20
 30
1.000000000000000E+20
  9
$PEXTMAX
 10
-1.000000000000000E+20
 20
-1.000000000000000E+20
 30
-1.000000000000000E+20
  9
$PLIMMIN
 10
0.0
 20
0.0
  9
$PLIMMAX
 10
100.0
 20
100.0
  9
$UNITMODE
 70
     0
  9
$VISRETAIN
 70
     0
  9
$PLINEGEN
 70
     1
  9
$PSLTSCALE
 70
     0
  9
$TREEDEPTH
 70
  3020
  9
$PICKSTYLE
 70
     1
  9
$CMLSTYLE
  2
STANDARD
  9
$CMLJUST
 70
     0
  9
$CMLSCALE
 40
1.0
  9
$SAVEIMAGES
 70
     1
  0
ENDSEC
  0
SECTION
  2
CLASSES
  0
CLASS
  1
LWPOLYLINE
  2
AcDbPolyline
  3
AutoCAD 2000
 90
    32768
280
     0
281
     1
  0
CLASS
  1
IMAGE
  2
AcDbRasterImage
  3
ISM
 90
    32895
280
     0
281
     1
  0
CLASS
  1
OLE2FRAME
  2
AcDbOle2Frame
  3
AutoCAD 2000
 90
    32768
280
     0
281
     1
  0
CLASS
  1
HATCH
  2
AcDbHatch
  3
AutoCAD 2000
 90
    32768
280
     0
281
     1
  0
CLASS
  1
DICTIONARYVAR
  2
AcDbDictionaryVar
  3
AutoCAD 2000
 90
    32768
280
     0
281
     0
  0
CLASS
  1
RASTERVARIABLES
  2
AcDbRasterVariables
  3
ISM
 90
    32768
280
     0
281
     0
  0
CLASS
  1
IMAGEDEF
  2
AcDbRasterImageDef
  3
ISM
 90
    32768
280
     0
281
     0
  0
CLASS
  1
IMAGEDEF_REACTOR
  2
AcDbRasterImageDefReactor
  3
ISM
 90
    32769
280
     0
281
     0
  0
CLASS
  1
SPATIAL_FILTER
  2
AcDbSpatialFilter
  3
AutoCAD 2000
 90
    32768
280
     0
281
     0
  0
CLASS
  1
XRECORD
  2
AcDbXrecord
  3
AutoCAD 2000
 90
    32768
280
     0
281
     0
  0
CLASS
  1
SORTENTSTABLE
  2
AcDbSortentsTable
  3
AutoCAD 2000
 90
    32768
280
     0
281
     0
  0
CLASS
  1
LAYER_INDEX
  2
AcDbLayerIndex
  3
AutoCAD 2000
 90
    32768
280
     0
281
     0
  0
CLASS
  1
SPATIAL_INDEX
  2
AcDbSpatialIndex
  3
AutoCAD 2000
 90
    32768
280
     0
281
     0
  0
CLASS
  1
OBJECT_PTR
  2
CAseDLPNTableRecord
  3
ASE-LPNTableRecord
 90
    32769
280
     0
281
     0
  0
CLASS
  1
LAYOUT
  2
AcDbLayout
  3
AutoCAD 2000
 90
    32768
280
     0
281
     0
  0
CLASS
  1
PLOTSETTINGS
  2
AcDbPlotSettings
  3
AutoCAD 2000
 90
    32768
280
     0
281
     0
  0
CLASS
  1
ACDBDICTIONARYWDFLT
  2
AcDbDictionaryWithDefault
  3
AutoCAD 2000
 90
    32768
280
     0
281
     0
  0
CLASS
  1
ACDBPLACEHOLDER
  2
AcDbPlaceHolder
  3
AutoCAD 2000
 90
    32768
280
     0
281
     0
  0
CLASS
  1
VBA_PROJECT
  2
AcDbVbaProject
  3
"acadvba"
 90
    32769
280
     0
281
     0
  0
CLASS
  1
WIPEOUT
  2
AcDbWipeout
  3
WipeOut|AutoCAD Express Tool|expresstools@autodesk.com
 90
    32895
280
     0
281
     1
  0
CLASS
  1
WIPEOUTVARIABLES
  2
AcDbWipeoutVariables
  3
WipeOut|AutoCAD Express Tool|expresstools@autodesk.com
 90
    32768
280
     0
281
     0
  0
CLASS
  1
RTEXT
  2
RText
  3
RText|AutoCAD Express Tool|expresstools@autodesk.com
 90
    32768
280
     0
281
     1
  0
CLASS
  1
ARCALIGNEDTEXT
  2
AcDbArcAlignedText
  3
ATEXT|AutoCAD Express Tool|expresstools@autodesk.com
 90
    32768
280
     0
281
     1
  0
CLASS
  1
LONG_TRANSACTION
  2
AcDbLongTransaction
  3
AutoCAD 2000
 90
    32768
280
     0
281
     0
  0
CLASS
  1
LWPOLYLINE
  2
AcDbPolyline
  3
AutoCAD 2000
 90
    32768
280
     0
281
     1
  0
CLASS
  1
HATCH
  2
AcDbHatch
  3
AutoCAD 2000
 90
    32768
280
     0
281
     1
  0
CLASS
  1
XRECORD
  2
AcDbXrecord
  3
AutoCAD 2000
 90
    32768
280
     0
281
     0
  0
ENDSEC
  0
SECTION
  2
TABLES
  0
TABLE
  2
VPORT
  5
7
330
0
100
AcDbSymbolTable
 70
     2
  0
VPORT
  5
3C96
330
7
100
AcDbSymbolTableRecord
100
AcDbViewportTableRecord
  2
*ACTIVE
 70
     0
 10
0.0
 20
0.0
 11
1.0
 21
1.0
 12
105.7815946008412
 22
148.0
 13
0.0
 23
0.0
 14
1.0
 24
1.0
 15
2.0
 25
2.0
 16
0.0
 26
0.0
 36
1.0
 17
0.0
 27
0.0
 37
0.0
 40
298.1738066095471
 41
1.627791563275434
 42
50.0
 43
0.0
 44
0.0
 50
0.0
 51
0.0
 71
     0
 72
   100
 73
     1
 74
     1
 75
     0
 76
     0
 77
     0
 78
     0
  0
ENDTAB
  0
TABLE
  2
LTYPE
  5
4
330
0
100
AcDbSymbolTable
 70
     2
  0
LTYPE
  5
11
330
4
100
AcDbSymbolTableRecord
100
AcDbLinetypeTableRecord
  2
BYBLOCK
 70
     0
  3

 72
    65
 73
     0
 40
0.0
  0
LTYPE
  5
12
330
4
100
AcDbSymbolTableRecord
100
AcDbLinetypeTableRecord
  2
BYLAYER
 70
     0
  3

 72
    65
 73
     0
 40
0.0
  0
LTYPE
  5
13
330
4
100
AcDbSymbolTableRecord
100
AcDbLinetypeTableRecord
  2
CONTINUOUS
 70
     0
  3
Solid line
 72
    65
 73
     0
 40
0.0
  0
LTYPE
  5
361D
330
4
100
AcDbSymbolTableRecord
100
AcDbLinetypeTableRecord
  2
HIDDEN2
 70
     0
  3

 72
    65
 73
     2
 40
4.749799928665161
 49
3.174999952316284
 74
     0
 49
-1.587499976158142
 74
     0
  0
ENDTAB
  0
TABLE
  2
LAYER
  5
2
330
0
100
AcDbSymbolTable
 70
     6
  0
LAYER
  5
14
330
2
100
AcDbSymbolTableRecord
100
AcDbLayerTableRecord
  2
0
 70
     0
 62
     7
  6
CONTINUOUS
  0
LAYER
  5
B1
330
2
100
AcDbSymbolTableRecord
100
AcDbLayerTableRecord
  2
DIM
 70
     0
 62
     3
  6
CONTINUOUS
  0
LAYER
  5
B2
330
2
100
AcDbSymbolTableRecord
100
AcDbLayerTableRecord
  2
DRAW
 70
     0
 62
     7
  6
CONTINUOUS
  0
LAYER
  5
B3
330
2
100
AcDbSymbolTableRecord
100
AcDbLayerTableRecord
  2
CARTOUCHE
 70
     0
 62
     7
  6
CONTINUOUS
  0
LAYER
  5
B4
330
2
100
AcDbSymbolTableRecord
100
AcDbLayerTableRecord
  2
DRAW-TEXT
 70
     0
 62
     1
  6
CONTINUOUS
  0
LAYER
  5
29B1
330
2
100
AcDbSymbolTableRecord
100
AcDbLayerTableRecord
  2
DEFPOINTS
 70
     0
 62
     7
  6
CONTINUOUS
  0
ENDTAB
  0
TABLE
  2
STYLE
  5
3
330
0
100
AcDbSymbolTable
 70
     4
  0
STYLE
  5
17
330
3
100
AcDbSymbolTableRecord
100
AcDbTextStyleTableRecord
  2
STANDARD
 70
     0
 40
0.0
 41
1.0
 50
0.0
 71
     0
 42
0.2
  3
txt
  4

  0
STYLE
  5
BE
330
3
100
AcDbSymbolTableRecord
100
AcDbTextStyleTableRecord
  2
FINDER
 70
     0
 40
1.8
 41
1.0
 50
0.0
 71
     0
 42
0.2
  3
ARIAL.TTF
  4

1001
ACAD
1000
Arial
1071
       34
  0
STYLE
  5
361E
330
3
100
AcDbSymbolTableRecord
100
AcDbTextStyleTableRecord
  2
TSTYLE5
 70
     0
 40
1.299999952316284
 41
0.95
 50
0.0
 71
     0
 42
0.2
  3
ARIAL.TTF
  4

1001
ACAD
1000
Arial
1071
    32000
  0
STYLE
  5
361F
330
3
100
AcDbSymbolTableRecord
100
AcDbTextStyleTableRecord
  2
TSTYLE6
 70
     0
 40
2.0
 41
0.95
 50
0.0
 71
     0
 42
0.2
  3
ARIAL.TTF
  4

1001
ACAD
1000
Arial
1071
    32000
  0
ENDTAB
  0
TABLE
  2
VIEW
  5
5
330
0
100
AcDbSymbolTable
 70
     0
  0
ENDTAB
  0
TABLE
  2
UCS
  5
6
330
0
100
AcDbSymbolTable
 70
     0
  0
ENDTAB
  0
TABLE
  2
APPID
  5
8
330
0
100
AcDbSymbolTable
 70
     1
  0
APPID
  5
16
330
8
100
AcDbSymbolTableRecord
100
AcDbRegAppTableRecord
  2
ACAD
 70
     0
  0
ENDTAB
  0
TABLE
  2
DIMSTYLE
  5
9
330
0
100
AcDbSymbolTable
 70
     5
  0
DIMSTYLE
105
18
330
9
100
AcDbSymbolTableRecord
100
AcDbDimStyleTableRecord
  2
STANDARD
 70
     0
  3

  4

  5

  6

  7

 40
1.0
 41
0.18
 42
0.0625
 43
0.38
 44
0.18
 45
0.0
 46
0.0
 47
0.0
 48
0.0
140
0.18
141
0.09
142
0.0
143
25.4
144
1.0
145
0.0
146
1.0
147
0.09
 71
     0
 72
     0
 73
     1
 74
     1
 75
     0
 76
     0
 77
     0
 78
     0
170
     0
171
     2
172
     0
173
     0
174
     0
175
     0
176
     0
177
     0
178
     0
270
     2
271
     4
272
     4
273
     2
274
     2
340
17
275
     0
280
     0
281
     0
282
     0
283
     1
284
     0
285
     0
286
     0
287
     3
288
     0
  0
DIMSTYLE
105
D1
330
9
100
AcDbSymbolTableRecord
100
AcDbDimStyleTableRecord
  2
FINDER
 70
     0
  3

  4

  5

  6

  7

 40
1.0
 41
2.5
 42
2.0
 43
6.5
 44
1.25
 45
0.0
 46
0.0
 47
0.0
 48
0.0
140
3.5
141
2.5
142
0.0
143
0.03937
144
1.0
145
0.0
146
1.0
147
0.625
 71
     0
 72
     0
 73
     0
 74
     0
 75
     0
 76
     0
 77
     1
 78
     8
170
     0
171
     3
172
     1
173
     0
174
     0
175
     0
176
   256
177
   256
178
     2
270
     2
271
     2
272
     2
273
     2
274
     3
340
BE
275
     0
280
     0
281
     0
282
     0
283
     0
284
     8
285
     0
286
     0
287
     3
288
     0
  0
DIMSTYLE
105
3620
102
{ACAD_REACTORS
330
37EE
330
37F0
330
3834
330
38DC
330
38E8
330
38F0
330
38F1
330
3930
102
}
330
9
100
AcDbSymbolTableRecord
100
AcDbDimStyleTableRecord
  2
DSTYLE1
 70
     0
  3

  4

  5

  6

  7

 40
1.0
 41
2.0
 42
0.3000000116507338
 43
0.38
 44
0.6666666666666666
 45
0.0
 46
0.0
 47
0.0
 48
0.0
140
2.0
141
0.09
142
0.0
143
25.4
144
1.0
145
0.7
146
0.6
147
0.0
 71
     0
 72
     0
 73
     0
 74
     0
 75
     0
 76
     0
 77
     0
 78
     8
170
     0
171
     2
172
     0
173
     0
174
     1
175
     0
176
     0
177
     0
178
     2
270
     2
271
     2
272
     4
273
     2
274
     2
340
361F
275
     0
280
     0
281
     0
282
     0
283
     1
284
     0
285
     0
286
     0
287
     3
288
     0
  0
DIMSTYLE
105
3621
102
{ACAD_REACTORS
330
37ED
330
37EF
330
37F1
330
38DB
102
}
330
9
100
AcDbSymbolTableRecord
100
AcDbDimStyleTableRecord
  2
DSTYLE2
 70
     0
  3

  4

  5

  6

  7

 40
1.0
 41
2.0
 42
0.300000027082642
 43
0.38
 44
0.6666666666666666
 45
0.0
 46
0.0
 47
0.0
 48
0.0
140
2.0
141
0.09
142
0.0
143
25.4
144
1.0
145
0.7
146
0.6
147
0.0
 71
     0
 72
     0
 73
     0
 74
     0
 75
     0
 76
     0
 77
     0
 78
     8
170
     0
171
     2
172
     0
173
     0
174
     1
175
     0
176
     0
177
     0
178
     2
270
     2
271
     3
272
     4
273
     2
274
     2
340
361F
275
     0
280
     0
281
     0
282
     0
283
     1
284
     0
285
     0
286
     0
287
     3
288
     0
  0
DIMSTYLE
105
3622
102
{ACAD_REACTORS
330
37EC
330
3835
102
}
330
9
100
AcDbSymbolTableRecord
100
AcDbDimStyleTableRecord
  2
DSTYLE3
 70
     0
  3

  4

  5

  6

  7

 40
1.0
 41
2.0
 42
0.3000000157743585
 43
0.38
 44
0.6666666666666666
 45
0.0
 46
0.0
 47
0.0
 48
0.0
140
2.0
141
0.09
142
0.0
143
25.4
144
1.0
145
0.7
146
0.6
147
0.0
 71
     0
 72
     0
 73
     0
 74
     0
 75
     0
 76
     0
 77
     0
 78
     8
170
     0
171
     2
172
     0
173
     0
174
     0
175
     0
176
     0
177
     0
178
     2
270
     2
271
     2
272
     4
273
     2
274
     2
340
361F
275
     0
280
     0
281
     0
282
     0
283
     1
284
     0
285
     0
286
     0
287
     3
288
     0
  0
ENDTAB
  0
TABLE
  2
BLOCK_RECORD
  5
1
330
0
100
AcDbSymbolTable
 70
    46
  0
BLOCK_RECORD
  5
A
102
{ACAD_XDICTIONARY
360
3C97
102
}
330
1
100
AcDbSymbolTableRecord
100
AcDbBlockTableRecord
  2
*MODEL_SPACE
  0
BLOCK_RECORD
  5
B
102
{ACAD_XDICTIONARY
360
3C99
102
}
330
1
100
AcDbSymbolTableRecord
100
AcDbBlockTableRecord
  2
*PAPER_SPACE
  0
BLOCK_RECORD
  5
3283
330
1
100
AcDbSymbolTableRecord
100
AcDbBlockTableRecord
  2
*X6
  0
BLOCK_RECORD
  5
3314
330
1
100
AcDbSymbolTableRecord
100
AcDbBlockTableRecord
  2
*X7
  0
BLOCK_RECORD
  5
3334
330
1
100
AcDbSymbolTableRecord
100
AcDbBlockTableRecord
  2
*X8
  0
BLOCK_RECORD
  5
3341
330
1
100
AcDbSymbolTableRecord
100
AcDbBlockTableRecord
  2
*X9
  0
BLOCK_RECORD
  5
3358
330
1
100
AcDbSymbolTableRecord
100
AcDbBlockTableRecord
  2
*X10
  0
BLOCK_RECORD
  5
3382
330
1
100
AcDbSymbolTableRecord
100
AcDbBlockTableRecord
  2
*X11
  0
BLOCK_RECORD
  5
33B1
330
1
100
AcDbSymbolTableRecord
100
AcDbBlockTableRecord
  2
*X12
  0
BLOCK_RECORD
  5
33E4
330
1
100
AcDbSymbolTableRecord
100
AcDbBlockTableRecord
  2
*X13
  0
BLOCK_RECORD
  5
34C1
330
1
100
AcDbSymbolTableRecord
100
AcDbBlockTableRecord
  2
B
  0
BLOCK_RECORD
  5
34D6
330
1
100
AcDbSymbolTableRecord
100
AcDbBlockTableRecord
  2
D
  0
BLOCK_RECORD
  5
3551
330
1
100
AcDbSymbolTableRecord
100
AcDbBlockTableRecord
  2
D1
  0
BLOCK_RECORD
  5
356E
330
1
100
AcDbSymbolTableRecord
100
AcDbBlockTableRecord
  2
NON_RELAZIONATI
  0
BLOCK_RECORD
  5
39B0
330
1
100
AcDbSymbolTableRecord
100
AcDbBlockTableRecord
  2
*D32
  0
BLOCK_RECORD
  5
39BD
330
1
100
AcDbSymbolTableRecord
100
AcDbBlockTableRecord
  2
*D33
  0
BLOCK_RECORD
  5
39C9
330
1
100
AcDbSymbolTableRecord
100
AcDbBlockTableRecord
  2
*D34
  0
BLOCK_RECORD
  5
39D5
330
1
100
AcDbSymbolTableRecord
100
AcDbBlockTableRecord
  2
*D35
  0
BLOCK_RECORD
  5
39E1
330
1
100
AcDbSymbolTableRecord
100
AcDbBlockTableRecord
  2
*D36
  0
BLOCK_RECORD
  5
39ED
330
1
100
AcDbSymbolTableRecord
100
AcDbBlockTableRecord
  2
*D37
  0
BLOCK_RECORD
  5
39F9
330
1
100
AcDbSymbolTableRecord
100
AcDbBlockTableRecord
  2
*D38
  0
BLOCK_RECORD
  5
3A05
330
1
100
AcDbSymbolTableRecord
100
AcDbBlockTableRecord
  2
*D39
  0
BLOCK_RECORD
  5
3A12
330
1
100
AcDbSymbolTableRecord
100
AcDbBlockTableRecord
  2
*D40
  0
BLOCK_RECORD
  5
3A1E
330
1
100
AcDbSymbolTableRecord
100
AcDbBlockTableRecord
  2
*D41
  0
BLOCK_RECORD
  5
3A2A
330
1
100
AcDbSymbolTableRecord
100
AcDbBlockTableRecord
  2
*D42
  0
BLOCK_RECORD
  5
3A36
330
1
100
AcDbSymbolTableRecord
100
AcDbBlockTableRecord
  2
*D43
  0
BLOCK_RECORD
  5
3A43
330
1
100
AcDbSymbolTableRecord
100
AcDbBlockTableRecord
  2
*D44
  0
BLOCK_RECORD
  5
3A50
330
1
100
AcDbSymbolTableRecord
100
AcDbBlockTableRecord
  2
*D45
  0
ENDTAB
  0
ENDSEC
  0
SECTION
  2
BLOCKS
  0
BLOCK
  5
D
330
A
100
AcDbEntity
  8
0
100
AcDbBlockBegin
  2
*MODEL_SPACE
 70
     0
 10
0.0
 20
0.0
 30
0.0
  3
*MODEL_SPACE
  1

  0
ENDBLK
  5
E
330
A
100
AcDbEntity
  8
0
100
AcDbBlockEnd
  0
BLOCK
  5
F
330
B
100
AcDbEntity
 67
     1
  8
0
100
AcDbBlockBegin
  2
*PAPER_SPACE
 70
     0
 10
0.0
 20
0.0
 30
0.0
  3
*PAPER_SPACE
  1

  0
ENDBLK
  5
10
330
B
100
AcDbEntity
 67
     1
  8
0
100
AcDbBlockEnd
  0
BLOCK
  5
3312
330
3283
100
AcDbEntity
  8
0
100
AcDbBlockBegin
  2
*X6
 70
     1
 10
0.0
 20
0.0
 30
0.0
  3
*X6
  1

  0
LINE
  5
3284
330
3283
100
AcDbEntity
  8
0
  6
CONTINUOUS
 62
     0
100
AcDbLine
 10
14.989467
 20
20.308874
 30
0.0
 11
15.516193
 21
20.83559999999999
 31
0.0
  0
LINE
  5
3285
330
3283
100
AcDbEntity
  8
0
  6
CONTINUOUS
 62
     0
100
AcDbLine
 10
14.112517
 20
19.714767
 30
0.0
 11
16.11029999999999
 21
21.71254999999999
 31
0.0
  0
LINE
  5
3286
330
3283
100
AcDbEntity
  8
0
  6
CONTINUOUS
 62
     0
100
AcDbLine
 10
13.596595
 20
19.481687
 30
0.0
 11
16.34338
 21
22.228473
 31
0.0
  0
LINE
  5
3287
330
3283
100
AcDbEntity
  8
0
  6
CONTINUOUS
 62
     0
100
AcDbLine
 10
13.174894
 20
19.342829
 30
0.0
 11
16.482238
 21
22.650174
 31
0.0
  0
LINE
  5
3288
330
3283
100
AcDbEntity
  8
0
  6
CONTINUOUS
 62
     0
100
AcDbLine
 10
12.804844
 20
19.25562199999999
 30
0.0
 11
16.569445
 21
23.020223
 31
0.0
  0
LINE
  5
3289
330
3283
100
AcDbEntity
  8
0
  6
CONTINUOUS
 62
     0
100
AcDbLine
 10
14.79535199999999
 20
21.528973
 30
0.0
 11
16.62213299999999
 21
23.355754
 31
0.0
  0
LINE
  5
328A
330
3283
100
AcDbEntity
  8
0
  6
CONTINUOUS
 62
     0
100
AcDbLine
 10
12.46931299999999
 20
19.202934
 30
0.0
 11
14.296095
 21
21.029715
 31
0.0
  0
LINE
  5
328B
330
3283
100
AcDbEntity
  8
0
  6
CONTINUOUS
 62
     0
100
AcDbLine
 10
15.29353599999999
 20
22.309999
 30
0.0
 11
16.649275
 21
23.665738
 31
0.0
  0
LINE
  5
328C
330
3283
100
AcDbEntity
  8
0
  6
CONTINUOUS
 62
     0
100
AcDbLine
 10
12.159329
 20
19.17579299999999
 30
0.0
 11
13.515068
 21
20.531532
 31
0.0
  0
LINE
  5
328D
330
3283
100
AcDbEntity
  8
0
  6
CONTINUOUS
 62
     0
100
AcDbLine
 10
15.479088
 20
22.77839399999999
 30
0.0
 11
16.656273
 21
23.955579
 31
0.0
  0
LINE
  5
328E
330
3283
100
AcDbEntity
  8
0
  6
CONTINUOUS
 62
     0
100
AcDbLine
 10
11.869488
 20
19.168795
 30
0.0
 11
13.046674
 21
20.34597999999999
 31
0.0
  0
LINE
  5
328F
330
3283
100
AcDbEntity
  8
0
  6
CONTINUOUS
 62
     0
100
AcDbLine
 10
15.580082
 20
23.16223099999999
 30
0.0
 11
16.646682
 21
24.22883099999999
 31
0.0
  0
LINE
  5
3290
330
3283
100
AcDbEntity
  8
0
  6
CONTINUOUS
 62
     0
100
AcDbLine
 10
11.59623599999999
 20
19.178385
 30
0.0
 11
12.662836
 21
20.24498499999999
 31
0.0
  0
LINE
  5
3291
330
3283
100
AcDbEntity
  8
0
  6
CONTINUOUS
 62
     0
100
AcDbLine
 10
12.654531
 20
20.51952299999999
 30
0.0
 11
13.323223
 21
21.188215
 31
0.0
  0
LINE
  5
3292
330
3283
100
AcDbEntity
  8
0
  6
CONTINUOUS
 62
     0
100
AcDbLine
 10
15.634125
 20
23.499117
 30
0.0
 11
16.62298599999999
 21
24.48797799999999
 31
0.0
  0
LINE
  5
3293
330
3283
100
AcDbEntity
  8
0
  6
CONTINUOUS
 62
     0
100
AcDbLine
 10
11.33709
 20
19.202082
 30
0.0
 11
12.325951
 21
20.190943
 31
0.0
  0
LINE
  5
3294
330
3283
100
AcDbEntity
  8
0
  6
CONTINUOUS
 62
     0
100
AcDbLine
 10
12.404347
 20
20.552181
 30
0.0
 11
13.323223
 21
21.471057
 31
0.0
  0
LINE
  5
3295
330
3283
100
AcDbEntity
  8
0
  6
CONTINUOUS
 62
     0
100
AcDbLine
 10
15.656425
 20
23.804259
 30
0.0
 11
16.586997
 21
24.734832
 31
0.0
  0
LINE
  5
3296
330
3283
100
AcDbEntity
  8
0
  6
CONTINUOUS
 62
     0
100
AcDbLine
 10
11.090236
 20
19.23807
 30
0.0
 11
12.020808
 21
20.16864299999999
 31
0.0
  0
LINE
  5
3297
330
3283
100
AcDbEntity
  8
0
  6
CONTINUOUS
 62
     0
100
AcDbLine
 10
12.212553
 20
20.64322999999999
 30
0.0
 11
13.323223
 21
21.7539
 31
0.0
  0
LINE
  5
3298
330
3283
100
AcDbEntity
  8
0
  6
CONTINUOUS
 62
     0
100
AcDbLine
 10
15.65496099999999
 20
24.085639
 30
0.0
 11
16.540085
 21
24.970762
 31
0.0
  0
LINE
  5
3299
330
3283
100
AcDbEntity
  8
0
  6
CONTINUOUS
 62
     0
100
AcDbLine
 10
10.854306
 20
19.284983
 30
0.0
 11
11.73942899999999
 21
20.170106
 31
0.0
  0
LINE
  5
329A
330
3283
100
AcDbEntity
  8
0
  6
CONTINUOUS
 62
     0
100
AcDbLine
 10
12.063213
 20
20.776733
 30
0.0
 11
13.323223
 21
22.03674299999999
 31
0.0
  0
LINE
  5
329B
330
3283
100
AcDbEntity
  8
0
  6
CONTINUOUS
 62
     0
100
AcDbLine
 10
15.634541
 20
24.34806
 30
0.0
 11
16.48330599999999
 21
25.196826
 31
0.0
  0
LINE
  5
329C
330
3283
100
AcDbEntity
  8
0
  6
CONTINUOUS
 62
     0
100
AcDbLine
 10
10.628242
 20
19.34176099999999
 30
0.0
 11
11.477007
 21
20.190527
 31
0.0
  0
LINE
  5
329D
330
3283
100
AcDbEntity
  8
0
  6
CONTINUOUS
 62
     0
100
AcDbLine
 10
11.920447
 20
20.916809
 30
0.0
 11
13.323223
 21
22.319586
 31
0.0
  0
LINE
  5
329E
330
3283
100
AcDbEntity
  8
0
  6
CONTINUOUS
 62
     0
100
AcDbLine
 10
15.598315
 20
24.594678
 30
0.0
 11
16.41749599999999
 21
25.413858
 31
0.0
  0
LINE
  5
329F
330
3283
100
AcDbEntity
  8
0
  6
CONTINUOUS
 62
     0
100
AcDbLine
 10
10.41120899999999
 20
19.407572
 30
0.0
 11
11.23039
 21
20.22675199999999
 31
0.0
  0
LINE
  5
32A0
330
3283
100
AcDbEntity
  8
0
  6
CONTINUOUS
 62
     0
100
AcDbLine
 10
11.77768
 20
21.056886
 30
0.0
 11
13.323223
 21
22.60242799999999
 31
0.0
  0
LINE
  5
32A1
330
3283
100
AcDbEntity
  8
0
  6
CONTINUOUS
 62
     0
100
AcDbLine
 10
15.548478
 20
24.827684
 30
0.0
 11
16.34332099999999
 21
25.622526
 31
0.0
  0
LINE
  5
32A2
330
3283
100
AcDbEntity
  8
0
  6
CONTINUOUS
 62
     0
100
AcDbLine
 10
10.202541
 20
19.481747
 30
0.0
 11
10.997384
 21
20.276589
 31
0.0
  0
LINE
  5
32A3
330
3283
100
AcDbEntity
  8
0
  6
CONTINUOUS
 62
     0
100
AcDbLine
 10
12.362923
 20
21.924971
 30
0.0
 11
13.323223
 21
22.885271
 31
0.0
  0
LINE
  5
32A4
330
3283
100
AcDbEntity
  8
0
  6
CONTINUOUS
 62
     0
100
AcDbLine
 10
11.634914
 20
21.19696199999999
 30
0.0
 11
12.307877
 21
21.869925
 31
0.0
  0
LINE
  5
32A5
330
3283
100
AcDbEntity
  8
0
  6
CONTINUOUS
 62
     0
100
AcDbLine
 10
15.486619
 20
25.048667
 30
0.0
 11
16.26132099999999
 21
25.823369
 31
0.0
  0
LINE
  5
32A6
330
3283
100
AcDbEntity
  8
0
  6
CONTINUOUS
 62
     0
100
AcDbLine
 10
10.001699
 20
19.56374699999999
 30
0.0
 11
10.77640099999999
 21
20.338449
 31
0.0
  0
LINE
  5
32A7
330
3283
100
AcDbEntity
  8
0
  6
CONTINUOUS
 62
     0
100
AcDbLine
 10
12.362923
 20
22.207814
 30
0.0
 11
13.323223
 21
23.168114
 31
0.0
  0
LINE
  5
32A8
330
3283
100
AcDbEntity
  8
0
  6
CONTINUOUS
 62
     0
100
AcDbLine
 10
11.49214799999999
 20
21.33703899999999
 30
0.0
 11
12.172228
 21
22.017119
 31
0.0
  0
LINE
  5
32A9
330
3283
100
AcDbEntity
  8
0
  6
CONTINUOUS
 62
     0
100
AcDbLine
 10
15.41392
 20
25.25881099999999
 30
0.0
 11
16.171934
 21
26.016825
 31
0.0
  0
LINE
  5
32AA
330
3283
100
AcDbEntity
  8
0
  6
CONTINUOUS
 62
     0
100
AcDbLine
 10
9.808242999999999
 20
19.65313399999999
 30
0.0
 11
10.566257
 21
20.411147
 31
0.0
  0
LINE
  5
32AB
330
3283
100
AcDbEntity
  8
0
  6
CONTINUOUS
 62
     0
100
AcDbLine
 10
12.362923
 20
22.490656
 30
0.0
 11
13.323223
 21
23.450956
 31
0.0
  0
LINE
  5
32AC
330
3283
100
AcDbEntity
  8
0
  6
CONTINUOUS
 62
     0
100
AcDbLine
 10
14.38066
 20
24.508394
 30
0.0
 11
14.903943
 21
25.031677
 31
0.0
  0
LINE
  5
32AD
330
3283
100
AcDbEntity
  8
0
  6
CONTINUOUS
 62
     0
100
AcDbLine
 10
11.349382
 20
21.47711499999999
 30
0.0
 11
12.03658
 21
22.16431299999999
 31
0.0
  0
LINE
  5
32AE
330
3283
100
AcDbEntity
  8
0
  6
CONTINUOUS
 62
     0
100
AcDbLine
 10
15.33128299999999
 20
25.459017
 30
0.0
 11
16.07551799999999
 21
26.203251
 31
0.0
  0
LINE
  5
32AF
330
3283
100
AcDbEntity
  8
0
  6
CONTINUOUS
 62
     0
100
AcDbLine
 10
9.621817
 20
19.74954999999999
 30
0.0
 11
10.36605099999999
 21
20.49378399999999
 31
0.0
  0
LINE
  5
32B0
330
3283
100
AcDbEntity
  8
0
  6
CONTINUOUS
 62
     0
100
AcDbLine
 10
12.362923
 20
22.77349899999999
 30
0.0
 11
13.323223
 21
23.73379899999999
 31
0.0
  0
LINE
  5
32B1
330
3283
100
AcDbEntity
  8
0
  6
CONTINUOUS
 62
     0
100
AcDbLine
 10
14.097817
 20
24.508394
 30
0.0
 11
14.840413
 21
25.25098999999999
 31
0.0
  0
LINE
  5
32B2
330
3283
100
AcDbEntity
  8
0
  6
CONTINUOUS
 62
     0
100
AcDbLine
 10
11.206616
 20
21.617192
 30
0.0
 11
11.900931
 21
22.311507
 31
0.0
  0
LINE
  5
32B3
330
3283
100
AcDbEntity
  8
0
  6
CONTINUOUS
 62
     0
100
AcDbLine
 10
15.2394
 20
25.649976
 30
0.0
 11
15.972362
 21
26.382939
 31
0.0
  0
LINE
  5
32B4
330
3283
100
AcDbEntity
  8
0
  6
CONTINUOUS
 62
     0
100
AcDbLine
 10
9.442128999999999
 20
19.852705
 30
0.0
 11
10.175091
 21
20.58566799999999
 31
0.0
  0
LINE
  5
32B5
330
3283
100
AcDbEntity
  8
0
  6
CONTINUOUS
 62
     0
100
AcDbLine
 10
12.362923
 20
23.056342
 30
0.0
 11
13.323223
 21
24.016642
 31
0.0
  0
LINE
  5
32B6
330
3283
100
AcDbEntity
  8
0
  6
CONTINUOUS
 62
     0
100
AcDbLine
 10
13.814975
 20
24.508394
 30
0.0
 11
14.709087
 21
25.402506
 31
0.0
  0
LINE
  5
32B7
330
3283
100
AcDbEntity
  8
0
  6
CONTINUOUS
 62
     0
100
AcDbLine
 10
11.063849
 20
21.757268
 30
0.0
 11
11.765282
 21
22.458701
 31
0.0
  0
LINE
  5
32B8
330
3283
100
AcDbEntity
  8
0
  6
CONTINUOUS
 62
     0
100
AcDbLine
 10
15.13880499999999
 20
25.832223
 30
0.0
 11
15.86270299999999
 21
26.556122
 31
0.0
  0
LINE
  5
32B9
330
3283
100
AcDbEntity
  8
0
  6
CONTINUOUS
 62
     0
100
AcDbLine
 10
9.268945
 20
19.962364
 30
0.0
 11
9.992843999999999
 21
20.686263
 31
0.0
  0
LINE
  5
32BA
330
3283
100
AcDbEntity
  8
0
  6
CONTINUOUS
 62
     0
100
AcDbLine
 10
12.362923
 20
23.339185
 30
0.0
 11
13.323223
 21
24.299485
 31
0.0
  0
LINE
  5
32BB
330
3283
100
AcDbEntity
  8
0
  6
CONTINUOUS
 62
     0
100
AcDbLine
 10
13.532132
 20
24.508394
 30
0.0
 11
14.51689299999999
 21
25.493154
 31
0.0
  0
LINE
  5
32BC
330
3283
100
AcDbEntity
  8
0
  6
CONTINUOUS
 62
     0
100
AcDbLine
 10
10.921083
 20
21.897345
 30
0.0
 11
11.62963399999999
 21
22.605895
 31
0.0
  0
LINE
  5
32BD
330
3283
100
AcDbEntity
  8
0
  6
CONTINUOUS
 62
     0
100
AcDbLine
 10
15.029907
 20
26.006168
 30
0.0
 11
15.74672699999999
 21
26.722988
 31
0.0
  0
LINE
  5
32BE
330
3283
100
AcDbEntity
  8
0
  6
CONTINUOUS
 62
     0
100
AcDbLine
 10
9.102078999999999
 20
20.078341
 30
0.0
 11
9.818899
 21
20.795161
 31
0.0
  0
LINE
  5
32BF
330
3283
100
AcDbEntity
  8
0
  6
CONTINUOUS
 62
     0
100
AcDbLine
 10
12.362923
 20
23.622027
 30
0.0
 11
14.244239
 21
25.503344
 31
0.0
  0
LINE
  5
32C0
330
3283
100
AcDbEntity
  8
0
  6
CONTINUOUS
 62
     0
100
AcDbLine
 10
10.77831699999999
 20
22.03742099999999
 30
0.0
 11
11.49398499999999
 21
22.753089
 31
0.0
  0
LINE
  5
32C1
330
3283
100
AcDbEntity
  8
0
  6
CONTINUOUS
 62
     0
100
AcDbLine
 10
14.913014
 20
26.172119
 30
0.0
 11
15.62457699999999
 21
26.88368099999999
 31
0.0
  0
LINE
  5
32C2
330
3283
100
AcDbEntity
  8
0
  6
CONTINUOUS
 62
     0
100
AcDbLine
 10
8.941385999999999
 20
20.200491
 30
0.0
 11
9.652949000000001
 21
20.91205299999999
 31
0.0
  0
LINE
  5
32C3
330
3283
100
AcDbEntity
  8
0
  6
CONTINUOUS
 62
     0
100
AcDbLine
 10
12.362923
 20
23.90487
 30
0.0
 11
13.96139699999999
 21
25.503344
 31
0.0
  0
LINE
  5
32C4
330
3283
100
AcDbEntity
  8
0
  6
CONTINUOUS
 62
     0
100
AcDbLine
 10
10.635551
 20
22.17749799999999
 30
0.0
 11
11.35833599999999
 21
22.90028299999999
 31
0.0
  0
LINE
  5
32C5
330
3283
100
AcDbEntity
  8
0
  6
CONTINUOUS
 62
     0
100
AcDbLine
 10
14.78835
 20
26.33029699999999
 30
0.0
 11
15.49636
 21
27.038307
 31
0.0
  0
LINE
  5
32C6
330
3283
100
AcDbEntity
  8
0
  6
CONTINUOUS
 62
     0
100
AcDbLine
 10
8.786760000000001
 20
20.328707
 30
0.0
 11
9.494771
 21
21.036718
 31
0.0
  0
LINE
  5
32C7
330
3283
100
AcDbEntity
  8
0
  6
CONTINUOUS
 62
     0
100
AcDbLine
 10
12.362923
 20
24.187713
 30
0.0
 11
13.678554
 21
25.503344
 31
0.0
  0
LINE
  5
32C8
330
3283
100
AcDbEntity
  8
0
  6
CONTINUOUS
 62
     0
100
AcDbLine
 10
10.492785
 20
22.317574
 30
0.0
 11
11.222688
 21
23.047477
 31
0.0
  0
LINE
  5
32C9
330
3283
100
AcDbEntity
  8
0
  6
CONTINUOUS
 62
     0
100
AcDbLine
 10
14.65606
 20
26.48085
 30
0.0
 11
15.362148
 21
27.186938
 31
0.0
  0
LINE
  5
32CA
330
3283
100
AcDbEntity
  8
0
  6
CONTINUOUS
 62
     0
100
AcDbLine
 10
8.63813
 20
20.46291899999999
 30
0.0
 11
9.344217999999999
 21
21.16900799999999
 31
0.0
  0
LINE
  5
32CB
330
3283
100
AcDbEntity
  8
0
  6
CONTINUOUS
 62
     0
100
AcDbLine
 10
12.362923
 20
24.47055499999999
 30
0.0
 11
13.39571099999999
 21
25.503344
 31
0.0
  0
LINE
  5
32CC
330
3283
100
AcDbEntity
  8
0
  6
CONTINUOUS
 62
     0
100
AcDbLine
 10
10.35001799999999
 20
22.457651
 30
0.0
 11
11.087039
 21
23.194672
 31
0.0
  0
LINE
  5
32CD
330
3283
100
AcDbEntity
  8
0
  6
CONTINUOUS
 62
     0
100
AcDbLine
 10
14.51622399999999
 20
26.623856
 30
0.0
 11
15.221979
 21
27.329612
 31
0.0
  0
LINE
  5
32CE
330
3283
100
AcDbEntity
  8
0
  6
CONTINUOUS
 62
     0
100
AcDbLine
 10
8.495455999999999
 20
20.603088
 30
0.0
 11
9.201211
 21
21.308844
 31
0.0
  0
LINE
  5
32CF
330
3283
100
AcDbEntity
  8
0
  6
CONTINUOUS
 62
     0
100
AcDbLine
 10
11.020368
 20
23.410844
 30
0.0
 11
11.41387299999999
 21
23.804348
 31
0.0
  0
LINE
  5
32D0
330
3283
100
AcDbEntity
  8
0
  6
CONTINUOUS
 62
     0
100
AcDbLine
 10
12.362923
 20
24.753398
 30
0.0
 11
13.323223
 21
25.713698
 31
0.0
  0
LINE
  5
32D1
330
3283
100
AcDbEntity
  8
0
  6
CONTINUOUS
 62
     0
100
AcDbLine
 10
10.20725199999999
 20
22.597727
 30
0.0
 11
10.951391
 21
23.341866
 31
0.0
  0
LINE
  5
32D2
330
3283
100
AcDbEntity
  8
0
  6
CONTINUOUS
 62
     0
100
AcDbLine
 10
14.368854
 20
26.75933
 30
0.0
 11
15.07586
 21
27.466336
 31
0.0
  0
LINE
  5
32D3
330
3283
100
AcDbEntity
  8
0
  6
CONTINUOUS
 62
     0
100
AcDbLine
 10
8.358731999999999
 20
20.749207
 30
0.0
 11
9.065737999999999
 21
21.456213
 31
0.0
  0
LINE
  5
32D4
330
3283
100
AcDbEntity
  8
0
  6
CONTINUOUS
 62
     0
100
AcDbLine
 10
12.362923
 20
25.036241
 30
0.0
 11
13.323223
 21
25.996541
 31
0.0
  0
LINE
  5
32D5
330
3283
100
AcDbEntity
  8
0
  6
CONTINUOUS
 62
     0
100
AcDbLine
 10
10.064486
 20
22.737804
 30
0.0
 11
11.41387299999999
 21
24.087191
 31
0.0
  0
LINE
  5
32D6
330
3283
100
AcDbEntity
  8
0
  6
CONTINUOUS
 62
     0
100
AcDbLine
 10
14.213901
 20
26.887219
 30
0.0
 11
14.923766
 21
27.597084
 31
0.0
  0
LINE
  5
32D7
330
3283
100
AcDbEntity
  8
0
  6
CONTINUOUS
 62
     0
100
AcDbLine
 10
8.227983
 20
20.901301
 30
0.0
 11
8.937847999999998
 21
21.611166
 31
0.0
  0
LINE
  5
32D8
330
3283
100
AcDbEntity
  8
0
  6
CONTINUOUS
 62
     0
100
AcDbLine
 10
12.362923
 20
25.319084
 30
0.0
 11
13.323223
 21
26.279384
 31
0.0
  0
LINE
  5
32D9
330
3283
100
AcDbEntity
  8
0
  6
CONTINUOUS
 62
     0
100
AcDbLine
 10
9.92172
 20
22.87787999999999
 30
0.0
 11
11.41387299999999
 21
24.370034
 31
0.0
  0
LINE
  5
32DA
330
3283
100
AcDbEntity
  8
0
  6
CONTINUOUS
 62
     0
100
AcDbLine
 10
14.05124599999999
 20
27.007407
 30
0.0
 11
14.76563999999999
 21
27.7218
 31
0.0
  0
LINE
  5
32DB
330
3283
100
AcDbEntity
  8
0
  6
CONTINUOUS
 62
     0
100
AcDbLine
 10
8.103267
 20
21.059428
 30
0.0
 11
8.81766
 21
21.77382099999999
 31
0.0
  0
LINE
  5
32DC
330
3283
100
AcDbEntity
  8
0
  6
CONTINUOUS
 62
     0
100
AcDbLine
 10
12.362923
 20
25.601926
 30
0.0
 11
13.323223
 21
26.562226
 31
0.0
  0
LINE
  5
32DD
330
3283
100
AcDbEntity
  8
0
  6
CONTINUOUS
 62
     0
100
AcDbLine
 10
9.778953999999998
 20
23.017957
 30
0.0
 11
11.41387299999999
 21
24.652876
 31
0.0
  0
LINE
  5
32DE
330
3283
100
AcDbEntity
  8
0
  6
CONTINUOUS
 62
     0
100
AcDbLine
 10
13.880701
 20
27.119704
 30
0.0
 11
14.601389
 21
27.840392
 31
0.0
  0
LINE
  5
32DF
330
3283
100
AcDbEntity
  8
0
  6
CONTINUOUS
 62
     0
100
AcDbLine
 10
7.984675
 20
21.223678
 30
0.0
 11
8.705363999999999
 21
21.944367
 31
0.0
  0
LINE
  5
32E0
330
3283
100
AcDbEntity
  8
0
  6
CONTINUOUS
 62
     0
100
AcDbLine
 10
12.362923
 20
25.88476899999999
 30
0.0
 11
13.323223
 21
26.845069
 31
0.0
  0
LINE
  5
32E1
330
3283
100
AcDbEntity
  8
0
  6
CONTINUOUS
 62
     0
100
AcDbLine
 10
9.636186999999999
 20
23.158033
 30
0.0
 11
11.41387299999999
 21
24.935719
 31
0.0
  0
LINE
  5
32E2
330
3283
100
AcDbEntity
  8
0
  6
CONTINUOUS
 62
     0
100
AcDbLine
 10
13.701993
 20
27.223839
 30
0.0
 11
14.430886
 21
27.952732
 31
0.0
  0
LINE
  5
32E3
330
3283
100
AcDbEntity
  8
0
  6
CONTINUOUS
 62
     0
100
AcDbLine
 10
7.872335
 20
21.39418099999999
 30
0.0
 11
8.601228
 21
22.12307399999999
 31
0.0
  0
LINE
  5
32E4
330
3283
100
AcDbEntity
  8
0
  6
CONTINUOUS
 62
     0
100
AcDbLine
 10
12.362923
 20
26.167612
 30
0.0
 11
13.323223
 21
27.12791199999999
 31
0.0
  0
LINE
  5
32E5
330
3283
100
AcDbEntity
  8
0
  6
CONTINUOUS
 62
     0
100
AcDbLine
 10
9.493421000000001
 20
23.29811
 30
0.0
 11
11.41387299999999
 21
25.218562
 31
0.0
  0
LINE
  5
32E6
330
3283
100
AcDbEntity
  8
0
  6
CONTINUOUS
 62
     0
100
AcDbLine
 10
13.51476
 20
27.31944799999999
 30
0.0
 11
14.253964
 21
28.058653
 31
0.0
  0
LINE
  5
32E7
330
3283
100
AcDbEntity
  8
0
  6
CONTINUOUS
 62
     0
100
AcDbLine
 10
7.766414999999999
 20
21.571104
 30
0.0
 11
8.505618999999999
 21
22.310308
 31
0.0
  0
LINE
  5
32E8
330
3283
100
AcDbEntity
  8
0
  6
CONTINUOUS
 62
     0
100
AcDbLine
 10
10.46482299999999
 20
24.552354
 30
0.0
 11
11.41387299999999
 21
25.501404
 31
0.0
  0
LINE
  5
32E9
330
3283
100
AcDbEntity
  8
0
  6
CONTINUOUS
 62
     0
100
AcDbLine
 10
9.323311999999999
 20
23.410844
 30
0.0
 11
10.34121199999999
 21
24.428744
 31
0.0
  0
LINE
  5
32EA
330
3283
100
AcDbEntity
  8
0
  6
CONTINUOUS
 62
     0
100
AcDbLine
 10
12.362923
 20
26.45045399999999
 30
0.0
 11
14.07040799999999
 21
28.157939
 31
0.0
  0
LINE
  5
32EB
330
3283
100
AcDbEntity
  8
0
  6
CONTINUOUS
 62
     0
100
AcDbLine
 10
7.667127999999999
 20
21.75466
 30
0.0
 11
8.419014
 21
22.506545
 31
0.0
  0
LINE
  5
32EC
330
3283
100
AcDbEntity
  8
0
  6
CONTINUOUS
 62
     0
100
AcDbLine
 10
10.46482299999999
 20
24.835197
 30
0.0
 11
11.41387299999999
 21
25.784247
 31
0.0
  0
LINE
  5
32ED
330
3283
100
AcDbEntity
  8
0
  6
CONTINUOUS
 62
     0
100
AcDbLine
 10
9.040468999999999
 20
23.410844
 30
0.0
 11
10.058369
 21
24.428744
 31
0.0
  0
LINE
  5
32EE
330
3283
100
AcDbEntity
  8
0
  6
CONTINUOUS
 62
     0
100
AcDbLine
 10
12.362923
 20
26.733297
 30
0.0
 11
13.87995199999999
 21
28.250326
 31
0.0
  0
LINE
  5
32EF
330
3283
100
AcDbEntity
  8
0
  6
CONTINUOUS
 62
     0
100
AcDbLine
 10
7.574741
 20
21.94511599999999
 30
0.0
 11
8.342033999999999
 21
22.712408
 31
0.0
  0
LINE
  5
32F0
330
3283
100
AcDbEntity
  8
0
  6
CONTINUOUS
 62
     0
100
AcDbLine
 10
10.46482299999999
 20
25.11804
 30
0.0
 11
11.41387299999999
 21
26.06709
 31
0.0
  0
LINE
  5
32F1
330
3283
100
AcDbEntity
  8
0
  6
CONTINUOUS
 62
     0
100
AcDbLine
 10
8.757627000000001
 20
23.410844
 30
0.0
 11
9.775527
 21
24.428744
 31
0.0
  0
LINE
  5
32F2
330
3283
100
AcDbEntity
  8
0
  6
CONTINUOUS
 62
     0
100
AcDbLine
 10
12.362923
 20
27.01614
 30
0.0
 11
13.682269
 21
28.335486
 31
0.0
  0
LINE
  5
32F3
330
3283
100
AcDbEntity
  8
0
  6
CONTINUOUS
 62
     0
100
AcDbLine
 10
7.489582
 20
22.142799
 30
0.0
 11
8.275484
 21
22.928701
 31
0.0
  0
LINE
  5
32F4
330
3283
100
AcDbEntity
  8
0
  6
CONTINUOUS
 62
     0
100
AcDbLine
 10
10.46482299999999
 20
25.400883
 30
0.0
 11
11.41387299999999
 21
26.349933
 31
0.0
  0
LINE
  5
32F5
330
3283
100
AcDbEntity
  8
0
  6
CONTINUOUS
 62
     0
100
AcDbLine
 10
8.474783999999999
 20
23.410844
 30
0.0
 11
9.492683999999998
 21
24.428744
 31
0.0
  0
LINE
  5
32F6
330
3283
100
AcDbEntity
  8
0
  6
CONTINUOUS
 62
     0
100
AcDbLine
 10
12.362923
 20
27.298983
 30
0.0
 11
13.47695599999999
 21
28.41301599999999
 31
0.0
  0
LINE
  5
32F7
330
3283
100
AcDbEntity
  8
0
  6
CONTINUOUS
 62
     0
100
AcDbLine
 10
7.412052
 20
22.34811099999999
 30
0.0
 11
8.220416999999999
 21
23.15647699999999
 31
0.0
  0
LINE
  5
32F8
330
3283
100
AcDbEntity
  8
0
  6
CONTINUOUS
 62
     0
100
AcDbLine
 10
10.46482299999999
 20
25.683725
 30
0.0
 11
11.41387299999999
 21
26.63277499999999
 31
0.0
  0
LINE
  5
32F9
330
3283
100
AcDbEntity
  8
0
  6
CONTINUOUS
 62
     0
100
AcDbLine
 10
8.191940999999999
 20
23.410844
 30
0.0
 11
9.209841
 21
24.428744
 31
0.0
  0
LINE
  5
32FA
330
3283
100
AcDbEntity
  8
0
  6
CONTINUOUS
 62
     0
100
AcDbLine
 10
12.362923
 20
27.581825
 30
0.0
 11
13.26352
 21
28.48242299999999
 31
0.0
  0
LINE
  5
32FB
330
3283
100
AcDbEntity
  8
0
  6
CONTINUOUS
 62
     0
100
AcDbLine
 10
7.342645
 20
22.561547
 30
0.0
 11
8.178233
 21
23.397136
 31
0.0
  0
LINE
  5
32FC
330
3283
100
AcDbEntity
  8
0
  6
CONTINUOUS
 62
     0
100
AcDbLine
 10
10.46482299999999
 20
25.96656799999999
 30
0.0
 11
11.41387299999999
 21
26.915618
 31
0.0
  0
LINE
  5
32FD
330
3283
100
AcDbEntity
  8
0
  6
CONTINUOUS
 62
     0
100
AcDbLine
 10
12.17248399999999
 20
27.67422899999999
 30
0.0
 11
13.04135099999999
 21
28.543096
 31
0.0
  0
LINE
  5
32FE
330
3283
100
AcDbEntity
  8
0
  6
CONTINUOUS
 62
     0
100
AcDbLine
 10
7.281971
 20
22.783716
 30
0.0
 11
8.926999
 21
24.428744
 31
0.0
  0
LINE
  5
32FF
330
3283
100
AcDbEntity
  8
0
  6
CONTINUOUS
 62
     0
100
AcDbLine
 10
10.46482299999999
 20
26.249411
 30
0.0
 11
11.41387299999999
 21
27.19846099999999
 31
0.0
  0
LINE
  5
3300
330
3283
100
AcDbEntity
  8
0
  6
CONTINUOUS
 62
     0
100
AcDbLine
 10
11.899556
 20
27.684144
 30
0.0
 11
12.809691
 21
28.594279
 31
0.0
  0
LINE
  5
3301
330
3283
100
AcDbEntity
  8
0
  6
CONTINUOUS
 62
     0
100
AcDbLine
 10
7.230788
 20
23.015376
 30
0.0
 11
8.644156
 21
24.428744
 31
0.0
  0
LINE
  5
3302
330
3283
100
AcDbEntity
  8
0
  6
CONTINUOUS
 62
     0
100
AcDbLine
 10
10.46482299999999
 20
26.532253
 30
0.0
 11
11.41387299999999
 21
27.481303
 31
0.0
  0
LINE
  5
3303
330
3283
100
AcDbEntity
  8
0
  6
CONTINUOUS
 62
     0
100
AcDbLine
 10
11.605159
 20
27.672589
 30
0.0
 11
12.567584
 21
28.635015
 31
0.0
  0
LINE
  5
3304
330
3283
100
AcDbEntity
  8
0
  6
CONTINUOUS
 62
     0
100
AcDbLine
 10
7.190052
 20
23.25748299999999
 30
0.0
 11
8.361313
 21
24.428744
 31
0.0
  0
LINE
  5
3305
330
3283
100
AcDbEntity
  8
0
  6
CONTINUOUS
 62
     0
100
AcDbLine
 10
10.46482299999999
 20
26.815096
 30
0.0
 11
12.313807
 21
28.66407999999999
 31
0.0
  0
LINE
  5
3306
330
3283
100
AcDbEntity
  8
0
  6
CONTINUOUS
 62
     0
100
AcDbLine
 10
7.160988
 20
23.51126099999999
 30
0.0
 11
8.191864
 21
24.542137
 31
0.0
  0
LINE
  5
3307
330
3283
100
AcDbEntity
  8
0
  6
CONTINUOUS
 62
     0
100
AcDbLine
 10
10.46482299999999
 20
27.097939
 30
0.0
 11
12.046753
 21
28.679869
 31
0.0
  0
LINE
  5
3308
330
3283
100
AcDbEntity
  8
0
  6
CONTINUOUS
 62
     0
100
AcDbLine
 10
7.145197999999999
 20
23.778314
 30
0.0
 11
8.270421
 21
24.903537
 31
0.0
  0
LINE
  5
3309
330
3283
100
AcDbEntity
  8
0
  6
CONTINUOUS
 62
     0
100
AcDbLine
 10
10.46482299999999
 20
27.380782
 30
0.0
 11
11.76425899999999
 21
28.68021699999999
 31
0.0
  0
LINE
  5
330A
330
3283
100
AcDbEntity
  8
0
  6
CONTINUOUS
 62
     0
100
AcDbLine
 10
7.144849999999999
 20
24.060809
 30
0.0
 11
8.412672
 21
25.328631
 31
0.0
  0
LINE
  5
330B
330
3283
100
AcDbEntity
  8
0
  6
CONTINUOUS
 62
     0
100
AcDbLine
 10
9.92464
 20
27.12344099999999
 30
0.0
 11
11.463286
 21
28.66208699999999
 31
0.0
  0
LINE
  5
330C
330
3283
100
AcDbEntity
  8
0
  6
CONTINUOUS
 62
     0
100
AcDbLine
 10
7.16298
 20
24.361781
 30
0.0
 11
8.701625999999999
 21
25.900428
 31
0.0
  0
LINE
  5
330D
330
3283
100
AcDbEntity
  8
0
  6
CONTINUOUS
 62
     0
100
AcDbLine
 10
7.204077999999999
 20
24.685722
 30
0.0
 11
11.139345
 21
28.620989
 31
0.0
  0
LINE
  5
330E
330
3283
100
AcDbEntity
  8
0
  6
CONTINUOUS
 62
     0
100
AcDbLine
 10
7.275296
 20
25.03978299999999
 30
0.0
 11
10.785285
 21
28.549771
 31
0.0
  0
LINE
  5
330F
330
3283
100
AcDbEntity
  8
0
  6
CONTINUOUS
 62
     0
100
AcDbLine
 10
7.389392999999999
 20
25.436722
 30
0.0
 11
10.38834499999999
 21
28.435675
 31
0.0
  0
LINE
  5
3310
330
3283
100
AcDbEntity
  8
0
  6
CONTINUOUS
 62
     0
100
AcDbLine
 10
7.574053999999999
 20
25.904226
 30
0.0
 11
9.920841000000001
 21
28.251013
 31
0.0
  0
LINE
  5
3311
330
3283
100
AcDbEntity
  8
0
  6
CONTINUOUS
 62
     0
100
AcDbLine
 10
7.923914999999999
 20
26.53693
 30
0.0
 11
9.288138
 21
27.901153
 31
0.0
  0
ENDBLK
  5
3313
330
3283
100
AcDbEntity
  8
0
100
AcDbBlockEnd
  0
BLOCK
  5
3332
330
3314
100
AcDbEntity
  8
0
100
AcDbBlockBegin
  2
*X7
 70
     1
 10
0.0
 20
0.0
 30
0.0
  3
*X7
  1

  0
LINE
  5
3315
330
3314
100
AcDbEntity
  8
0
  6
CONTINUOUS
 62
     0
100
AcDbLine
 10
20.403855
 20
20.63209399999999
 30
0.0
 11
20.470123
 21
20.69836099999999
 31
0.0
  0
LINE
  5
3316
330
3314
100
AcDbEntity
  8
0
  6
CONTINUOUS
 62
     0
100
AcDbLine
 10
20.121013
 20
20.63209399999999
 30
0.0
 11
20.470123
 21
20.981204
 31
0.0
  0
LINE
  5
3317
330
3314
100
AcDbEntity
  8
0
  6
CONTINUOUS
 62
     0
100
AcDbLine
 10
19.83817
 20
20.63209399999999
 30
0.0
 11
20.470123
 21
21.264047
 31
0.0
  0
LINE
  5
3318
330
3314
100
AcDbEntity
  8
0
  6
CONTINUOUS
 62
     0
100
AcDbLine
 10
19.555327
 20
20.63209399999999
 30
0.0
 11
20.470123
 21
21.546889
 31
0.0
  0
LINE
  5
3319
330
3314
100
AcDbEntity
  8
0
  6
CONTINUOUS
 62
     0
100
AcDbLine
 10
19.27248399999999
 20
20.63209399999999
 30
0.0
 11
20.470123
 21
21.829732
 31
0.0
  0
LINE
  5
331A
330
3314
100
AcDbEntity
  8
0
  6
CONTINUOUS
 62
     0
100
AcDbLine
 10
18.98964199999999
 20
20.63209399999999
 30
0.0
 11
20.470123
 21
22.11257499999999
 31
0.0
  0
LINE
  5
331B
330
3314
100
AcDbEntity
  8
0
  6
CONTINUOUS
 62
     0
100
AcDbLine
 10
18.706799
 20
20.63209399999999
 30
0.0
 11
20.470123
 21
22.395418
 31
0.0
  0
LINE
  5
331C
330
3314
100
AcDbEntity
  8
0
  6
CONTINUOUS
 62
     0
100
AcDbLine
 10
18.674623
 20
20.88276
 30
0.0
 11
20.470123
 21
22.67826
 31
0.0
  0
LINE
  5
331D
330
3314
100
AcDbEntity
  8
0
  6
CONTINUOUS
 62
     0
100
AcDbLine
 10
20.919864
 20
23.410844
 30
0.0
 11
21.087523
 21
23.578503
 31
0.0
  0
LINE
  5
331E
330
3314
100
AcDbEntity
  8
0
  6
CONTINUOUS
 62
     0
100
AcDbLine
 10
18.674623
 20
21.165603
 30
0.0
 11
20.470123
 21
22.961103
 31
0.0
  0
LINE
  5
331F
330
3314
100
AcDbEntity
  8
0
  6
CONTINUOUS
 62
     0
100
AcDbLine
 10
20.63702099999999
 20
23.410844
 30
0.0
 11
21.087523
 21
23.86134599999999
 31
0.0
  0
LINE
  5
3320
330
3314
100
AcDbEntity
  8
0
  6
CONTINUOUS
 62
     0
100
AcDbLine
 10
18.674623
 20
21.448446
 30
0.0
 11
20.470123
 21
23.24394599999999
 31
0.0
  0
LINE
  5
3321
330
3314
100
AcDbEntity
  8
0
  6
CONTINUOUS
 62
     0
100
AcDbLine
 10
18.674623
 20
21.731288
 30
0.0
 11
21.087523
 21
24.14418799999999
 31
0.0
  0
LINE
  5
3322
330
3314
100
AcDbEntity
  8
0
  6
CONTINUOUS
 62
     0
100
AcDbLine
 10
18.674623
 20
22.01413099999999
 30
0.0
 11
21.087523
 21
24.427031
 31
0.0
  0
LINE
  5
3323
330
3314
100
AcDbEntity
  8
0
  6
CONTINUOUS
 62
     0
100
AcDbLine
 10
18.674623
 20
22.296974
 30
0.0
 11
20.886043
 21
24.508394
 31
0.0
  0
LINE
  5
3324
330
3314
100
AcDbEntity
  8
0
  6
CONTINUOUS
 62
     0
100
AcDbLine
 10
21.02665
 20
24.931844
 30
0.0
 11
21.087523
 21
24.992717
 31
0.0
  0
LINE
  5
3325
330
3314
100
AcDbEntity
  8
0
  6
CONTINUOUS
 62
     0
100
AcDbLine
 10
18.674623
 20
22.579817
 30
0.0
 11
20.6032
 21
24.508394
 31
0.0
  0
LINE
  5
3326
330
3314
100
AcDbEntity
  8
0
  6
CONTINUOUS
 62
     0
100
AcDbLine
 10
20.743807
 20
24.931844
 30
0.0
 11
21.087523
 21
25.275559
 31
0.0
  0
LINE
  5
3327
330
3314
100
AcDbEntity
  8
0
  6
CONTINUOUS
 62
     0
100
AcDbLine
 10
18.674623
 20
22.862659
 30
0.0
 11
20.43397699999999
 21
24.622013
 31
0.0
  0
LINE
  5
3328
330
3314
100
AcDbEntity
  8
0
  6
CONTINUOUS
 62
     0
100
AcDbLine
 10
18.674623
 20
23.145502
 30
0.0
 11
21.087523
 21
25.558402
 31
0.0
  0
LINE
  5
3329
330
3314
100
AcDbEntity
  8
0
  6
CONTINUOUS
 62
     0
100
AcDbLine
 10
18.657122
 20
23.410844
 30
0.0
 11
21.08127199999999
 21
25.834994
 31
0.0
  0
LINE
  5
332A
330
3314
100
AcDbEntity
  8
0
  6
CONTINUOUS
 62
     0
100
AcDbLine
 10
18.374279
 20
23.410844
 30
0.0
 11
20.798429
 21
25.834994
 31
0.0
  0
LINE
  5
332B
330
3314
100
AcDbEntity
  8
0
  6
CONTINUOUS
 62
     0
100
AcDbLine
 10
18.137323
 20
23.45673
 30
0.0
 11
20.51558599999999
 21
25.834994
 31
0.0
  0
LINE
  5
332C
330
3314
100
AcDbEntity
  8
0
  6
CONTINUOUS
 62
     0
100
AcDbLine
 10
18.137323
 20
23.739573
 30
0.0
 11
20.232744
 21
25.834994
 31
0.0
  0
LINE
  5
332D
330
3314
100
AcDbEntity
  8
0
  6
CONTINUOUS
 62
     0
100
AcDbLine
 10
18.674623
 20
24.559716
 30
0.0
 11
19.949901
 21
25.834994
 31
0.0
  0
LINE
  5
332E
330
3314
100
AcDbEntity
  8
0
  6
CONTINUOUS
 62
     0
100
AcDbLine
 10
18.137323
 20
24.02241599999999
 30
0.0
 11
18.623301
 21
24.508394
 31
0.0
  0
LINE
  5
332F
330
3314
100
AcDbEntity
  8
0
  6
CONTINUOUS
 62
     0
100
AcDbLine
 10
18.674623
 20
24.842558
 30
0.0
 11
19.66705799999999
 21
25.834994
 31
0.0
  0
LINE
  5
3330
330
3314
100
AcDbEntity
  8
0
  6
CONTINUOUS
 62
     0
100
AcDbLine
 10
18.137323
 20
24.30525799999999
 30
0.0
 11
18.34045799999999
 21
24.508394
 31
0.0
  0
LINE
  5
3331
330
3314
100
AcDbEntity
  8
0
  6
CONTINUOUS
 62
     0
100
AcDbLine
 10
18.70280499999999
 20
25.15358299999999
 30
0.0
 11
19.356077
 21
25.80685499999999
 31
0.0
  0
ENDBLK
  5
3333
330
3314
100
AcDbEntity
  8
0
100
AcDbBlockEnd
  0
BLOCK
  5
333F
330
3334
100
AcDbEntity
  8
0
100
AcDbBlockBegin
  2
*X8
 70
     1
 10
0.0
 20
0.0
 30
0.0
  3
*X8
  1

  0
LINE
  5
3335
330
3334
100
AcDbEntity
  8
0
  6
CONTINUOUS
 62
     0
100
AcDbLine
 10
23.583484
 20
24.943094
 30
0.0
 11
23.625973
 21
24.985582
 31
0.0
  0
LINE
  5
3336
330
3334
100
AcDbEntity
  8
0
  6
CONTINUOUS
 62
     0
100
AcDbLine
 10
23.300642
 20
24.943094
 30
0.0
 11
23.625973
 21
25.268425
 31
0.0
  0
LINE
  5
3337
330
3334
100
AcDbEntity
  8
0
  6
CONTINUOUS
 62
     0
100
AcDbLine
 10
23.017799
 20
24.943094
 30
0.0
 11
23.625973
 21
25.551268
 31
0.0
  0
LINE
  5
3338
330
3334
100
AcDbEntity
  8
0
  6
CONTINUOUS
 62
     0
100
AcDbLine
 10
22.73495599999999
 20
24.943094
 30
0.0
 11
23.625973
 21
25.83410999999999
 31
0.0
  0
LINE
  5
3339
330
3334
100
AcDbEntity
  8
0
  6
CONTINUOUS
 62
     0
100
AcDbLine
 10
22.452114
 20
24.943094
 30
0.0
 11
23.344014
 21
25.834994
 31
0.0
  0
LINE
  5
333A
330
3334
100
AcDbEntity
  8
0
  6
CONTINUOUS
 62
     0
100
AcDbLine
 10
22.16927099999999
 20
24.943094
 30
0.0
 11
23.06117099999999
 21
25.834994
 31
0.0
  0
LINE
  5
333B
330
3334
100
AcDbEntity
  8
0
  6
CONTINUOUS
 62
     0
100
AcDbLine
 10
21.88642799999999
 20
24.943094
 30
0.0
 11
22.778328
 21
25.834994
 31
0.0
  0
LINE
  5
333C
330
3334
100
AcDbEntity
  8
0
  6
CONTINUOUS
 62
     0
100
AcDbLine
 10
21.807973
 20
25.147481
 30
0.0
 11
22.495485
 21
25.834994
 31
0.0
  0
LINE
  5
333D
330
3334
100
AcDbEntity
  8
0
  6
CONTINUOUS
 62
     0
100
AcDbLine
 10
21.807973
 20
25.43032399999999
 30
0.0
 11
22.212643
 21
25.834994
 31
0.0
  0
LINE
  5
333E
330
3334
100
AcDbEntity
  8
0
  6
CONTINUOUS
 62
     0
100
AcDbLine
 10
21.807973
 20
25.713167
 30
0.0
 11
21.92979999999999
 21
25.834994
 31
0.0
  0
ENDBLK
  5
3340
330
3334
100
AcDbEntity
  8
0
100
AcDbBlockEnd
  0
BLOCK
  5
3356
330
3341
100
AcDbEntity
  8
0
100
AcDbBlockBegin
  2
*X9
 70
     1
 10
0.0
 20
0.0
 30
0.0
  3
*X9
  1

  0
LINE
  5
3342
330
3341
100
AcDbEntity
  8
0
  6
CONTINUOUS
 62
     0
100
AcDbLine
 10
23.515125
 20
20.63209399999999
 30
0.0
 11
23.625973
 21
20.742941
 31
0.0
  0
LINE
  5
3343
330
3341
100
AcDbEntity
  8
0
  6
CONTINUOUS
 62
     0
100
AcDbLine
 10
23.232282
 20
20.63209399999999
 30
0.0
 11
23.625973
 21
21.025784
 31
0.0
  0
LINE
  5
3344
330
3341
100
AcDbEntity
  8
0
  6
CONTINUOUS
 62
     0
100
AcDbLine
 10
22.94944
 20
20.63209399999999
 30
0.0
 11
23.625973
 21
21.30862699999999
 31
0.0
  0
LINE
  5
3345
330
3341
100
AcDbEntity
  8
0
  6
CONTINUOUS
 62
     0
100
AcDbLine
 10
22.66659699999999
 20
20.63209399999999
 30
0.0
 11
23.625973
 21
21.59147
 31
0.0
  0
LINE
  5
3346
330
3341
100
AcDbEntity
  8
0
  6
CONTINUOUS
 62
     0
100
AcDbLine
 10
22.383754
 20
20.63209399999999
 30
0.0
 11
23.625973
 21
21.874312
 31
0.0
  0
LINE
  5
3347
330
3341
100
AcDbEntity
  8
0
  6
CONTINUOUS
 62
     0
100
AcDbLine
 10
22.100912
 20
20.63209399999999
 30
0.0
 11
23.625973
 21
22.15715499999999
 31
0.0
  0
LINE
  5
3348
330
3341
100
AcDbEntity
  8
0
  6
CONTINUOUS
 62
     0
100
AcDbLine
 10
21.818069
 20
20.63209399999999
 30
0.0
 11
23.625973
 21
22.439998
 31
0.0
  0
LINE
  5
3349
330
3341
100
AcDbEntity
  8
0
  6
CONTINUOUS
 62
     0
100
AcDbLine
 10
21.807973
 20
20.90484
 30
0.0
 11
23.625973
 21
22.72283999999999
 31
0.0
  0
LINE
  5
334A
330
3341
100
AcDbEntity
  8
0
  6
CONTINUOUS
 62
     0
100
AcDbLine
 10
21.807973
 20
21.187683
 30
0.0
 11
23.625973
 21
23.00568299999999
 31
0.0
  0
LINE
  5
334B
330
3341
100
AcDbEntity
  8
0
  6
CONTINUOUS
 62
     0
100
AcDbLine
 10
21.807973
 20
21.47052599999999
 30
0.0
 11
23.625973
 21
23.288526
 31
0.0
  0
LINE
  5
334C
330
3341
100
AcDbEntity
  8
0
  6
CONTINUOUS
 62
     0
100
AcDbLine
 10
21.807973
 20
21.753369
 30
0.0
 11
23.625973
 21
23.57136899999999
 31
0.0
  0
LINE
  5
334D
330
3341
100
AcDbEntity
  8
0
  6
CONTINUOUS
 62
     0
100
AcDbLine
 10
21.807973
 20
22.03621099999999
 30
0.0
 11
23.625973
 21
23.85421099999999
 31
0.0
  0
LINE
  5
334E
330
3341
100
AcDbEntity
  8
0
  6
CONTINUOUS
 62
     0
100
AcDbLine
 10
21.807973
 20
22.319054
 30
0.0
 11
23.625973
 21
24.137054
 31
0.0
  0
LINE
  5
334F
330
3341
100
AcDbEntity
  8
0
  6
CONTINUOUS
 62
     0
100
AcDbLine
 10
21.807973
 20
22.601897
 30
0.0
 11
23.625973
 21
24.419897
 31
0.0
  0
LINE
  5
3350
330
3341
100
AcDbEntity
  8
0
  6
CONTINUOUS
 62
     0
100
AcDbLine
 10
21.807973
 20
22.884739
 30
0.0
 11
23.431627
 21
24.508394
 31
0.0
  0
LINE
  5
3351
330
3341
100
AcDbEntity
  8
0
  6
CONTINUOUS
 62
     0
100
AcDbLine
 10
21.807973
 20
23.167582
 30
0.0
 11
23.148784
 21
24.508394
 31
0.0
  0
LINE
  5
3352
330
3341
100
AcDbEntity
  8
0
  6
CONTINUOUS
 62
     0
100
AcDbLine
 10
21.807973
 20
23.45042499999999
 30
0.0
 11
22.865942
 21
24.508394
 31
0.0
  0
LINE
  5
3353
330
3341
100
AcDbEntity
  8
0
  6
CONTINUOUS
 62
     0
100
AcDbLine
 10
21.807973
 20
23.733268
 30
0.0
 11
22.58309899999999
 21
24.508394
 31
0.0
  0
LINE
  5
3354
330
3341
100
AcDbEntity
  8
0
  6
CONTINUOUS
 62
     0
100
AcDbLine
 10
21.807973
 20
24.01611
 30
0.0
 11
22.300256
 21
24.508394
 31
0.0
  0
LINE
  5
3355
330
3341
100
AcDbEntity
  8
0
  6
CONTINUOUS
 62
     0
100
AcDbLine
 10
21.807973
 20
24.298953
 30
0.0
 11
22.017414
 21
24.508394
 31
0.0
  0
ENDBLK
  5
3357
330
3341
100
AcDbEntity
  8
0
100
AcDbBlockEnd
  0
BLOCK
  5
3380
330
3358
100
AcDbEntity
  8
0
100
AcDbBlockBegin
  2
*X10
 70
     1
 10
0.0
 20
0.0
 30
0.0
  3
*X10
  1

  0
LINE
  5
3359
330
3358
100
AcDbEntity
  8
0
  6
CONTINUOUS
 62
     0
100
AcDbLine
 10
29.737665
 20
20.63209399999999
 30
0.0
 11
29.89222299999999
 21
20.786652
 31
0.0
  0
LINE
  5
335A
330
3358
100
AcDbEntity
  8
0
  6
CONTINUOUS
 62
     0
100
AcDbLine
 10
29.45482199999999
 20
20.63209399999999
 30
0.0
 11
29.89222299999999
 21
21.06949399999999
 31
0.0
  0
LINE
  5
335B
330
3358
100
AcDbEntity
  8
0
  6
CONTINUOUS
 62
     0
100
AcDbLine
 10
29.17197899999999
 20
20.63209399999999
 30
0.0
 11
29.89222299999999
 21
21.352337
 31
0.0
  0
LINE
  5
335C
330
3358
100
AcDbEntity
  8
0
  6
CONTINUOUS
 62
     0
100
AcDbLine
 10
28.88913699999999
 20
20.63209399999999
 30
0.0
 11
29.89222299999999
 21
21.63517999999999
 31
0.0
  0
LINE
  5
335D
330
3358
100
AcDbEntity
  8
0
  6
CONTINUOUS
 62
     0
100
AcDbLine
 10
28.606294
 20
20.63209399999999
 30
0.0
 11
29.89222299999999
 21
21.918023
 31
0.0
  0
LINE
  5
335E
330
3358
100
AcDbEntity
  8
0
  6
CONTINUOUS
 62
     0
100
AcDbLine
 10
28.323451
 20
20.63209399999999
 30
0.0
 11
29.89222299999999
 21
22.200865
 31
0.0
  0
LINE
  5
335F
330
3358
100
AcDbEntity
  8
0
  6
CONTINUOUS
 62
     0
100
AcDbLine
 10
28.108423
 20
20.69990799999999
 30
0.0
 11
29.89222299999999
 21
22.483708
 31
0.0
  0
LINE
  5
3360
330
3358
100
AcDbEntity
  8
0
  6
CONTINUOUS
 62
     0
100
AcDbLine
 10
28.108423
 20
20.98275099999999
 30
0.0
 11
29.89222299999999
 21
22.766551
 31
0.0
  0
LINE
  5
3361
330
3358
100
AcDbEntity
  8
0
  6
CONTINUOUS
 62
     0
100
AcDbLine
 10
28.108423
 20
21.26559299999999
 30
0.0
 11
29.89222299999999
 21
23.049393
 31
0.0
  0
LINE
  5
3362
330
3358
100
AcDbEntity
  8
0
  6
CONTINUOUS
 62
     0
100
AcDbLine
 10
28.108423
 20
21.54843599999999
 30
0.0
 11
29.89184299999999
 21
23.33185599999999
 31
0.0
  0
LINE
  5
3363
330
3358
100
AcDbEntity
  8
0
  6
CONTINUOUS
 62
     0
100
AcDbLine
 10
28.108423
 20
21.831279
 30
0.0
 11
29.853268
 21
23.576124
 31
0.0
  0
LINE
  5
3364
330
3358
100
AcDbEntity
  8
0
  6
CONTINUOUS
 62
     0
100
AcDbLine
 10
28.108423
 20
22.114122
 30
0.0
 11
29.777815
 21
23.78351299999999
 31
0.0
  0
LINE
  5
3365
330
3358
100
AcDbEntity
  8
0
  6
CONTINUOUS
 62
     0
100
AcDbLine
 10
28.108423
 20
22.396964
 30
0.0
 11
29.67413
 21
23.962671
 31
0.0
  0
LINE
  5
3366
330
3358
100
AcDbEntity
  8
0
  6
CONTINUOUS
 62
     0
100
AcDbLine
 10
28.084087
 20
22.655471
 30
0.0
 11
29.54593
 21
24.117314
 31
0.0
  0
LINE
  5
3367
330
3358
100
AcDbEntity
  8
0
  6
CONTINUOUS
 62
     0
100
AcDbLine
 10
26.06071
 20
20.63209399999999
 30
0.0
 11
26.28997299999999
 21
20.861357
 31
0.0
  0
LINE
  5
3368
330
3358
100
AcDbEntity
  8
0
  6
CONTINUOUS
 62
     0
100
AcDbLine
 10
27.9938
 20
22.84802699999999
 30
0.0
 11
29.394359
 21
24.248585
 31
0.0
  0
LINE
  5
3369
330
3358
100
AcDbEntity
  8
0
  6
CONTINUOUS
 62
     0
100
AcDbLine
 10
25.777867
 20
20.63209399999999
 30
0.0
 11
26.28997299999999
 21
21.1442
 31
0.0
  0
LINE
  5
336A
330
3358
100
AcDbEntity
  8
0
  6
CONTINUOUS
 62
     0
100
AcDbLine
 10
27.856431
 20
22.993501
 30
0.0
 11
29.218545
 21
24.355614
 31
0.0
  0
LINE
  5
336B
330
3358
100
AcDbEntity
  8
0
  6
CONTINUOUS
 62
     0
100
AcDbLine
 10
25.495024
 20
20.63209399999999
 30
0.0
 11
26.28997299999999
 21
21.427042
 31
0.0
  0
LINE
  5
336C
330
3358
100
AcDbEntity
  8
0
  6
CONTINUOUS
 62
     0
100
AcDbLine
 10
27.673361
 20
23.09327399999999
 30
0.0
 11
29.008732
 21
24.428645
 31
0.0
  0
LINE
  5
336D
330
3358
100
AcDbEntity
  8
0
  6
CONTINUOUS
 62
     0
100
AcDbLine
 10
25.212181
 20
20.63209399999999
 30
0.0
 11
26.28997299999999
 21
21.70988499999999
 31
0.0
  0
LINE
  5
336E
330
3358
100
AcDbEntity
  8
0
  6
CONTINUOUS
 62
     0
100
AcDbLine
 10
27.426682
 20
23.129436
 30
0.0
 11
28.78111099999999
 21
24.483866
 31
0.0
  0
LINE
  5
336F
330
3358
100
AcDbEntity
  8
0
  6
CONTINUOUS
 62
     0
100
AcDbLine
 10
24.929339
 20
20.63209399999999
 30
0.0
 11
26.28997299999999
 21
21.992728
 31
0.0
  0
LINE
  5
3370
330
3358
100
AcDbEntity
  8
0
  6
CONTINUOUS
 62
     0
100
AcDbLine
 10
27.09337899999999
 20
23.07897599999999
 30
0.0
 11
28.539658
 21
24.525255
 31
0.0
  0
LINE
  5
3371
330
3358
100
AcDbEntity
  8
0
  6
CONTINUOUS
 62
     0
100
AcDbLine
 10
24.64649599999999
 20
20.63209399999999
 30
0.0
 11
26.28997299999999
 21
22.27557099999999
 31
0.0
  0
LINE
  5
3372
330
3358
100
AcDbEntity
  8
0
  6
CONTINUOUS
 62
     0
100
AcDbLine
 10
24.494923
 20
20.763363
 30
0.0
 11
28.28214099999999
 21
24.550582
 31
0.0
  0
LINE
  5
3373
330
3358
100
AcDbEntity
  8
0
  6
CONTINUOUS
 62
     0
100
AcDbLine
 10
24.494923
 20
21.046206
 30
0.0
 11
28.005321
 21
24.556604
 31
0.0
  0
LINE
  5
3374
330
3358
100
AcDbEntity
  8
0
  6
CONTINUOUS
 62
     0
100
AcDbLine
 10
24.494923
 20
21.32904899999999
 30
0.0
 11
27.704195
 21
24.538321
 31
0.0
  0
LINE
  5
3375
330
3358
100
AcDbEntity
  8
0
  6
CONTINUOUS
 62
     0
100
AcDbLine
 10
24.494923
 20
21.611891
 30
0.0
 11
27.370303
 21
24.487272
 31
0.0
  0
LINE
  5
3376
330
3358
100
AcDbEntity
  8
0
  6
CONTINUOUS
 62
     0
100
AcDbLine
 10
24.494923
 20
21.894734
 30
0.0
 11
26.987035
 21
24.386846
 31
0.0
  0
LINE
  5
3377
330
3358
100
AcDbEntity
  8
0
  6
CONTINUOUS
 62
     0
100
AcDbLine
 10
24.494923
 20
22.17757699999999
 30
0.0
 11
26.51056599999999
 21
24.19322
 31
0.0
  0
LINE
  5
3378
330
3358
100
AcDbEntity
  8
0
  6
CONTINUOUS
 62
     0
100
AcDbLine
 10
24.494923
 20
22.46042
 30
0.0
 11
26.28997299999999
 21
24.25547
 31
0.0
  0
LINE
  5
3379
330
3358
100
AcDbEntity
  8
0
  6
CONTINUOUS
 62
     0
100
AcDbLine
 10
24.494923
 20
22.74326199999999
 30
0.0
 11
26.26005399999999
 21
24.508394
 31
0.0
  0
LINE
  5
337A
330
3358
100
AcDbEntity
  8
0
  6
CONTINUOUS
 62
     0
100
AcDbLine
 10
24.494923
 20
23.02610499999999
 30
0.0
 11
25.977212
 21
24.508394
 31
0.0
  0
LINE
  5
337B
330
3358
100
AcDbEntity
  8
0
  6
CONTINUOUS
 62
     0
100
AcDbLine
 10
24.494923
 20
23.308948
 30
0.0
 11
25.694369
 21
24.508394
 31
0.0
  0
LINE
  5
337C
330
3358
100
AcDbEntity
  8
0
  6
CONTINUOUS
 62
     0
100
AcDbLine
 10
24.494923
 20
23.59179
 30
0.0
 11
25.411526
 21
24.508394
 31
0.0
  0
LINE
  5
337D
330
3358
100
AcDbEntity
  8
0
  6
CONTINUOUS
 62
     0
100
AcDbLine
 10
24.494923
 20
23.87463299999999
 30
0.0
 11
25.128683
 21
24.508394
 31
0.0
  0
LINE
  5
337E
330
3358
100
AcDbEntity
  8
0
  6
CONTINUOUS
 62
     0
100
AcDbLine
 10
24.494923
 20
24.157476
 30
0.0
 11
24.845841
 21
24.508394
 31
0.0
  0
LINE
  5
337F
330
3358
100
AcDbEntity
  8
0
  6
CONTINUOUS
 62
     0
100
AcDbLine
 10
24.494923
 20
24.440319
 30
0.0
 11
24.562998
 21
24.508394
 31
0.0
  0
ENDBLK
  5
3381
330
3358
100
AcDbEntity
  8
0
100
AcDbBlockEnd
  0
BLOCK
  5
33AF
330
3382
100
AcDbEntity
  8
0
100
AcDbBlockBegin
  2
*X11
 70
     1
 10
0.0
 20
0.0
 30
0.0
  3
*X11
  1

  0
LINE
  5
3383
330
3382
100
AcDbEntity
  8
0
  6
CONTINUOUS
 62
     0
100
AcDbLine
 10
35.94895499999999
 20
20.620844
 30
0.0
 11
35.986573
 21
20.658462
 31
0.0
  0
LINE
  5
3384
330
3382
100
AcDbEntity
  8
0
  6
CONTINUOUS
 62
     0
100
AcDbLine
 10
35.666112
 20
20.620844
 30
0.0
 11
35.986573
 21
20.94130499999999
 31
0.0
  0
LINE
  5
3385
330
3382
100
AcDbEntity
  8
0
  6
CONTINUOUS
 62
     0
100
AcDbLine
 10
35.38326899999999
 20
20.620844
 30
0.0
 11
35.986573
 21
21.22414699999999
 31
0.0
  0
LINE
  5
3386
330
3382
100
AcDbEntity
  8
0
  6
CONTINUOUS
 62
     0
100
AcDbLine
 10
35.100427
 20
20.620844
 30
0.0
 11
35.986573
 21
21.50698999999999
 31
0.0
  0
LINE
  5
3387
330
3382
100
AcDbEntity
  8
0
  6
CONTINUOUS
 62
     0
100
AcDbLine
 10
34.817584
 20
20.620844
 30
0.0
 11
35.986573
 21
21.789833
 31
0.0
  0
LINE
  5
3388
330
3382
100
AcDbEntity
  8
0
  6
CONTINUOUS
 62
     0
100
AcDbLine
 10
34.53474099999999
 20
20.620844
 30
0.0
 11
35.986573
 21
22.07267499999999
 31
0.0
  0
LINE
  5
3389
330
3382
100
AcDbEntity
  8
0
  6
CONTINUOUS
 62
     0
100
AcDbLine
 10
34.251898
 20
20.620844
 30
0.0
 11
35.986573
 21
22.355518
 31
0.0
  0
LINE
  5
338A
330
3382
100
AcDbEntity
  8
0
  6
CONTINUOUS
 62
     0
100
AcDbLine
 10
34.19152299999999
 20
20.84331099999999
 30
0.0
 11
35.986573
 21
22.638361
 31
0.0
  0
LINE
  5
338B
330
3382
100
AcDbEntity
  8
0
  6
CONTINUOUS
 62
     0
100
AcDbLine
 10
33.76930999999999
 20
20.703941
 30
0.0
 11
35.986573
 21
22.92120399999999
 31
0.0
  0
LINE
  5
338C
330
3382
100
AcDbEntity
  8
0
  6
CONTINUOUS
 62
     0
100
AcDbLine
 10
33.39236599999999
 20
20.60983999999999
 30
0.0
 11
35.986573
 21
23.20404599999999
 31
0.0
  0
LINE
  5
338D
330
3382
100
AcDbEntity
  8
0
  6
CONTINUOUS
 62
     0
100
AcDbLine
 10
33.081013
 20
20.58132999999999
 30
0.0
 11
35.986573
 21
23.486889
 31
0.0
  0
LINE
  5
338E
330
3382
100
AcDbEntity
  8
0
  6
CONTINUOUS
 62
     0
100
AcDbLine
 10
32.78812199999999
 20
20.57128099999999
 30
0.0
 11
35.986573
 21
23.769732
 31
0.0
  0
LINE
  5
338F
330
3382
100
AcDbEntity
  8
0
  6
CONTINUOUS
 62
     0
100
AcDbLine
 10
32.50752399999999
 20
20.57352499999999
 30
0.0
 11
35.986573
 21
24.05257399999999
 31
0.0
  0
LINE
  5
3390
330
3382
100
AcDbEntity
  8
0
  6
CONTINUOUS
 62
     0
100
AcDbLine
 10
34.178814
 20
22.52765899999999
 30
0.0
 11
35.986573
 21
24.335417
 31
0.0
  0
LINE
  5
3391
330
3382
100
AcDbEntity
  8
0
  6
CONTINUOUS
 62
     0
100
AcDbLine
 10
32.243083
 20
20.59192799999999
 30
0.0
 11
33.59479199999999
 21
21.94363599999999
 31
0.0
  0
LINE
  5
3392
330
3382
100
AcDbEntity
  8
0
  6
CONTINUOUS
 62
     0
100
AcDbLine
 10
34.181643
 20
22.81333
 30
0.0
 11
35.986573
 21
24.61826
 31
0.0
  0
LINE
  5
3393
330
3382
100
AcDbEntity
  8
0
  6
CONTINUOUS
 62
     0
100
AcDbLine
 10
32.000516
 20
20.632203
 30
0.0
 11
33.247555
 21
21.879242
 31
0.0
  0
LINE
  5
3394
330
3382
100
AcDbEntity
  8
0
  6
CONTINUOUS
 62
     0
100
AcDbLine
 10
34.100287
 20
23.014817
 30
0.0
 11
35.986573
 21
24.90110299999999
 31
0.0
  0
LINE
  5
3395
330
3382
100
AcDbEntity
  8
0
  6
CONTINUOUS
 62
     0
100
AcDbLine
 10
31.777522
 20
20.692051
 30
0.0
 11
32.988078
 21
21.90260799999999
 31
0.0
  0
LINE
  5
3396
330
3382
100
AcDbEntity
  8
0
  6
CONTINUOUS
 62
     0
100
AcDbLine
 10
33.96946099999999
 20
23.166833
 30
0.0
 11
35.986573
 21
25.183945
 31
0.0
  0
LINE
  5
3397
330
3382
100
AcDbEntity
  8
0
  6
CONTINUOUS
 62
     0
100
AcDbLine
 10
31.57735699999999
 20
20.774729
 30
0.0
 11
32.76916099999999
 21
21.96653299999999
 31
0.0
  0
LINE
  5
3398
330
3382
100
AcDbEntity
  8
0
  6
CONTINUOUS
 62
     0
100
AcDbLine
 10
33.798691
 20
23.27890599999999
 30
0.0
 11
35.986573
 21
25.466788
 31
0.0
  0
LINE
  5
3399
330
3382
100
AcDbEntity
  8
0
  6
CONTINUOUS
 62
     0
100
AcDbLine
 10
31.394628
 20
20.87484299999999
 30
0.0
 11
32.578781
 21
22.05899599999999
 31
0.0
  0
LINE
  5
339A
330
3382
100
AcDbEntity
  8
0
  6
CONTINUOUS
 62
     0
100
AcDbLine
 10
33.595067
 20
23.358124
 30
0.0
 11
35.986573
 21
25.749631
 31
0.0
  0
LINE
  5
339B
330
3382
100
AcDbEntity
  8
0
  6
CONTINUOUS
 62
     0
100
AcDbLine
 10
31.22313099999999
 20
20.986189
 30
0.0
 11
32.424733
 21
22.187791
 31
0.0
  0
LINE
  5
339C
330
3382
100
AcDbEntity
  8
0
  6
CONTINUOUS
 62
     0
100
AcDbLine
 10
33.37303699999999
 20
23.41893699999999
 30
0.0
 11
35.77784299999999
 21
25.823744
 31
0.0
  0
LINE
  5
339D
330
3382
100
AcDbEntity
  8
0
  6
CONTINUOUS
 62
     0
100
AcDbLine
 10
31.067037
 20
21.112937
 30
0.0
 11
32.307803
 21
22.353704
 31
0.0
  0
LINE
  5
339E
330
3382
100
AcDbEntity
  8
0
  6
CONTINUOUS
 62
     0
100
AcDbLine
 10
33.11599499999999
 20
23.444738
 30
0.0
 11
34.077945
 21
24.406688
 31
0.0
  0
LINE
  5
339F
330
3382
100
AcDbEntity
  8
0
  6
CONTINUOUS
 62
     0
100
AcDbLine
 10
34.19152299999999
 20
24.52026599999999
 30
0.0
 11
35.495
 21
25.823744
 31
0.0
  0
LINE
  5
33A0
330
3382
100
AcDbEntity
  8
0
  6
CONTINUOUS
 62
     0
100
AcDbLine
 10
30.92289099999999
 20
21.25163399999999
 30
0.0
 11
32.23358499999999
 21
22.562329
 31
0.0
  0
LINE
  5
33A1
330
3382
100
AcDbEntity
  8
0
  6
CONTINUOUS
 62
     0
100
AcDbLine
 10
32.74817399999999
 20
23.35976
 30
0.0
 11
33.885911
 21
24.49749699999999
 31
0.0
  0
LINE
  5
33A2
330
3382
100
AcDbEntity
  8
0
  6
CONTINUOUS
 62
     0
100
AcDbLine
 10
34.19152299999999
 20
24.803109
 30
0.0
 11
35.212158
 21
25.823744
 31
0.0
  0
LINE
  5
33A3
330
3382
100
AcDbEntity
  8
0
  6
CONTINUOUS
 62
     0
100
AcDbLine
 10
30.79573599999999
 20
21.40732199999999
 30
0.0
 11
32.26604099999999
 21
22.877627
 31
0.0
  0
LINE
  5
33A4
330
3382
100
AcDbEntity
  8
0
  6
CONTINUOUS
 62
     0
100
AcDbLine
 10
34.19152299999999
 20
25.085952
 30
0.0
 11
34.929315
 21
25.823744
 31
0.0
  0
LINE
  5
33A5
330
3382
100
AcDbEntity
  8
0
  6
CONTINUOUS
 62
     0
100
AcDbLine
 10
30.684862
 20
21.579291
 30
0.0
 11
33.65907999999999
 21
24.553509
 31
0.0
  0
LINE
  5
33A6
330
3382
100
AcDbEntity
  8
0
  6
CONTINUOUS
 62
     0
100
AcDbLine
 10
34.19152299999999
 20
25.368794
 30
0.0
 11
34.64647199999999
 21
25.823744
 31
0.0
  0
LINE
  5
33A7
330
3382
100
AcDbEntity
  8
0
  6
CONTINUOUS
 62
     0
100
AcDbLine
 10
30.59117899999999
 20
21.76845
 30
0.0
 11
33.418127
 21
24.595399
 31
0.0
  0
LINE
  5
33A8
330
3382
100
AcDbEntity
  8
0
  6
CONTINUOUS
 62
     0
100
AcDbLine
 10
34.19152299999999
 20
25.651637
 30
0.0
 11
34.36362899999999
 21
25.823744
 31
0.0
  0
LINE
  5
33A9
330
3382
100
AcDbEntity
  8
0
  6
CONTINUOUS
 62
     0
100
AcDbLine
 10
30.51714
 20
21.977254
 30
0.0
 11
33.172249
 21
24.632364
 31
0.0
  0
LINE
  5
33AA
330
3382
100
AcDbEntity
  8
0
  6
CONTINUOUS
 62
     0
100
AcDbLine
 10
30.459126
 20
22.20208299999999
 30
0.0
 11
32.905926
 21
24.648883
 31
0.0
  0
LINE
  5
33AB
330
3382
100
AcDbEntity
  8
0
  6
CONTINUOUS
 62
     0
100
AcDbLine
 10
30.423694
 20
22.449493
 30
0.0
 11
32.62147499999999
 21
24.647275
 31
0.0
  0
LINE
  5
33AC
330
3382
100
AcDbEntity
  8
0
  6
CONTINUOUS
 62
     0
100
AcDbLine
 10
30.424318
 20
22.732961
 30
0.0
 11
32.321114
 21
24.629756
 31
0.0
  0
LINE
  5
33AD
330
3382
100
AcDbEntity
  8
0
  6
CONTINUOUS
 62
     0
100
AcDbLine
 10
30.48455999999999
 20
23.076045
 30
0.0
 11
31.97893099999999
 21
24.570416
 31
0.0
  0
LINE
  5
33AE
330
3382
100
AcDbEntity
  8
0
  6
CONTINUOUS
 62
     0
100
AcDbLine
 10
30.667096
 20
23.541423
 30
0.0
 11
31.51624099999999
 21
24.390569
 31
0.0
  0
ENDBLK
  5
33B0
330
3382
100
AcDbEntity
  8
0
100
AcDbBlockEnd
  0
BLOCK
  5
33E2
330
33B1
100
AcDbEntity
  8
0
100
AcDbBlockBegin
  2
*X12
 70
     1
 10
0.0
 20
0.0
 30
0.0
  3
*X12
  1

  0
LINE
  5
33B2
330
33B1
100
AcDbEntity
  8
0
  6
CONTINUOUS
 62
     0
100
AcDbLine
 10
41.23382399999999
 20
20.814544
 30
0.0
 11
42.038521
 21
21.61924099999999
 31
0.0
  0
LINE
  5
33B3
330
33B1
100
AcDbEntity
  8
0
  6
CONTINUOUS
 62
     0
100
AcDbLine
 10
40.761924
 20
20.625487
 30
0.0
 11
41.99208099999999
 21
21.855644
 31
0.0
  0
LINE
  5
33B4
330
33B1
100
AcDbEntity
  8
0
  6
CONTINUOUS
 62
     0
100
AcDbLine
 10
42.109364
 20
22.25577
 30
0.0
 11
42.234688
 21
22.381093
 31
0.0
  0
LINE
  5
33B5
330
33B1
100
AcDbEntity
  8
0
  6
CONTINUOUS
 62
     0
100
AcDbLine
 10
40.38714399999999
 20
20.53354899999999
 30
0.0
 11
41.70923799999999
 21
21.855644
 31
0.0
  0
LINE
  5
33B6
330
33B1
100
AcDbEntity
  8
0
  6
CONTINUOUS
 62
     0
100
AcDbLine
 10
41.825433
 20
22.25468199999999
 30
0.0
 11
42.248624
 21
22.677873
 31
0.0
  0
LINE
  5
33B7
330
33B1
100
AcDbEntity
  8
0
  6
CONTINUOUS
 62
     0
100
AcDbLine
 10
40.05277999999999
 20
20.482029
 30
0.0
 11
41.426395
 21
21.855644
 31
0.0
  0
LINE
  5
33B8
330
33B1
100
AcDbEntity
  8
0
  6
CONTINUOUS
 62
     0
100
AcDbLine
 10
41.541502
 20
22.253593
 30
0.0
 11
42.21409
 21
22.92618099999999
 31
0.0
  0
LINE
  5
33B9
330
33B1
100
AcDbEntity
  8
0
  6
CONTINUOUS
 62
     0
100
AcDbLine
 10
39.74394
 20
20.456031
 30
0.0
 11
41.143553
 21
21.855644
 31
0.0
  0
LINE
  5
33BA
330
33B1
100
AcDbEntity
  8
0
  6
CONTINUOUS
 62
     0
100
AcDbLine
 10
41.25757199999999
 20
22.252505
 30
0.0
 11
42.156032
 21
23.15096599999999
 31
0.0
  0
LINE
  5
33BB
330
33B1
100
AcDbEntity
  8
0
  6
CONTINUOUS
 62
     0
100
AcDbLine
 10
39.448788
 20
20.443722
 30
0.0
 11
40.86070999999999
 21
21.855644
 31
0.0
  0
LINE
  5
33BC
330
33B1
100
AcDbEntity
  8
0
  6
CONTINUOUS
 62
     0
100
AcDbLine
 10
40.973641
 20
22.251417
 30
0.0
 11
42.08269699999999
 21
23.360473
 31
0.0
  0
LINE
  5
33BD
330
33B1
100
AcDbEntity
  8
0
  6
CONTINUOUS
 62
     0
100
AcDbLine
 10
39.16676599999999
 20
20.444542
 30
0.0
 11
40.577867
 21
21.855644
 31
0.0
  0
LINE
  5
33BE
330
33B1
100
AcDbEntity
  8
0
  6
CONTINUOUS
 62
     0
100
AcDbLine
 10
40.68971
 20
22.25032899999999
 30
0.0
 11
41.992262
 21
23.552881
 31
0.0
  0
LINE
  5
33BF
330
33B1
100
AcDbEntity
  8
0
  6
CONTINUOUS
 62
     0
100
AcDbLine
 10
38.902535
 20
20.463154
 30
0.0
 11
40.17887199999999
 21
21.739491
 31
0.0
  0
LINE
  5
33C0
330
33B1
100
AcDbEntity
  8
0
  6
CONTINUOUS
 62
     0
100
AcDbLine
 10
40.40577899999999
 20
22.249241
 30
0.0
 11
41.885758
 21
23.729219
 31
0.0
  0
LINE
  5
33C1
330
33B1
100
AcDbEntity
  8
0
  6
CONTINUOUS
 62
     0
100
AcDbLine
 10
38.650769
 20
20.49423099999999
 30
0.0
 11
39.71113499999999
 21
21.55459599999999
 31
0.0
  0
LINE
  5
33C2
330
33B1
100
AcDbEntity
  8
0
  6
CONTINUOUS
 62
     0
100
AcDbLine
 10
40.12184799999999
 20
22.24815199999999
 30
0.0
 11
41.763132
 21
23.889436
 31
0.0
  0
LINE
  5
33C3
330
33B1
100
AcDbEntity
  8
0
  6
CONTINUOUS
 62
     0
100
AcDbLine
 10
38.407693
 20
20.533998
 30
0.0
 11
39.411545
 21
21.53785
 31
0.0
  0
LINE
  5
33C4
330
33B1
100
AcDbEntity
  8
0
  6
CONTINUOUS
 62
     0
100
AcDbLine
 10
39.83791699999999
 20
22.247064
 30
0.0
 11
41.62484899999999
 21
24.033997
 31
0.0
  0
LINE
  5
33C5
330
33B1
100
AcDbEntity
  8
0
  6
CONTINUOUS
 62
     0
100
AcDbLine
 10
38.180128
 20
20.589276
 30
0.0
 11
39.162324
 21
21.57147099999999
 31
0.0
  0
LINE
  5
33C6
330
33B1
100
AcDbEntity
  8
0
  6
CONTINUOUS
 62
     0
100
AcDbLine
 10
39.553986
 20
22.245976
 30
0.0
 11
41.470496
 21
24.16248599999999
 31
0.0
  0
LINE
  5
33C7
330
33B1
100
AcDbEntity
  8
0
  6
CONTINUOUS
 62
     0
100
AcDbLine
 10
37.96719
 20
20.65917999999999
 30
0.0
 11
38.94359
 21
21.63557999999999
 31
0.0
  0
LINE
  5
33C8
330
33B1
100
AcDbEntity
  8
0
  6
CONTINUOUS
 62
     0
100
AcDbLine
 10
39.27005499999999
 20
22.244888
 30
0.0
 11
40.10436099999999
 21
23.079194
 31
0.0
  0
LINE
  5
33C9
330
33B1
100
AcDbEntity
  8
0
  6
CONTINUOUS
 62
     0
100
AcDbLine
 10
40.296756
 20
23.271589
 30
0.0
 11
41.30607499999999
 21
24.280908
 31
0.0
  0
LINE
  5
33CA
330
33B1
100
AcDbEntity
  8
0
  6
CONTINUOUS
 62
     0
100
AcDbLine
 10
37.762127
 20
20.736959
 30
0.0
 11
38.75166699999999
 21
21.7265
 31
0.0
  0
LINE
  5
33CB
330
33B1
100
AcDbEntity
  8
0
  6
CONTINUOUS
 62
     0
100
AcDbLine
 10
38.986768
 20
22.244444
 30
0.0
 11
39.821518
 21
23.079194
 31
0.0
  0
LINE
  5
33CC
330
33B1
100
AcDbEntity
  8
0
  6
CONTINUOUS
 62
     0
100
AcDbLine
 10
40.18585499999999
 20
23.443531
 30
0.0
 11
41.127162
 21
24.384837
 31
0.0
  0
LINE
  5
33CD
330
33B1
100
AcDbEntity
  8
0
  6
CONTINUOUS
 62
     0
100
AcDbLine
 10
37.567077
 20
20.824752
 30
0.0
 11
38.58724199999999
 21
21.844917
 31
0.0
  0
LINE
  5
33CE
330
33B1
100
AcDbEntity
  8
0
  6
CONTINUOUS
 62
     0
100
AcDbLine
 10
38.703926
 20
22.244444
 30
0.0
 11
39.538676
 21
23.079194
 31
0.0
  0
LINE
  5
33CF
330
33B1
100
AcDbEntity
  8
0
  6
CONTINUOUS
 62
     0
100
AcDbLine
 10
40.03559899999999
 20
23.576117
 30
0.0
 11
40.93254199999999
 21
24.47306
 31
0.0
  0
LINE
  5
33D0
330
33B1
100
AcDbEntity
  8
0
  6
CONTINUOUS
 62
     0
100
AcDbLine
 10
37.386162
 20
20.92667999999999
 30
0.0
 11
38.458814
 21
21.99933199999999
 31
0.0
  0
LINE
  5
33D1
330
33B1
100
AcDbEntity
  8
0
  6
CONTINUOUS
 62
     0
100
AcDbLine
 10
38.421083
 20
22.244444
 30
0.0
 11
39.255833
 21
23.079194
 31
0.0
  0
LINE
  5
33D2
330
33B1
100
AcDbEntity
  8
0
  6
CONTINUOUS
 62
     0
100
AcDbLine
 10
39.85366199999999
 20
23.677023
 30
0.0
 11
40.721945
 21
24.545306
 31
0.0
  0
LINE
  5
33D3
330
33B1
100
AcDbEntity
  8
0
  6
CONTINUOUS
 62
     0
100
AcDbLine
 10
37.22185
 20
21.04521099999999
 30
0.0
 11
38.375638
 21
22.198999
 31
0.0
  0
LINE
  5
33D4
330
33B1
100
AcDbEntity
  8
0
  6
CONTINUOUS
 62
     0
100
AcDbLine
 10
39.63845399999999
 20
23.744657
 30
0.0
 11
40.501236
 21
24.607439
 31
0.0
  0
LINE
  5
33D5
330
33B1
100
AcDbEntity
  8
0
  6
CONTINUOUS
 62
     0
100
AcDbLine
 10
37.07656
 20
21.182763
 30
0.0
 11
38.97299
 21
23.079194
 31
0.0
  0
LINE
  5
33D6
330
33B1
100
AcDbEntity
  8
0
  6
CONTINUOUS
 62
     0
100
AcDbLine
 10
39.38487999999999
 20
23.77392599999999
 30
0.0
 11
40.269576
 21
24.658623
 31
0.0
  0
LINE
  5
33D7
330
33B1
100
AcDbEntity
  8
0
  6
CONTINUOUS
 62
     0
100
AcDbLine
 10
36.946052
 20
21.335098
 30
0.0
 11
38.69014699999999
 21
23.079194
 31
0.0
  0
LINE
  5
33D8
330
33B1
100
AcDbEntity
  8
0
  6
CONTINUOUS
 62
     0
100
AcDbLine
 10
39.069245
 20
23.741134
 30
0.0
 11
40.026103
 21
24.697992
 31
0.0
  0
LINE
  5
33D9
330
33B1
100
AcDbEntity
  8
0
  6
CONTINUOUS
 62
     0
100
AcDbLine
 10
36.825922
 20
21.49781099999999
 30
0.0
 11
38.407305
 21
23.079194
 31
0.0
  0
LINE
  5
33DA
330
33B1
100
AcDbEntity
  8
0
  6
CONTINUOUS
 62
     0
100
AcDbLine
 10
36.722045
 20
21.676776
 30
0.0
 11
39.76916899999999
 21
24.723901
 31
0.0
  0
LINE
  5
33DB
330
33B1
100
AcDbEntity
  8
0
  6
CONTINUOUS
 62
     0
100
AcDbLine
 10
36.63367199999999
 20
21.871247
 30
0.0
 11
39.492393
 21
24.729967
 31
0.0
  0
LINE
  5
33DC
330
33B1
100
AcDbEntity
  8
0
  6
CONTINUOUS
 62
     0
100
AcDbLine
 10
36.558727
 20
22.07914399999999
 30
0.0
 11
39.21488899999999
 21
24.735306
 31
0.0
  0
LINE
  5
33DD
330
33B1
100
AcDbEntity
  8
0
  6
CONTINUOUS
 62
     0
100
AcDbLine
 10
36.503475
 20
22.30673499999999
 30
0.0
 11
38.910338
 21
24.713597
 31
0.0
  0
LINE
  5
33DE
330
33B1
100
AcDbEntity
  8
0
  6
CONTINUOUS
 62
     0
100
AcDbLine
 10
36.47892399999999
 20
22.56502699999999
 30
0.0
 11
38.59996399999999
 21
24.686067
 31
0.0
  0
LINE
  5
33DF
330
33B1
100
AcDbEntity
  8
0
  6
CONTINUOUS
 62
     0
100
AcDbLine
 10
36.497306
 20
22.866251
 30
0.0
 11
38.252546
 21
24.62149099999999
 31
0.0
  0
LINE
  5
33E0
330
33B1
100
AcDbEntity
  8
0
  6
CONTINUOUS
 62
     0
100
AcDbLine
 10
36.58207
 20
23.233858
 30
0.0
 11
37.861674
 21
24.513462
 31
0.0
  0
LINE
  5
33E1
330
33B1
100
AcDbEntity
  8
0
  6
CONTINUOUS
 62
     0
100
AcDbLine
 10
36.878958
 20
23.813588
 30
0.0
 11
37.289934
 21
24.224564
 31
0.0
  0
ENDBLK
  5
33E3
330
33B1
100
AcDbEntity
  8
0
100
AcDbBlockEnd
  0
BLOCK
  5
3405
330
33E4
100
AcDbEntity
  8
0
100
AcDbBlockBegin
  2
*X13
 70
     1
 10
0.0
 20
0.0
 30
0.0
  3
*X13
  1

  0
LINE
  5
33E5
330
33E4
100
AcDbEntity
  8
0
  6
CONTINUOUS
 62
     0
100
AcDbLine
 10
47.249714
 20
22.58779399999999
 30
0.0
 11
47.287957
 21
22.62603599999999
 31
0.0
  0
LINE
  5
33E6
330
33E4
100
AcDbEntity
  8
0
  6
CONTINUOUS
 62
     0
100
AcDbLine
 10
46.96687199999999
 20
22.58779399999999
 30
0.0
 11
47.307662
 21
22.928584
 31
0.0
  0
LINE
  5
33E7
330
33E4
100
AcDbEntity
  8
0
  6
CONTINUOUS
 62
     0
100
AcDbLine
 10
46.68402899999999
 20
22.58779399999999
 30
0.0
 11
47.29611499999999
 21
23.19987999999999
 31
0.0
  0
LINE
  5
33E8
330
33E4
100
AcDbEntity
  8
0
  6
CONTINUOUS
 62
     0
100
AcDbLine
 10
46.401186
 20
22.58779399999999
 30
0.0
 11
47.261533
 21
23.448141
 31
0.0
  0
LINE
  5
33E9
330
33E4
100
AcDbEntity
  8
0
  6
CONTINUOUS
 62
     0
100
AcDbLine
 10
44.445486
 20
20.63209399999999
 30
0.0
 11
44.459623
 21
20.64623
 31
0.0
  0
LINE
  5
33EA
330
33E4
100
AcDbEntity
  8
0
  6
CONTINUOUS
 62
     0
100
AcDbLine
 10
46.11834299999999
 20
22.58779399999999
 30
0.0
 11
47.209214
 21
23.67866499999999
 31
0.0
  0
LINE
  5
33EB
330
33E4
100
AcDbEntity
  8
0
  6
CONTINUOUS
 62
     0
100
AcDbLine
 10
44.162643
 20
20.63209399999999
 30
0.0
 11
44.459623
 21
20.929073
 31
0.0
  0
LINE
  5
33EC
330
33E4
100
AcDbEntity
  8
0
  6
CONTINUOUS
 62
     0
100
AcDbLine
 10
45.835501
 20
22.58779399999999
 30
0.0
 11
47.132011
 21
23.884304
 31
0.0
  0
LINE
  5
33ED
330
33E4
100
AcDbEntity
  8
0
  6
CONTINUOUS
 62
     0
100
AcDbLine
 10
43.879801
 20
20.63209399999999
 30
0.0
 11
44.459623
 21
21.21191599999999
 31
0.0
  0
LINE
  5
33EE
330
33E4
100
AcDbEntity
  8
0
  6
CONTINUOUS
 62
     0
100
AcDbLine
 10
45.55265799999999
 20
22.58779399999999
 30
0.0
 11
47.02930300000001
 21
24.06443799999999
 31
0.0
  0
LINE
  5
33EF
330
33E4
100
AcDbEntity
  8
0
  6
CONTINUOUS
 62
     0
100
AcDbLine
 10
43.59695799999999
 20
20.63209399999999
 30
0.0
 11
44.459623
 21
21.494759
 31
0.0
  0
LINE
  5
33F0
330
33E4
100
AcDbEntity
  8
0
  6
CONTINUOUS
 62
     0
100
AcDbLine
 10
45.45457299999999
 20
22.772551
 30
0.0
 11
46.900895
 21
24.218874
 31
0.0
  0
LINE
  5
33F1
330
33E4
100
AcDbEntity
  8
0
  6
CONTINUOUS
 62
     0
100
AcDbLine
 10
43.314115
 20
20.63209399999999
 30
0.0
 11
44.459623
 21
21.77760099999999
 31
0.0
  0
LINE
  5
33F2
330
33E4
100
AcDbEntity
  8
0
  6
CONTINUOUS
 62
     0
100
AcDbLine
 10
45.418199
 20
23.01902
 30
0.0
 11
46.74470999999999
 21
24.345531
 31
0.0
  0
LINE
  5
33F3
330
33E4
100
AcDbEntity
  8
0
  6
CONTINUOUS
 62
     0
100
AcDbLine
 10
43.03127299999999
 20
20.63209399999999
 30
0.0
 11
44.459623
 21
22.060444
 31
0.0
  0
LINE
  5
33F4
330
33E4
100
AcDbEntity
  8
0
  6
CONTINUOUS
 62
     0
100
AcDbLine
 10
45.294614
 20
23.17827799999999
 30
0.0
 11
46.558784
 21
24.442448
 31
0.0
  0
LINE
  5
33F5
330
33E4
100
AcDbEntity
  8
0
  6
CONTINUOUS
 62
     0
100
AcDbLine
 10
42.74842999999999
 20
20.63209399999999
 30
0.0
 11
44.459623
 21
22.343287
 31
0.0
  0
LINE
  5
33F6
330
33E4
100
AcDbEntity
  8
0
  6
CONTINUOUS
 62
     0
100
AcDbLine
 10
45.10254699999999
 20
23.26905299999999
 30
0.0
 11
46.34635699999999
 21
24.512863
 31
0.0
  0
LINE
  5
33F7
330
33E4
100
AcDbEntity
  8
0
  6
CONTINUOUS
 62
     0
100
AcDbLine
 10
42.732973
 20
20.89947899999999
 30
0.0
 11
44.459623
 21
22.626129
 31
0.0
  0
LINE
  5
33F8
330
33E4
100
AcDbEntity
  8
0
  6
CONTINUOUS
 62
     0
100
AcDbLine
 10
44.79762199999999
 20
23.24697099999999
 30
0.0
 11
46.11516599999999
 21
24.564515
 31
0.0
  0
LINE
  5
33F9
330
33E4
100
AcDbEntity
  8
0
  6
CONTINUOUS
 62
     0
100
AcDbLine
 10
42.732973
 20
21.182322
 30
0.0
 11
44.492506
 21
22.941855
 31
0.0
  0
LINE
  5
33FA
330
33E4
100
AcDbEntity
  8
0
  6
CONTINUOUS
 62
     0
100
AcDbLine
 10
42.732973
 20
21.465165
 30
0.0
 11
45.85771499999999
 21
24.58990599999999
 31
0.0
  0
LINE
  5
33FB
330
33E4
100
AcDbEntity
  8
0
  6
CONTINUOUS
 62
     0
100
AcDbLine
 10
42.732973
 20
21.74800799999999
 30
0.0
 11
45.563093
 21
24.57812699999999
 31
0.0
  0
LINE
  5
33FC
330
33E4
100
AcDbEntity
  8
0
  6
CONTINUOUS
 62
     0
100
AcDbLine
 10
42.732973
 20
22.03085
 30
0.0
 11
45.22227700000001
 21
24.52015499999999
 31
0.0
  0
LINE
  5
33FD
330
33E4
100
AcDbEntity
  8
0
  6
CONTINUOUS
 62
     0
100
AcDbLine
 10
42.732973
 20
22.313693
 30
0.0
 11
44.777089
 21
24.357809
 31
0.0
  0
LINE
  5
33FE
330
33E4
100
AcDbEntity
  8
0
  6
CONTINUOUS
 62
     0
100
AcDbLine
 10
42.732973
 20
22.59653599999999
 30
0.0
 11
44.459623
 21
24.323186
 31
0.0
  0
LINE
  5
33FF
330
33E4
100
AcDbEntity
  8
0
  6
CONTINUOUS
 62
     0
100
AcDbLine
 10
42.732973
 20
22.87937799999999
 30
0.0
 11
44.361988
 21
24.508394
 31
0.0
  0
LINE
  5
3400
330
33E4
100
AcDbEntity
  8
0
  6
CONTINUOUS
 62
     0
100
AcDbLine
 10
42.732973
 20
23.162221
 30
0.0
 11
44.079145
 21
24.508394
 31
0.0
  0
LINE
  5
3401
330
33E4
100
AcDbEntity
  8
0
  6
CONTINUOUS
 62
     0
100
AcDbLine
 10
42.732973
 20
23.445064
 30
0.0
 11
43.796303
 21
24.508394
 31
0.0
  0
LINE
  5
3402
330
33E4
100
AcDbEntity
  8
0
  6
CONTINUOUS
 62
     0
100
AcDbLine
 10
42.732973
 20
23.727907
 30
0.0
 11
43.51345999999999
 21
24.508394
 31
0.0
  0
LINE
  5
3403
330
33E4
100
AcDbEntity
  8
0
  6
CONTINUOUS
 62
     0
100
AcDbLine
 10
42.732973
 20
24.010749
 30
0.0
 11
43.23061699999999
 21
24.508394
 31
0.0
  0
LINE
  5
3404
330
33E4
100
AcDbEntity
  8
0
  6
CONTINUOUS
 62
     0
100
AcDbLine
 10
42.732973
 20
24.293592
 30
0.0
 11
42.947775
 21
24.508394
 31
0.0
  0
ENDBLK
  5
3406
330
33E4
100
AcDbEntity
  8
0
100
AcDbBlockEnd
  0
BLOCK
  5
34D4
330
34C1
100
AcDbEntity
  8
0
100
AcDbBlockBegin
  2
B
 70
     0
 10
0.0
 20
0.0
 30
0.0
  3
B
  1

  0
LINE
  5
34C2
330
34C1
100
AcDbEntity
  8
0
  6
CONTINUOUS
 62
     1
100
AcDbLine
 10
149.5612251281738
 20
161.4217049421775
 30
0.0
 11
126.6612220712393
 21
161.4217049421775
 31
0.0
  0
LINE
  5
34C3
330
34C1
100
AcDbEntity
  8
0
  6
CONTINUOUS
 62
     1
100
AcDbLine
 10
156.0612249374389
 20
171.9217049421774
 30
0.0
 11
156.0612249374389
 21
167.9217047514426
 31
0.0
  0
LINE
  5
34C4
330
34C1
100
AcDbEntity
  8
0
  6
CONTINUOUS
 62
     1
100
AcDbLine
 10
155.261224925518
 20
171.9217049421774
 30
0.0
 11
156.0612249374389
 21
171.9217049421774
 31
0.0
  0
LINE
  5
34C5
330
34C1
100
AcDbEntity
  8
0
  6
CONTINUOUS
 62
     1
100
AcDbLine
 10
126.6612224871716
 20
162.2217049191293
 30
0.0
 11
126.6612224871716
 21
161.4217049421775
 31
0.0
  0
LINE
  5
34C6
330
34C1
100
AcDbEntity
  8
0
  6
CONTINUOUS
 62
     1
100
AcDbLine
 10
126.6612232332959
 20
171.9217049072083
 30
0.0
 11
155.261224925518
 21
171.9217049072083
 31
0.0
  0
ARC
  5
34C7
330
34C1
100
AcDbEntity
  8
0
  6
CONTINUOUS
 62
     1
100
AcDbCircle
 10
149.5612251281738
 20
167.9217047514426
 30
0.0
 40
6.499999809265137
100
AcDbArc
 50
270.0
 51
0.0
  0
LINE
  5
34C8
330
34C1
100
AcDbEntity
  8
0
  6
CONTINUOUS
 62
     1
100
AcDbLine
 10
126.6612224871716
 20
165.1217049072084
 30
0.0
 11
126.6612221689715
 21
162.2217049191293
 31
0.0
  0
LINE
  5
34C9
330
34C1
100
AcDbEntity
  8
0
  6
CONTINUOUS
 62
     1
100
AcDbLine
 10
126.6612231455165
 20
171.1217042027105
 30
0.0
 11
125.0612249374389
 21
171.1217042027105
 31
0.0
  0
LINE
  5
34CA
330
34C1
100
AcDbEntity
  8
0
  6
CONTINUOUS
 62
     1
100
AcDbLine
 10
125.0612249374389
 20
165.1217049072084
 30
0.0
 11
126.6612224871716
 21
165.1217049072084
 31
0.0
  0
LINE
  5
34CB
330
34C1
100
AcDbEntity
  8
0
  6
CONTINUOUS
 62
     1
100
AcDbLine
 10
125.0612249374389
 20
171.1217042027105
 30
0.0
 11
125.0612249374389
 21
165.1217049072083
 31
0.0
  0
LINE
  5
34CC
330
34C1
100
AcDbEntity
  8
0
  6
CONTINUOUS
 62
     1
100
AcDbLine
 10
126.6612232332959
 20
171.9217049072083
 30
0.0
 11
126.6612231455165
 21
171.1217042027105
 31
0.0
  0
LINE
  5
34CD
330
34C1
100
AcDbEntity
  8
0
  6
CONTINUOUS
 62
     1
100
AcDbLine
 10
156.0612249374389
 20
166.8717041100823
 30
0.0
 11
155.9758564921433
 21
166.8717041100823
 31
0.0
  0
LINE
  5
34CE
330
34C1
100
AcDbEntity
  8
0
  6
CONTINUOUS
 62
     1
100
AcDbLine
 10
156.0612249374389
 20
166.8717041100823
 30
0.0
 11
156.0612249374389
 21
167.8717039133811
 31
0.0
  0
LINE
  5
34CF
330
34C1
100
AcDbEntity
  8
0
  6
CONTINUOUS
 62
     1
100
AcDbLine
 10
156.4612249374389
 20
168.2865097083155
 30
0.0
 11
156.4612249374389
 21
167.8717040281203
 31
0.0
  0
LINE
  5
34D0
330
34C1
100
AcDbEntity
  8
0
  6
CONTINUOUS
 62
     1
100
AcDbLine
 10
156.0612249374389
 20
168.8717041100823
 30
0.0
 11
156.4612249374389
 21
168.2865097083155
 31
0.0
  0
LINE
  5
34D1
330
34C1
100
AcDbEntity
  8
0
  6
CONTINUOUS
 62
     1
100
AcDbLine
 10
156.4612249374389
 20
167.8717040281203
 30
0.0
 11
156.4612249374389
 21
167.4568985118492
 31
0.0
  0
LINE
  5
34D2
330
34C1
100
AcDbEntity
  8
0
  6
CONTINUOUS
 62
     1
100
AcDbLine
 10
156.0612249374389
 20
166.8717041100823
 30
0.0
 11
156.4612249374389
 21
167.4568985118491
 31
0.0
  0
LINE
  5
34D3
330
34C1
100
AcDbEntity
  8
0
  6
CONTINUOUS
 62
     1
100
AcDbLine
 10
156.0612249374389
 20
167.8717039133811
 30
0.0
 11
156.4612249374389
 21
167.8717040281202
 31
0.0
  0
ENDBLK
  5
34D5
330
34C1
100
AcDbEntity
  8
0
100
AcDbBlockEnd
  0
BLOCK
  5
354F
330
34D6
100
AcDbEntity
  8
0
100
AcDbBlockBegin
  2
D
 70
     0
 10
0.0
 20
0.0
 30
0.0
  3
D
  1

  0
LINE
  5
34D7
330
34D6
100
AcDbEntity
  8
0
  6
CONTINUOUS
 62
     7
100
AcDbLine
 10
57.26750678803853
 20
174.674670937894
 30
0.0
 11
56.06750390120772
 21
174.6746709902548
 31
0.0
  0
LINE
  5
34D8
330
34D6
100
AcDbEntity
  8
0
  6
CONTINUOUS
 62
     7
100
AcDbLine
 10
68.46750577900104
 20
174.6746704491947
 30
0.0
 11
67.26750559149564
 21
174.6746705015553
 31
0.0
  0
LINE
  5
34D9
330
34D6
100
AcDbEntity
  8
0
  6
CONTINUOUS
 62
     7
100
AcDbLine
 10
68.46750577385103
 20
174.8746660122437
 30
0.0
 11
68.46750577900104
 21
174.6746704491946
 31
0.0
  0
LINE
  5
34DA
330
34D6
100
AcDbEntity
  8
0
  6
CONTINUOUS
 62
     7
100
AcDbLine
 10
56.06750458189617
 20
190.2746702734735
 30
0.0
 11
56.06750390120772
 21
174.6746709902549
 31
0.0
  0
ARC
  5
34DB
330
34D6
100
AcDbEntity
  8
0
  6
CONTINUOUS
 62
     7
100
AcDbCircle
 10
56.49250412381355
 20
203.2496717603666
 30
0.0
 40
0.2000000029802323
100
AcDbArc
 50
90.0
 51
180.0
  0
ARC
  5
34DC
330
34D6
100
AcDbEntity
  8
0
  6
CONTINUOUS
 62
     7
100
AcDbCircle
 10
68.04250411785313
 20
203.2496717603666
 30
0.0
 40
0.2000000029802323
100
AcDbArc
 50
0.0
 51
90.0
  0
ARC
  5
34DD
330
34D6
100
AcDbEntity
  8
0
  6
CONTINUOUS
 62
     7
100
AcDbCircle
 10
68.04250411785313
 20
175.0996717663271
 30
0.0
 40
0.2000000029802323
100
AcDbArc
 50
270.0
 51
0.0
  0
LINE
  5
34DE
330
34D6
100
AcDbEntity
  8
0
  6
CONTINUOUS
 62
     7
100
AcDbLine
 10
68.04250411785313
 20
203.4496717633468
 30
0.0
 11
56.4925041238136
 21
203.4496717633468
 31
0.0
  0
LINE
  5
34DF
330
34D6
100
AcDbEntity
  8
0
  6
CONTINUOUS
 62
     7
100
AcDbLine
 10
68.24250412083336
 20
175.0996717663271
 30
0.0
 11
68.24250412083332
 21
203.2496717603667
 31
0.0
  0
ARC
  5
34E0
330
34D6
100
AcDbEntity
  8
0
  6
CONTINUOUS
 62
     7
100
AcDbCircle
 10
64.29250423885412
 20
180.8996718555169
 30
0.0
 40
3.199999999999997
100
AcDbArc
 50
0.0
 51
90.0
  0
LINE
  5
34E1
330
34D6
100
AcDbEntity
  8
0
  6
CONTINUOUS
 62
     7
100
AcDbLine
 10
60.46237710361129
 20
177.9746714975859
 30
0.0
 11
59.79250423181195
 21
177.9746715829285
 31
0.0
  0
LINE
  5
34E2
330
34D6
100
AcDbEntity
  8
0
  6
CONTINUOUS
 62
     7
100
AcDbLine
 10
57.7925042318119
 20
177.9746715829285
 30
0.0
 11
57.12263114145563
 21
177.9746714975859
 31
0.0
  0
LINE
  5
34E3
330
34D6
100
AcDbEntity
  8
0
  6
CONTINUOUS
 62
     7
100
AcDbLine
 10
57.7925042318119
 20
177.9746715829285
 30
0.0
 11
59.7925042318119
 21
177.9746715829285
 31
0.0
  0
LINE
  5
34E4
330
34D6
100
AcDbEntity
  8
0
  6
CONTINUOUS
 62
     7
100
AcDbLine
 10
57.7925042318119
 20
178.4996718486895
 30
0.0
 11
57.7925042318119
 21
177.9746715829285
 31
0.0
  0
LINE
  5
34E5
330
34D6
100
AcDbEntity
  8
0
  6
CONTINUOUS
 62
     7
100
AcDbLine
 10
58.69250432547926
 20
178.4996718486895
 30
0.0
 11
57.79250423181188
 21
178.4996718486895
 31
0.0
  0
LINE
  5
34E6
330
34D6
100
AcDbEntity
  8
0
  6
CONTINUOUS
 62
     7
100
AcDbLine
 10
59.7925042318119
 20
177.9746715829285
 30
0.0
 11
59.7925042318119
 21
178.4996718486895
 31
0.0
  0
LINE
  5
34E7
330
34D6
100
AcDbEntity
  8
0
  6
CONTINUOUS
 62
     7
100
AcDbLine
 10
67.49250412083336
 20
174.8996717633469
 30
0.0
 11
68.04250411785313
 21
174.8996717633469
 31
0.0
  0
LINE
  5
34E8
330
34D6
100
AcDbEntity
  8
0
  6
CONTINUOUS
 62
     7
100
AcDbLine
 10
56.29250412083331
 20
203.2496717603666
 30
0.0
 11
56.29250412083334
 21
184.0996717633468
 31
0.0
  0
LINE
  5
34E9
330
34D6
100
AcDbEntity
  8
0
  6
CONTINUOUS
 62
     7
100
AcDbLine
 10
63.01750412083333
 20
196.5746689240735
 30
0.0
 11
64.89250412083333
 21
196.5746689240735
 31
0.0
  0
LINE
  5
34EA
330
34D6
100
AcDbEntity
  8
0
  6
CONTINUOUS
 62
     7
100
AcDbLine
 10
63.01750412083333
 20
198.7746689240736
 30
0.0
 11
64.89250412083333
 21
198.7746689240736
 31
0.0
  0
LINE
  5
34EB
330
34D6
100
AcDbEntity
  8
0
  6
CONTINUOUS
 62
     7
100
AcDbLine
 10
64.89250412083333
 20
196.5746689240735
 30
0.0
 11
64.89250412083333
 21
198.7746689240736
 31
0.0
  0
LINE
  5
34EC
330
34D6
100
AcDbEntity
  8
0
  6
CONTINUOUS
 62
     7
100
AcDbLine
 10
58.41750412083332
 20
198.7746689240736
 30
0.0
 11
57.14250395795041
 21
198.7746689240736
 31
0.0
  0
LINE
  5
34ED
330
34D6
100
AcDbEntity
  8
0
  6
CONTINUOUS
 62
     7
100
AcDbLine
 10
58.41750412083337
 20
196.5746689240735
 30
0.0
 11
57.14250386420774
 21
196.5746689240735
 31
0.0
  0
LINE
  5
34EE
330
34D6
100
AcDbEntity
  8
0
  6
CONTINUOUS
 62
     7
100
AcDbLine
 10
57.14250395795045
 20
198.7746689240736
 30
0.0
 11
57.14250386420774
 21
196.5746689240736
 31
0.0
  0
LINE
  5
34EF
330
34D6
100
AcDbEntity
  8
0
  6
CONTINUOUS
 62
     7
100
AcDbLine
 10
58.41750412083337
 20
196.5746689240735
 30
0.0
 11
58.41750412083337
 21
198.7746689240735
 31
0.0
  0
LINE
  5
34F0
330
34D6
100
AcDbEntity
  8
0
  6
CONTINUOUS
 62
     7
100
AcDbLine
 10
63.01750412083333
 20
198.7746689240736
 30
0.0
 11
63.01750412083333
 21
196.5746689240736
 31
0.0
  0
LINE
  5
34F1
330
34D6
100
AcDbEntity
  8
0
  6
CONTINUOUS
 62
     7
100
AcDbLine
 10
57.24250618092014
 20
202.6746683291417
 30
0.0
 11
61.76750539998121
 21
202.6746683291417
 31
0.0
  0
LINE
  5
34F2
330
34D6
100
AcDbEntity
  8
0
  6
CONTINUOUS
 62
     7
100
AcDbLine
 10
57.24250618092014
 20
200.8746689121526
 30
0.0
 11
57.54250614912969
 21
201.1746688899365
 31
0.0
  0
LINE
  5
34F3
330
34D6
100
AcDbEntity
  8
0
  6
CONTINUOUS
 62
     7
100
AcDbLine
 10
61.76750539998124
 20
200.8746689121526
 30
0.0
 11
61.46750534434893
 21
201.1746688899365
 31
0.0
  0
LINE
  5
34F4
330
34D6
100
AcDbEntity
  8
0
  6
CONTINUOUS
 62
     7
100
AcDbLine
 10
57.54250614912968
 20
201.1746688899365
 30
0.0
 11
61.4675053443489
 21
201.1746688899365
 31
0.0
  0
LINE
  5
34F5
330
34D6
100
AcDbEntity
  8
0
  6
CONTINUOUS
 62
     7
100
AcDbLine
 10
57.24250618092014
 20
200.8746689121526
 30
0.0
 11
61.76750539998121
 21
200.8746689121526
 31
0.0
  0
LINE
  5
34F6
330
34D6
100
AcDbEntity
  8
0
  6
CONTINUOUS
 62
     7
100
AcDbLine
 10
57.54250614912968
 20
202.6746682950047
 30
0.0
 11
57.54250614912968
 21
201.1746688899366
 31
0.0
  0
LINE
  5
34F7
330
34D6
100
AcDbEntity
  8
0
  6
CONTINUOUS
 62
     7
100
AcDbLine
 10
57.24250618092014
 20
202.6746683291417
 30
0.0
 11
57.24250618092014
 21
200.8746689121526
 31
0.0
  0
LINE
  5
34F8
330
34D6
100
AcDbEntity
  8
0
  6
CONTINUOUS
 62
     7
100
AcDbLine
 10
61.46750534434886
 20
202.6746682950047
 30
0.0
 11
61.46750534434886
 21
201.1746688899366
 31
0.0
  0
LINE
  5
34F9
330
34D6
100
AcDbEntity
  8
0
  6
CONTINUOUS
 62
     7
100
AcDbLine
 10
61.76750539998124
 20
202.6746683291417
 30
0.0
 11
61.76750539998124
 21
200.8746689121526
 31
0.0
  0
LINE
  5
34FA
330
34D6
100
AcDbEntity
  8
0
  6
CONTINUOUS
 62
     7
100
AcDbLine
 10
56.49250424183434
 20
183.2996718486895
 30
0.0
 11
56.29250423011183
 21
183.2996718486895
 31
0.0
  0
LINE
  5
34FB
330
34D6
100
AcDbEntity
  8
0
  6
CONTINUOUS
 62
     7
100
AcDbLine
 10
56.49250424183434
 20
184.0996718486895
 30
0.0
 11
56.29250423011183
 21
184.0996718486895
 31
0.0
  0
LINE
  5
34FC
330
34D6
100
AcDbEntity
  8
0
  6
CONTINUOUS
 62
     7
100
AcDbLine
 10
67.49250423011187
 20
175.0996718584971
 30
0.0
 11
67.49250423011187
 21
174.8996718486895
 31
0.0
  0
LINE
  5
34FD
330
34D6
100
AcDbEntity
  8
0
  6
CONTINUOUS
 62
     7
100
AcDbLine
 10
66.69250423011186
 20
175.0996718584971
 30
0.0
 11
66.69250423011186
 21
174.8996718486895
 31
0.0
  0
LINE
  5
34FE
330
34D6
100
AcDbEntity
  8
0
  6
CONTINUOUS
 62
     7
100
AcDbLine
 10
56.49250424183435
 20
183.2996718555169
 30
0.0
 11
64.29250423885412
 21
183.2996718555169
 31
0.0
  0
LINE
  5
34FF
330
34D6
100
AcDbEntity
  8
0
  6
CONTINUOUS
 62
     7
100
AcDbLine
 10
64.29250423885412
 20
184.0996718555168
 30
0.0
 11
56.49250424183437
 21
184.0996718555168
 31
0.0
  0
LINE
  5
3500
330
34D6
100
AcDbEntity
  8
0
  6
CONTINUOUS
 62
     7
100
AcDbLine
 10
56.29250423011183
 20
184.0996718486895
 30
0.0
 11
56.29250423011183
 21
183.2996718486895
 31
0.0
  0
LINE
  5
3501
330
34D6
100
AcDbEntity
  8
0
  6
CONTINUOUS
 62
     7
100
AcDbLine
 10
67.49250423885417
 20
175.0996718584971
 30
0.0
 11
67.49250423885415
 21
180.8996718555169
 31
0.0
  0
LINE
  5
3502
330
34D6
100
AcDbEntity
  8
0
  6
CONTINUOUS
 62
     7
100
AcDbLine
 10
66.6925042388541
 20
180.8996718555169
 30
0.0
 11
66.69250423885412
 21
175.0996718584971
 31
0.0
  0
LINE
  5
3503
330
34D6
100
AcDbEntity
  8
0
  6
CONTINUOUS
 62
     7
100
AcDbLine
 10
66.69250423011186
 20
174.8996718486895
 30
0.0
 11
67.49250423011186
 21
174.8996718486895
 31
0.0
  0
LINE
  5
3504
330
34D6
100
AcDbEntity
  8
0
  6
CONTINUOUS
 62
     7
100
AcDbLine
 10
57.79250411160558
 20
175.9746714890516
 30
0.0
 11
61.77292347099797
 21
175.9746714890516
 31
0.0
  0
LINE
  5
3505
330
34D6
100
AcDbEntity
  8
0
  6
CONTINUOUS
 62
     7
100
AcDbLine
 10
60.46237709268337
 20
177.9746714890516
 30
0.0
 11
61.2370250861357
 21
177.9746714890516
 31
0.0
  0
LINE
  5
3506
330
34D6
100
AcDbEntity
  8
0
  6
CONTINUOUS
 62
     7
100
AcDbLine
 10
61.23702509706356
 20
177.9746714975859
 30
0.0
 11
61.79250412253342
 21
177.9746714975859
 31
0.0
  0
LINE
  5
3507
330
34D6
100
AcDbEntity
  8
0
  6
CONTINUOUS
 62
     7
100
AcDbLine
 10
61.77292348192583
 20
175.9746714975859
 30
0.0
 11
61.79250412253344
 21
175.9746714975859
 31
0.0
  0
LINE
  5
3508
330
34D6
100
AcDbEntity
  8
0
  6
CONTINUOUS
 62
     7
100
AcDbLine
 10
61.79250412253344
 20
177.9746714975859
 30
0.0
 11
61.79250412253344
 21
175.9746714975859
 31
0.0
  0
LINE
  5
3509
330
34D6
100
AcDbEntity
  8
0
  6
CONTINUOUS
 62
     7
100
AcDbLine
 10
56.2925041099055
 20
175.0996717577928
 30
0.0
 11
56.2925041099055
 21
180.2509604493038
 31
0.0
  0
LINE
  5
350A
330
34D6
100
AcDbEntity
  8
0
  6
CONTINUOUS
 62
     7
100
AcDbLine
 10
56.49250411288574
 20
174.8996717548126
 30
0.0
 11
62.06096878165095
 21
174.8996717548126
 31
0.0
  0
ARC
  5
350B
330
34D6
100
AcDbEntity
  8
0
  6
CONTINUOUS
 62
     7
100
AcDbCircle
 10
56.49250411288574
 20
175.0996717577928
 30
0.0
 40
0.2000000029802323
100
AcDbArc
 50
180.0
 51
270.0
  0
LINE
  5
350C
330
34D6
100
AcDbEntity
  8
0
  6
CONTINUOUS
 62
     7
100
AcDbLine
 10
56.29250412083343
 20
180.899671719185
 30
0.0
 11
56.29250412083343
 21
180.2509604578381
 31
0.0
  0
LINE
  5
350D
330
34D6
100
AcDbEntity
  8
0
  6
CONTINUOUS
 62
     7
100
AcDbLine
 10
56.29250412083343
 20
183.2996717633469
 30
0.0
 11
56.29250412083343
 21
180.8996719508844
 31
0.0
  0
LINE
  5
350E
330
34D6
100
AcDbEntity
  8
0
  6
CONTINUOUS
 62
     7
100
AcDbLine
 10
62.06096879257882
 20
174.8996717633469
 30
0.0
 11
66.69250412083336
 21
174.8996717633469
 31
0.0
  0
LINE
  5
350F
330
34D6
100
AcDbEntity
  8
0
  6
CONTINUOUS
 62
     7
100
AcDbLine
 10
57.79250411160558
 20
175.9746714890516
 30
0.0
 11
57.79250411160558
 21
177.9746714890516
 31
0.0
  0
LINE
  5
3510
330
34D6
100
AcDbEntity
  8
0
  6
CONTINUOUS
 62
     7
100
AcDbLine
 10
57.7925042318119
 20
178.4996718486895
 30
0.0
 11
57.12263114145563
 21
178.4996717633468
 31
0.0
  0
LINE
  5
3511
330
34D6
100
AcDbEntity
  8
0
  6
CONTINUOUS
 62
     7
100
AcDbLine
 10
60.46237710361129
 20
177.9746714975859
 30
0.0
 11
60.46237710361129
 21
178.4996717633468
 31
0.0
  0
LINE
  5
3512
330
34D6
100
AcDbEntity
  8
0
  6
CONTINUOUS
 62
     7
100
AcDbLine
 10
57.1226311414556
 20
177.9746714975859
 30
0.0
 11
57.1226311414556
 21
178.4996717633468
 31
0.0
  0
ARC
  5
3513
330
34D6
100
AcDbEntity
  8
0
  6
CONTINUOUS
 62
     7
100
AcDbCircle
 10
64.29250423885412
 20
180.8996718555169
 30
0.0
 40
2.399999999999999
100
AcDbArc
 50
0.0
 51
90.0
  0
LINE
  5
3514
330
34D6
100
AcDbEntity
  8
0
  6
CONTINUOUS
 62
     7
100
AcDbLine
 10
67.26750642201193
 20
172.6746742732546
 30
0.0
 11
64.26750666043054
 21
172.6746742732546
 31
0.0
  0
LINE
  5
3515
330
34D6
100
AcDbEntity
  8
0
  6
CONTINUOUS
 62
     7
100
AcDbLine
 10
67.26750642201193
 20
174.8404847474794
 30
0.0
 11
64.26750666043054
 21
174.8404847474794
 31
0.0
  0
LINE
  5
3516
330
34D6
100
AcDbEntity
  8
0
  6
CONTINUOUS
 62
     7
100
AcDbLine
 10
64.26750666043052
 20
174.8404847474794
 30
0.0
 11
64.26750666043052
 21
172.6746742732547
 31
0.0
  0
ARC
  5
3517
330
34D6
100
AcDbEntity
  8
0
  6
CONTINUOUS
 62
     7
100
AcDbCircle
 10
68.26751449816595
 20
203.474679112664
 30
0.0
 40
0.1999892335711711
100
AcDbArc
 50
359.999096383536
 51
90.00090361644742
  0
ARC
  5
3518
330
34D6
100
AcDbEntity
  8
0
  6
CONTINUOUS
 62
     7
100
AcDbCircle
 10
56.26749423746628
 20
203.4746791126639
 30
0.0
 40
0.1999892335711777
100
AcDbArc
 50
89.99909638353427
 51
180.0009036164374
  0
ARC
  5
3519
330
34D6
100
AcDbEntity
  8
0
  6
CONTINUOUS
 62
     7
100
AcDbCircle
 10
68.26751449816606
 20
174.874662858197
 30
0.0
 40
0.1999892335711214
100
AcDbArc
 50
269.9990963835322
 51
0.0009036164680083
  0
ARC
  5
351A
330
34D6
100
AcDbEntity
  8
0
  6
CONTINUOUS
 62
     7
100
AcDbCircle
 10
56.26749423746616
 20
174.874662858197
 30
0.0
 40
0.1999892335710712
100
AcDbArc
 50
179.999096383536
 51
270.0009036164963
  0
LINE
  5
351B
330
34D6
100
AcDbEntity
  8
0
  6
CONTINUOUS
 62
     7
100
AcDbLine
 10
68.46750373171232
 20
174.8746660122437
 30
0.0
 11
68.4675037317123
 21
195.3746704515414
 31
0.0
  0
LINE
  5
351C
330
34D6
100
AcDbEntity
  8
0
  6
CONTINUOUS
 62
     7
100
AcDbLine
 10
56.06750500392002
 20
198.5746699401773
 30
0.0
 11
56.06750500392001
 21
203.4746759586174
 31
0.0
  0
LINE
  5
351D
330
34D6
100
AcDbEntity
  8
0
  6
CONTINUOUS
 62
     7
100
AcDbLine
 10
57.26750761855488
 20
174.8404847499347
 30
0.0
 11
57.26750761855488
 21
172.6746742732547
 31
0.0
  0
LINE
  5
351E
330
34D6
100
AcDbEntity
  8
0
  6
CONTINUOUS
 62
     7
100
AcDbLine
 10
67.26750642201193
 20
174.8404847474794
 30
0.0
 11
67.26750642201193
 21
172.6746742732547
 31
0.0
  0
LINE
  5
351F
330
34D6
100
AcDbEntity
  8
0
  6
CONTINUOUS
 62
     7
100
AcDbLine
 10
63.36750536608713
 20
174.8753923576459
 30
0.0
 11
63.36750536608713
 21
174.1746716893855
 31
0.0
  0
LINE
  5
3520
330
34D6
100
AcDbEntity
  8
0
  6
CONTINUOUS
 62
     7
100
AcDbLine
 10
61.16750536608719
 20
174.8753923576459
 30
0.0
 11
61.16750536608719
 21
174.1746716893855
 31
0.0
  0
LINE
  5
3521
330
34D6
100
AcDbEntity
  8
0
  6
CONTINUOUS
 62
     7
100
AcDbLine
 10
63.36750536608713
 20
174.1746716893855
 30
0.0
 11
61.16750536608713
 21
174.1746716893855
 31
0.0
  0
LINE
  5
3522
330
34D6
100
AcDbEntity
  8
0
  6
CONTINUOUS
 62
     7
100
AcDbLine
 10
63.36750536608713
 20
174.8753923576459
 30
0.0
 11
61.16750536608713
 21
174.8753923576459
 31
0.0
  0
LINE
  5
3523
330
34D6
100
AcDbEntity
  8
0
  6
CONTINUOUS
 62
     7
100
AcDbLine
 10
56.29091393837495
 20
198.0746690750114
 30
0.0
 11
56.29091393837498
 21
179.4745692004816
 31
0.0
  0
LINE
  5
3524
330
34D6
100
AcDbEntity
  8
0
  6
CONTINUOUS
 62
     7
100
AcDbLine
 10
68.24409703528039
 20
179.4745692004816
 30
0.0
 11
68.24409703528036
 21
198.0746690750113
 31
0.0
  0
LINE
  5
3525
330
34D6
100
AcDbEntity
  8
0
  6
CONTINUOUS
 62
     7
100
AcDbLine
 10
61.16750436072527
 20
174.6746736246507
 30
0.0
 11
60.26750608037622
 21
174.6746736246507
 31
0.0
  0
LINE
  5
3526
330
34D6
100
AcDbEntity
  8
0
  6
CONTINUOUS
 62
     7
100
AcDbLine
 10
64.26750582991423
 20
174.6746736246507
 30
0.0
 11
63.36750436357447
 21
174.6746736246507
 31
0.0
  0
LINE
  5
3527
330
34D6
100
AcDbEntity
  8
0
  6
CONTINUOUS
 62
     7
100
AcDbLine
 10
60.26750691089256
 20
172.6746742732547
 30
0.0
 11
57.26750761855484
 21
172.6746742732547
 31
0.0
  0
LINE
  5
3528
330
34D6
100
AcDbEntity
  8
0
  6
CONTINUOUS
 62
     7
100
AcDbLine
 10
60.26750691089251
 20
174.8404847499347
 30
0.0
 11
57.26750761855478
 21
174.8404847499347
 31
0.0
  0
LINE
  5
3529
330
34D6
100
AcDbEntity
  8
0
  6
CONTINUOUS
 62
     7
100
AcDbLine
 10
60.26750691089251
 20
174.8404847499347
 30
0.0
 11
60.26750691089251
 21
172.6746742732547
 31
0.0
  0
LINE
  5
352A
330
34D6
100
AcDbEntity
  8
0
  6
CONTINUOUS
 62
     7
100
AcDbLine
 10
65.14416990792603
 20
180.5941962614193
 30
0.0
 11
65.14416990792603
 21
181.2051468049397
 31
0.0
  0
LINE
  5
352B
330
34D6
100
AcDbEntity
  8
0
  6
CONTINUOUS
 62
     7
100
AcDbLine
 10
63.98702891026909
 20
180.0480057612991
 30
0.0
 11
64.59797945378958
 21
180.0480057612991
 31
0.0
  0
LINE
  5
352C
330
34D6
100
AcDbEntity
  8
0
  6
CONTINUOUS
 62
     7
100
AcDbLine
 10
63.4408384101489
 20
181.2051467589562
 30
0.0
 11
63.4408384101489
 21
180.5941962154357
 31
0.0
  0
LINE
  5
352D
330
34D6
100
AcDbEntity
  8
0
  6
CONTINUOUS
 62
     7
100
AcDbLine
 10
64.59797940780589
 20
181.7513372590763
 30
0.0
 11
63.98702886428541
 21
181.7513372590763
 31
0.0
  0
LINE
  5
352E
330
34D6
100
AcDbEntity
  8
0
  6
CONTINUOUS
 62
     7
100
AcDbLine
 10
64.01750419287044
 20
182.0996712536149
 30
0.0
 11
63.9430877942971
 21
181.2490879257387
 31
0.0
  0
LINE
  5
352F
330
34D6
100
AcDbEntity
  8
0
  6
CONTINUOUS
 62
     7
100
AcDbLine
 10
63.94308779429713
 20
181.2490879257387
 30
0.0
 11
63.09250451681328
 21
181.1746715315741
 31
0.0
  0
LINE
  5
3530
330
34D6
100
AcDbEntity
  8
0
  6
CONTINUOUS
 62
     7
100
AcDbLine
 10
63.09250451681328
 20
181.1746715315741
 30
0.0
 11
63.09250451681329
 21
180.6246715315741
 31
0.0
  0
LINE
  5
3531
330
34D6
100
AcDbEntity
  8
0
  6
CONTINUOUS
 62
     7
100
AcDbLine
 10
63.09250451681328
 20
180.6246715315741
 30
0.0
 11
63.94308784468955
 21
180.5502551330008
 31
0.0
  0
LINE
  5
3532
330
34D6
100
AcDbEntity
  8
0
  6
CONTINUOUS
 62
     7
100
AcDbLine
 10
63.94308784468956
 20
180.5502551330008
 30
0.0
 11
64.01750423885411
 21
179.6996718555169
 31
0.0
  0
LINE
  5
3533
330
34D6
100
AcDbEntity
  8
0
  6
CONTINUOUS
 62
     7
100
AcDbLine
 10
64.01750423885414
 20
179.6996718555169
 30
0.0
 11
64.56750423885414
 21
179.6996718555169
 31
0.0
  0
LINE
  5
3534
330
34D6
100
AcDbEntity
  8
0
  6
CONTINUOUS
 62
     7
100
AcDbLine
 10
64.56750423885409
 20
179.6996718555169
 30
0.0
 11
64.64192063742743
 21
180.5502551833931
 31
0.0
  0
LINE
  5
3535
330
34D6
100
AcDbEntity
  8
0
  6
CONTINUOUS
 62
     7
100
AcDbLine
 10
64.64192063742746
 20
180.5502551833931
 30
0.0
 11
65.49250391491131
 21
180.6246715775577
 31
0.0
  0
LINE
  5
3536
330
34D6
100
AcDbEntity
  8
0
  6
CONTINUOUS
 62
     7
100
AcDbLine
 10
65.49250391491131
 20
180.6246715775577
 30
0.0
 11
65.49250391491131
 21
181.1746715775577
 31
0.0
  0
LINE
  5
3537
330
34D6
100
AcDbEntity
  8
0
  6
CONTINUOUS
 62
     7
100
AcDbLine
 10
65.49250391491125
 20
181.1746715775578
 30
0.0
 11
64.64192058703499
 21
181.2490879761311
 31
0.0
  0
LINE
  5
3538
330
34D6
100
AcDbEntity
  8
0
  6
CONTINUOUS
 62
     7
100
AcDbLine
 10
64.64192058703503
 20
181.249087976131
 30
0.0
 11
64.56750419287047
 21
182.0996712536149
 31
0.0
  0
LINE
  5
3539
330
34D6
100
AcDbEntity
  8
0
  6
CONTINUOUS
 62
     7
100
AcDbLine
 10
64.5675041928705
 20
182.0996712536149
 30
0.0
 11
64.01750419287051
 21
182.0996712536149
 31
0.0
  0
LINE
  5
353A
330
34D6
100
AcDbEntity
  8
0
  6
CONTINUOUS
 62
     7
100
AcDbLine
 10
59.02387518412002
 20
179.2996718555169
 30
0.0
 11
62.50364985685426
 21
179.2996718555169
 31
0.0
  0
ARC
  5
353B
330
34D6
100
AcDbEntity
  8
0
  6
CONTINUOUS
 62
     7
100
AcDbCircle
 10
64.29250423885412
 20
180.8996718555169
 30
0.0
 40
2.400000000000003
100
AcDbArc
 50
199.4712206344904
 51
221.8103148957784
  0
LINE
  5
353C
330
34D6
100
AcDbEntity
  8
0
  6
CONTINUOUS
 62
     7
100
AcDbLine
 10
62.02976253905717
 20
180.0996718555168
 30
0.0
 11
59.35524603401852
 21
180.0996718555168
 31
0.0
  0
LINE
  5
353D
330
34D6
100
AcDbEntity
  8
0
  6
CONTINUOUS
 62
     7
100
AcDbLine
 10
59.35524603401848
 20
180.0996718555168
 30
0.0
 11
58.55524603401847
 21
180.8996718555168
 31
0.0
  0
LINE
  5
353E
330
34D6
100
AcDbEntity
  8
0
  6
CONTINUOUS
 62
     7
100
AcDbLine
 10
58.55524603401852
 20
180.8996718555169
 30
0.0
 11
59.35524603401852
 21
181.6996718555169
 31
0.0
  0
LINE
  5
353F
330
34D6
100
AcDbEntity
  8
0
  6
CONTINUOUS
 62
     7
100
AcDbLine
 10
59.35524603401848
 20
181.6996718555168
 30
0.0
 11
62.02976253905713
 21
181.6996718555168
 31
0.0
  0
ARC
  5
3540
330
34D6
100
AcDbEntity
  8
0
  6
CONTINUOUS
 62
     7
100
AcDbCircle
 10
64.29250423885412
 20
180.8996718555169
 30
0.0
 40
2.4
100
AcDbArc
 50
138.1896851042216
 51
160.5287793655097
  0
LINE
  5
3541
330
34D6
100
AcDbEntity
  8
0
  6
CONTINUOUS
 62
     7
100
AcDbLine
 10
62.50364985685428
 20
182.4996718555169
 30
0.0
 11
59.02387518412003
 21
182.4996718555169
 31
0.0
  0
LINE
  5
3542
330
34D6
100
AcDbEntity
  8
0
  6
CONTINUOUS
 62
     7
100
AcDbLine
 10
59.02387518412002
 20
182.4996718555169
 30
0.0
 11
57.42387518412002
 21
180.8996718555169
 31
0.0
  0
LINE
  5
3543
330
34D6
100
AcDbEntity
  8
0
  6
CONTINUOUS
 62
     7
100
AcDbLine
 10
57.42387518412005
 20
180.8996718555169
 30
0.0
 11
59.02387518412005
 21
179.2996718555169
 31
0.0
  0
LINE
  5
3544
330
34D6
100
AcDbEntity
  8
0
  6
CONTINUOUS
 62
     7
100
AcDbLine
 10
58.69250433422156
 20
178.4996718555169
 30
0.0
 11
64.29250423885412
 21
178.4996718555169
 31
0.0
  0
LINE
  5
3545
330
34D6
100
AcDbEntity
  8
0
  6
CONTINUOUS
 62
     7
100
AcDbLine
 10
56.29250423885412
 20
180.8996719508844
 30
0.0
 11
58.69250433422156
 21
178.4996718555169
 31
0.0
  0
LINE
  5
3546
330
34D6
100
AcDbEntity
  8
0
  6
CONTINUOUS
 62
     7
100
AcDbLine
 10
56.29250423885412
 20
180.8996717601494
 30
0.0
 11
58.69250433422155
 21
183.2996718555169
 31
0.0
  0
ARC
  5
3547
330
34D6
100
AcDbEntity
  8
0
  6
CONTINUOUS
 62
     7
100
AcDbCircle
 10
64.29250423885412
 20
180.8996718555169
 30
0.0
 40
2.399999999999999
100
AcDbArc
 50
270.0
 51
0.0
  0
LINE
  5
3548
330
34D6
100
AcDbEntity
  8
0
  6
CONTINUOUS
 62
     7
100
AcDbLine
 10
56.06750458189617
 20
190.2746702734735
 30
0.0
 11
56.06750458189616
 21
195.3746704515414
 31
0.0
  0
LINE
  5
3549
330
34D6
100
AcDbEntity
  8
0
  6
CONTINUOUS
 62
     7
100
AcDbLine
 10
56.06749408191024
 20
203.4746759586174
 30
0.0
 11
56.06749408191024
 21
203.6746655524029
 31
0.0
  0
LINE
  5
354A
330
34D6
100
AcDbEntity
  8
0
  6
CONTINUOUS
 62
     7
100
AcDbLine
 10
68.46749487730471
 20
203.6746655524029
 30
0.0
 11
68.46749487730471
 21
203.4746759586174
 31
0.0
  0
LINE
  5
354B
330
34D6
100
AcDbEntity
  8
0
  6
CONTINUOUS
 62
     7
100
AcDbLine
 10
68.26751134411927
 20
203.6746655524029
 30
0.0
 11
68.46750405248949
 21
203.6746655524029
 31
0.0
  0
LINE
  5
354C
330
34D6
100
AcDbEntity
  8
0
  6
CONTINUOUS
 62
     7
100
AcDbLine
 10
56.06749408191024
 20
203.674665552403
 30
0.0
 11
68.46750405248949
 21
203.6746655524029
 31
0.0
  0
LINE
  5
354D
330
34D6
100
AcDbEntity
  8
0
  6
CONTINUOUS
 62
     7
100
AcDbLine
 10
56.06750458189617
 20
195.3746704515414
 30
0.0
 11
56.06750458189616
 21
198.5746699401773
 31
0.0
  0
LINE
  5
354E
330
34D6
100
AcDbEntity
  8
0
  6
CONTINUOUS
 62
     7
100
AcDbLine
 10
68.46750405248951
 20
203.6746655524029
 30
0.0
 11
68.46750405248951
 21
195.3746704515414
 31
0.0
  0
ENDBLK
  5
3550
330
34D6
100
AcDbEntity
  8
0
100
AcDbBlockEnd
  0
BLOCK
  5
356C
330
3551
100
AcDbEntity
  8
0
100
AcDbBlockBegin
  2
D1
 70
     0
 10
0.0
 20
0.0
 30
0.0
  3
D1
  1

  0
INSERT
  5
3552
330
3551
100
AcDbEntity
  8
0
100
AcDbBlockReference
  2
NON_RELAZIONATI
 10
0.0
 20
0.0
 30
0.0
  0
LINE
  5
3553
330
3551
100
AcDbEntity
  8
0
  6
CONTINUOUS
 62
     1
100
AcDbLine
 10
55.31750331181837
 20
161.4217052322048
 30
0.0
 11
69.21776851315719
 21
161.4217052322048
 31
0.0
  0
ARC
  5
3554
330
3551
100
AcDbEntity
  8
0
  6
CONTINUOUS
 62
     1
100
AcDbCircle
 10
55.31750332373928
 20
162.2217052441258
 30
0.0
 40
0.8000000119209289
100
AcDbArc
 50
180.0
 51
270.0
  0
ARC
  5
3555
330
3551
100
AcDbEntity
  8
0
  6
CONTINUOUS
 62
     1
100
AcDbCircle
 10
69.21750329989743
 20
162.2217052441258
 30
0.0
 40
0.8000000119209289
100
AcDbArc
 50
270.0
 51
0.0
  0
LINE
  5
3556
330
3551
100
AcDbEntity
  8
0
  6
CONTINUOUS
 62
     1
100
AcDbLine
 10
55.31750332373928
 20
171.92170498305
 30
0.0
 11
54.51750331181836
 21
171.92170498305
 31
0.0
  0
LINE
  5
3557
330
3551
100
AcDbEntity
  8
0
  6
CONTINUOUS
 62
     1
100
AcDbLine
 10
57.26750666488055
 20
171.9217049480809
 30
0.0
 11
55.31750332373928
 21
171.9217049480809
 31
0.0
  0
LINE
  5
3558
330
3551
100
AcDbEntity
  8
0
  6
CONTINUOUS
 62
     1
100
AcDbLine
 10
54.51750331181836
 20
167.9217047923151
 30
0.0
 11
54.51750331181836
 21
171.92170498305
 31
0.0
  0
LINE
  5
3559
330
3551
100
AcDbEntity
  8
0
  6
CONTINUOUS
 62
     1
100
AcDbLine
 10
54.51750331181836
 20
162.2217052441258
 30
0.0
 11
54.51750331181836
 21
167.9217047923151
 31
0.0
  0
LINE
  5
355A
330
3551
100
AcDbEntity
  8
0
  6
CONTINUOUS
 62
     1
100
AcDbLine
 10
69.21750329989743
 20
171.92170498305
 30
0.0
 11
70.01750331181836
 21
171.92170498305
 31
0.0
  0
LINE
  5
355B
330
3551
100
AcDbEntity
  8
0
  6
CONTINUOUS
 62
     1
100
AcDbLine
 10
70.01750331181836
 20
167.9217047923151
 30
0.0
 11
70.01750331181836
 21
171.92170498305
 31
0.0
  0
LINE
  5
355C
330
3551
100
AcDbEntity
  8
0
  6
CONTINUOUS
 62
     1
100
AcDbLine
 10
70.01750331181836
 20
162.2217052441258
 30
0.0
 11
70.01750331181836
 21
167.9217047923151
 31
0.0
  0
LINE
  5
355D
330
3551
100
AcDbEntity
  8
0
  6
CONTINUOUS
 62
     1
100
AcDbLine
 10
62.26750329676821
 20
166.8717038121916
 30
0.0
 11
57.76750329974845
 21
167.8717038121916
 31
0.0
  0
LINE
  5
355E
330
3551
100
AcDbEntity
  8
0
  6
CONTINUOUS
 62
     1
100
AcDbLine
 10
66.7675032997484
 20
167.8717038121916
 30
0.0
 11
62.26750329676817
 21
166.8717038121916
 31
0.0
  0
LINE
  5
355F
330
3551
100
AcDbEntity
  8
0
  6
CONTINUOUS
 62
     1
100
AcDbLine
 10
62.26750330272864
 20
168.8717038121916
 30
0.0
 11
66.7675032997484
 21
167.8717038121916
 31
0.0
  0
LINE
  5
3560
330
3551
100
AcDbEntity
  8
0
  6
CONTINUOUS
 62
     1
100
AcDbLine
 10
57.76750329974845
 20
167.8717038121916
 30
0.0
 11
62.26750330272868
 21
168.8717038121916
 31
0.0
  0
LINE
  5
3561
330
3551
100
AcDbEntity
  8
0
  6
CONTINUOUS
 62
     1
100
AcDbLine
 10
62.26750330264656
 20
168.2865093929402
 30
0.0
 11
60.40087810769903
 21
167.8717037943377
 31
0.0
  0
LINE
  5
3562
330
3551
100
AcDbEntity
  8
0
  6
CONTINUOUS
 62
     1
100
AcDbLine
 10
64.13412849179781
 20
167.8717037950763
 30
0.0
 11
62.2675033026466
 21
168.2865093929402
 31
0.0
  0
LINE
  5
3563
330
3551
100
AcDbEntity
  8
0
  6
CONTINUOUS
 62
     1
100
AcDbLine
 10
62.26750330272864
 20
168.8717038121916
 30
0.0
 11
62.26750330264657
 21
168.2865093929402
 31
0.0
  0
LINE
  5
3564
330
3551
100
AcDbEntity
  8
0
  6
CONTINUOUS
 62
     1
100
AcDbLine
 10
62.26750329685024
 20
167.4568981964738
 30
0.0
 11
64.13412849179777
 21
167.8717037950763
 31
0.0
  0
LINE
  5
3565
330
3551
100
AcDbEntity
  8
0
  6
CONTINUOUS
 62
     1
100
AcDbLine
 10
66.7675032997484
 20
167.8717038121916
 30
0.0
 11
64.13412849179777
 21
167.8717037950764
 31
0.0
  0
LINE
  5
3566
330
3551
100
AcDbEntity
  8
0
  6
CONTINUOUS
 62
     1
100
AcDbLine
 10
60.40087810769904
 20
167.8717037943377
 30
0.0
 11
62.26750329685025
 21
167.4568981964738
 31
0.0
  0
LINE
  5
3567
330
3551
100
AcDbEntity
  8
0
  6
CONTINUOUS
 62
     1
100
AcDbLine
 10
62.26750329676821
 20
166.8717038121916
 30
0.0
 11
62.26750329685028
 21
167.4568981964739
 31
0.0
  0
LINE
  5
3568
330
3551
100
AcDbEntity
  8
0
  6
CONTINUOUS
 62
     1
100
AcDbLine
 10
57.76750329974845
 20
167.8717038121916
 30
0.0
 11
60.40087810769908
 21
167.8717037943377
 31
0.0
  0
LINE
  5
3569
330
3551
100
AcDbEntity
  8
0
  6
CONTINUOUS
 62
     1
100
AcDbLine
 10
61.16750441241288
 20
171.9217049480809
 30
0.0
 11
60.26750595721819
 21
171.9217049480809
 31
0.0
  0
LINE
  5
356A
330
3551
100
AcDbEntity
  8
0
  6
CONTINUOUS
 62
     1
100
AcDbLine
 10
69.21750329989743
 20
171.9217049480809
 30
0.0
 11
67.26750546833762
 21
171.9217049480809
 31
0.0
  0
LINE
  5
356B
330
3551
100
AcDbEntity
  8
0
  6
CONTINUOUS
 62
     1
100
AcDbLine
 10
64.26750570675619
 20
171.9217049480809
 30
0.0
 11
63.36750441241282
 21
171.9217049480809
 31
0.0
  0
ENDBLK
  5
356D
330
3551
100
AcDbEntity
  8
0
100
AcDbBlockEnd
  0
BLOCK
  5
356F
330
356E
100
AcDbEntity
  8
0
100
AcDbBlockBegin
  2
NON_RELAZIONATI
 70
     0
 10
0.0
 20
0.0
 30
0.0
  3
NON_RELAZIONATI
  1

  0
ENDBLK
  5
3570
330
356E
100
AcDbEntity
  8
0
100
AcDbBlockEnd
  0
BLOCK
  5
39BB
330
39B0
100
AcDbEntity
  8
0
100
AcDbBlockBegin
  2
*D32
 70
     1
 10
0.0
 20
0.0
 30
0.0
  3
*D32
  1

  0
LINE
  5
3C19
330
39B0
100
AcDbEntity
  8
DIM
 62
     0
100
AcDbLine
 10
116.0475598762858
 20
190.6645572604295
 30
0.0
 11
116.0476270360633
 21
234.5598442466221
 31
0.0
  0
LINE
  5
3C1A
330
39B0
100
AcDbEntity
  8
DIM
 62
     0
100
AcDbLine
 10
112.447600262701
 20
217.0166792729776
 30
0.0
 11
112.4476271037472
 21
234.5598497546211
 31
0.0
  0
LINE
  5
3C1B
330
39B0
100
AcDbEntity
  8
DIM
 62
     0
100
AcDbLine
 10
118.0476260160612
 20
233.8931745199567
 30
0.0
 11
120.0476260160588
 21
233.8931714599573
 31
0.0
  0
LINE
  5
3C1C
330
39B0
100
AcDbEntity
  8
DIM
 62
     0
100
AcDbLine
 10
110.4476260837497
 20
233.8931861479546
 30
0.0
 11
103.286018789186
 21
233.8931971052119
 31
0.0
  0
SOLID
  5
3C1D
330
39B0
100
AcDbEntity
  8
DIM
 62
     0
100
AcDbTrace
 10
118.0476265260611
 20
234.2265078532897
 30
0.0
 11
118.0476255060612
 21
233.5598411866238
 31
0.0
 12
116.0476260160635
 22
233.8931775799562
 32
0.0
 13
116.0476260160635
 23
233.8931775799562
 33
0.0
  0
SOLID
  5
3C1E
330
39B0
100
AcDbEntity
  8
DIM
 62
     0
100
AcDbTrace
 10
110.4476265937496
 20
234.2265194812876
 30
0.0
 11
110.4476255737498
 21
233.5598528146217
 31
0.0
 12
112.4476260837474
 22
233.8931830879551
 32
0.0
 13
112.4476260837474
 23
233.8931830879551
 33
0.0
  0
MTEXT
  5
3C1F
330
39B0
100
AcDbEntity
  8
DIM
 62
     2
100
AcDbMText
 10
105.0142951934919
 20
235.323753806108
 30
0.0
 40
2.0
 41
0.0
 71
     5
 72
     1
  1
\A1;3.6
  7
TSTYLE6
 11
0.9999999999988295
 21
-0.0000015299997358
 31
0.0
1001
ACAD
1000
MTEXTBEGIN
1070
    73
1070
     1
1070
    44
1040
1.0
1070
    74
1070
     0
1000
MTEXTEND
  0
POINT
  5
3C20
330
39B0
100
AcDbEntity
  8
DEFPOINTS
 62
     0
100
AcDbPoint
 10
116.0475594172859
 20
190.3645572446555
 30
0.0
  0
POINT
  5
3C21
330
39B0
100
AcDbEntity
  8
DEFPOINTS
 62
     0
100
AcDbPoint
 10
112.447599803701
 20
216.7166792572036
 30
0.0
  0
POINT
  5
3C22
330
39B0
100
AcDbEntity
  8
DEFPOINTS
 62
     0
100
AcDbPoint
 10
112.4476260837474
 20
233.8931830879551
 30
0.0
  0
ENDBLK
  5
39BC
330
39B0
100
AcDbEntity
  8
0
100
AcDbBlockEnd
  0
BLOCK
  5
39C7
330
39BD
100
AcDbEntity
  8
0
100
AcDbBlockBegin
  2
*D33
 70
     1
 10
0.0
 20
0.0
 30
0.0
  3
*D33
  1

  0
LINE
  5
3C10
330
39BD
100
AcDbEntity
  8
DIM
 62
     0
100
AcDbLine
 10
112.1476060495535
 20
220.8166376391195
 30
0.0
 11
100.6639077434545
 21
220.8166552091749
 31
0.0
  0
LINE
  5
3C11
330
39BD
100
AcDbEntity
  8
DIM
 62
     0
100
AcDbLine
 10
114.2475592654057
 20
190.2645600005355
 30
0.0
 11
100.6638609987887
 21
190.2645807835902
 31
0.0
  0
LINE
  5
3C12
330
39BD
100
AcDbEntity
  8
DIM
 62
     0
100
AcDbLine
 10
101.330571350121
 20
218.8166541891774
 30
0.0
 11
101.3305307254541
 21
192.2645797635881
 31
0.0
  0
SOLID
  5
3C13
330
39BD
100
AcDbEntity
  8
DIM
 62
     0
100
AcDbTrace
 10
100.997238016788
 20
218.8166546991773
 30
0.0
 11
101.6639046834539
 21
218.8166536791775
 31
0.0
 12
101.3305744101204
 22
220.8166541891751
 32
0.0
 13
101.3305744101204
 23
220.8166541891751
 33
0.0
  0
SOLID
  5
3C14
330
39BD
100
AcDbEntity
  8
DIM
 62
     0
100
AcDbTrace
 10
100.9971973921212
 20
192.264580273588
 30
0.0
 11
101.663864058787
 21
192.2645792535882
 31
0.0
 12
101.3305276654546
 22
190.2645797635904
 32
0.0
 13
101.3305276654546
 23
190.2645797635904
 33
0.0
  0
MTEXT
  5
3C15
330
39BD
100
AcDbEntity
  8
DIM
 62
     2
100
AcDbMText
 10
99.89999169263239
 20
205.5406191651384
 30
0.0
 40
2.0
 41
0.0
 71
     5
 72
     1
  1
\A1;30.6
  7
TSTYLE6
 11
0.0000015299997359
 21
0.9999999999988295
 31
0.0
1001
ACAD
1000
MTEXTBEGIN
1070
    73
1070
     1
1070
    44
1040
1.0
1070
    74
1070
     0
1000
MTEXTEND
  0
POINT
  5
3C16
330
39BD
100
AcDbEntity
  8
DEFPOINTS
 62
     0
100
AcDbPoint
 10
112.4476060766358
 20
220.8166371801196
 30
0.0
  0
POINT
  5
3C17
330
39BD
100
AcDbEntity
  8
DEFPOINTS
 62
     0
100
AcDbPoint
 10
114.547559292488
 20
190.2645595415355
 30
0.0
  0
POINT
  5
3C18
330
39BD
100
AcDbEntity
  8
DEFPOINTS
 62
     0
100
AcDbPoint
 10
101.3305276654546
 20
190.2645797635904
 30
0.0
  0
ENDBLK
  5
39C8
330
39BD
100
AcDbEntity
  8
0
100
AcDbBlockEnd
  0
BLOCK
  5
39D3
330
39C9
100
AcDbEntity
  8
0
100
AcDbBlockBegin
  2
*D34
 70
     1
 10
0.0
 20
0.0
 30
0.0
  3
*D34
  1

  0
LINE
  5
3C49
330
39C9
100
AcDbEntity
  8
DIM
 62
     0
100
AcDbLine
 10
112.1474597939025
 20
125.2146049775499
 30
0.0
 11
100.5290206428905
 21
125.2146049775499
 31
0.0
  0
LINE
  5
3C4A
330
39C9
100
AcDbEntity
  8
DIM
 62
     0
100
AcDbLine
 10
113.7475061261146
 20
155.5167609598345
 30
0.0
 11
100.5290206428905
 21
155.5167609598345
 31
0.0
  0
LINE
  5
3C4B
330
39C9
100
AcDbEntity
  8
DIM
 62
     0
100
AcDbLine
 10
101.1956873095572
 20
127.2146049775499
 30
0.0
 11
101.1956873095572
 21
153.5167609598345
 31
0.0
  0
SOLID
  5
3C4C
330
39C9
100
AcDbEntity
  8
DIM
 62
     0
100
AcDbTrace
 10
100.8623539762238
 20
127.2146049775499
 30
0.0
 11
101.5290206428905
 21
127.2146049775499
 31
0.0
 12
101.1956873095572
 22
125.2146049775499
 32
0.0
 13
101.1956873095572
 23
125.2146049775499
 33
0.0
  0
SOLID
  5
3C4D
330
39C9
100
AcDbEntity
  8
DIM
 62
     0
100
AcDbTrace
 10
100.8623539762238
 20
153.5167609598345
 30
0.0
 11
101.5290206428905
 21
153.5167609598345
 31
0.0
 12
101.1956873095572
 22
155.5167609598345
 32
0.0
 13
101.1956873095572
 23
155.5167609598345
 33
0.0
  0
MTEXT
  5
3C4E
330
39C9
100
AcDbEntity
  8
DIM
 62
     2
100
AcDbMText
 10
99.76512796440033
 20
140.3656829686922
 30
0.0
 40
2.0
 41
0.0
 71
     5
 72
     1
  1
\A1;30.3
  7
TSTYLE6
 11
0.0000000000000001
 21
1.0
 31
0.0
1001
ACAD
1000
MTEXTBEGIN
1070
    73
1070
     1
1070
    44
1040
1.0
1070
    74
1070
     0
1000
MTEXTEND
  0
POINT
  5
3C4F
330
39C9
100
AcDbEntity
  8
DEFPOINTS
 62
     0
100
AcDbPoint
 10
112.4474598055533
 20
125.2146049775499
 30
0.0
  0
POINT
  5
3C50
330
39C9
100
AcDbEntity
  8
DEFPOINTS
 62
     0
100
AcDbPoint
 10
114.0475061377653
 20
155.5167609598345
 30
0.0
  0
POINT
  5
3C51
330
39C9
100
AcDbEntity
  8
DEFPOINTS
 62
     0
100
AcDbPoint
 10
101.1956873095572
 20
155.5167609598345
 30
0.0
  0
ENDBLK
  5
39D4
330
39C9
100
AcDbEntity
  8
0
100
AcDbBlockEnd
  0
BLOCK
  5
39DF
330
39D5
100
AcDbEntity
  8
0
100
AcDbBlockBegin
  2
*D35
 70
     1
 10
0.0
 20
0.0
 30
0.0
  3
*D35
  1

  0
LINE
  5
3C07
330
39D5
100
AcDbEntity
  8
DIM
 62
     0
100
AcDbLine
 10
114.9975592513048
 20
190.2645588530357
 30
0.0
 11
100.6333849472845
 21
190.2645808302169
 31
0.0
  0
LINE
  5
3C08
330
39D5
100
AcDbEntity
  8
DIM
 62
     0
100
AcDbLine
 10
113.7475061106831
 20
155.516761418834
 30
0.0
 11
100.6333317831647
 21
155.5167814835158
 31
0.0
  0
LINE
  5
3C09
330
39D5
100
AcDbEntity
  8
DIM
 62
     0
100
AcDbLine
 10
101.3000485539512
 20
188.2645798102195
 30
0.0
 11
101.3000015098298
 21
157.5167804635137
 31
0.0
  0
SOLID
  5
3C0A
330
39D5
100
AcDbEntity
  8
DIM
 62
     0
100
AcDbTrace
 10
100.9667152206183
 20
188.2645803202194
 30
0.0
 11
101.6333818872841
 21
188.2645793002197
 31
0.0
 12
101.3000516139504
 22
190.2645798102172
 32
0.0
 13
101.3000516139504
 23
190.2645798102172
 33
0.0
  0
SOLID
  5
3C0B
330
39D5
100
AcDbEntity
  8
DIM
 62
     0
100
AcDbTrace
 10
100.9666681764969
 20
157.5167809735136
 30
0.0
 11
101.6333348431627
 21
157.5167799535138
 31
0.0
 12
101.2999984498306
 22
155.516780463516
 32
0.0
 13
101.2999984498306
 23
155.516780463516
 33
0.0
  0
MTEXT
  5
3C0C
330
39D5
100
AcDbEntity
  8
DIM
 62
     2
100
AcDbMText
 10
99.86946568673534
 20
172.8906823256219
 30
0.0
 40
2.0
 41
0.0
 71
     5
 72
     1
  1
\A1;34.7
  7
TSTYLE6
 11
0.0000015299996222
 21
0.9999999999988295
 31
0.0
1001
ACAD
1000
MTEXTBEGIN
1070
    73
1070
     1
1070
    44
1040
1.0
1070
    74
1070
     0
1000
MTEXTEND
  0
POINT
  5
3C0D
330
39D5
100
AcDbEntity
  8
DEFPOINTS
 62
     0
100
AcDbPoint
 10
115.2975592783871
 20
190.2645583940358
 30
0.0
  0
POINT
  5
3C0E
330
39D5
100
AcDbEntity
  8
DEFPOINTS
 62
     0
100
AcDbPoint
 10
114.0475061377654
 20
155.5167609598341
 30
0.0
  0
POINT
  5
3C0F
330
39D5
100
AcDbEntity
  8
DEFPOINTS
 62
     0
100
AcDbPoint
 10
101.2999984498306
 20
155.516780463516
 30
0.0
  0
ENDBLK
  5
39E0
330
39D5
100
AcDbEntity
  8
0
100
AcDbBlockEnd
  0
BLOCK
  5
39EB
330
39E1
100
AcDbEntity
  8
0
100
AcDbBlockBegin
  2
*D36
 70
     1
 10
0.0
 20
0.0
 30
0.0
  3
*D36
  1

  0
LINE
  5
3BEB
330
39E1
100
AcDbEntity
  8
DIM
 62
     0
100
AcDbLine
 10
56.34741684300907
 20
125.2146908106
 30
0.0
 11
43.37168170202213
 21
125.2147106634711
 31
0.0
  0
LINE
  5
3BEC
330
39E1
100
AcDbEntity
  8
DIM
 62
     0
100
AcDbLine
 10
56.34756311415419
 20
220.8167640131684
 30
0.0
 11
43.37182797316684
 21
220.8167838660395
 31
0.0
  0
LINE
  5
3BED
330
39E1
100
AcDbEntity
  8
DIM
 62
     0
100
AcDbLine
 10
44.03835142868744
 20
127.214709643469
 30
0.0
 11
44.0384915798333
 21
218.816782846042
 31
0.0
  0
SOLID
  5
3BEE
330
39E1
100
AcDbEntity
  8
DIM
 62
     0
100
AcDbTrace
 10
43.7050180953545
 20
127.2147101534689
 30
0.0
 11
44.37168476202038
 21
127.2147091334691
 31
0.0
 12
44.03834836868801
 22
125.2147096434713
 32
0.0
 13
44.03834836868801
 23
125.2147096434713
 33
0.0
  0
SOLID
  5
3BEF
330
39E1
100
AcDbEntity
  8
DIM
 62
     0
100
AcDbTrace
 10
43.70515824650036
 20
218.8167833560419
 30
0.0
 11
44.37182491316625
 21
218.8167823360421
 31
0.0
 12
44.03849463983273
 22
220.8167828460397
 32
0.0
 13
44.03849463983273
 23
220.8167828460397
 33
0.0
  0
MTEXT
  5
3BF0
330
39E1
100
AcDbEntity
  8
DIM
 62
     2
100
AcDbMText
 10
42.60881713864129
 20
173.01574843205
 30
0.0
 40
2.0
 41
0.0
 71
     5
 72
     1
  1
\A1;95.6
  7
TSTYLE6
 11
0.0000015299997145
 21
0.9999999999988295
 31
0.0
1001
ACAD
1000
MTEXTBEGIN
1070
    73
1070
     1
1070
    44
1040
1.0
1070
    74
1070
     0
1000
MTEXTEND
  0
POINT
  5
3BF1
330
39E1
100
AcDbEntity
  8
DEFPOINTS
 62
     0
100
AcDbPoint
 10
56.64741685465944
 20
125.2146903516001
 30
0.0
  0
POINT
  5
3BF2
330
39E1
100
AcDbEntity
  8
DEFPOINTS
 62
     0
100
AcDbPoint
 10
56.64756312580456
 20
220.8167635541685
 30
0.0
  0
POINT
  5
3BF3
330
39E1
100
AcDbEntity
  8
DEFPOINTS
 62
     0
100
AcDbPoint
 10
44.03849463983273
 20
220.8167828460397
 30
0.0
  0
ENDBLK
  5
39EC
330
39E1
100
AcDbEntity
  8
0
100
AcDbBlockEnd
  0
BLOCK
  5
39F7
330
39ED
100
AcDbEntity
  8
0
100
AcDbBlockBegin
  2
*D37
 70
     1
 10
0.0
 20
0.0
 30
0.0
  3
*D37
  1

  0
LINE
  5
3BFE
330
39ED
100
AcDbEntity
  8
DIM
 62
     0
100
AcDbLine
 10
64.34747541688179
 20
163.5638808495922
 30
0.0
 11
81.35138094350649
 21
163.5638548336213
 31
0.0
  0
LINE
  5
3BFF
330
39ED
100
AcDbEntity
  8
DIM
 62
     0
100
AcDbLine
 10
71.74741660348444
 20
125.2146672486048
 30
0.0
 11
81.35132226923714
 21
125.2146525546317
 31
0.0
  0
LINE
  5
3C00
330
39ED
100
AcDbEntity
  8
DIM
 62
     0
100
AcDbLine
 10
80.68471121684112
 20
161.5638558536235
 30
0.0
 11
80.68465866257072
 21
127.2146535746292
 31
0.0
  0
SOLID
  5
3C01
330
39ED
100
AcDbEntity
  8
DIM
 62
     0
100
AcDbTrace
 10
80.35137788350818
 20
161.5638563636234
 30
0.0
 11
81.01804455017406
 21
161.5638553436236
 31
0.0
 12
80.68471427684059
 22
163.5638558536211
 32
0.0
 13
80.68471427684059
 23
163.5638558536211
 33
0.0
  0
SOLID
  5
3C02
330
39ED
100
AcDbEntity
  8
DIM
 62
     0
100
AcDbTrace
 10
80.35132532923778
 20
127.2146540846291
 30
0.0
 11
81.01799199590365
 21
127.2146530646293
 31
0.0
 12
80.68465560257125
 22
125.2146535746315
 32
0.0
 13
80.68465560257125
 23
125.2146535746315
 33
0.0
  0
MTEXT
  5
3C03
330
39ED
100
AcDbEntity
  8
DIM
 62
     2
100
AcDbMText
 10
79.25412559455073
 20
144.3892569028819
 30
0.0
 40
2.0
 41
0.0
 71
     5
 72
     1
  1
\A1;38.3
  7
TSTYLE6
 11
0.0000015299997359
 21
0.9999999999988295
 31
0.0
1001
ACAD
1000
MTEXTBEGIN
1070
    73
1070
     1
1070
    44
1040
1.0
1070
    74
1070
     0
1000
MTEXTEND
  0
POINT
  5
3C04
330
39ED
100
AcDbEntity
  8
DEFPOINTS
 62
     0
100
AcDbPoint
 10
64.0474753897995
 20
163.5638813085922
 30
0.0
  0
POINT
  5
3C05
330
39ED
100
AcDbEntity
  8
DEFPOINTS
 62
     0
100
AcDbPoint
 10
71.44741657640214
 20
125.2146677076048
 30
0.0
  0
POINT
  5
3C06
330
39ED
100
AcDbEntity
  8
DEFPOINTS
 62
     0
100
AcDbPoint
 10
80.68465560257125
 20
125.2146535746315
 30
0.0
  0
ENDBLK
  5
39F8
330
39ED
100
AcDbEntity
  8
0
100
AcDbBlockEnd
  0
BLOCK
  5
3A03
330
39F9
100
AcDbEntity
  8
0
100
AcDbBlockBegin
  2
*D38
 70
     1
 10
0.0
 20
0.0
 30
0.0
  3
*D38
  1

  0
LINE
  5
3BE2
330
39F9
100
AcDbEntity
  8
DIM
 62
     0
100
AcDbLine
 10
71.94756253214669
 20
220.6167401662248
 30
0.0
 11
71.94758677244843
 21
236.4600776658096
 31
0.0
  0
LINE
  5
3BE3
330
39F9
100
AcDbEntity
  8
DIM
 62
     0
100
AcDbLine
 10
56.14756282920521
 20
220.6167643402201
 30
0.0
 11
56.14758706950695
 21
236.4601018398046
 31
0.0
  0
LINE
  5
3BE4
330
39F9
100
AcDbEntity
  8
DIM
 62
     0
100
AcDbLine
 10
69.94758575245097
 20
235.7934140591432
 30
0.0
 11
58.14758604950481
 21
235.7934321131392
 31
0.0
  0
SOLID
  5
3BE5
330
39F9
100
AcDbEntity
  8
DIM
 62
     0
100
AcDbTrace
 10
69.94758626245086
 20
236.1267473924761
 30
0.0
 11
69.94758524245106
 21
235.4600807258102
 31
0.0
 12
71.94758575244863
 22
235.7934109991437
 32
0.0
 13
71.94758575244863
 23
235.7934109991437
 33
0.0
  0
SOLID
  5
3BE6
330
39F9
100
AcDbEntity
  8
DIM
 62
     0
100
AcDbTrace
 10
58.14758655950471
 20
236.1267654464722
 30
0.0
 11
58.1475855395049
 21
235.4600987798063
 31
0.0
 12
56.14758604950715
 22
235.7934351731386
 32
0.0
 13
56.14758604950715
 23
235.7934351731386
 33
0.0
  0
MTEXT
  5
3BE7
330
39F9
100
AcDbEntity
  8
DIM
 62
     2
100
AcDbMText
 10
64.04758808827236
 20
237.2230274517603
 30
0.0
 40
2.0
 41
0.0
 71
     5
 72
     1
  1
\A1;15.8
  7
TSTYLE6
 11
0.9999999999988295
 21
-0.0000015299997074
 31
0.0
1001
ACAD
1000
MTEXTBEGIN
1070
    73
1070
     1
1070
    44
1040
1.0
1070
    74
1070
     0
1000
MTEXTEND
  0
POINT
  5
3BE8
330
39F9
100
AcDbEntity
  8
DEFPOINTS
 62
     0
100
AcDbPoint
 10
71.94756207314677
 20
220.3167401545744
 30
0.0
  0
POINT
  5
3BE9
330
39F9
100
AcDbEntity
  8
DEFPOINTS
 62
     0
100
AcDbPoint
 10
56.14756237020528
 20
220.3167643285697
 30
0.0
  0
POINT
  5
3BEA
330
39F9
100
AcDbEntity
  8
DEFPOINTS
 62
     0
100
AcDbPoint
 10
56.14758604950715
 20
235.7934351731386
 30
0.0
  0
ENDBLK
  5
3A04
330
39F9
100
AcDbEntity
  8
0
100
AcDbBlockEnd
  0
BLOCK
  5
3A10
330
3A05
100
AcDbEntity
  8
0
100
AcDbBlockBegin
  2
*D39
 70
     1
 10
0.0
 20
0.0
 30
0.0
  3
*D39
  1

  0
LINE
  5
3BF4
330
3A05
100
AcDbEntity
  8
DIM
 62
     0
100
AcDbLine
 10
64.34747540557386
 20
161.9638813386722
 30
0.0
 11
77.01214945243788
 21
161.9638813386722
 31
0.0
  0
LINE
  5
3BF5
330
3A05
100
AcDbEntity
  8
DIM
 62
     0
100
AcDbLine
 10
64.34747540557386
 20
165.1638812785122
 30
0.0
 11
77.01214945243788
 21
165.1638812785122
 31
0.0
  0
LINE
  5
3BF6
330
3A05
100
AcDbEntity
  8
DIM
 62
     0
100
AcDbLine
 10
76.3454827857712
 20
159.9638813386722
 30
0.0
 11
76.3454827857712
 21
157.9638813386722
 31
0.0
  0
LINE
  5
3BF7
330
3A05
100
AcDbEntity
  8
DIM
 62
     0
100
AcDbLine
 10
76.34548278577121
 20
167.1638812785122
 30
0.0
 11
76.34548278577121
 21
176.6923237373064
 31
0.0
  0
SOLID
  5
3BF8
330
3A05
100
AcDbEntity
  8
DIM
 62
     0
100
AcDbTrace
 10
76.01214945243786
 20
159.9638813386722
 30
0.0
 11
76.67881611910452
 21
159.9638813386722
 31
0.0
 12
76.34548278577121
 22
161.9638813386722
 32
0.0
 13
76.34548278577121
 23
161.9638813386722
 33
0.0
  0
SOLID
  5
3BF9
330
3A05
100
AcDbEntity
  8
DIM
 62
     0
100
AcDbTrace
 10
76.01214945243788
 20
167.1638812785122
 30
0.0
 11
76.67881611910454
 21
167.1638812785122
 31
0.0
 12
76.34548278577121
 22
165.1638812785122
 32
0.0
 13
76.34548278577121
 23
165.1638812785122
 33
0.0
  0
MTEXT
  5
3BFA
330
3A05
100
AcDbEntity
  8
DIM
 62
     2
100
AcDbMText
 10
74.83757009818592
 20
173.9388789896939
 30
0.0
 40
2.0
 41
0.0
 71
     5
 72
     1
  1
\A1;%%c3.2
  7
TSTYLE6
 11
0.0000000000000001
 21
1.0
 31
0.0
1001
ACAD
1000
MTEXTBEGIN
1070
    73
1070
     1
1070
    44
1040
1.0
1070
    74
1070
     0
1000
MTEXTEND
  0
POINT
  5
3BFB
330
3A05
100
AcDbEntity
  8
DEFPOINTS
 62
     0
100
AcDbPoint
 10
64.0474753897995
 20
161.9638813386722
 30
0.0
  0
POINT
  5
3BFC
330
3A05
100
AcDbEntity
  8
DEFPOINTS
 62
     0
100
AcDbPoint
 10
64.0474753897995
 20
165.1638812785122
 30
0.0
  0
POINT
  5
3BFD
330
3A05
100
AcDbEntity
  8
DEFPOINTS
 62
     0
100
AcDbPoint
 10
76.34548278577121
 20
165.1638812785122
 30
0.0
  0
ENDBLK
  5
3A11
330
3A05
100
AcDbEntity
  8
0
100
AcDbBlockEnd
  0
BLOCK
  5
3A1C
330
3A12
100
AcDbEntity
  8
0
100
AcDbBlockBegin
  2
*D40
 70
     1
 10
0.0
 20
0.0
 30
0.0
  3
*D40
  1

  0
LINE
  5
3C5B
330
3A12
100
AcDbEntity
  8
DIM
 62
     0
100
AcDbLine
 10
116.047504337297
 20
154.364557888775
 30
0.0
 11
116.0474364596336
 21
110.0000642884521
 31
0.0
  0
LINE
  5
3C5C
330
3A12
100
AcDbEntity
  8
DIM
 62
     0
100
AcDbLine
 10
158.2412347420998
 20
145.8309198543457
 30
0.0
 11
158.2411799208015
 21
109.9999997320357
 31
0.0
  0
LINE
  5
3C5D
330
3A12
100
AcDbEntity
  8
DIM
 62
     0
100
AcDbLine
 10
118.0474374796311
 20
110.6667278951185
 30
0.0
 11
156.2411809408037
 21
110.6666694587011
 31
0.0
  0
SOLID
  5
3C5E
330
3A12
100
AcDbEntity
  8
DIM
 62
     0
100
AcDbTrace
 10
118.047437989631
 20
111.0000612284514
 30
0.0
 11
118.0474369696312
 21
110.3333945617855
 31
0.0
 12
116.0474374796334
 22
110.6667309551179
 32
0.0
 13
116.0474374796334
 23
110.6667309551179
 33
0.0
  0
SOLID
  5
3C5F
330
3A12
100
AcDbEntity
  8
DIM
 62
     0
100
AcDbTrace
 10
156.2411814508036
 20
111.000002792034
 30
0.0
 11
156.2411804308037
 21
110.3333361253681
 31
0.0
 12
158.2411809408013
 22
110.6666663987016
 32
0.0
 13
158.2411809408013
 23
110.6666663987016
 33
0.0
  0
MTEXT
  5
3C60
330
3A12
100
AcDbEntity
  8
DIM
 62
     2
100
AcDbMText
 10
137.1443113609837
 20
112.072428554125
 30
0.0
 40
2.0
 41
0.0
 71
     5
 72
     1
  1
\A1;42.2
  7
TSTYLE6
 11
0.9999999999988295
 21
-0.0000015299997358
 31
0.0
1001
ACAD
1000
MTEXTBEGIN
1070
    73
1070
     1
1070
    44
1040
1.0
1070
    74
1070
     0
1000
MTEXTEND
  0
POINT
  5
3C61
330
3A12
100
AcDbEntity
  8
DEFPOINTS
 62
     0
100
AcDbPoint
 10
116.047504796297
 20
154.6645579158573
 30
0.0
  0
POINT
  5
3C62
330
3A12
100
AcDbEntity
  8
DEFPOINTS
 62
     0
100
AcDbPoint
 10
158.2412352010998
 20
146.130919881428
 30
0.0
  0
POINT
  5
3C63
330
3A12
100
AcDbEntity
  8
DEFPOINTS
 62
     0
100
AcDbPoint
 10
158.2411809408013
 20
110.6666663987016
 30
0.0
  0
ENDBLK
  5
3A1D
330
3A12
100
AcDbEntity
  8
0
100
AcDbBlockEnd
  0
BLOCK
  5
3A28
330
3A1E
100
AcDbEntity
  8
0
100
AcDbBlockBegin
  2
*D41
 70
     1
 10
0.0
 20
0.0
 30
0.0
  3
*D41
  1

  0
LINE
  5
3C52
330
3A1E
100
AcDbEntity
  8
DIM
 62
     0
100
AcDbLine
 10
135.0474759817572
 20
125.6074533748548
 30
0.0
 11
135.0474618642842
 21
116.3803450331279
 31
0.0
  0
LINE
  5
3C53
330
3A1E
100
AcDbEntity
  8
DIM
 62
     0
100
AcDbLine
 10
116.0475043372971
 20
154.364557904207
 30
0.0
 11
116.047446221507
 21
116.3803741031463
 31
0.0
  0
LINE
  5
3C54
330
3A1E
100
AcDbEntity
  8
DIM
 62
     0
100
AcDbLine
 10
133.0474628842863
 20
117.0470147597932
 30
0.0
 11
118.0474472415045
 21
117.0470377098127
 31
0.0
  0
SOLID
  5
3C55
330
3A1E
100
AcDbEntity
  8
DIM
 62
     0
100
AcDbTrace
 10
133.0474633942862
 20
117.3803480931261
 30
0.0
 11
133.0474623742864
 21
116.7136814264602
 31
0.0
 12
135.047462884284
 22
117.0470116997938
 32
0.0
 13
135.047462884284
 23
117.0470116997938
 33
0.0
  0
SOLID
  5
3C56
330
3A1E
100
AcDbEntity
  8
DIM
 62
     0
100
AcDbTrace
 10
118.0474477515044
 20
117.3803710431456
 30
0.0
 11
118.0474467315046
 21
116.7137043764798
 31
0.0
 12
116.0474472415068
 22
117.0470407698121
 32
0.0
 13
116.0474472415068
 23
117.0470407698121
 33
0.0
  0
MTEXT
  5
3C57
330
3A1E
100
AcDbEntity
  8
DIM
 62
     2
100
AcDbMText
 10
125.5474572501895
 20
118.476630600422
 30
0.0
 40
2.0
 41
0.0
 71
     5
 72
     1
  1
\A1;19
  7
TSTYLE6
 11
0.9999999999988295
 21
-0.0000015299997074
 31
0.0
1001
ACAD
1000
MTEXTBEGIN
1070
    73
1070
     1
1070
    44
1040
1.0
1070
    74
1070
     0
1000
MTEXTEND
  0
POINT
  5
3C58
330
3A1E
100
AcDbEntity
  8
DEFPOINTS
 62
     0
100
AcDbPoint
 10
135.0474764407572
 20
125.9074533865052
 30
0.0
  0
POINT
  5
3C59
330
3A1E
100
AcDbEntity
  8
DEFPOINTS
 62
     0
100
AcDbPoint
 10
116.047504796297
 20
154.6645579158573
 30
0.0
  0
POINT
  5
3C5A
330
3A1E
100
AcDbEntity
  8
DEFPOINTS
 62
     0
100
AcDbPoint
 10
116.0474472415068
 20
117.0470407698121
 30
0.0
  0
ENDBLK
  5
3A29
330
3A1E
100
AcDbEntity
  8
0
100
AcDbBlockEnd
  0
BLOCK
  5
3A34
330
3A2A
100
AcDbEntity
  8
0
100
AcDbBlockBegin
  2
*D42
 70
     1
 10
0.0
 20
0.0
 30
0.0
  3
*D42
  1

  0
LINE
  5
3C36
330
3A2A
100
AcDbEntity
  8
DIM
 62
     0
100
AcDbLine
 10
116.0475598762858
 20
190.6645572563059
 30
0.0
 11
116.0476270360633
 21
234.5598442466221
 31
0.0
  0
LINE
  5
3C37
330
3A2A
100
AcDbEntity
  8
DIM
 62
     0
100
AcDbLine
 10
177.747574704577
 20
161.8588877204745
 30
0.0
 11
177.7476859368769
 21
234.5597498455482
 31
0.0
  0
LINE
  5
3C38
330
3A2A
100
AcDbEntity
  8
DIM
 62
     0
100
AcDbLine
 10
118.0476260160612
 20
233.8931745199567
 30
0.0
 11
175.7476849168794
 21
233.8930862388818
 31
0.0
  0
SOLID
  5
3C39
330
3A2A
100
AcDbEntity
  8
DIM
 62
     0
100
AcDbTrace
 10
118.0476265260611
 20
234.2265078532897
 30
0.0
 11
118.0476255060612
 21
233.5598411866238
 31
0.0
 12
116.0476260160635
 22
233.8931775799562
 32
0.0
 13
116.0476260160635
 23
233.8931775799562
 33
0.0
  0
SOLID
  5
3C3A
330
3A2A
100
AcDbEntity
  8
DIM
 62
     0
100
AcDbTrace
 10
175.7476854268793
 20
234.2264195722148
 30
0.0
 11
175.7476844068795
 21
233.5597529055489
 31
0.0
 12
177.747684916877
 22
233.8930831788823
 32
0.0
 13
177.747684916877
 23
233.8930831788823
 33
0.0
  0
MTEXT
  5
3C3B
330
3A2A
100
AcDbEntity
  8
DIM
 62
     2
100
AcDbMText
 10
146.8976576537647
 20
235.3227347450383
 30
0.0
 40
2.0
 41
0.0
 71
     5
 72
     1
  1
\A1;61.7
  7
TSTYLE6
 11
0.9999999999988295
 21
-0.0000015299997358
 31
0.0
1001
ACAD
1000
MTEXTBEGIN
1070
    73
1070
     1
1070
    44
1040
1.0
1070
    74
1070
     0
1000
MTEXTEND
  0
POINT
  5
3C3C
330
3A2A
100
AcDbEntity
  8
DEFPOINTS
 62
     0
100
AcDbPoint
 10
116.0475594172859
 20
190.3645572446555
 30
0.0
  0
POINT
  5
3C3D
330
3A2A
100
AcDbEntity
  8
DEFPOINTS
 62
     0
100
AcDbPoint
 10
177.7475742455771
 20
161.5588877088241
 30
0.0
  0
POINT
  5
3C3E
330
3A2A
100
AcDbEntity
  8
DEFPOINTS
 62
     0
100
AcDbPoint
 10
177.747684916877
 20
233.8930831788823
 30
0.0
  0
ENDBLK
  5
3A35
330
3A2A
100
AcDbEntity
  8
0
100
AcDbBlockEnd
  0
BLOCK
  5
3A41
330
3A36
100
AcDbEntity
  8
0
100
AcDbBlockBegin
  2
*D43
 70
     1
 10
0.0
 20
0.0
 30
0.0
  3
*D43
  1

  0
LINE
  5
3C3F
330
3A36
100
AcDbEntity
  8
DIM
 62
     0
100
AcDbLine
 10
141.0476021452855
 20
208.1410116777106
 30
0.0
 11
141.0476344983164
 21
229.286787577136
 31
0.0
  0
LINE
  5
3C40
330
3A36
100
AcDbEntity
  8
DIM
 62
     0
100
AcDbLine
 10
145.0475834040844
 20
195.9410057870866
 30
0.0
 11
145.0476344231114
 21
229.2867814571372
 31
0.0
  0
LINE
  5
3C41
330
3A36
100
AcDbEntity
  8
DIM
 62
     0
100
AcDbLine
 10
139.0476334783189
 20
228.6201239704694
 30
0.0
 11
137.0476334783212
 21
228.6201270304689
 31
0.0
  0
LINE
  5
3C42
330
3A36
100
AcDbEntity
  8
DIM
 62
     0
100
AcDbLine
 10
147.0476334031093
 20
228.6201117304719
 30
0.0
 11
149.0476334031069
 21
228.6201086704725
 31
0.0
  0
SOLID
  5
3C43
330
3A36
100
AcDbEntity
  8
DIM
 62
     0
100
AcDbTrace
 10
139.0476339883188
 20
228.9534573038024
 30
0.0
 11
139.047632968319
 21
228.2867906371365
 31
0.0
 12
141.0476334783166
 22
228.62012091047
 32
0.0
 13
141.0476334783166
 23
228.62012091047
 33
0.0
  0
SOLID
  5
3C44
330
3A36
100
AcDbEntity
  8
DIM
 62
     0
100
AcDbTrace
 10
147.0476339131092
 20
228.9534450638049
 30
0.0
 11
147.0476328931094
 21
228.286778397139
 31
0.0
 12
145.0476334031116
 22
228.6201147904713
 32
0.0
 13
145.0476334031116
 23
228.6201147904713
 33
0.0
  0
MTEXT
  5
3C45
330
3A36
100
AcDbEntity
  8
DIM
 62
     2
100
AcDbMText
 10
143.0476355827137
 20
230.0201178504691
 30
0.0
 40
2.0
 41
0.0
 71
     5
 72
     1
  1
\A1;4
  7
TSTYLE6
 11
0.9999999999988295
 21
-0.0000015299997074
 31
0.0
1001
ACAD
1000
MTEXTBEGIN
1070
    73
1070
     1
1070
    44
1040
1.0
1070
    74
1070
     0
1000
MTEXTEND
  0
POINT
  5
3C46
330
3A36
100
AcDbEntity
  8
DEFPOINTS
 62
     0
100
AcDbPoint
 10
141.0476016862855
 20
207.8410116660602
 30
0.0
  0
POINT
  5
3C47
330
3A36
100
AcDbEntity
  8
DEFPOINTS
 62
     0
100
AcDbPoint
 10
145.0475829450845
 20
195.6410057754363
 30
0.0
  0
POINT
  5
3C48
330
3A36
100
AcDbEntity
  8
DEFPOINTS
 62
     0
100
AcDbPoint
 10
145.0476334031116
 20
228.6201147904713
 30
0.0
  0
ENDBLK
  5
3A42
330
3A36
100
AcDbEntity
  8
0
100
AcDbBlockEnd
  0
BLOCK
  5
3A4E
330
3A43
100
AcDbEntity
  8
0
100
AcDbBlockBegin
  2
*D44
 70
     1
 10
0.0
 20
0.0
 30
0.0
  3
*D44
  1

  0
LINE
  5
3C2C
330
3A43
100
AcDbEntity
  8
DIM
 62
     0
100
AcDbLine
 10
137.0476209864395
 20
220.4063465671074
 30
0.0
 11
137.0476345735226
 21
229.2867946121845
 31
0.0
  0
LINE
  5
3C2D
330
3A43
100
AcDbEntity
  8
DIM
 62
     0
100
AcDbLine
 10
141.0476021452855
 20
208.1410116777106
 30
0.0
 11
141.0476344983184
 21
229.2867884921857
 31
0.0
  0
LINE
  5
3C2E
330
3A43
100
AcDbEntity
  8
DIM
 62
     0
100
AcDbLine
 10
135.0476335535252
 20
228.6201310055181
 30
0.0
 11
133.0476335535275
 21
228.6201340655176
 31
0.0
  0
LINE
  5
3C2F
330
3A43
100
AcDbEntity
  8
DIM
 62
     0
100
AcDbLine
 10
143.0476334783162
 20
228.6201187655203
 30
0.0
 11
145.0476334783139
 21
228.6201157055208
 31
0.0
  0
SOLID
  5
3C30
330
3A43
100
AcDbEntity
  8
DIM
 62
     0
100
AcDbTrace
 10
135.047634063525
 20
228.9534643388511
 30
0.0
 11
135.0476330435252
 21
228.2867976721852
 31
0.0
 12
137.0476335535228
 22
228.6201279455186
 32
0.0
 13
137.0476335535228
 23
228.6201279455186
 33
0.0
  0
SOLID
  5
3C31
330
3A43
100
AcDbEntity
  8
DIM
 62
     0
100
AcDbTrace
 10
143.0476339883161
 20
228.9534520988533
 30
0.0
 11
143.0476329683163
 21
228.2867854321874
 31
0.0
 12
141.0476334783186
 22
228.6201218255198
 32
0.0
 13
141.0476334783186
 23
228.6201218255198
 33
0.0
  0
MTEXT
  5
3C32
330
3A43
100
AcDbEntity
  8
DIM
 62
     2
100
AcDbMText
 10
139.0476356579203
 20
230.0201248855176
 30
0.0
 40
2.0
 41
0.0
 71
     5
 72
     1
  1
\A1;4
  7
TSTYLE6
 11
0.9999999999988295
 21
-0.0000015299997358
 31
0.0
1001
ACAD
1000
MTEXTBEGIN
1070
    73
1070
     1
1070
    44
1040
1.0
1070
    74
1070
     0
1000
MTEXTEND
  0
POINT
  5
3C33
330
3A43
100
AcDbEntity
  8
DEFPOINTS
 62
     0
100
AcDbPoint
 10
137.0476205274395
 20
220.106346555457
 30
0.0
  0
POINT
  5
3C34
330
3A43
100
AcDbEntity
  8
DEFPOINTS
 62
     0
100
AcDbPoint
 10
141.0476016862855
 20
207.8410116660602
 30
0.0
  0
POINT
  5
3C35
330
3A43
100
AcDbEntity
  8
DEFPOINTS
 62
     0
100
AcDbPoint
 10
141.0476334783186
 20
228.6201218255198
 30
0.0
  0
ENDBLK
  5
3A4F
330
3A43
100
AcDbEntity
  8
0
100
AcDbBlockEnd
  0
BLOCK
  5
3A5A
330
3A50
100
AcDbEntity
  8
0
100
AcDbBlockBegin
  2
*D45
 70
     1
 10
0.0
 20
0.0
 30
0.0
  3
*D45
  1

  0
LINE
  5
3C23
330
3A50
100
AcDbEntity
  8
DIM
 62
     0
100
AcDbLine
 10
137.0476209864394
 20
220.4063465671074
 30
0.0
 11
137.0476345735253
 21
229.2867965195332
 31
0.0
  0
LINE
  5
3C24
330
3A50
100
AcDbEntity
  8
DIM
 62
     0
100
AcDbLine
 10
116.0475598762858
 20
190.6645572563059
 30
0.0
 11
116.0476189683497
 21
229.286828649551
 31
0.0
  0
LINE
  5
3C25
330
3A50
100
AcDbEntity
  8
DIM
 62
     0
100
AcDbLine
 10
135.0476335535278
 20
228.6201329128668
 30
0.0
 11
118.0476179483476
 21
228.6201589228856
 31
0.0
  0
SOLID
  5
3C26
330
3A50
100
AcDbEntity
  8
DIM
 62
     0
100
AcDbTrace
 10
135.0476340635277
 20
228.9534662461997
 30
0.0
 11
135.0476330435279
 21
228.2867995795338
 31
0.0
 12
137.0476335535255
 22
228.6201298528673
 32
0.0
 13
137.0476335535255
 23
228.6201298528673
 33
0.0
  0
SOLID
  5
3C27
330
3A50
100
AcDbEntity
  8
DIM
 62
     0
100
AcDbTrace
 10
118.0476184583475
 20
228.9534922562186
 30
0.0
 11
118.0476174383477
 21
228.2868255895527
 31
0.0
 12
116.0476179483499
 22
228.6201619828851
 32
0.0
 13
116.0476179483499
 23
228.6201619828851
 33
0.0
  0
MTEXT
  5
3C28
330
3A50
100
AcDbEntity
  8
DIM
 62
     2
100
AcDbMText
 10
126.5476279017043
 20
230.0258757950915
 30
0.0
 40
2.0
 41
0.0
 71
     5
 72
     1
  1
\A1;21
  7
TSTYLE6
 11
0.9999999999988295
 21
-0.0000015299997074
 31
0.0
1001
ACAD
1000
MTEXTBEGIN
1070
    73
1070
     1
1070
    44
1040
1.0
1070
    74
1070
     0
1000
MTEXTEND
  0
POINT
  5
3C29
330
3A50
100
AcDbEntity
  8
DEFPOINTS
 62
     0
100
AcDbPoint
 10
137.0476205274395
 20
220.106346555457
 30
0.0
  0
POINT
  5
3C2A
330
3A50
100
AcDbEntity
  8
DEFPOINTS
 62
     0
100
AcDbPoint
 10
116.0475594172859
 20
190.3645572446555
 30
0.0
  0
POINT
  5
3C2B
330
3A50
100
AcDbEntity
  8
DEFPOINTS
 62
     0
100
AcDbPoint
 10
116.0476179483499
 20
228.6201619828851
 30
0.0
  0
ENDBLK
  5
3A5B
330
3A50
100
AcDbEntity
  8
0
100
AcDbBlockEnd
  0
ENDSEC
  0
SECTION
  2
ENTITIES
  0
LINE
  5
29
330
A
100
AcDbEntity
  8
CARTOUCHE
  6
CONTINUOUS
 62
     7
100
AcDbLine
 10
205.000037
 20
10.000793
 30
0.0
 11
5.0
 21
10.00106799999999
 31
0.0
  0
LINE
  5
2A
330
A
100
AcDbEntity
  8
CARTOUCHE
  6
CONTINUOUS
 62
     7
100
AcDbLine
 10
50.000001
 20
36.845393
 30
0.0
 11
50.000001
 21
5.000041
 31
0.0
  0
TEXT
  5
2B
330
A
100
AcDbEntity
  8
CARTOUCHE
  6
CONTINUOUS
 62
     7
100
AcDbText
 10
119.6202638513061
 20
32.43596665250082
 30
0.0
 40
1.8
  1
PRODUCT TYPE
 50
359.9999079999999
 41
0.8
  7
FINDER
 72
     1
 11
127.499991
 21
32.43595399999999
 31
0.0
100
AcDbText
  0
TEXT
  5
2D
330
A
100
AcDbEntity
  8
CARTOUCHE
  6
CONTINUOUS
 62
     2
100
AcDbText
 10
19.35727248705006
 20
6.600975074802885
 30
0.0
 40
1.8
  1
MOD. UT 902
 50
359.9999079999999
 41
1.05
  7
FINDER
 72
     1
 11
27.500001
 21
6.600961999999999
 31
0.0
100
AcDbText
  0
LINE
  5
2E
330
A
100
AcDbEntity
  8
CARTOUCHE
  6
CONTINUOUS
 62
     7
100
AcDbLine
 10
205.000008
 20
20.002808
 30
0.0
 11
49.999973
 21
20.00304499999999
 31
0.0
  0
TEXT
  5
31
330
A
100
AcDbEntity
  8
CARTOUCHE
  6
CONTINUOUS
 62
     7
100
AcDbText
 10
73.48571344884341
 20
16.62430476956831
 30
0.0
 40
1.8
  1
REV.
 50
359.9999079999999
 41
0.8
  7
FINDER
 72
     1
 11
75.833326
 21
16.624301
 31
0.0
100
AcDbText
  0
TEXT
  5
32
330
A
100
AcDbEntity
  8
CARTOUCHE
  6
CONTINUOUS
 62
     1
100
AcDbText
 10
75.18069298499402
 20
11.77627904793473
 30
0.0
 40
2.1
  1
0
 50
359.9999079999999
 41
0.8
  7
FINDER
 72
     1
 11
75.833326
 21
11.776278
 31
0.0
100
AcDbText
  0
LINE
  5
33
330
A
100
AcDbEntity
  8
CARTOUCHE
  6
CONTINUOUS
 62
     7
100
AcDbLine
 10
101.666651
 20
20.00296599999999
 30
0.0
 11
101.666651
 21
10.001024
 31
0.0
  0
LINE
  5
37
330
A
100
AcDbEntity
  8
CARTOUCHE
  6
CONTINUOUS
 62
     4
100
AcDbLine
 10
12.362923
 20
27.65548499999999
 30
0.0
 11
12.362923
 21
21.81019399999999
 31
0.0
  0
LINE
  5
38
330
A
100
AcDbEntity
  8
CARTOUCHE
  6
CONTINUOUS
 62
     4
100
AcDbLine
 10
12.362923
 20
21.81019399999999
 30
0.0
 11
10.88782299999999
 21
23.410844
 31
0.0
  0
LINE
  5
39
330
A
100
AcDbEntity
  8
CARTOUCHE
  6
CONTINUOUS
 62
     4
100
AcDbLine
 10
10.88782299999999
 20
23.410844
 30
0.0
 11
11.11642299999999
 21
23.410844
 31
0.0
  0
LINE
  5
3A
330
A
100
AcDbEntity
  8
CARTOUCHE
  6
CONTINUOUS
 62
     4
100
AcDbLine
 10
11.41387299999999
 20
23.766514
 30
0.0
 11
11.41387299999999
 21
27.652621
 31
0.0
  0
LINE
  5
3B
330
A
100
AcDbEntity
  8
CARTOUCHE
  6
CONTINUOUS
 62
     4
100
AcDbLine
 10
10.46482299999999
 20
27.399506
 30
0.0
 11
10.46482299999999
 21
24.428744
 31
0.0
  0
LINE
  5
3C
330
A
100
AcDbEntity
  8
CARTOUCHE
  6
CONTINUOUS
 62
     4
100
AcDbLine
 10
10.46482299999999
 20
24.428744
 30
0.0
 11
8.174775999999999
 21
24.428744
 31
0.0
  0
LINE
  5
3D
330
A
100
AcDbEntity
  8
CARTOUCHE
  6
CONTINUOUS
 62
     4
100
AcDbLine
 10
8.176313
 20
23.410844
 30
0.0
 11
9.378522999999999
 21
23.410844
 31
0.0
  0
LINE
  5
3E
330
A
100
AcDbEntity
  8
CARTOUCHE
  6
CONTINUOUS
 62
     4
100
AcDbLine
 10
9.378522999999999
 20
23.410844
 30
0.0
 11
12.173699
 21
20.66832799999999
 31
0.0
  0
LINE
  5
3F
330
A
100
AcDbEntity
  8
CARTOUCHE
  6
CONTINUOUS
 62
     4
100
AcDbLine
 10
13.323223
 20
21.169844
 30
0.0
 11
13.323223
 21
24.508394
 31
0.0
  0
LINE
  5
40
330
A
100
AcDbEntity
  8
CARTOUCHE
  6
CONTINUOUS
 62
     4
100
AcDbLine
 10
13.323223
 20
24.508394
 30
0.0
 11
14.455423
 21
24.508394
 31
0.0
  0
LINE
  5
41
330
A
100
AcDbEntity
  8
CARTOUCHE
  6
CONTINUOUS
 62
     4
100
AcDbLine
 10
14.35365599999999
 20
25.503344
 30
0.0
 11
13.323223
 21
25.503344
 31
0.0
  0
LINE
  5
42
330
A
100
AcDbEntity
  8
CARTOUCHE
  6
CONTINUOUS
 62
     4
100
AcDbLine
 10
13.323223
 20
25.503344
 30
0.0
 11
13.323223
 21
27.404134
 31
0.0
  0
LINE
  5
43
330
A
100
AcDbEntity
  8
CARTOUCHE
  6
CONTINUOUS
 62
     4
100
AcDbLine
 10
28.108423
 20
22.47903399999999
 30
0.0
 11
28.108423
 21
20.63209399999999
 31
0.0
  0
LINE
  5
44
330
A
100
AcDbEntity
  8
CARTOUCHE
  6
CONTINUOUS
 62
     4
100
AcDbLine
 10
28.108423
 20
20.63209399999999
 30
0.0
 11
29.89222299999999
 21
20.63209399999999
 31
0.0
  0
LINE
  5
45
330
A
100
AcDbEntity
  8
CARTOUCHE
  6
CONTINUOUS
 62
     4
100
AcDbLine
 10
29.89222299999999
 20
20.63209399999999
 30
0.0
 11
29.89222299999999
 21
23.324553
 31
0.0
  0
LINE
  5
46
330
A
100
AcDbEntity
  8
CARTOUCHE
  6
CONTINUOUS
 62
     4
100
AcDbLine
 10
26.28997299999999
 20
24.074144
 30
0.0
 11
26.28997299999999
 21
24.508394
 31
0.0
  0
LINE
  5
47
330
A
100
AcDbEntity
  8
CARTOUCHE
  6
CONTINUOUS
 62
     4
100
AcDbLine
 10
26.28997299999999
 20
24.508394
 30
0.0
 11
24.494923
 21
24.508394
 31
0.0
  0
LINE
  5
48
330
A
100
AcDbEntity
  8
CARTOUCHE
  6
CONTINUOUS
 62
     4
100
AcDbLine
 10
24.494923
 20
24.508394
 30
0.0
 11
24.494923
 21
20.63209399999999
 31
0.0
  0
LINE
  5
49
330
A
100
AcDbEntity
  8
CARTOUCHE
  6
CONTINUOUS
 62
     4
100
AcDbLine
 10
24.494923
 20
20.63209399999999
 30
0.0
 11
26.28997299999999
 21
20.63209399999999
 31
0.0
  0
LINE
  5
4A
330
A
100
AcDbEntity
  8
CARTOUCHE
  6
CONTINUOUS
 62
     4
100
AcDbLine
 10
26.28997299999999
 20
20.63209399999999
 30
0.0
 11
26.28997299999999
 21
22.43349899999999
 31
0.0
  0
LINE
  5
4B
330
A
100
AcDbEntity
  8
CARTOUCHE
  6
CONTINUOUS
 62
     4
100
AcDbLine
 10
35.986573
 20
25.823744
 30
0.0
 11
35.986573
 21
20.620844
 31
0.0
  0
LINE
  5
4C
330
A
100
AcDbEntity
  8
CARTOUCHE
  6
CONTINUOUS
 62
     4
100
AcDbLine
 10
35.986573
 20
20.620844
 30
0.0
 11
34.19152299999999
 21
20.620844
 31
0.0
  0
LINE
  5
4D
330
A
100
AcDbEntity
  8
CARTOUCHE
  6
CONTINUOUS
 62
     4
100
AcDbLine
 10
34.19152299999999
 20
24.319904
 30
0.0
 11
34.19152299999999
 21
25.823744
 31
0.0
  0
LINE
  5
4E
330
A
100
AcDbEntity
  8
CARTOUCHE
  6
CONTINUOUS
 62
     4
100
AcDbLine
 10
34.19152299999999
 20
25.823744
 30
0.0
 11
35.986573
 21
25.823744
 31
0.0
  0
LINE
  5
4F
330
A
100
AcDbEntity
  8
CARTOUCHE
  6
CONTINUOUS
 62
     4
100
AcDbLine
 10
42.732973
 20
24.508394
 30
0.0
 11
44.459623
 21
24.508394
 31
0.0
  0
LINE
  5
50
330
A
100
AcDbEntity
  8
CARTOUCHE
  6
CONTINUOUS
 62
     4
100
AcDbLine
 10
44.459623
 20
24.508394
 30
0.0
 11
44.459623
 21
24.165494
 31
0.0
  0
LINE
  5
51
330
A
100
AcDbEntity
  8
CARTOUCHE
  6
CONTINUOUS
 62
     4
100
AcDbLine
 10
47.28382299999999
 20
22.58779399999999
 30
0.0
 11
45.45457299999999
 21
22.58779399999999
 31
0.0
  0
LINE
  5
52
330
A
100
AcDbEntity
  8
CARTOUCHE
  6
CONTINUOUS
 62
     4
100
AcDbLine
 10
45.45457299999999
 20
22.58779399999999
 30
0.0
 11
45.45457299999999
 21
22.827644
 31
0.0
  0
LINE
  5
53
330
A
100
AcDbEntity
  8
CARTOUCHE
  6
CONTINUOUS
 62
     4
100
AcDbLine
 10
44.459623
 20
22.782194
 30
0.0
 11
44.459623
 21
20.63209399999999
 31
0.0
  0
LINE
  5
54
330
A
100
AcDbEntity
  8
CARTOUCHE
  6
CONTINUOUS
 62
     4
100
AcDbLine
 10
44.459623
 20
20.63209399999999
 30
0.0
 11
42.732973
 21
20.63209399999999
 31
0.0
  0
LINE
  5
55
330
A
100
AcDbEntity
  8
CARTOUCHE
  6
CONTINUOUS
 62
     4
100
AcDbLine
 10
42.732973
 20
20.63209399999999
 30
0.0
 11
42.732973
 21
24.508394
 31
0.0
  0
LINE
  5
56
330
A
100
AcDbEntity
  8
CARTOUCHE
  6
CONTINUOUS
 62
     4
100
AcDbLine
 10
39.15412299999999
 20
22.244444
 30
0.0
 11
39.05107299999999
 21
22.244444
 31
0.0
  0
LINE
  5
57
330
A
100
AcDbEntity
  8
CARTOUCHE
  6
CONTINUOUS
 62
     4
100
AcDbLine
 10
39.05107299999999
 20
22.244444
 30
0.0
 11
38.364823
 21
22.244444
 31
0.0
  0
LINE
  5
58
330
A
100
AcDbEntity
  8
CARTOUCHE
  6
CONTINUOUS
 62
     4
100
AcDbLine
 10
40.34302299999999
 20
21.855644
 30
0.0
 11
42.10387299999999
 21
21.855644
 31
0.0
  0
LINE
  5
59
330
A
100
AcDbEntity
  8
CARTOUCHE
  6
CONTINUOUS
 62
     4
100
AcDbLine
 10
42.20692299999999
 20
22.25614399999999
 30
0.0
 11
39.15412299999999
 21
22.244444
 31
0.0
  0
LINE
  5
5A
330
A
100
AcDbEntity
  8
CARTOUCHE
  6
CONTINUOUS
 62
     4
100
AcDbLine
 10
39.15412299999999
 20
23.079194
 30
0.0
 11
40.34302299999999
 21
23.079194
 31
0.0
  0
LINE
  5
5B
330
A
100
AcDbEntity
  8
CARTOUCHE
  6
CONTINUOUS
 62
     4
100
AcDbLine
 10
38.364823
 20
23.079194
 30
0.0
 11
39.15412299999999
 21
23.079194
 31
0.0
  0
LINE
  5
5C
330
A
100
AcDbEntity
  8
CARTOUCHE
  6
CONTINUOUS
 62
     4
100
AcDbLine
 10
21.087523
 20
24.931844
 30
0.0
 11
21.087523
 21
25.834994
 31
0.0
  0
LINE
  5
5D
330
A
100
AcDbEntity
  8
CARTOUCHE
  6
CONTINUOUS
 62
     4
100
AcDbLine
 10
21.087523
 20
25.834994
 30
0.0
 11
19.589473
 21
25.834994
 31
0.0
  0
LINE
  5
5E
330
A
100
AcDbEntity
  8
CARTOUCHE
  6
CONTINUOUS
 62
     4
100
AcDbLine
 10
18.674623
 20
24.931844
 30
0.0
 11
18.674623
 21
24.508394
 31
0.0
  0
LINE
  5
5F
330
A
100
AcDbEntity
  8
CARTOUCHE
  6
CONTINUOUS
 62
     4
100
AcDbLine
 10
18.674623
 20
24.508394
 30
0.0
 11
18.137323
 21
24.508394
 31
0.0
  0
LINE
  5
60
330
A
100
AcDbEntity
  8
CARTOUCHE
  6
CONTINUOUS
 62
     4
100
AcDbLine
 10
18.137323
 20
24.508394
 30
0.0
 11
18.137323
 21
23.410844
 31
0.0
  0
LINE
  5
61
330
A
100
AcDbEntity
  8
CARTOUCHE
  6
CONTINUOUS
 62
     4
100
AcDbLine
 10
18.137323
 20
23.410844
 30
0.0
 11
18.674623
 21
23.410844
 31
0.0
  0
LINE
  5
62
330
A
100
AcDbEntity
  8
CARTOUCHE
  6
CONTINUOUS
 62
     4
100
AcDbLine
 10
18.674623
 20
23.410844
 30
0.0
 11
18.674623
 21
20.63209399999999
 31
0.0
  0
LINE
  5
63
330
A
100
AcDbEntity
  8
CARTOUCHE
  6
CONTINUOUS
 62
     4
100
AcDbLine
 10
18.674623
 20
20.63209399999999
 30
0.0
 11
20.470123
 21
20.63209399999999
 31
0.0
  0
LINE
  5
64
330
A
100
AcDbEntity
  8
CARTOUCHE
  6
CONTINUOUS
 62
     4
100
AcDbLine
 10
20.470123
 20
20.63209399999999
 30
0.0
 11
20.470123
 21
23.410844
 31
0.0
  0
LINE
  5
65
330
A
100
AcDbEntity
  8
CARTOUCHE
  6
CONTINUOUS
 62
     4
100
AcDbLine
 10
20.470123
 20
23.410844
 30
0.0
 11
21.087523
 21
23.410844
 31
0.0
  0
LINE
  5
66
330
A
100
AcDbEntity
  8
CARTOUCHE
  6
CONTINUOUS
 62
     4
100
AcDbLine
 10
21.087523
 20
23.410844
 30
0.0
 11
21.087523
 21
24.508394
 31
0.0
  0
LINE
  5
67
330
A
100
AcDbEntity
  8
CARTOUCHE
  6
CONTINUOUS
 62
     4
100
AcDbLine
 10
21.087523
 20
24.508394
 30
0.0
 11
20.412973
 21
24.508394
 31
0.0
  0
LINE
  5
68
330
A
100
AcDbEntity
  8
CARTOUCHE
  6
CONTINUOUS
 62
     4
100
AcDbLine
 10
20.412973
 20
24.508394
 30
0.0
 11
20.461079
 21
24.768622
 31
0.0
  0
LINE
  5
69
330
A
100
AcDbEntity
  8
CARTOUCHE
  6
CONTINUOUS
 62
     4
100
AcDbLine
 10
20.679053
 20
24.931844
 30
0.0
 11
21.087523
 21
24.931844
 31
0.0
  0
LINE
  5
6A
330
A
100
AcDbEntity
  8
CARTOUCHE
  6
CONTINUOUS
 62
     4
100
AcDbLine
 10
21.807973
 20
20.63209399999999
 30
0.0
 11
21.807973
 21
24.508394
 31
0.0
  0
LINE
  5
6B
330
A
100
AcDbEntity
  8
CARTOUCHE
  6
CONTINUOUS
 62
     4
100
AcDbLine
 10
21.807973
 20
24.508394
 30
0.0
 11
23.625973
 21
24.508394
 31
0.0
  0
LINE
  5
6C
330
A
100
AcDbEntity
  8
CARTOUCHE
  6
CONTINUOUS
 62
     4
100
AcDbLine
 10
23.625973
 20
24.508394
 30
0.0
 11
23.625973
 21
20.63209399999999
 31
0.0
  0
LINE
  5
6D
330
A
100
AcDbEntity
  8
CARTOUCHE
  6
CONTINUOUS
 62
     4
100
AcDbLine
 10
23.625973
 20
20.63209399999999
 30
0.0
 11
21.807973
 21
20.63209399999999
 31
0.0
  0
LINE
  5
6E
330
A
100
AcDbEntity
  8
CARTOUCHE
  6
CONTINUOUS
 62
     4
100
AcDbLine
 10
21.807973
 20
24.943094
 30
0.0
 11
21.807973
 21
25.834994
 31
0.0
  0
LINE
  5
6F
330
A
100
AcDbEntity
  8
CARTOUCHE
  6
CONTINUOUS
 62
     4
100
AcDbLine
 10
21.807973
 20
25.834994
 30
0.0
 11
23.625973
 21
25.834994
 31
0.0
  0
LINE
  5
70
330
A
100
AcDbEntity
  8
CARTOUCHE
  6
CONTINUOUS
 62
     4
100
AcDbLine
 10
23.625973
 20
25.834994
 30
0.0
 11
23.625973
 21
24.943094
 31
0.0
  0
LINE
  5
71
330
A
100
AcDbEntity
  8
CARTOUCHE
  6
CONTINUOUS
 62
     4
100
AcDbLine
 10
23.625973
 20
24.943094
 30
0.0
 11
21.807973
 21
24.943094
 31
0.0
  0
ARC
  5
72
330
A
100
AcDbEntity
  8
CARTOUCHE
  6
CONTINUOUS
 62
     4
100
AcDbCircle
 10
19.58025899999999
 20
24.929401
 30
0.0
 40
0.905639
100
AcDbArc
 50
90.0
 51
180.0
  0
ARC
  5
73
330
A
100
AcDbEntity
  8
CARTOUCHE
  6
CONTINUOUS
 62
     4
100
AcDbCircle
 10
20.705988
 20
24.668716
 30
0.0
 40
0.264503
100
AcDbArc
 50
95.844673
 51
157.807812
  0
ARC
  5
74
330
A
100
AcDbEntity
  8
CARTOUCHE
  6
CONTINUOUS
 62
     4
100
AcDbCircle
 10
28.675028
 20
23.264873
 30
0.0
 40
1.218658
100
AcDbArc
 50
2.806996999999999
 51
66.54578100000001
  0
ARC
  5
75
330
A
100
AcDbEntity
  8
CARTOUCHE
  6
CONTINUOUS
 62
     4
100
AcDbCircle
 10
28.067403
 20
21.045261
 30
0.0
 40
3.511892
100
AcDbArc
 50
71.872392
 51
120.4055569999999
  0
ARC
  5
76
330
A
100
AcDbEntity
  8
CARTOUCHE
  6
CONTINUOUS
 62
     4
100
AcDbCircle
 10
27.457324
 20
22.47903399999999
 30
0.0
 40
0.6511239999999999
100
AcDbArc
 50
0.0
 51
97.150683
  0
ARC
  5
77
330
A
100
AcDbEntity
  8
CARTOUCHE
  6
CONTINUOUS
 62
     4
100
AcDbCircle
 10
27.44381
 20
21.82007899999999
 30
0.0
 40
1.306761
100
AcDbArc
 50
92.96251299999999
 51
152.003324
  0
CIRCLE
  5
78
330
A
100
AcDbEntity
  8
CARTOUCHE
  6
CONTINUOUS
 62
     4
100
AcDbCircle
 10
11.899646
 20
23.925422
 30
0.0
 40
4.756723
  0
ARC
  5
79
330
A
100
AcDbEntity
  8
CARTOUCHE
  6
CONTINUOUS
 62
     4
100
AcDbCircle
 10
11.899651
 20
23.925417
 30
0.0
 40
3.758726999999999
100
AcDbArc
 50
112.441032
 51
172.30447
  0
ARC
  5
7A
330
A
100
AcDbEntity
  8
CARTOUCHE
  6
CONTINUOUS
 62
     4
100
AcDbCircle
 10
11.899651
 20
23.925417
 30
0.0
 40
3.758726999999999
100
AcDbArc
 50
82.92015400000002
 51
97.425676
  0
ARC
  5
7B
330
A
100
AcDbEntity
  8
CARTOUCHE
  6
CONTINUOUS
 62
     4
100
AcDbCircle
 10
11.899651
 20
23.925417
 30
0.0
 40
3.758726999999999
100
AcDbArc
 50
187.868554
 51
67.74447600000001
  0
SPLINE
  5
7C
330
A
100
AcDbEntity
  8
CARTOUCHE
  6
CONTINUOUS
 62
     4
100
AcDbSpline
210
0.0
220
0.0
230
1.0
 70
     8
 71
     3
 72
    36
 73
    32
 74
    30
 42
0.0000000001
 43
0.0000000001
 44
0.000001
 12
-0.7486966541787443
 22
0.6629127544568397
 32
0.0
 13
0.8109899424984487
 23
0.5850600936368529
 33
0.0
 40
0.0
 40
0.0
 40
0.0
 40
0.0
 40
0.1780761553060556
 40
0.3550416348689564
 40
0.534344865884207
 40
0.7146560387434031
 40
1.070969089720223
 40
1.425796663898011
 40
1.782601001142071
 40
2.138603895040079
 40
2.494665093696485
 40
2.851054396920102
 40
3.206893011134889
 40
3.5633758813569
 40
3.91939376562976
 40
4.275489247209685
 40
4.631810020557422
 40
4.987968836485988
 40
5.344081360419366
 40
5.700398584840186
 40
6.056403071275471
 40
6.412685561611945
 40
6.768553833375487
 40
7.124993908020178
 40
7.480918575954275
 40
7.837064891658402
 40
8.193226462040993
 40
8.549153485654631
 40
8.905927656882472
 40
9.26182807522613
 40
9.970557563632079
 40
9.970557563632079
 40
9.970557563632079
 40
9.970557563632079
 10
34.19152297621248
 20
24.31990419713182
 30
0.0
 10
34.1470813023236
 20
24.35925384867082
 30
0.0
 10
34.0521719569681
 20
24.43173618392172
 30
0.0
 10
33.88702575613148
 20
24.50226791579082
 30
0.0
 10
33.71305223761583
 20
24.54495714766015
 30
0.0
 10
33.47834937114383
 20
24.58798310564185
 30
0.0
 10
33.18518211493348
 20
24.63800747804683
 30
0.0
 10
32.82899744348545
 20
24.659369294718
 30
0.0
 10
32.47326771695625
 20
24.64621390081769
 30
0.0
 10
32.11757591555201
 20
24.61242870860891
 30
0.0
 10
31.77299300510799
 20
24.5155708841489
 30
0.0
 10
31.44749964423073
 20
24.36660655392596
 30
0.0
 10
31.15775794383959
 20
24.15567801072957
 30
0.0
 10
30.90609576518011
 20
23.90204674026736
 30
0.0
 10
30.69450218406407
 20
23.61346834211755
 30
0.0
 10
30.53862681297708
 20
23.29089603959582
 30
0.0
 10
30.4427778154891
 20
22.9462329884785
 30
0.0
 10
30.40515987073751
 20
22.58968062292321
 30
0.0
 10
30.44352427876861
 20
22.23351817132072
 30
0.0
 10
30.53308941867978
 20
21.88748886639844
 30
0.0
 10
30.68157947778859
 20
21.56148506227442
 30
0.0
 10
30.88917782139148
 20
21.26919473918138
 30
0.0
 10
31.15221374974194
 20
21.02575919463754
 30
0.0
 10
31.4509261633181
 20
20.82973487900221
 30
0.0
 10
31.7761597563312
 20
20.68002671318712
 30
0.0
 10
32.1245992018452
 20
20.59680895475904
 30
0.0
 10
32.4803630861093
 20
20.56921458872081
 30
0.0
 10
32.83672042951041
 20
20.56880350163353
 30
0.0
 10
33.19288790635218
 20
20.58096018875884
 30
0.0
 10
33.6641915214532
 20
20.63797084694975
 30
0.0
 10
33.99993214719605
 20
20.78862716016669
 30
0.0
 10
34.19152297621248
 20
20.92684360711669
 30
0.0
 11
34.19152297621248
 21
24.31990419713182
 31
0.0
 11
34.04814564948316
 21
24.42551803537496
 31
0.0
 11
33.886414432493
 21
24.49734946038967
 31
0.0
 11
33.71305596481814
 21
24.54313679053143
 31
0.0
 11
33.53598457982956
 21
24.57716399139703
 31
0.0
 11
33.18386096308204
 21
24.63164336554592
 31
0.0
 11
32.8297140010732
 21
24.65361067318905
 31
0.0
 11
32.47307470160767
 21
24.64275936909139
 31
0.0
 11
32.11942187052807
 21
24.60192152108414
 31
0.0
 11
31.77626880985488
 21
24.50691864896159
 31
0.0
 11
31.45331806594562
 21
24.35619987525168
 31
0.0
 11
31.16425081659299
 21
24.14868782982736
 31
0.0
 11
30.91268311986691
 21
23.89611360248224
 31
0.0
 11
30.70379325220438
 21
23.60781901266321
 31
0.0
 11
30.54866063637869
 21
23.28729150751013
 31
0.0
 11
30.45247328846812
 21
22.94419894098582
 31
0.0
 11
30.41782044248039
 21
22.58972989255912
 31
0.0
 11
30.4520470898832
 21
22.23526594311771
 31
0.0
 11
30.54294059487364
 21
21.89073675637875
 31
0.0
 11
30.691396483504
 21
21.56716285752306
 31
0.0
 11
30.89849041843911
 21
21.27725022136696
 31
0.0
 11
31.15802450035081
 21
21.0337665401986
 31
0.0
 11
31.45548308742885
 21
20.83737935540596
 31
0.0
 11
31.77997022332717
 21
20.69112453447919
 31
0.0
 11
32.12581407620214
 21
20.60608206244055
 31
0.0
 11
32.48050427697165
 21
20.57374147270578
 31
0.0
 11
32.83641989969535
 21
20.57089422013112
 31
0.0
 11
33.19286980656467
 21
20.58610182742616
 31
0.0
 11
33.54527140198384
 21
20.63588357412756
 31
0.0
 11
34.19152297621248
 21
20.92684360711669
 31
0.0
  0
SPLINE
  5
7D
330
A
100
AcDbEntity
  8
CARTOUCHE
  6
CONTINUOUS
 62
     4
100
AcDbSpline
210
0.0
220
0.0
230
1.0
 70
     8
 71
     3
 72
    32
 73
    28
 74
    26
 42
0.0000000001
 43
0.0000000001
 44
0.000001
 12
-0.1341089932713914
 22
0.9909665876929119
 32
0.0
 13
0.0921211275959058
 23
0.9957478083583508
 33
0.0
 40
0.0
 40
0.0
 40
0.0
 40
0.0
 40
0.1932870726990354
 40
0.3866792452096321
 40
0.5800716448723838
 40
0.7723331336887238
 40
0.9658517963207502
 40
1.159368324722244
 40
1.351211885861728
 40
1.544293516073682
 40
1.738458265495974
 40
1.931764420786816
 40
2.315247530488627
 40
2.698534125382554
 40
2.891496493449493
 40
3.086239187656828
 40
3.279346076389814
 40
3.471494617804941
 40
3.665361350852593
 40
3.858866209618609
 40
4.051424456358019
 40
4.244517019109063
 40
4.629047421486942
 40
4.822526074880364
 40
5.015998230668783
 40
5.208856307653514
 40
5.402319509587272
 40
5.402319509587272
 40
5.402319509587272
 40
5.402319509587272
 10
34.19152297621248
 20
22.75924360711669
 30
0.0
 10
34.18288246463514
 20
22.82309061740926
 30
0.0
 10
34.14699032504411
 20
22.94923083584772
 30
0.0
 10
34.0386311915935
 20
23.11295856749961
 30
0.0
 10
33.88808692217448
 20
23.2375052632015
 30
0.0
 10
33.713903336865
 20
23.32349595013638
 30
0.0
 10
33.52952374823402
 20
23.381666646274
 30
0.0
 10
33.34290576820264
 20
23.43125923522332
 30
0.0
 10
33.1500593445487
 20
23.45345638096766
 30
0.0
 10
32.9567662653034
 20
23.43192402229585
 30
0.0
 10
32.77056094954621
 20
23.37588613719517
 30
0.0
 10
32.5400564300067
 20
23.25927875203683
 30
0.0
 10
32.3043208053898
 20
23.02895627192543
 30
0.0
 10
32.19918324728941
 20
22.70410853072548
 30
0.0
 10
32.25560999955026
 20
22.44863361631264
 30
0.0
 10
32.34552926468554
 20
22.27538547462595
 30
0.0
 10
32.47312191827226
 20
22.12730573798493
 30
0.0
 10
32.63483114160577
 20
22.01829644308999
 30
0.0
 10
32.81426091781529
 20
21.94472694998748
 30
0.0
 10
33.00144386925829
 20
21.89441488480765
 30
0.0
 10
33.1942829819659
 20
21.87304334806433
 30
0.0
 10
33.45148795617319
 20
21.88934820105486
 30
0.0
 10
33.70119762619981
 20
21.97262952139334
 30
0.0
 10
33.91655360502459
 20
22.11456126477981
 30
0.0
 10
34.05836119423946
 20
22.24858589816441
 30
0.0
 10
34.15639851653419
 20
22.41858974007391
 30
0.0
 10
34.18558229344233
 20
22.54608008734217
 30
0.0
 10
34.19152297621248
 20
22.61029360711668
 30
0.0
 11
34.19152297621248
 21
22.75924360711669
 31
0.0
 11
34.13791895137521
 21
22.94494973500174
 31
0.0
 11
34.03155373353055
 21
23.10646429401778
 31
0.0
 11
33.88383915758775
 21
23.2312882243935
 31
0.0
 11
33.71260018090836
 21
23.31870497950503
 31
0.0
 11
33.52912571204567
 21
23.38024026476581
 31
0.0
 11
33.34129541646134
 21
23.4268066350183
 31
0.0
 11
33.15043306379559
 21
23.44618483007101
 31
0.0
 11
32.95838311054932
 21
23.42625160056325
 31
0.0
 11
32.77240099875644
 21
23.3704787693241
 31
0.0
 11
32.6003783004499
 21
23.2823001555606
 31
0.0
 11
32.3303531106979
 21
23.01000300398823
 31
0.0
 11
32.22491909320101
 21
22.64150286445183
 31
0.0
 11
32.26331822628608
 21
22.45239971642014
 31
0.0
 11
32.35215412813561
 21
22.27909964132739
 31
0.0
 11
32.4790661567678
 21
22.13355370124998
 31
0.0
 11
32.63725672616544
 21
22.02448118124885
 31
0.0
 11
32.81564788989768
 21
21.94858052993353
 31
0.0
 11
33.00273750412712
 21
21.89916786421672
 31
0.0
 11
33.19419909206249
 21
21.87864610808737
 31
0.0
 11
33.38690243953787
 21
21.89090007892743
 31
0.0
 11
33.75163382265729
 21
22.01269765064039
 31
0.0
 11
33.91321018639743
 21
22.11912633605071
 31
0.0
 11
34.05119662359747
 21
22.25474052514755
 31
0.0
 11
34.14728879489485
 21
22.42195449774151
 31
0.0
 11
34.19152297621248
 21
22.61029360711668
 31
0.0
  0
LINE
  5
7E
330
A
100
AcDbEntity
  8
CARTOUCHE
  6
CONTINUOUS
 62
     4
100
AcDbLine
 10
34.19152299999999
 20
22.61029399999999
 30
0.0
 11
34.19152299999999
 21
22.759244
 31
0.0
  0
LINE
  5
7F
330
A
100
AcDbEntity
  8
CARTOUCHE
  6
CONTINUOUS
 62
     4
100
AcDbLine
 10
34.19152299999999
 20
20.620844
 30
0.0
 11
34.19152299999999
 21
20.926844
 31
0.0
  0
SPLINE
  5
80
330
A
100
AcDbEntity
  8
CARTOUCHE
  6
CONTINUOUS
 62
     4
100
AcDbSpline
210
0.0
220
0.0
230
1.0
 70
     8
 71
     3
 72
    46
 73
    42
 74
    40
 42
0.0000000001
 43
0.0000000001
 44
0.000001
 12
0.2679235453433934
 22
0.9634401765811027
 32
0.0
 13
0.1610223945668763
 23
0.9869507527977013
 33
0.0
 40
0.0
 40
0.0
 40
0.0
 40
0.0
 40
0.2811755879610205
 40
0.5640894598527233
 40
0.848996750074431
 40
1.131204584902207
 40
1.693847130716207
 40
2.25688272553264
 40
2.539006562895586
 40
2.82069662770917
 40
3.102988313571608
 40
3.385254961394737
 40
3.948537059671116
 40
4.512594879571459
 40
5.076290929579052
 40
5.639938991368811
 40
6.203885292827631
 40
6.76673802423201
 40
7.329350602228592
 40
7.892323292363507
 40
8.455148072837028
 40
8.737354674731138
 40
9.018966275430832
 40
9.581780957923619
 40
9.8640384101795
 40
10.14660875455177
 40
10.42765626274299
 40
10.71044466815239
 40
11.27439702776554
 40
11.83782171874066
 40
12.40154952919084
 40
12.96488070414784
 40
13.53013628041458
 40
13.81230340811157
 40
14.0937286718736
 40
14.37575650341838
 40
14.65756953458365
 40
14.93943539145296
 40
15.2212008302244
 40
15.50299648006998
 40
15.78483841467691
 40
15.78483841467691
 40
15.78483841467691
 40
15.78483841467691
 10
42.2069229762125
 20
22.2561436071167
 30
0.0
 10
42.23203416300934
 20
22.34644222648852
 30
0.0
 10
42.26336600835233
 20
22.53399302707783
 30
0.0
 10
42.24149685064988
 20
22.81801354893513
 30
0.0
 10
42.17836809953294
 20
23.09483432895953
 30
0.0
 10
42.05825188604774
 20
23.45212616882764
 30
0.0
 10
41.82306680068029
 20
23.8672500462518
 30
0.0
 10
41.46781676949063
 20
24.18453380611619
 30
0.0
 10
41.14761161207629
 20
24.38196283172969
 30
0.0
 10
40.8889755311834
 20
24.49665789401904
 30
0.0
 10
40.61969386966782
 20
24.58173362530222
 30
0.0
 10
40.25431496432636
 20
24.67112545926651
 30
0.0
 10
39.78717039719532
 20
24.7349172266618
 30
0.0
 10
39.22286209832438
 20
24.74314592079586
 30
0.0
 10
38.65912089182813
 20
24.70776726288799
 30
0.0
 10
38.10430973138448
 20
24.60055473365942
 30
0.0
 10
37.56703419814676
 20
24.41975302663695
 30
0.0
 10
37.09128412027332
 20
24.10132431889457
 30
0.0
 10
36.74193897991701
 20
23.6494135573821
 30
0.0
 10
36.52262166512311
 20
23.12465092262863
 30
0.0
 10
36.46286239872555
 20
22.65237437546891
 30
0.0
 10
36.49897197569238
 20
22.27677357904617
 30
0.0
 10
36.60138550967333
 20
21.914478475941
 30
0.0
 10
36.76185476285073
 20
21.56953949794036
 30
0.0
 10
36.99184531701846
 20
21.27135446443551
 30
0.0
 10
37.18412183917007
 20
21.0637297758158
 30
0.0
 10
37.41499114147041
 20
20.8981099506315
 30
0.0
 10
37.75233275177086
 20
20.73107999541951
 30
0.0
 10
38.19505514432213
 20
20.56630095377484
 30
0.0
 10
38.75227472239757
 20
20.4684543647121
 30
0.0
 10
39.31516450875555
 20
20.42686251213917
 30
0.0
 10
39.87978566121682
 20
20.45310413897527
 30
0.0
 10
40.34636221788838
 20
20.51793252236162
 30
0.0
 10
40.71317022013404
 20
20.60361845862005
 30
0.0
 10
40.98020793552477
 20
20.69575648453572
 30
0.0
 10
41.23634112546804
 20
20.8133707130675
 30
0.0
 10
41.48756204304269
 20
20.94257872732796
 30
0.0
 10
41.71131198312713
 20
21.11779586997518
 30
0.0
 10
41.89210410379192
 20
21.33577447260693
 30
0.0
 10
42.0370545583131
 20
21.57968832418388
 30
0.0
 10
42.0887453551459
 20
21.76292223727327
 30
0.0
 10
42.10387297621249
 20
21.85564360711669
 30
0.0
 11
42.2069229762125
 21
22.2561436071167
 31
0.0
 11
42.25187369928078
 21
22.53370336692194
 31
0.0
 11
42.23470970538826
 21
22.81609604661631
 31
0.0
 11
42.17357887835489
 21
23.0943678180467
 31
0.0
 11
42.08234233059616
 21
23.36142053588839
 31
0.0
 11
41.79914459059214
 21
23.84759505388021
 31
0.0
 11
41.38499580886721
 21
24.22902637720731
 31
0.0
 11
41.14444967147259
 21
24.37644216492157
 31
0.0
 11
40.88739588735783
 21
24.49164913231013
 31
0.0
 11
40.61887239332167
 21
24.57873375105807
 31
0.0
 11
40.34465192624326
 21
24.6456486068168
 31
0.0
 11
39.78677780416954
 21
24.72351512572941
 31
0.0
 11
39.22285539283774
 21
24.73587418697074
 31
0.0
 11
38.66058598489463
 21
24.6957948090196
 31
0.0
 11
38.10728319880826
 21
24.58829981854138
 31
0.0
 11
37.57690963109761
 21
24.39662477322789
 31
0.0
 11
37.11224330369889
 21
24.07899538626728
 31
0.0
 11
36.76366857941347
 21
23.63737494458054
 31
0.0
 11
36.54722159336241
 21
23.11767406956402
 31
0.0
 11
36.47887604508949
 21
22.55901436160783
 31
0.0
 11
36.50730298839906
 21
22.27824312562695
 31
0.0
 11
36.58066141679664
 21
22.00635409419069
 31
0.0
 11
36.82487619371594
 21
21.49928452588675
 31
0.0
 11
36.99507455897878
 21
21.27411393911514
 31
0.0
 11
37.19090624714093
 21
21.07040837833609
 31
0.0
 11
37.41820717151092
 21
20.90511471530928
 31
0.0
 11
37.66963145788086
 21
20.77567317677089
 31
0.0
 11
38.1996064863776
 21
20.58288122875969
 31
0.0
 11
38.75315260795133
 21
20.4778380326807
 31
0.0
 11
39.31548247397889
 21
20.43816227630538
 31
0.0
 11
39.87832438970059
 21
20.46163547548924
 31
0.0
 11
40.43780417420945
 21
20.54223471097221
 31
0.0
 11
40.71211753370237
 21
20.60834422386486
 31
0.0
 11
40.97822189579761
 21
20.69993377525821
 31
0.0
 11
41.23556355576588
 21
20.81532426148599
 31
0.0
 11
41.48298030283661
 21
20.95024471011851
 31
0.0
 11
41.70417597333143
 21
21.12494680466518
 31
0.0
 11
41.88612496759311
 21
21.3400893433574
 31
0.0
 11
42.02581025553314
 21
21.58482751880403
 31
0.0
 11
42.10387297621249
 21
21.85564360711669
 31
0.0
  0
SPLINE
  5
81
330
A
100
AcDbEntity
  8
CARTOUCHE
  6
CONTINUOUS
 62
     4
100
AcDbSpline
210
0.0
220
0.0
230
1.0
 70
     8
 71
     3
 72
    15
 73
    11
 74
     9
 42
0.0000000001
 43
0.0000000001
 44
0.000001
 12
0.1873467659221653
 22
-0.9822938406090642
 32
0.0
 13
0.7770129286964092
 23
0.6294846373332945
 33
0.0
 40
0.0
 40
0.0
 40
0.0
 40
0.0
 40
0.3371520882962173
 40
0.6743124420665221
 40
1.011741231949286
 40
1.348773281046474
 40
1.687274393511954
 40
1.85609288646097
 40
2.024671668997255
 40
2.361713795269126
 40
2.361713795269126
 40
2.361713795269126
 40
2.361713795269126
 10
38.3648229762125
 20
22.24444360711669
 30
0.0
 10
38.3858777606679
 20
22.13404946722274
 30
0.0
 10
38.47908823920581
 20
21.91720258641543
 30
0.0
 10
38.7543084196568
 20
21.70644962175585
 30
0.0
 10
39.06998579026008
 20
21.58181024957575
 30
0.0
 10
39.40539428132956
 20
21.52556294079901
 30
0.0
 10
39.68949383633028
 20
21.54062590043177
 30
0.0
 10
39.90812614741165
 20
21.59887432412624
 30
0.0
 10
40.11328190683266
 20
21.69222629120342
 30
0.0
 10
40.25572761300298
 20
21.78492266024259
 30
0.0
 10
40.3430229762125
 20
21.85564360711669
 30
0.0
 11
38.3648229762125
 21
22.24444360711669
 31
0.0
 11
38.50164219830394
 21
21.93629966675314
 31
0.0
 11
38.76098099155704
 21
21.72084551731241
 31
0.0
 11
39.07332908880514
 21
21.59318639542835
 31
0.0
 11
39.40580907592664
 21
21.53798084006903
 31
0.0
 11
39.74365139903879
 21
21.55908759838489
 31
0.0
 11
39.90657573481705
 21
21.60330661466392
 31
0.0
 11
40.06077578326682
 21
21.67143258943228
 31
0.0
 11
40.3430229762125
 21
21.85564360711669
 31
0.0
  0
SPLINE
  5
82
330
A
100
AcDbEntity
  8
CARTOUCHE
  6
CONTINUOUS
 62
     4
100
AcDbSpline
210
0.0
220
0.0
230
1.0
 70
     8
 71
     3
 72
    21
 73
    17
 74
    15
 42
0.0000000001
 43
0.0000000001
 44
0.000001
 12
-0.0762450288998757
 22
0.9970891111470715
 32
0.0
 13
-0.2154301143740796
 23
-0.9765192603429648
 33
0.0
 40
0.0
 40
0.0
 40
0.0
 40
0.0
 40
0.1868552501291134
 40
0.3735743240415496
 40
0.5613842212537326
 40
0.7484489381161512
 40
0.935588438582806
 40
1.123112064008598
 40
1.311428189761302
 40
1.500242138341786
 40
1.686443726256276
 40
1.873057604711231
 40
2.05952021535887
 40
2.246467675506947
 40
2.43462854345534
 40
2.621193756753851
 40
2.621193756753851
 40
2.621193756753851
 40
2.621193756753851
 10
40.3430229762125
 20
23.07919360711669
 30
0.0
 10
40.33827404823044
 20
23.14129738553815
 30
0.0
 10
40.31098607120404
 20
23.265320998041
 30
0.0
 10
40.21176993964345
 20
23.42743856410386
 30
0.0
 10
40.07410542495197
 20
23.55667636729545
 30
0.0
 10
39.91380146855937
 20
23.65566279649365
 30
0.0
 10
39.73873495456709
 20
23.72452138799517
 30
0.0
 10
39.55490004271078
 20
23.76544088796557
 30
0.0
 10
39.36639757169171
 20
23.77885750750727
 30
0.0
 10
39.1790224559892
 20
23.76782182101864
 30
0.0
 10
38.99274814414789
 20
23.72745913194852
 30
0.0
 10
38.83748760469036
 20
23.62068056673371
 30
0.0
 10
38.66640559987163
 20
23.54392780516534
 30
0.0
 10
38.52524863854352
 20
23.41621618712654
 30
0.0
 10
38.42100518625731
 20
23.258923243242
 30
0.0
 10
38.37822023129222
 20
23.13992178181536
 30
0.0
 10
38.3648229762125
 20
23.07919360711669
 30
0.0
 11
40.3430229762125
 21
23.07919360711669
 31
0.0
 11
40.30128482007762
 21
23.26132867168497
 31
0.0
 11
40.20559522220136
 21
23.42166431604199
 31
0.0
 11
40.07014905358667
 21
23.55176773224803
 31
0.0
 11
39.91135088271828
 21
23.65064317365039
 31
0.0
 11
39.73746285592489
 21
23.71981068462435
 31
0.0
 11
39.55447534379333
 21
23.76080659501807
 31
0.0
 11
39.36667772831405
 21
23.77477007425147
 31
0.0
 11
39.17824365086321
 21
23.76280187157365
 31
0.0
 11
38.99791204207538
 21
23.71641788353441
 31
0.0
 11
38.83484335052719
 21
23.62568105970969
 31
0.0
 11
38.67159397760771
 21
23.53558123947114
 31
0.0
 11
38.53168126994678
 21
23.41159000587154
 31
0.0
 11
38.42745670868595
 21
23.25493190905036
 31
0.0
 11
38.3648229762125
 21
23.07919360711669
 31
0.0
  0
SPLINE
  5
83
330
A
100
AcDbEntity
  8
CARTOUCHE
  6
CONTINUOUS
 62
     4
100
AcDbSpline
210
0.0
220
0.0
230
1.0
 70
     8
 71
     3
 72
    14
 73
    10
 74
     8
 42
0.0000000001
 43
0.0000000001
 44
0.000001
 12
0.0554704849890784
 22
0.9984603273516061
 32
0.0
 13
-0.0466631639368038
 23
-0.9989106812580427
 33
0.0
 40
0.0
 40
0.0
 40
0.0
 40
0.0
 40
0.2162139074022218
 40
0.4333924847994324
 40
0.6499495281904905
 40
0.8697428518080908
 40
1.087237595645041
 40
1.304827608132232
 40
1.522315904263428
 40
1.522315904263428
 40
1.522315904263428
 40
1.522315904263428
 10
45.4545729762125
 20
22.82764360711668
 30
0.0
 10
45.45857080631416
 20
22.89960394337094
 30
0.0
 10
45.42640845178713
 20
23.04880719341104
 30
0.0
 10
45.27439530019221
 20
23.21580479327942
 30
0.0
 10
45.06187441261872
 20
23.29256560222701
 30
0.0
 10
44.83996045298547
 20
23.27349163465662
 30
0.0
 10
44.63539403875084
 20
23.17927816693098
 30
0.0
 10
44.50069250367362
 20
22.99887923670179
 30
0.0
 10
44.46300587355137
 20
22.85461073446803
 30
0.0
 10
44.45962297621247
 20
22.78219360711668
 30
0.0
 11
45.4545729762125
 21
22.82764360711668
 31
0.0
 11
45.40925657835891
 21
23.03905624439607
 31
0.0
 11
45.2643208173426
 21
23.20079736409236
 31
0.0
 11
45.06139949806013
 21
23.27642755731508
 31
0.0
 11
44.84216559415751
 21
23.2607549970325
 31
0.0
 11
44.64694347697345
 21
23.16487840855711
 31
0.0
 11
44.51370731348553
 21
22.99285063220138
 31
0.0
 11
44.45962297621247
 21
22.78219360711668
 31
0.0
  0
SPLINE
  5
84
330
A
100
AcDbEntity
  8
CARTOUCHE
  6
CONTINUOUS
 62
     4
100
AcDbSpline
210
0.0
220
0.0
230
1.0
 70
     8
 71
     3
 72
    20
 73
    16
 74
    14
 42
0.0000000001
 43
0.0000000001
 44
0.000001
 12
0.1358608544273129
 22
0.9907279284618359
 32
0.0
 13
-0.8123777522852272
 23
-0.583131535412039
 33
0.0
 40
0.0
 40
0.0
 40
0.0
 40
0.0
 40
0.3099167376574408
 40
0.6201162120086082
 40
0.9308832229227103
 40
1.240782580369536
 40
1.550958571055999
 40
1.861841472929394
 40
2.170989032701104
 40
2.482794313402613
 40
2.792566681426362
 40
3.102412009711698
 40
3.413423418356818
 40
3.723770860918
 40
4.34241409277492
 40
4.34241409277492
 40
4.34241409277492
 40
4.34241409277492
 10
47.28382297621251
 20
22.58779360711669
 30
0.0
 10
47.29785816047233
 20
22.69014132961503
 30
0.0
 10
47.31442324043968
 20
22.89676966285277
 30
0.0
 10
47.300929655681
 20
23.20747621588526
 30
0.0
 10
47.25565430040702
 20
23.51474442121903
 30
0.0
 10
47.17620425041041
 20
23.81641651325381
 30
0.0
 10
47.02732817013799
 20
24.09240856669954
 30
0.0
 10
46.81020864916886
 20
24.32073910349872
 30
0.0
 10
46.53096591325816
 20
24.46673549232284
 30
0.0
 10
46.23076181269932
 20
24.54812138519135
 30
0.0
 10
45.92302828297229
 20
24.59724610143176
 30
0.0
 10
45.61155007781772
 20
24.58971042935069
 30
0.0
 10
45.30365677773262
 20
24.54593296501846
 30
0.0
 10
44.90384925448966
 20
24.43649405403212
 30
0.0
 10
44.62714697559995
 20
24.28574373300502
 30
0.0
 10
44.45962297621249
 20
24.16549360711669
 30
0.0
 11
47.28382297621251
 21
22.58779360711669
 31
0.0
 11
47.3080338234398
 21
22.89676387907709
 31
0.0
 11
47.29564801913904
 21
23.20671600883971
 31
0.0
 11
47.24989999164073
 21
23.51409730955235
 31
0.0
 11
47.1646800578296
 21
23.81204898160464
 31
0.0
 11
47.01605698726017
 21
24.08429955967585
 31
0.0
 11
46.79947591694868
 21
24.30732619143858
 31
0.0
 11
46.52824151124928
 21
24.45566419975128
 31
0.0
 11
46.22887996193931
 21
24.5428722112578
 31
0.0
 11
45.92238599753446
 21
24.58782115591738
 31
0.0
 11
45.61256799206709
 21
24.58370341795764
 31
0.0
 11
45.3047164351297
 21
24.53948194901727
 31
0.0
 11
45.00579935951135
 21
24.4560304659967
 31
0.0
 11
44.45962297621249
 21
24.16549360711669
 31
0.0
  0
ARC
  5
85
330
A
100
AcDbEntity
  8
CARTOUCHE
  6
CONTINUOUS
 62
     4
100
AcDbCircle
 10
10.95095399999999
 20
23.85149299999999
 30
0.0
 40
0.4706070000000001
100
AcDbArc
 50
290.581791
 51
349.597912
  0
SPLINE
  5
86
330
A
100
AcDbEntity
  8
CARTOUCHE
  6
CONTINUOUS
 62
     4
100
AcDbSpline
210
0.0
220
0.0
230
1.0
 70
     8
 71
     3
 72
    14
 73
    10
 74
     8
 42
0.0000000001
 43
0.0000000001
 44
0.000001
 12
-0.0678904074543379
 22
-0.9976927846665446
 32
0.0
 13
-0.8200536786282523
 23
0.5722866101598663
 33
0.0
 40
0.0
 40
0.0
 40
0.0
 40
0.0
 40
0.2180606789005079
 40
0.4363602626288003
 40
0.6537280242066231
 40
0.8729546411850229
 40
1.089088005528229
 40
1.305403373828843
 40
1.523279715932531
 40
1.523279715932531
 40
1.523279715932531
 40
1.523279715932531
 10
13.3232229762125
 20
21.16984360711669
 30
0.0
 10
13.3182882334324
 20
21.09732441846385
 30
0.0
 10
13.284440483435
 20
20.95301317401816
 30
0.0
 10
13.16948288538595
 20
20.7630742883032
 30
0.0
 10
12.99638521645118
 20
20.6240633334473
 30
0.0
 10
12.79557455913801
 20
20.53568047568411
 30
0.0
 10
12.57604688222645
 20
20.5036065741256
 30
0.0
 10
12.36194585198925
 20
20.55796217058826
 30
0.0
 10
12.23325574438505
 20
20.6267655025048
 30
0.0
 10
12.17369897910899
 20
20.66832807359032
 30
0.0
 11
13.3232229762125
 21
21.16984360711669
 31
0.0
 11
13.27374961772985
 21
20.95746843688553
 31
0.0
 11
13.15964273339541
 21
20.77136537381492
 31
0.0
 11
12.99218699760144
 21
20.63277473124212
 31
0.0
 11
12.79139755994316
 21
20.54477508934442
 31
0.0
 11
12.576934032064
 21
20.51795972590457
 31
0.0
 11
12.36599789339048
 21
20.56590052451097
 31
0.0
 11
12.17369897910899
 21
20.66832807359032
 31
0.0
  0
ARC
  5
87
330
A
100
AcDbEntity
  8
CARTOUCHE
  6
CONTINUOUS
 62
     4
100
AcDbCircle
 10
14.404539
 20
25.005869
 30
0.0
 40
0.5000710000000001
100
AcDbArc
 50
275.8401249999999
 51
95.840125
  0
INSERT
  5
88
330
A
100
AcDbEntity
  8
CARTOUCHE
  6
CONTINUOUS
 62
     4
100
AcDbBlockReference
  2
*X6
 10
0.0
 20
0.0
 30
0.0
1001
ACAD
1000
HATCH
1002
{
1070
    19
1000
ANSI31
1040
0.062992
1040
0.0
1000
R14_HATCH_DATA
1000
88
1011
1.0
1021
0.0
1031
0.0
1011
0.0
1021
1.0
1031
0.0
1011
0.0
1021
0.0
1031
1.0
1040
0.0
1010
0.0
1020
0.0
1030
1.0
1000
ANSI31
1070
     0
1070
     0
1071
        1
1071
        1
1071
       50
1070
     1
1040
10.46482299999999
1040
24.428744
1040
10.46482299999999
1040
27.399506
1070
     1
1040
8.174775999999999
1040
24.428744
1040
10.46482299999999
1040
24.428744
1070
     1
1040
11.41387299999999
1040
27.652621
1040
11.41387299999999
1040
23.766514
1070
     1
1040
11.11642299999999
1040
23.410844
1040
10.88782299999999
1040
23.410844
1070
     1
1040
10.88782299999999
1040
23.410844
1040
12.362923
1040
21.81019399999999
1070
     1
1040
12.362923
1040
21.81019399999999
1040
12.362923
1040
27.65548499999999
1070
     1
1040
9.378522999999999
1040
23.410844
1040
8.176313
1040
23.410844
1070
     1
1040
13.323223
1040
27.404134
1040
13.323223
1040
25.503344
1070
     1
1040
13.323223
1040
25.503344
1040
14.35365599999999
1040
25.503344
1070
     1
1040
14.455423
1040
24.508394
1040
13.323223
1040
24.508394
1070
     1
1040
13.323223
1040
24.508394
1040
13.323223
1040
21.169844
1070
     1
1040
13.323223
1040
21.169844
1040
13.31883499999999
1040
21.126412
1070
     1
1040
13.31883499999999
1040
21.126412
1040
13.311632
1040
21.08326799999999
1070
     1
1040
13.311632
1040
21.08326799999999
1040
13.301677
1040
21.040602
1070
     1
1040
13.301677
1040
21.040602
1040
13.289029
1040
20.99860499999999
1070
     1
1040
13.289029
1040
20.99860499999999
1040
13.27374999999999
1040
20.957468
1070
     1
1040
13.27374999999999
1040
20.957468
1040
13.25587699999999
1040
20.91734
1070
     1
1040
13.25587699999999
1040
20.91734
1040
13.23547999999999
1040
20.878466
1070
     1
1040
13.23547999999999
1040
20.878466
1040
13.212608
1040
20.841045
1070
     1
1040
13.212608
1040
20.841045
1040
13.187312
1040
20.805278
1070
     1
1040
13.187312
1040
20.805278
1040
13.159643
1040
20.77136499999999
1070
     1
1040
13.159643
1040
20.77136499999999
1040
13.129815
1040
20.73960499999999
1070
     1
1040
13.129815
1040
20.73960499999999
1040
13.09792
1040
20.70987399999999
1070
     1
1040
13.09792
1040
20.70987399999999
1040
13.064194
1040
20.682164
1070
     1
1040
13.064194
1040
20.682164
1040
13.028871
1040
20.656467
1070
     1
1040
13.028871
1040
20.656467
1040
12.99218699999999
1040
20.63277499999999
1070
     1
1040
12.99218699999999
1040
20.63277499999999
1040
12.91478699999999
1040
20.591129
1070
     1
1040
12.91478699999999
1040
20.591129
1040
12.874555
1040
20.573479
1070
     1
1040
12.874555
1040
20.573479
1040
12.83339999999999
1040
20.55801
1070
     1
1040
12.83339999999999
1040
20.55801
1040
12.791398
1040
20.544775
1070
     1
1040
12.791398
1040
20.544775
1040
12.749249
1040
20.53399399999999
1070
     1
1040
12.749249
1040
20.53399399999999
1040
12.706539
1040
20.52567799999999
1070
     1
1040
12.706539
1040
20.52567799999999
1040
12.663456
1040
20.52007
1070
     1
1040
12.663456
1040
20.52007
1040
12.620191
1040
20.517416
1070
     1
1040
12.620191
1040
20.517416
1040
12.57693399999999
1040
20.51796
1070
     1
1040
12.57693399999999
1040
20.51796
1040
12.533829
1040
20.52186
1070
     1
1040
12.533829
1040
20.52186
1040
12.491053
1040
20.528907
1070
     1
1040
12.491053
1040
20.528907
1040
12.448736
1040
20.53879699999999
1070
     1
1040
12.448736
1040
20.53879699999999
1040
12.407007
1040
20.551229
1070
     1
1040
12.407007
1040
20.551229
1040
12.365998
1040
20.565901
1070
     1
1040
12.365998
1040
20.565901
1040
12.286013
1040
20.60136299999999
1070
     1
1040
12.286013
1040
20.60136299999999
1040
12.228617
1040
20.63285299999999
1070
     1
1040
12.228617
1040
20.63285299999999
1040
12.173699
1040
20.66832799999999
1070
     1
1040
12.173699
1040
20.66832799999999
1040
9.378522999999999
1040
23.410844
1070
     2
1040
11.899646
1040
23.925422
1040
4.756723
1040
0.0
1040
6.283184999999999
1070
     1
1070
     2
1040
11.899651
1040
23.925417
1040
3.758726999999999
1040
1.962466
1040
3.007279999999999
1070
     1
1070
     2
1040
10.95095399999999
1040
23.85149299999999
1040
0.4706070000000001
1040
5.071608999999999
1040
6.101634999999999
1070
     1
1070
     2
1040
11.899651
1040
23.925417
1040
3.758726999999999
1040
1.44723
1040
1.700399
1070
     1
1070
     2
1040
11.899651
1040
23.925417
1040
3.758726999999999
1040
3.278925
1040
7.465549
1070
     1
1070
     2
1040
14.404539
1040
25.005869
1040
0.5000710000000001
1040
4.814318
1040
7.955911
1070
     1
1071
        0
1070
     0
1070
     1
1040
0.0
1040
0.062992
1070
     0
1070
     1
1040
0.7853979999999999
1040
-6.225169999999999
1040
-28.624349
1040
-0.141421
1040
0.141421
1070
     0
1071
        1
1040
-6.225169999999999
1040
-28.624349
1040
0.0
1002
}
  0
INSERT
  5
89
330
A
100
AcDbEntity
  8
CARTOUCHE
  6
CONTINUOUS
 62
     4
100
AcDbBlockReference
  2
*X7
 10
0.0
 20
0.0
 30
0.0
1001
ACAD
1000
HATCH
1002
{
1070
    19
1000
ANSI31
1040
0.062992
1040
0.0
1000
R14_HATCH_DATA
1000
89
1011
1.0
1021
0.0
1031
0.0
1011
0.0
1021
1.0
1031
0.0
1011
0.0
1021
0.0
1031
1.0
1040
0.0
1010
0.0
1020
0.0
1030
1.0
1000
ANSI31
1070
     0
1070
     0
1071
        1
1071
        1
1071
       16
1070
     1
1040
18.674623
1040
24.508394
1040
18.674623
1040
24.929401
1070
     1
1040
19.58025899999999
1040
25.834994
1040
21.087523
1040
25.834994
1070
     1
1040
21.087523
1040
25.834994
1040
21.087523
1040
24.931844
1070
     1
1040
21.087523
1040
24.931844
1040
20.679053
1040
24.931844
1070
     1
1040
20.461079
1040
24.768622
1040
20.412973
1040
24.508394
1070
     1
1040
20.412973
1040
24.508394
1040
21.087523
1040
24.508394
1070
     1
1040
21.087523
1040
24.508394
1040
21.087523
1040
23.410844
1070
     1
1040
21.087523
1040
23.410844
1040
20.470123
1040
23.410844
1070
     1
1040
20.470123
1040
23.410844
1040
20.470123
1040
20.63209399999999
1070
     1
1040
20.470123
1040
20.63209399999999
1040
18.674623
1040
20.63209399999999
1070
     1
1040
18.674623
1040
20.63209399999999
1040
18.674623
1040
23.410844
1070
     1
1040
18.674623
1040
23.410844
1040
18.137323
1040
23.410844
1070
     1
1040
18.137323
1040
23.410844
1040
18.137323
1040
24.508394
1070
     1
1040
18.137323
1040
24.508394
1040
18.674623
1040
24.508394
1070
     2
1040
19.58025899999999
1040
24.929401
1040
0.905639
1040
1.570795999999999
1040
3.141592999999999
1070
     1
1070
     2
1040
20.705988
1040
24.668716
1040
0.264503
1040
1.672804999999999
1040
2.754265999999999
1070
     1
1071
        0
1070
     0
1070
     1
1040
0.0
1040
0.062992
1070
     0
1070
     1
1040
0.7853979999999999
1040
-6.225169999999999
1040
-28.624349
1040
-0.141421
1040
0.141421
1070
     0
1071
        1
1040
-6.225169999999999
1040
-28.624349
1040
0.0
1002
}
  0
INSERT
  5
8A
330
A
100
AcDbEntity
  8
CARTOUCHE
  6
CONTINUOUS
 62
     4
100
AcDbBlockReference
  2
*X8
 10
0.0
 20
0.0
 30
0.0
1001
ACAD
1000
HATCH
1002
{
1070
    19
1000
ANSI31
1040
0.062992
1040
0.0
1000
R14_HATCH_DATA
1000
8A
1011
1.0
1021
0.0
1031
0.0
1011
0.0
1021
1.0
1031
0.0
1011
0.0
1021
0.0
1031
1.0
1040
0.0
1010
0.0
1020
0.0
1030
1.0
1000
ANSI31
1070
     0
1070
     0
1071
        1
1071
        1
1071
        4
1070
     1
1040
21.807973
1040
25.834994
1040
21.807973
1040
24.943094
1070
     1
1040
21.807973
1040
24.943094
1040
23.625973
1040
24.943094
1070
     1
1040
23.625973
1040
24.943094
1040
23.625973
1040
25.834994
1070
     1
1040
23.625973
1040
25.834994
1040
21.807973
1040
25.834994
1071
        0
1070
     0
1070
     1
1040
0.0
1040
0.062992
1070
     0
1070
     1
1040
0.7853979999999999
1040
-6.225169999999999
1040
-28.624349
1040
-0.141421
1040
0.141421
1070
     0
1071
        1
1040
-6.225169999999999
1040
-28.624349
1040
0.0
1002
}
  0
INSERT
  5
8B
330
A
100
AcDbEntity
  8
CARTOUCHE
  6
CONTINUOUS
 62
     4
100
AcDbBlockReference
  2
*X9
 10
0.0
 20
0.0
 30
0.0
1001
ACAD
1000
HATCH
1002
{
1070
    19
1000
ANSI31
1040
0.062992
1040
0.0
1000
R14_HATCH_DATA
1000
8B
1011
1.0
1021
0.0
1031
0.0
1011
0.0
1021
1.0
1031
0.0
1011
0.0
1021
0.0
1031
1.0
1040
0.0
1010
0.0
1020
0.0
1030
1.0
1000
ANSI31
1070
     0
1070
     0
1071
        1
1071
        1
1071
        4
1070
     1
1040
21.807973
1040
24.508394
1040
21.807973
1040
20.63209399999999
1070
     1
1040
21.807973
1040
20.63209399999999
1040
23.625973
1040
20.63209399999999
1070
     1
1040
23.625973
1040
20.63209399999999
1040
23.625973
1040
24.508394
1070
     1
1040
23.625973
1040
24.508394
1040
21.807973
1040
24.508394
1071
        0
1070
     0
1070
     1
1040
0.0
1040
0.062992
1070
     0
1070
     1
1040
0.7853979999999999
1040
-6.225169999999999
1040
-28.624349
1040
-0.141421
1040
0.141421
1070
     0
1071
        1
1040
-6.225169999999999
1040
-28.624349
1040
0.0
1002
}
  0
INSERT
  5
8C
330
A
100
AcDbEntity
  8
CARTOUCHE
  6
CONTINUOUS
 62
     4
100
AcDbBlockReference
  2
*X10
 10
0.0
 20
0.0
 30
0.0
1001
ACAD
1000
HATCH
1002
{
1070
    19
1000
ANSI31
1040
0.062992
1040
0.0
1000
R14_HATCH_DATA
1000
8C
1011
1.0
1021
0.0
1031
0.0
1011
0.0
1021
1.0
1031
0.0
1011
0.0
1021
0.0
1031
1.0
1040
0.0
1010
0.0
1020
0.0
1030
1.0
1000
ANSI31
1070
     0
1070
     0
1071
        1
1071
        1
1071
       12
1070
     1
1040
26.28997299999999
1040
24.508394
1040
26.28997299999999
1040
24.074144
1070
     1
1040
29.89222299999999
1040
23.324553
1040
29.89222299999999
1040
20.63209399999999
1070
     1
1040
29.89222299999999
1040
20.63209399999999
1040
28.108423
1040
20.63209399999999
1070
     1
1040
28.108423
1040
20.63209399999999
1040
28.108423
1040
22.47903399999999
1070
     1
1040
26.28997299999999
1040
22.43349899999999
1040
26.28997299999999
1040
20.63209399999999
1070
     1
1040
26.28997299999999
1040
20.63209399999999
1040
24.494923
1040
20.63209399999999
1070
     1
1040
24.494923
1040
20.63209399999999
1040
24.494923
1040
24.508394
1070
     1
1040
24.494923
1040
24.508394
1040
26.28997299999999
1040
24.508394
1070
     2
1040
28.067403
1040
21.045261
1040
3.511892
1040
1.25441
1040
2.101472999999999
1070
     1
1070
     2
1040
28.675028
1040
23.264873
1040
1.218658
1040
0.048991
1040
1.161443
1070
     1
1070
     2
1040
27.457324
1040
22.47903399999999
1040
0.6511239999999999
1040
0.0
1040
1.695599
1070
     1
1070
     2
1040
27.44381
1040
21.82007899999999
1040
1.306761
1040
1.622502
1040
2.652958
1070
     1
1071
        0
1070
     0
1070
     1
1040
0.0
1040
0.062992
1070
     0
1070
     1
1040
0.7853979999999999
1040
-6.225169999999999
1040
-28.624349
1040
-0.141421
1040
0.141421
1070
     0
1071
        1
1040
-6.225169999999999
1040
-28.624349
1040
0.0
1002
}
  0
INSERT
  5
8D
330
A
100
AcDbEntity
  8
CARTOUCHE
  6
CONTINUOUS
 62
     4
100
AcDbBlockReference
  2
*X11
 10
0.0
 20
0.0
 30
0.0
1001
ACAD
1000
HATCH
1002
{
1070
    19
1000
ANSI31
1040
0.062992
1040
0.0
1000
R14_HATCH_DATA
1000
8D
1011
1.0
1021
0.0
1031
0.0
1011
0.0
1021
1.0
1031
0.0
1011
0.0
1021
0.0
1031
1.0
1040
0.0
1010
0.0
1020
0.0
1030
1.0
1000
ANSI31
1070
     0
1070
     0
1071
        1
1071
        1
1071
      154
1070
     1
1040
34.19152299999999
1040
24.319904
1040
34.136639
1040
24.365465
1070
     1
1040
34.136639
1040
24.365465
1040
34.093353
1040
24.396952
1070
     1
1040
34.093353
1040
24.396952
1040
34.048146
1040
24.425518
1070
     1
1040
34.048146
1040
24.425518
1040
33.985315
1040
24.45824299999999
1070
     1
1040
33.985315
1040
24.45824299999999
1040
33.936415
1040
24.47918299999999
1070
     1
1040
33.936415
1040
24.47918299999999
1040
33.886414
1040
24.497349
1070
     1
1040
33.886414
1040
24.497349
1040
33.800369
1040
24.52267
1070
     1
1040
33.800369
1040
24.52267
1040
33.713056
1040
24.543137
1070
     1
1040
33.713056
1040
24.543137
1040
33.53598499999999
1040
24.577164
1070
     1
1040
33.53598499999999
1040
24.577164
1040
33.183861
1040
24.631643
1070
     1
1040
33.183861
1040
24.631643
1040
32.829714
1040
24.65361099999999
1070
     1
1040
32.829714
1040
24.65361099999999
1040
32.473075
1040
24.642759
1070
     1
1040
32.473075
1040
24.642759
1040
32.295535
1040
24.627567
1070
     1
1040
32.295535
1040
24.627567
1040
32.119422
1040
24.601922
1070
     1
1040
32.119422
1040
24.601922
1040
31.980393
1040
24.570874
1070
     1
1040
31.980393
1040
24.570874
1040
31.77626899999999
1040
24.506919
1070
     1
1040
31.77626899999999
1040
24.506919
1040
31.643857
1040
24.453442
1070
     1
1040
31.643857
1040
24.453442
1040
31.54719899999999
1040
24.407478
1070
     1
1040
31.54719899999999
1040
24.407478
1040
31.453318
1040
24.3562
1070
     1
1040
31.453318
1040
24.3562
1040
31.333276
1040
24.279541
1070
     1
1040
31.333276
1040
24.279541
1040
31.164251
1040
24.148688
1070
     1
1040
31.164251
1040
24.148688
1040
31.058938
1040
24.05235799999999
1070
     1
1040
31.058938
1040
24.05235799999999
1040
30.912683
1040
23.896114
1070
     1
1040
30.912683
1040
23.896114
1040
30.823445
1040
23.784931
1070
     1
1040
30.823445
1040
23.784931
1040
30.703793
1040
23.607819
1070
     1
1040
30.703793
1040
23.607819
1040
30.63481599999999
1040
23.48301999999999
1070
     1
1040
30.63481599999999
1040
23.48301999999999
1040
30.589096
1040
23.38631
1070
     1
1040
30.589096
1040
23.38631
1040
30.54866099999999
1040
23.287292
1070
     1
1040
30.54866099999999
1040
23.287292
1040
30.503077
1040
23.152132
1070
     1
1040
30.503077
1040
23.152132
1040
30.45247299999999
1040
22.94419899999999
1070
     1
1040
30.45247299999999
1040
22.94419899999999
1040
30.430632
1040
22.80314999999999
1070
     1
1040
30.430632
1040
22.80314999999999
1040
30.42104699999999
1040
22.696588
1070
     1
1040
30.42104699999999
1040
22.696588
1040
30.41782
1040
22.58973
1070
     1
1040
30.41782
1040
22.58973
1040
30.423783
1040
22.44735499999999
1070
     1
1040
30.423783
1040
22.44735499999999
1040
30.45204699999999
1040
22.235266
1070
     1
1040
30.45204699999999
1040
22.235266
1040
30.481823
1040
22.09568299999999
1070
     1
1040
30.481823
1040
22.09568299999999
1040
30.54294099999999
1040
21.89073699999999
1070
     1
1040
30.54294099999999
1040
21.89073699999999
1040
30.595245
1040
21.758144
1070
     1
1040
30.595245
1040
21.758144
1040
30.640663
1040
21.661326
1070
     1
1040
30.640663
1040
21.661326
1040
30.691396
1040
21.567163
1070
     1
1040
30.691396
1040
21.567163
1040
30.76734099999999
1040
21.44630199999999
1070
     1
1040
30.76734099999999
1040
21.44630199999999
1040
30.830371
1040
21.359778
1070
     1
1040
30.830371
1040
21.359778
1040
30.89849
1040
21.27724999999999
1070
     1
1040
30.89849
1040
21.27724999999999
1040
30.99676699999999
1040
21.17408
1070
     1
1040
30.99676699999999
1040
21.17408
1040
31.158025
1040
21.033767
1070
     1
1040
31.158025
1040
21.033767
1040
31.273232
1040
20.94957699999999
1070
     1
1040
31.273232
1040
20.94957699999999
1040
31.455483
1040
20.837379
1070
     1
1040
31.455483
1040
20.837379
1040
31.58228499999999
1040
20.77219599999999
1070
     1
1040
31.58228499999999
1040
20.77219599999999
1040
31.680038
1040
20.728943
1070
     1
1040
31.680038
1040
20.728943
1040
31.77997
1040
20.691125
1070
     1
1040
31.77997
1040
20.691125
1040
31.91640599999999
1040
20.64973699999999
1070
     1
1040
31.91640599999999
1040
20.64973699999999
1040
32.12581399999999
1040
20.606082
1070
     1
1040
32.12581399999999
1040
20.606082
1040
32.302677
1040
20.584734
1070
     1
1040
32.302677
1040
20.584734
1040
32.48050399999999
1040
20.573741
1070
     1
1040
32.48050399999999
1040
20.573741
1040
32.83642
1040
20.570894
1070
     1
1040
32.83642
1040
20.570894
1040
33.19287
1040
20.58610199999999
1070
     1
1040
33.19287
1040
20.58610199999999
1040
33.33459699999999
1040
20.6
1070
     1
1040
33.33459699999999
1040
20.6
1040
33.545271
1040
20.63588399999999
1070
     1
1040
33.545271
1040
20.63588399999999
1040
33.682853
1040
20.67301599999999
1070
     1
1040
33.682853
1040
20.67301599999999
1040
33.817433
1040
20.721154
1070
     1
1040
33.817433
1040
20.721154
1040
33.947848
1040
20.779822
1070
     1
1040
33.947848
1040
20.779822
1040
34.072933
1040
20.848544
1070
     1
1040
34.072933
1040
20.848544
1040
34.19152299999999
1040
20.926844
1070
     1
1040
34.19152299999999
1040
20.926844
1040
34.19152299999999
1040
20.620844
1070
     1
1040
34.19152299999999
1040
20.620844
1040
35.986573
1040
20.620844
1070
     1
1040
35.986573
1040
20.620844
1040
35.986573
1040
25.823744
1070
     1
1040
35.986573
1040
25.823744
1040
34.19152299999999
1040
25.823744
1070
     1
1040
34.19152299999999
1040
25.823744
1040
34.19152299999999
1040
24.319904
1070
     1
1040
34.19152299999999
1040
22.759244
1040
34.185224
1040
22.797429
1070
     1
1040
34.185224
1040
22.797429
1040
34.176704
1040
22.835258
1070
     1
1040
34.176704
1040
22.835258
1040
34.165972
1040
22.87256499999999
1070
     1
1040
34.165972
1040
22.87256499999999
1040
34.15304099999999
1040
22.909184
1070
     1
1040
34.15304099999999
1040
22.909184
1040
34.137919
1040
22.94494999999999
1070
     1
1040
34.137919
1040
22.94494999999999
1040
34.12062199999999
1040
22.97972399999999
1070
     1
1040
34.12062199999999
1040
22.97972399999999
1040
34.10124099999999
1040
23.01337
1070
     1
1040
34.10124099999999
1040
23.01337
1040
34.079871
1040
23.045781
1070
     1
1040
34.079871
1040
23.045781
1040
34.05661
1040
23.076848
1070
     1
1040
34.05661
1040
23.076848
1040
34.031554
1040
23.106464
1070
     1
1040
34.031554
1040
23.106464
1040
34.004808
1040
23.13453999999999
1070
     1
1040
34.004808
1040
23.13453999999999
1040
33.97651299999999
1040
23.16105899999999
1070
     1
1040
33.97651299999999
1040
23.16105899999999
1040
33.931497
1040
23.19792
1070
     1
1040
33.931497
1040
23.19792
1040
33.883839
1040
23.231288
1070
     1
1040
33.883839
1040
23.231288
1040
33.817408
1040
23.270254
1070
     1
1040
33.817408
1040
23.270254
1040
33.7126
1040
23.31870499999999
1070
     1
1040
33.7126
1040
23.31870499999999
1040
33.52912599999999
1040
23.38024
1070
     1
1040
33.52912599999999
1040
23.38024
1040
33.341295
1040
23.426807
1070
     1
1040
33.341295
1040
23.426807
1040
33.265367
1040
23.43872
1070
     1
1040
33.265367
1040
23.43872
1040
33.20799199999999
1040
23.44418399999999
1070
     1
1040
33.20799199999999
1040
23.44418399999999
1040
33.150433
1040
23.446185
1070
     1
1040
33.150433
1040
23.446185
1040
33.073206
1040
23.442941
1070
     1
1040
33.073206
1040
23.442941
1040
33.01556
1040
23.43626899999999
1070
     1
1040
33.01556
1040
23.43626899999999
1040
32.958383
1040
23.426252
1070
     1
1040
32.958383
1040
23.426252
1040
32.882791
1040
23.40794999999999
1070
     1
1040
32.882791
1040
23.40794999999999
1040
32.827093
1040
23.390689
1070
     1
1040
32.827093
1040
23.390689
1040
32.772401
1040
23.37047899999999
1070
     1
1040
32.772401
1040
23.37047899999999
1040
32.70162299999999
1040
23.339164
1070
     1
1040
32.70162299999999
1040
23.339164
1040
32.650176
1040
23.312245
1070
     1
1040
32.650176
1040
23.312245
1040
32.600378
1040
23.2823
1070
     1
1040
32.600378
1040
23.2823
1040
32.53744099999999
1040
23.23798
1070
     1
1040
32.53744099999999
1040
23.23798
1040
32.478372
1040
23.188413
1070
     1
1040
32.478372
1040
23.188413
1040
32.423769
1040
23.133776
1070
     1
1040
32.423769
1040
23.133776
1040
32.37422999999999
1040
23.07424699999999
1070
     1
1040
32.37422999999999
1040
23.07424699999999
1040
32.330353
1040
23.010003
1070
     1
1040
32.330353
1040
23.010003
1040
32.29281799999999
1040
22.941394
1070
     1
1040
32.29281799999999
1040
22.941394
1040
32.26252099999999
1040
22.869246
1070
     1
1040
32.26252099999999
1040
22.869246
1040
32.250396
1040
22.832155
1070
     1
1040
32.250396
1040
22.832155
1040
32.24044899999999
1040
22.794552
1070
     1
1040
32.24044899999999
1040
22.794552
1040
32.23280499999999
1040
22.75656099999999
1070
     1
1040
32.23280499999999
1040
22.75656099999999
1040
32.22758599999999
1040
22.71830599999999
1070
     1
1040
32.22758599999999
1040
22.71830599999999
1040
32.22491699999999
1040
22.67991199999999
1070
     1
1040
32.22491699999999
1040
22.67991199999999
1040
32.224919
1040
22.641503
1070
     1
1040
32.224919
1040
22.641503
1040
32.227693
1040
22.60294
1070
     1
1040
32.227693
1040
22.60294
1040
32.233111
1040
22.56461799999999
1070
     1
1040
32.233111
1040
22.56461799999999
1040
32.24098099999999
1040
22.526667
1070
     1
1040
32.24098099999999
1040
22.526667
1040
32.251114
1040
22.48921699999999
1070
     1
1040
32.251114
1040
22.48921699999999
1040
32.263318
1040
22.4524
1070
     1
1040
32.263318
1040
22.4524
1040
32.29364499999999
1040
22.380425
1070
     1
1040
32.29364499999999
1040
22.380425
1040
32.321048
1040
22.328706
1070
     1
1040
32.321048
1040
22.328706
1040
32.35215399999999
1040
22.2791
1070
     1
1040
32.35215399999999
1040
22.2791
1040
32.398586
1040
22.217113
1070
     1
1040
32.398586
1040
22.217113
1040
32.437235
1040
22.173772
1070
     1
1040
32.437235
1040
22.173772
1040
32.47906599999999
1040
22.133554
1070
     1
1040
32.47906599999999
1040
22.133554
1040
32.539186
1040
22.085487
1070
     1
1040
32.539186
1040
22.085487
1040
32.587212
1040
22.05335499999999
1070
     1
1040
32.587212
1040
22.05335499999999
1040
32.637257
1040
22.024481
1070
     1
1040
32.637257
1040
22.024481
1040
32.707048
1040
21.990519
1070
     1
1040
32.707048
1040
21.990519
1040
32.81564799999999
1040
21.948581
1070
     1
1040
32.81564799999999
1040
21.948581
1040
32.889663
1040
21.925699
1070
     1
1040
32.889663
1040
21.925699
1040
33.002738
1040
21.899168
1070
     1
1040
33.002738
1040
21.899168
1040
33.078914
1040
21.887245
1070
     1
1040
33.078914
1040
21.887245
1040
33.19419899999999
1040
21.878646
1070
     1
1040
33.19419899999999
1040
21.878646
1040
33.27146299999999
1040
21.879509
1070
     1
1040
33.27146299999999
1040
21.879509
1040
33.386902
1040
21.89089999999999
1070
     1
1040
33.386902
1040
21.89089999999999
1040
33.46279
1040
21.905127
1070
     1
1040
33.46279
1040
21.905127
1040
33.537631
1040
21.924554
1070
     1
1040
33.537631
1040
21.924554
1040
33.611002
1040
21.94904699999999
1070
     1
1040
33.611002
1040
21.94904699999999
1040
33.68247699999999
1040
21.978473
1070
     1
1040
33.68247699999999
1040
21.978473
1040
33.751634
1040
22.01269799999999
1070
     1
1040
33.751634
1040
22.01269799999999
1040
33.81849899999999
1040
22.05184599999999
1070
     1
1040
33.81849899999999
1040
22.05184599999999
1040
33.91321
1040
22.119126
1070
     1
1040
33.91321
1040
22.119126
1040
33.972146
1040
22.16959899999999
1070
     1
1040
33.972146
1040
22.16959899999999
1040
34.013325
1040
22.210664
1070
     1
1040
34.013325
1040
22.210664
1040
34.05119699999999
1040
22.254741
1070
     1
1040
34.05119699999999
1040
22.254741
1040
34.07423699999999
1040
22.285782
1070
     1
1040
34.07423699999999
1040
22.285782
1040
34.09545
1040
22.318141
1070
     1
1040
34.09545
1040
22.318141
1040
34.114752
1040
22.351701
1070
     1
1040
34.114752
1040
22.351701
1040
34.13205999999999
1040
22.386344
1070
     1
1040
34.13205999999999
1040
22.386344
1040
34.147289
1040
22.42195399999999
1070
     1
1040
34.147289
1040
22.42195399999999
1040
34.16041099999999
1040
22.458525
1070
     1
1040
34.16041099999999
1040
22.458525
1040
34.171377
1040
22.49579699999999
1070
     1
1040
34.171377
1040
22.49579699999999
1040
34.180205
1040
22.533619
1070
     1
1040
34.180205
1040
22.533619
1040
34.186914
1040
22.571835
1070
     1
1040
34.186914
1040
22.571835
1040
34.19152299999999
1040
22.61029399999999
1070
     1
1040
34.19152299999999
1040
22.61029399999999
1040
34.19152299999999
1040
22.759244
1071
        0
1070
     0
1070
     1
1040
0.0
1040
0.062992
1070
     0
1070
     1
1040
0.7853979999999999
1040
-6.225169999999999
1040
-28.624349
1040
-0.141421
1040
0.141421
1070
     0
1071
        1
1040
-6.225169999999999
1040
-28.624349
1040
0.0
1002
}
  0
INSERT
  5
8E
330
A
100
AcDbEntity
  8
CARTOUCHE
  6
CONTINUOUS
 62
     4
100
AcDbBlockReference
  2
*X12
 10
0.0
 20
0.0
 30
0.0
1001
ACAD
1000
HATCH
1002
{
1070
    19
1000
ANSI31
1040
0.062992
1040
0.0
1000
R14_HATCH_DATA
1000
8E
1011
1.0
1021
0.0
1031
0.0
1011
0.0
1021
1.0
1031
0.0
1011
0.0
1021
0.0
1031
1.0
1040
0.0
1010
0.0
1020
0.0
1030
1.0
1000
ANSI31
1070
     0
1070
     0
1071
        1
1071
        1
1071
      165
1070
     1
1040
39.05107299999999
1040
22.244444
1040
39.15412299999999
1040
22.244444
1070
     1
1040
39.15412299999999
1040
22.244444
1040
42.20692299999999
1040
22.25614399999999
1070
     1
1040
42.20692299999999
1040
22.25614399999999
1040
42.232378
1040
22.36584699999999
1070
     1
1040
42.232378
1040
22.36584699999999
1040
42.245048
1040
22.449462
1070
     1
1040
42.245048
1040
22.449462
1040
42.251874
1040
22.53370299999999
1070
     1
1040
42.251874
1040
22.53370299999999
1040
42.25173499999999
1040
22.646969
1070
     1
1040
42.25173499999999
1040
22.646969
1040
42.23470999999999
1040
22.81609599999999
1070
     1
1040
42.23470999999999
1040
22.81609599999999
1040
42.208465
1040
22.956213
1070
     1
1040
42.208465
1040
22.956213
1040
42.17357899999999
1040
23.09436799999999
1070
     1
1040
42.17357899999999
1040
23.09436799999999
1040
42.131795
1040
23.229146
1070
     1
1040
42.131795
1040
23.229146
1040
42.08234199999999
1040
23.36142099999999
1070
     1
1040
42.08234199999999
1040
23.36142099999999
1040
42.03686199999999
1040
23.464716
1070
     1
1040
42.03686199999999
1040
23.464716
1040
41.98586099999999
1040
23.56553499999999
1070
     1
1040
41.98586099999999
1040
23.56553499999999
1040
41.92928
1040
23.663323
1070
     1
1040
41.92928
1040
23.663323
1040
41.867061
1040
23.757527
1070
     1
1040
41.867061
1040
23.757527
1040
41.799145
1040
23.847595
1070
     1
1040
41.799145
1040
23.847595
1040
41.72552399999999
1040
23.93313
1070
     1
1040
41.72552399999999
1040
23.93313
1040
41.646719
1040
24.01400399999999
1070
     1
1040
41.646719
1040
24.01400399999999
1040
41.563309
1040
24.090255
1070
     1
1040
41.563309
1040
24.090255
1040
41.384996
1040
24.229026
1070
     1
1040
41.384996
1040
24.229026
1040
41.266986
1040
24.306605
1070
     1
1040
41.266986
1040
24.306605
1040
41.14444999999999
1040
24.376442
1070
     1
1040
41.14444999999999
1040
24.376442
1040
41.017719
1040
24.437986
1070
     1
1040
41.017719
1040
24.437986
1040
40.887396
1040
24.49164899999999
1070
     1
1040
40.887396
1040
24.49164899999999
1040
40.618872
1040
24.578734
1070
     1
1040
40.618872
1040
24.578734
1040
40.344652
1040
24.645649
1070
     1
1040
40.344652
1040
24.645649
1040
40.06700499999999
1040
24.69362999999999
1070
     1
1040
40.06700499999999
1040
24.69362999999999
1040
39.786778
1040
24.723515
1070
     1
1040
39.786778
1040
24.723515
1040
39.22285499999999
1040
24.73587399999999
1070
     1
1040
39.22285499999999
1040
24.73587399999999
1040
38.660586
1040
24.695795
1070
     1
1040
38.660586
1040
24.695795
1040
38.3823
1040
24.651139
1070
     1
1040
38.3823
1040
24.651139
1040
38.107283
1040
24.5883
1070
     1
1040
38.107283
1040
24.5883
1040
37.890593
1040
24.52408
1070
     1
1040
37.890593
1040
24.52408
1040
37.731586
1040
24.46569699999999
1070
     1
1040
37.731586
1040
24.46569699999999
1040
37.57690999999999
1040
24.396625
1070
     1
1040
37.57690999999999
1040
24.396625
1040
37.477006
1040
24.343979
1070
     1
1040
37.477006
1040
24.343979
1040
37.38006699999999
1040
24.285863
1070
     1
1040
37.38006699999999
1040
24.285863
1040
37.286613
1040
24.222306
1070
     1
1040
37.286613
1040
24.222306
1040
37.197165
1040
24.15334
1070
     1
1040
37.197165
1040
24.15334
1040
37.112243
1040
24.078995
1070
     1
1040
37.112243
1040
24.078995
1040
37.03231999999999
1040
23.999414
1070
     1
1040
37.03231999999999
1040
23.999414
1040
36.957469
1040
23.91497399999999
1070
     1
1040
36.957469
1040
23.91497399999999
1040
36.887723
1040
23.826164
1070
     1
1040
36.887723
1040
23.826164
1040
36.823113
1040
23.733469
1070
     1
1040
36.823113
1040
23.733469
1040
36.763669
1040
23.637375
1070
     1
1040
36.763669
1040
23.637375
1040
36.660491
1040
23.436489
1070
     1
1040
36.660491
1040
23.436489
1040
36.61706099999999
1040
23.332299
1070
     1
1040
36.61706099999999
1040
23.332299
1040
36.57925699999999
1040
23.225943
1070
     1
1040
36.57925699999999
1040
23.225943
1040
36.547222
1040
23.11767399999999
1070
     1
1040
36.547222
1040
23.11767399999999
1040
36.521104
1040
23.00778999999999
1070
     1
1040
36.521104
1040
23.00778999999999
1040
36.501051
1040
22.896613
1070
     1
1040
36.501051
1040
22.896613
1040
36.487223
1040
22.784512
1070
     1
1040
36.487223
1040
22.784512
1040
36.479778
1040
22.67185599999999
1070
     1
1040
36.479778
1040
22.67185599999999
1040
36.478876
1040
22.559014
1070
     1
1040
36.478876
1040
22.559014
1040
36.48475799999999
1040
22.446072
1070
     1
1040
36.48475799999999
1040
22.446072
1040
36.507303
1040
22.27824299999999
1070
     1
1040
36.507303
1040
22.27824299999999
1040
36.531842
1040
22.168363
1070
     1
1040
36.531842
1040
22.168363
1040
36.580661
1040
22.006354
1070
     1
1040
36.580661
1040
22.006354
1040
36.663176
1040
21.796051
1070
     1
1040
36.663176
1040
21.796051
1040
36.738102
1040
21.64424299999999
1070
     1
1040
36.738102
1040
21.64424299999999
1040
36.824876
1040
21.499285
1070
     1
1040
36.824876
1040
21.499285
1040
36.906565
1040
21.38422
1070
     1
1040
36.906565
1040
21.38422
1040
36.995075
1040
21.274114
1070
     1
1040
36.995075
1040
21.274114
1040
37.069976
1040
21.189232
1070
     1
1040
37.069976
1040
21.189232
1040
37.19090599999999
1040
21.070408
1070
     1
1040
37.19090599999999
1040
21.070408
1040
37.27814
1040
20.999373
1070
     1
1040
37.27814
1040
20.999373
1040
37.418207
1040
20.90511499999999
1070
     1
1040
37.418207
1040
20.90511499999999
1040
37.541992
1040
20.836757
1070
     1
1040
37.541992
1040
20.836757
1040
37.669631
1040
20.775673
1070
     1
1040
37.669631
1040
20.775673
1040
37.878008
1040
20.688457
1070
     1
1040
37.878008
1040
20.688457
1040
38.199606
1040
20.58288099999999
1070
     1
1040
38.199606
1040
20.58288099999999
1040
38.419015
1040
20.531338
1070
     1
1040
38.419015
1040
20.531338
1040
38.753153
1040
20.477838
1070
     1
1040
38.753153
1040
20.477838
1040
39.03387999999999
1040
20.450243
1070
     1
1040
39.03387999999999
1040
20.450243
1040
39.315482
1040
20.43816199999999
1070
     1
1040
39.315482
1040
20.43816199999999
1040
39.878324
1040
20.461635
1070
     1
1040
39.878324
1040
20.461635
1040
40.15919199999999
1040
20.49446799999999
1070
     1
1040
40.15919199999999
1040
20.49446799999999
1040
40.437804
1040
20.542235
1070
     1
1040
40.437804
1040
20.542235
1040
40.71211799999999
1040
20.608344
1070
     1
1040
40.71211799999999
1040
20.608344
1040
40.97822199999999
1040
20.69993399999999
1070
     1
1040
40.97822199999999
1040
20.69993399999999
1040
41.235564
1040
20.81532399999999
1070
     1
1040
41.235564
1040
20.81532399999999
1040
41.361299
1040
20.87918599999999
1070
     1
1040
41.361299
1040
20.87918599999999
1040
41.48297999999999
1040
20.950245
1070
     1
1040
41.48297999999999
1040
20.950245
1040
41.57561799999999
1040
21.014782
1070
     1
1040
41.57561799999999
1040
21.014782
1040
41.641621
1040
21.067895
1070
     1
1040
41.641621
1040
21.067895
1040
41.704176
1040
21.124947
1070
     1
1040
41.704176
1040
21.124947
1040
41.78170999999999
1040
21.20681499999999
1070
     1
1040
41.78170999999999
1040
21.20681499999999
1040
41.886125
1040
21.340089
1070
     1
1040
41.886125
1040
21.340089
1040
41.948068
1040
21.43459299999999
1070
     1
1040
41.948068
1040
21.43459299999999
1040
41.989546
1040
21.50838599999999
1070
     1
1040
41.989546
1040
21.50838599999999
1040
42.02581
1040
21.58482799999999
1070
     1
1040
42.02581
1040
21.58482799999999
1040
42.064953
1040
21.690806
1070
     1
1040
42.064953
1040
21.690806
1040
42.08734999999999
1040
21.77259999999999
1070
     1
1040
42.08734999999999
1040
21.77259999999999
1040
42.10387299999999
1040
21.855644
1070
     1
1040
42.10387299999999
1040
21.855644
1040
40.34302299999999
1040
21.855644
1070
     1
1040
40.34302299999999
1040
21.855644
1040
40.23475999999999
1040
21.775139
1070
     1
1040
40.23475999999999
1040
21.775139
1040
40.14934199999999
1040
21.72065499999999
1070
     1
1040
40.14934199999999
1040
21.72065499999999
1040
40.060776
1040
21.671433
1070
     1
1040
40.060776
1040
21.671433
1040
39.98475799999999
1040
21.634773
1070
     1
1040
39.98475799999999
1040
21.634773
1040
39.906576
1040
21.603307
1070
     1
1040
39.906576
1040
21.603307
1040
39.842277
1040
21.58263499999999
1070
     1
1040
39.842277
1040
21.58263499999999
1040
39.74365099999999
1040
21.559088
1070
     1
1040
39.74365099999999
1040
21.559088
1040
39.609337
1040
21.540536
1070
     1
1040
39.609337
1040
21.540536
1040
39.507639
1040
21.53565599999999
1070
     1
1040
39.507639
1040
21.53565599999999
1040
39.405809
1040
21.53798099999999
1070
     1
1040
39.405809
1040
21.53798099999999
1040
39.271392
1040
21.551496
1070
     1
1040
39.271392
1040
21.551496
1040
39.17168099999999
1040
21.569188
1070
     1
1040
39.17168099999999
1040
21.569188
1040
39.073329
1040
21.593186
1070
     1
1040
39.073329
1040
21.593186
1040
38.944884
1040
21.635037
1070
     1
1040
38.944884
1040
21.635037
1040
38.851395
1040
21.674301
1070
     1
1040
38.851395
1040
21.674301
1040
38.760981
1040
21.72084599999999
1070
     1
1040
38.760981
1040
21.72084599999999
1040
38.70284
1040
21.75613999999999
1070
     1
1040
38.70284
1040
21.75613999999999
1040
38.647077
1040
21.795104
1070
     1
1040
38.647077
1040
21.795104
1040
38.59445
1040
21.837967
1070
     1
1040
38.59445
1040
21.837967
1040
38.54571899999999
1040
21.88495599999999
1070
     1
1040
38.54571899999999
1040
21.88495599999999
1040
38.501642
1040
21.9363
1070
     1
1040
38.501642
1040
21.9363
1040
38.46287699999999
1040
21.99205
1070
     1
1040
38.46287699999999
1040
21.99205
1040
38.429669
1040
22.051562
1070
     1
1040
38.429669
1040
22.051562
1040
38.402161
1040
22.11401299999999
1070
     1
1040
38.402161
1040
22.11401299999999
1040
38.38049799999999
1040
22.178581
1070
     1
1040
38.38049799999999
1040
22.178581
1040
38.364823
1040
22.244444
1070
     1
1040
38.364823
1040
22.244444
1040
39.05107299999999
1040
22.244444
1070
     1
1040
38.364823
1040
23.079194
1040
39.15412299999999
1040
23.079194
1070
     1
1040
39.15412299999999
1040
23.079194
1040
40.34302299999999
1040
23.079194
1070
     1
1040
40.34302299999999
1040
23.079194
1040
40.339099
1040
23.116416
1070
     1
1040
40.339099
1040
23.116416
1040
40.333002
1040
23.153431
1070
     1
1040
40.333002
1040
23.153431
1040
40.324692
1040
23.19004899999999
1070
     1
1040
40.324692
1040
23.19004899999999
1040
40.314132
1040
23.226078
1070
     1
1040
40.314132
1040
23.226078
1040
40.301285
1040
23.261329
1070
     1
1040
40.301285
1040
23.261329
1040
40.286156
1040
23.295606
1070
     1
1040
40.286156
1040
23.295606
1040
40.268864
1040
23.32884599999999
1070
     1
1040
40.268864
1040
23.32884599999999
1040
40.24956699999999
1040
23.36098199999999
1070
     1
1040
40.24956699999999
1040
23.36098199999999
1040
40.228425
1040
23.39194399999999
1070
     1
1040
40.228425
1040
23.39194399999999
1040
40.205595
1040
23.42166399999999
1070
     1
1040
40.205595
1040
23.42166399999999
1040
40.155158
1040
23.47753399999999
1070
     1
1040
40.155158
1040
23.47753399999999
1040
40.113888
1040
23.516059
1070
     1
1040
40.113888
1040
23.516059
1040
40.070149
1040
23.551768
1070
     1
1040
40.070149
1040
23.551768
1040
40.008897
1040
23.59493599999999
1070
     1
1040
40.008897
1040
23.59493599999999
1040
39.960894
1040
23.624144
1070
     1
1040
39.960894
1040
23.624144
1040
39.911351
1040
23.65064299999999
1070
     1
1040
39.911351
1040
23.65064299999999
1040
39.84321299999999
1040
23.68180199999999
1070
     1
1040
39.84321299999999
1040
23.68180199999999
1040
39.737463
1040
23.719811
1070
     1
1040
39.737463
1040
23.719811
1040
39.665034
1040
23.739546
1070
     1
1040
39.665034
1040
23.739546
1040
39.554475
1040
23.760807
1070
     1
1040
39.554475
1040
23.760807
1040
39.479582
1040
23.769534
1070
     1
1040
39.479582
1040
23.769534
1040
39.366678
1040
23.77477
1070
     1
1040
39.366678
1040
23.77477
1040
39.291229
1040
23.773226
1070
     1
1040
39.291229
1040
23.773226
1040
39.178244
1040
23.762802
1070
     1
1040
39.178244
1040
23.762802
1040
39.104388
1040
23.74982399999999
1070
     1
1040
39.104388
1040
23.74982399999999
1040
39.06808499999999
1040
23.740847
1070
     1
1040
39.06808499999999
1040
23.740847
1040
39.032514
1040
23.729811
1070
     1
1040
39.032514
1040
23.729811
1040
38.997912
1040
23.716418
1070
     1
1040
38.997912
1040
23.716418
1040
38.964344
1040
23.700508
1070
     1
1040
38.964344
1040
23.700508
1040
38.834843
1040
23.625681
1070
     1
1040
38.834843
1040
23.625681
1040
38.671594
1040
23.535581
1070
     1
1040
38.671594
1040
23.535581
1040
38.640976
1040
23.51415999999999
1070
     1
1040
38.640976
1040
23.51415999999999
1040
38.61162499999999
1040
23.49087999999999
1070
     1
1040
38.61162499999999
1040
23.49087999999999
1040
38.58359099999999
1040
23.46591099999999
1070
     1
1040
38.58359099999999
1040
23.46591099999999
1040
38.53168099999999
1040
23.41159
1070
     1
1040
38.53168099999999
1040
23.41159
1040
38.485341
1040
23.352025
1070
     1
1040
38.485341
1040
23.352025
1040
38.454621
1040
23.304551
1070
     1
1040
38.454621
1040
23.304551
1040
38.427457
1040
23.25493199999999
1070
     1
1040
38.427457
1040
23.25493199999999
1040
38.39719999999999
1040
23.18647299999999
1070
     1
1040
38.39719999999999
1040
23.18647299999999
1040
38.37898
1040
23.133395
1070
     1
1040
38.37898
1040
23.133395
1040
38.364823
1040
23.079194
1071
        0
1070
     0
1070
     1
1040
0.0
1040
0.062992
1070
     0
1070
     1
1040
0.7853979999999999
1040
-6.225169999999999
1040
-28.624349
1040
-0.141421
1040
0.141421
1070
     0
1071
        1
1040
-6.225169999999999
1040
-28.624349
1040
0.0
1002
}
  0
INSERT
  5
8F
330
A
100
AcDbEntity
  8
CARTOUCHE
  6
CONTINUOUS
 62
     4
100
AcDbBlockReference
  2
*X13
 10
0.0
 20
0.0
 30
0.0
1001
ACAD
1000
HATCH
1002
{
1070
    19
1000
ANSI31
1040
0.062992
1040
0.0
1000
R14_HATCH_DATA
1000
8F
1011
1.0
1021
0.0
1031
0.0
1011
0.0
1021
1.0
1031
0.0
1011
0.0
1021
0.0
1031
1.0
1040
0.0
1010
0.0
1020
0.0
1030
1.0
1000
ANSI31
1070
     0
1070
     0
1071
        1
1071
        1
1071
       78
1070
     1
1040
42.732973
1040
24.508394
1040
42.732973
1040
20.63209399999999
1070
     1
1040
42.732973
1040
20.63209399999999
1040
44.459623
1040
20.63209399999999
1070
     1
1040
44.459623
1040
20.63209399999999
1040
44.459623
1040
22.782194
1070
     1
1040
44.459623
1040
22.782194
1040
44.46348799999999
1040
22.82556299999999
1070
     1
1040
44.46348799999999
1040
22.82556299999999
1040
44.470946
1040
22.86858599999999
1070
     1
1040
44.470946
1040
22.86858599999999
1040
44.48187899999999
1040
22.91099099999999
1070
     1
1040
44.48187899999999
1040
22.91099099999999
1040
44.49617199999999
1040
22.952504
1070
     1
1040
44.49617199999999
1040
22.952504
1040
44.513707
1040
22.992851
1070
     1
1040
44.513707
1040
22.992851
1040
44.534386
1040
23.031755
1070
     1
1040
44.534386
1040
23.031755
1040
44.55812199999999
1040
23.06881399999999
1070
     1
1040
44.55812199999999
1040
23.06881399999999
1040
44.58484099999999
1040
23.103624
1070
     1
1040
44.58484099999999
1040
23.103624
1040
44.61447299999999
1040
23.13578
1070
     1
1040
44.61447299999999
1040
23.13578
1040
44.646943
1040
23.164878
1070
     1
1040
44.646943
1040
23.164878
1040
44.682109
1040
23.190587
1070
     1
1040
44.682109
1040
23.190587
1040
44.719626
1040
23.212933
1070
     1
1040
44.719626
1040
23.212933
1040
44.759083
1040
23.232012
1070
     1
1040
44.759083
1040
23.232012
1040
44.80006699999999
1040
23.24791999999999
1070
     1
1040
44.80006699999999
1040
23.24791999999999
1040
44.84216599999999
1040
23.26075499999999
1070
     1
1040
44.84216599999999
1040
23.26075499999999
1040
44.88545499999999
1040
23.27065499999999
1070
     1
1040
44.88545499999999
1040
23.27065499999999
1040
44.92924099999999
1040
23.277344
1070
     1
1040
44.92924099999999
1040
23.277344
1040
44.973307
1040
23.280649
1070
     1
1040
44.973307
1040
23.280649
1040
45.017433
1040
23.280401
1070
     1
1040
45.017433
1040
23.280401
1040
45.06139899999999
1040
23.276428
1070
     1
1040
45.06139899999999
1040
23.276428
1040
45.10431899999999
1040
23.26873599999999
1070
     1
1040
45.10431899999999
1040
23.26873599999999
1040
45.146471
1040
23.257294
1070
     1
1040
45.146471
1040
23.257294
1040
45.18745599999999
1040
23.24213599999999
1070
     1
1040
45.18745599999999
1040
23.24213599999999
1040
45.226873
1040
23.22329299999999
1070
     1
1040
45.226873
1040
23.22329299999999
1040
45.264321
1040
23.200797
1070
     1
1040
45.264321
1040
23.200797
1040
45.29950399999999
1040
23.174642
1070
     1
1040
45.29950399999999
1040
23.174642
1040
45.331947
1040
23.145119
1070
     1
1040
45.331947
1040
23.145119
1040
45.36129099999999
1040
23.11249899999999
1070
     1
1040
45.36129099999999
1040
23.11249899999999
1040
45.38718099999999
1040
23.077054
1070
     1
1040
45.38718099999999
1040
23.077054
1040
45.409257
1040
23.03905599999999
1070
     1
1040
45.409257
1040
23.03905599999999
1040
45.427129
1040
22.999011
1070
     1
1040
45.427129
1040
22.999011
1040
45.440732
1040
22.957277
1070
     1
1040
45.440732
1040
22.957277
1040
45.44993
1040
22.91442299999999
1070
     1
1040
45.44993
1040
22.91442299999999
1040
45.45458899999999
1040
22.871022
1070
     1
1040
45.45458899999999
1040
22.871022
1040
45.455174
1040
22.849294
1070
     1
1040
45.455174
1040
22.849294
1040
45.45457299999999
1040
22.827644
1070
     1
1040
45.45457299999999
1040
22.827644
1040
45.45457299999999
1040
22.58779399999999
1070
     1
1040
45.45457299999999
1040
22.58779399999999
1040
47.28382299999999
1040
22.58779399999999
1070
     1
1040
47.28382299999999
1040
22.58779399999999
1040
47.30048
1040
22.741901
1070
     1
1040
47.30048
1040
22.741901
1040
47.308034
1040
22.896764
1070
     1
1040
47.308034
1040
22.896764
1040
47.30622299999999
1040
23.051921
1070
     1
1040
47.30622299999999
1040
23.051921
1040
47.295648
1040
23.206716
1070
     1
1040
47.295648
1040
23.206716
1040
47.276908
1040
23.360972
1070
     1
1040
47.276908
1040
23.360972
1040
47.2499
1040
23.514097
1070
     1
1040
47.2499
1040
23.514097
1040
47.221874
1040
23.635072
1070
     1
1040
47.221874
1040
23.635072
1040
47.19592
1040
23.724445
1070
     1
1040
47.19592
1040
23.724445
1040
47.16467999999999
1040
23.81204899999999
1070
     1
1040
47.16467999999999
1040
23.81204899999999
1040
47.113499
1040
23.92525
1070
     1
1040
47.113499
1040
23.92525
1040
47.067867
1040
24.006615
1070
     1
1040
47.067867
1040
24.006615
1040
47.016057
1040
24.0843
1070
     1
1040
47.016057
1040
24.0843
1040
46.97801799999999
1040
24.133848
1070
     1
1040
46.97801799999999
1040
24.133848
1040
46.937287
1040
24.181208
1070
     1
1040
46.937287
1040
24.181208
1040
46.893917
1040
24.226097
1070
     1
1040
46.893917
1040
24.226097
1040
46.847963
1040
24.26823
1070
     1
1040
46.847963
1040
24.26823
1040
46.799476
1040
24.307326
1070
     1
1040
46.799476
1040
24.307326
1040
46.74884699999999
1040
24.34298099999999
1070
     1
1040
46.74884699999999
1040
24.34298099999999
1040
46.696087
1040
24.37549699999999
1070
     1
1040
46.696087
1040
24.37549699999999
1040
46.613657
1040
24.418703
1070
     1
1040
46.613657
1040
24.418703
1040
46.528242
1040
24.455664
1070
     1
1040
46.528242
1040
24.455664
1040
46.410285
1040
24.496534
1070
     1
1040
46.410285
1040
24.496534
1040
46.22887999999999
1040
24.542872
1070
     1
1040
46.22887999999999
1040
24.542872
1040
46.106971
1040
24.566075
1070
     1
1040
46.106971
1040
24.566075
1040
45.92238599999999
1040
24.587821
1070
     1
1040
45.92238599999999
1040
24.587821
1040
45.798504
1040
24.591816
1070
     1
1040
45.798504
1040
24.591816
1040
45.61256799999999
1040
24.583703
1070
     1
1040
45.61256799999999
1040
24.583703
1040
45.457926
1040
24.566274
1070
     1
1040
45.457926
1040
24.566274
1040
45.304716
1040
24.539482
1070
     1
1040
45.304716
1040
24.539482
1040
45.183805
1040
24.51113499999999
1070
     1
1040
45.183805
1040
24.51113499999999
1040
45.00579899999999
1040
24.45603
1070
     1
1040
45.00579899999999
1040
24.45603
1040
44.89043399999999
1040
24.410518
1070
     1
1040
44.89043399999999
1040
24.410518
1040
44.777817
1040
24.358198
1070
     1
1040
44.777817
1040
24.358198
1040
44.668264
1040
24.29958
1070
     1
1040
44.668264
1040
24.29958
1040
44.459623
1040
24.165494
1070
     1
1040
44.459623
1040
24.165494
1040
44.459623
1040
24.508394
1070
     1
1040
44.459623
1040
24.508394
1040
42.732973
1040
24.508394
1071
        0
1070
     0
1070
     1
1040
0.0
1040
0.062992
1070
     0
1070
     1
1040
0.7853979999999999
1040
-6.225169999999999
1040
-28.624349
1040
-0.141421
1040
0.141421
1070
     0
1071
        1
1040
-6.225169999999999
1040
-28.624349
1040
0.0
1002
}
  0
LINE
  5
90
330
A
100
AcDbEntity
  8
CARTOUCHE
  6
CONTINUOUS
 62
     7
100
AcDbLine
 10
205.000037
 20
36.845156
 30
0.0
 11
5.0
 21
36.84546199999999
 31
0.0
  0
LINE
  5
91
330
A
100
AcDbEntity
  8
CARTOUCHE
  6
CONTINUOUS
 62
     7
100
AcDbLine
 10
153.33333
 20
20.002887
 30
0.0
 11
153.33333
 21
10.000945
 31
0.0
  0
TEXT
  5
94
330
A
100
AcDbEntity
  8
CARTOUCHE
  6
CONTINUOUS
 62
     2
100
AcDbText
 10
16.27474179128323
 20
14.3087820244314
 30
0.0
 40
1.8
  1
www.findernet.com
 50
359.9999079999999
 41
1.05
  7
FINDER
 72
     1
 11
27.500001
 21
14.308764
 31
0.0
100
AcDbText
  0
POLYLINE
  5
9B
330
A
100
AcDbEntity
  8
CARTOUCHE
  6
CONTINUOUS
 62
     7
100
AcDb2dPolyline
 66
     1
 10
0.0
 20
0.0
 30
0.0
 70
   129
  0
VERTEX
  5
3C9B
330
9B
100
AcDbEntity
  8
CARTOUCHE
  6
CONTINUOUS
 62
     7
100
AcDbVertex
100
AcDb2dVertex
 10
205.000037
 20
292.0001829999999
 30
0.0
  0
VERTEX
  5
3C9C
330
9B
100
AcDbEntity
  8
CARTOUCHE
  6
CONTINUOUS
 62
     7
100
AcDbVertex
100
AcDb2dVertex
 10
205.000037
 20
5.000182999999999
 30
0.0
  0
VERTEX
  5
3C9D
330
9B
100
AcDbEntity
  8
CARTOUCHE
  6
CONTINUOUS
 62
     7
100
AcDbVertex
100
AcDb2dVertex
 10
5.0
 20
5.0
 30
0.0
  0
VERTEX
  5
3C9E
330
9B
100
AcDbEntity
  8
CARTOUCHE
  6
CONTINUOUS
 62
     7
100
AcDbVertex
100
AcDb2dVertex
 10
5.0
 20
292.0
 30
0.0
  0
VERTEX
  5
3C9F
330
9B
100
AcDbEntity
  8
CARTOUCHE
  6
CONTINUOUS
 62
     7
100
AcDbVertex
100
AcDb2dVertex
 10
204.999774
 20
292.0001829999999
 30
0.0
  0
SEQEND
  5
3CA0
330
9B
100
AcDbEntity
  8
CARTOUCHE
  6
CONTINUOUS
 62
     7
  0
TEXT
  5
AA
330
A
100
AcDbEntity
  8
CARTOUCHE
  6
CONTINUOUS
 62
     7
100
AcDbText
 10
124.8174121978206
 20
16.62422630740211
 30
0.0
 40
1.8
  1
DATE
 50
359.9999079999999
 41
0.8
  7
FINDER
 72
     1
 11
127.4999769999999
 21
16.62422199999999
 31
0.0
100
AcDbText
  0
TEXT
  5
AB
330
A
100
AcDbEntity
  8
CARTOUCHE
  6
CONTINUOUS
 62
     1
100
AcDbText
 10
121.6268528526678
 20
11.77620843049254
 30
0.0
 40
2.1
  1
23/05/2006
 50
359.9999079999999
 41
0.8
  7
FINDER
 72
     1
 11
127.4999769999999
 21
11.776199
 31
0.0
100
AcDbText
  0
TEXT
  5
AC
330
A
100
AcDbEntity
  8
CARTOUCHE
  6
CONTINUOUS
 62
     7
100
AcDbText
 10
175.8682102523916
 20
16.62414829632233
 30
0.0
 40
1.8
  1
SCALE
 50
359.9999079999999
 41
0.8
  7
FINDER
 72
     1
 11
179.1666549999999
 21
16.624143
 31
0.0
100
AcDbText
  0
TEXT
  5
AD
330
A
100
AcDbEntity
  8
CARTOUCHE
  6
CONTINUOUS
 62
     1
100
AcDbText
 10
177.5353589563458
 20
11.7761226193768
 30
0.0
 40
2.1
  1
1:1
 50
359.9999079999999
 41
0.8
  7
FINDER
 72
     1
 11
179.1666549999999
 21
11.77612
 31
0.0
100
AcDbText
  0
TEXT
  5
AE
330
A
100
AcDbEntity
  8
CARTOUCHE
  6
CONTINUOUS
 62
     1
100
AcDbText
 10
123.4923511637159
 20
22.43596043507895
 30
0.0
 40
3.0
  1
4C51
 50
359.9999079999999
 41
0.8
  7
FINDER
 72
     1
 11
127.499991
 21
22.435954
 31
0.0
100
AcDbText
  0
DIMENSION
  5
37EC
330
A
100
AcDbEntity
  8
DIM
100
AcDbDimension
  2
*D32
 10
112.4476260837474
 20
233.8931830879551
 30
0.0
 11
105.0142930047365
 21
233.8931944609528
 31
0.0
 70
   160
  1
<>
  3
DSTYLE3
100
AcDbAlignedDimension
 13
116.0475594172859
 23
190.3645572446555
 33
0.0
 14
112.447599803701
 24
216.7166792572036
 34
0.0
 50
359.9999123374725
100
AcDbRotatedDimension
  0
DIMENSION
  5
37ED
330
A
100
AcDbEntity
  8
DIM
100
AcDbDimension
  2
*D33
 10
101.3305276654546
 20
190.2645797635904
 30
0.0
 11
101.3305510377876
 21
205.5406169763829
 31
0.0
 70
   160
  1
30.6
  3
DSTYLE2
100
AcDbAlignedDimension
 13
112.4476060766358
 23
220.8166371801195
 33
0.0
 14
114.5475592924879
 24
190.2645595415355
 34
0.0
 50
89.99991233747248
100
AcDbRotatedDimension
  0
DIMENSION
  5
37EE
330
A
100
AcDbEntity
  8
DIM
100
AcDbDimension
  2
*D34
 10
101.1956873095572
 20
155.5167609598345
 30
0.0
 11
101.1956873095572
 21
140.3656829686922
 31
0.0
 70
   160
  1
<>
  3
DSTYLE1
100
AcDbAlignedDimension
 13
112.4474598055533
 23
125.2146049775499
 33
0.0
 14
114.0475061377653
 24
155.5167609598345
 34
0.0
 50
90.0
100
AcDbRotatedDimension
  0
DIMENSION
  5
37EF
330
A
100
AcDbEntity
  8
DIM
100
AcDbDimension
  2
*D35
 10
101.2999984498306
 20
155.516780463516
 30
0.0
 11
101.3000250318905
 21
172.8906801368666
 31
0.0
 70
   160
  1
34.7
  3
DSTYLE2
100
AcDbAlignedDimension
 13
115.2975592783871
 23
190.2645583940357
 33
0.0
 14
114.0475061377654
 24
155.5167609598341
 34
0.0
 50
89.999912337479
100
AcDbRotatedDimension
  0
DIMENSION
  5
37F0
330
A
100
AcDbEntity
  8
DIM
100
AcDbDimension
  2
*D36
 10
44.03849463983273
 20
220.8167828460397
 30
0.0
 11
44.03842150426035
 21
173.0157462447557
 31
0.0
 70
   160
  1
<>
  3
DSTYLE1
100
AcDbAlignedDimension
 13
56.64741685465947
 23
125.2146903516002
 33
0.0
 14
56.64756312580458
 24
220.8167635541686
 34
0.0
 50
89.99991233747371
100
AcDbRotatedDimension
  0
DIMENSION
  5
37F1
330
A
100
AcDbEntity
  8
DIM
100
AcDbDimension
  2
*D37
 10
80.68465560257125
 20
125.2146535746315
 30
0.0
 11
80.68468493970595
 21
144.3892547141265
 31
0.0
 70
   160
  1
38.3
  3
DSTYLE2
100
AcDbAlignedDimension
 13
64.0474753897995
 23
163.5638813085922
 33
0.0
 14
71.44741657640212
 24
125.2146677076048
 34
0.0
 50
89.99991233747248
100
AcDbRotatedDimension
  0
LINE
  5
37F2
330
A
100
AcDbEntity
  8
DRAW
  6
CONTINUOUS
 62
     7
100
AcDbLine
 10
71.94743814006165
 20
139.3147086775077
 30
0.0
 11
71.94741733200164
 21
125.7146669332044
 31
0.0
  0
LINE
  5
37F3
330
A
100
AcDbEntity
  8
DRAW
  6
CONTINUOUS
 62
     7
100
AcDbLine
 10
56.14743843712017
 20
139.3147328515021
 30
0.0
 11
56.14741762906016
 21
125.7146911071988
 31
0.0
  0
TEXT
  5
37F4
330
A
100
AcDbEntity
  8
DRAW-TEXT
100
AcDbText
 10
57.82856849098243
 20
132.2237825528492
 30
0.0
 40
1.299999952316284
  1
A2
 50
359.9999084472663
 41
0.95
  7
TSTYLE5
100
AcDbText
  0
ARC
  5
37F5
330
A
100
AcDbEntity
  8
DRAW
  6
CONTINUOUS
 62
     7
100
AcDbCircle
 10
58.49742160604979
 20
128.3429054622863
 30
0.0
 40
0.9999999812000002
100
AcDbArc
 50
179.9999123374741
 51
269.9999123374733
  0
ARC
  5
37F6
330
A
100
AcDbEntity
  8
DRAW
  6
CONTINUOUS
 62
     7
100
AcDbCircle
 10
58.49742423357952
 20
130.0602454299985
 30
0.0
 40
0.9999999812000002
100
AcDbArc
 50
89.99991233747371
 51
179.9999123374741
  0
LINE
  5
37F7
330
A
100
AcDbEntity
  8
DRAW
  6
CONTINUOUS
100
AcDbLine
 10
57.94743121226088
 20
134.6147181858684
 30
0.0
 11
57.14743245130163
 21
135.4147193948272
 31
0.0
  0
LINE
  5
37F8
330
A
100
AcDbEntity
  8
DRAW
  6
CONTINUOUS
100
AcDbLine
 10
59.94743538215766
 20
137.364715074166
 30
0.0
 11
57.14743543480103
 21
137.3647193581651
 31
0.0
  0
LINE
  5
37F9
330
A
100
AcDbEntity
  8
DRAW
  6
CONTINUOUS
 62
     7
100
AcDbLine
 10
56.64741685465947
 20
125.2146903516002
 30
0.0
 11
71.44741657640212
 21
125.2146677076048
 31
0.0
  0
ARC
  5
37FA
330
A
100
AcDbEntity
  8
DRAW
  6
CONTINUOUS
 62
     7
100
AcDbCircle
 10
56.64741761965956
 20
125.7146903421996
 30
0.0
 40
0.4999999906000001
100
AcDbArc
 50
179.9999123374741
 51
269.9999123374733
  0
LINE
  5
37FB
330
A
100
AcDbEntity
  8
DRAW
  6
CONTINUOUS
 62
     7
100
AcDbLine
 10
57.4974242523806
 20
130.0602469599978
 30
0.0
 11
57.49742147881704
 21
128.2474599940804
 31
0.0
  0
LINE
  5
37FC
330
A
100
AcDbEntity
  8
DRAW
  6
CONTINUOUS
100
AcDbLine
 10
57.14743245130171
 20
135.4147193948272
 30
0.0
 11
57.14743543480108
 21
137.364719358165
 31
0.0
  0
TEXT
  5
37FD
330
A
100
AcDbEntity
  8
DRAW-TEXT
100
AcDbText
 10
62.46920494959249
 20
132.227319087855
 30
0.0
 40
1.299999952316284
  1
COIL
 50
359.9999084472663
 41
0.95
  7
TSTYLE5
100
AcDbText
  0
ARC
  5
37FE
330
A
100
AcDbEntity
  8
DRAW
  6
CONTINUOUS
 62
     7
100
AcDbCircle
 10
64.04741648933418
 20
125.066838032382
 30
0.0
 40
2.2499999577
100
AcDbArc
 50
199.4711333374746
 51
340.5286913374707
  0
LINE
  5
37FF
330
A
100
AcDbEntity
  8
DRAW
  6
CONTINUOUS
 62
     7
100
AcDbLine
 10
67.57050674559628
 20
123.3168326749525
 30
0.0
 11
65.63757112278612
 21
122.2324226527291
 31
0.0
  0
LINE
  5
3800
330
A
100
AcDbEntity
  8
DRAW
  6
CONTINUOUS
 62
     7
100
AcDbLine
 10
65.89741993692155
 20
127.3428941590898
 30
0.0
 11
69.59741986735726
 21
127.342888498091
 31
0.0
  0
LINE
  5
3801
330
A
100
AcDbEntity
  8
DRAW
  6
CONTINUOUS
100
AcDbLine
 10
65.89742562445076
 20
131.0602340891989
 30
0.0
 11
69.5974255548865
 21
131.0602284282
 31
0.0
  0
LINE
  5
3802
330
A
100
AcDbEntity
  8
DRAW
  6
CONTINUOUS
100
AcDbLine
 10
66.74743104681079
 20
134.6147047218717
 30
0.0
 11
65.54743106937218
 21
134.6147065578713
 31
0.0
  0
LINE
  5
3803
330
A
100
AcDbEntity
  8
DRAW
  6
CONTINUOUS
100
AcDbLine
 10
67.54743523926868
 20
137.364703446168
 30
0.0
 11
64.74743529191201
 21
137.3647077301671
 31
0.0
  0
LINE
  5
3804
330
A
100
AcDbEntity
  8
DRAW
  6
CONTINUOUS
 62
     7
100
AcDbLine
 10
60.54992887759159
 20
123.3168434164351
 30
0.0
 11
62.4410241969092
 21
122.2415935432733
 31
0.0
  0
LINE
  5
3805
330
A
100
AcDbEntity
  8
DRAW
  6
CONTINUOUS
 62
     7
100
AcDbLine
 10
60.54992887759159
 20
123.3168434164351
 30
0.0
 11
59.29741390114029
 21
123.3168453327827
 31
0.0
  0
ARC
  5
3806
330
A
100
AcDbEntity
  8
DRAW
  6
CONTINUOUS
 62
     7
100
AcDbCircle
 10
59.29741512513988
 20
124.1168453177413
 30
0.0
 40
0.7999999849600003
100
AcDbArc
 50
179.9999123374725
 51
269.9999123374733
  0
LINE
  5
3807
330
A
100
AcDbEntity
  8
DRAW
  6
CONTINUOUS
 62
     7
100
AcDbLine
 10
58.49741514018091
 20
124.1168465417411
 30
0.0
 11
58.49741682000581
 21
125.2147715210988
 31
0.0
  0
LINE
  5
3808
330
A
100
AcDbEntity
  8
DRAW
  6
CONTINUOUS
 62
     7
100
AcDbLine
 10
61.92609538171769
 20
124.316841292102
 30
0.0
 11
60.54741540763845
 21
124.316843401482
 31
0.0
  0
LINE
  5
3809
330
A
100
AcDbEntity
  8
DRAW
  6
CONTINUOUS
 62
     7
100
AcDbLine
 10
60.54741540763848
 20
124.3168434014812
 30
0.0
 11
60.54741678146346
 21
125.2147683845992
 31
0.0
  0
ARC
  5
380A
330
A
100
AcDbEntity
  8
DRAW
  6
CONTINUOUS
 62
     7
100
AcDbCircle
 10
64.04741648933418
 20
125.066838032382
 30
0.0
 40
3.2499999389
100
AcDbArc
 50
240.3780753374743
 51
299.2931583374767
  0
LINE
  5
380B
330
A
100
AcDbEntity
  8
DRAW
  6
CONTINUOUS
100
AcDbLine
 10
62.54743112577557
 20
134.6147111478701
 30
0.0
 11
61.34743114833706
 21
134.6147129838696
 31
0.0
  0
LINE
  5
380C
330
A
100
AcDbEntity
  8
DRAW
  6
CONTINUOUS
100
AcDbLine
 10
62.19742569401501
 20
131.0602397501986
 30
0.0
 11
58.39742576545948
 21
131.0602455641974
 31
0.0
  0
LINE
  5
380D
330
A
100
AcDbEntity
  8
DRAW
  6
CONTINUOUS
 62
     7
100
AcDbLine
 10
62.19742000648579
 20
127.3428998200886
 30
0.0
 11
58.39742007793027
 21
127.3429056340874
 31
0.0
  0
LINE
  5
380E
330
A
100
AcDbEntity
  8
DRAW
  6
CONTINUOUS
100
AcDbLine
 10
63.34743531823392
 20
137.3647098721674
 30
0.0
 11
60.54743537087714
 21
137.3647141561665
 31
0.0
  0
TEXT
  5
380F
330
A
100
AcDbEntity
  8
DRAW-TEXT
100
AcDbText
 10
60.75751006912469
 20
132.1985508643557
 30
0.0
 40
1.299999952316284
  1
5
 50
359.9999084472663
 41
0.95
  7
TSTYLE5
100
AcDbText
  0
LINE
  5
3810
330
A
100
AcDbEntity
  8
DRAW
  6
CONTINUOUS
100
AcDbLine
 10
59.94743239865852
 20
135.4147151108279
 30
0.0
 11
59.14743118969973
 21
134.6147163498686
 31
0.0
  0
LINE
  5
3811
330
A
100
AcDbEntity
  8
DRAW
  6
CONTINUOUS
100
AcDbLine
 10
59.14743118969977
 20
134.6147163498687
 30
0.0
 11
57.94743121226115
 21
134.6147181858684
 31
0.0
  0
LINE
  5
3812
330
A
100
AcDbEntity
  8
DRAW
  6
CONTINUOUS
100
AcDbLine
 10
59.94743538215766
 20
137.364715074166
 30
0.0
 11
59.9474323986583
 21
135.4147151108282
 31
0.0
  0
LINE
  5
3813
330
A
100
AcDbEntity
  8
DRAW
  6
CONTINUOUS
100
AcDbLine
 10
60.54743238737751
 20
135.4147141928285
 30
0.0
 11
60.54743537087688
 21
137.3647141561663
 31
0.0
  0
LINE
  5
3814
330
A
100
AcDbEntity
  8
DRAW
  6
CONTINUOUS
100
AcDbLine
 10
61.34743114833714
 20
134.6147129838698
 30
0.0
 11
60.54743238737777
 21
135.4147141928286
 31
0.0
  0
ARC
  5
3815
330
A
100
AcDbEntity
  8
DRAW
  6
CONTINUOUS
 62
     7
100
AcDbCircle
 10
62.2474218415457
 20
128.5428997210271
 30
0.0
 40
1.199999977439999
100
AcDbArc
 50
269.9999123374737
 51
359.9999123374741
  0
ARC
  5
3816
330
A
100
AcDbEntity
  8
DRAW
  6
CONTINUOUS
 62
     7
100
AcDbCircle
 10
62.24742385707509
 20
129.8602396962594
 30
0.0
 40
1.199999977439999
100
AcDbArc
 50
359.9999123374741
 51
89.99991233747371
  0
LINE
  5
3817
330
A
100
AcDbEntity
  8
DRAW
  6
CONTINUOUS
 62
     7
100
AcDbLine
 10
63.44742383451398
 20
129.8602378602597
 30
0.0
 11
63.44742181898421
 21
128.5428978850273
 31
0.0
  0
ARC
  5
3818
330
A
100
AcDbEntity
  8
DRAW
  6
CONTINUOUS
 62
     7
100
AcDbCircle
 10
65.84742177386146
 20
128.5428942130281
 30
0.0
 40
1.199999977439999
100
AcDbArc
 50
179.9999123374741
 51
269.9999123374737
  0
ARC
  5
3819
330
A
100
AcDbEntity
  8
DRAW
  6
CONTINUOUS
 62
     7
100
AcDbCircle
 10
65.84742378939131
 20
129.8602341882613
 30
0.0
 40
1.199999977439999
100
AcDbArc
 50
89.99991233747371
 51
179.9999123374741
  0
LINE
  5
381A
330
A
100
AcDbEntity
  8
DRAW
  6
CONTINUOUS
 62
     7
100
AcDbLine
 10
64.64742381195242
 20
129.86023602426
 30
0.0
 11
64.64742179642264
 21
128.5428960490276
 31
0.0
  0
LINE
  5
381B
330
A
100
AcDbEntity
  8
DRAW
  6
CONTINUOUS
100
AcDbLine
 10
63.34743233473432
 20
135.4147099088293
 30
0.0
 11
62.54743112577543
 21
134.61471114787
 31
0.0
  0
LINE
  5
381C
330
A
100
AcDbEntity
  8
DRAW
  6
CONTINUOUS
100
AcDbLine
 10
63.34743531823392
 20
137.3647098721674
 30
0.0
 11
63.34743233473455
 21
135.4147099088296
 31
0.0
  0
LINE
  5
381D
330
A
100
AcDbEntity
  8
DRAW
  6
CONTINUOUS
100
AcDbLine
 10
65.54743106937189
 20
134.6147065578713
 30
0.0
 11
64.74743230841262
 21
135.41470776683
 31
0.0
  0
LINE
  5
381E
330
A
100
AcDbEntity
  8
DRAW
  6
CONTINUOUS
100
AcDbLine
 10
64.74743230841273
 20
135.4147077668301
 30
0.0
 11
64.7474352919121
 21
137.3647077301679
 31
0.0
  0
LINE
  5
381F
330
A
100
AcDbEntity
  8
DRAW
  6
CONTINUOUS
 62
     7
100
AcDbLine
 10
67.57050674559628
 20
123.3168326749525
 30
0.0
 11
68.79741372252898
 21
123.3168307977852
 31
0.0
  0
LINE
  5
3820
330
A
100
AcDbEntity
  8
DRAW
  6
CONTINUOUS
 62
     7
100
AcDbLine
 10
66.1687353019513
 20
124.3168348008637
 30
0.0
 11
67.54741527603041
 21
124.3168326914837
 31
0.0
  0
LINE
  5
3821
330
A
100
AcDbEntity
  8
DRAW
  6
CONTINUOUS
 62
     7
100
AcDbLine
 10
67.54741527603005
 20
124.3168326914835
 30
0.0
 11
67.54741664985504
 21
125.2147576746014
 31
0.0
  0
ARC
  5
3822
330
A
100
AcDbEntity
  8
DRAW
  6
CONTINUOUS
 62
     7
100
AcDbCircle
 10
68.79741494652876
 20
124.1168307827445
 30
0.0
 40
0.7999999849600003
100
AcDbArc
 50
269.9999123374737
 51
359.9999123374741
  0
LINE
  5
3823
330
A
100
AcDbEntity
  8
DRAW
  6
CONTINUOUS
 62
     7
100
AcDbLine
 10
69.59741493148817
 20
124.1168295587447
 30
0.0
 11
69.59741661131307
 21
125.2147545381025
 31
0.0
  0
ARC
  5
3824
330
A
100
AcDbEntity
  8
DRAW
  6
CONTINUOUS
 62
     7
100
AcDbCircle
 10
71.44741734140211
 20
125.7146676982035
 30
0.0
 40
0.4999999906000001
100
AcDbArc
 50
269.9999123374741
 51
359.9999123374741
  0
TEXT
  5
3825
330
A
100
AcDbEntity
  8
DRAW-TEXT
100
AcDbText
 10
69.17049658853284
 20
132.2501478174864
 30
0.0
 40
1.299999952316284
  1
A1
 50
359.9999084472663
 41
0.95
  7
TSTYLE5
100
AcDbText
  0
ARC
  5
3826
330
A
100
AcDbEntity
  8
DRAW
  6
CONTINUOUS
 62
     7
100
AcDbCircle
 10
69.59742139735704
 20
128.3428884792899
 30
0.0
 40
0.9999999812000002
100
AcDbArc
 50
269.9999123374733
 51
359.9999123374741
  0
ARC
  5
3827
330
A
100
AcDbEntity
  8
DRAW
  6
CONTINUOUS
 62
     7
100
AcDbCircle
 10
69.59742402488678
 20
130.0602284470021
 30
0.0
 40
0.9999999812000002
100
AcDbArc
 50
359.9999123374741
 51
89.99991233747328
  0
LINE
  5
3828
330
A
100
AcDbEntity
  8
DRAW
  6
CONTINUOUS
100
AcDbLine
 10
70.94743219184533
 20
135.4146982808313
 30
0.0
 11
70.14743098288654
 21
134.6146995198721
 31
0.0
  0
LINE
  5
3829
330
A
100
AcDbEntity
  8
DRAW
  6
CONTINUOUS
100
AcDbLine
 10
68.14743522798813
 20
137.3647025281686
 30
0.0
 11
70.94743517534479
 21
137.3646982441694
 31
0.0
  0
TEXT
  5
382A
330
A
100
AcDbEntity
  8
DRAW-TEXT
100
AcDbText
 10
67.50720044112313
 20
132.33771101799
 30
0.0
 40
1.299999952316284
  1
1
 50
359.9999084472663
 41
0.95
  7
TSTYLE5
100
AcDbText
  0
LINE
  5
382B
330
A
100
AcDbEntity
  8
DRAW
  6
CONTINUOUS
 62
     7
100
AcDbLine
 10
69.5974198673573
 20
127.342888498091
 30
0.0
 11
69.69741986547711
 21
127.342888345091
 31
0.0
  0
LINE
  5
382C
330
A
100
AcDbEntity
  8
DRAW
  6
CONTINUOUS
100
AcDbLine
 10
69.59742555488651
 20
131.0602284282001
 30
0.0
 11
69.69742555300631
 21
131.0602282752002
 31
0.0
  0
LINE
  5
382D
330
A
100
AcDbEntity
  8
DRAW
  6
CONTINUOUS
100
AcDbLine
 10
68.94743100544815
 20
134.6147013558718
 30
0.0
 11
68.14743224448889
 21
135.4147025648306
 31
0.0
  0
LINE
  5
382E
330
A
100
AcDbEntity
  8
DRAW
  6
CONTINUOUS
100
AcDbLine
 10
68.14743224448898
 20
135.4147025648305
 30
0.0
 11
68.14743522798834
 21
137.3647025281683
 31
0.0
  0
LINE
  5
382F
330
A
100
AcDbEntity
  8
DRAW
  6
CONTINUOUS
100
AcDbLine
 10
67.54743523926868
 20
137.364703446168
 30
0.0
 11
67.54743225576932
 21
135.4147034828302
 31
0.0
  0
LINE
  5
3830
330
A
100
AcDbEntity
  8
DRAW
  6
CONTINUOUS
100
AcDbLine
 10
67.54743225576953
 20
135.4147034828308
 30
0.0
 11
66.74743104681074
 21
134.6147047218716
 31
0.0
  0
LINE
  5
3831
330
A
100
AcDbEntity
  8
DRAW
  6
CONTINUOUS
100
AcDbLine
 10
70.14743098288659
 20
134.6146995198721
 30
0.0
 11
68.94743100544798
 21
134.6147013558716
 31
0.0
  0
LINE
  5
3832
330
A
100
AcDbEntity
  8
DRAW
  6
CONTINUOUS
 62
     7
100
AcDbLine
 10
70.5974240060857
 20
130.0602269170019
 30
0.0
 11
70.59742123252215
 21
128.2474399510844
 31
0.0
  0
LINE
  5
3833
330
A
100
AcDbEntity
  8
DRAW
  6
CONTINUOUS
100
AcDbLine
 10
70.94743517534493
 20
137.3646982441694
 30
0.0
 11
70.94743219184555
 21
135.4146982808316
 31
0.0
  0
DIMENSION
  5
3834
330
A
100
AcDbEntity
  8
DIM
100
AcDbDimension
  2
*D38
 10
56.14758604950715
 20
235.7934351731386
 30
0.0
 11
64.0475859009781
 21
235.7934230861412
 31
0.0
 70
   160
  1
<>
  3
DSTYLE1
100
AcDbAlignedDimension
 13
71.94756207314677
 23
220.3167401545744
 33
0.0
 14
56.14756237020528
 24
220.3167643285697
 34
0.0
 50
179.9999123374741
100
AcDbRotatedDimension
  0
DIMENSION
  5
3835
330
A
100
AcDbEntity
  8
DIM
100
AcDbDimension
  2
*D39
 10
76.34548278577121
 20
165.1638812785122
 30
0.0
 11
76.34548278577118
 21
173.9388789896939
 31
0.0
 70
   160
  1
%%c<>
  3
DSTYLE3
100
AcDbAlignedDimension
 13
64.0474753897995
 23
161.9638813386722
 33
0.0
 14
64.0474753897995
 24
165.1638812785122
 34
0.0
 50
90.0
100
AcDbRotatedDimension
  0
TEXT
  5
3836
330
A
100
AcDbEntity
  8
DRAW-TEXT
100
AcDbText
 10
67.53508249964579
 20
188.3417380419069
 30
0.0
 40
1.299999952316284
  1
3
 50
359.9999084472663
 41
0.95
  7
TSTYLE5
100
AcDbText
  0
TEXT
  5
3837
330
A
100
AcDbEntity
  8
DRAW-TEXT
100
AcDbText
 10
63.4407952516035
 20
188.2701482602461
 30
0.0
 40
1.299999952316284
  1
12
 50
359.9999084472663
 41
0.95
  7
TSTYLE5
100
AcDbText
  0
TEXT
  5
3838
330
A
100
AcDbEntity
  8
DRAW-TEXT
100
AcDbText
 10
59.45629342743359
 20
188.4167923025317
 30
0.0
 40
1.299999952316284
  1
NC
 50
359.9999084472663
 41
0.95
  7
TSTYLE5
100
AcDbText
  0
LINE
  5
3839
330
A
100
AcDbEntity
  8
DRAW
  6
CONTINUOUS
 62
     7
100
AcDbLine
 10
71.94750533301635
 20
183.2316808518169
 30
0.0
 11
71.94752436621249
 21
195.6716806179304
 31
0.0
  0
LINE
  5
383A
330
A
100
AcDbEntity
  8
DRAW
  6
CONTINUOUS
 62
     7
100
AcDbLine
 10
56.14750563007487
 20
183.2317050258122
 30
0.0
 11
56.147524663271
 21
195.6717047919257
 31
0.0
  0
LINE
  5
383C
330
A
100
AcDbEntity
  8
DRAW
  6
CONTINUOUS
100
AcDbLine
 10
56.14745698264556
 20
151.4359936236097
 30
0.0
 11
59.04751788221574
 21
151.4359891865173
 31
0.0
  0
LINE
  5
383D
330
A
100
AcDbEntity
  8
DRAW
  6
CONTINUOUS
100
AcDbLine
 10
68.99777901523663
 20
150.1809188531675
 30
0.0
 11
56.14745506238127
 21
150.1809188531675
 31
0.0
  0
INSERT
  5
383E
330
A
100
AcDbEntity
  8
DRAW
100
AcDbBlockReference
  2
D
 10
1.780010263660869
 20
-21.74078414669224
 30
0.0
  0
LINE
  5
383F
330
A
100
AcDbEntity
  8
DRAW
  6
CONTINUOUS
 62
     7
100
AcDbLine
 10
70.59750384250333
 20
182.2409019359445
 30
0.0
 11
57.49750408879862
 21
182.2409219789404
 31
0.0
  0
LINE
  5
3840
330
A
100
AcDbEntity
  8
DRAW
  6
CONTINUOUS
 62
     7
100
AcDbLine
 10
71.44750520357252
 20
183.1409336185231
 30
0.0
 11
56.64750548182986
 21
183.1409562625186
 31
0.0
  0
LINE
  5
3841
330
A
100
AcDbEntity
  8
DRAW
  6
CONTINUOUS
 62
     7
100
AcDbLine
 10
71.44750610741699
 20
183.731681607416
 30
0.0
 11
56.64750638567433
 21
183.7317042514115
 31
0.0
  0
LINE
  5
3842
330
A
100
AcDbEntity
  8
DRAW
  6
CONTINUOUS
 62
     7
100
AcDbLine
 10
57.74752065203961
 20
168.2330378597469
 30
0.0
 11
57.74749709133332
 21
152.8338805870762
 31
0.0
  0
LINE
  5
3843
330
A
100
AcDbEntity
  8
DRAW
  6
CONTINUOUS
 62
     7
100
AcDbLine
 10
56.14745514209403
 20
150.2330186462256
 30
0.0
 11
56.14748314112201
 21
168.5330403021638
 31
0.0
  0
LINE
  5
3844
330
A
100
AcDbEntity
  8
DRAW
  6
CONTINUOUS
 62
     7
100
AcDbLine
 10
56.14746624402746
 20
157.4891855098018
 30
0.0
 11
56.14743843711996
 21
139.3147328515026
 31
0.0
  0
LINE
  5
3845
330
A
100
AcDbEntity
  8
DRAW
  6
CONTINUOUS
100
AcDbLine
 10
56.1474489960026
 20
143.563002990794
 30
0.0
 11
56.14744417650356
 21
140.4130030500178
 31
0.0
  0
LINE
  5
3846
330
A
100
AcDbEntity
  8
DRAW
  6
CONTINUOUS
100
AcDbLine
 10
56.1474489960026
 20
146.2159647217511
 30
0.0
 11
56.14745514209394
 21
150.2330186462259
 31
0.0
  0
LINE
  5
3847
330
A
100
AcDbEntity
  8
DRAW
  6
CONTINUOUS
100
AcDbLine
 10
56.1474583364336
 20
152.3208226069725
 30
0.0
 11
56.2975138138978
 21
152.3208223773877
 31
0.0
  0
ARC
  5
3848
330
A
100
AcDbEntity
  8
DRAW
  6
CONTINUOUS
 62
     7
100
AcDbCircle
 10
56.5825997099771
 20
154.5310998996562
 30
0.0
 40
0.1999999962400001
100
AcDbArc
 50
89.99991233747289
 51
179.9999123374725
  0
ARC
  5
3849
330
A
100
AcDbEntity
  8
DRAW
  6
CONTINUOUS
100
AcDbCircle
 10
56.58259847066188
 20
153.7210899148847
 30
0.0
 40
0.1999999962400001
100
AcDbArc
 50
179.9999123374708
 51
215.9999123374773
  0
ARC
  5
384A
330
A
100
AcDbEntity
  8
DRAW
  6
CONTINUOUS
 62
     7
100
AcDbCircle
 10
56.58259915794246
 20
154.1702929064392
 30
0.0
 40
0.1999999962400001
100
AcDbArc
 50
179.9999123374708
 51
210.1751503374756
  0
ARC
  5
384B
330
A
100
AcDbEntity
  8
DRAW
  6
CONTINUOUS
100
AcDbCircle
 10
56.8546546047985
 20
153.1585085092153
 30
0.0
 40
0.1999999962400001
100
AcDbArc
 50
359.9999123374708
 51
37.40018033747532
  0
LINE
  5
384C
330
A
100
AcDbEntity
  8
DRAW
  6
CONTINUOUS
 62
     7
100
AcDbLine
 10
57.74749999407572
 20
154.7310981135995
 30
0.0
 11
56.58260001597723
 21
154.7310998958962
 31
0.0
  0
LINE
  5
384D
330
A
100
AcDbEntity
  8
DRAW
  6
CONTINUOUS
 62
     7
100
AcDbLine
 10
56.38259916170295
 20
154.1702932124396
 30
0.0
 11
56.38259847442249
 21
153.7210902208851
 31
0.0
  0
LINE
  5
384E
330
A
100
AcDbEntity
  8
DRAW
  6
CONTINUOUS
 62
     7
100
AcDbLine
 10
57.01353678766941
 20
153.2799842638421
 30
0.0
 11
56.40970000738391
 21
154.0697641728653
 31
0.0
  0
LINE
  5
384F
330
A
100
AcDbEntity
  8
DRAW
  6
CONTINUOUS
100
AcDbLine
 10
57.05465460103801
 20
153.1585082032149
 30
0.0
 11
57.05465455925219
 21
153.1311972037284
 31
0.0
  0
LINE
  5
3850
330
A
100
AcDbEntity
  8
DRAW
  6
CONTINUOUS
100
AcDbLine
 10
56.42079429384216
 20
153.6035331646551
 30
0.0
 11
56.8194814467636
 21
153.0547855649798
 31
0.0
  0
LINE
  5
3851
330
A
100
AcDbEntity
  8
DRAW
  6
CONTINUOUS
100
AcDbLine
 10
57.05465455925218
 20
153.131197203729
 30
0.0
 11
57.05465410435788
 21
152.8338806220453
 31
0.0
  0
LINE
  5
3852
330
A
100
AcDbEntity
  8
DRAW
  6
CONTINUOUS
100
AcDbLine
 10
56.81948144676358
 20
153.0547855649799
 30
0.0
 11
56.97997869098998
 21
152.8338806220453
 31
0.0
  0
LINE
  5
3853
330
A
100
AcDbEntity
  8
DRAW
  6
CONTINUOUS
 62
     7
100
AcDbLine
 10
56.38259971373759
 20
154.5311002056557
 30
0.0
 11
56.38259916170299
 21
154.1702932124393
 31
0.0
  0
ARC
  5
3854
330
A
100
AcDbEntity
  8
DRAW
  6
CONTINUOUS
 62
     7
100
AcDbCircle
 10
59.61000573480737
 20
158.5060951930006
 30
0.0
 40
2.162499959345
100
AcDbArc
 50
162.5075873374745
 51
197.4922373374725
  0
LINE
  5
3855
330
A
100
AcDbEntity
  8
DRAW
  6
CONTINUOUS
 62
     7
100
AcDbLine
 10
57.74750477532484
 20
157.8560980548452
 30
0.0
 11
57.54750477908513
 21
157.8560983608452
 31
0.0
  0
LINE
  5
3856
330
A
100
AcDbEntity
  8
DRAW
  6
CONTINUOUS
 62
     7
100
AcDbLine
 10
57.74750676432427
 20
159.1560980304036
 30
0.0
 11
57.54750676808455
 21
159.1560983364036
 31
0.0
  0
LINE
  5
3857
330
A
100
AcDbEntity
  8
DRAW
  6
CONTINUOUS
 62
     7
100
AcDbLine
 10
57.54750477908487
 20
157.8560983608456
 30
0.0
 11
57.54750577358465
 21
158.5060983486248
 31
0.0
  0
LINE
  5
3858
330
A
100
AcDbEntity
  8
DRAW
  6
CONTINUOUS
 62
     7
100
AcDbLine
 10
57.54750577358459
 20
158.5060983486243
 30
0.0
 11
57.54750676808439
 21
159.1560983364037
 31
0.0
  0
LINE
  5
3859
330
A
100
AcDbEntity
  8
DRAW
  6
CONTINUOUS
 62
     7
100
AcDbLine
 10
57.74750421394469
 20
157.4891830617441
 30
0.0
 11
56.14746624402746
 21
157.4891855098018
 31
0.0
  0
LINE
  5
385A
330
A
100
AcDbEntity
  8
DRAW
  6
CONTINUOUS
 62
     7
100
AcDbLine
 10
57.74750727393325
 20
159.4891760241414
 30
0.0
 11
56.14746930401592
 21
159.4891784721991
 31
0.0
  0
LINE
  5
385B
330
A
100
AcDbEntity
  8
DRAW
  6
CONTINUOUS
 62
     7
100
AcDbLine
 10
56.14748314112216
 20
168.5330403021641
 30
0.0
 11
56.14750563007504
 21
183.2317050258121
 31
0.0
  0
ARC
  5
385C
330
A
100
AcDbEntity
  8
DRAW
  6
CONTINUOUS
 62
     7
100
AcDbCircle
 10
56.44748313548166
 20
168.533039843164
 30
0.0
 40
0.29999999436
100
AcDbArc
 50
179.9999123374708
 51
269.9999123374737
  0
LINE
  5
385D
330
A
100
AcDbEntity
  8
DRAW
  6
CONTINUOUS
 62
     7
100
AcDbLine
 10
57.74752065203961
 20
168.2330378597469
 30
0.0
 11
56.44748267648186
 21
168.2330398488046
 31
0.0
  0
LINE
  5
385E
330
A
100
AcDbEntity
  8
DRAW
  6
CONTINUOUS
 62
     7
100
AcDbLine
 10
56.14749826963202
 20
178.4209571162598
 30
0.0
 11
57.49749824425046
 21
178.4209550507602
 31
0.0
  0
LINE
  5
385F
330
A
100
AcDbEntity
  8
DRAW
  6
CONTINUOUS
 62
     7
100
AcDbLine
 10
56.14750087063135
 20
180.1209570842972
 30
0.0
 11
57.49750084524978
 21
180.1209550187976
 31
0.0
  0
LINE
  5
3860
330
A
100
AcDbEntity
  8
DRAW
  6
CONTINUOUS
 62
     7
100
AcDbLine
 10
57.49750408879868
 20
182.2409219789403
 30
0.0
 11
57.49749824425035
 21
178.4209550507602
 31
0.0
  0
ARC
  5
3861
330
A
100
AcDbEntity
  8
DRAW
  6
CONTINUOUS
 62
     7
100
AcDbCircle
 10
56.64750471683032
 20
182.6409562719188
 30
0.0
 40
0.4999999906000001
100
AcDbArc
 50
89.99991233747328
 51
179.9999123374725
  0
ARC
  5
3862
330
A
100
AcDbEntity
  8
DRAW
  6
CONTINUOUS
 62
     7
100
AcDbCircle
 10
56.64750562067434
 20
183.2317042608117
 30
0.0
 40
0.4999999906000001
100
AcDbArc
 50
89.99991233747328
 51
179.9999123374757
  0
LINE
  5
3863
330
A
100
AcDbEntity
  8
DRAW
  6
CONTINUOUS
 62
     7
100
AcDbLine
 10
70.34744441514636
 20
168.233018581867
 30
0.0
 11
70.34742085446961
 21
152.8338806180682
 31
0.0
  0
CIRCLE
  5
3864
330
A
100
AcDbEntity
  8
DRAW
  6
HIDDEN2
 62
     7
100
AcDbCircle
 10
64.0474753897995
 20
163.5638813085922
 30
0.0
 40
1.59999996992
  0
LINE
  5
3865
330
A
100
AcDbEntity
  8
DRAW
  6
CONTINUOUS
 62
     7
100
AcDbLine
 10
71.94745484503551
 20
150.2329944722312
 30
0.0
 11
71.94748284406348
 21
168.5330161281693
 31
0.0
  0
LINE
  5
3866
330
A
100
AcDbEntity
  8
DRAW
  6
CONTINUOUS
100
AcDbLine
 10
62.04751717455337
 20
151.4359845965192
 30
0.0
 11
66.04751692409138
 21
151.4359784765206
 31
0.0
  0
LINE
  5
3867
330
A
100
AcDbEntity
  8
DRAW
  6
CONTINUOUS
100
AcDbLine
 10
62.94751562974806
 20
152.8338805977726
 30
0.0
 11
62.04751717455337
 21
152.8338805953042
 31
0.0
  0
LINE
  5
3868
330
A
100
AcDbEntity
  8
DRAW
  6
CONTINUOUS
100
AcDbLine
 10
66.04751692409138
 20
152.8338806062749
 30
0.0
 11
65.147515629748
 21
152.8338806038065
 31
0.0
  0
LINE
  5
3869
330
A
100
AcDbEntity
  8
DRAW
  6
CONTINUOUS
 62
     7
100
AcDbLine
 10
71.9474700059994
 20
157.4891613358005
 30
0.0
 11
71.94744387944504
 21
140.4129788760223
 31
0.0
  0
LINE
  5
386A
330
A
100
AcDbEntity
  8
DRAW
  6
CONTINUOUS
100
AcDbLine
 10
71.79751381389781
 20
150.1809188910883
 30
0.0
 11
68.99777901523663
 21
150.1809188834095
 31
0.0
  0
LINE
  5
386B
330
A
100
AcDbEntity
  8
DRAW
  6
CONTINUOUS
100
AcDbLine
 10
71.94744387944524
 20
143.0659406069796
 30
0.0
 11
71.94743814006145
 21
139.3147086775073
 31
0.0
  0
LINE
  5
386C
330
A
100
AcDbEntity
  8
DRAW
  6
CONTINUOUS
100
AcDbLine
 10
71.94744869894407
 20
146.2159405477557
 30
0.0
 11
71.94745484503542
 21
150.2329944722305
 31
0.0
  0
LINE
  5
386D
330
A
100
AcDbEntity
  8
DRAW
  6
CONTINUOUS
100
AcDbLine
 10
69.0475166856728
 20
151.4359738865218
 30
0.0
 11
71.94746074461753
 21
151.4359694496082
 31
0.0
  0
ARC
  5
386E
330
A
100
AcDbEntity
  8
DRAW
  6
CONTINUOUS
 62
     7
100
AcDbCircle
 10
71.51232342928074
 20
154.5310770571829
 30
0.0
 40
0.1999999962400001
100
AcDbArc
 50
359.9999123374708
 51
89.99991233747492
  0
ARC
  5
386F
330
A
100
AcDbEntity
  8
DRAW
  6
CONTINUOUS
100
AcDbCircle
 10
71.51232218996597
 20
153.7210670724123
 30
0.0
 40
0.1999999962400001
100
AcDbArc
 50
323.9999123374697
 51
359.9999123374741
  0
ARC
  5
3870
330
A
100
AcDbEntity
  8
DRAW
  6
CONTINUOUS
 62
     7
100
AcDbCircle
 10
71.5123228772461
 20
154.1702700639659
 30
0.0
 40
0.1999999962400001
100
AcDbArc
 50
329.8246743374721
 51
359.9999123374757
  0
ARC
  5
3871
330
A
100
AcDbEntity
  8
DRAW
  6
CONTINUOUS
100
AcDbCircle
 10
71.2402653343322
 20
153.1584864992344
 30
0.0
 40
0.1999999962400001
100
AcDbArc
 50
142.5996443374715
 51
179.9999123374692
  0
LINE
  5
3872
330
A
100
AcDbEntity
  8
DRAW
  6
CONTINUOUS
 62
     7
100
AcDbLine
 10
70.34742375718247
 20
154.7310788357196
 30
0.0
 11
71.51232373528099
 21
154.731077053423
 31
0.0
  0
LINE
  5
3873
330
A
100
AcDbEntity
  8
DRAW
  6
CONTINUOUS
 62
     7
100
AcDbLine
 10
71.71232287348607
 20
154.1702697579664
 30
0.0
 11
71.71232218620563
 21
153.7210667664119
 31
0.0
  0
LINE
  5
3874
330
A
100
AcDbEntity
  8
DRAW
  6
CONTINUOUS
 62
     7
100
AcDbLine
 10
71.08138252317735
 20
153.2799627400415
 30
0.0
 11
71.68522172018623
 21
154.0697408013208
 31
0.0
  0
LINE
  5
3875
330
A
100
AcDbEntity
  8
DRAW
  6
CONTINUOUS
100
AcDbLine
 10
71.04026533809224
 20
153.1584868052348
 30
0.0
 11
71.04026529630641
 21
153.1311758057482
 31
0.0
  0
LINE
  5
3876
330
A
100
AcDbEntity
  8
DRAW
  6
CONTINUOUS
100
AcDbLine
 10
71.67412600706143
 20
153.603509827062
 30
0.0
 11
71.27543717497452
 21
153.0547634473716
 31
0.0
  0
LINE
  5
3877
330
A
100
AcDbEntity
  8
DRAW
  6
CONTINUOUS
100
AcDbLine
 10
71.04026529630641
 20
153.1311758057479
 30
0.0
 11
71.04026484144488
 21
152.8338806199684
 31
0.0
  0
LINE
  5
3878
330
A
100
AcDbEntity
  8
DRAW
  6
CONTINUOUS
100
AcDbLine
 10
71.27543717497451
 20
153.0547634473721
 30
0.0
 11
71.11495564852216
 21
152.8338806201733
 31
0.0
  0
LINE
  5
3879
330
A
100
AcDbEntity
  8
DRAW
  6
CONTINUOUS
 62
     7
100
AcDbLine
 10
71.7123234255207
 20
154.5310767511825
 30
0.0
 11
71.7123228734861
 21
154.1702697579662
 31
0.0
  0
ARC
  5
387A
330
A
100
AcDbEntity
  8
DRAW
  6
CONTINUOUS
 62
     7
100
AcDbCircle
 10
68.48492956794848
 20
158.5060816143693
 30
0.0
 40
2.162499959345
100
AcDbArc
 50
342.5075873374745
 51
17.49223733747257
  0
LINE
  5
387B
330
A
100
AcDbEntity
  8
DRAW
  6
CONTINUOUS
 62
     7
100
AcDbLine
 10
70.34742853843159
 20
157.8560787769654
 30
0.0
 11
70.54742853467129
 21
157.8560784709655
 31
0.0
  0
LINE
  5
387C
330
A
100
AcDbEntity
  8
DRAW
  6
CONTINUOUS
 62
     7
100
AcDbLine
 10
70.34743052743102
 20
159.1560787525238
 30
0.0
 11
70.54743052367071
 21
159.1560784465238
 31
0.0
  0
LINE
  5
387D
330
A
100
AcDbEntity
  8
DRAW
  6
CONTINUOUS
 62
     7
100
AcDbLine
 10
70.54743052367053
 20
159.1560784465243
 30
0.0
 11
70.54742853467097
 21
157.8560784709659
 31
0.0
  0
LINE
  5
387E
330
A
100
AcDbEntity
  8
DRAW
  6
CONTINUOUS
 62
     7
100
AcDbLine
 10
70.34742797705144
 20
157.4891637838643
 30
0.0
 11
71.9474700059994
 21
157.4891613358005
 31
0.0
  0
LINE
  5
387F
330
A
100
AcDbEntity
  8
DRAW
  6
CONTINUOUS
 62
     7
100
AcDbLine
 10
70.34743210804004
 20
160.189156733101
 30
0.0
 11
71.94747007795736
 21
160.1891542850434
 31
0.0
  0
LINE
  5
3880
330
A
100
AcDbEntity
  8
DRAW
  6
CONTINUOUS
 62
     7
100
AcDbLine
 10
64.34750743430527
 20
184.5116924557494
 30
0.0
 11
67.14750738166195
 21
184.5116881717503
 31
0.0
  0
LINE
  5
3881
330
A
100
AcDbEntity
  8
DRAW
  6
CONTINUOUS
 62
     7
100
AcDbLine
 10
65.14751162676316
 20
187.2616911800457
 30
0.0
 11
66.34751160420181
 21
187.2616893440462
 31
0.0
  0
LINE
  5
3882
330
A
100
AcDbEntity
  8
DRAW
  6
CONTINUOUS
 62
     7
100
AcDbLine
 10
62.9475116681258
 20
187.2616945460456
 30
0.0
 11
61.74751169068725
 21
187.2616963820452
 31
0.0
  0
LINE
  5
3883
330
A
100
AcDbEntity
  8
DRAW
  6
CONTINUOUS
 62
     7
100
AcDbLine
 10
60.94750749822901
 20
184.511697657748
 30
0.0
 11
63.74750744558582
 21
184.5116933737489
 31
0.0
  0
LINE
  5
3884
330
A
100
AcDbEntity
  8
DRAW
  6
CONTINUOUS
 62
     7
100
AcDbLine
 10
60.94751048172816
 20
186.4616976210852
 30
0.0
 11
60.94750749822876
 21
184.5116976577474
 31
0.0
  0
LINE
  5
3885
330
A
100
AcDbEntity
  8
DRAW
  6
CONTINUOUS
 62
     7
100
AcDbLine
 10
61.74751169068736
 20
187.2616963820453
 30
0.0
 11
60.94751048172849
 21
186.4616976210861
 31
0.0
  0
LINE
  5
3886
330
A
100
AcDbEntity
  8
DRAW
  6
CONTINUOUS
 62
     7
100
AcDbLine
 10
63.74751042908497
 20
186.4616933370869
 30
0.0
 11
62.94751166812558
 21
187.2616945460456
 31
0.0
  0
LINE
  5
3887
330
A
100
AcDbEntity
  8
DRAW
  6
CONTINUOUS
 62
     7
100
AcDbLine
 10
63.74750744558582
 20
184.5116933737488
 30
0.0
 11
63.74751042908522
 21
186.4616933370866
 31
0.0
  0
LINE
  5
3888
330
A
100
AcDbEntity
  8
DRAW
  6
CONTINUOUS
 62
     7
100
AcDbLine
 10
64.34751041780441
 20
186.4616924190866
 30
0.0
 11
65.14751162676318
 21
187.2616911800459
 31
0.0
  0
LINE
  5
3889
330
A
100
AcDbEntity
  8
DRAW
  6
CONTINUOUS
 62
     7
100
AcDbLine
 10
64.34750743430527
 20
184.5116924557494
 30
0.0
 11
64.34751041780467
 21
186.4616924190871
 31
0.0
  0
LINE
  5
388A
330
A
100
AcDbEntity
  8
DRAW
  6
CONTINUOUS
 62
     7
100
AcDbLine
 10
71.94748284406364
 20
168.5330161281688
 30
0.0
 11
71.94750533301652
 21
183.2316808518166
 31
0.0
  0
ARC
  5
388B
330
A
100
AcDbEntity
  8
DRAW
  6
CONTINUOUS
 62
     7
100
AcDbCircle
 10
71.64748284970414
 20
168.5330165871689
 30
0.0
 40
0.29999999436
100
AcDbArc
 50
269.9999123374737
 51
359.9999123374676
  0
LINE
  5
388C
330
A
100
AcDbEntity
  8
DRAW
  6
CONTINUOUS
 62
     7
100
AcDbLine
 10
70.34744441514636
 20
168.233018581867
 30
0.0
 11
71.6474823907041
 21
168.2330165928094
 31
0.0
  0
LINE
  5
388D
330
A
100
AcDbEntity
  8
DRAW
  6
CONTINUOUS
 62
     7
100
AcDbLine
 10
67.14751036516123
 20
186.4616881350873
 30
0.0
 11
66.34751160420193
 21
187.2616893440462
 31
0.0
  0
LINE
  5
388E
330
A
100
AcDbEntity
  8
DRAW
  6
CONTINUOUS
 62
     7
100
AcDbLine
 10
67.14750738166163
 20
184.5116881717501
 30
0.0
 11
67.14751036516104
 21
186.4616881350878
 31
0.0
  0
LINE
  5
388F
330
A
100
AcDbEntity
  8
DRAW
  6
CONTINUOUS
 62
     7
100
AcDbLine
 10
70.59750059895463
 20
180.1209349758016
 30
0.0
 11
71.94750057357295
 21
180.120932910302
 31
0.0
  0
LINE
  5
3890
330
A
100
AcDbEntity
  8
DRAW
  6
CONTINUOUS
 62
     7
100
AcDbLine
 10
70.59749799795532
 20
178.4209350077642
 30
0.0
 11
71.94749797257363
 21
178.4209329422646
 31
0.0
  0
LINE
  5
3891
330
A
100
AcDbEntity
  8
DRAW
  6
CONTINUOUS
 62
     7
100
AcDbLine
 10
70.59750384250333
 20
182.2409019359445
 30
0.0
 11
70.59749799795499
 21
178.4209350077643
 31
0.0
  0
ARC
  5
3892
330
A
100
AcDbEntity
  8
DRAW
  6
CONTINUOUS
 62
     7
100
AcDbCircle
 10
71.44750443857287
 20
182.6409336279236
 30
0.0
 40
0.4999999906000001
100
AcDbArc
 50
359.9999123374741
 51
89.99991233747412
  0
ARC
  5
3893
330
A
100
AcDbEntity
  8
DRAW
  6
CONTINUOUS
 62
     7
100
AcDbCircle
 10
71.44750534241689
 20
183.2316816168165
 30
0.0
 40
0.4999999906000001
100
AcDbArc
 50
359.9999123374741
 51
89.99991233747412
  0
LINE
  5
3894
330
A
100
AcDbEntity
  8
DRAW
  6
CONTINUOUS
 62
     7
100
AcDbLine
 10
71.44752514061315
 20
196.1716813735299
 30
0.0
 11
56.64752541887049
 21
196.1717040175253
 31
0.0
  0
LINE
  5
3895
330
A
100
AcDbEntity
  8
DRAW
  6
CONTINUOUS
 62
     7
100
AcDbLine
 10
71.44754380660902
 20
208.3716811441552
 30
0.0
 11
56.64754408486636
 21
208.3717037881505
 31
0.0
  0
LINE
  5
3896
330
A
100
AcDbEntity
  8
DRAW
  6
CONTINUOUS
 62
     7
100
AcDbLine
 10
71.44756284754726
 20
220.8167409101731
 30
0.0
 11
56.64756312580458
 21
220.8167635541686
 31
0.0
  0
LINE
  5
3897
330
A
100
AcDbEntity
  8
DRAW
  6
CONTINUOUS
 62
     7
100
AcDbLine
 10
56.14754332926736
 20
207.8717045625515
 30
0.0
 11
56.14756237020528
 21
220.3167643285697
 31
0.0
  0
LINE
  5
3898
330
A
100
AcDbEntity
  8
DRAW
  6
CONTINUOUS
 62
     7
100
AcDbLine
 10
56.14752466327104
 20
195.6717047919253
 30
0.0
 11
56.14754332926723
 21
207.871704562551
 31
0.0
  0
ARC
  5
3899
330
A
100
AcDbEntity
  8
DRAW
  6
CONTINUOUS
 62
     7
100
AcDbCircle
 10
56.6475246538705
 20
195.6717040269256
 30
0.0
 40
0.4999999906000001
100
AcDbArc
 50
89.99991233747328
 51
179.9999123374725
  0
ARC
  5
389A
330
A
100
AcDbEntity
  8
DRAW
  6
CONTINUOUS
 62
     7
100
AcDbCircle
 10
56.64754331986682
 20
207.8717037975509
 30
0.0
 40
0.4999999906000001
100
AcDbArc
 50
89.99991233747328
 51
179.9999123374725
  0
ARC
  5
389B
330
A
100
AcDbEntity
  8
DRAW
  6
CONTINUOUS
 62
     7
100
AcDbCircle
 10
56.64756236080461
 20
220.3167635635697
 30
0.0
 40
0.4999999906000001
100
AcDbArc
 50
89.99991233747328
 51
179.9999123374725
  0
LINE
  5
389C
330
A
100
AcDbEntity
  8
DRAW
  6
CONTINUOUS
 62
     7
100
AcDbLine
 10
56.14756237020515
 20
220.3167643285694
 30
0.0
 11
56.14756252320512
 21
220.4167643266893
 31
0.0
  0
LINE
  5
389D
330
A
100
AcDbEntity
  8
DRAW
  6
CONTINUOUS
 62
     7
100
AcDbLine
 10
56.64756312580471
 20
220.8167635541692
 30
0.0
 11
56.5475631276848
 21
220.8167637071692
 31
0.0
  0
TEXT
  5
389E
330
A
100
AcDbEntity
  8
DRAW-TEXT
100
AcDbText
 10
63.65788816705935
 20
212.8796958106278
 30
0.0
 40
1.299999952316284
  1
11
 50
359.9999084472663
 41
0.95
  7
TSTYLE5
100
AcDbText
  0
TEXT
  5
389F
330
A
100
AcDbEntity
  8
DRAW-TEXT
100
AcDbText
 10
67.75218022101944
 20
212.9512855922895
 30
0.0
 40
1.299999952316284
  1
4
 50
359.9999084472663
 41
0.95
  7
TSTYLE5
100
AcDbText
  0
TEXT
  5
38A0
330
A
100
AcDbEntity
  8
DRAW-TEXT
100
AcDbText
 10
58.94136337282998
 20
213.0019257908726
 30
0.0
 40
1.299999952316284
  1
COM
 50
359.9999084472663
 41
0.95
  7
TSTYLE5
100
AcDbText
  0
LINE
  5
38A1
330
A
100
AcDbEntity
  8
DRAW
  6
CONTINUOUS
 62
     7
100
AcDbLine
 10
71.94754303220884
 20
207.8716803885561
 30
0.0
 11
71.94756207314677
 21
220.3167401545744
 31
0.0
  0
ARC
  5
38A2
330
A
100
AcDbEntity
  8
DRAW
  6
CONTINUOUS
 62
     7
100
AcDbCircle
 10
66.04751853660514
 20
191.788986717928
 30
0.0
 40
1.199999977439999
100
AcDbArc
 50
269.9999123374737
 51
359.9999123374741
  0
LINE
  5
38A3
330
A
100
AcDbEntity
  8
DRAW
  6
CONTINUOUS
 62
     7
100
AcDbLine
 10
64.34752646750098
 20
196.9516922218624
 30
0.0
 11
67.14752641485766
 21
196.9516879378633
 31
0.0
  0
ARC
  5
38A4
330
A
100
AcDbEntity
  8
DRAW
  6
CONTINUOUS
 62
     7
100
AcDbCircle
 10
66.04752057409974
 20
193.1206826928907
 30
0.0
 40
1.199999977439999
100
AcDbArc
 50
359.9999123374741
 51
89.99991233747371
  0
LINE
  5
38A5
330
A
100
AcDbEntity
  8
DRAW
  6
CONTINUOUS
 62
     7
100
AcDbLine
 10
66.34753063739776
 20
199.70168911016
 30
0.0
 11
65.1475306599591
 21
199.7016909461597
 31
0.0
  0
ARC
  5
38A6
330
A
100
AcDbEntity
  8
DRAW
  6
CONTINUOUS
 62
     7
100
AcDbCircle
 10
66.0475396072959
 20
205.5606824590038
 30
0.0
 40
1.199999977439999
100
AcDbArc
 50
359.9999123374741
 51
89.99991233747371
  0
ARC
  5
38A7
330
A
100
AcDbEntity
  8
DRAW
  6
CONTINUOUS
 62
     7
100
AcDbCircle
 10
66.0475375698013
 20
204.2289864840411
 30
0.0
 40
1.199999977439999
100
AcDbArc
 50
269.9999123374737
 51
359.9999123374741
  0
LINE
  5
38A8
330
A
100
AcDbEntity
  8
DRAW
  6
CONTINUOUS
 62
     7
100
AcDbLine
 10
64.3475451334973
 20
209.1516919924877
 30
0.0
 11
67.147545080854
 21
209.1516877084885
 31
0.0
  0
LINE
  5
38A9
330
A
100
AcDbEntity
  8
DRAW
  6
CONTINUOUS
 62
     7
100
AcDbLine
 10
66.34754930339409
 20
211.9016888807852
 30
0.0
 11
65.14754932595543
 21
211.9016907167848
 31
0.0
  0
TEXT
  5
38AA
330
A
100
AcDbEntity
  8
DRAW-TEXT
100
AcDbText
 10
63.46647327000574
 20
200.6500577531434
 30
0.0
 40
1.299999952316284
  1
14
 50
359.9999084472663
 41
0.95
  7
TSTYLE5
100
AcDbText
  0
TEXT
  5
38AB
330
A
100
AcDbEntity
  8
DRAW-TEXT
100
AcDbText
 10
59.47719916953565
 20
200.7704038136399
 30
0.0
 40
1.299999952316284
  1
NO
 50
359.9999084472663
 41
0.95
  7
TSTYLE5
100
AcDbText
  0
ARC
  5
38AC
330
A
100
AcDbEntity
  8
DRAW
  6
CONTINUOUS
 62
     7
100
AcDbCircle
 10
62.19752064648424
 20
193.1206885833896
 30
0.0
 40
1.199999977439999
100
AcDbArc
 50
89.99991233747371
 51
179.9999123374741
  0
ARC
  5
38AD
330
A
100
AcDbEntity
  8
DRAW
  6
CONTINUOUS
 62
     7
100
AcDbCircle
 10
62.19751860898964
 20
191.7889926084269
 30
0.0
 40
1.199999977439999
100
AcDbArc
 50
179.9999123374741
 51
269.9999123374737
  0
LINE
  5
38AE
330
A
100
AcDbEntity
  8
DRAW
  6
CONTINUOUS
 62
     7
100
AcDbLine
 10
60.94752653142518
 20
196.9516974238611
 30
0.0
 11
63.74752647878199
 21
196.9516931398619
 31
0.0
  0
LINE
  5
38AF
330
A
100
AcDbEntity
  8
DRAW
  6
CONTINUOUS
 62
     7
100
AcDbLine
 10
62.94753070132196
 20
199.7016943121586
 30
0.0
 11
61.74753072388342
 21
199.7016961481583
 31
0.0
  0
LINE
  5
38B0
330
A
100
AcDbEntity
  8
DRAW
  6
CONTINUOUS
 62
     7
100
AcDbLine
 10
60.99752066904534
 20
193.1206904193884
 30
0.0
 11
60.99751863155089
 21
191.7889944444258
 31
0.0
  0
LINE
  5
38B1
330
A
100
AcDbEntity
  8
DRAW
  6
CONTINUOUS
 62
     7
100
AcDbLine
 10
61.74753072388353
 20
199.7016961481583
 30
0.0
 11
60.94752951492466
 21
198.9016973871989
 31
0.0
  0
LINE
  5
38B2
330
A
100
AcDbEntity
  8
DRAW
  6
CONTINUOUS
 62
     7
100
AcDbLine
 10
60.94752951492433
 20
198.9016973871992
 30
0.0
 11
60.94752653142492
 21
196.9516974238614
 31
0.0
  0
LINE
  5
38B3
330
A
100
AcDbEntity
  8
DRAW
  6
CONTINUOUS
 62
     7
100
AcDbLine
 10
65.99751670154569
 20
190.5889868169895
 30
0.0
 11
62.19751677299008
 21
190.5889926309883
 31
0.0
  0
LINE
  5
38B4
330
A
100
AcDbEntity
  8
DRAW
  6
CONTINUOUS
 62
     7
100
AcDbLine
 10
65.9975224110392
 20
194.3206827468291
 30
0.0
 11
62.19752248248359
 21
194.3206885608278
 31
0.0
  0
LINE
  5
38B5
330
A
100
AcDbEntity
  8
DRAW
  6
CONTINUOUS
 62
     7
100
AcDbLine
 10
63.74752946228113
 20
198.9016931031999
 30
0.0
 11
62.94753070132174
 21
199.7016943121588
 31
0.0
  0
LINE
  5
38B6
330
A
100
AcDbEntity
  8
DRAW
  6
CONTINUOUS
 62
     7
100
AcDbLine
 10
63.74752647878199
 20
196.9516931398618
 30
0.0
 11
63.74752946228139
 21
198.9016931031996
 31
0.0
  0
LINE
  5
38B7
330
A
100
AcDbEntity
  8
DRAW
  6
CONTINUOUS
 62
     7
100
AcDbLine
 10
65.14753065995932
 20
199.7016909461597
 30
0.0
 11
64.34752945100058
 21
198.9016921852002
 31
0.0
  0
LINE
  5
38B8
330
A
100
AcDbEntity
  8
DRAW
  6
CONTINUOUS
 62
     7
100
AcDbLine
 10
64.34752945100058
 20
198.9016921851996
 30
0.0
 11
64.34752646750118
 21
196.951692221862
 31
0.0
  0
LINE
  5
38B9
330
A
100
AcDbEntity
  8
DRAW
  6
CONTINUOUS
 62
     7
100
AcDbLine
 10
62.94754936731829
 20
211.9016940827848
 30
0.0
 11
61.74754938987974
 21
211.9016959187844
 31
0.0
  0
ARC
  5
38BA
330
A
100
AcDbEntity
  8
DRAW
  6
CONTINUOUS
 62
     7
100
AcDbCircle
 10
62.1975396796804
 20
205.5606883495026
 30
0.0
 40
1.199999977439999
100
AcDbArc
 50
89.99991233747371
 51
179.9999123374741
  0
ARC
  5
38BB
330
A
100
AcDbEntity
  8
DRAW
  6
CONTINUOUS
 62
     7
100
AcDbCircle
 10
62.1975376421858
 20
204.2289923745399
 30
0.0
 40
1.199999977439999
100
AcDbArc
 50
179.9999123374741
 51
269.9999123374737
  0
LINE
  5
38BC
330
A
100
AcDbEntity
  8
DRAW
  6
CONTINUOUS
 62
     7
100
AcDbLine
 10
60.94754519742105
 20
209.1516971944872
 30
0.0
 11
63.74754514477785
 21
209.151692910488
 31
0.0
  0
LINE
  5
38BD
330
A
100
AcDbEntity
  8
DRAW
  6
CONTINUOUS
 62
     7
100
AcDbLine
 10
60.99753970224151
 20
205.5606901855024
 30
0.0
 11
60.99753766474706
 21
204.2289942105398
 31
0.0
  0
LINE
  5
38BE
330
A
100
AcDbEntity
  8
DRAW
  6
CONTINUOUS
 62
     7
100
AcDbLine
 10
60.94754818092065
 20
211.1016971578244
 30
0.0
 11
60.94754519742124
 21
209.1516971944866
 31
0.0
  0
LINE
  5
38BF
330
A
100
AcDbEntity
  8
DRAW
  6
CONTINUOUS
 62
     7
100
AcDbLine
 10
61.74754938987939
 20
211.9016959187845
 30
0.0
 11
60.94754818092052
 21
211.1016971578253
 31
0.0
  0
LINE
  5
38C0
330
A
100
AcDbEntity
  8
DRAW
  6
CONTINUOUS
 62
     7
100
AcDbLine
 10
65.99753573474186
 20
203.0289865831025
 30
0.0
 11
62.19753580618625
 21
203.0289923971013
 31
0.0
  0
LINE
  5
38C1
330
A
100
AcDbEntity
  8
DRAW
  6
CONTINUOUS
 62
     7
100
AcDbLine
 10
65.99754144423537
 20
206.7606825129421
 30
0.0
 11
62.19754151567975
 21
206.7606883269409
 31
0.0
  0
LINE
  5
38C2
330
A
100
AcDbEntity
  8
DRAW
  6
CONTINUOUS
 62
     7
100
AcDbLine
 10
63.74754514477785
 20
209.151692910488
 30
0.0
 11
63.74754812827726
 21
211.1016928738258
 31
0.0
  0
LINE
  5
38C3
330
A
100
AcDbEntity
  8
DRAW
  6
CONTINUOUS
 62
     7
100
AcDbLine
 10
63.74754812827745
 20
211.1016928738261
 30
0.0
 11
62.94754936731806
 21
211.9016940827848
 31
0.0
  0
LINE
  5
38C4
330
A
100
AcDbEntity
  8
DRAW
  6
CONTINUOUS
 62
     7
100
AcDbLine
 10
64.3475481169969
 20
211.1016919558258
 30
0.0
 11
64.34754513349751
 21
209.151691992488
 31
0.0
  0
LINE
  5
38C5
330
A
100
AcDbEntity
  8
DRAW
  6
CONTINUOUS
 62
     7
100
AcDbLine
 10
65.14754932595565
 20
211.9016907167849
 30
0.0
 11
64.34754811699689
 21
211.1016919558257
 31
0.0
  0
TEXT
  5
38C6
330
A
100
AcDbEntity
  8
DRAW-TEXT
100
AcDbText
 10
67.56076051804848
 20
200.7216667584754
 30
0.0
 40
1.299999952316284
  1
2
 50
359.9999084472663
 41
0.95
  7
TSTYLE5
100
AcDbText
  0
LINE
  5
38C7
330
A
100
AcDbEntity
  8
DRAW
  6
CONTINUOUS
 62
     7
100
AcDbLine
 10
71.94752436621252
 20
195.6716806179299
 30
0.0
 11
71.94754303220868
 21
207.8716803885555
 31
0.0
  0
LINE
  5
38C8
330
A
100
AcDbEntity
  8
DRAW
  6
CONTINUOUS
 62
     7
100
AcDbLine
 10
67.24751851404358
 20
191.7889848819283
 30
0.0
 11
67.24752055153802
 21
193.120680856891
 31
0.0
  0
LINE
  5
38C9
330
A
100
AcDbEntity
  8
DRAW
  6
CONTINUOUS
 62
     7
100
AcDbLine
 10
67.14752939835739
 20
198.9016879012012
 30
0.0
 11
66.34753063739812
 21
199.7016891101601
 31
0.0
  0
LINE
  5
38CA
330
A
100
AcDbEntity
  8
DRAW
  6
CONTINUOUS
 62
     7
100
AcDbLine
 10
67.14752641485779
 20
196.9516879378631
 30
0.0
 11
67.14752939835719
 21
198.9016879012007
 31
0.0
  0
ARC
  5
38CB
330
A
100
AcDbEntity
  8
DRAW
  6
CONTINUOUS
 62
     7
100
AcDbCircle
 10
71.44752437561305
 20
195.6716813829304
 30
0.0
 40
0.4999999906000001
100
AcDbArc
 50
359.9999123374741
 51
89.99991233747412
  0
LINE
  5
38CC
330
A
100
AcDbEntity
  8
DRAW
  6
CONTINUOUS
 62
     7
100
AcDbLine
 10
67.24753754723974
 20
204.2289846480414
 30
0.0
 11
67.24753958473417
 21
205.5606806230039
 31
0.0
  0
LINE
  5
38CD
330
A
100
AcDbEntity
  8
DRAW
  6
CONTINUOUS
 62
     7
100
AcDbLine
 10
67.14754508085412
 20
209.1516877084893
 30
0.0
 11
67.14754806435353
 21
211.1016876718271
 31
0.0
  0
LINE
  5
38CE
330
A
100
AcDbEntity
  8
DRAW
  6
CONTINUOUS
 62
     7
100
AcDbLine
 10
67.14754806435326
 20
211.1016876718265
 30
0.0
 11
66.34754930339396
 21
211.9016888807853
 31
0.0
  0
ARC
  5
38CF
330
A
100
AcDbEntity
  8
DRAW
  6
CONTINUOUS
 62
     7
100
AcDbCircle
 10
71.44754304160938
 20
207.8716811535557
 30
0.0
 40
0.4999999906000001
100
AcDbArc
 50
359.9999123374741
 51
89.99991233747412
  0
ARC
  5
38D0
330
A
100
AcDbEntity
  8
DRAW
  6
CONTINUOUS
 62
     7
100
AcDbCircle
 10
66.04755623579126
 20
216.4289822546668
 30
0.0
 40
1.199999977439999
100
AcDbArc
 50
269.9999123374737
 51
359.9999123374741
  0
ARC
  5
38D1
330
A
100
AcDbEntity
  8
DRAW
  6
CONTINUOUS
 62
     7
100
AcDbCircle
 10
66.04755827329177
 20
217.7606822296299
 30
0.0
 40
1.199999977439999
100
AcDbArc
 50
359.9999123374741
 51
89.99991233747371
  0
ARC
  5
38D2
330
A
100
AcDbEntity
  8
DRAW
  6
CONTINUOUS
 62
     7
100
AcDbCircle
 10
62.19755630817576
 20
216.4289881451657
 30
0.0
 40
1.199999977439999
100
AcDbArc
 50
179.9999123374741
 51
269.9999123374737
  0
ARC
  5
38D3
330
A
100
AcDbEntity
  8
DRAW
  6
CONTINUOUS
 62
     7
100
AcDbCircle
 10
62.19755834567627
 20
217.7606881201288
 30
0.0
 40
1.199999977439999
100
AcDbArc
 50
89.99991233747371
 51
179.9999123374741
  0
LINE
  5
38D4
330
A
100
AcDbEntity
  8
DRAW
  6
CONTINUOUS
 62
     7
100
AcDbLine
 10
60.99755836823783
 20
217.7606899561276
 30
0.0
 11
60.99755633073725
 21
216.4289899811649
 31
0.0
  0
LINE
  5
38D5
330
A
100
AcDbEntity
  8
DRAW
  6
CONTINUOUS
 62
     7
100
AcDbLine
 10
65.99755440073181
 20
215.2289823537282
 30
0.0
 11
62.19755447217621
 21
215.2289881677269
 31
0.0
  0
LINE
  5
38D6
330
A
100
AcDbEntity
  8
DRAW
  6
CONTINUOUS
 62
     7
100
AcDbLine
 10
65.99756011023169
 20
218.9606822835683
 30
0.0
 11
62.19756018167608
 21
218.9606880975672
 31
0.0
  0
LINE
  5
38D7
330
A
100
AcDbEntity
  8
DRAW
  6
CONTINUOUS
 62
     7
100
AcDbLine
 10
67.24755621323016
 20
216.4289804186671
 30
0.0
 11
67.24755825073074
 21
217.7606803936297
 31
0.0
  0
ARC
  5
38D8
330
A
100
AcDbEntity
  8
DRAW
  6
CONTINUOUS
 62
     7
100
AcDbCircle
 10
71.44756208254716
 20
220.3167409195746
 30
0.0
 40
0.4999999906000001
100
AcDbArc
 50
359.9999123374741
 51
89.99991233747412
  0
LINE
  5
38D9
330
A
100
AcDbEntity
  8
DRAW
  6
CONTINUOUS
 62
     7
100
AcDbLine
 10
71.94756207314663
 20
220.316740154574
 30
0.0
 11
71.94756222614659
 21
220.4167401526939
 31
0.0
  0
LINE
  5
38DA
330
A
100
AcDbEntity
  8
DRAW
  6
CONTINUOUS
 62
     7
100
AcDbLine
 10
71.44756284754726
 20
220.8167409101731
 30
0.0
 11
71.54756284566717
 21
220.8167407571732
 31
0.0
  0
DIMENSION
  5
38DB
330
A
100
AcDbEntity
  8
DIM
100
AcDbDimension
  2
*D40
 10
158.2411809408013
 20
110.6666663987016
 30
0.0
 11
137.1443092102174
 21
110.6666986769098
 31
0.0
 70
   160
  1
42.2
  3
DSTYLE2
100
AcDbAlignedDimension
 13
116.047504796297
 23
154.6645579158573
 33
0.0
 14
158.2412352010998
 24
146.130919881428
 34
0.0
 50
359.9999123374725
100
AcDbRotatedDimension
  0
DIMENSION
  5
38DC
330
A
100
AcDbEntity
  8
DIM
100
AcDbDimension
  2
*D41
 10
116.0474472415068
 20
117.0470407698121
 30
0.0
 11
125.5474550628953
 21
117.0470262348029
 31
0.0
 70
   160
  1
<>
  3
DSTYLE1
100
AcDbAlignedDimension
 13
135.0474764407571
 23
125.9074533865052
 33
0.0
 14
116.047504796297
 24
154.6645579158573
 34
0.0
 50
179.9999123374741
100
AcDbRotatedDimension
  0
LINE
  5
38DE
330
A
100
AcDbEntity
  8
DRAW
100
AcDbLine
 10
135.0474961887064
 20
138.8146121438355
 30
0.0
 11
135.0474764407571
 21
125.9074533865052
 31
0.0
  0
LINE
  5
38DF
330
A
100
AcDbEntity
  8
DRAW
  6
CONTINUOUS
 62
     7
100
AcDbLine
 10
112.4474973669309
 20
149.7645295159825
 30
0.0
 11
112.4474598021873
 21
125.2124049775911
 31
0.0
  0
LINE
  5
38E0
330
A
100
AcDbEntity
  8
DRAW
  6
CONTINUOUS
 62
     7
100
AcDbLine
 10
112.4474598055533
 20
125.2146049775499
 30
0.0
 11
134.5518386851052
 21
125.4074731542301
 31
0.0
  0
LINE
  5
38E1
330
A
100
AcDbEntity
  8
DRAW
  6
CONTINUOUS
 62
     7
100
AcDbLine
 10
112.4474585049677
 20
124.3645489935322
 30
0.0
 11
115.9474584391636
 21
124.3645436385333
 31
0.0
  0
LINE
  5
38E2
330
A
100
AcDbEntity
  8
DRAW
  6
CONTINUOUS
 62
     7
100
AcDbLine
 10
112.4474569749684
 20
123.3645490123333
 30
0.0
 11
115.9474569091643
 21
123.3645436573344
 31
0.0
  0
LINE
  5
38E3
330
A
100
AcDbEntity
  8
DRAW
  6
CONTINUOUS
 62
     7
100
AcDbLine
 10
115.9474546141643
 20
121.8645436855356
 30
0.0
 11
112.4474546799684
 21
121.8645490405345
 31
0.0
  0
LINE
  5
38E4
330
A
100
AcDbEntity
  8
DRAW
  6
CONTINUOUS
 62
     7
100
AcDbLine
 10
112.4570588021354
 20
125.2124889629028
 30
0.0
 11
112.4474598023158
 21
125.2124889775893
 31
0.0
  0
LINE
  5
38E5
330
A
100
AcDbEntity
  8
DRAW
  6
CONTINUOUS
 62
     7
100
AcDbLine
 10
112.4474598021872
 20
125.2124049775909
 30
0.0
 11
112.4474546799685
 21
121.8645490405345
 31
0.0
  0
LINE
  5
38E6
330
A
100
AcDbEntity
  8
DRAW
  6
CONTINUOUS
 62
     7
100
AcDbLine
 10
115.9474546141643
 20
121.8645436855356
 30
0.0
 11
115.9474597831154
 21
125.2429436220178
 31
0.0
  0
ARC
  5
38E7
330
A
100
AcDbEntity
  8
DRAW
  6
CONTINUOUS
 62
     7
100
AcDbCircle
 10
134.547476450158
 20
125.9074541515053
 30
0.0
 40
0.4999999906000001
100
AcDbArc
 50
270.4999123374703
 51
359.9999123374725
  0
DIMENSION
  5
38E8
330
A
100
AcDbEntity
  8
DIM
100
AcDbDimension
  2
*D42
 10
177.747684916877
 20
233.8930831788823
 30
0.0
 11
146.8976554664704
 21
233.8931303794193
 31
0.0
 70
   160
  1
<>
  3
DSTYLE1
100
AcDbAlignedDimension
 13
116.0475594172859
 23
190.3645572446555
 33
0.0
 14
177.7475742455771
 24
161.5588877088241
 34
0.0
 50
359.9999123374725
100
AcDbRotatedDimension
  0
LINE
  5
38E9
330
A
100
AcDbEntity
  8
DRAW
  6
CONTINUOUS
 62
     7
100
AcDbLine
 10
173.7475744102919
 20
156.7337851374929
 30
0.0
 11
172.5475744102917
 21
156.7337851171747
 31
0.0
  0
LINE
  5
38EA
330
A
100
AcDbEntity
  8
DRAW
  6
CONTINUOUS
 62
     7
100
AcDbLine
 10
173.7475737070652
 20
177.3338850034201
 30
0.0
 11
172.5475737070652
 21
177.3338849624557
 31
0.0
  0
LINE
  5
38EB
330
A
100
AcDbEntity
  8
DRAW
100
AcDbLine
 10
145.9475745400091
 20
152.9338894779579
 30
0.0
 11
173.7475745317271
 21
153.1764973515511
 31
0.0
  0
LINE
  5
38EC
330
A
100
AcDbEntity
  8
DRAW
  6
CONTINUOUS
 62
     7
100
AcDbLine
 10
156.947561602614
 20
181.8378891336185
 30
0.0
 11
173.7475735583166
 21
181.6912782239445
 31
0.0
  0
LINE
  5
38ED
330
A
100
AcDbEntity
  8
DRAW
  6
HIDDEN2
 62
     7
100
AcDbLine
 10
171.3444703283542
 20
150.5599210600082
 30
0.0
 11
173.4393542889703
 21
150.7064100572542
 31
0.0
  0
LINE
  5
38EE
330
A
100
AcDbEntity
  8
DRAW
  6
HIDDEN2
 62
     7
100
AcDbLine
 10
175.17287225638
 20
147.4193271190513
 30
0.0
 11
173.0171172969082
 21
147.2685821218854
 31
0.0
  0
LINE
  5
38EF
330
A
100
AcDbEntity
  8
DRAW
  6
HIDDEN2
 62
     7
100
AcDbLine
 10
172.713887302609
 20
161.0810758622108
 30
0.0
 11
173.5718922864784
 21
148.8110380928875
 31
0.0
  0
DIMENSION
  5
38F0
330
A
100
AcDbEntity
  8
DIM
100
AcDbDimension
  2
*D43
 10
145.0476334031116
 20
228.6201147904713
 30
0.0
 11
143.0476334407141
 21
228.6201178504707
 31
0.0
 70
   160
  1
<>
  3
DSTYLE1
100
AcDbAlignedDimension
 13
141.0476016862855
 23
207.8410116660601
 33
0.0
 14
145.0475829450845
 24
195.6410057754362
 34
0.0
 50
359.9999123374741
100
AcDbRotatedDimension
  0
DIMENSION
  5
38F1
330
A
100
AcDbEntity
  8
DIM
100
AcDbDimension
  2
*D44
 10
141.0476334783186
 20
228.6201218255198
 30
0.0
 11
139.0476335159207
 21
228.6201248855192
 31
0.0
 70
   160
  1
<>
  3
DSTYLE1
100
AcDbAlignedDimension
 13
137.0476205274395
 23
220.106346555457
 33
0.0
 14
141.0476016862855
 24
207.8410116660601
 34
0.0
 50
359.9999123374725
100
AcDbRotatedDimension
  0
LINE
  5
38F2
330
A
100
AcDbEntity
  8
DRAW
  6
HIDDEN2
 62
     7
100
AcDbLine
 10
142.0119978798045
 20
165.8777297720341
 30
0.0
 11
140.2905489121677
 21
165.8777297720341
 31
0.0
  0
ARC
  5
38F3
330
A
100
AcDbEntity
  8
DRAW
100
AcDbCircle
 10
142.1475188772567
 20
153.7309690003928
 30
0.0
 40
1.89999996428
100
AcDbArc
 50
206.8322139999984
 51
292.0139079999984
  0
ARC
  5
38F4
330
A
100
AcDbEntity
  8
DRAW
100
AcDbCircle
 10
139.5597559259065
 20
152.4219690250017
 30
0.0
 40
0.9999999812000002
100
AcDbArc
 50
26.83221399999846
 51
90.0
  0
LINE
  5
38F5
330
A
100
AcDbEntity
  8
DRAW
100
AcDbLine
 10
144.7475153168609
 20
151.4358580655441
 30
0.0
 11
138.3963424362703
 21
151.4358677828369
 31
0.0
  0
LINE
  5
38F6
330
A
100
AcDbEntity
  8
DRAW
  6
CONTINUOUS
 62
     7
100
AcDbLine
 10
138.5493601328091
 20
168.2328742329561
 30
0.0
 11
144.9475410125157
 21
168.2328644437412
 31
0.0
  0
LINE
  5
38F7
330
A
100
AcDbEntity
  8
DRAW
  6
CONTINUOUS
 62
     7
100
AcDbLine
 10
137.0476025732511
 20
208.3715807760843
 30
0.0
 11
140.5519654605746
 21
208.340993414985
 31
0.0
  0
LINE
  5
38F8
330
A
100
AcDbEntity
  8
DRAW
  6
CONTINUOUS
 62
     7
100
AcDbLine
 10
114.5475592924878
 20
190.2645595415349
 30
0.0
 11
114.3725792357783
 21
188.264559846852
 31
0.0
  0
LINE
  5
38F9
330
A
100
AcDbEntity
  8
DRAW
  6
CONTINUOUS
 62
     7
100
AcDbLine
 10
113.4709722527293
 20
188.2645612263102
 30
0.0
 11
112.4459561249123
 21
192.089995722671
 31
0.0
  0
LINE
  5
38FA
330
A
100
AcDbEntity
  8
DRAW
  6
CONTINUOUS
 62
     7
100
AcDbLine
 10
116.047504796297
 20
154.6645579158573
 30
0.0
 11
116.0475594172859
 21
190.3645572446555
 31
0.0
  0
LINE
  5
38FB
330
A
100
AcDbEntity
  8
DRAW
  6
CONTINUOUS
 62
     7
100
AcDbLine
 10
114.9619851505597
 20
142.4644618060499
 30
0.0
 11
116.9619851129573
 21
142.4644587460504
 31
0.0
  0
LINE
  5
38FC
330
A
100
AcDbEntity
  8
DRAW
  6
CONTINUOUS
 62
     7
100
AcDbLine
 10
117.5523853369843
 20
141.9645408521362
 30
0.0
 11
114.7523853896276
 21
141.9645451361353
 31
0.0
  0
LINE
  5
38FD
330
A
100
AcDbEntity
  8
DRAW
  6
CONTINUOUS
 62
     7
100
AcDbLine
 10
114.9619906585587
 20
146.0644617383657
 30
0.0
 11
116.9619906209563
 21
146.0644586783662
 31
0.0
  0
LINE
  5
38FE
330
A
100
AcDbEntity
  8
DRAW
  6
CONTINUOUS
 62
     7
100
AcDbLine
 10
114.7523924276263
 20
146.5645450496501
 30
0.0
 11
117.552392374983
 21
146.564540765651
 31
0.0
  0
LINE
  5
38FF
330
A
100
AcDbEntity
  8
DRAW
  6
CONTINUOUS
 62
     7
100
AcDbLine
 10
115.9475061020432
 20
155.5167580528348
 30
0.0
 11
114.0475061377654
 21
155.5167609598341
 31
0.0
  0
LINE
  5
3900
330
A
100
AcDbEntity
  8
DRAW
  6
CONTINUOUS
 62
     7
100
AcDbLine
 10
114.7475068896044
 20
156.0167598794339
 30
0.0
 11
115.947506867043
 21
156.0167580434343
 31
0.0
  0
LINE
  5
3901
330
A
100
AcDbEntity
  8
DRAW
  6
CONTINUOUS
 62
     7
100
AcDbLine
 10
116.047504796297
 20
154.6645579158573
 30
0.0
 11
113.3115128477369
 21
154.6645621019243
 31
0.0
  0
LINE
  5
3902
330
A
100
AcDbEntity
  8
DRAW
  6
CONTINUOUS
 62
     7
100
AcDbLine
 10
112.4474973669309
 20
149.7645295159825
 30
0.0
 11
113.311512847737
 21
154.6645621019242
 31
0.0
  0
LINE
  5
3903
330
A
100
AcDbEntity
  8
DRAW
  6
CONTINUOUS
 62
     7
100
AcDbLine
 10
114.9619906585587
 20
146.0644617383657
 30
0.0
 11
114.9619851505598
 21
142.4644618060499
 31
0.0
  0
LINE
  5
3904
330
A
100
AcDbEntity
  8
DRAW
  6
CONTINUOUS
 62
     7
100
AcDbLine
 10
114.7523924276263
 20
146.5645450496501
 30
0.0
 11
114.7523853896277
 21
141.9645451361354
 31
0.0
  0
LINE
  5
3905
330
A
100
AcDbEntity
  8
DRAW
  6
CONTINUOUS
 62
     7
100
AcDbLine
 10
114.7475068896044
 20
156.0167598794339
 30
0.0
 11
114.5731979412364
 21
158.0091491086721
 31
0.0
  0
LINE
  5
3906
330
A
100
AcDbEntity
  8
DRAW
  6
CONTINUOUS
 62
     7
100
AcDbLine
 10
112.5893525991311
 20
155.1467961977639
 30
0.0
 11
114.5725329528938
 21
158.0167601095465
 31
0.0
  0
LINE
  5
3907
330
A
100
AcDbEntity
  8
DRAW
  6
CONTINUOUS
 62
     7
100
AcDbLine
 10
112.8331727061824
 20
151.9517858847818
 30
0.0
 11
112.4475012297519
 21
152.2892494685151
 31
0.0
  0
ARC
  5
3908
330
A
100
AcDbEntity
  8
DRAW
  6
CONTINUOUS
 62
     7
100
AcDbCircle
 10
113.2475048909279
 20
154.6920051993408
 30
0.0
 40
0.7999999849600003
100
AcDbArc
 50
145.355051337475
 51
179.9999123374741
  0
LINE
  5
3909
330
A
100
AcDbEntity
  8
DRAW
  6
CONTINUOUS
 62
     7
100
AcDbLine
 10
112.4475012297518
 20
152.2892494685145
 30
0.0
 11
112.4475049059693
 21
154.69200642334
 31
0.0
  0
LINE
  5
390A
330
A
100
AcDbEntity
  8
DRAW
  6
CONTINUOUS
 62
     7
100
AcDbLine
 10
114.0475061377653
 20
155.5167609598345
 30
0.0
 11
114.0475048338996
 21
154.664560975857
 31
0.0
  0
LINE
  5
390B
330
A
100
AcDbEntity
  8
DRAW
  6
CONTINUOUS
 62
     7
100
AcDbLine
 10
116.9619878669566
 20
144.2644587122083
 30
0.0
 11
116.961990620956
 21
146.0644586783662
 31
0.0
  0
LINE
  5
390C
330
A
100
AcDbEntity
  8
DRAW
  6
CONTINUOUS
 62
     7
100
AcDbLine
 10
115.9619906397572
 20
146.0644602083655
 30
0.0
 11
115.9619851317583
 21
142.4644602760497
 31
0.0
  0
LINE
  5
390D
330
A
100
AcDbEntity
  8
DRAW
  6
CONTINUOUS
 62
     7
100
AcDbLine
 10
117.5523853369843
 20
141.9645408521362
 30
0.0
 11
117.5523923749828
 21
146.5645407656509
 31
0.0
  0
LINE
  5
390E
330
A
100
AcDbEntity
  8
DRAW
  6
CONTINUOUS
 62
     7
100
AcDbLine
 10
116.9619878669566
 20
144.2644587122083
 30
0.0
 11
116.9619851129571
 21
142.4644587460504
 31
0.0
  0
LINE
  5
390F
330
A
100
AcDbEntity
  8
DRAW
  6
CONTINUOUS
 62
     7
100
AcDbLine
 10
115.947504798177
 20
154.6645580688571
 30
0.0
 11
115.9475068670426
 21
156.0167580434341
 31
0.0
  0
LINE
  5
3910
330
A
100
AcDbEntity
  8
DRAW
  6
CONTINUOUS
 62
     7
100
AcDbLine
 10
113.4709722527293
 20
188.2645612263102
 30
0.0
 11
114.3725792357781
 21
188.2645598468518
 31
0.0
  0
ARC
  5
3911
330
A
100
AcDbEntity
  8
DRAW
  6
CONTINUOUS
 62
     7
100
AcDbCircle
 10
118.447738864161
 20
186.7645536400575
 30
0.0
 40
2.59999995112
100
AcDbArc
 50
157.3906263374753
 51
202.6091983374723
  0
LINE
  5
3912
330
A
100
AcDbEntity
  8
DRAW
100
AcDbLine
 10
140.2905489121678
 20
165.8777297720341
 30
0.0
 11
140.2905489121678
 21
156.6114479462402
 31
0.0
  0
CIRCLE
  5
3913
330
A
100
AcDbEntity
  8
DRAW
  6
CONTINUOUS
 62
     7
100
AcDbCircle
 10
138.9475339815905
 20
163.563766711524
 30
0.0
 40
0.5999999887200001
  0
LINE
  5
3914
330
A
100
AcDbEntity
  8
DRAW
  6
CONTINUOUS
 62
     7
100
AcDbLine
 10
138.2493470664046
 20
159.6890528525898
 30
0.0
 11
138.2493596794496
 21
167.9328746975963
 31
0.0
  0
LINE
  5
3915
330
A
100
AcDbEntity
  8
DRAW
100
AcDbLine
 10
128.2912200807325
 20
139.3146224715371
 30
0.0
 11
134.5474969631071
 21
139.3146128994353
 31
0.0
  0
LINE
  5
3916
330
A
100
AcDbEntity
  8
DRAW
100
AcDbLine
 10
128.2912367857063
 20
150.2329082662606
 30
0.0
 11
138.1963405994788
 21
150.2328931114546
 31
0.0
  0
LINE
  5
3917
330
A
100
AcDbEntity
  8
DRAW
100
AcDbLine
 10
126.8412258473779
 20
143.0658566195086
 30
0.0
 11
128.0912258238764
 21
143.065854707009
 31
0.0
  0
LINE
  5
3918
330
A
100
AcDbEntity
  8
DRAW
100
AcDbLine
 10
126.8412355094208
 20
149.3809185007783
 30
0.0
 11
128.0912354859192
 21
149.3809165882787
 31
0.0
  0
LINE
  5
3919
330
A
100
AcDbEntity
  8
DRAW
100
AcDbLine
 10
126.8412355094208
 20
149.3809185007783
 30
0.0
 11
126.8412258473778
 21
143.0658566195088
 31
0.0
  0
LINE
  5
391A
330
A
100
AcDbEntity
  8
DRAW
100
AcDbLine
 10
128.2912200807325
 20
139.3146224715371
 30
0.0
 11
128.2912255141164
 21
142.8658544047698
 31
0.0
  0
ARC
  5
391B
330
A
100
AcDbEntity
  8
DRAW
100
AcDbCircle
 10
128.0912255178766
 20
142.8658547107695
 30
0.0
 40
0.1999999962400001
100
AcDbArc
 50
359.9999123374708
 51
89.99991233747492
  0
ARC
  5
391C
330
A
100
AcDbEntity
  8
DRAW
100
AcDbCircle
 10
128.0912357919194
 20
149.5809165845182
 30
0.0
 40
0.1999999962400001
100
AcDbArc
 50
269.9999123374749
 51
359.9999123374659
  0
LINE
  5
391D
330
A
100
AcDbEntity
  8
DRAW
100
AcDbLine
 10
128.2912367826586
 20
150.2309162662975
 30
0.0
 11
128.2912357881587
 21
149.5809162785184
 31
0.0
  0
LINE
  5
391E
330
A
100
AcDbEntity
  8
DRAW
100
AcDbLine
 10
138.3963433203696
 20
152.0137107719726
 30
0.0
 11
138.3963408986708
 21
150.4309008017315
 31
0.0
  0
ARC
  5
391F
330
A
100
AcDbEntity
  8
DRAW
100
AcDbCircle
 10
134.5474961981069
 20
138.8146129088361
 30
0.0
 40
0.4999999906000001
100
AcDbArc
 50
359.9999123374741
 51
89.99991233747412
  0
ARC
  5
3920
330
A
100
AcDbEntity
  8
DRAW
100
AcDbCircle
 10
138.1963409024313
 20
150.4309011077318
 30
0.0
 40
0.1999999962400001
100
AcDbArc
 50
269.9999123374708
 51
359.9999123374708
  0
ARC
  5
3921
330
A
100
AcDbEntity
  8
DRAW
100
AcDbCircle
 10
136.6475442715316
 20
157.1890623503447
 30
0.0
 40
0.29999999436
100
AcDbArc
 50
89.99970433747696
 51
179.9999123374708
  0
LINE
  5
3922
330
A
100
AcDbEntity
  8
DRAW
100
AcDbLine
 10
139.5597559259065
 20
153.4219690062025
 30
0.0
 11
136.6605189804121
 21
153.4219690062025
 31
0.0
  0
LINE
  5
3923
330
A
100
AcDbEntity
  8
DRAW
100
AcDbLine
 10
140.2905489121678
 20
156.6114479462401
 30
0.0
 11
136.7038809795973
 21
154.783948980597
 31
0.0
  0
ARC
  5
3924
330
A
100
AcDbEntity
  8
DRAW
100
AcDbCircle
 10
137.8963433297701
 20
152.0137115369723
 30
0.0
 40
0.4999999906000001
100
AcDbArc
 50
359.9999123374741
 51
62.7654683374792
  0
LINE
  5
3925
330
A
100
AcDbEntity
  8
DRAW
100
AcDbLine
 10
136.6605189804124
 20
153.4219690062025
 30
0.0
 11
136.6605189804124
 21
154.7859689805593
 31
0.0
  0
ARC
  5
3926
330
A
100
AcDbEntity
  8
DRAW
100
AcDbCircle
 10
136.8475388961599
 20
153.6782041103531
 30
0.0
 40
0.4999999906000001
100
AcDbArc
 50
179.9999123374741
 51
242.7654683374705
  0
LINE
  5
3927
330
A
100
AcDbEntity
  8
DRAW
100
AcDbLine
 10
138.1251600056605
 20
152.4582811785255
 30
0.0
 11
136.6187222202684
 21
153.2336334687992
 31
0.0
  0
LINE
  5
3928
330
A
100
AcDbEntity
  8
DRAW
100
AcDbLine
 10
136.3475442771721
 20
157.189062809344
 30
0.0
 11
136.3475389055605
 21
153.6782048753521
 31
0.0
  0
ARC
  5
3929
330
A
100
AcDbEntity
  8
DRAW
  6
CONTINUOUS
 62
     7
100
AcDbCircle
 10
138.4493470626441
 20
159.6890525465894
 30
0.0
 40
0.1999999962400001
100
AcDbArc
 50
179.9999123374708
 51
269.9997043374716
  0
LINE
  5
392A
330
A
100
AcDbEntity
  8
DRAW
100
AcDbLine
 10
139.84752367035
 20
157.4890454487374
 30
0.0
 11
136.6475457305315
 21
157.4890623447025
 31
0.0
  0
ARC
  5
392B
330
A
100
AcDbEntity
  8
DRAW
100
AcDbCircle
 10
139.8475249763498
 20
157.6890454449755
 30
0.0
 40
0.1999999962400001
100
AcDbArc
 50
269.9997043374712
 51
359.9999123374708
  0
ARC
  5
392C
330
A
100
AcDbEntity
  8
DRAW
  6
CONTINUOUS
 62
     7
100
AcDbCircle
 10
139.8475274243494
 20
159.2890454148935
 30
0.0
 40
0.1999999962400001
100
AcDbArc
 50
359.9999123374708
 51
89.99970433747126
  0
LINE
  5
392D
330
A
100
AcDbEntity
  8
DRAW
100
AcDbLine
 10
140.0475274205889
 20
159.289045108894
 30
0.0
 11
140.0475249725895
 21
157.6890451389758
 31
0.0
  0
LINE
  5
392E
330
A
100
AcDbEntity
  8
DRAW
  6
CONTINUOUS
 62
     7
100
AcDbLine
 10
139.8475287303492
 20
159.4890454111316
 30
0.0
 11
138.4493457566443
 21
159.4890525503511
 31
0.0
  0
ARC
  5
392F
330
A
100
AcDbEntity
  8
DRAW
  6
CONTINUOUS
 62
     7
100
AcDbCircle
 10
138.5493596738094
 20
167.9328742385967
 30
0.0
 40
0.29999999436
100
AcDbArc
 50
89.99991233747087
 51
179.9999123374708
  0
DIMENSION
  5
3930
330
A
100
AcDbEntity
  8
DIM
100
AcDbDimension
  2
*D45
 10
116.0476179483499
 20
228.6201619828851
 30
0.0
 11
126.5476257509381
 21
228.6201459178762
 31
0.0
 70
   160
  1
<>
  3
DSTYLE1
100
AcDbAlignedDimension
 13
137.0476205274395
 23
220.106346555457
 33
0.0
 14
116.0475594172859
 24
190.3645572446555
 34
0.0
 50
179.9999123374741
100
AcDbRotatedDimension
  0
LINE
  5
3931
330
A
100
AcDbEntity
  8
DRAW
  6
CONTINUOUS
 62
     7
100
AcDbLine
 10
112.4572050764552
 20
220.8166371654331
 30
0.0
 11
136.5519843017292
 21
220.6063283043805
 31
0.0
  0
LINE
  5
3932
330
A
100
AcDbEntity
  8
DRAW
  6
CONTINUOUS
 62
     7
100
AcDbLine
 10
112.89756659106
 20
195.0145959767285
 30
0.0
 11
112.8975997952402
 21
216.7166785687038
 31
0.0
  0
LINE
  5
3933
330
A
100
AcDbEntity
  8
DRAW
  6
CONTINUOUS
 62
     7
100
AcDbLine
 10
116.0475592642862
 20
190.264557246536
 30
0.0
 11
114.5475592924879
 21
190.2645595415355
 31
0.0
  0
LINE
  5
3934
330
A
100
AcDbEntity
  8
DRAW
  6
CONTINUOUS
 62
     7
100
AcDbLine
 10
116.047559417286
 20
190.3645572446555
 30
0.0
 11
112.9475594755697
 21
190.3645619876545
 31
0.0
  0
LINE
  5
3935
330
A
100
AcDbEntity
  8
DRAW
  6
CONTINUOUS
 62
     7
100
AcDbLine
 10
117.5524747687247
 20
200.4166697531679
 30
0.0
 11
114.7524748213681
 21
200.4166740371671
 31
0.0
  0
LINE
  5
3936
330
A
100
AcDbEntity
  8
DRAW
  6
CONTINUOUS
 62
     7
100
AcDbLine
 10
117.3620745371761
 20
200.9165860350819
 30
0.0
 11
114.9620745822989
 21
200.9165897070812
 31
0.0
  0
LINE
  5
3937
330
A
100
AcDbEntity
  8
DRAW
  6
CONTINUOUS
 62
     7
100
AcDbLine
 10
117.5524818067235
 20
205.0166696666817
 30
0.0
 11
114.7524818593668
 21
205.0166739506809
 31
0.0
  0
LINE
  5
3938
330
A
100
AcDbEntity
  8
DRAW
  6
CONTINUOUS
 62
     7
100
AcDbLine
 10
117.3620800451751
 20
204.5165859673977
 30
0.0
 11
114.9620800902979
 21
204.516589639397
 31
0.0
  0
LINE
  5
3939
330
A
100
AcDbEntity
  8
DRAW
  6
CONTINUOUS
 62
     7
100
AcDbLine
 10
114.7524818593667
 20
205.016673950681
 30
0.0
 11
114.7524748213681
 21
200.4166740371664
 31
0.0
  0
LINE
  5
393A
330
A
100
AcDbEntity
  8
DRAW
  6
CONTINUOUS
 62
     7
100
AcDbLine
 10
114.9620745822987
 20
200.9165897070813
 30
0.0
 11
114.9620800902976
 21
204.5165896393971
 31
0.0
  0
LINE
  5
393B
330
A
100
AcDbEntity
  8
DRAW
  6
CONTINUOUS
 62
     7
100
AcDbLine
 10
112.4475623399878
 20
192.2305877175711
 30
0.0
 11
112.4475665995206
 21
195.0145966652286
 31
0.0
  0
LINE
  5
393C
330
A
100
AcDbEntity
  8
DRAW
  6
CONTINUOUS
 62
     7
100
AcDbLine
 10
112.9475594755697
 20
190.3645619876549
 30
0.0
 11
112.447562339988
 21
192.2305877175713
 31
0.0
  0
LINE
  5
393D
330
A
100
AcDbEntity
  8
DRAW
  6
CONTINUOUS
 62
     7
100
AcDbLine
 10
112.89756659106
 20
195.0145959767285
 30
0.0
 11
112.4475665995206
 21
195.0145966652283
 31
0.0
  0
LINE
  5
393E
330
A
100
AcDbEntity
  8
DRAW
  6
CONTINUOUS
 62
     7
100
AcDbLine
 10
115.9620800714967
 20
204.5165881093969
 30
0.0
 11
115.9620745634978
 21
200.9165881770811
 31
0.0
  0
LINE
  5
393F
330
A
100
AcDbEntity
  8
DRAW
  6
CONTINUOUS
 62
     7
100
AcDbLine
 10
117.3620745371761
 20
200.9165860350819
 30
0.0
 11
117.362080045175
 21
204.5165859673977
 31
0.0
  0
LINE
  5
3940
330
A
100
AcDbEntity
  8
DRAW
  6
CONTINUOUS
 62
     7
100
AcDbLine
 10
117.5524747687247
 20
200.4166697531679
 30
0.0
 11
117.5524818067233
 21
205.0166696666825
 31
0.0
  0
LINE
  5
3941
330
A
100
AcDbEntity
  8
DRAW
  6
CONTINUOUS
 62
     7
100
AcDbLine
 10
112.447606076764
 20
220.816721180118
 30
0.0
 11
112.447599803701
 21
216.7166792572036
 31
0.0
  0
LINE
  5
3942
330
A
100
AcDbEntity
  8
DRAW
  6
CONTINUOUS
 62
     7
100
AcDbLine
 10
112.8975997952404
 20
216.7166785687038
 30
0.0
 11
112.447599803701
 21
216.7166792572037
 31
0.0
  0
LINE
  5
3943
330
A
100
AcDbEntity
  8
DRAW
  6
CONTINUOUS
 62
     7
100
AcDbLine
 10
112.4572050764552
 20
220.8166371654331
 30
0.0
 11
112.4476060766358
 21
220.8166371801195
 31
0.0
  0
LINE
  5
3944
330
A
100
AcDbEntity
  8
DRAW
  6
CONTINUOUS
 62
     7
100
AcDbLine
 10
112.4572050764552
 20
220.8166371654331
 30
0.0
 11
112.4476060766358
 21
220.8166371801195
 31
0.0
  0
LINE
  5
3945
330
A
100
AcDbEntity
  8
DRAW
  6
CONTINUOUS
 62
     7
100
AcDbLine
 10
137.0476025732511
 20
208.3715807760843
 30
0.0
 11
137.0476205274395
 21
220.106346555457
 31
0.0
  0
ARC
  5
3946
330
A
100
AcDbEntity
  8
DRAW
  6
CONTINUOUS
 62
     7
100
AcDbCircle
 10
136.5476205368402
 20
220.1063473204565
 30
0.0
 40
0.4999999906000001
100
AcDbArc
 50
359.9999123374741
 51
89.49991233747544
  0
LINE
  5
3947
330
A
100
AcDbEntity
  8
DRAW
  6
CONTINUOUS
 62
     7
100
AcDbLine
 10
145.0475829450845
 20
195.6410057754362
 30
0.0
 11
145.0475642764092
 21
183.4392550048433
 31
0.0
  0
LINE
  5
3948
330
A
100
AcDbEntity
  8
DRAW
100
AcDbLine
 10
162.666393491502
 20
159.9775098829575
 30
0.0
 11
142.8596988638679
 21
151.9694930335082
 31
0.0
  0
LINE
  5
3949
330
A
100
AcDbEntity
  8
DRAW
  6
HIDDEN2
 62
     7
100
AcDbLine
 10
161.6671135102881
 20
168.5336457221026
 30
0.0
 11
148.4834687581407
 21
167.6117557394341
 31
0.0
  0
ARC
  5
394A
330
A
100
AcDbEntity
  8
DRAW
  6
CONTINUOUS
 62
     7
100
AcDbCircle
 10
156.4475627491358
 20
182.581106578981
 30
0.0
 40
0.4999999906000001
100
AcDbArc
 50
359.9999123374741
 51
89.69991233747565
  0
ARC
  5
394B
330
A
100
AcDbEntity
  8
DRAW
  6
CONTINUOUS
 62
     7
100
AcDbCircle
 10
156.4475597498728
 20
180.6208036158366
 30
0.0
 40
0.4999999906000001
100
AcDbArc
 50
269.9999123374741
 51
359.9999123374741
  0
LINE
  5
394C
330
A
100
AcDbEntity
  8
DRAW
100
AcDbLine
 10
145.9475740074712
 20
168.5338861267806
 30
0.0
 11
145.9475745400092
 21
152.933886843562
 31
0.0
  0
ARC
  5
394D
330
A
100
AcDbEntity
  8
DRAW
  6
CONTINUOUS
 62
     7
100
AcDbCircle
 10
142.4475197016129
 20
164.7309683346045
 30
0.0
 40
1.4999999718
100
AcDbArc
 50
168.3497393374757
 51
256.7922833374747
  0
LINE
  5
394E
330
A
100
AcDbEntity
  8
DRAW
  6
CONTINUOUS
 62
     7
100
AcDbLine
 10
144.9475322413107
 20
162.5000495464317
 30
0.0
 11
144.947556600087
 21
178.4208212521958
 31
0.0
  0
LINE
  5
394F
330
A
100
AcDbEntity
  8
DRAW
  6
CONTINUOUS
 62
     7
100
AcDbLine
 10
144.9475322413107
 20
162.5000495464317
 30
0.0
 11
142.0554934937479
 21
163.2831019616226
 31
0.0
  0
ARC
  5
3950
330
A
100
AcDbEntity
  8
DRAW
100
AcDbCircle
 10
142.1475188772567
 20
153.7309690003928
 30
0.0
 40
1.89999996428
100
AcDbArc
 50
252.999999999999
 51
292.0139079999973
  0
CIRCLE
  5
3951
330
A
100
AcDbEntity
  8
DRAW
100
AcDbCircle
 10
142.1475188772567
 20
153.7309690003928
 30
0.0
 40
1.09999997932
  0
CIRCLE
  5
3952
330
A
100
AcDbEntity
  8
DRAW
100
AcDbCircle
 10
142.1475188772567
 20
153.7309690003928
 30
0.0
 40
0.9999999812000002
  0
LINE
  5
3953
330
A
100
AcDbEntity
  8
DRAW
100
AcDbLine
 10
142.6808398672303
 20
153.8388829983639
 30
0.0
 11
141.7874028840269
 21
153.3230560080614
 31
0.0
  0
LINE
  5
3954
330
A
100
AcDbEntity
  8
DRAW
100
AcDbLine
 10
142.6808400323363
 20
153.8388811823831
 30
0.0
 11
141.7874022599188
 21
153.3230555590396
 31
0.0
  0
ARC
  5
3955
330
A
100
AcDbEntity
  8
DRAW
100
AcDbCircle
 10
142.1475188772567
 20
153.7309690003928
 30
0.0
 40
1.89999996428
100
AcDbArc
 50
225.0000000000003
 51
264.0139079999974
  0
ARC
  5
3956
330
A
100
AcDbEntity
  8
DRAW
100
AcDbCircle
 10
141.9374028812069
 20
153.0632490129462
 30
0.0
 40
0.29999999436
100
AcDbArc
 50
119.9999999999997
 51
252.5324189999984
  0
ARC
  5
3957
330
A
100
AcDbEntity
  8
DRAW
100
AcDbCircle
 10
141.9374018595942
 20
153.063248334424
 30
0.0
 40
0.29999999436
100
AcDbArc
 50
119.9999123374712
 51
252.5323313374794
  0
ARC
  5
3958
330
A
100
AcDbEntity
  8
DRAW
100
AcDbCircle
 10
142.8308398644101
 20
153.5790750032481
 30
0.0
 40
0.29999999436
100
AcDbArc
 50
347.4675810000007
 51
119.9999999999997
  0
ARC
  5
3959
330
A
100
AcDbEntity
  8
DRAW
100
AcDbCircle
 10
142.8308396320101
 20
153.5790729577672
 30
0.0
 40
0.29999999436
100
AcDbArc
 50
347.4674933374696
 51
119.999912337473
  0
CIRCLE
  5
395A
330
A
100
AcDbEntity
  8
DRAW
  6
CONTINUOUS
 62
     7
100
AcDbCircle
 10
141.562610299565
 20
159.2285597919542
 30
0.0
 40
0.5999999887200001
  0
LINE
  5
395B
330
A
100
AcDbEntity
  8
DRAW
100
AcDbLine
 10
144.9475156423147
 20
151.6510307554988
 30
0.0
 11
144.9475318900623
 21
162.2704755558407
 31
0.0
  0
LINE
  5
395C
330
A
100
AcDbEntity
  8
DRAW
100
AcDbLine
 10
144.9475745400092
 20
152.933886809425
 30
0.0
 11
145.9475745400092
 21
152.933886843562
 31
0.0
  0
ARC
  5
395D
330
A
100
AcDbEntity
  8
DRAW
100
AcDbCircle
 10
144.7475156229354
 20
151.6359070617834
 30
0.0
 40
0.1999999962400001
100
AcDbArc
 50
269.9999123374708
 51
359.9999123374708
  0
ARC
  5
395E
330
A
100
AcDbEntity
  8
DRAW
  6
CONTINUOUS
 62
     7
100
AcDbCircle
 10
144.6475318957029
 20
162.2704760148405
 30
0.0
 40
0.29999999436
100
AcDbArc
 50
359.9999123374708
 51
74.84977733746987
  0
LINE
  5
395F
330
A
100
AcDbEntity
  8
DRAW
  6
CONTINUOUS
 62
     7
100
AcDbLine
 10
144.9475566000867
 20
178.420821252195
 30
0.0
 11
156.5204499916755
 21
180.126145513613
 31
0.0
  0
LINE
  5
3960
330
A
100
AcDbEntity
  8
DRAW
  6
CONTINUOUS
 62
     7
100
AcDbLine
 10
145.3459928118047
 20
183.1392585538867
 30
0.0
 11
156.4501815140758
 21
183.081099565574
 31
0.0
  0
LINE
  5
3961
330
A
100
AcDbEntity
  8
DRAW
  6
CONTINUOUS
 62
     7
100
AcDbLine
 10
145.9475740074711
 20
168.5338861267806
 30
0.0
 11
145.9475737241338
 21
176.8338812276422
 31
0.0
  0
LINE
  5
3962
330
A
100
AcDbEntity
  8
DRAW
  6
HIDDEN2
 62
     7
100
AcDbLine
 10
148.4834687581408
 20
167.6117557394343
 30
0.0
 11
142.0119978798043
 21
165.877729772034
 31
0.0
  0
LINE
  5
3963
330
A
100
AcDbEntity
  8
DRAW
  6
CONTINUOUS
 62
     7
100
AcDbLine
 10
142.4475219966127
 20
166.2309683064029
 30
0.0
 11
144.7475379533697
 21
166.2309647873791
 31
0.0
  0
ARC
  5
3964
330
A
100
AcDbEntity
  8
DRAW
  6
CONTINUOUS
 62
     7
100
AcDbCircle
 10
142.4475197016129
 20
164.7309683346045
 30
0.0
 40
1.4999999718
100
AcDbArc
 50
89.99991233747289
 51
168.3497393374741
  0
ARC
  5
3965
330
A
100
AcDbEntity
  8
DRAW
  6
CONTINUOUS
 62
     7
100
AcDbCircle
 10
144.7475382593695
 20
166.4309647836187
 30
0.0
 40
0.1999999962400001
100
AcDbArc
 50
269.9999123374708
 51
359.9999123374708
  0
LINE
  5
3966
330
A
100
AcDbEntity
  8
DRAW
  6
CONTINUOUS
 62
     7
100
AcDbLine
 10
145.9475737240664
 20
176.8338812276422
 30
0.0
 11
145.9475736648638
 21
178.5681788147935
 31
0.0
  0
ARC
  5
3967
330
A
100
AcDbEntity
  8
DRAW
  6
CONTINUOUS
 62
     7
100
AcDbCircle
 10
145.3475642707687
 20
183.4392545458429
 30
0.0
 40
0.29999999436
100
AcDbArc
 50
179.9999123374708
 51
269.6999123374788
  0
LINE
  5
3968
330
A
100
AcDbEntity
  8
DRAW
  6
CONTINUOUS
 62
     7
100
AcDbLine
 10
171.5475737412022
 20
176.3338849283186
 30
0.0
 11
171.5475743761548
 21
157.7337850537889
 31
0.0
  0
LINE
  5
3969
330
A
100
AcDbEntity
  8
DRAW
  6
HIDDEN2
 62
     7
100
AcDbLine
 10
166.6225224171264
 20
166.376217762662
 30
0.0
 11
172.7138873026087
 21
161.0810758622106
 31
0.0
  0
ARC
  5
396A
330
A
100
AcDbEntity
  8
DRAW
  6
HIDDEN2
 62
     7
100
AcDbCircle
 10
165.3587654408854
 20
151.513176042087
 30
0.0
 40
0.4999999906000001
100
AcDbArc
 50
94.00000000000217
 51
274.0000000000022
  0
LINE
  5
396B
330
A
100
AcDbEntity
  8
DRAW
  6
HIDDEN2
 62
     7
100
AcDbLine
 10
170.7475343395765
 20
152.9526810150243
 30
0.0
 11
162.666393491502
 21
159.9775098829575
 31
0.0
  0
LINE
  5
396C
330
A
100
AcDbEntity
  8
DRAW
100
AcDbLine
 10
162.9475729868207
 20
150.9338900582877
 30
0.0
 11
162.9475729307003
 21
152.5778643234921
 31
0.0
  0
LINE
  5
396D
330
A
100
AcDbEntity
  8
DRAW
100
AcDbLine
 10
164.1475729587942
 20
153.0927190792923
 30
0.0
 11
164.1475730324903
 21
150.9338900992522
 31
0.0
  0
LINE
  5
396E
330
A
100
AcDbEntity
  8
DRAW
  6
CONTINUOUS
 62
     7
100
AcDbLine
 10
164.9475732344117
 20
153.0997006032419
 30
0.0
 11
164.9475733083461
 21
150.9338901265619
 31
0.0
  0
LINE
  5
396F
330
A
100
AcDbEntity
  8
DRAW
100
AcDbLine
 10
162.9475729868207
 20
150.9338900582877
 30
0.0
 11
164.1475730324902
 21
150.9338900992522
 31
0.0
  0
LINE
  5
3970
330
A
100
AcDbEntity
  8
DRAW
100
AcDbLine
 10
164.9475733083461
 20
150.9338901265618
 30
0.0
 11
164.1475730324902
 21
150.9338900992522
 31
0.0
  0
ARC
  5
3971
330
A
100
AcDbEntity
  8
DRAW
100
AcDbCircle
 10
162.4475729307002
 20
152.5778643064236
 30
0.0
 40
0.4999999999999994
100
AcDbArc
 50
0.0000019559078002
 51
90.5000019559087
  0
LINE
  5
3972
330
A
100
AcDbEntity
  8
DRAW
  6
HIDDEN2
 62
     7
100
AcDbLine
 10
167.9028803930557
 20
151.0359530510593
 30
0.0
 11
167.8185173946417
 21
152.2423980283781
 31
0.0
  0
LINE
  5
3973
330
A
100
AcDbEntity
  8
DRAW
  6
HIDDEN2
 62
     7
100
AcDbLine
 10
171.3444703283542
 20
150.5599210600082
 30
0.0
 11
171.204957330977
 21
152.5550490224998
 31
0.0
  0
LINE
  5
3974
330
A
100
AcDbEntity
  8
DRAW
  6
HIDDEN2
 62
     7
100
AcDbLine
 10
171.9770993164604
 20
148.0240891076825
 30
0.0
 11
170.7475343395761
 21
152.952681015025
 31
0.0
  0
ARC
  5
3975
330
A
100
AcDbEntity
  8
DRAW
  6
HIDDEN2
 62
     7
100
AcDbCircle
 10
166.8241104133369
 20
130.5577664360496
 30
0.0
 40
20.50658061447628
100
AcDbArc
 50
77.26544000000309
 51
94.00000000000302
  0
ARC
  5
3976
330
A
100
AcDbEntity
  8
DRAW
  6
HIDDEN2
 62
     7
100
AcDbCircle
 10
172.9473612982198
 20
148.2661461031318
 30
0.0
 40
0.9999999812000002
100
AcDbArc
 50
194.0079800000011
 51
274.0000000000005
  0
LINE
  5
3977
330
A
100
AcDbEntity
  8
DRAW
  6
HIDDEN2
 62
     7
100
AcDbLine
 10
170.852875337596
 20
152.5304300229634
 30
0.0
 11
165.3127984417493
 21
152.0110590327275
 31
0.0
  0
LINE
  5
3978
330
A
100
AcDbEntity
  8
DRAW
  6
CONTINUOUS
 62
     7
100
AcDbLine
 10
167.4598358528328
 20
153.1216248727363
 30
0.0
 11
168.1475732571406
 21
152.4338875153831
 31
0.0
  0
LINE
  5
3979
330
A
100
AcDbEntity
  8
DRAW
  6
CONTINUOUS
 62
     7
100
AcDbLine
 10
168.9475732332201
 20
153.1346082109532
 30
0.0
 11
168.9475732571407
 21
152.4338875426928
 31
0.0
  0
LINE
  5
397A
330
A
100
AcDbEntity
  8
DRAW
  6
CONTINUOUS
 62
     7
100
AcDbLine
 10
168.9475732571406
 20
152.4338875426927
 30
0.0
 11
168.1475732571406
 21
152.4338875153831
 31
0.0
  0
LINE
  5
397B
330
A
100
AcDbEntity
  8
DRAW
  6
CONTINUOUS
 62
     7
100
AcDbLine
 10
172.5475744102919
 20
156.7337850879259
 30
0.0
 11
171.5475743761548
 21
157.7337850537888
 31
0.0
  0
LINE
  5
397C
330
A
100
AcDbEntity
  8
DRAW
  6
HIDDEN2
 62
     7
100
AcDbLine
 10
173.0005722972193
 20
152.6806110201393
 30
0.0
 11
171.2049573309769
 21
152.5550490224999
 31
0.0
  0
LINE
  5
397D
330
A
100
AcDbEntity
  8
DRAW
  6
CONTINUOUS
 62
     7
100
AcDbLine
 10
171.7296509674891
 20
157.5517084748856
 30
0.0
 11
171.5475743761548
 21
157.7337850537888
 31
0.0
  0
ARC
  5
397E
330
A
100
AcDbEntity
  8
DRAW
  6
HIDDEN2
 62
     7
100
AcDbCircle
 10
160.7179915281319
 20
159.5838318903595
 30
0.0
 40
8.999999830800001
100
AcDbArc
 50
48.99999999999955
 51
83.94644900000043
  0
LINE
  5
397F
330
A
100
AcDbEntity
  8
DRAW
  6
CONTINUOUS
 62
     7
100
AcDbLine
 10
156.9475627397353
 20
182.5811058139804
 30
0.0
 11
156.9475597404723
 21
180.6208028508363
 31
0.0
  0
LINE
  5
3980
330
A
100
AcDbEntity
  8
DRAW
  6
CONTINUOUS
 62
     7
100
AcDbLine
 10
171.7297676925512
 20
176.5160788921067
 30
0.0
 11
171.5475737412022
 21
176.3338849283186
 31
0.0
  0
LINE
  5
3981
330
A
100
AcDbEntity
  8
DRAW
  6
CONTINUOUS
 62
     7
100
AcDbLine
 10
172.5475737070652
 20
177.3338849624556
 30
0.0
 11
171.5475737412022
 21
176.3338849283185
 31
0.0
  0
LINE
  5
3982
330
A
100
AcDbEntity
  8
DRAW
  6
CONTINUOUS
 62
     7
100
AcDbLine
 10
141.0475838320505
 20
196.1715748854592
 30
0.0
 11
141.0476016862855
 21
207.8410116660601
 31
0.0
  0
LINE
  5
3983
330
A
100
AcDbEntity
  8
DRAW
  6
CONTINUOUS
 62
     7
100
AcDbLine
 10
141.0475838320505
 20
196.1715748854592
 30
0.0
 11
144.5519467193739
 21
196.1409875243597
 31
0.0
  0
ARC
  5
3984
330
A
100
AcDbEntity
  8
DRAW
  6
CONTINUOUS
 62
     7
100
AcDbCircle
 10
144.547582954485
 20
195.6410065404359
 30
0.0
 40
0.4999999906000001
100
AcDbArc
 50
359.9999123374741
 51
89.49991233747544
  0
ARC
  5
3985
330
A
100
AcDbEntity
  8
DRAW
  6
CONTINUOUS
 62
     7
100
AcDbCircle
 10
140.5476016956856
 20
207.8410124310601
 30
0.0
 40
0.4999999906000001
100
AcDbArc
 50
359.9999123374741
 51
89.49991233747871
  0
LINE
  5
3986
330
A
100
AcDbEntity
  8
DRAW
  6
CONTINUOUS
 62
     7
100
AcDbLine
 10
175.0475735645429
 20
181.5088876136739
 30
0.0
 11
175.0475742182675
 21
162.3588876166541
 31
0.0
  0
ARC
  5
3987
330
A
100
AcDbEntity
  8
DRAW
  6
HIDDEN2
 62
     7
100
AcDbCircle
 10
174.0706742771014
 20
148.8459170922321
 30
0.0
 40
0.4999999906000001
100
AcDbArc
 50
183.9999999999981
 51
274.0000000000022
  0
LINE
  5
3988
330
A
100
AcDbEntity
  8
DRAW
  6
HIDDEN2
 62
     7
100
AcDbLine
 10
174.1055522764456
 20
148.347134101609
 30
0.0
 11
175.1031162576915
 21
148.4168911002977
 31
0.0
  0
LINE
  5
3989
330
A
100
AcDbEntity
  8
DRAW
  6
HIDDEN2
 62
     7
100
AcDbLine
 10
175.1031162576916
 20
148.4168911002977
 30
0.0
 11
175.1728722563801
 21
147.4193271190519
 31
0.0
  0
LINE
  5
398A
330
A
100
AcDbEntity
  8
DRAW
  6
CONTINUOUS
 62
     7
100
AcDbLine
 10
176.547574327506
 20
159.1588875724922
 30
0.0
 11
177.747574327506
 21
159.1588876134567
 31
0.0
  0
LINE
  5
398B
330
A
100
AcDbEntity
  8
DRAW
  6
CONTINUOUS
 62
     7
100
AcDbLine
 10
175.0475742455771
 20
161.5588876166541
 30
0.0
 11
177.5475742425969
 21
161.5588877019967
 31
0.0
  0
LINE
  5
398C
330
A
100
AcDbEntity
  8
DRAW
  6
CONTINUOUS
 62
     7
100
AcDbLine
 10
175.0475742182674
 20
162.3588876166541
 30
0.0
 11
177.5475742152872
 21
162.3588877019967
 31
0.0
  0
LINE
  5
398D
330
A
100
AcDbEntity
  8
DRAW
  6
CONTINUOUS
 62
     7
100
AcDbLine
 10
175.0475745323283
 20
153.1588876166541
 30
0.0
 11
177.5475745293481
 21
153.1588877019967
 31
0.0
  0
LINE
  5
398E
330
A
100
AcDbEntity
  8
DRAW
  6
CONTINUOUS
 62
     7
100
AcDbLine
 10
177.547574409435
 20
156.7588877019967
 30
0.0
 11
175.047574409435
 21
156.7588876166541
 31
0.0
  0
LINE
  5
398F
330
A
100
AcDbEntity
  8
DRAW
  6
CONTINUOUS
 62
     7
100
AcDbLine
 10
177.5475744273569
 20
156.2338874362357
 30
0.0
 11
175.0475744273569
 21
156.2338873508931
 31
0.0
  0
LINE
  5
3990
330
A
100
AcDbEntity
  8
DRAW
  6
CONTINUOUS
 62
     7
100
AcDbLine
 10
176.547574327506
 20
159.158887763227
 30
0.0
 11
176.5475744094349
 21
156.7588876678596
 31
0.0
  0
LINE
  5
3991
330
A
100
AcDbEntity
  8
DRAW
  6
CONTINUOUS
 62
     7
100
AcDbLine
 10
175.0475743923664
 20
157.258887616654
 30
0.0
 11
175.0475743496511
 21
158.5101763111453
 31
0.0
  0
LINE
  5
3992
330
A
100
AcDbEntity
  8
DRAW
  6
CONTINUOUS
 62
     7
100
AcDbLine
 10
173.7475745323283
 20
153.1588875722759
 30
0.0
 11
173.7475745255009
 21
153.3588875752561
 31
0.0
  0
LINE
  5
3993
330
A
100
AcDbEntity
  8
DRAW
  6
CONTINUOUS
 62
     7
100
AcDbLine
 10
174.7975745323283
 20
153.1588876081198
 30
0.0
 11
173.7475745323283
 21
153.1588875722759
 31
0.0
  0
LINE
  5
3994
330
A
100
AcDbEntity
  8
DRAW
  6
CONTINUOUS
 62
     7
100
AcDbLine
 10
173.7475745255009
 20
153.3588875752561
 30
0.0
 11
173.7475744102919
 21
156.7337851288904
 31
0.0
  0
LINE
  5
3995
330
A
100
AcDbEntity
  8
DRAW
  6
CONTINUOUS
 62
     7
100
AcDbLine
 10
175.0475744273569
 20
156.2338873508931
 30
0.0
 11
175.047574495631
 21
154.2338873508931
 31
0.0
  0
LINE
  5
3996
330
A
100
AcDbEntity
  8
DRAW
  6
CONTINUOUS
 62
     7
100
AcDbLine
 10
175.047574409435
 20
156.758887616654
 30
0.0
 11
175.0475743923665
 21
157.258887616654
 31
0.0
  0
LINE
  5
3997
330
A
100
AcDbEntity
  8
DRAW
  6
CONTINUOUS
 62
     7
100
AcDbLine
 10
175.0475745323283
 20
153.1588876166541
 30
0.0
 11
175.047574495631
 21
154.2338873508931
 31
0.0
  0
LINE
  5
3998
330
A
100
AcDbEntity
  8
DRAW
  6
CONTINUOUS
 62
     7
100
AcDbLine
 10
175.0475745323283
 20
153.1588876166541
 30
0.0
 11
174.7975745323283
 21
153.1588876081198
 31
0.0
  0
LINE
  5
3999
330
A
100
AcDbEntity
  8
DRAW
  6
CONTINUOUS
 62
     7
100
AcDbLine
 10
175.0475744273569
 20
156.2338873508931
 30
0.0
 11
175.0475744094349
 21
156.7588876166541
 31
0.0
  0
LINE
  5
399A
330
A
100
AcDbEntity
  8
DRAW
  6
CONTINUOUS
 62
     7
100
AcDbLine
 10
175.0475742763004
 20
160.6588876166541
 30
0.0
 11
176.5475742763004
 21
160.6588876678596
 31
0.0
  0
LINE
  5
399B
330
A
100
AcDbEntity
  8
DRAW
  6
CONTINUOUS
 62
     7
100
AcDbLine
 10
175.0475743787116
 20
157.6588876166541
 30
0.0
 11
176.5475743787116
 21
157.6588876678596
 31
0.0
  0
LINE
  5
399C
330
A
100
AcDbEntity
  8
DRAW
  6
CONTINUOUS
 62
     7
100
AcDbLine
 10
175.0475742455771
 20
161.5588876166541
 30
0.0
 11
175.0475743496511
 21
158.5101763111453
 31
0.0
  0
ARC
  5
399D
330
A
100
AcDbEntity
  8
DRAW
  6
CONTINUOUS
 62
     7
100
AcDbCircle
 10
177.1475743275061
 20
159.158887497607
 30
0.0
 40
1.000000000000067
100
AcDbArc
 50
179.9999964917535
 51
233.1301043100592
  0
LINE
  5
399E
330
A
100
AcDbEntity
  8
DRAW
  6
CONTINUOUS
 62
     7
100
AcDbLine
 10
176.6475742455771
 20
161.5588876712734
 30
0.0
 11
176.6475742592319
 21
161.1588875759059
 31
0.0
  0
LINE
  5
399F
330
A
100
AcDbEntity
  8
DRAW
  6
CONTINUOUS
 62
     7
100
AcDbLine
 10
176.5475742592319
 20
161.1588875724922
 30
0.0
 11
176.6475742592319
 21
161.1588875759059
 31
0.0
  0
LINE
  5
39A0
330
A
100
AcDbEntity
  8
DRAW
  6
CONTINUOUS
 62
     7
100
AcDbLine
 10
176.5475742455771
 20
161.5588876678597
 30
0.0
 11
176.5475742592319
 21
161.1588875724923
 31
0.0
  0
LINE
  5
39A1
330
A
100
AcDbEntity
  8
DRAW
  6
CONTINUOUS
 62
     7
100
AcDbLine
 10
176.547574327506
 20
159.1588876678596
 30
0.0
 11
176.5475742592319
 21
161.1588875724922
 31
0.0
  0
ARC
  5
39A2
330
A
100
AcDbEntity
  8
DRAW
  6
CONTINUOUS
 62
     7
100
AcDbCircle
 10
177.1475743275061
 20
159.1588876883419
 30
0.0
 40
1.000000000000067
100
AcDbArc
 50
126.8698996017586
 51
180.000007420062
  0
LINE
  5
39A3
330
A
100
AcDbEntity
  8
DRAW
  6
CONTINUOUS
 62
     7
100
AcDbLine
 10
177.747574327506
 20
159.1588878041915
 30
0.0
 11
177.747574409435
 21
156.7588877088241
 31
0.0
  0
LINE
  5
39A4
330
A
100
AcDbEntity
  8
DRAW
  6
CONTINUOUS
 62
     7
100
AcDbLine
 10
177.547574409435
 20
156.7588877019967
 30
0.0
 11
177.747574409435
 21
156.7588877088241
 31
0.0
  0
ARC
  5
39A5
330
A
100
AcDbEntity
  8
DRAW
  6
CONTINUOUS
 62
     7
100
AcDbCircle
 10
177.5475745225207
 20
153.3588877049769
 30
0.0
 40
0.2000000029802323
100
AcDbArc
 50
270.0000019559078
 51
0.0000019559078002
  0
LINE
  5
39A6
330
A
100
AcDbEntity
  8
DRAW
  6
CONTINUOUS
 62
     7
100
AcDbLine
 10
177.747574409435
 20
156.7588877088241
 30
0.0
 11
177.747574525501
 21
153.3588877118043
 31
0.0
  0
LINE
  5
39A7
330
A
100
AcDbEntity
  8
DRAW
  6
CONTINUOUS
 62
     7
100
AcDbLine
 10
177.547574409435
 20
156.7588877019967
 30
0.0
 11
177.5475744273569
 21
156.2338874362357
 31
0.0
  0
LINE
  5
39A8
330
A
100
AcDbEntity
  8
DRAW
  6
CONTINUOUS
 62
     7
100
AcDbLine
 10
177.747574327506
 20
159.1588876134567
 30
0.0
 11
177.7475742455771
 21
161.5588877088241
 31
0.0
  0
LINE
  5
39A9
330
A
100
AcDbEntity
  8
DRAW
  6
CONTINUOUS
 62
     7
100
AcDbLine
 10
177.5475742425969
 20
161.5588877019966
 30
0.0
 11
177.7475742455771
 21
161.558887708824
 31
0.0
  0
LINE
  5
39AA
330
A
100
AcDbEntity
  8
DRAW
  6
CONTINUOUS
 62
     7
100
AcDbLine
 10
177.5475742152872
 20
162.3588877019967
 30
0.0
 11
177.7475742182674
 21
162.3588877088241
 31
0.0
  0
LINE
  5
39AB
330
A
100
AcDbEntity
  8
DRAW
  6
CONTINUOUS
 62
     7
100
AcDbLine
 10
177.7475742182674
 20
162.3588877088241
 30
0.0
 11
177.7475742455771
 21
161.558887708824
 31
0.0
  0
LINE
  5
39AC
330
A
100
AcDbEntity
  8
DRAW
  6
CONTINUOUS
 62
     7
100
AcDbLine
 10
173.7475735645429
 20
181.5088875692956
 30
0.0
 11
173.7475735577155
 21
181.7088875722759
 31
0.0
  0
LINE
  5
39AD
330
A
100
AcDbEntity
  8
DRAW
  6
CONTINUOUS
 62
     7
100
AcDbLine
 10
175.0475735645429
 20
181.5088876136739
 30
0.0
 11
175.0475735577155
 21
181.7088876166541
 31
0.0
  0
LINE
  5
39AE
330
A
100
AcDbEntity
  8
DRAW
  6
CONTINUOUS
 62
     7
100
AcDbLine
 10
175.0475735577155
 20
181.7088876166541
 30
0.0
 11
173.7475735577155
 21
181.7088875722759
 31
0.0
  0
LINE
  5
39AF
330
A
100
AcDbEntity
  8
DRAW
  6
CONTINUOUS
 62
     7
100
AcDbLine
 10
173.7475735645429
 20
181.5088875692956
 30
0.0
 11
173.7475737070652
 21
177.33388500342
 31
0.0
  0
INSERT
  5
3C64
330
A
100
AcDbEntity
  8
0
100
AcDbBlockReference
  2
NON_RELAZIONATI
 10
1.780010263660869
 20
-21.74078414669224
 30
0.0
  0
LINE
  5
3C65
330
A
100
AcDbEntity
  8
DRAW
  6
CONTINUOUS
100
AcDbLine
 10
57.09751357547924
 20
139.6809210855126
 30
0.0
 11
70.99777877681806
 21
139.6809210855126
 31
0.0
  0
ARC
  5
3C66
330
A
100
AcDbEntity
  8
DRAW
  6
CONTINUOUS
100
AcDbCircle
 10
57.09751358740016
 20
140.4809210974335
 30
0.0
 40
0.8000000119209289
100
AcDbArc
 50
180.0
 51
270.0
  0
ARC
  5
3C67
330
A
100
AcDbEntity
  8
DRAW
  6
CONTINUOUS
100
AcDbCircle
 10
70.9975135635583
 20
140.4809210974335
 30
0.0
 40
0.8000000119209289
100
AcDbArc
 50
270.0
 51
0.0
  0
LINE
  5
3C68
330
A
100
AcDbEntity
  8
DRAW
  6
CONTINUOUS
100
AcDbLine
 10
57.09751358740016
 20
150.1809208363577
 30
0.0
 11
56.29751357547923
 21
150.1809208363577
 31
0.0
  0
LINE
  5
3C69
330
A
100
AcDbEntity
  8
DRAW
  6
CONTINUOUS
100
AcDbLine
 10
59.04751692854143
 20
150.1809208013886
 30
0.0
 11
57.09751358740016
 21
150.1809208013886
 31
0.0
  0
LINE
  5
3C6A
330
A
100
AcDbEntity
  8
DRAW
  6
CONTINUOUS
100
AcDbLine
 10
56.29751357547923
 20
146.1809206456229
 30
0.0
 11
56.29751357547923
 21
150.1809208363577
 31
0.0
  0
LINE
  5
3C6B
330
A
100
AcDbEntity
  8
DRAW
  6
CONTINUOUS
100
AcDbLine
 10
56.29751357547923
 20
140.4809210974335
 30
0.0
 11
56.29751357547923
 21
146.1809206456228
 31
0.0
  0
LINE
  5
3C6C
330
A
100
AcDbEntity
  8
DRAW
  6
CONTINUOUS
100
AcDbLine
 10
70.9975135635583
 20
150.1809208363577
 30
0.0
 11
71.79751357547923
 21
150.1809208363577
 31
0.0
  0
LINE
  5
3C6D
330
A
100
AcDbEntity
  8
DRAW
  6
CONTINUOUS
100
AcDbLine
 10
71.79751357547923
 20
146.1809206456229
 30
0.0
 11
71.79751357547923
 21
150.1809208363577
 31
0.0
  0
LINE
  5
3C6E
330
A
100
AcDbEntity
  8
DRAW
  6
CONTINUOUS
100
AcDbLine
 10
71.79751357547923
 20
140.4809210974335
 30
0.0
 11
71.79751357547923
 21
146.1809206456228
 31
0.0
  0
LINE
  5
3C6F
330
A
100
AcDbEntity
  8
DRAW
  6
CONTINUOUS
100
AcDbLine
 10
64.04751356042908
 20
145.1309196654993
 30
0.0
 11
59.54751356340931
 21
146.1309196654994
 31
0.0
  0
LINE
  5
3C70
330
A
100
AcDbEntity
  8
DRAW
  6
CONTINUOUS
100
AcDbLine
 10
68.54751356340926
 20
146.1309196654994
 30
0.0
 11
64.04751356042904
 21
145.1309196654993
 31
0.0
  0
LINE
  5
3C71
330
A
100
AcDbEntity
  8
DRAW
  6
CONTINUOUS
100
AcDbLine
 10
64.04751356638951
 20
147.1309196654994
 30
0.0
 11
68.54751356340926
 21
146.1309196654994
 31
0.0
  0
LINE
  5
3C72
330
A
100
AcDbEntity
  8
DRAW
  6
CONTINUOUS
100
AcDbLine
 10
59.54751356340932
 20
146.1309196654994
 30
0.0
 11
64.04751356638955
 21
147.1309196654994
 31
0.0
  0
LINE
  5
3C73
330
A
100
AcDbEntity
  8
DRAW
  6
CONTINUOUS
100
AcDbLine
 10
64.04751356630743
 20
146.545725246248
 30
0.0
 11
62.1808883713599
 21
146.1309196476455
 31
0.0
  0
LINE
  5
3C74
330
A
100
AcDbEntity
  8
DRAW
  6
CONTINUOUS
100
AcDbLine
 10
65.91413875545867
 20
146.1309196483841
 30
0.0
 11
64.04751356630747
 21
146.545725246248
 31
0.0
  0
LINE
  5
3C75
330
A
100
AcDbEntity
  8
DRAW
  6
CONTINUOUS
100
AcDbLine
 10
64.04751356638951
 20
147.1309196654994
 30
0.0
 11
64.04751356630743
 21
146.545725246248
 31
0.0
  0
LINE
  5
3C76
330
A
100
AcDbEntity
  8
DRAW
  6
CONTINUOUS
100
AcDbLine
 10
64.04751356051111
 20
145.7161140497816
 30
0.0
 11
65.91413875545864
 21
146.1309196483841
 31
0.0
  0
LINE
  5
3C77
330
A
100
AcDbEntity
  8
DRAW
  6
CONTINUOUS
100
AcDbLine
 10
68.54751356340926
 20
146.1309196654994
 30
0.0
 11
65.91413875545864
 21
146.1309196483841
 31
0.0
  0
LINE
  5
3C78
330
A
100
AcDbEntity
  8
DRAW
  6
CONTINUOUS
100
AcDbLine
 10
62.18088837135991
 20
146.1309196476455
 30
0.0
 11
64.04751356051112
 21
145.7161140497816
 31
0.0
  0
LINE
  5
3C79
330
A
100
AcDbEntity
  8
DRAW
  6
CONTINUOUS
100
AcDbLine
 10
64.04751356042908
 20
145.1309196654993
 30
0.0
 11
64.04751356051116
 21
145.7161140497816
 31
0.0
  0
LINE
  5
3C7A
330
A
100
AcDbEntity
  8
DRAW
  6
CONTINUOUS
100
AcDbLine
 10
59.54751356340932
 20
146.1309196654994
 30
0.0
 11
62.18088837135995
 21
146.1309196476455
 31
0.0
  0
LINE
  5
3C7B
330
A
100
AcDbEntity
  8
DRAW
  6
CONTINUOUS
100
AcDbLine
 10
62.94751467607375
 20
150.1809208013886
 30
0.0
 11
62.04751622087906
 21
150.1809208013886
 31
0.0
  0
LINE
  5
3C7C
330
A
100
AcDbEntity
  8
DRAW
  6
CONTINUOUS
100
AcDbLine
 10
70.9975135635583
 20
150.1809208013886
 30
0.0
 11
69.04751573199849
 21
150.1809208013886
 31
0.0
  0
LINE
  5
3C7D
330
A
100
AcDbEntity
  8
DRAW
  6
CONTINUOUS
100
AcDbLine
 10
66.04751597041707
 20
150.1809208013886
 30
0.0
 11
65.14751467607368
 21
150.1809208013886
 31
0.0
  0
LINE
  5
3C7E
330
A
100
AcDbEntity
  8
DRAW
100
AcDbLine
 10
151.3412353918346
 20
139.6809207954852
 30
0.0
 11
128.4412323349001
 21
139.6809207954852
 31
0.0
  0
LINE
  5
3C7F
330
A
100
AcDbEntity
  8
DRAW
100
AcDbLine
 10
157.8412352010998
 20
150.1809207954852
 30
0.0
 11
157.8412352010998
 21
146.1809206047503
 31
0.0
  0
LINE
  5
3C80
330
A
100
AcDbEntity
  8
DRAW
100
AcDbLine
 10
157.0412351891789
 20
150.1809207954852
 30
0.0
 11
157.8412352010998
 21
150.1809207954852
 31
0.0
  0
LINE
  5
3C81
330
A
100
AcDbEntity
  8
DRAW
100
AcDbLine
 10
128.4412327508325
 20
140.4809207724371
 30
0.0
 11
128.4412327508325
 21
139.6809207954852
 31
0.0
  0
LINE
  5
3C82
330
A
100
AcDbEntity
  8
DRAW
100
AcDbLine
 10
128.4412334969568
 20
150.1809207605161
 30
0.0
 11
157.0412351891789
 21
150.1809207605161
 31
0.0
  0
ARC
  5
3C83
330
A
100
AcDbEntity
  8
DRAW
100
AcDbCircle
 10
151.3412353918346
 20
146.1809206047503
 30
0.0
 40
6.499999809265137
100
AcDbArc
 50
270.0
 51
0.0
  0
LINE
  5
3C84
330
A
100
AcDbEntity
  8
DRAW
100
AcDbLine
 10
128.4412327508325
 20
143.3809207605161
 30
0.0
 11
128.4412324326324
 21
140.4809207724371
 31
0.0
  0
LINE
  5
3C85
330
A
100
AcDbEntity
  8
DRAW
100
AcDbLine
 10
128.4412334091774
 20
149.3809200560183
 30
0.0
 11
126.8412352010998
 21
149.3809200560183
 31
0.0
  0
LINE
  5
3C86
330
A
100
AcDbEntity
  8
DRAW
100
AcDbLine
 10
126.8412352010998
 20
143.3809207605161
 30
0.0
 11
128.4412327508325
 21
143.3809207605161
 31
0.0
  0
LINE
  5
3C87
330
A
100
AcDbEntity
  8
DRAW
100
AcDbLine
 10
126.8412352010998
 20
149.3809200560183
 30
0.0
 11
126.8412352010998
 21
143.3809207605161
 31
0.0
  0
LINE
  5
3C88
330
A
100
AcDbEntity
  8
DRAW
100
AcDbLine
 10
128.4412334969568
 20
150.1809207605161
 30
0.0
 11
128.4412334091774
 21
149.3809200560183
 31
0.0
  0
LINE
  5
3C89
330
A
100
AcDbEntity
  8
DRAW
100
AcDbLine
 10
157.8412352010998
 20
145.1309199633901
 30
0.0
 11
157.7558667558042
 21
145.1309199633901
 31
0.0
  0
LINE
  5
3C8A
330
A
100
AcDbEntity
  8
DRAW
100
AcDbLine
 10
157.8412352010998
 20
145.1309199633901
 30
0.0
 11
157.8412352010998
 21
146.1309197666888
 31
0.0
  0
LINE
  5
3C8B
330
A
100
AcDbEntity
  8
DRAW
100
AcDbLine
 10
158.2412352010998
 20
146.5457255616233
 30
0.0
 11
158.2412352010998
 21
146.130919881428
 31
0.0
  0
LINE
  5
3C8C
330
A
100
AcDbEntity
  8
DRAW
100
AcDbLine
 10
157.8412352010998
 20
147.1309199633901
 30
0.0
 11
158.2412352010998
 21
146.5457255616233
 31
0.0
  0
LINE
  5
3C8D
330
A
100
AcDbEntity
  8
DRAW
100
AcDbLine
 10
158.2412352010998
 20
146.130919881428
 30
0.0
 11
158.2412352010998
 21
145.7161143651569
 31
0.0
  0
LINE
  5
3C8E
330
A
100
AcDbEntity
  8
DRAW
100
AcDbLine
 10
157.8412352010998
 20
145.1309199633901
 30
0.0
 11
158.2412352010998
 21
145.7161143651569
 31
0.0
  0
LINE
  5
3C8F
330
A
100
AcDbEntity
  8
DRAW
100
AcDbLine
 10
157.8412352010998
 20
146.1309197666888
 30
0.0
 11
158.2412352010998
 21
146.130919881428
 31
0.0
  0
ENDSEC
  0
SECTION
  2
OBJECTS
  0
DICTIONARY
  5
19
330
0
100
AcDbDictionary
  3
ACAD_GROUP
350
1A
  3
ACAD_LAYOUT
350
34B8
  3
ACAD_MLINESTYLE
350
1B
  3
ACAD_PLOTSETTINGS
350
34B9
1001
ACAD
1000
TREAT_AS_HARD
1070
     0
  0
DICTIONARY
  5
3C97
330
A
100
AcDbDictionary
  3
ACAD_LAYOUTSELFREF
350
3C98
  0
DICTIONARY
  5
3C99
330
B
100
AcDbDictionary
  3
ACAD_LAYOUTSELFREF
350
3C9A
  0
DICTIONARY
  5
1A
102
{ACAD_REACTORS
330
19
102
}
330
19
100
AcDbDictionary
1001
ACAD
1000
TREAT_AS_HARD
1070
     0
  0
DICTIONARY
  5
34B8
102
{ACAD_REACTORS
330
19
102
}
330
19
100
AcDbDictionary
1001
ACAD
1000
TREAT_AS_HARD
1070
     0
  0
DICTIONARY
  5
1B
102
{ACAD_REACTORS
330
19
102
}
330
19
100
AcDbDictionary
  3
STANDARD
350
1C
1001
ACAD
1000
TREAT_AS_HARD
1070
     0
  0
DICTIONARY
  5
34B9
102
{ACAD_REACTORS
330
19
102
}
330
19
100
AcDbDictionary
1001
ACAD
1000
TREAT_AS_HARD
1070
     0
  0
XRECORD
  5
3C98
102
{ACAD_REACTORS
330
3C97
102
}
330
3C97
100
AcDbXrecord
340
A
  0
XRECORD
  5
3C9A
102
{ACAD_REACTORS
330
3C99
102
}
330
3C99
100
AcDbXrecord
340
B
  0
MLINESTYLE
  5
1C
102
{ACAD_REACTORS
330
1B
102
}
330
1B
100
AcDbMlineStyle
  2
STANDARD
 70
     0
  3

 62
     0
 51
90.0
 52
90.0
 71
     2
 49
0.5
 62
   256
  6
BYLAYER
 49
-0.5
 62
   256
  6
BYLAYER
  0
ENDSEC
  0
EOF
