  0
SECTION
  2
HEADER
  9
$ACADVER
  1
AC1012
  9
$DWGCODEPAGE
  3
ANSI_1252
  9
$INSBASE
 10
0.0
 20
0.0
 30
0.0
  9
$EXTMIN
 10
5.0
 20
5.0
 30
0.0
  9
$EXTMAX
 10
205.000037
 20
292.0001829999999
 30
0.0
  9
$LIMMIN
 10
0.0
 20
0.0
  9
$LIMMAX
 10
210.0
 20
296.0
  9
$ORTHOMODE
 70
     1
  9
$REGENMODE
 70
     1
  9
$FILLMODE
 70
     1
  9
$QTEXTMODE
 70
     0
  9
$MIRRTEXT
 70
     0
  9
$DRAGMODE
 70
     2
  9
$LTSCALE
 40
0.5
  9
$OSMODE
 70
    37
  9
$ATTMODE
 70
     1
  9
$TEXTSIZE
 40
0.2
  9
$TRACEWID
 40
0.05
  9
$TEXTSTYLE
  7
FINDER
  9
$CLAYER
  8
0
  9
$CELTYPE
  6
CONTINUOUS
  9
$CECOLOR
 62
   256
  9
$CELTSCALE
 40
1.0
  9
$DELOBJ
 70
     1
  9
$DISPSILH
 70
     0
  9
$DIMSCALE
 40
1.0
  9
$DIMASZ
 40
2.5
  9
$DIMEXO
 40
2.0
  9
$DIMDLI
 40
6.5
  9
$DIMRND
 40
0.0
  9
$DIMDLE
 40
0.0
  9
$DIMEXE
 40
1.25
  9
$DIMTP
 40
0.0
  9
$DIMTM
 40
0.0
  9
$DIMTXT
 40
3.5
  9
$DIMCEN
 40
2.5
  9
$DIMTSZ
 40
0.0
  9
$DIMTOL
 70
     0
  9
$DIMLIM
 70
     0
  9
$DIMTIH
 70
     0
  9
$DIMTOH
 70
     0
  9
$DIMSE1
 70
     0
  9
$DIMSE2
 70
     0
  9
$DIMTAD
 70
     1
  9
$DIMZIN
 70
     8
  9
$DIMBLK
  1

  9
$DIMASO
 70
     1
  9
$DIMSHO
 70
     1
  9
$DIMPOST
  1

  9
$DIMAPOST
  1

  9
$DIMALT
 70
     0
  9
$DIMALTD
 70
     3
  9
$DIMALTF
 40
0.03937
  9
$DIMLFAC
 40
1.0
  9
$DIMTOFL
 70
     1
  9
$DIMTVP
 40
0.0
  9
$DIMTIX
 70
     0
  9
$DIMSOXD
 70
     0
  9
$DIMSAH
 70
     0
  9
$DIMBLK1
  1

  9
$DIMBLK2
  1

  9
$DIMSTYLE
  2
FINDER
  9
$DIMCLRD
 70
   256
  9
$DIMCLRE
 70
   256
  9
$DIMCLRT
 70
     2
  9
$DIMTFAC
 40
1.0
  9
$DIMGAP
 40
0.625
  9
$DIMJUST
 70
     0
  9
$DIMSD1
 70
     0
  9
$DIMSD2
 70
     0
  9
$DIMTOLJ
 70
     0
  9
$DIMTZIN
 70
     8
  9
$DIMALTZ
 70
     0
  9
$DIMALTTZ
 70
     0
  9
$DIMFIT
 70
     3
  9
$DIMUPT
 70
     0
  9
$DIMUNIT
 70
     2
  9
$DIMDEC
 70
     2
  9
$DIMTDEC
 70
     2
  9
$DIMALTU
 70
     2
  9
$DIMALTTD
 70
     3
  9
$DIMTXSTY
  7
FINDER
  9
$DIMAUNIT
 70
     0
  9
$LUNITS
 70
     2
  9
$LUPREC
 70
     4
  9
$SKETCHINC
 40
0.1
  9
$FILLETRAD
 40
0.5
  9
$AUNITS
 70
     0
  9
$AUPREC
 70
     3
  9
$MENU
  1
acad
  9
$ELEVATION
 40
0.0
  9
$PELEVATION
 40
0.0
  9
$THICKNESS
 40
0.0
  9
$LIMCHECK
 70
     0
  9
$BLIPMODE
 70
     0
  9
$CHAMFERA
 40
0.0
  9
$CHAMFERB
 40
0.0
  9
$CHAMFERC
 40
0.0
  9
$CHAMFERD
 40
0.0
  9
$SKPOLY
 70
     0
  9
$TDCREATE
 40
2451901.420981018
  9
$TDUPDATE
 40
2453881.371289965
  9
$TDINDWG
 40
0.5054181597
  9
$TDUSRTIMER
 40
0.5054174306
  9
$USRTIMER
 70
     1
  9
$ANGBASE
 50
0.0
  9
$ANGDIR
 70
     0
  9
$PDMODE
 70
     0
  9
$PDSIZE
 40
0.0
  9
$PLINEWID
 40
0.0
  9
$COORDS
 70
     1
  9
$SPLFRAME
 70
     0
  9
$SPLINETYPE
 70
     6
  9
$SPLINESEGS
 70
     8
  9
$ATTDIA
 70
     0
  9
$ATTREQ
 70
     1
  9
$HANDLING
 70
 22529
  9
$HANDSEED
  5
44EB
  9
$SURFTAB1
 70
     6
  9
$SURFTAB2
 70
     6
  9
$SURFTYPE
 70
     6
  9
$SURFU
 70
     6
  9
$SURFV
 70
     6
  9
$UCSNAME
  2

  9
$UCSORG
 10
0.0
 20
0.0
 30
0.0
  9
$UCSXDIR
 10
1.0
 20
0.0
 30
0.0
  9
$UCSYDIR
 10
0.0
 20
1.0
 30
0.0
  9
$PUCSNAME
  2

  9
$PUCSORG
 10
0.0
 20
0.0
 30
0.0
  9
$PUCSXDIR
 10
1.0
 20
0.0
 30
0.0
  9
$PUCSYDIR
 10
0.0
 20
1.0
 30
0.0
  9
$USERI1
 70
     0
  9
$USERI2
 70
     0
  9
$USERI3
 70
     0
  9
$USERI4
 70
     0
  9
$USERI5
 70
     0
  9
$USERR1
 40
0.0
  9
$USERR2
 40
0.0
  9
$USERR3
 40
0.0
  9
$USERR4
 40
0.0
  9
$USERR5
 40
0.0
  9
$WORLDVIEW
 70
     1
  9
$SHADEDGE
 70
     3
  9
$SHADEDIF
 70
    70
  9
$TILEMODE
 70
     1
  9
$MAXACTVP
 70
    16
  9
$PINSBASE
 10
0.0
 20
0.0
 30
0.0
  9
$PLIMCHECK
 70
     0
  9
$PEXTMIN
 10
1.000000000000000E+20
 20
1.000000000000000E+20
 30
1.000000000000000E+20
  9
$PEXTMAX
 10
-1.000000000000000E+20
 20
-1.000000000000000E+20
 30
-1.000000000000000E+20
  9
$PLIMMIN
 10
0.0
 20
0.0
  9
$PLIMMAX
 10
100.0
 20
100.0
  9
$UNITMODE
 70
     0
  9
$VISRETAIN
 70
     0
  9
$PLINEGEN
 70
     1
  9
$PSLTSCALE
 70
     0
  9
$TREEDEPTH
 70
  3020
  9
$PICKSTYLE
 70
     1
  9
$CMLSTYLE
  2
STANDARD
  9
$CMLJUST
 70
     0
  9
$CMLSCALE
 40
1.0
  9
$SAVEIMAGES
 70
     1
  0
ENDSEC
  0
SECTION
  2
CLASSES
  0
CLASS
  1
LWPOLYLINE
  2
AcDbPolyline
  3
AutoCAD 2000
 90
    32768
280
     0
281
     1
  0
CLASS
  1
IMAGE
  2
AcDbRasterImage
  3
ISM
 90
    32895
280
     0
281
     1
  0
CLASS
  1
OLE2FRAME
  2
AcDbOle2Frame
  3
AutoCAD 2000
 90
    32768
280
     0
281
     1
  0
CLASS
  1
HATCH
  2
AcDbHatch
  3
AutoCAD 2000
 90
    32768
280
     0
281
     1
  0
CLASS
  1
DICTIONARYVAR
  2
AcDbDictionaryVar
  3
AutoCAD 2000
 90
    32768
280
     0
281
     0
  0
CLASS
  1
RASTERVARIABLES
  2
AcDbRasterVariables
  3
ISM
 90
    32768
280
     0
281
     0
  0
CLASS
  1
IMAGEDEF
  2
AcDbRasterImageDef
  3
ISM
 90
    32768
280
     0
281
     0
  0
CLASS
  1
IMAGEDEF_REACTOR
  2
AcDbRasterImageDefReactor
  3
ISM
 90
    32769
280
     0
281
     0
  0
CLASS
  1
SPATIAL_FILTER
  2
AcDbSpatialFilter
  3
AutoCAD 2000
 90
    32768
280
     0
281
     0
  0
CLASS
  1
XRECORD
  2
AcDbXrecord
  3
AutoCAD 2000
 90
    32768
280
     0
281
     0
  0
CLASS
  1
SORTENTSTABLE
  2
AcDbSortentsTable
  3
AutoCAD 2000
 90
    32768
280
     0
281
     0
  0
CLASS
  1
LAYER_INDEX
  2
AcDbLayerIndex
  3
AutoCAD 2000
 90
    32768
280
     0
281
     0
  0
CLASS
  1
SPATIAL_INDEX
  2
AcDbSpatialIndex
  3
AutoCAD 2000
 90
    32768
280
     0
281
     0
  0
CLASS
  1
OBJECT_PTR
  2
CAseDLPNTableRecord
  3
ASE-LPNTableRecord
 90
    32769
280
     0
281
     0
  0
CLASS
  1
LAYOUT
  2
AcDbLayout
  3
AutoCAD 2000
 90
    32768
280
     0
281
     0
  0
CLASS
  1
PLOTSETTINGS
  2
AcDbPlotSettings
  3
AutoCAD 2000
 90
    32768
280
     0
281
     0
  0
CLASS
  1
ACDBDICTIONARYWDFLT
  2
AcDbDictionaryWithDefault
  3
AutoCAD 2000
 90
    32768
280
     0
281
     0
  0
CLASS
  1
ACDBPLACEHOLDER
  2
AcDbPlaceHolder
  3
AutoCAD 2000
 90
    32768
280
     0
281
     0
  0
CLASS
  1
VBA_PROJECT
  2
AcDbVbaProject
  3
"acadvba"
 90
    32769
280
     0
281
     0
  0
CLASS
  1
WIPEOUT
  2
AcDbWipeout
  3
WipeOut|AutoCAD Express Tool|expresstools@autodesk.com
 90
    32895
280
     0
281
     1
  0
CLASS
  1
WIPEOUTVARIABLES
  2
AcDbWipeoutVariables
  3
WipeOut|AutoCAD Express Tool|expresstools@autodesk.com
 90
    32768
280
     0
281
     0
  0
CLASS
  1
RTEXT
  2
RText
  3
RText|AutoCAD Express Tool|expresstools@autodesk.com
 90
    32768
280
     0
281
     1
  0
CLASS
  1
ARCALIGNEDTEXT
  2
AcDbArcAlignedText
  3
ATEXT|AutoCAD Express Tool|expresstools@autodesk.com
 90
    32768
280
     0
281
     1
  0
CLASS
  1
LONG_TRANSACTION
  2
AcDbLongTransaction
  3
AutoCAD 2000
 90
    32768
280
     0
281
     0
  0
CLASS
  1
LWPOLYLINE
  2
AcDbPolyline
  3
AutoCAD 2000
 90
    32768
280
     0
281
     1
  0
CLASS
  1
HATCH
  2
AcDbHatch
  3
AutoCAD 2000
 90
    32768
280
     0
281
     1
  0
CLASS
  1
XRECORD
  2
AcDbXrecord
  3
AutoCAD 2000
 90
    32768
280
     0
281
     0
  0
ENDSEC
  0
SECTION
  2
TABLES
  0
TABLE
  2
VPORT
  5
7
330
0
100
AcDbSymbolTable
 70
     2
  0
VPORT
  5
44E0
330
7
100
AcDbSymbolTableRecord
100
AcDbViewportTableRecord
  2
*ACTIVE
 70
     0
 10
0.0
 20
0.0
 11
1.0
 21
1.0
 12
105.7815946008412
 22
148.0
 13
0.0
 23
0.0
 14
1.0
 24
1.0
 15
2.0
 25
2.0
 16
0.0
 26
0.0
 36
1.0
 17
0.0
 27
0.0
 37
0.0
 40
298.1738066095471
 41
1.627791563275434
 42
50.0
 43
0.0
 44
0.0
 50
0.0
 51
0.0
 71
     0
 72
   100
 73
     1
 74
     1
 75
     0
 76
     0
 77
     0
 78
     0
  0
ENDTAB
  0
TABLE
  2
LTYPE
  5
4
330
0
100
AcDbSymbolTable
 70
     3
  0
LTYPE
  5
11
330
4
100
AcDbSymbolTableRecord
100
AcDbLinetypeTableRecord
  2
BYBLOCK
 70
     0
  3

 72
    65
 73
     0
 40
0.0
  0
LTYPE
  5
12
330
4
100
AcDbSymbolTableRecord
100
AcDbLinetypeTableRecord
  2
BYLAYER
 70
     0
  3

 72
    65
 73
     0
 40
0.0
  0
LTYPE
  5
13
330
4
100
AcDbSymbolTableRecord
100
AcDbLinetypeTableRecord
  2
CONTINUOUS
 70
     0
  3
Solid line
 72
    65
 73
     0
 40
0.0
  0
LTYPE
  5
361D
330
4
100
AcDbSymbolTableRecord
100
AcDbLinetypeTableRecord
  2
HIDDEN2
 70
     0
  3

 72
    65
 73
     2
 40
4.749799928665161
 49
3.174999952316284
 74
     0
 49
-1.587499976158142
 74
     0
  0
LTYPE
  5
3D3E
330
4
100
AcDbSymbolTableRecord
100
AcDbLinetypeTableRecord
  2
CENTER2
 70
     0
  3

 72
    65
 73
     4
 40
25.39999961853027
 49
19.0499997138977
 74
     0
 49
-3.174999952316284
 74
     0
 49
3.174999952316284
 74
     0
 49
-3.174999952316284
 74
     0
  0
ENDTAB
  0
TABLE
  2
LAYER
  5
2
330
0
100
AcDbSymbolTable
 70
     6
  0
LAYER
  5
14
330
2
100
AcDbSymbolTableRecord
100
AcDbLayerTableRecord
  2
0
 70
     0
 62
     7
  6
CONTINUOUS
  0
LAYER
  5
B1
330
2
100
AcDbSymbolTableRecord
100
AcDbLayerTableRecord
  2
DIM
 70
     0
 62
     3
  6
CONTINUOUS
  0
LAYER
  5
B2
330
2
100
AcDbSymbolTableRecord
100
AcDbLayerTableRecord
  2
DRAW
 70
     0
 62
     7
  6
CONTINUOUS
  0
LAYER
  5
B3
330
2
100
AcDbSymbolTableRecord
100
AcDbLayerTableRecord
  2
CARTOUCHE
 70
     0
 62
     7
  6
CONTINUOUS
  0
LAYER
  5
B4
330
2
100
AcDbSymbolTableRecord
100
AcDbLayerTableRecord
  2
DRAW-TEXT
 70
     0
 62
     1
  6
CONTINUOUS
  0
LAYER
  5
29B1
330
2
100
AcDbSymbolTableRecord
100
AcDbLayerTableRecord
  2
DEFPOINTS
 70
     0
 62
     7
  6
CONTINUOUS
  0
ENDTAB
  0
TABLE
  2
STYLE
  5
3
330
0
100
AcDbSymbolTable
 70
     5
  0
STYLE
  5
17
330
3
100
AcDbSymbolTableRecord
100
AcDbTextStyleTableRecord
  2
STANDARD
 70
     0
 40
0.0
 41
1.0
 50
0.0
 71
     0
 42
0.2
  3
txt
  4

  0
STYLE
  5
BE
330
3
100
AcDbSymbolTableRecord
100
AcDbTextStyleTableRecord
  2
FINDER
 70
     0
 40
1.8
 41
1.0
 50
0.0
 71
     0
 42
0.2
  3
ARIAL.TTF
  4

1001
ACAD
1000
Arial
1071
       34
  0
STYLE
  5
361E
330
3
100
AcDbSymbolTableRecord
100
AcDbTextStyleTableRecord
  2
TSTYLE5
 70
     0
 40
1.299999952316284
 41
0.95
 50
0.0
 71
     0
 42
0.2
  3
ARIAL.TTF
  4

1001
ACAD
1000
Arial
1071
    32000
  0
STYLE
  5
361F
330
3
100
AcDbSymbolTableRecord
100
AcDbTextStyleTableRecord
  2
TSTYLE6
 70
     0
 40
2.0
 41
0.95
 50
0.0
 71
     0
 42
0.2
  3
ARIAL.TTF
  4

1001
ACAD
1000
Arial
1071
    32000
  0
STYLE
  5
3D3F
330
3
100
AcDbSymbolTableRecord
100
AcDbTextStyleTableRecord
  2
TSTYLE7
 70
     0
 40
2.0
 41
0.95
 50
0.0
 71
     0
 42
0.2
  3
ARIAL.TTF
  4

1001
ACAD
1000
Arial
1071
    32000
  0
ENDTAB
  0
TABLE
  2
VIEW
  5
5
330
0
100
AcDbSymbolTable
 70
     0
  0
ENDTAB
  0
TABLE
  2
UCS
  5
6
330
0
100
AcDbSymbolTable
 70
     0
  0
ENDTAB
  0
TABLE
  2
APPID
  5
8
330
0
100
AcDbSymbolTable
 70
     1
  0
APPID
  5
16
330
8
100
AcDbSymbolTableRecord
100
AcDbRegAppTableRecord
  2
ACAD
 70
     0
  0
ENDTAB
  0
TABLE
  2
DIMSTYLE
  5
9
330
0
100
AcDbSymbolTable
 70
     5
  0
DIMSTYLE
105
18
330
9
100
AcDbSymbolTableRecord
100
AcDbDimStyleTableRecord
  2
STANDARD
 70
     0
  3

  4

  5

  6

  7

 40
1.0
 41
0.18
 42
0.0625
 43
0.38
 44
0.18
 45
0.0
 46
0.0
 47
0.0
 48
0.0
140
0.18
141
0.09
142
0.0
143
25.4
144
1.0
145
0.0
146
1.0
147
0.09
 71
     0
 72
     0
 73
     1
 74
     1
 75
     0
 76
     0
 77
     0
 78
     0
170
     0
171
     2
172
     0
173
     0
174
     0
175
     0
176
     0
177
     0
178
     0
270
     2
271
     4
272
     4
273
     2
274
     2
340
17
275
     0
280
     0
281
     0
282
     0
283
     1
284
     0
285
     0
286
     0
287
     3
288
     0
  0
DIMSTYLE
105
D1
330
9
100
AcDbSymbolTableRecord
100
AcDbDimStyleTableRecord
  2
FINDER
 70
     0
  3

  4

  5

  6

  7

 40
1.0
 41
2.5
 42
2.0
 43
6.5
 44
1.25
 45
0.0
 46
0.0
 47
0.0
 48
0.0
140
3.5
141
2.5
142
0.0
143
0.03937
144
1.0
145
0.0
146
1.0
147
0.625
 71
     0
 72
     0
 73
     0
 74
     0
 75
     0
 76
     0
 77
     1
 78
     8
170
     0
171
     3
172
     1
173
     0
174
     0
175
     0
176
   256
177
   256
178
     2
270
     2
271
     2
272
     2
273
     2
274
     3
340
BE
275
     0
280
     0
281
     0
282
     0
283
     0
284
     8
285
     0
286
     0
287
     3
288
     0
  0
DIMSTYLE
105
3620
102
{ACAD_REACTORS
330
40F3
330
3F60
330
3F64
330
3F65
330
3FAB
330
409D
330
40AE
330
40B5
330
40B6
102
}
330
9
100
AcDbSymbolTableRecord
100
AcDbDimStyleTableRecord
  2
DSTYLE1
 70
     0
  3

  4

  5

  6

  7

 40
1.0
 41
2.0
 42
0.3000000116507338
 43
0.38
 44
0.6666666666666666
 45
0.0
 46
0.0
 47
0.0
 48
0.0
140
2.0
141
0.09
142
0.0
143
25.4
144
1.0
145
0.7
146
0.6
147
0.0
 71
     0
 72
     0
 73
     0
 74
     0
 75
     0
 76
     0
 77
     0
 78
     8
170
     0
171
     2
172
     0
173
     0
174
     1
175
     0
176
     0
177
     0
178
     2
270
     2
271
     2
272
     4
273
     2
274
     2
340
361F
275
     0
280
     0
281
     0
282
     0
283
     1
284
     0
285
     0
286
     0
287
     3
288
     0
  0
DIMSTYLE
105
3621
102
{ACAD_REACTORS
330
3F5F
330
3F61
330
409C
102
}
330
9
100
AcDbSymbolTableRecord
100
AcDbDimStyleTableRecord
  2
DSTYLE2
 70
     0
  3

  4

  5

  6

  7

 40
1.0
 41
2.0
 42
0.300000027082642
 43
0.38
 44
0.6666666666666666
 45
0.0
 46
0.0
 47
0.0
 48
0.0
140
2.0
141
0.09
142
0.0
143
25.4
144
1.0
145
0.7
146
0.6
147
0.0
 71
     0
 72
     0
 73
     0
 74
     0
 75
     0
 76
     0
 77
     0
 78
     8
170
     0
171
     2
172
     0
173
     0
174
     1
175
     0
176
     0
177
     0
178
     2
270
     2
271
     3
272
     4
273
     2
274
     2
340
361F
275
     0
280
     0
281
     0
282
     0
283
     1
284
     0
285
     0
286
     0
287
     3
288
     0
  0
DIMSTYLE
105
3622
102
{ACAD_REACTORS
330
3F5E
330
3FAC
102
}
330
9
100
AcDbSymbolTableRecord
100
AcDbDimStyleTableRecord
  2
DSTYLE3
 70
     0
  3

  4

  5

  6

  7

 40
1.0
 41
2.0
 42
0.3000000157743585
 43
0.38
 44
0.6666666666666666
 45
0.0
 46
0.0
 47
0.0
 48
0.0
140
2.0
141
0.09
142
0.0
143
25.4
144
1.0
145
0.7
146
0.6
147
0.0
 71
     0
 72
     0
 73
     0
 74
     0
 75
     0
 76
     0
 77
     0
 78
     8
170
     0
171
     2
172
     0
173
     0
174
     0
175
     0
176
     0
177
     0
178
     2
270
     2
271
     2
272
     4
273
     2
274
     2
340
361F
275
     0
280
     0
281
     0
282
     0
283
     1
284
     0
285
     0
286
     0
287
     3
288
     0
  0
ENDTAB
  0
TABLE
  2
BLOCK_RECORD
  5
1
330
0
100
AcDbSymbolTable
 70
    74
  0
BLOCK_RECORD
  5
A
102
{ACAD_XDICTIONARY
360
44E1
102
}
330
1
100
AcDbSymbolTableRecord
100
AcDbBlockTableRecord
  2
*MODEL_SPACE
  0
BLOCK_RECORD
  5
B
102
{ACAD_XDICTIONARY
360
44E3
102
}
330
1
100
AcDbSymbolTableRecord
100
AcDbBlockTableRecord
  2
*PAPER_SPACE
  0
BLOCK_RECORD
  5
3283
330
1
100
AcDbSymbolTableRecord
100
AcDbBlockTableRecord
  2
*X6
  0
BLOCK_RECORD
  5
3314
330
1
100
AcDbSymbolTableRecord
100
AcDbBlockTableRecord
  2
*X7
  0
BLOCK_RECORD
  5
3334
330
1
100
AcDbSymbolTableRecord
100
AcDbBlockTableRecord
  2
*X8
  0
BLOCK_RECORD
  5
3341
330
1
100
AcDbSymbolTableRecord
100
AcDbBlockTableRecord
  2
*X9
  0
BLOCK_RECORD
  5
3358
330
1
100
AcDbSymbolTableRecord
100
AcDbBlockTableRecord
  2
*X10
  0
BLOCK_RECORD
  5
3382
330
1
100
AcDbSymbolTableRecord
100
AcDbBlockTableRecord
  2
*X11
  0
BLOCK_RECORD
  5
33B1
330
1
100
AcDbSymbolTableRecord
100
AcDbBlockTableRecord
  2
*X12
  0
BLOCK_RECORD
  5
33E4
330
1
100
AcDbSymbolTableRecord
100
AcDbBlockTableRecord
  2
*X13
  0
BLOCK_RECORD
  5
34C1
330
1
100
AcDbSymbolTableRecord
100
AcDbBlockTableRecord
  2
B
  0
BLOCK_RECORD
  5
34D6
330
1
100
AcDbSymbolTableRecord
100
AcDbBlockTableRecord
  2
D
  0
BLOCK_RECORD
  5
3551
330
1
100
AcDbSymbolTableRecord
100
AcDbBlockTableRecord
  2
D1
  0
BLOCK_RECORD
  5
356E
330
1
100
AcDbSymbolTableRecord
100
AcDbBlockTableRecord
  2
NON_RELAZIONATI
  0
BLOCK_RECORD
  5
4178
330
1
100
AcDbSymbolTableRecord
100
AcDbBlockTableRecord
  2
*D60
  0
BLOCK_RECORD
  5
4184
330
1
100
AcDbSymbolTableRecord
100
AcDbBlockTableRecord
  2
*D61
  0
BLOCK_RECORD
  5
4191
330
1
100
AcDbSymbolTableRecord
100
AcDbBlockTableRecord
  2
*D62
  0
BLOCK_RECORD
  5
419D
330
1
100
AcDbSymbolTableRecord
100
AcDbBlockTableRecord
  2
*D63
  0
BLOCK_RECORD
  5
41A9
330
1
100
AcDbSymbolTableRecord
100
AcDbBlockTableRecord
  2
*D64
  0
BLOCK_RECORD
  5
41B5
330
1
100
AcDbSymbolTableRecord
100
AcDbBlockTableRecord
  2
*D65
  0
BLOCK_RECORD
  5
41C1
330
1
100
AcDbSymbolTableRecord
100
AcDbBlockTableRecord
  2
*D66
  0
BLOCK_RECORD
  5
41CD
330
1
100
AcDbSymbolTableRecord
100
AcDbBlockTableRecord
  2
*D67
  0
BLOCK_RECORD
  5
41D9
330
1
100
AcDbSymbolTableRecord
100
AcDbBlockTableRecord
  2
*D68
  0
BLOCK_RECORD
  5
41E6
330
1
100
AcDbSymbolTableRecord
100
AcDbBlockTableRecord
  2
*D69
  0
BLOCK_RECORD
  5
41F2
330
1
100
AcDbSymbolTableRecord
100
AcDbBlockTableRecord
  2
*D70
  0
BLOCK_RECORD
  5
41FE
330
1
100
AcDbSymbolTableRecord
100
AcDbBlockTableRecord
  2
*D71
  0
BLOCK_RECORD
  5
420A
330
1
100
AcDbSymbolTableRecord
100
AcDbBlockTableRecord
  2
*D72
  0
BLOCK_RECORD
  5
4217
330
1
100
AcDbSymbolTableRecord
100
AcDbBlockTableRecord
  2
*D73
  0
ENDTAB
  0
ENDSEC
  0
SECTION
  2
BLOCKS
  0
BLOCK
  5
D
330
A
100
AcDbEntity
  8
0
100
AcDbBlockBegin
  2
*MODEL_SPACE
 70
     0
 10
0.0
 20
0.0
 30
0.0
  3
*MODEL_SPACE
  1

  0
ENDBLK
  5
E
330
A
100
AcDbEntity
  8
0
100
AcDbBlockEnd
  0
BLOCK
  5
F
330
B
100
AcDbEntity
 67
     1
  8
0
100
AcDbBlockBegin
  2
*PAPER_SPACE
 70
     0
 10
0.0
 20
0.0
 30
0.0
  3
*PAPER_SPACE
  1

  0
ENDBLK
  5
10
330
B
100
AcDbEntity
 67
     1
  8
0
100
AcDbBlockEnd
  0
BLOCK
  5
3312
330
3283
100
AcDbEntity
  8
0
100
AcDbBlockBegin
  2
*X6
 70
     1
 10
0.0
 20
0.0
 30
0.0
  3
*X6
  1

  0
LINE
  5
3284
330
3283
100
AcDbEntity
  8
0
  6
CONTINUOUS
 62
     0
100
AcDbLine
 10
14.989467
 20
20.308874
 30
0.0
 11
15.516193
 21
20.83559999999999
 31
0.0
  0
LINE
  5
3285
330
3283
100
AcDbEntity
  8
0
  6
CONTINUOUS
 62
     0
100
AcDbLine
 10
14.112517
 20
19.714767
 30
0.0
 11
16.11029999999999
 21
21.71254999999999
 31
0.0
  0
LINE
  5
3286
330
3283
100
AcDbEntity
  8
0
  6
CONTINUOUS
 62
     0
100
AcDbLine
 10
13.596595
 20
19.481687
 30
0.0
 11
16.34338
 21
22.228473
 31
0.0
  0
LINE
  5
3287
330
3283
100
AcDbEntity
  8
0
  6
CONTINUOUS
 62
     0
100
AcDbLine
 10
13.174894
 20
19.342829
 30
0.0
 11
16.482238
 21
22.650174
 31
0.0
  0
LINE
  5
3288
330
3283
100
AcDbEntity
  8
0
  6
CONTINUOUS
 62
     0
100
AcDbLine
 10
12.804844
 20
19.25562199999999
 30
0.0
 11
16.569445
 21
23.020223
 31
0.0
  0
LINE
  5
3289
330
3283
100
AcDbEntity
  8
0
  6
CONTINUOUS
 62
     0
100
AcDbLine
 10
14.79535199999999
 20
21.528973
 30
0.0
 11
16.62213299999999
 21
23.355754
 31
0.0
  0
LINE
  5
328A
330
3283
100
AcDbEntity
  8
0
  6
CONTINUOUS
 62
     0
100
AcDbLine
 10
12.46931299999999
 20
19.202934
 30
0.0
 11
14.296095
 21
21.029715
 31
0.0
  0
LINE
  5
328B
330
3283
100
AcDbEntity
  8
0
  6
CONTINUOUS
 62
     0
100
AcDbLine
 10
15.29353599999999
 20
22.309999
 30
0.0
 11
16.649275
 21
23.665738
 31
0.0
  0
LINE
  5
328C
330
3283
100
AcDbEntity
  8
0
  6
CONTINUOUS
 62
     0
100
AcDbLine
 10
12.159329
 20
19.17579299999999
 30
0.0
 11
13.515068
 21
20.531532
 31
0.0
  0
LINE
  5
328D
330
3283
100
AcDbEntity
  8
0
  6
CONTINUOUS
 62
     0
100
AcDbLine
 10
15.479088
 20
22.77839399999999
 30
0.0
 11
16.656273
 21
23.955579
 31
0.0
  0
LINE
  5
328E
330
3283
100
AcDbEntity
  8
0
  6
CONTINUOUS
 62
     0
100
AcDbLine
 10
11.869488
 20
19.168795
 30
0.0
 11
13.046674
 21
20.34597999999999
 31
0.0
  0
LINE
  5
328F
330
3283
100
AcDbEntity
  8
0
  6
CONTINUOUS
 62
     0
100
AcDbLine
 10
15.580082
 20
23.16223099999999
 30
0.0
 11
16.646682
 21
24.22883099999999
 31
0.0
  0
LINE
  5
3290
330
3283
100
AcDbEntity
  8
0
  6
CONTINUOUS
 62
     0
100
AcDbLine
 10
11.59623599999999
 20
19.178385
 30
0.0
 11
12.662836
 21
20.24498499999999
 31
0.0
  0
LINE
  5
3291
330
3283
100
AcDbEntity
  8
0
  6
CONTINUOUS
 62
     0
100
AcDbLine
 10
12.654531
 20
20.51952299999999
 30
0.0
 11
13.323223
 21
21.188215
 31
0.0
  0
LINE
  5
3292
330
3283
100
AcDbEntity
  8
0
  6
CONTINUOUS
 62
     0
100
AcDbLine
 10
15.634125
 20
23.499117
 30
0.0
 11
16.62298599999999
 21
24.48797799999999
 31
0.0
  0
LINE
  5
3293
330
3283
100
AcDbEntity
  8
0
  6
CONTINUOUS
 62
     0
100
AcDbLine
 10
11.33709
 20
19.202082
 30
0.0
 11
12.325951
 21
20.190943
 31
0.0
  0
LINE
  5
3294
330
3283
100
AcDbEntity
  8
0
  6
CONTINUOUS
 62
     0
100
AcDbLine
 10
12.404347
 20
20.552181
 30
0.0
 11
13.323223
 21
21.471057
 31
0.0
  0
LINE
  5
3295
330
3283
100
AcDbEntity
  8
0
  6
CONTINUOUS
 62
     0
100
AcDbLine
 10
15.656425
 20
23.804259
 30
0.0
 11
16.586997
 21
24.734832
 31
0.0
  0
LINE
  5
3296
330
3283
100
AcDbEntity
  8
0
  6
CONTINUOUS
 62
     0
100
AcDbLine
 10
11.090236
 20
19.23807
 30
0.0
 11
12.020808
 21
20.16864299999999
 31
0.0
  0
LINE
  5
3297
330
3283
100
AcDbEntity
  8
0
  6
CONTINUOUS
 62
     0
100
AcDbLine
 10
12.212553
 20
20.64322999999999
 30
0.0
 11
13.323223
 21
21.7539
 31
0.0
  0
LINE
  5
3298
330
3283
100
AcDbEntity
  8
0
  6
CONTINUOUS
 62
     0
100
AcDbLine
 10
15.65496099999999
 20
24.085639
 30
0.0
 11
16.540085
 21
24.970762
 31
0.0
  0
LINE
  5
3299
330
3283
100
AcDbEntity
  8
0
  6
CONTINUOUS
 62
     0
100
AcDbLine
 10
10.854306
 20
19.284983
 30
0.0
 11
11.73942899999999
 21
20.170106
 31
0.0
  0
LINE
  5
329A
330
3283
100
AcDbEntity
  8
0
  6
CONTINUOUS
 62
     0
100
AcDbLine
 10
12.063213
 20
20.776733
 30
0.0
 11
13.323223
 21
22.03674299999999
 31
0.0
  0
LINE
  5
329B
330
3283
100
AcDbEntity
  8
0
  6
CONTINUOUS
 62
     0
100
AcDbLine
 10
15.634541
 20
24.34806
 30
0.0
 11
16.48330599999999
 21
25.196826
 31
0.0
  0
LINE
  5
329C
330
3283
100
AcDbEntity
  8
0
  6
CONTINUOUS
 62
     0
100
AcDbLine
 10
10.628242
 20
19.34176099999999
 30
0.0
 11
11.477007
 21
20.190527
 31
0.0
  0
LINE
  5
329D
330
3283
100
AcDbEntity
  8
0
  6
CONTINUOUS
 62
     0
100
AcDbLine
 10
11.920447
 20
20.916809
 30
0.0
 11
13.323223
 21
22.319586
 31
0.0
  0
LINE
  5
329E
330
3283
100
AcDbEntity
  8
0
  6
CONTINUOUS
 62
     0
100
AcDbLine
 10
15.598315
 20
24.594678
 30
0.0
 11
16.41749599999999
 21
25.413858
 31
0.0
  0
LINE
  5
329F
330
3283
100
AcDbEntity
  8
0
  6
CONTINUOUS
 62
     0
100
AcDbLine
 10
10.41120899999999
 20
19.407572
 30
0.0
 11
11.23039
 21
20.22675199999999
 31
0.0
  0
LINE
  5
32A0
330
3283
100
AcDbEntity
  8
0
  6
CONTINUOUS
 62
     0
100
AcDbLine
 10
11.77768
 20
21.056886
 30
0.0
 11
13.323223
 21
22.60242799999999
 31
0.0
  0
LINE
  5
32A1
330
3283
100
AcDbEntity
  8
0
  6
CONTINUOUS
 62
     0
100
AcDbLine
 10
15.548478
 20
24.827684
 30
0.0
 11
16.34332099999999
 21
25.622526
 31
0.0
  0
LINE
  5
32A2
330
3283
100
AcDbEntity
  8
0
  6
CONTINUOUS
 62
     0
100
AcDbLine
 10
10.202541
 20
19.481747
 30
0.0
 11
10.997384
 21
20.276589
 31
0.0
  0
LINE
  5
32A3
330
3283
100
AcDbEntity
  8
0
  6
CONTINUOUS
 62
     0
100
AcDbLine
 10
12.362923
 20
21.924971
 30
0.0
 11
13.323223
 21
22.885271
 31
0.0
  0
LINE
  5
32A4
330
3283
100
AcDbEntity
  8
0
  6
CONTINUOUS
 62
     0
100
AcDbLine
 10
11.634914
 20
21.19696199999999
 30
0.0
 11
12.307877
 21
21.869925
 31
0.0
  0
LINE
  5
32A5
330
3283
100
AcDbEntity
  8
0
  6
CONTINUOUS
 62
     0
100
AcDbLine
 10
15.486619
 20
25.048667
 30
0.0
 11
16.26132099999999
 21
25.823369
 31
0.0
  0
LINE
  5
32A6
330
3283
100
AcDbEntity
  8
0
  6
CONTINUOUS
 62
     0
100
AcDbLine
 10
10.001699
 20
19.56374699999999
 30
0.0
 11
10.77640099999999
 21
20.338449
 31
0.0
  0
LINE
  5
32A7
330
3283
100
AcDbEntity
  8
0
  6
CONTINUOUS
 62
     0
100
AcDbLine
 10
12.362923
 20
22.207814
 30
0.0
 11
13.323223
 21
23.168114
 31
0.0
  0
LINE
  5
32A8
330
3283
100
AcDbEntity
  8
0
  6
CONTINUOUS
 62
     0
100
AcDbLine
 10
11.49214799999999
 20
21.33703899999999
 30
0.0
 11
12.172228
 21
22.017119
 31
0.0
  0
LINE
  5
32A9
330
3283
100
AcDbEntity
  8
0
  6
CONTINUOUS
 62
     0
100
AcDbLine
 10
15.41392
 20
25.25881099999999
 30
0.0
 11
16.171934
 21
26.016825
 31
0.0
  0
LINE
  5
32AA
330
3283
100
AcDbEntity
  8
0
  6
CONTINUOUS
 62
     0
100
AcDbLine
 10
9.808242999999999
 20
19.65313399999999
 30
0.0
 11
10.566257
 21
20.411147
 31
0.0
  0
LINE
  5
32AB
330
3283
100
AcDbEntity
  8
0
  6
CONTINUOUS
 62
     0
100
AcDbLine
 10
12.362923
 20
22.490656
 30
0.0
 11
13.323223
 21
23.450956
 31
0.0
  0
LINE
  5
32AC
330
3283
100
AcDbEntity
  8
0
  6
CONTINUOUS
 62
     0
100
AcDbLine
 10
14.38066
 20
24.508394
 30
0.0
 11
14.903943
 21
25.031677
 31
0.0
  0
LINE
  5
32AD
330
3283
100
AcDbEntity
  8
0
  6
CONTINUOUS
 62
     0
100
AcDbLine
 10
11.349382
 20
21.47711499999999
 30
0.0
 11
12.03658
 21
22.16431299999999
 31
0.0
  0
LINE
  5
32AE
330
3283
100
AcDbEntity
  8
0
  6
CONTINUOUS
 62
     0
100
AcDbLine
 10
15.33128299999999
 20
25.459017
 30
0.0
 11
16.07551799999999
 21
26.203251
 31
0.0
  0
LINE
  5
32AF
330
3283
100
AcDbEntity
  8
0
  6
CONTINUOUS
 62
     0
100
AcDbLine
 10
9.621817
 20
19.74954999999999
 30
0.0
 11
10.36605099999999
 21
20.49378399999999
 31
0.0
  0
LINE
  5
32B0
330
3283
100
AcDbEntity
  8
0
  6
CONTINUOUS
 62
     0
100
AcDbLine
 10
12.362923
 20
22.77349899999999
 30
0.0
 11
13.323223
 21
23.73379899999999
 31
0.0
  0
LINE
  5
32B1
330
3283
100
AcDbEntity
  8
0
  6
CONTINUOUS
 62
     0
100
AcDbLine
 10
14.097817
 20
24.508394
 30
0.0
 11
14.840413
 21
25.25098999999999
 31
0.0
  0
LINE
  5
32B2
330
3283
100
AcDbEntity
  8
0
  6
CONTINUOUS
 62
     0
100
AcDbLine
 10
11.206616
 20
21.617192
 30
0.0
 11
11.900931
 21
22.311507
 31
0.0
  0
LINE
  5
32B3
330
3283
100
AcDbEntity
  8
0
  6
CONTINUOUS
 62
     0
100
AcDbLine
 10
15.2394
 20
25.649976
 30
0.0
 11
15.972362
 21
26.382939
 31
0.0
  0
LINE
  5
32B4
330
3283
100
AcDbEntity
  8
0
  6
CONTINUOUS
 62
     0
100
AcDbLine
 10
9.442128999999999
 20
19.852705
 30
0.0
 11
10.175091
 21
20.58566799999999
 31
0.0
  0
LINE
  5
32B5
330
3283
100
AcDbEntity
  8
0
  6
CONTINUOUS
 62
     0
100
AcDbLine
 10
12.362923
 20
23.056342
 30
0.0
 11
13.323223
 21
24.016642
 31
0.0
  0
LINE
  5
32B6
330
3283
100
AcDbEntity
  8
0
  6
CONTINUOUS
 62
     0
100
AcDbLine
 10
13.814975
 20
24.508394
 30
0.0
 11
14.709087
 21
25.402506
 31
0.0
  0
LINE
  5
32B7
330
3283
100
AcDbEntity
  8
0
  6
CONTINUOUS
 62
     0
100
AcDbLine
 10
11.063849
 20
21.757268
 30
0.0
 11
11.765282
 21
22.458701
 31
0.0
  0
LINE
  5
32B8
330
3283
100
AcDbEntity
  8
0
  6
CONTINUOUS
 62
     0
100
AcDbLine
 10
15.13880499999999
 20
25.832223
 30
0.0
 11
15.86270299999999
 21
26.556122
 31
0.0
  0
LINE
  5
32B9
330
3283
100
AcDbEntity
  8
0
  6
CONTINUOUS
 62
     0
100
AcDbLine
 10
9.268945
 20
19.962364
 30
0.0
 11
9.992843999999999
 21
20.686263
 31
0.0
  0
LINE
  5
32BA
330
3283
100
AcDbEntity
  8
0
  6
CONTINUOUS
 62
     0
100
AcDbLine
 10
12.362923
 20
23.339185
 30
0.0
 11
13.323223
 21
24.299485
 31
0.0
  0
LINE
  5
32BB
330
3283
100
AcDbEntity
  8
0
  6
CONTINUOUS
 62
     0
100
AcDbLine
 10
13.532132
 20
24.508394
 30
0.0
 11
14.51689299999999
 21
25.493154
 31
0.0
  0
LINE
  5
32BC
330
3283
100
AcDbEntity
  8
0
  6
CONTINUOUS
 62
     0
100
AcDbLine
 10
10.921083
 20
21.897345
 30
0.0
 11
11.62963399999999
 21
22.605895
 31
0.0
  0
LINE
  5
32BD
330
3283
100
AcDbEntity
  8
0
  6
CONTINUOUS
 62
     0
100
AcDbLine
 10
15.029907
 20
26.006168
 30
0.0
 11
15.74672699999999
 21
26.722988
 31
0.0
  0
LINE
  5
32BE
330
3283
100
AcDbEntity
  8
0
  6
CONTINUOUS
 62
     0
100
AcDbLine
 10
9.102078999999999
 20
20.078341
 30
0.0
 11
9.818899
 21
20.795161
 31
0.0
  0
LINE
  5
32BF
330
3283
100
AcDbEntity
  8
0
  6
CONTINUOUS
 62
     0
100
AcDbLine
 10
12.362923
 20
23.622027
 30
0.0
 11
14.244239
 21
25.503344
 31
0.0
  0
LINE
  5
32C0
330
3283
100
AcDbEntity
  8
0
  6
CONTINUOUS
 62
     0
100
AcDbLine
 10
10.77831699999999
 20
22.03742099999999
 30
0.0
 11
11.49398499999999
 21
22.753089
 31
0.0
  0
LINE
  5
32C1
330
3283
100
AcDbEntity
  8
0
  6
CONTINUOUS
 62
     0
100
AcDbLine
 10
14.913014
 20
26.172119
 30
0.0
 11
15.62457699999999
 21
26.88368099999999
 31
0.0
  0
LINE
  5
32C2
330
3283
100
AcDbEntity
  8
0
  6
CONTINUOUS
 62
     0
100
AcDbLine
 10
8.941385999999999
 20
20.200491
 30
0.0
 11
9.652949000000001
 21
20.91205299999999
 31
0.0
  0
LINE
  5
32C3
330
3283
100
AcDbEntity
  8
0
  6
CONTINUOUS
 62
     0
100
AcDbLine
 10
12.362923
 20
23.90487
 30
0.0
 11
13.96139699999999
 21
25.503344
 31
0.0
  0
LINE
  5
32C4
330
3283
100
AcDbEntity
  8
0
  6
CONTINUOUS
 62
     0
100
AcDbLine
 10
10.635551
 20
22.17749799999999
 30
0.0
 11
11.35833599999999
 21
22.90028299999999
 31
0.0
  0
LINE
  5
32C5
330
3283
100
AcDbEntity
  8
0
  6
CONTINUOUS
 62
     0
100
AcDbLine
 10
14.78835
 20
26.33029699999999
 30
0.0
 11
15.49636
 21
27.038307
 31
0.0
  0
LINE
  5
32C6
330
3283
100
AcDbEntity
  8
0
  6
CONTINUOUS
 62
     0
100
AcDbLine
 10
8.786760000000001
 20
20.328707
 30
0.0
 11
9.494771
 21
21.036718
 31
0.0
  0
LINE
  5
32C7
330
3283
100
AcDbEntity
  8
0
  6
CONTINUOUS
 62
     0
100
AcDbLine
 10
12.362923
 20
24.187713
 30
0.0
 11
13.678554
 21
25.503344
 31
0.0
  0
LINE
  5
32C8
330
3283
100
AcDbEntity
  8
0
  6
CONTINUOUS
 62
     0
100
AcDbLine
 10
10.492785
 20
22.317574
 30
0.0
 11
11.222688
 21
23.047477
 31
0.0
  0
LINE
  5
32C9
330
3283
100
AcDbEntity
  8
0
  6
CONTINUOUS
 62
     0
100
AcDbLine
 10
14.65606
 20
26.48085
 30
0.0
 11
15.362148
 21
27.186938
 31
0.0
  0
LINE
  5
32CA
330
3283
100
AcDbEntity
  8
0
  6
CONTINUOUS
 62
     0
100
AcDbLine
 10
8.63813
 20
20.46291899999999
 30
0.0
 11
9.344217999999999
 21
21.16900799999999
 31
0.0
  0
LINE
  5
32CB
330
3283
100
AcDbEntity
  8
0
  6
CONTINUOUS
 62
     0
100
AcDbLine
 10
12.362923
 20
24.47055499999999
 30
0.0
 11
13.39571099999999
 21
25.503344
 31
0.0
  0
LINE
  5
32CC
330
3283
100
AcDbEntity
  8
0
  6
CONTINUOUS
 62
     0
100
AcDbLine
 10
10.35001799999999
 20
22.457651
 30
0.0
 11
11.087039
 21
23.194672
 31
0.0
  0
LINE
  5
32CD
330
3283
100
AcDbEntity
  8
0
  6
CONTINUOUS
 62
     0
100
AcDbLine
 10
14.51622399999999
 20
26.623856
 30
0.0
 11
15.221979
 21
27.329612
 31
0.0
  0
LINE
  5
32CE
330
3283
100
AcDbEntity
  8
0
  6
CONTINUOUS
 62
     0
100
AcDbLine
 10
8.495455999999999
 20
20.603088
 30
0.0
 11
9.201211
 21
21.308844
 31
0.0
  0
LINE
  5
32CF
330
3283
100
AcDbEntity
  8
0
  6
CONTINUOUS
 62
     0
100
AcDbLine
 10
11.020368
 20
23.410844
 30
0.0
 11
11.41387299999999
 21
23.804348
 31
0.0
  0
LINE
  5
32D0
330
3283
100
AcDbEntity
  8
0
  6
CONTINUOUS
 62
     0
100
AcDbLine
 10
12.362923
 20
24.753398
 30
0.0
 11
13.323223
 21
25.713698
 31
0.0
  0
LINE
  5
32D1
330
3283
100
AcDbEntity
  8
0
  6
CONTINUOUS
 62
     0
100
AcDbLine
 10
10.20725199999999
 20
22.597727
 30
0.0
 11
10.951391
 21
23.341866
 31
0.0
  0
LINE
  5
32D2
330
3283
100
AcDbEntity
  8
0
  6
CONTINUOUS
 62
     0
100
AcDbLine
 10
14.368854
 20
26.75933
 30
0.0
 11
15.07586
 21
27.466336
 31
0.0
  0
LINE
  5
32D3
330
3283
100
AcDbEntity
  8
0
  6
CONTINUOUS
 62
     0
100
AcDbLine
 10
8.358731999999999
 20
20.749207
 30
0.0
 11
9.065737999999999
 21
21.456213
 31
0.0
  0
LINE
  5
32D4
330
3283
100
AcDbEntity
  8
0
  6
CONTINUOUS
 62
     0
100
AcDbLine
 10
12.362923
 20
25.036241
 30
0.0
 11
13.323223
 21
25.996541
 31
0.0
  0
LINE
  5
32D5
330
3283
100
AcDbEntity
  8
0
  6
CONTINUOUS
 62
     0
100
AcDbLine
 10
10.064486
 20
22.737804
 30
0.0
 11
11.41387299999999
 21
24.087191
 31
0.0
  0
LINE
  5
32D6
330
3283
100
AcDbEntity
  8
0
  6
CONTINUOUS
 62
     0
100
AcDbLine
 10
14.213901
 20
26.887219
 30
0.0
 11
14.923766
 21
27.597084
 31
0.0
  0
LINE
  5
32D7
330
3283
100
AcDbEntity
  8
0
  6
CONTINUOUS
 62
     0
100
AcDbLine
 10
8.227983
 20
20.901301
 30
0.0
 11
8.937847999999998
 21
21.611166
 31
0.0
  0
LINE
  5
32D8
330
3283
100
AcDbEntity
  8
0
  6
CONTINUOUS
 62
     0
100
AcDbLine
 10
12.362923
 20
25.319084
 30
0.0
 11
13.323223
 21
26.279384
 31
0.0
  0
LINE
  5
32D9
330
3283
100
AcDbEntity
  8
0
  6
CONTINUOUS
 62
     0
100
AcDbLine
 10
9.92172
 20
22.87787999999999
 30
0.0
 11
11.41387299999999
 21
24.370034
 31
0.0
  0
LINE
  5
32DA
330
3283
100
AcDbEntity
  8
0
  6
CONTINUOUS
 62
     0
100
AcDbLine
 10
14.05124599999999
 20
27.007407
 30
0.0
 11
14.76563999999999
 21
27.7218
 31
0.0
  0
LINE
  5
32DB
330
3283
100
AcDbEntity
  8
0
  6
CONTINUOUS
 62
     0
100
AcDbLine
 10
8.103267
 20
21.059428
 30
0.0
 11
8.81766
 21
21.77382099999999
 31
0.0
  0
LINE
  5
32DC
330
3283
100
AcDbEntity
  8
0
  6
CONTINUOUS
 62
     0
100
AcDbLine
 10
12.362923
 20
25.601926
 30
0.0
 11
13.323223
 21
26.562226
 31
0.0
  0
LINE
  5
32DD
330
3283
100
AcDbEntity
  8
0
  6
CONTINUOUS
 62
     0
100
AcDbLine
 10
9.778953999999998
 20
23.017957
 30
0.0
 11
11.41387299999999
 21
24.652876
 31
0.0
  0
LINE
  5
32DE
330
3283
100
AcDbEntity
  8
0
  6
CONTINUOUS
 62
     0
100
AcDbLine
 10
13.880701
 20
27.119704
 30
0.0
 11
14.601389
 21
27.840392
 31
0.0
  0
LINE
  5
32DF
330
3283
100
AcDbEntity
  8
0
  6
CONTINUOUS
 62
     0
100
AcDbLine
 10
7.984675
 20
21.223678
 30
0.0
 11
8.705363999999999
 21
21.944367
 31
0.0
  0
LINE
  5
32E0
330
3283
100
AcDbEntity
  8
0
  6
CONTINUOUS
 62
     0
100
AcDbLine
 10
12.362923
 20
25.88476899999999
 30
0.0
 11
13.323223
 21
26.845069
 31
0.0
  0
LINE
  5
32E1
330
3283
100
AcDbEntity
  8
0
  6
CONTINUOUS
 62
     0
100
AcDbLine
 10
9.636186999999999
 20
23.158033
 30
0.0
 11
11.41387299999999
 21
24.935719
 31
0.0
  0
LINE
  5
32E2
330
3283
100
AcDbEntity
  8
0
  6
CONTINUOUS
 62
     0
100
AcDbLine
 10
13.701993
 20
27.223839
 30
0.0
 11
14.430886
 21
27.952732
 31
0.0
  0
LINE
  5
32E3
330
3283
100
AcDbEntity
  8
0
  6
CONTINUOUS
 62
     0
100
AcDbLine
 10
7.872335
 20
21.39418099999999
 30
0.0
 11
8.601228
 21
22.12307399999999
 31
0.0
  0
LINE
  5
32E4
330
3283
100
AcDbEntity
  8
0
  6
CONTINUOUS
 62
     0
100
AcDbLine
 10
12.362923
 20
26.167612
 30
0.0
 11
13.323223
 21
27.12791199999999
 31
0.0
  0
LINE
  5
32E5
330
3283
100
AcDbEntity
  8
0
  6
CONTINUOUS
 62
     0
100
AcDbLine
 10
9.493421000000001
 20
23.29811
 30
0.0
 11
11.41387299999999
 21
25.218562
 31
0.0
  0
LINE
  5
32E6
330
3283
100
AcDbEntity
  8
0
  6
CONTINUOUS
 62
     0
100
AcDbLine
 10
13.51476
 20
27.31944799999999
 30
0.0
 11
14.253964
 21
28.058653
 31
0.0
  0
LINE
  5
32E7
330
3283
100
AcDbEntity
  8
0
  6
CONTINUOUS
 62
     0
100
AcDbLine
 10
7.766414999999999
 20
21.571104
 30
0.0
 11
8.505618999999999
 21
22.310308
 31
0.0
  0
LINE
  5
32E8
330
3283
100
AcDbEntity
  8
0
  6
CONTINUOUS
 62
     0
100
AcDbLine
 10
10.46482299999999
 20
24.552354
 30
0.0
 11
11.41387299999999
 21
25.501404
 31
0.0
  0
LINE
  5
32E9
330
3283
100
AcDbEntity
  8
0
  6
CONTINUOUS
 62
     0
100
AcDbLine
 10
9.323311999999999
 20
23.410844
 30
0.0
 11
10.34121199999999
 21
24.428744
 31
0.0
  0
LINE
  5
32EA
330
3283
100
AcDbEntity
  8
0
  6
CONTINUOUS
 62
     0
100
AcDbLine
 10
12.362923
 20
26.45045399999999
 30
0.0
 11
14.07040799999999
 21
28.157939
 31
0.0
  0
LINE
  5
32EB
330
3283
100
AcDbEntity
  8
0
  6
CONTINUOUS
 62
     0
100
AcDbLine
 10
7.667127999999999
 20
21.75466
 30
0.0
 11
8.419014
 21
22.506545
 31
0.0
  0
LINE
  5
32EC
330
3283
100
AcDbEntity
  8
0
  6
CONTINUOUS
 62
     0
100
AcDbLine
 10
10.46482299999999
 20
24.835197
 30
0.0
 11
11.41387299999999
 21
25.784247
 31
0.0
  0
LINE
  5
32ED
330
3283
100
AcDbEntity
  8
0
  6
CONTINUOUS
 62
     0
100
AcDbLine
 10
9.040468999999999
 20
23.410844
 30
0.0
 11
10.058369
 21
24.428744
 31
0.0
  0
LINE
  5
32EE
330
3283
100
AcDbEntity
  8
0
  6
CONTINUOUS
 62
     0
100
AcDbLine
 10
12.362923
 20
26.733297
 30
0.0
 11
13.87995199999999
 21
28.250326
 31
0.0
  0
LINE
  5
32EF
330
3283
100
AcDbEntity
  8
0
  6
CONTINUOUS
 62
     0
100
AcDbLine
 10
7.574741
 20
21.94511599999999
 30
0.0
 11
8.342033999999999
 21
22.712408
 31
0.0
  0
LINE
  5
32F0
330
3283
100
AcDbEntity
  8
0
  6
CONTINUOUS
 62
     0
100
AcDbLine
 10
10.46482299999999
 20
25.11804
 30
0.0
 11
11.41387299999999
 21
26.06709
 31
0.0
  0
LINE
  5
32F1
330
3283
100
AcDbEntity
  8
0
  6
CONTINUOUS
 62
     0
100
AcDbLine
 10
8.757627000000001
 20
23.410844
 30
0.0
 11
9.775527
 21
24.428744
 31
0.0
  0
LINE
  5
32F2
330
3283
100
AcDbEntity
  8
0
  6
CONTINUOUS
 62
     0
100
AcDbLine
 10
12.362923
 20
27.01614
 30
0.0
 11
13.682269
 21
28.335486
 31
0.0
  0
LINE
  5
32F3
330
3283
100
AcDbEntity
  8
0
  6
CONTINUOUS
 62
     0
100
AcDbLine
 10
7.489582
 20
22.142799
 30
0.0
 11
8.275484
 21
22.928701
 31
0.0
  0
LINE
  5
32F4
330
3283
100
AcDbEntity
  8
0
  6
CONTINUOUS
 62
     0
100
AcDbLine
 10
10.46482299999999
 20
25.400883
 30
0.0
 11
11.41387299999999
 21
26.349933
 31
0.0
  0
LINE
  5
32F5
330
3283
100
AcDbEntity
  8
0
  6
CONTINUOUS
 62
     0
100
AcDbLine
 10
8.474783999999999
 20
23.410844
 30
0.0
 11
9.492683999999998
 21
24.428744
 31
0.0
  0
LINE
  5
32F6
330
3283
100
AcDbEntity
  8
0
  6
CONTINUOUS
 62
     0
100
AcDbLine
 10
12.362923
 20
27.298983
 30
0.0
 11
13.47695599999999
 21
28.41301599999999
 31
0.0
  0
LINE
  5
32F7
330
3283
100
AcDbEntity
  8
0
  6
CONTINUOUS
 62
     0
100
AcDbLine
 10
7.412052
 20
22.34811099999999
 30
0.0
 11
8.220416999999999
 21
23.15647699999999
 31
0.0
  0
LINE
  5
32F8
330
3283
100
AcDbEntity
  8
0
  6
CONTINUOUS
 62
     0
100
AcDbLine
 10
10.46482299999999
 20
25.683725
 30
0.0
 11
11.41387299999999
 21
26.63277499999999
 31
0.0
  0
LINE
  5
32F9
330
3283
100
AcDbEntity
  8
0
  6
CONTINUOUS
 62
     0
100
AcDbLine
 10
8.191940999999999
 20
23.410844
 30
0.0
 11
9.209841
 21
24.428744
 31
0.0
  0
LINE
  5
32FA
330
3283
100
AcDbEntity
  8
0
  6
CONTINUOUS
 62
     0
100
AcDbLine
 10
12.362923
 20
27.581825
 30
0.0
 11
13.26352
 21
28.48242299999999
 31
0.0
  0
LINE
  5
32FB
330
3283
100
AcDbEntity
  8
0
  6
CONTINUOUS
 62
     0
100
AcDbLine
 10
7.342645
 20
22.561547
 30
0.0
 11
8.178233
 21
23.397136
 31
0.0
  0
LINE
  5
32FC
330
3283
100
AcDbEntity
  8
0
  6
CONTINUOUS
 62
     0
100
AcDbLine
 10
10.46482299999999
 20
25.96656799999999
 30
0.0
 11
11.41387299999999
 21
26.915618
 31
0.0
  0
LINE
  5
32FD
330
3283
100
AcDbEntity
  8
0
  6
CONTINUOUS
 62
     0
100
AcDbLine
 10
12.17248399999999
 20
27.67422899999999
 30
0.0
 11
13.04135099999999
 21
28.543096
 31
0.0
  0
LINE
  5
32FE
330
3283
100
AcDbEntity
  8
0
  6
CONTINUOUS
 62
     0
100
AcDbLine
 10
7.281971
 20
22.783716
 30
0.0
 11
8.926999
 21
24.428744
 31
0.0
  0
LINE
  5
32FF
330
3283
100
AcDbEntity
  8
0
  6
CONTINUOUS
 62
     0
100
AcDbLine
 10
10.46482299999999
 20
26.249411
 30
0.0
 11
11.41387299999999
 21
27.19846099999999
 31
0.0
  0
LINE
  5
3300
330
3283
100
AcDbEntity
  8
0
  6
CONTINUOUS
 62
     0
100
AcDbLine
 10
11.899556
 20
27.684144
 30
0.0
 11
12.809691
 21
28.594279
 31
0.0
  0
LINE
  5
3301
330
3283
100
AcDbEntity
  8
0
  6
CONTINUOUS
 62
     0
100
AcDbLine
 10
7.230788
 20
23.015376
 30
0.0
 11
8.644156
 21
24.428744
 31
0.0
  0
LINE
  5
3302
330
3283
100
AcDbEntity
  8
0
  6
CONTINUOUS
 62
     0
100
AcDbLine
 10
10.46482299999999
 20
26.532253
 30
0.0
 11
11.41387299999999
 21
27.481303
 31
0.0
  0
LINE
  5
3303
330
3283
100
AcDbEntity
  8
0
  6
CONTINUOUS
 62
     0
100
AcDbLine
 10
11.605159
 20
27.672589
 30
0.0
 11
12.567584
 21
28.635015
 31
0.0
  0
LINE
  5
3304
330
3283
100
AcDbEntity
  8
0
  6
CONTINUOUS
 62
     0
100
AcDbLine
 10
7.190052
 20
23.25748299999999
 30
0.0
 11
8.361313
 21
24.428744
 31
0.0
  0
LINE
  5
3305
330
3283
100
AcDbEntity
  8
0
  6
CONTINUOUS
 62
     0
100
AcDbLine
 10
10.46482299999999
 20
26.815096
 30
0.0
 11
12.313807
 21
28.66407999999999
 31
0.0
  0
LINE
  5
3306
330
3283
100
AcDbEntity
  8
0
  6
CONTINUOUS
 62
     0
100
AcDbLine
 10
7.160988
 20
23.51126099999999
 30
0.0
 11
8.191864
 21
24.542137
 31
0.0
  0
LINE
  5
3307
330
3283
100
AcDbEntity
  8
0
  6
CONTINUOUS
 62
     0
100
AcDbLine
 10
10.46482299999999
 20
27.097939
 30
0.0
 11
12.046753
 21
28.679869
 31
0.0
  0
LINE
  5
3308
330
3283
100
AcDbEntity
  8
0
  6
CONTINUOUS
 62
     0
100
AcDbLine
 10
7.145197999999999
 20
23.778314
 30
0.0
 11
8.270421
 21
24.903537
 31
0.0
  0
LINE
  5
3309
330
3283
100
AcDbEntity
  8
0
  6
CONTINUOUS
 62
     0
100
AcDbLine
 10
10.46482299999999
 20
27.380782
 30
0.0
 11
11.76425899999999
 21
28.68021699999999
 31
0.0
  0
LINE
  5
330A
330
3283
100
AcDbEntity
  8
0
  6
CONTINUOUS
 62
     0
100
AcDbLine
 10
7.144849999999999
 20
24.060809
 30
0.0
 11
8.412672
 21
25.328631
 31
0.0
  0
LINE
  5
330B
330
3283
100
AcDbEntity
  8
0
  6
CONTINUOUS
 62
     0
100
AcDbLine
 10
9.92464
 20
27.12344099999999
 30
0.0
 11
11.463286
 21
28.66208699999999
 31
0.0
  0
LINE
  5
330C
330
3283
100
AcDbEntity
  8
0
  6
CONTINUOUS
 62
     0
100
AcDbLine
 10
7.16298
 20
24.361781
 30
0.0
 11
8.701625999999999
 21
25.900428
 31
0.0
  0
LINE
  5
330D
330
3283
100
AcDbEntity
  8
0
  6
CONTINUOUS
 62
     0
100
AcDbLine
 10
7.204077999999999
 20
24.685722
 30
0.0
 11
11.139345
 21
28.620989
 31
0.0
  0
LINE
  5
330E
330
3283
100
AcDbEntity
  8
0
  6
CONTINUOUS
 62
     0
100
AcDbLine
 10
7.275296
 20
25.03978299999999
 30
0.0
 11
10.785285
 21
28.549771
 31
0.0
  0
LINE
  5
330F
330
3283
100
AcDbEntity
  8
0
  6
CONTINUOUS
 62
     0
100
AcDbLine
 10
7.389392999999999
 20
25.436722
 30
0.0
 11
10.38834499999999
 21
28.435675
 31
0.0
  0
LINE
  5
3310
330
3283
100
AcDbEntity
  8
0
  6
CONTINUOUS
 62
     0
100
AcDbLine
 10
7.574053999999999
 20
25.904226
 30
0.0
 11
9.920841000000001
 21
28.251013
 31
0.0
  0
LINE
  5
3311
330
3283
100
AcDbEntity
  8
0
  6
CONTINUOUS
 62
     0
100
AcDbLine
 10
7.923914999999999
 20
26.53693
 30
0.0
 11
9.288138
 21
27.901153
 31
0.0
  0
ENDBLK
  5
3313
330
3283
100
AcDbEntity
  8
0
100
AcDbBlockEnd
  0
BLOCK
  5
3332
330
3314
100
AcDbEntity
  8
0
100
AcDbBlockBegin
  2
*X7
 70
     1
 10
0.0
 20
0.0
 30
0.0
  3
*X7
  1

  0
LINE
  5
3315
330
3314
100
AcDbEntity
  8
0
  6
CONTINUOUS
 62
     0
100
AcDbLine
 10
20.403855
 20
20.63209399999999
 30
0.0
 11
20.470123
 21
20.69836099999999
 31
0.0
  0
LINE
  5
3316
330
3314
100
AcDbEntity
  8
0
  6
CONTINUOUS
 62
     0
100
AcDbLine
 10
20.121013
 20
20.63209399999999
 30
0.0
 11
20.470123
 21
20.981204
 31
0.0
  0
LINE
  5
3317
330
3314
100
AcDbEntity
  8
0
  6
CONTINUOUS
 62
     0
100
AcDbLine
 10
19.83817
 20
20.63209399999999
 30
0.0
 11
20.470123
 21
21.264047
 31
0.0
  0
LINE
  5
3318
330
3314
100
AcDbEntity
  8
0
  6
CONTINUOUS
 62
     0
100
AcDbLine
 10
19.555327
 20
20.63209399999999
 30
0.0
 11
20.470123
 21
21.546889
 31
0.0
  0
LINE
  5
3319
330
3314
100
AcDbEntity
  8
0
  6
CONTINUOUS
 62
     0
100
AcDbLine
 10
19.27248399999999
 20
20.63209399999999
 30
0.0
 11
20.470123
 21
21.829732
 31
0.0
  0
LINE
  5
331A
330
3314
100
AcDbEntity
  8
0
  6
CONTINUOUS
 62
     0
100
AcDbLine
 10
18.98964199999999
 20
20.63209399999999
 30
0.0
 11
20.470123
 21
22.11257499999999
 31
0.0
  0
LINE
  5
331B
330
3314
100
AcDbEntity
  8
0
  6
CONTINUOUS
 62
     0
100
AcDbLine
 10
18.706799
 20
20.63209399999999
 30
0.0
 11
20.470123
 21
22.395418
 31
0.0
  0
LINE
  5
331C
330
3314
100
AcDbEntity
  8
0
  6
CONTINUOUS
 62
     0
100
AcDbLine
 10
18.674623
 20
20.88276
 30
0.0
 11
20.470123
 21
22.67826
 31
0.0
  0
LINE
  5
331D
330
3314
100
AcDbEntity
  8
0
  6
CONTINUOUS
 62
     0
100
AcDbLine
 10
20.919864
 20
23.410844
 30
0.0
 11
21.087523
 21
23.578503
 31
0.0
  0
LINE
  5
331E
330
3314
100
AcDbEntity
  8
0
  6
CONTINUOUS
 62
     0
100
AcDbLine
 10
18.674623
 20
21.165603
 30
0.0
 11
20.470123
 21
22.961103
 31
0.0
  0
LINE
  5
331F
330
3314
100
AcDbEntity
  8
0
  6
CONTINUOUS
 62
     0
100
AcDbLine
 10
20.63702099999999
 20
23.410844
 30
0.0
 11
21.087523
 21
23.86134599999999
 31
0.0
  0
LINE
  5
3320
330
3314
100
AcDbEntity
  8
0
  6
CONTINUOUS
 62
     0
100
AcDbLine
 10
18.674623
 20
21.448446
 30
0.0
 11
20.470123
 21
23.24394599999999
 31
0.0
  0
LINE
  5
3321
330
3314
100
AcDbEntity
  8
0
  6
CONTINUOUS
 62
     0
100
AcDbLine
 10
18.674623
 20
21.731288
 30
0.0
 11
21.087523
 21
24.14418799999999
 31
0.0
  0
LINE
  5
3322
330
3314
100
AcDbEntity
  8
0
  6
CONTINUOUS
 62
     0
100
AcDbLine
 10
18.674623
 20
22.01413099999999
 30
0.0
 11
21.087523
 21
24.427031
 31
0.0
  0
LINE
  5
3323
330
3314
100
AcDbEntity
  8
0
  6
CONTINUOUS
 62
     0
100
AcDbLine
 10
18.674623
 20
22.296974
 30
0.0
 11
20.886043
 21
24.508394
 31
0.0
  0
LINE
  5
3324
330
3314
100
AcDbEntity
  8
0
  6
CONTINUOUS
 62
     0
100
AcDbLine
 10
21.02665
 20
24.931844
 30
0.0
 11
21.087523
 21
24.992717
 31
0.0
  0
LINE
  5
3325
330
3314
100
AcDbEntity
  8
0
  6
CONTINUOUS
 62
     0
100
AcDbLine
 10
18.674623
 20
22.579817
 30
0.0
 11
20.6032
 21
24.508394
 31
0.0
  0
LINE
  5
3326
330
3314
100
AcDbEntity
  8
0
  6
CONTINUOUS
 62
     0
100
AcDbLine
 10
20.743807
 20
24.931844
 30
0.0
 11
21.087523
 21
25.275559
 31
0.0
  0
LINE
  5
3327
330
3314
100
AcDbEntity
  8
0
  6
CONTINUOUS
 62
     0
100
AcDbLine
 10
18.674623
 20
22.862659
 30
0.0
 11
20.43397699999999
 21
24.622013
 31
0.0
  0
LINE
  5
3328
330
3314
100
AcDbEntity
  8
0
  6
CONTINUOUS
 62
     0
100
AcDbLine
 10
18.674623
 20
23.145502
 30
0.0
 11
21.087523
 21
25.558402
 31
0.0
  0
LINE
  5
3329
330
3314
100
AcDbEntity
  8
0
  6
CONTINUOUS
 62
     0
100
AcDbLine
 10
18.657122
 20
23.410844
 30
0.0
 11
21.08127199999999
 21
25.834994
 31
0.0
  0
LINE
  5
332A
330
3314
100
AcDbEntity
  8
0
  6
CONTINUOUS
 62
     0
100
AcDbLine
 10
18.374279
 20
23.410844
 30
0.0
 11
20.798429
 21
25.834994
 31
0.0
  0
LINE
  5
332B
330
3314
100
AcDbEntity
  8
0
  6
CONTINUOUS
 62
     0
100
AcDbLine
 10
18.137323
 20
23.45673
 30
0.0
 11
20.51558599999999
 21
25.834994
 31
0.0
  0
LINE
  5
332C
330
3314
100
AcDbEntity
  8
0
  6
CONTINUOUS
 62
     0
100
AcDbLine
 10
18.137323
 20
23.739573
 30
0.0
 11
20.232744
 21
25.834994
 31
0.0
  0
LINE
  5
332D
330
3314
100
AcDbEntity
  8
0
  6
CONTINUOUS
 62
     0
100
AcDbLine
 10
18.674623
 20
24.559716
 30
0.0
 11
19.949901
 21
25.834994
 31
0.0
  0
LINE
  5
332E
330
3314
100
AcDbEntity
  8
0
  6
CONTINUOUS
 62
     0
100
AcDbLine
 10
18.137323
 20
24.02241599999999
 30
0.0
 11
18.623301
 21
24.508394
 31
0.0
  0
LINE
  5
332F
330
3314
100
AcDbEntity
  8
0
  6
CONTINUOUS
 62
     0
100
AcDbLine
 10
18.674623
 20
24.842558
 30
0.0
 11
19.66705799999999
 21
25.834994
 31
0.0
  0
LINE
  5
3330
330
3314
100
AcDbEntity
  8
0
  6
CONTINUOUS
 62
     0
100
AcDbLine
 10
18.137323
 20
24.30525799999999
 30
0.0
 11
18.34045799999999
 21
24.508394
 31
0.0
  0
LINE
  5
3331
330
3314
100
AcDbEntity
  8
0
  6
CONTINUOUS
 62
     0
100
AcDbLine
 10
18.70280499999999
 20
25.15358299999999
 30
0.0
 11
19.356077
 21
25.80685499999999
 31
0.0
  0
ENDBLK
  5
3333
330
3314
100
AcDbEntity
  8
0
100
AcDbBlockEnd
  0
BLOCK
  5
333F
330
3334
100
AcDbEntity
  8
0
100
AcDbBlockBegin
  2
*X8
 70
     1
 10
0.0
 20
0.0
 30
0.0
  3
*X8
  1

  0
LINE
  5
3335
330
3334
100
AcDbEntity
  8
0
  6
CONTINUOUS
 62
     0
100
AcDbLine
 10
23.583484
 20
24.943094
 30
0.0
 11
23.625973
 21
24.985582
 31
0.0
  0
LINE
  5
3336
330
3334
100
AcDbEntity
  8
0
  6
CONTINUOUS
 62
     0
100
AcDbLine
 10
23.300642
 20
24.943094
 30
0.0
 11
23.625973
 21
25.268425
 31
0.0
  0
LINE
  5
3337
330
3334
100
AcDbEntity
  8
0
  6
CONTINUOUS
 62
     0
100
AcDbLine
 10
23.017799
 20
24.943094
 30
0.0
 11
23.625973
 21
25.551268
 31
0.0
  0
LINE
  5
3338
330
3334
100
AcDbEntity
  8
0
  6
CONTINUOUS
 62
     0
100
AcDbLine
 10
22.73495599999999
 20
24.943094
 30
0.0
 11
23.625973
 21
25.83410999999999
 31
0.0
  0
LINE
  5
3339
330
3334
100
AcDbEntity
  8
0
  6
CONTINUOUS
 62
     0
100
AcDbLine
 10
22.452114
 20
24.943094
 30
0.0
 11
23.344014
 21
25.834994
 31
0.0
  0
LINE
  5
333A
330
3334
100
AcDbEntity
  8
0
  6
CONTINUOUS
 62
     0
100
AcDbLine
 10
22.16927099999999
 20
24.943094
 30
0.0
 11
23.06117099999999
 21
25.834994
 31
0.0
  0
LINE
  5
333B
330
3334
100
AcDbEntity
  8
0
  6
CONTINUOUS
 62
     0
100
AcDbLine
 10
21.88642799999999
 20
24.943094
 30
0.0
 11
22.778328
 21
25.834994
 31
0.0
  0
LINE
  5
333C
330
3334
100
AcDbEntity
  8
0
  6
CONTINUOUS
 62
     0
100
AcDbLine
 10
21.807973
 20
25.147481
 30
0.0
 11
22.495485
 21
25.834994
 31
0.0
  0
LINE
  5
333D
330
3334
100
AcDbEntity
  8
0
  6
CONTINUOUS
 62
     0
100
AcDbLine
 10
21.807973
 20
25.43032399999999
 30
0.0
 11
22.212643
 21
25.834994
 31
0.0
  0
LINE
  5
333E
330
3334
100
AcDbEntity
  8
0
  6
CONTINUOUS
 62
     0
100
AcDbLine
 10
21.807973
 20
25.713167
 30
0.0
 11
21.92979999999999
 21
25.834994
 31
0.0
  0
ENDBLK
  5
3340
330
3334
100
AcDbEntity
  8
0
100
AcDbBlockEnd
  0
BLOCK
  5
3356
330
3341
100
AcDbEntity
  8
0
100
AcDbBlockBegin
  2
*X9
 70
     1
 10
0.0
 20
0.0
 30
0.0
  3
*X9
  1

  0
LINE
  5
3342
330
3341
100
AcDbEntity
  8
0
  6
CONTINUOUS
 62
     0
100
AcDbLine
 10
23.515125
 20
20.63209399999999
 30
0.0
 11
23.625973
 21
20.742941
 31
0.0
  0
LINE
  5
3343
330
3341
100
AcDbEntity
  8
0
  6
CONTINUOUS
 62
     0
100
AcDbLine
 10
23.232282
 20
20.63209399999999
 30
0.0
 11
23.625973
 21
21.025784
 31
0.0
  0
LINE
  5
3344
330
3341
100
AcDbEntity
  8
0
  6
CONTINUOUS
 62
     0
100
AcDbLine
 10
22.94944
 20
20.63209399999999
 30
0.0
 11
23.625973
 21
21.30862699999999
 31
0.0
  0
LINE
  5
3345
330
3341
100
AcDbEntity
  8
0
  6
CONTINUOUS
 62
     0
100
AcDbLine
 10
22.66659699999999
 20
20.63209399999999
 30
0.0
 11
23.625973
 21
21.59147
 31
0.0
  0
LINE
  5
3346
330
3341
100
AcDbEntity
  8
0
  6
CONTINUOUS
 62
     0
100
AcDbLine
 10
22.383754
 20
20.63209399999999
 30
0.0
 11
23.625973
 21
21.874312
 31
0.0
  0
LINE
  5
3347
330
3341
100
AcDbEntity
  8
0
  6
CONTINUOUS
 62
     0
100
AcDbLine
 10
22.100912
 20
20.63209399999999
 30
0.0
 11
23.625973
 21
22.15715499999999
 31
0.0
  0
LINE
  5
3348
330
3341
100
AcDbEntity
  8
0
  6
CONTINUOUS
 62
     0
100
AcDbLine
 10
21.818069
 20
20.63209399999999
 30
0.0
 11
23.625973
 21
22.439998
 31
0.0
  0
LINE
  5
3349
330
3341
100
AcDbEntity
  8
0
  6
CONTINUOUS
 62
     0
100
AcDbLine
 10
21.807973
 20
20.90484
 30
0.0
 11
23.625973
 21
22.72283999999999
 31
0.0
  0
LINE
  5
334A
330
3341
100
AcDbEntity
  8
0
  6
CONTINUOUS
 62
     0
100
AcDbLine
 10
21.807973
 20
21.187683
 30
0.0
 11
23.625973
 21
23.00568299999999
 31
0.0
  0
LINE
  5
334B
330
3341
100
AcDbEntity
  8
0
  6
CONTINUOUS
 62
     0
100
AcDbLine
 10
21.807973
 20
21.47052599999999
 30
0.0
 11
23.625973
 21
23.288526
 31
0.0
  0
LINE
  5
334C
330
3341
100
AcDbEntity
  8
0
  6
CONTINUOUS
 62
     0
100
AcDbLine
 10
21.807973
 20
21.753369
 30
0.0
 11
23.625973
 21
23.57136899999999
 31
0.0
  0
LINE
  5
334D
330
3341
100
AcDbEntity
  8
0
  6
CONTINUOUS
 62
     0
100
AcDbLine
 10
21.807973
 20
22.03621099999999
 30
0.0
 11
23.625973
 21
23.85421099999999
 31
0.0
  0
LINE
  5
334E
330
3341
100
AcDbEntity
  8
0
  6
CONTINUOUS
 62
     0
100
AcDbLine
 10
21.807973
 20
22.319054
 30
0.0
 11
23.625973
 21
24.137054
 31
0.0
  0
LINE
  5
334F
330
3341
100
AcDbEntity
  8
0
  6
CONTINUOUS
 62
     0
100
AcDbLine
 10
21.807973
 20
22.601897
 30
0.0
 11
23.625973
 21
24.419897
 31
0.0
  0
LINE
  5
3350
330
3341
100
AcDbEntity
  8
0
  6
CONTINUOUS
 62
     0
100
AcDbLine
 10
21.807973
 20
22.884739
 30
0.0
 11
23.431627
 21
24.508394
 31
0.0
  0
LINE
  5
3351
330
3341
100
AcDbEntity
  8
0
  6
CONTINUOUS
 62
     0
100
AcDbLine
 10
21.807973
 20
23.167582
 30
0.0
 11
23.148784
 21
24.508394
 31
0.0
  0
LINE
  5
3352
330
3341
100
AcDbEntity
  8
0
  6
CONTINUOUS
 62
     0
100
AcDbLine
 10
21.807973
 20
23.45042499999999
 30
0.0
 11
22.865942
 21
24.508394
 31
0.0
  0
LINE
  5
3353
330
3341
100
AcDbEntity
  8
0
  6
CONTINUOUS
 62
     0
100
AcDbLine
 10
21.807973
 20
23.733268
 30
0.0
 11
22.58309899999999
 21
24.508394
 31
0.0
  0
LINE
  5
3354
330
3341
100
AcDbEntity
  8
0
  6
CONTINUOUS
 62
     0
100
AcDbLine
 10
21.807973
 20
24.01611
 30
0.0
 11
22.300256
 21
24.508394
 31
0.0
  0
LINE
  5
3355
330
3341
100
AcDbEntity
  8
0
  6
CONTINUOUS
 62
     0
100
AcDbLine
 10
21.807973
 20
24.298953
 30
0.0
 11
22.017414
 21
24.508394
 31
0.0
  0
ENDBLK
  5
3357
330
3341
100
AcDbEntity
  8
0
100
AcDbBlockEnd
  0
BLOCK
  5
3380
330
3358
100
AcDbEntity
  8
0
100
AcDbBlockBegin
  2
*X10
 70
     1
 10
0.0
 20
0.0
 30
0.0
  3
*X10
  1

  0
LINE
  5
3359
330
3358
100
AcDbEntity
  8
0
  6
CONTINUOUS
 62
     0
100
AcDbLine
 10
29.737665
 20
20.63209399999999
 30
0.0
 11
29.89222299999999
 21
20.786652
 31
0.0
  0
LINE
  5
335A
330
3358
100
AcDbEntity
  8
0
  6
CONTINUOUS
 62
     0
100
AcDbLine
 10
29.45482199999999
 20
20.63209399999999
 30
0.0
 11
29.89222299999999
 21
21.06949399999999
 31
0.0
  0
LINE
  5
335B
330
3358
100
AcDbEntity
  8
0
  6
CONTINUOUS
 62
     0
100
AcDbLine
 10
29.17197899999999
 20
20.63209399999999
 30
0.0
 11
29.89222299999999
 21
21.352337
 31
0.0
  0
LINE
  5
335C
330
3358
100
AcDbEntity
  8
0
  6
CONTINUOUS
 62
     0
100
AcDbLine
 10
28.88913699999999
 20
20.63209399999999
 30
0.0
 11
29.89222299999999
 21
21.63517999999999
 31
0.0
  0
LINE
  5
335D
330
3358
100
AcDbEntity
  8
0
  6
CONTINUOUS
 62
     0
100
AcDbLine
 10
28.606294
 20
20.63209399999999
 30
0.0
 11
29.89222299999999
 21
21.918023
 31
0.0
  0
LINE
  5
335E
330
3358
100
AcDbEntity
  8
0
  6
CONTINUOUS
 62
     0
100
AcDbLine
 10
28.323451
 20
20.63209399999999
 30
0.0
 11
29.89222299999999
 21
22.200865
 31
0.0
  0
LINE
  5
335F
330
3358
100
AcDbEntity
  8
0
  6
CONTINUOUS
 62
     0
100
AcDbLine
 10
28.108423
 20
20.69990799999999
 30
0.0
 11
29.89222299999999
 21
22.483708
 31
0.0
  0
LINE
  5
3360
330
3358
100
AcDbEntity
  8
0
  6
CONTINUOUS
 62
     0
100
AcDbLine
 10
28.108423
 20
20.98275099999999
 30
0.0
 11
29.89222299999999
 21
22.766551
 31
0.0
  0
LINE
  5
3361
330
3358
100
AcDbEntity
  8
0
  6
CONTINUOUS
 62
     0
100
AcDbLine
 10
28.108423
 20
21.26559299999999
 30
0.0
 11
29.89222299999999
 21
23.049393
 31
0.0
  0
LINE
  5
3362
330
3358
100
AcDbEntity
  8
0
  6
CONTINUOUS
 62
     0
100
AcDbLine
 10
28.108423
 20
21.54843599999999
 30
0.0
 11
29.89184299999999
 21
23.33185599999999
 31
0.0
  0
LINE
  5
3363
330
3358
100
AcDbEntity
  8
0
  6
CONTINUOUS
 62
     0
100
AcDbLine
 10
28.108423
 20
21.831279
 30
0.0
 11
29.853268
 21
23.576124
 31
0.0
  0
LINE
  5
3364
330
3358
100
AcDbEntity
  8
0
  6
CONTINUOUS
 62
     0
100
AcDbLine
 10
28.108423
 20
22.114122
 30
0.0
 11
29.777815
 21
23.78351299999999
 31
0.0
  0
LINE
  5
3365
330
3358
100
AcDbEntity
  8
0
  6
CONTINUOUS
 62
     0
100
AcDbLine
 10
28.108423
 20
22.396964
 30
0.0
 11
29.67413
 21
23.962671
 31
0.0
  0
LINE
  5
3366
330
3358
100
AcDbEntity
  8
0
  6
CONTINUOUS
 62
     0
100
AcDbLine
 10
28.084087
 20
22.655471
 30
0.0
 11
29.54593
 21
24.117314
 31
0.0
  0
LINE
  5
3367
330
3358
100
AcDbEntity
  8
0
  6
CONTINUOUS
 62
     0
100
AcDbLine
 10
26.06071
 20
20.63209399999999
 30
0.0
 11
26.28997299999999
 21
20.861357
 31
0.0
  0
LINE
  5
3368
330
3358
100
AcDbEntity
  8
0
  6
CONTINUOUS
 62
     0
100
AcDbLine
 10
27.9938
 20
22.84802699999999
 30
0.0
 11
29.394359
 21
24.248585
 31
0.0
  0
LINE
  5
3369
330
3358
100
AcDbEntity
  8
0
  6
CONTINUOUS
 62
     0
100
AcDbLine
 10
25.777867
 20
20.63209399999999
 30
0.0
 11
26.28997299999999
 21
21.1442
 31
0.0
  0
LINE
  5
336A
330
3358
100
AcDbEntity
  8
0
  6
CONTINUOUS
 62
     0
100
AcDbLine
 10
27.856431
 20
22.993501
 30
0.0
 11
29.218545
 21
24.355614
 31
0.0
  0
LINE
  5
336B
330
3358
100
AcDbEntity
  8
0
  6
CONTINUOUS
 62
     0
100
AcDbLine
 10
25.495024
 20
20.63209399999999
 30
0.0
 11
26.28997299999999
 21
21.427042
 31
0.0
  0
LINE
  5
336C
330
3358
100
AcDbEntity
  8
0
  6
CONTINUOUS
 62
     0
100
AcDbLine
 10
27.673361
 20
23.09327399999999
 30
0.0
 11
29.008732
 21
24.428645
 31
0.0
  0
LINE
  5
336D
330
3358
100
AcDbEntity
  8
0
  6
CONTINUOUS
 62
     0
100
AcDbLine
 10
25.212181
 20
20.63209399999999
 30
0.0
 11
26.28997299999999
 21
21.70988499999999
 31
0.0
  0
LINE
  5
336E
330
3358
100
AcDbEntity
  8
0
  6
CONTINUOUS
 62
     0
100
AcDbLine
 10
27.426682
 20
23.129436
 30
0.0
 11
28.78111099999999
 21
24.483866
 31
0.0
  0
LINE
  5
336F
330
3358
100
AcDbEntity
  8
0
  6
CONTINUOUS
 62
     0
100
AcDbLine
 10
24.929339
 20
20.63209399999999
 30
0.0
 11
26.28997299999999
 21
21.992728
 31
0.0
  0
LINE
  5
3370
330
3358
100
AcDbEntity
  8
0
  6
CONTINUOUS
 62
     0
100
AcDbLine
 10
27.09337899999999
 20
23.07897599999999
 30
0.0
 11
28.539658
 21
24.525255
 31
0.0
  0
LINE
  5
3371
330
3358
100
AcDbEntity
  8
0
  6
CONTINUOUS
 62
     0
100
AcDbLine
 10
24.64649599999999
 20
20.63209399999999
 30
0.0
 11
26.28997299999999
 21
22.27557099999999
 31
0.0
  0
LINE
  5
3372
330
3358
100
AcDbEntity
  8
0
  6
CONTINUOUS
 62
     0
100
AcDbLine
 10
24.494923
 20
20.763363
 30
0.0
 11
28.28214099999999
 21
24.550582
 31
0.0
  0
LINE
  5
3373
330
3358
100
AcDbEntity
  8
0
  6
CONTINUOUS
 62
     0
100
AcDbLine
 10
24.494923
 20
21.046206
 30
0.0
 11
28.005321
 21
24.556604
 31
0.0
  0
LINE
  5
3374
330
3358
100
AcDbEntity
  8
0
  6
CONTINUOUS
 62
     0
100
AcDbLine
 10
24.494923
 20
21.32904899999999
 30
0.0
 11
27.704195
 21
24.538321
 31
0.0
  0
LINE
  5
3375
330
3358
100
AcDbEntity
  8
0
  6
CONTINUOUS
 62
     0
100
AcDbLine
 10
24.494923
 20
21.611891
 30
0.0
 11
27.370303
 21
24.487272
 31
0.0
  0
LINE
  5
3376
330
3358
100
AcDbEntity
  8
0
  6
CONTINUOUS
 62
     0
100
AcDbLine
 10
24.494923
 20
21.894734
 30
0.0
 11
26.987035
 21
24.386846
 31
0.0
  0
LINE
  5
3377
330
3358
100
AcDbEntity
  8
0
  6
CONTINUOUS
 62
     0
100
AcDbLine
 10
24.494923
 20
22.17757699999999
 30
0.0
 11
26.51056599999999
 21
24.19322
 31
0.0
  0
LINE
  5
3378
330
3358
100
AcDbEntity
  8
0
  6
CONTINUOUS
 62
     0
100
AcDbLine
 10
24.494923
 20
22.46042
 30
0.0
 11
26.28997299999999
 21
24.25547
 31
0.0
  0
LINE
  5
3379
330
3358
100
AcDbEntity
  8
0
  6
CONTINUOUS
 62
     0
100
AcDbLine
 10
24.494923
 20
22.74326199999999
 30
0.0
 11
26.26005399999999
 21
24.508394
 31
0.0
  0
LINE
  5
337A
330
3358
100
AcDbEntity
  8
0
  6
CONTINUOUS
 62
     0
100
AcDbLine
 10
24.494923
 20
23.02610499999999
 30
0.0
 11
25.977212
 21
24.508394
 31
0.0
  0
LINE
  5
337B
330
3358
100
AcDbEntity
  8
0
  6
CONTINUOUS
 62
     0
100
AcDbLine
 10
24.494923
 20
23.308948
 30
0.0
 11
25.694369
 21
24.508394
 31
0.0
  0
LINE
  5
337C
330
3358
100
AcDbEntity
  8
0
  6
CONTINUOUS
 62
     0
100
AcDbLine
 10
24.494923
 20
23.59179
 30
0.0
 11
25.411526
 21
24.508394
 31
0.0
  0
LINE
  5
337D
330
3358
100
AcDbEntity
  8
0
  6
CONTINUOUS
 62
     0
100
AcDbLine
 10
24.494923
 20
23.87463299999999
 30
0.0
 11
25.128683
 21
24.508394
 31
0.0
  0
LINE
  5
337E
330
3358
100
AcDbEntity
  8
0
  6
CONTINUOUS
 62
     0
100
AcDbLine
 10
24.494923
 20
24.157476
 30
0.0
 11
24.845841
 21
24.508394
 31
0.0
  0
LINE
  5
337F
330
3358
100
AcDbEntity
  8
0
  6
CONTINUOUS
 62
     0
100
AcDbLine
 10
24.494923
 20
24.440319
 30
0.0
 11
24.562998
 21
24.508394
 31
0.0
  0
ENDBLK
  5
3381
330
3358
100
AcDbEntity
  8
0
100
AcDbBlockEnd
  0
BLOCK
  5
33AF
330
3382
100
AcDbEntity
  8
0
100
AcDbBlockBegin
  2
*X11
 70
     1
 10
0.0
 20
0.0
 30
0.0
  3
*X11
  1

  0
LINE
  5
3383
330
3382
100
AcDbEntity
  8
0
  6
CONTINUOUS
 62
     0
100
AcDbLine
 10
35.94895499999999
 20
20.620844
 30
0.0
 11
35.986573
 21
20.658462
 31
0.0
  0
LINE
  5
3384
330
3382
100
AcDbEntity
  8
0
  6
CONTINUOUS
 62
     0
100
AcDbLine
 10
35.666112
 20
20.620844
 30
0.0
 11
35.986573
 21
20.94130499999999
 31
0.0
  0
LINE
  5
3385
330
3382
100
AcDbEntity
  8
0
  6
CONTINUOUS
 62
     0
100
AcDbLine
 10
35.38326899999999
 20
20.620844
 30
0.0
 11
35.986573
 21
21.22414699999999
 31
0.0
  0
LINE
  5
3386
330
3382
100
AcDbEntity
  8
0
  6
CONTINUOUS
 62
     0
100
AcDbLine
 10
35.100427
 20
20.620844
 30
0.0
 11
35.986573
 21
21.50698999999999
 31
0.0
  0
LINE
  5
3387
330
3382
100
AcDbEntity
  8
0
  6
CONTINUOUS
 62
     0
100
AcDbLine
 10
34.817584
 20
20.620844
 30
0.0
 11
35.986573
 21
21.789833
 31
0.0
  0
LINE
  5
3388
330
3382
100
AcDbEntity
  8
0
  6
CONTINUOUS
 62
     0
100
AcDbLine
 10
34.53474099999999
 20
20.620844
 30
0.0
 11
35.986573
 21
22.07267499999999
 31
0.0
  0
LINE
  5
3389
330
3382
100
AcDbEntity
  8
0
  6
CONTINUOUS
 62
     0
100
AcDbLine
 10
34.251898
 20
20.620844
 30
0.0
 11
35.986573
 21
22.355518
 31
0.0
  0
LINE
  5
338A
330
3382
100
AcDbEntity
  8
0
  6
CONTINUOUS
 62
     0
100
AcDbLine
 10
34.19152299999999
 20
20.84331099999999
 30
0.0
 11
35.986573
 21
22.638361
 31
0.0
  0
LINE
  5
338B
330
3382
100
AcDbEntity
  8
0
  6
CONTINUOUS
 62
     0
100
AcDbLine
 10
33.76930999999999
 20
20.703941
 30
0.0
 11
35.986573
 21
22.92120399999999
 31
0.0
  0
LINE
  5
338C
330
3382
100
AcDbEntity
  8
0
  6
CONTINUOUS
 62
     0
100
AcDbLine
 10
33.39236599999999
 20
20.60983999999999
 30
0.0
 11
35.986573
 21
23.20404599999999
 31
0.0
  0
LINE
  5
338D
330
3382
100
AcDbEntity
  8
0
  6
CONTINUOUS
 62
     0
100
AcDbLine
 10
33.081013
 20
20.58132999999999
 30
0.0
 11
35.986573
 21
23.486889
 31
0.0
  0
LINE
  5
338E
330
3382
100
AcDbEntity
  8
0
  6
CONTINUOUS
 62
     0
100
AcDbLine
 10
32.78812199999999
 20
20.57128099999999
 30
0.0
 11
35.986573
 21
23.769732
 31
0.0
  0
LINE
  5
338F
330
3382
100
AcDbEntity
  8
0
  6
CONTINUOUS
 62
     0
100
AcDbLine
 10
32.50752399999999
 20
20.57352499999999
 30
0.0
 11
35.986573
 21
24.05257399999999
 31
0.0
  0
LINE
  5
3390
330
3382
100
AcDbEntity
  8
0
  6
CONTINUOUS
 62
     0
100
AcDbLine
 10
34.178814
 20
22.52765899999999
 30
0.0
 11
35.986573
 21
24.335417
 31
0.0
  0
LINE
  5
3391
330
3382
100
AcDbEntity
  8
0
  6
CONTINUOUS
 62
     0
100
AcDbLine
 10
32.243083
 20
20.59192799999999
 30
0.0
 11
33.59479199999999
 21
21.94363599999999
 31
0.0
  0
LINE
  5
3392
330
3382
100
AcDbEntity
  8
0
  6
CONTINUOUS
 62
     0
100
AcDbLine
 10
34.181643
 20
22.81333
 30
0.0
 11
35.986573
 21
24.61826
 31
0.0
  0
LINE
  5
3393
330
3382
100
AcDbEntity
  8
0
  6
CONTINUOUS
 62
     0
100
AcDbLine
 10
32.000516
 20
20.632203
 30
0.0
 11
33.247555
 21
21.879242
 31
0.0
  0
LINE
  5
3394
330
3382
100
AcDbEntity
  8
0
  6
CONTINUOUS
 62
     0
100
AcDbLine
 10
34.100287
 20
23.014817
 30
0.0
 11
35.986573
 21
24.90110299999999
 31
0.0
  0
LINE
  5
3395
330
3382
100
AcDbEntity
  8
0
  6
CONTINUOUS
 62
     0
100
AcDbLine
 10
31.777522
 20
20.692051
 30
0.0
 11
32.988078
 21
21.90260799999999
 31
0.0
  0
LINE
  5
3396
330
3382
100
AcDbEntity
  8
0
  6
CONTINUOUS
 62
     0
100
AcDbLine
 10
33.96946099999999
 20
23.166833
 30
0.0
 11
35.986573
 21
25.183945
 31
0.0
  0
LINE
  5
3397
330
3382
100
AcDbEntity
  8
0
  6
CONTINUOUS
 62
     0
100
AcDbLine
 10
31.57735699999999
 20
20.774729
 30
0.0
 11
32.76916099999999
 21
21.96653299999999
 31
0.0
  0
LINE
  5
3398
330
3382
100
AcDbEntity
  8
0
  6
CONTINUOUS
 62
     0
100
AcDbLine
 10
33.798691
 20
23.27890599999999
 30
0.0
 11
35.986573
 21
25.466788
 31
0.0
  0
LINE
  5
3399
330
3382
100
AcDbEntity
  8
0
  6
CONTINUOUS
 62
     0
100
AcDbLine
 10
31.394628
 20
20.87484299999999
 30
0.0
 11
32.578781
 21
22.05899599999999
 31
0.0
  0
LINE
  5
339A
330
3382
100
AcDbEntity
  8
0
  6
CONTINUOUS
 62
     0
100
AcDbLine
 10
33.595067
 20
23.358124
 30
0.0
 11
35.986573
 21
25.749631
 31
0.0
  0
LINE
  5
339B
330
3382
100
AcDbEntity
  8
0
  6
CONTINUOUS
 62
     0
100
AcDbLine
 10
31.22313099999999
 20
20.986189
 30
0.0
 11
32.424733
 21
22.187791
 31
0.0
  0
LINE
  5
339C
330
3382
100
AcDbEntity
  8
0
  6
CONTINUOUS
 62
     0
100
AcDbLine
 10
33.37303699999999
 20
23.41893699999999
 30
0.0
 11
35.77784299999999
 21
25.823744
 31
0.0
  0
LINE
  5
339D
330
3382
100
AcDbEntity
  8
0
  6
CONTINUOUS
 62
     0
100
AcDbLine
 10
31.067037
 20
21.112937
 30
0.0
 11
32.307803
 21
22.353704
 31
0.0
  0
LINE
  5
339E
330
3382
100
AcDbEntity
  8
0
  6
CONTINUOUS
 62
     0
100
AcDbLine
 10
33.11599499999999
 20
23.444738
 30
0.0
 11
34.077945
 21
24.406688
 31
0.0
  0
LINE
  5
339F
330
3382
100
AcDbEntity
  8
0
  6
CONTINUOUS
 62
     0
100
AcDbLine
 10
34.19152299999999
 20
24.52026599999999
 30
0.0
 11
35.495
 21
25.823744
 31
0.0
  0
LINE
  5
33A0
330
3382
100
AcDbEntity
  8
0
  6
CONTINUOUS
 62
     0
100
AcDbLine
 10
30.92289099999999
 20
21.25163399999999
 30
0.0
 11
32.23358499999999
 21
22.562329
 31
0.0
  0
LINE
  5
33A1
330
3382
100
AcDbEntity
  8
0
  6
CONTINUOUS
 62
     0
100
AcDbLine
 10
32.74817399999999
 20
23.35976
 30
0.0
 11
33.885911
 21
24.49749699999999
 31
0.0
  0
LINE
  5
33A2
330
3382
100
AcDbEntity
  8
0
  6
CONTINUOUS
 62
     0
100
AcDbLine
 10
34.19152299999999
 20
24.803109
 30
0.0
 11
35.212158
 21
25.823744
 31
0.0
  0
LINE
  5
33A3
330
3382
100
AcDbEntity
  8
0
  6
CONTINUOUS
 62
     0
100
AcDbLine
 10
30.79573599999999
 20
21.40732199999999
 30
0.0
 11
32.26604099999999
 21
22.877627
 31
0.0
  0
LINE
  5
33A4
330
3382
100
AcDbEntity
  8
0
  6
CONTINUOUS
 62
     0
100
AcDbLine
 10
34.19152299999999
 20
25.085952
 30
0.0
 11
34.929315
 21
25.823744
 31
0.0
  0
LINE
  5
33A5
330
3382
100
AcDbEntity
  8
0
  6
CONTINUOUS
 62
     0
100
AcDbLine
 10
30.684862
 20
21.579291
 30
0.0
 11
33.65907999999999
 21
24.553509
 31
0.0
  0
LINE
  5
33A6
330
3382
100
AcDbEntity
  8
0
  6
CONTINUOUS
 62
     0
100
AcDbLine
 10
34.19152299999999
 20
25.368794
 30
0.0
 11
34.64647199999999
 21
25.823744
 31
0.0
  0
LINE
  5
33A7
330
3382
100
AcDbEntity
  8
0
  6
CONTINUOUS
 62
     0
100
AcDbLine
 10
30.59117899999999
 20
21.76845
 30
0.0
 11
33.418127
 21
24.595399
 31
0.0
  0
LINE
  5
33A8
330
3382
100
AcDbEntity
  8
0
  6
CONTINUOUS
 62
     0
100
AcDbLine
 10
34.19152299999999
 20
25.651637
 30
0.0
 11
34.36362899999999
 21
25.823744
 31
0.0
  0
LINE
  5
33A9
330
3382
100
AcDbEntity
  8
0
  6
CONTINUOUS
 62
     0
100
AcDbLine
 10
30.51714
 20
21.977254
 30
0.0
 11
33.172249
 21
24.632364
 31
0.0
  0
LINE
  5
33AA
330
3382
100
AcDbEntity
  8
0
  6
CONTINUOUS
 62
     0
100
AcDbLine
 10
30.459126
 20
22.20208299999999
 30
0.0
 11
32.905926
 21
24.648883
 31
0.0
  0
LINE
  5
33AB
330
3382
100
AcDbEntity
  8
0
  6
CONTINUOUS
 62
     0
100
AcDbLine
 10
30.423694
 20
22.449493
 30
0.0
 11
32.62147499999999
 21
24.647275
 31
0.0
  0
LINE
  5
33AC
330
3382
100
AcDbEntity
  8
0
  6
CONTINUOUS
 62
     0
100
AcDbLine
 10
30.424318
 20
22.732961
 30
0.0
 11
32.321114
 21
24.629756
 31
0.0
  0
LINE
  5
33AD
330
3382
100
AcDbEntity
  8
0
  6
CONTINUOUS
 62
     0
100
AcDbLine
 10
30.48455999999999
 20
23.076045
 30
0.0
 11
31.97893099999999
 21
24.570416
 31
0.0
  0
LINE
  5
33AE
330
3382
100
AcDbEntity
  8
0
  6
CONTINUOUS
 62
     0
100
AcDbLine
 10
30.667096
 20
23.541423
 30
0.0
 11
31.51624099999999
 21
24.390569
 31
0.0
  0
ENDBLK
  5
33B0
330
3382
100
AcDbEntity
  8
0
100
AcDbBlockEnd
  0
BLOCK
  5
33E2
330
33B1
100
AcDbEntity
  8
0
100
AcDbBlockBegin
  2
*X12
 70
     1
 10
0.0
 20
0.0
 30
0.0
  3
*X12
  1

  0
LINE
  5
33B2
330
33B1
100
AcDbEntity
  8
0
  6
CONTINUOUS
 62
     0
100
AcDbLine
 10
41.23382399999999
 20
20.814544
 30
0.0
 11
42.038521
 21
21.61924099999999
 31
0.0
  0
LINE
  5
33B3
330
33B1
100
AcDbEntity
  8
0
  6
CONTINUOUS
 62
     0
100
AcDbLine
 10
40.761924
 20
20.625487
 30
0.0
 11
41.99208099999999
 21
21.855644
 31
0.0
  0
LINE
  5
33B4
330
33B1
100
AcDbEntity
  8
0
  6
CONTINUOUS
 62
     0
100
AcDbLine
 10
42.109364
 20
22.25577
 30
0.0
 11
42.234688
 21
22.381093
 31
0.0
  0
LINE
  5
33B5
330
33B1
100
AcDbEntity
  8
0
  6
CONTINUOUS
 62
     0
100
AcDbLine
 10
40.38714399999999
 20
20.53354899999999
 30
0.0
 11
41.70923799999999
 21
21.855644
 31
0.0
  0
LINE
  5
33B6
330
33B1
100
AcDbEntity
  8
0
  6
CONTINUOUS
 62
     0
100
AcDbLine
 10
41.825433
 20
22.25468199999999
 30
0.0
 11
42.248624
 21
22.677873
 31
0.0
  0
LINE
  5
33B7
330
33B1
100
AcDbEntity
  8
0
  6
CONTINUOUS
 62
     0
100
AcDbLine
 10
40.05277999999999
 20
20.482029
 30
0.0
 11
41.426395
 21
21.855644
 31
0.0
  0
LINE
  5
33B8
330
33B1
100
AcDbEntity
  8
0
  6
CONTINUOUS
 62
     0
100
AcDbLine
 10
41.541502
 20
22.253593
 30
0.0
 11
42.21409
 21
22.92618099999999
 31
0.0
  0
LINE
  5
33B9
330
33B1
100
AcDbEntity
  8
0
  6
CONTINUOUS
 62
     0
100
AcDbLine
 10
39.74394
 20
20.456031
 30
0.0
 11
41.143553
 21
21.855644
 31
0.0
  0
LINE
  5
33BA
330
33B1
100
AcDbEntity
  8
0
  6
CONTINUOUS
 62
     0
100
AcDbLine
 10
41.25757199999999
 20
22.252505
 30
0.0
 11
42.156032
 21
23.15096599999999
 31
0.0
  0
LINE
  5
33BB
330
33B1
100
AcDbEntity
  8
0
  6
CONTINUOUS
 62
     0
100
AcDbLine
 10
39.448788
 20
20.443722
 30
0.0
 11
40.86070999999999
 21
21.855644
 31
0.0
  0
LINE
  5
33BC
330
33B1
100
AcDbEntity
  8
0
  6
CONTINUOUS
 62
     0
100
AcDbLine
 10
40.973641
 20
22.251417
 30
0.0
 11
42.08269699999999
 21
23.360473
 31
0.0
  0
LINE
  5
33BD
330
33B1
100
AcDbEntity
  8
0
  6
CONTINUOUS
 62
     0
100
AcDbLine
 10
39.16676599999999
 20
20.444542
 30
0.0
 11
40.577867
 21
21.855644
 31
0.0
  0
LINE
  5
33BE
330
33B1
100
AcDbEntity
  8
0
  6
CONTINUOUS
 62
     0
100
AcDbLine
 10
40.68971
 20
22.25032899999999
 30
0.0
 11
41.992262
 21
23.552881
 31
0.0
  0
LINE
  5
33BF
330
33B1
100
AcDbEntity
  8
0
  6
CONTINUOUS
 62
     0
100
AcDbLine
 10
38.902535
 20
20.463154
 30
0.0
 11
40.17887199999999
 21
21.739491
 31
0.0
  0
LINE
  5
33C0
330
33B1
100
AcDbEntity
  8
0
  6
CONTINUOUS
 62
     0
100
AcDbLine
 10
40.40577899999999
 20
22.249241
 30
0.0
 11
41.885758
 21
23.729219
 31
0.0
  0
LINE
  5
33C1
330
33B1
100
AcDbEntity
  8
0
  6
CONTINUOUS
 62
     0
100
AcDbLine
 10
38.650769
 20
20.49423099999999
 30
0.0
 11
39.71113499999999
 21
21.55459599999999
 31
0.0
  0
LINE
  5
33C2
330
33B1
100
AcDbEntity
  8
0
  6
CONTINUOUS
 62
     0
100
AcDbLine
 10
40.12184799999999
 20
22.24815199999999
 30
0.0
 11
41.763132
 21
23.889436
 31
0.0
  0
LINE
  5
33C3
330
33B1
100
AcDbEntity
  8
0
  6
CONTINUOUS
 62
     0
100
AcDbLine
 10
38.407693
 20
20.533998
 30
0.0
 11
39.411545
 21
21.53785
 31
0.0
  0
LINE
  5
33C4
330
33B1
100
AcDbEntity
  8
0
  6
CONTINUOUS
 62
     0
100
AcDbLine
 10
39.83791699999999
 20
22.247064
 30
0.0
 11
41.62484899999999
 21
24.033997
 31
0.0
  0
LINE
  5
33C5
330
33B1
100
AcDbEntity
  8
0
  6
CONTINUOUS
 62
     0
100
AcDbLine
 10
38.180128
 20
20.589276
 30
0.0
 11
39.162324
 21
21.57147099999999
 31
0.0
  0
LINE
  5
33C6
330
33B1
100
AcDbEntity
  8
0
  6
CONTINUOUS
 62
     0
100
AcDbLine
 10
39.553986
 20
22.245976
 30
0.0
 11
41.470496
 21
24.16248599999999
 31
0.0
  0
LINE
  5
33C7
330
33B1
100
AcDbEntity
  8
0
  6
CONTINUOUS
 62
     0
100
AcDbLine
 10
37.96719
 20
20.65917999999999
 30
0.0
 11
38.94359
 21
21.63557999999999
 31
0.0
  0
LINE
  5
33C8
330
33B1
100
AcDbEntity
  8
0
  6
CONTINUOUS
 62
     0
100
AcDbLine
 10
39.27005499999999
 20
22.244888
 30
0.0
 11
40.10436099999999
 21
23.079194
 31
0.0
  0
LINE
  5
33C9
330
33B1
100
AcDbEntity
  8
0
  6
CONTINUOUS
 62
     0
100
AcDbLine
 10
40.296756
 20
23.271589
 30
0.0
 11
41.30607499999999
 21
24.280908
 31
0.0
  0
LINE
  5
33CA
330
33B1
100
AcDbEntity
  8
0
  6
CONTINUOUS
 62
     0
100
AcDbLine
 10
37.762127
 20
20.736959
 30
0.0
 11
38.75166699999999
 21
21.7265
 31
0.0
  0
LINE
  5
33CB
330
33B1
100
AcDbEntity
  8
0
  6
CONTINUOUS
 62
     0
100
AcDbLine
 10
38.986768
 20
22.244444
 30
0.0
 11
39.821518
 21
23.079194
 31
0.0
  0
LINE
  5
33CC
330
33B1
100
AcDbEntity
  8
0
  6
CONTINUOUS
 62
     0
100
AcDbLine
 10
40.18585499999999
 20
23.443531
 30
0.0
 11
41.127162
 21
24.384837
 31
0.0
  0
LINE
  5
33CD
330
33B1
100
AcDbEntity
  8
0
  6
CONTINUOUS
 62
     0
100
AcDbLine
 10
37.567077
 20
20.824752
 30
0.0
 11
38.58724199999999
 21
21.844917
 31
0.0
  0
LINE
  5
33CE
330
33B1
100
AcDbEntity
  8
0
  6
CONTINUOUS
 62
     0
100
AcDbLine
 10
38.703926
 20
22.244444
 30
0.0
 11
39.538676
 21
23.079194
 31
0.0
  0
LINE
  5
33CF
330
33B1
100
AcDbEntity
  8
0
  6
CONTINUOUS
 62
     0
100
AcDbLine
 10
40.03559899999999
 20
23.576117
 30
0.0
 11
40.93254199999999
 21
24.47306
 31
0.0
  0
LINE
  5
33D0
330
33B1
100
AcDbEntity
  8
0
  6
CONTINUOUS
 62
     0
100
AcDbLine
 10
37.386162
 20
20.92667999999999
 30
0.0
 11
38.458814
 21
21.99933199999999
 31
0.0
  0
LINE
  5
33D1
330
33B1
100
AcDbEntity
  8
0
  6
CONTINUOUS
 62
     0
100
AcDbLine
 10
38.421083
 20
22.244444
 30
0.0
 11
39.255833
 21
23.079194
 31
0.0
  0
LINE
  5
33D2
330
33B1
100
AcDbEntity
  8
0
  6
CONTINUOUS
 62
     0
100
AcDbLine
 10
39.85366199999999
 20
23.677023
 30
0.0
 11
40.721945
 21
24.545306
 31
0.0
  0
LINE
  5
33D3
330
33B1
100
AcDbEntity
  8
0
  6
CONTINUOUS
 62
     0
100
AcDbLine
 10
37.22185
 20
21.04521099999999
 30
0.0
 11
38.375638
 21
22.198999
 31
0.0
  0
LINE
  5
33D4
330
33B1
100
AcDbEntity
  8
0
  6
CONTINUOUS
 62
     0
100
AcDbLine
 10
39.63845399999999
 20
23.744657
 30
0.0
 11
40.501236
 21
24.607439
 31
0.0
  0
LINE
  5
33D5
330
33B1
100
AcDbEntity
  8
0
  6
CONTINUOUS
 62
     0
100
AcDbLine
 10
37.07656
 20
21.182763
 30
0.0
 11
38.97299
 21
23.079194
 31
0.0
  0
LINE
  5
33D6
330
33B1
100
AcDbEntity
  8
0
  6
CONTINUOUS
 62
     0
100
AcDbLine
 10
39.38487999999999
 20
23.77392599999999
 30
0.0
 11
40.269576
 21
24.658623
 31
0.0
  0
LINE
  5
33D7
330
33B1
100
AcDbEntity
  8
0
  6
CONTINUOUS
 62
     0
100
AcDbLine
 10
36.946052
 20
21.335098
 30
0.0
 11
38.69014699999999
 21
23.079194
 31
0.0
  0
LINE
  5
33D8
330
33B1
100
AcDbEntity
  8
0
  6
CONTINUOUS
 62
     0
100
AcDbLine
 10
39.069245
 20
23.741134
 30
0.0
 11
40.026103
 21
24.697992
 31
0.0
  0
LINE
  5
33D9
330
33B1
100
AcDbEntity
  8
0
  6
CONTINUOUS
 62
     0
100
AcDbLine
 10
36.825922
 20
21.49781099999999
 30
0.0
 11
38.407305
 21
23.079194
 31
0.0
  0
LINE
  5
33DA
330
33B1
100
AcDbEntity
  8
0
  6
CONTINUOUS
 62
     0
100
AcDbLine
 10
36.722045
 20
21.676776
 30
0.0
 11
39.76916899999999
 21
24.723901
 31
0.0
  0
LINE
  5
33DB
330
33B1
100
AcDbEntity
  8
0
  6
CONTINUOUS
 62
     0
100
AcDbLine
 10
36.63367199999999
 20
21.871247
 30
0.0
 11
39.492393
 21
24.729967
 31
0.0
  0
LINE
  5
33DC
330
33B1
100
AcDbEntity
  8
0
  6
CONTINUOUS
 62
     0
100
AcDbLine
 10
36.558727
 20
22.07914399999999
 30
0.0
 11
39.21488899999999
 21
24.735306
 31
0.0
  0
LINE
  5
33DD
330
33B1
100
AcDbEntity
  8
0
  6
CONTINUOUS
 62
     0
100
AcDbLine
 10
36.503475
 20
22.30673499999999
 30
0.0
 11
38.910338
 21
24.713597
 31
0.0
  0
LINE
  5
33DE
330
33B1
100
AcDbEntity
  8
0
  6
CONTINUOUS
 62
     0
100
AcDbLine
 10
36.47892399999999
 20
22.56502699999999
 30
0.0
 11
38.59996399999999
 21
24.686067
 31
0.0
  0
LINE
  5
33DF
330
33B1
100
AcDbEntity
  8
0
  6
CONTINUOUS
 62
     0
100
AcDbLine
 10
36.497306
 20
22.866251
 30
0.0
 11
38.252546
 21
24.62149099999999
 31
0.0
  0
LINE
  5
33E0
330
33B1
100
AcDbEntity
  8
0
  6
CONTINUOUS
 62
     0
100
AcDbLine
 10
36.58207
 20
23.233858
 30
0.0
 11
37.861674
 21
24.513462
 31
0.0
  0
LINE
  5
33E1
330
33B1
100
AcDbEntity
  8
0
  6
CONTINUOUS
 62
     0
100
AcDbLine
 10
36.878958
 20
23.813588
 30
0.0
 11
37.289934
 21
24.224564
 31
0.0
  0
ENDBLK
  5
33E3
330
33B1
100
AcDbEntity
  8
0
100
AcDbBlockEnd
  0
BLOCK
  5
3405
330
33E4
100
AcDbEntity
  8
0
100
AcDbBlockBegin
  2
*X13
 70
     1
 10
0.0
 20
0.0
 30
0.0
  3
*X13
  1

  0
LINE
  5
33E5
330
33E4
100
AcDbEntity
  8
0
  6
CONTINUOUS
 62
     0
100
AcDbLine
 10
47.249714
 20
22.58779399999999
 30
0.0
 11
47.287957
 21
22.62603599999999
 31
0.0
  0
LINE
  5
33E6
330
33E4
100
AcDbEntity
  8
0
  6
CONTINUOUS
 62
     0
100
AcDbLine
 10
46.96687199999999
 20
22.58779399999999
 30
0.0
 11
47.307662
 21
22.928584
 31
0.0
  0
LINE
  5
33E7
330
33E4
100
AcDbEntity
  8
0
  6
CONTINUOUS
 62
     0
100
AcDbLine
 10
46.68402899999999
 20
22.58779399999999
 30
0.0
 11
47.29611499999999
 21
23.19987999999999
 31
0.0
  0
LINE
  5
33E8
330
33E4
100
AcDbEntity
  8
0
  6
CONTINUOUS
 62
     0
100
AcDbLine
 10
46.401186
 20
22.58779399999999
 30
0.0
 11
47.261533
 21
23.448141
 31
0.0
  0
LINE
  5
33E9
330
33E4
100
AcDbEntity
  8
0
  6
CONTINUOUS
 62
     0
100
AcDbLine
 10
44.445486
 20
20.63209399999999
 30
0.0
 11
44.459623
 21
20.64623
 31
0.0
  0
LINE
  5
33EA
330
33E4
100
AcDbEntity
  8
0
  6
CONTINUOUS
 62
     0
100
AcDbLine
 10
46.11834299999999
 20
22.58779399999999
 30
0.0
 11
47.209214
 21
23.67866499999999
 31
0.0
  0
LINE
  5
33EB
330
33E4
100
AcDbEntity
  8
0
  6
CONTINUOUS
 62
     0
100
AcDbLine
 10
44.162643
 20
20.63209399999999
 30
0.0
 11
44.459623
 21
20.929073
 31
0.0
  0
LINE
  5
33EC
330
33E4
100
AcDbEntity
  8
0
  6
CONTINUOUS
 62
     0
100
AcDbLine
 10
45.835501
 20
22.58779399999999
 30
0.0
 11
47.132011
 21
23.884304
 31
0.0
  0
LINE
  5
33ED
330
33E4
100
AcDbEntity
  8
0
  6
CONTINUOUS
 62
     0
100
AcDbLine
 10
43.879801
 20
20.63209399999999
 30
0.0
 11
44.459623
 21
21.21191599999999
 31
0.0
  0
LINE
  5
33EE
330
33E4
100
AcDbEntity
  8
0
  6
CONTINUOUS
 62
     0
100
AcDbLine
 10
45.55265799999999
 20
22.58779399999999
 30
0.0
 11
47.02930300000001
 21
24.06443799999999
 31
0.0
  0
LINE
  5
33EF
330
33E4
100
AcDbEntity
  8
0
  6
CONTINUOUS
 62
     0
100
AcDbLine
 10
43.59695799999999
 20
20.63209399999999
 30
0.0
 11
44.459623
 21
21.494759
 31
0.0
  0
LINE
  5
33F0
330
33E4
100
AcDbEntity
  8
0
  6
CONTINUOUS
 62
     0
100
AcDbLine
 10
45.45457299999999
 20
22.772551
 30
0.0
 11
46.900895
 21
24.218874
 31
0.0
  0
LINE
  5
33F1
330
33E4
100
AcDbEntity
  8
0
  6
CONTINUOUS
 62
     0
100
AcDbLine
 10
43.314115
 20
20.63209399999999
 30
0.0
 11
44.459623
 21
21.77760099999999
 31
0.0
  0
LINE
  5
33F2
330
33E4
100
AcDbEntity
  8
0
  6
CONTINUOUS
 62
     0
100
AcDbLine
 10
45.418199
 20
23.01902
 30
0.0
 11
46.74470999999999
 21
24.345531
 31
0.0
  0
LINE
  5
33F3
330
33E4
100
AcDbEntity
  8
0
  6
CONTINUOUS
 62
     0
100
AcDbLine
 10
43.03127299999999
 20
20.63209399999999
 30
0.0
 11
44.459623
 21
22.060444
 31
0.0
  0
LINE
  5
33F4
330
33E4
100
AcDbEntity
  8
0
  6
CONTINUOUS
 62
     0
100
AcDbLine
 10
45.294614
 20
23.17827799999999
 30
0.0
 11
46.558784
 21
24.442448
 31
0.0
  0
LINE
  5
33F5
330
33E4
100
AcDbEntity
  8
0
  6
CONTINUOUS
 62
     0
100
AcDbLine
 10
42.74842999999999
 20
20.63209399999999
 30
0.0
 11
44.459623
 21
22.343287
 31
0.0
  0
LINE
  5
33F6
330
33E4
100
AcDbEntity
  8
0
  6
CONTINUOUS
 62
     0
100
AcDbLine
 10
45.10254699999999
 20
23.26905299999999
 30
0.0
 11
46.34635699999999
 21
24.512863
 31
0.0
  0
LINE
  5
33F7
330
33E4
100
AcDbEntity
  8
0
  6
CONTINUOUS
 62
     0
100
AcDbLine
 10
42.732973
 20
20.89947899999999
 30
0.0
 11
44.459623
 21
22.626129
 31
0.0
  0
LINE
  5
33F8
330
33E4
100
AcDbEntity
  8
0
  6
CONTINUOUS
 62
     0
100
AcDbLine
 10
44.79762199999999
 20
23.24697099999999
 30
0.0
 11
46.11516599999999
 21
24.564515
 31
0.0
  0
LINE
  5
33F9
330
33E4
100
AcDbEntity
  8
0
  6
CONTINUOUS
 62
     0
100
AcDbLine
 10
42.732973
 20
21.182322
 30
0.0
 11
44.492506
 21
22.941855
 31
0.0
  0
LINE
  5
33FA
330
33E4
100
AcDbEntity
  8
0
  6
CONTINUOUS
 62
     0
100
AcDbLine
 10
42.732973
 20
21.465165
 30
0.0
 11
45.85771499999999
 21
24.58990599999999
 31
0.0
  0
LINE
  5
33FB
330
33E4
100
AcDbEntity
  8
0
  6
CONTINUOUS
 62
     0
100
AcDbLine
 10
42.732973
 20
21.74800799999999
 30
0.0
 11
45.563093
 21
24.57812699999999
 31
0.0
  0
LINE
  5
33FC
330
33E4
100
AcDbEntity
  8
0
  6
CONTINUOUS
 62
     0
100
AcDbLine
 10
42.732973
 20
22.03085
 30
0.0
 11
45.22227700000001
 21
24.52015499999999
 31
0.0
  0
LINE
  5
33FD
330
33E4
100
AcDbEntity
  8
0
  6
CONTINUOUS
 62
     0
100
AcDbLine
 10
42.732973
 20
22.313693
 30
0.0
 11
44.777089
 21
24.357809
 31
0.0
  0
LINE
  5
33FE
330
33E4
100
AcDbEntity
  8
0
  6
CONTINUOUS
 62
     0
100
AcDbLine
 10
42.732973
 20
22.59653599999999
 30
0.0
 11
44.459623
 21
24.323186
 31
0.0
  0
LINE
  5
33FF
330
33E4
100
AcDbEntity
  8
0
  6
CONTINUOUS
 62
     0
100
AcDbLine
 10
42.732973
 20
22.87937799999999
 30
0.0
 11
44.361988
 21
24.508394
 31
0.0
  0
LINE
  5
3400
330
33E4
100
AcDbEntity
  8
0
  6
CONTINUOUS
 62
     0
100
AcDbLine
 10
42.732973
 20
23.162221
 30
0.0
 11
44.079145
 21
24.508394
 31
0.0
  0
LINE
  5
3401
330
33E4
100
AcDbEntity
  8
0
  6
CONTINUOUS
 62
     0
100
AcDbLine
 10
42.732973
 20
23.445064
 30
0.0
 11
43.796303
 21
24.508394
 31
0.0
  0
LINE
  5
3402
330
33E4
100
AcDbEntity
  8
0
  6
CONTINUOUS
 62
     0
100
AcDbLine
 10
42.732973
 20
23.727907
 30
0.0
 11
43.51345999999999
 21
24.508394
 31
0.0
  0
LINE
  5
3403
330
33E4
100
AcDbEntity
  8
0
  6
CONTINUOUS
 62
     0
100
AcDbLine
 10
42.732973
 20
24.010749
 30
0.0
 11
43.23061699999999
 21
24.508394
 31
0.0
  0
LINE
  5
3404
330
33E4
100
AcDbEntity
  8
0
  6
CONTINUOUS
 62
     0
100
AcDbLine
 10
42.732973
 20
24.293592
 30
0.0
 11
42.947775
 21
24.508394
 31
0.0
  0
ENDBLK
  5
3406
330
33E4
100
AcDbEntity
  8
0
100
AcDbBlockEnd
  0
BLOCK
  5
34D4
330
34C1
100
AcDbEntity
  8
0
100
AcDbBlockBegin
  2
B
 70
     0
 10
0.0
 20
0.0
 30
0.0
  3
B
  1

  0
LINE
  5
34C2
330
34C1
100
AcDbEntity
  8
0
  6
CONTINUOUS
 62
     1
100
AcDbLine
 10
149.5612251281738
 20
161.4217049421775
 30
0.0
 11
126.6612220712393
 21
161.4217049421775
 31
0.0
  0
LINE
  5
34C3
330
34C1
100
AcDbEntity
  8
0
  6
CONTINUOUS
 62
     1
100
AcDbLine
 10
156.0612249374389
 20
171.9217049421774
 30
0.0
 11
156.0612249374389
 21
167.9217047514426
 31
0.0
  0
LINE
  5
34C4
330
34C1
100
AcDbEntity
  8
0
  6
CONTINUOUS
 62
     1
100
AcDbLine
 10
155.261224925518
 20
171.9217049421774
 30
0.0
 11
156.0612249374389
 21
171.9217049421774
 31
0.0
  0
LINE
  5
34C5
330
34C1
100
AcDbEntity
  8
0
  6
CONTINUOUS
 62
     1
100
AcDbLine
 10
126.6612224871716
 20
162.2217049191293
 30
0.0
 11
126.6612224871716
 21
161.4217049421775
 31
0.0
  0
LINE
  5
34C6
330
34C1
100
AcDbEntity
  8
0
  6
CONTINUOUS
 62
     1
100
AcDbLine
 10
126.6612232332959
 20
171.9217049072083
 30
0.0
 11
155.261224925518
 21
171.9217049072083
 31
0.0
  0
ARC
  5
34C7
330
34C1
100
AcDbEntity
  8
0
  6
CONTINUOUS
 62
     1
100
AcDbCircle
 10
149.5612251281738
 20
167.9217047514426
 30
0.0
 40
6.499999809265137
100
AcDbArc
 50
270.0
 51
0.0
  0
LINE
  5
34C8
330
34C1
100
AcDbEntity
  8
0
  6
CONTINUOUS
 62
     1
100
AcDbLine
 10
126.6612224871716
 20
165.1217049072084
 30
0.0
 11
126.6612221689715
 21
162.2217049191293
 31
0.0
  0
LINE
  5
34C9
330
34C1
100
AcDbEntity
  8
0
  6
CONTINUOUS
 62
     1
100
AcDbLine
 10
126.6612231455165
 20
171.1217042027105
 30
0.0
 11
125.0612249374389
 21
171.1217042027105
 31
0.0
  0
LINE
  5
34CA
330
34C1
100
AcDbEntity
  8
0
  6
CONTINUOUS
 62
     1
100
AcDbLine
 10
125.0612249374389
 20
165.1217049072084
 30
0.0
 11
126.6612224871716
 21
165.1217049072084
 31
0.0
  0
LINE
  5
34CB
330
34C1
100
AcDbEntity
  8
0
  6
CONTINUOUS
 62
     1
100
AcDbLine
 10
125.0612249374389
 20
171.1217042027105
 30
0.0
 11
125.0612249374389
 21
165.1217049072083
 31
0.0
  0
LINE
  5
34CC
330
34C1
100
AcDbEntity
  8
0
  6
CONTINUOUS
 62
     1
100
AcDbLine
 10
126.6612232332959
 20
171.9217049072083
 30
0.0
 11
126.6612231455165
 21
171.1217042027105
 31
0.0
  0
LINE
  5
34CD
330
34C1
100
AcDbEntity
  8
0
  6
CONTINUOUS
 62
     1
100
AcDbLine
 10
156.0612249374389
 20
166.8717041100823
 30
0.0
 11
155.9758564921433
 21
166.8717041100823
 31
0.0
  0
LINE
  5
34CE
330
34C1
100
AcDbEntity
  8
0
  6
CONTINUOUS
 62
     1
100
AcDbLine
 10
156.0612249374389
 20
166.8717041100823
 30
0.0
 11
156.0612249374389
 21
167.8717039133811
 31
0.0
  0
LINE
  5
34CF
330
34C1
100
AcDbEntity
  8
0
  6
CONTINUOUS
 62
     1
100
AcDbLine
 10
156.4612249374389
 20
168.2865097083155
 30
0.0
 11
156.4612249374389
 21
167.8717040281203
 31
0.0
  0
LINE
  5
34D0
330
34C1
100
AcDbEntity
  8
0
  6
CONTINUOUS
 62
     1
100
AcDbLine
 10
156.0612249374389
 20
168.8717041100823
 30
0.0
 11
156.4612249374389
 21
168.2865097083155
 31
0.0
  0
LINE
  5
34D1
330
34C1
100
AcDbEntity
  8
0
  6
CONTINUOUS
 62
     1
100
AcDbLine
 10
156.4612249374389
 20
167.8717040281203
 30
0.0
 11
156.4612249374389
 21
167.4568985118492
 31
0.0
  0
LINE
  5
34D2
330
34C1
100
AcDbEntity
  8
0
  6
CONTINUOUS
 62
     1
100
AcDbLine
 10
156.0612249374389
 20
166.8717041100823
 30
0.0
 11
156.4612249374389
 21
167.4568985118491
 31
0.0
  0
LINE
  5
34D3
330
34C1
100
AcDbEntity
  8
0
  6
CONTINUOUS
 62
     1
100
AcDbLine
 10
156.0612249374389
 20
167.8717039133811
 30
0.0
 11
156.4612249374389
 21
167.8717040281202
 31
0.0
  0
ENDBLK
  5
34D5
330
34C1
100
AcDbEntity
  8
0
100
AcDbBlockEnd
  0
BLOCK
  5
354F
330
34D6
100
AcDbEntity
  8
0
100
AcDbBlockBegin
  2
D
 70
     0
 10
0.0
 20
0.0
 30
0.0
  3
D
  1

  0
LINE
  5
34D7
330
34D6
100
AcDbEntity
  8
0
  6
CONTINUOUS
 62
     7
100
AcDbLine
 10
57.26750678803853
 20
174.674670937894
 30
0.0
 11
56.06750390120772
 21
174.6746709902548
 31
0.0
  0
LINE
  5
34D8
330
34D6
100
AcDbEntity
  8
0
  6
CONTINUOUS
 62
     7
100
AcDbLine
 10
68.46750577900104
 20
174.6746704491947
 30
0.0
 11
67.26750559149564
 21
174.6746705015553
 31
0.0
  0
LINE
  5
34D9
330
34D6
100
AcDbEntity
  8
0
  6
CONTINUOUS
 62
     7
100
AcDbLine
 10
68.46750577385103
 20
174.8746660122437
 30
0.0
 11
68.46750577900104
 21
174.6746704491946
 31
0.0
  0
LINE
  5
34DA
330
34D6
100
AcDbEntity
  8
0
  6
CONTINUOUS
 62
     7
100
AcDbLine
 10
56.06750458189617
 20
190.2746702734735
 30
0.0
 11
56.06750390120772
 21
174.6746709902549
 31
0.0
  0
ARC
  5
34DB
330
34D6
100
AcDbEntity
  8
0
  6
CONTINUOUS
 62
     7
100
AcDbCircle
 10
56.49250412381355
 20
203.2496717603666
 30
0.0
 40
0.2000000029802323
100
AcDbArc
 50
90.0
 51
180.0
  0
ARC
  5
34DC
330
34D6
100
AcDbEntity
  8
0
  6
CONTINUOUS
 62
     7
100
AcDbCircle
 10
68.04250411785313
 20
203.2496717603666
 30
0.0
 40
0.2000000029802323
100
AcDbArc
 50
0.0
 51
90.0
  0
ARC
  5
34DD
330
34D6
100
AcDbEntity
  8
0
  6
CONTINUOUS
 62
     7
100
AcDbCircle
 10
68.04250411785313
 20
175.0996717663271
 30
0.0
 40
0.2000000029802323
100
AcDbArc
 50
270.0
 51
0.0
  0
LINE
  5
34DE
330
34D6
100
AcDbEntity
  8
0
  6
CONTINUOUS
 62
     7
100
AcDbLine
 10
68.04250411785313
 20
203.4496717633468
 30
0.0
 11
56.4925041238136
 21
203.4496717633468
 31
0.0
  0
LINE
  5
34DF
330
34D6
100
AcDbEntity
  8
0
  6
CONTINUOUS
 62
     7
100
AcDbLine
 10
68.24250412083336
 20
175.0996717663271
 30
0.0
 11
68.24250412083332
 21
203.2496717603667
 31
0.0
  0
ARC
  5
34E0
330
34D6
100
AcDbEntity
  8
0
  6
CONTINUOUS
 62
     7
100
AcDbCircle
 10
64.29250423885412
 20
180.8996718555169
 30
0.0
 40
3.199999999999997
100
AcDbArc
 50
0.0
 51
90.0
  0
LINE
  5
34E1
330
34D6
100
AcDbEntity
  8
0
  6
CONTINUOUS
 62
     7
100
AcDbLine
 10
60.46237710361129
 20
177.9746714975859
 30
0.0
 11
59.79250423181195
 21
177.9746715829285
 31
0.0
  0
LINE
  5
34E2
330
34D6
100
AcDbEntity
  8
0
  6
CONTINUOUS
 62
     7
100
AcDbLine
 10
57.7925042318119
 20
177.9746715829285
 30
0.0
 11
57.12263114145563
 21
177.9746714975859
 31
0.0
  0
LINE
  5
34E3
330
34D6
100
AcDbEntity
  8
0
  6
CONTINUOUS
 62
     7
100
AcDbLine
 10
57.7925042318119
 20
177.9746715829285
 30
0.0
 11
59.7925042318119
 21
177.9746715829285
 31
0.0
  0
LINE
  5
34E4
330
34D6
100
AcDbEntity
  8
0
  6
CONTINUOUS
 62
     7
100
AcDbLine
 10
57.7925042318119
 20
178.4996718486895
 30
0.0
 11
57.7925042318119
 21
177.9746715829285
 31
0.0
  0
LINE
  5
34E5
330
34D6
100
AcDbEntity
  8
0
  6
CONTINUOUS
 62
     7
100
AcDbLine
 10
58.69250432547926
 20
178.4996718486895
 30
0.0
 11
57.79250423181188
 21
178.4996718486895
 31
0.0
  0
LINE
  5
34E6
330
34D6
100
AcDbEntity
  8
0
  6
CONTINUOUS
 62
     7
100
AcDbLine
 10
59.7925042318119
 20
177.9746715829285
 30
0.0
 11
59.7925042318119
 21
178.4996718486895
 31
0.0
  0
LINE
  5
34E7
330
34D6
100
AcDbEntity
  8
0
  6
CONTINUOUS
 62
     7
100
AcDbLine
 10
67.49250412083336
 20
174.8996717633469
 30
0.0
 11
68.04250411785313
 21
174.8996717633469
 31
0.0
  0
LINE
  5
34E8
330
34D6
100
AcDbEntity
  8
0
  6
CONTINUOUS
 62
     7
100
AcDbLine
 10
56.29250412083331
 20
203.2496717603666
 30
0.0
 11
56.29250412083334
 21
184.0996717633468
 31
0.0
  0
LINE
  5
34E9
330
34D6
100
AcDbEntity
  8
0
  6
CONTINUOUS
 62
     7
100
AcDbLine
 10
63.01750412083333
 20
196.5746689240735
 30
0.0
 11
64.89250412083333
 21
196.5746689240735
 31
0.0
  0
LINE
  5
34EA
330
34D6
100
AcDbEntity
  8
0
  6
CONTINUOUS
 62
     7
100
AcDbLine
 10
63.01750412083333
 20
198.7746689240736
 30
0.0
 11
64.89250412083333
 21
198.7746689240736
 31
0.0
  0
LINE
  5
34EB
330
34D6
100
AcDbEntity
  8
0
  6
CONTINUOUS
 62
     7
100
AcDbLine
 10
64.89250412083333
 20
196.5746689240735
 30
0.0
 11
64.89250412083333
 21
198.7746689240736
 31
0.0
  0
LINE
  5
34EC
330
34D6
100
AcDbEntity
  8
0
  6
CONTINUOUS
 62
     7
100
AcDbLine
 10
58.41750412083332
 20
198.7746689240736
 30
0.0
 11
57.14250395795041
 21
198.7746689240736
 31
0.0
  0
LINE
  5
34ED
330
34D6
100
AcDbEntity
  8
0
  6
CONTINUOUS
 62
     7
100
AcDbLine
 10
58.41750412083337
 20
196.5746689240735
 30
0.0
 11
57.14250386420774
 21
196.5746689240735
 31
0.0
  0
LINE
  5
34EE
330
34D6
100
AcDbEntity
  8
0
  6
CONTINUOUS
 62
     7
100
AcDbLine
 10
57.14250395795045
 20
198.7746689240736
 30
0.0
 11
57.14250386420774
 21
196.5746689240736
 31
0.0
  0
LINE
  5
34EF
330
34D6
100
AcDbEntity
  8
0
  6
CONTINUOUS
 62
     7
100
AcDbLine
 10
58.41750412083337
 20
196.5746689240735
 30
0.0
 11
58.41750412083337
 21
198.7746689240735
 31
0.0
  0
LINE
  5
34F0
330
34D6
100
AcDbEntity
  8
0
  6
CONTINUOUS
 62
     7
100
AcDbLine
 10
63.01750412083333
 20
198.7746689240736
 30
0.0
 11
63.01750412083333
 21
196.5746689240736
 31
0.0
  0
LINE
  5
34F1
330
34D6
100
AcDbEntity
  8
0
  6
CONTINUOUS
 62
     7
100
AcDbLine
 10
57.24250618092014
 20
202.6746683291417
 30
0.0
 11
61.76750539998121
 21
202.6746683291417
 31
0.0
  0
LINE
  5
34F2
330
34D6
100
AcDbEntity
  8
0
  6
CONTINUOUS
 62
     7
100
AcDbLine
 10
57.24250618092014
 20
200.8746689121526
 30
0.0
 11
57.54250614912969
 21
201.1746688899365
 31
0.0
  0
LINE
  5
34F3
330
34D6
100
AcDbEntity
  8
0
  6
CONTINUOUS
 62
     7
100
AcDbLine
 10
61.76750539998124
 20
200.8746689121526
 30
0.0
 11
61.46750534434893
 21
201.1746688899365
 31
0.0
  0
LINE
  5
34F4
330
34D6
100
AcDbEntity
  8
0
  6
CONTINUOUS
 62
     7
100
AcDbLine
 10
57.54250614912968
 20
201.1746688899365
 30
0.0
 11
61.4675053443489
 21
201.1746688899365
 31
0.0
  0
LINE
  5
34F5
330
34D6
100
AcDbEntity
  8
0
  6
CONTINUOUS
 62
     7
100
AcDbLine
 10
57.24250618092014
 20
200.8746689121526
 30
0.0
 11
61.76750539998121
 21
200.8746689121526
 31
0.0
  0
LINE
  5
34F6
330
34D6
100
AcDbEntity
  8
0
  6
CONTINUOUS
 62
     7
100
AcDbLine
 10
57.54250614912968
 20
202.6746682950047
 30
0.0
 11
57.54250614912968
 21
201.1746688899366
 31
0.0
  0
LINE
  5
34F7
330
34D6
100
AcDbEntity
  8
0
  6
CONTINUOUS
 62
     7
100
AcDbLine
 10
57.24250618092014
 20
202.6746683291417
 30
0.0
 11
57.24250618092014
 21
200.8746689121526
 31
0.0
  0
LINE
  5
34F8
330
34D6
100
AcDbEntity
  8
0
  6
CONTINUOUS
 62
     7
100
AcDbLine
 10
61.46750534434886
 20
202.6746682950047
 30
0.0
 11
61.46750534434886
 21
201.1746688899366
 31
0.0
  0
LINE
  5
34F9
330
34D6
100
AcDbEntity
  8
0
  6
CONTINUOUS
 62
     7
100
AcDbLine
 10
61.76750539998124
 20
202.6746683291417
 30
0.0
 11
61.76750539998124
 21
200.8746689121526
 31
0.0
  0
LINE
  5
34FA
330
34D6
100
AcDbEntity
  8
0
  6
CONTINUOUS
 62
     7
100
AcDbLine
 10
56.49250424183434
 20
183.2996718486895
 30
0.0
 11
56.29250423011183
 21
183.2996718486895
 31
0.0
  0
LINE
  5
34FB
330
34D6
100
AcDbEntity
  8
0
  6
CONTINUOUS
 62
     7
100
AcDbLine
 10
56.49250424183434
 20
184.0996718486895
 30
0.0
 11
56.29250423011183
 21
184.0996718486895
 31
0.0
  0
LINE
  5
34FC
330
34D6
100
AcDbEntity
  8
0
  6
CONTINUOUS
 62
     7
100
AcDbLine
 10
67.49250423011187
 20
175.0996718584971
 30
0.0
 11
67.49250423011187
 21
174.8996718486895
 31
0.0
  0
LINE
  5
34FD
330
34D6
100
AcDbEntity
  8
0
  6
CONTINUOUS
 62
     7
100
AcDbLine
 10
66.69250423011186
 20
175.0996718584971
 30
0.0
 11
66.69250423011186
 21
174.8996718486895
 31
0.0
  0
LINE
  5
34FE
330
34D6
100
AcDbEntity
  8
0
  6
CONTINUOUS
 62
     7
100
AcDbLine
 10
56.49250424183435
 20
183.2996718555169
 30
0.0
 11
64.29250423885412
 21
183.2996718555169
 31
0.0
  0
LINE
  5
34FF
330
34D6
100
AcDbEntity
  8
0
  6
CONTINUOUS
 62
     7
100
AcDbLine
 10
64.29250423885412
 20
184.0996718555168
 30
0.0
 11
56.49250424183437
 21
184.0996718555168
 31
0.0
  0
LINE
  5
3500
330
34D6
100
AcDbEntity
  8
0
  6
CONTINUOUS
 62
     7
100
AcDbLine
 10
56.29250423011183
 20
184.0996718486895
 30
0.0
 11
56.29250423011183
 21
183.2996718486895
 31
0.0
  0
LINE
  5
3501
330
34D6
100
AcDbEntity
  8
0
  6
CONTINUOUS
 62
     7
100
AcDbLine
 10
67.49250423885417
 20
175.0996718584971
 30
0.0
 11
67.49250423885415
 21
180.8996718555169
 31
0.0
  0
LINE
  5
3502
330
34D6
100
AcDbEntity
  8
0
  6
CONTINUOUS
 62
     7
100
AcDbLine
 10
66.6925042388541
 20
180.8996718555169
 30
0.0
 11
66.69250423885412
 21
175.0996718584971
 31
0.0
  0
LINE
  5
3503
330
34D6
100
AcDbEntity
  8
0
  6
CONTINUOUS
 62
     7
100
AcDbLine
 10
66.69250423011186
 20
174.8996718486895
 30
0.0
 11
67.49250423011186
 21
174.8996718486895
 31
0.0
  0
LINE
  5
3504
330
34D6
100
AcDbEntity
  8
0
  6
CONTINUOUS
 62
     7
100
AcDbLine
 10
57.79250411160558
 20
175.9746714890516
 30
0.0
 11
61.77292347099797
 21
175.9746714890516
 31
0.0
  0
LINE
  5
3505
330
34D6
100
AcDbEntity
  8
0
  6
CONTINUOUS
 62
     7
100
AcDbLine
 10
60.46237709268337
 20
177.9746714890516
 30
0.0
 11
61.2370250861357
 21
177.9746714890516
 31
0.0
  0
LINE
  5
3506
330
34D6
100
AcDbEntity
  8
0
  6
CONTINUOUS
 62
     7
100
AcDbLine
 10
61.23702509706356
 20
177.9746714975859
 30
0.0
 11
61.79250412253342
 21
177.9746714975859
 31
0.0
  0
LINE
  5
3507
330
34D6
100
AcDbEntity
  8
0
  6
CONTINUOUS
 62
     7
100
AcDbLine
 10
61.77292348192583
 20
175.9746714975859
 30
0.0
 11
61.79250412253344
 21
175.9746714975859
 31
0.0
  0
LINE
  5
3508
330
34D6
100
AcDbEntity
  8
0
  6
CONTINUOUS
 62
     7
100
AcDbLine
 10
61.79250412253344
 20
177.9746714975859
 30
0.0
 11
61.79250412253344
 21
175.9746714975859
 31
0.0
  0
LINE
  5
3509
330
34D6
100
AcDbEntity
  8
0
  6
CONTINUOUS
 62
     7
100
AcDbLine
 10
56.2925041099055
 20
175.0996717577928
 30
0.0
 11
56.2925041099055
 21
180.2509604493038
 31
0.0
  0
LINE
  5
350A
330
34D6
100
AcDbEntity
  8
0
  6
CONTINUOUS
 62
     7
100
AcDbLine
 10
56.49250411288574
 20
174.8996717548126
 30
0.0
 11
62.06096878165095
 21
174.8996717548126
 31
0.0
  0
ARC
  5
350B
330
34D6
100
AcDbEntity
  8
0
  6
CONTINUOUS
 62
     7
100
AcDbCircle
 10
56.49250411288574
 20
175.0996717577928
 30
0.0
 40
0.2000000029802323
100
AcDbArc
 50
180.0
 51
270.0
  0
LINE
  5
350C
330
34D6
100
AcDbEntity
  8
0
  6
CONTINUOUS
 62
     7
100
AcDbLine
 10
56.29250412083343
 20
180.899671719185
 30
0.0
 11
56.29250412083343
 21
180.2509604578381
 31
0.0
  0
LINE
  5
350D
330
34D6
100
AcDbEntity
  8
0
  6
CONTINUOUS
 62
     7
100
AcDbLine
 10
56.29250412083343
 20
183.2996717633469
 30
0.0
 11
56.29250412083343
 21
180.8996719508844
 31
0.0
  0
LINE
  5
350E
330
34D6
100
AcDbEntity
  8
0
  6
CONTINUOUS
 62
     7
100
AcDbLine
 10
62.06096879257882
 20
174.8996717633469
 30
0.0
 11
66.69250412083336
 21
174.8996717633469
 31
0.0
  0
LINE
  5
350F
330
34D6
100
AcDbEntity
  8
0
  6
CONTINUOUS
 62
     7
100
AcDbLine
 10
57.79250411160558
 20
175.9746714890516
 30
0.0
 11
57.79250411160558
 21
177.9746714890516
 31
0.0
  0
LINE
  5
3510
330
34D6
100
AcDbEntity
  8
0
  6
CONTINUOUS
 62
     7
100
AcDbLine
 10
57.7925042318119
 20
178.4996718486895
 30
0.0
 11
57.12263114145563
 21
178.4996717633468
 31
0.0
  0
LINE
  5
3511
330
34D6
100
AcDbEntity
  8
0
  6
CONTINUOUS
 62
     7
100
AcDbLine
 10
60.46237710361129
 20
177.9746714975859
 30
0.0
 11
60.46237710361129
 21
178.4996717633468
 31
0.0
  0
LINE
  5
3512
330
34D6
100
AcDbEntity
  8
0
  6
CONTINUOUS
 62
     7
100
AcDbLine
 10
57.1226311414556
 20
177.9746714975859
 30
0.0
 11
57.1226311414556
 21
178.4996717633468
 31
0.0
  0
ARC
  5
3513
330
34D6
100
AcDbEntity
  8
0
  6
CONTINUOUS
 62
     7
100
AcDbCircle
 10
64.29250423885412
 20
180.8996718555169
 30
0.0
 40
2.399999999999999
100
AcDbArc
 50
0.0
 51
90.0
  0
LINE
  5
3514
330
34D6
100
AcDbEntity
  8
0
  6
CONTINUOUS
 62
     7
100
AcDbLine
 10
67.26750642201193
 20
172.6746742732546
 30
0.0
 11
64.26750666043054
 21
172.6746742732546
 31
0.0
  0
LINE
  5
3515
330
34D6
100
AcDbEntity
  8
0
  6
CONTINUOUS
 62
     7
100
AcDbLine
 10
67.26750642201193
 20
174.8404847474794
 30
0.0
 11
64.26750666043054
 21
174.8404847474794
 31
0.0
  0
LINE
  5
3516
330
34D6
100
AcDbEntity
  8
0
  6
CONTINUOUS
 62
     7
100
AcDbLine
 10
64.26750666043052
 20
174.8404847474794
 30
0.0
 11
64.26750666043052
 21
172.6746742732547
 31
0.0
  0
ARC
  5
3517
330
34D6
100
AcDbEntity
  8
0
  6
CONTINUOUS
 62
     7
100
AcDbCircle
 10
68.26751449816595
 20
203.474679112664
 30
0.0
 40
0.1999892335711711
100
AcDbArc
 50
359.999096383536
 51
90.00090361644742
  0
ARC
  5
3518
330
34D6
100
AcDbEntity
  8
0
  6
CONTINUOUS
 62
     7
100
AcDbCircle
 10
56.26749423746628
 20
203.4746791126639
 30
0.0
 40
0.1999892335711777
100
AcDbArc
 50
89.99909638353427
 51
180.0009036164374
  0
ARC
  5
3519
330
34D6
100
AcDbEntity
  8
0
  6
CONTINUOUS
 62
     7
100
AcDbCircle
 10
68.26751449816606
 20
174.874662858197
 30
0.0
 40
0.1999892335711214
100
AcDbArc
 50
269.9990963835322
 51
0.0009036164680083
  0
ARC
  5
351A
330
34D6
100
AcDbEntity
  8
0
  6
CONTINUOUS
 62
     7
100
AcDbCircle
 10
56.26749423746616
 20
174.874662858197
 30
0.0
 40
0.1999892335710712
100
AcDbArc
 50
179.999096383536
 51
270.0009036164963
  0
LINE
  5
351B
330
34D6
100
AcDbEntity
  8
0
  6
CONTINUOUS
 62
     7
100
AcDbLine
 10
68.46750373171232
 20
174.8746660122437
 30
0.0
 11
68.4675037317123
 21
195.3746704515414
 31
0.0
  0
LINE
  5
351C
330
34D6
100
AcDbEntity
  8
0
  6
CONTINUOUS
 62
     7
100
AcDbLine
 10
56.06750500392002
 20
198.5746699401773
 30
0.0
 11
56.06750500392001
 21
203.4746759586174
 31
0.0
  0
LINE
  5
351D
330
34D6
100
AcDbEntity
  8
0
  6
CONTINUOUS
 62
     7
100
AcDbLine
 10
57.26750761855488
 20
174.8404847499347
 30
0.0
 11
57.26750761855488
 21
172.6746742732547
 31
0.0
  0
LINE
  5
351E
330
34D6
100
AcDbEntity
  8
0
  6
CONTINUOUS
 62
     7
100
AcDbLine
 10
67.26750642201193
 20
174.8404847474794
 30
0.0
 11
67.26750642201193
 21
172.6746742732547
 31
0.0
  0
LINE
  5
351F
330
34D6
100
AcDbEntity
  8
0
  6
CONTINUOUS
 62
     7
100
AcDbLine
 10
63.36750536608713
 20
174.8753923576459
 30
0.0
 11
63.36750536608713
 21
174.1746716893855
 31
0.0
  0
LINE
  5
3520
330
34D6
100
AcDbEntity
  8
0
  6
CONTINUOUS
 62
     7
100
AcDbLine
 10
61.16750536608719
 20
174.8753923576459
 30
0.0
 11
61.16750536608719
 21
174.1746716893855
 31
0.0
  0
LINE
  5
3521
330
34D6
100
AcDbEntity
  8
0
  6
CONTINUOUS
 62
     7
100
AcDbLine
 10
63.36750536608713
 20
174.1746716893855
 30
0.0
 11
61.16750536608713
 21
174.1746716893855
 31
0.0
  0
LINE
  5
3522
330
34D6
100
AcDbEntity
  8
0
  6
CONTINUOUS
 62
     7
100
AcDbLine
 10
63.36750536608713
 20
174.8753923576459
 30
0.0
 11
61.16750536608713
 21
174.8753923576459
 31
0.0
  0
LINE
  5
3523
330
34D6
100
AcDbEntity
  8
0
  6
CONTINUOUS
 62
     7
100
AcDbLine
 10
56.29091393837495
 20
198.0746690750114
 30
0.0
 11
56.29091393837498
 21
179.4745692004816
 31
0.0
  0
LINE
  5
3524
330
34D6
100
AcDbEntity
  8
0
  6
CONTINUOUS
 62
     7
100
AcDbLine
 10
68.24409703528039
 20
179.4745692004816
 30
0.0
 11
68.24409703528036
 21
198.0746690750113
 31
0.0
  0
LINE
  5
3525
330
34D6
100
AcDbEntity
  8
0
  6
CONTINUOUS
 62
     7
100
AcDbLine
 10
61.16750436072527
 20
174.6746736246507
 30
0.0
 11
60.26750608037622
 21
174.6746736246507
 31
0.0
  0
LINE
  5
3526
330
34D6
100
AcDbEntity
  8
0
  6
CONTINUOUS
 62
     7
100
AcDbLine
 10
64.26750582991423
 20
174.6746736246507
 30
0.0
 11
63.36750436357447
 21
174.6746736246507
 31
0.0
  0
LINE
  5
3527
330
34D6
100
AcDbEntity
  8
0
  6
CONTINUOUS
 62
     7
100
AcDbLine
 10
60.26750691089256
 20
172.6746742732547
 30
0.0
 11
57.26750761855484
 21
172.6746742732547
 31
0.0
  0
LINE
  5
3528
330
34D6
100
AcDbEntity
  8
0
  6
CONTINUOUS
 62
     7
100
AcDbLine
 10
60.26750691089251
 20
174.8404847499347
 30
0.0
 11
57.26750761855478
 21
174.8404847499347
 31
0.0
  0
LINE
  5
3529
330
34D6
100
AcDbEntity
  8
0
  6
CONTINUOUS
 62
     7
100
AcDbLine
 10
60.26750691089251
 20
174.8404847499347
 30
0.0
 11
60.26750691089251
 21
172.6746742732547
 31
0.0
  0
LINE
  5
352A
330
34D6
100
AcDbEntity
  8
0
  6
CONTINUOUS
 62
     7
100
AcDbLine
 10
65.14416990792603
 20
180.5941962614193
 30
0.0
 11
65.14416990792603
 21
181.2051468049397
 31
0.0
  0
LINE
  5
352B
330
34D6
100
AcDbEntity
  8
0
  6
CONTINUOUS
 62
     7
100
AcDbLine
 10
63.98702891026909
 20
180.0480057612991
 30
0.0
 11
64.59797945378958
 21
180.0480057612991
 31
0.0
  0
LINE
  5
352C
330
34D6
100
AcDbEntity
  8
0
  6
CONTINUOUS
 62
     7
100
AcDbLine
 10
63.4408384101489
 20
181.2051467589562
 30
0.0
 11
63.4408384101489
 21
180.5941962154357
 31
0.0
  0
LINE
  5
352D
330
34D6
100
AcDbEntity
  8
0
  6
CONTINUOUS
 62
     7
100
AcDbLine
 10
64.59797940780589
 20
181.7513372590763
 30
0.0
 11
63.98702886428541
 21
181.7513372590763
 31
0.0
  0
LINE
  5
352E
330
34D6
100
AcDbEntity
  8
0
  6
CONTINUOUS
 62
     7
100
AcDbLine
 10
64.01750419287044
 20
182.0996712536149
 30
0.0
 11
63.9430877942971
 21
181.2490879257387
 31
0.0
  0
LINE
  5
352F
330
34D6
100
AcDbEntity
  8
0
  6
CONTINUOUS
 62
     7
100
AcDbLine
 10
63.94308779429713
 20
181.2490879257387
 30
0.0
 11
63.09250451681328
 21
181.1746715315741
 31
0.0
  0
LINE
  5
3530
330
34D6
100
AcDbEntity
  8
0
  6
CONTINUOUS
 62
     7
100
AcDbLine
 10
63.09250451681328
 20
181.1746715315741
 30
0.0
 11
63.09250451681329
 21
180.6246715315741
 31
0.0
  0
LINE
  5
3531
330
34D6
100
AcDbEntity
  8
0
  6
CONTINUOUS
 62
     7
100
AcDbLine
 10
63.09250451681328
 20
180.6246715315741
 30
0.0
 11
63.94308784468955
 21
180.5502551330008
 31
0.0
  0
LINE
  5
3532
330
34D6
100
AcDbEntity
  8
0
  6
CONTINUOUS
 62
     7
100
AcDbLine
 10
63.94308784468956
 20
180.5502551330008
 30
0.0
 11
64.01750423885411
 21
179.6996718555169
 31
0.0
  0
LINE
  5
3533
330
34D6
100
AcDbEntity
  8
0
  6
CONTINUOUS
 62
     7
100
AcDbLine
 10
64.01750423885414
 20
179.6996718555169
 30
0.0
 11
64.56750423885414
 21
179.6996718555169
 31
0.0
  0
LINE
  5
3534
330
34D6
100
AcDbEntity
  8
0
  6
CONTINUOUS
 62
     7
100
AcDbLine
 10
64.56750423885409
 20
179.6996718555169
 30
0.0
 11
64.64192063742743
 21
180.5502551833931
 31
0.0
  0
LINE
  5
3535
330
34D6
100
AcDbEntity
  8
0
  6
CONTINUOUS
 62
     7
100
AcDbLine
 10
64.64192063742746
 20
180.5502551833931
 30
0.0
 11
65.49250391491131
 21
180.6246715775577
 31
0.0
  0
LINE
  5
3536
330
34D6
100
AcDbEntity
  8
0
  6
CONTINUOUS
 62
     7
100
AcDbLine
 10
65.49250391491131
 20
180.6246715775577
 30
0.0
 11
65.49250391491131
 21
181.1746715775577
 31
0.0
  0
LINE
  5
3537
330
34D6
100
AcDbEntity
  8
0
  6
CONTINUOUS
 62
     7
100
AcDbLine
 10
65.49250391491125
 20
181.1746715775578
 30
0.0
 11
64.64192058703499
 21
181.2490879761311
 31
0.0
  0
LINE
  5
3538
330
34D6
100
AcDbEntity
  8
0
  6
CONTINUOUS
 62
     7
100
AcDbLine
 10
64.64192058703503
 20
181.249087976131
 30
0.0
 11
64.56750419287047
 21
182.0996712536149
 31
0.0
  0
LINE
  5
3539
330
34D6
100
AcDbEntity
  8
0
  6
CONTINUOUS
 62
     7
100
AcDbLine
 10
64.5675041928705
 20
182.0996712536149
 30
0.0
 11
64.01750419287051
 21
182.0996712536149
 31
0.0
  0
LINE
  5
353A
330
34D6
100
AcDbEntity
  8
0
  6
CONTINUOUS
 62
     7
100
AcDbLine
 10
59.02387518412002
 20
179.2996718555169
 30
0.0
 11
62.50364985685426
 21
179.2996718555169
 31
0.0
  0
ARC
  5
353B
330
34D6
100
AcDbEntity
  8
0
  6
CONTINUOUS
 62
     7
100
AcDbCircle
 10
64.29250423885412
 20
180.8996718555169
 30
0.0
 40
2.400000000000003
100
AcDbArc
 50
199.4712206344904
 51
221.8103148957784
  0
LINE
  5
353C
330
34D6
100
AcDbEntity
  8
0
  6
CONTINUOUS
 62
     7
100
AcDbLine
 10
62.02976253905717
 20
180.0996718555168
 30
0.0
 11
59.35524603401852
 21
180.0996718555168
 31
0.0
  0
LINE
  5
353D
330
34D6
100
AcDbEntity
  8
0
  6
CONTINUOUS
 62
     7
100
AcDbLine
 10
59.35524603401848
 20
180.0996718555168
 30
0.0
 11
58.55524603401847
 21
180.8996718555168
 31
0.0
  0
LINE
  5
353E
330
34D6
100
AcDbEntity
  8
0
  6
CONTINUOUS
 62
     7
100
AcDbLine
 10
58.55524603401852
 20
180.8996718555169
 30
0.0
 11
59.35524603401852
 21
181.6996718555169
 31
0.0
  0
LINE
  5
353F
330
34D6
100
AcDbEntity
  8
0
  6
CONTINUOUS
 62
     7
100
AcDbLine
 10
59.35524603401848
 20
181.6996718555168
 30
0.0
 11
62.02976253905713
 21
181.6996718555168
 31
0.0
  0
ARC
  5
3540
330
34D6
100
AcDbEntity
  8
0
  6
CONTINUOUS
 62
     7
100
AcDbCircle
 10
64.29250423885412
 20
180.8996718555169
 30
0.0
 40
2.4
100
AcDbArc
 50
138.1896851042216
 51
160.5287793655097
  0
LINE
  5
3541
330
34D6
100
AcDbEntity
  8
0
  6
CONTINUOUS
 62
     7
100
AcDbLine
 10
62.50364985685428
 20
182.4996718555169
 30
0.0
 11
59.02387518412003
 21
182.4996718555169
 31
0.0
  0
LINE
  5
3542
330
34D6
100
AcDbEntity
  8
0
  6
CONTINUOUS
 62
     7
100
AcDbLine
 10
59.02387518412002
 20
182.4996718555169
 30
0.0
 11
57.42387518412002
 21
180.8996718555169
 31
0.0
  0
LINE
  5
3543
330
34D6
100
AcDbEntity
  8
0
  6
CONTINUOUS
 62
     7
100
AcDbLine
 10
57.42387518412005
 20
180.8996718555169
 30
0.0
 11
59.02387518412005
 21
179.2996718555169
 31
0.0
  0
LINE
  5
3544
330
34D6
100
AcDbEntity
  8
0
  6
CONTINUOUS
 62
     7
100
AcDbLine
 10
58.69250433422156
 20
178.4996718555169
 30
0.0
 11
64.29250423885412
 21
178.4996718555169
 31
0.0
  0
LINE
  5
3545
330
34D6
100
AcDbEntity
  8
0
  6
CONTINUOUS
 62
     7
100
AcDbLine
 10
56.29250423885412
 20
180.8996719508844
 30
0.0
 11
58.69250433422156
 21
178.4996718555169
 31
0.0
  0
LINE
  5
3546
330
34D6
100
AcDbEntity
  8
0
  6
CONTINUOUS
 62
     7
100
AcDbLine
 10
56.29250423885412
 20
180.8996717601494
 30
0.0
 11
58.69250433422155
 21
183.2996718555169
 31
0.0
  0
ARC
  5
3547
330
34D6
100
AcDbEntity
  8
0
  6
CONTINUOUS
 62
     7
100
AcDbCircle
 10
64.29250423885412
 20
180.8996718555169
 30
0.0
 40
2.399999999999999
100
AcDbArc
 50
270.0
 51
0.0
  0
LINE
  5
3548
330
34D6
100
AcDbEntity
  8
0
  6
CONTINUOUS
 62
     7
100
AcDbLine
 10
56.06750458189617
 20
190.2746702734735
 30
0.0
 11
56.06750458189616
 21
195.3746704515414
 31
0.0
  0
LINE
  5
3549
330
34D6
100
AcDbEntity
  8
0
  6
CONTINUOUS
 62
     7
100
AcDbLine
 10
56.06749408191024
 20
203.4746759586174
 30
0.0
 11
56.06749408191024
 21
203.6746655524029
 31
0.0
  0
LINE
  5
354A
330
34D6
100
AcDbEntity
  8
0
  6
CONTINUOUS
 62
     7
100
AcDbLine
 10
68.46749487730471
 20
203.6746655524029
 30
0.0
 11
68.46749487730471
 21
203.4746759586174
 31
0.0
  0
LINE
  5
354B
330
34D6
100
AcDbEntity
  8
0
  6
CONTINUOUS
 62
     7
100
AcDbLine
 10
68.26751134411927
 20
203.6746655524029
 30
0.0
 11
68.46750405248949
 21
203.6746655524029
 31
0.0
  0
LINE
  5
354C
330
34D6
100
AcDbEntity
  8
0
  6
CONTINUOUS
 62
     7
100
AcDbLine
 10
56.06749408191024
 20
203.674665552403
 30
0.0
 11
68.46750405248949
 21
203.6746655524029
 31
0.0
  0
LINE
  5
354D
330
34D6
100
AcDbEntity
  8
0
  6
CONTINUOUS
 62
     7
100
AcDbLine
 10
56.06750458189617
 20
195.3746704515414
 30
0.0
 11
56.06750458189616
 21
198.5746699401773
 31
0.0
  0
LINE
  5
354E
330
34D6
100
AcDbEntity
  8
0
  6
CONTINUOUS
 62
     7
100
AcDbLine
 10
68.46750405248951
 20
203.6746655524029
 30
0.0
 11
68.46750405248951
 21
195.3746704515414
 31
0.0
  0
ENDBLK
  5
3550
330
34D6
100
AcDbEntity
  8
0
100
AcDbBlockEnd
  0
BLOCK
  5
356C
330
3551
100
AcDbEntity
  8
0
100
AcDbBlockBegin
  2
D1
 70
     0
 10
0.0
 20
0.0
 30
0.0
  3
D1
  1

  0
INSERT
  5
3552
330
3551
100
AcDbEntity
  8
0
100
AcDbBlockReference
  2
NON_RELAZIONATI
 10
0.0
 20
0.0
 30
0.0
  0
LINE
  5
3553
330
3551
100
AcDbEntity
  8
0
  6
CONTINUOUS
 62
     1
100
AcDbLine
 10
55.31750331181837
 20
161.4217052322048
 30
0.0
 11
69.21776851315719
 21
161.4217052322048
 31
0.0
  0
ARC
  5
3554
330
3551
100
AcDbEntity
  8
0
  6
CONTINUOUS
 62
     1
100
AcDbCircle
 10
55.31750332373928
 20
162.2217052441258
 30
0.0
 40
0.8000000119209289
100
AcDbArc
 50
180.0
 51
270.0
  0
ARC
  5
3555
330
3551
100
AcDbEntity
  8
0
  6
CONTINUOUS
 62
     1
100
AcDbCircle
 10
69.21750329989743
 20
162.2217052441258
 30
0.0
 40
0.8000000119209289
100
AcDbArc
 50
270.0
 51
0.0
  0
LINE
  5
3556
330
3551
100
AcDbEntity
  8
0
  6
CONTINUOUS
 62
     1
100
AcDbLine
 10
55.31750332373928
 20
171.92170498305
 30
0.0
 11
54.51750331181836
 21
171.92170498305
 31
0.0
  0
LINE
  5
3557
330
3551
100
AcDbEntity
  8
0
  6
CONTINUOUS
 62
     1
100
AcDbLine
 10
57.26750666488055
 20
171.9217049480809
 30
0.0
 11
55.31750332373928
 21
171.9217049480809
 31
0.0
  0
LINE
  5
3558
330
3551
100
AcDbEntity
  8
0
  6
CONTINUOUS
 62
     1
100
AcDbLine
 10
54.51750331181836
 20
167.9217047923151
 30
0.0
 11
54.51750331181836
 21
171.92170498305
 31
0.0
  0
LINE
  5
3559
330
3551
100
AcDbEntity
  8
0
  6
CONTINUOUS
 62
     1
100
AcDbLine
 10
54.51750331181836
 20
162.2217052441258
 30
0.0
 11
54.51750331181836
 21
167.9217047923151
 31
0.0
  0
LINE
  5
355A
330
3551
100
AcDbEntity
  8
0
  6
CONTINUOUS
 62
     1
100
AcDbLine
 10
69.21750329989743
 20
171.92170498305
 30
0.0
 11
70.01750331181836
 21
171.92170498305
 31
0.0
  0
LINE
  5
355B
330
3551
100
AcDbEntity
  8
0
  6
CONTINUOUS
 62
     1
100
AcDbLine
 10
70.01750331181836
 20
167.9217047923151
 30
0.0
 11
70.01750331181836
 21
171.92170498305
 31
0.0
  0
LINE
  5
355C
330
3551
100
AcDbEntity
  8
0
  6
CONTINUOUS
 62
     1
100
AcDbLine
 10
70.01750331181836
 20
162.2217052441258
 30
0.0
 11
70.01750331181836
 21
167.9217047923151
 31
0.0
  0
LINE
  5
355D
330
3551
100
AcDbEntity
  8
0
  6
CONTINUOUS
 62
     1
100
AcDbLine
 10
62.26750329676821
 20
166.8717038121916
 30
0.0
 11
57.76750329974845
 21
167.8717038121916
 31
0.0
  0
LINE
  5
355E
330
3551
100
AcDbEntity
  8
0
  6
CONTINUOUS
 62
     1
100
AcDbLine
 10
66.7675032997484
 20
167.8717038121916
 30
0.0
 11
62.26750329676817
 21
166.8717038121916
 31
0.0
  0
LINE
  5
355F
330
3551
100
AcDbEntity
  8
0
  6
CONTINUOUS
 62
     1
100
AcDbLine
 10
62.26750330272864
 20
168.8717038121916
 30
0.0
 11
66.7675032997484
 21
167.8717038121916
 31
0.0
  0
LINE
  5
3560
330
3551
100
AcDbEntity
  8
0
  6
CONTINUOUS
 62
     1
100
AcDbLine
 10
57.76750329974845
 20
167.8717038121916
 30
0.0
 11
62.26750330272868
 21
168.8717038121916
 31
0.0
  0
LINE
  5
3561
330
3551
100
AcDbEntity
  8
0
  6
CONTINUOUS
 62
     1
100
AcDbLine
 10
62.26750330264656
 20
168.2865093929402
 30
0.0
 11
60.40087810769903
 21
167.8717037943377
 31
0.0
  0
LINE
  5
3562
330
3551
100
AcDbEntity
  8
0
  6
CONTINUOUS
 62
     1
100
AcDbLine
 10
64.13412849179781
 20
167.8717037950763
 30
0.0
 11
62.2675033026466
 21
168.2865093929402
 31
0.0
  0
LINE
  5
3563
330
3551
100
AcDbEntity
  8
0
  6
CONTINUOUS
 62
     1
100
AcDbLine
 10
62.26750330272864
 20
168.8717038121916
 30
0.0
 11
62.26750330264657
 21
168.2865093929402
 31
0.0
  0
LINE
  5
3564
330
3551
100
AcDbEntity
  8
0
  6
CONTINUOUS
 62
     1
100
AcDbLine
 10
62.26750329685024
 20
167.4568981964738
 30
0.0
 11
64.13412849179777
 21
167.8717037950763
 31
0.0
  0
LINE
  5
3565
330
3551
100
AcDbEntity
  8
0
  6
CONTINUOUS
 62
     1
100
AcDbLine
 10
66.7675032997484
 20
167.8717038121916
 30
0.0
 11
64.13412849179777
 21
167.8717037950764
 31
0.0
  0
LINE
  5
3566
330
3551
100
AcDbEntity
  8
0
  6
CONTINUOUS
 62
     1
100
AcDbLine
 10
60.40087810769904
 20
167.8717037943377
 30
0.0
 11
62.26750329685025
 21
167.4568981964738
 31
0.0
  0
LINE
  5
3567
330
3551
100
AcDbEntity
  8
0
  6
CONTINUOUS
 62
     1
100
AcDbLine
 10
62.26750329676821
 20
166.8717038121916
 30
0.0
 11
62.26750329685028
 21
167.4568981964739
 31
0.0
  0
LINE
  5
3568
330
3551
100
AcDbEntity
  8
0
  6
CONTINUOUS
 62
     1
100
AcDbLine
 10
57.76750329974845
 20
167.8717038121916
 30
0.0
 11
60.40087810769908
 21
167.8717037943377
 31
0.0
  0
LINE
  5
3569
330
3551
100
AcDbEntity
  8
0
  6
CONTINUOUS
 62
     1
100
AcDbLine
 10
61.16750441241288
 20
171.9217049480809
 30
0.0
 11
60.26750595721819
 21
171.9217049480809
 31
0.0
  0
LINE
  5
356A
330
3551
100
AcDbEntity
  8
0
  6
CONTINUOUS
 62
     1
100
AcDbLine
 10
69.21750329989743
 20
171.9217049480809
 30
0.0
 11
67.26750546833762
 21
171.9217049480809
 31
0.0
  0
LINE
  5
356B
330
3551
100
AcDbEntity
  8
0
  6
CONTINUOUS
 62
     1
100
AcDbLine
 10
64.26750570675619
 20
171.9217049480809
 30
0.0
 11
63.36750441241282
 21
171.9217049480809
 31
0.0
  0
ENDBLK
  5
356D
330
3551
100
AcDbEntity
  8
0
100
AcDbBlockEnd
  0
BLOCK
  5
356F
330
356E
100
AcDbEntity
  8
0
100
AcDbBlockBegin
  2
NON_RELAZIONATI
 70
     0
 10
0.0
 20
0.0
 30
0.0
  3
NON_RELAZIONATI
  1

  0
ENDBLK
  5
3570
330
356E
100
AcDbEntity
  8
0
100
AcDbBlockEnd
  0
BLOCK
  5
4182
330
4178
100
AcDbEntity
  8
0
100
AcDbBlockBegin
  2
*D60
 70
     1
 10
0.0
 20
0.0
 30
0.0
  3
*D60
  1

  0
LINE
  5
445C
330
4178
100
AcDbEntity
  8
DIM
 62
     0
100
AcDbLine
 10
131.3068091320926
 20
244.8112262368583
 30
0.0
 11
131.3068227191785
 21
253.6916761892844
 31
0.0
  0
LINE
  5
445D
330
4178
100
AcDbEntity
  8
DIM
 62
     0
100
AcDbLine
 10
110.306748021939
 20
215.0694369260569
 30
0.0
 11
110.3068071140029
 21
253.6917083193021
 31
0.0
  0
LINE
  5
445E
330
4178
100
AcDbEntity
  8
DIM
 62
     0
100
AcDbLine
 10
129.306821699181
 20
253.0250125826179
 30
0.0
 11
112.3068060940008
 21
253.0250385926368
 31
0.0
  0
SOLID
  5
445F
330
4178
100
AcDbEntity
  8
DIM
 62
     0
100
AcDbTrace
 10
129.3068222091809
 20
253.3583459159509
 30
0.0
 11
129.3068211891811
 21
252.6916792492849
 31
0.0
 12
131.3068216991787
 22
253.0250095226185
 32
0.0
 13
131.3068216991787
 23
253.0250095226185
 33
0.0
  0
SOLID
  5
4460
330
4178
100
AcDbEntity
  8
DIM
 62
     0
100
AcDbTrace
 10
112.3068066040007
 20
253.3583719259698
 30
0.0
 11
112.3068055840009
 21
252.6917052593038
 31
0.0
 12
110.3068060940031
 22
253.0250416526362
 32
0.0
 13
110.3068060940031
 23
253.0250416526362
 33
0.0
  0
MTEXT
  5
4461
330
4178
100
AcDbEntity
  8
DIM
 62
     2
100
AcDbMText
 10
120.8068160473575
 20
254.4307554648427
 30
0.0
 40
2.0
 41
0.0
 71
     5
 72
     1
  1
\A1;21
  7
TSTYLE6
 11
0.9999999999988295
 21
-0.0000015299997074
 31
0.0
1001
ACAD
1000
MTEXTBEGIN
1070
    73
1070
     1
1070
    44
1040
1.0
1070
    74
1070
     0
1000
MTEXTEND
  0
POINT
  5
4462
330
4178
100
AcDbEntity
  8
DEFPOINTS
 62
     0
100
AcDbPoint
 10
131.3068086730927
 20
244.511226225208
 30
0.0
  0
POINT
  5
4463
330
4178
100
AcDbEntity
  8
DEFPOINTS
 62
     0
100
AcDbPoint
 10
110.3067475629391
 20
214.7694369144065
 30
0.0
  0
POINT
  5
4464
330
4178
100
AcDbEntity
  8
DEFPOINTS
 62
     0
100
AcDbPoint
 10
110.3068060940031
 20
253.0250416526362
 30
0.0
  0
ENDBLK
  5
4183
330
4178
100
AcDbEntity
  8
0
100
AcDbBlockEnd
  0
BLOCK
  5
418F
330
4184
100
AcDbEntity
  8
0
100
AcDbBlockBegin
  2
*D61
 70
     1
 10
0.0
 20
0.0
 30
0.0
  3
*D61
  1

  0
LINE
  5
4435
330
4184
100
AcDbEntity
  8
DIM
 62
     0
100
AcDbLine
 10
110.306748021939
 20
215.0694369301805
 30
0.0
 11
110.3068151817165
 21
258.9647239163735
 31
0.0
  0
LINE
  5
4436
330
4184
100
AcDbEntity
  8
DIM
 62
     0
100
AcDbLine
 10
106.7067884083542
 20
241.4215589427286
 30
0.0
 11
106.7068152494003
 21
258.9647294243724
 31
0.0
  0
LINE
  5
4437
330
4184
100
AcDbEntity
  8
DIM
 62
     0
100
AcDbLine
 10
112.3068141617143
 20
258.2980541897081
 30
0.0
 11
114.306814161712
 21
258.2980511297086
 31
0.0
  0
LINE
  5
4438
330
4184
100
AcDbEntity
  8
DIM
 62
     0
100
AcDbLine
 10
104.7068142294029
 20
258.298065817706
 30
0.0
 11
97.54520693483927
 21
258.2980767749633
 31
0.0
  0
SOLID
  5
4439
330
4184
100
AcDbEntity
  8
DIM
 62
     0
100
AcDbTrace
 10
112.3068146717143
 20
258.631387523041
 30
0.0
 11
112.3068136517144
 21
257.9647208563752
 31
0.0
 12
110.3068141617167
 22
258.2980572497076
 32
0.0
 13
110.3068141617167
 23
258.2980572497076
 33
0.0
  0
SOLID
  5
443A
330
4184
100
AcDbEntity
  8
DIM
 62
     0
100
AcDbTrace
 10
104.7068147394028
 20
258.6313991510389
 30
0.0
 11
104.706813719403
 21
257.9647324843731
 31
0.0
 12
106.7068142294006
 22
258.2980627577065
 32
0.0
 13
106.7068142294006
 23
258.2980627577065
 33
0.0
  0
MTEXT
  5
443B
330
4184
100
AcDbEntity
  8
DIM
 62
     2
100
AcDbMText
 10
99.27348333914519
 20
259.7286334758594
 30
0.0
 40
2.0
 41
0.0
 71
     5
 72
     1
  1
\A1;3.6
  7
TSTYLE6
 11
0.9999999999988295
 21
-0.0000015299997358
 31
0.0
1001
ACAD
1000
MTEXTBEGIN
1070
    73
1070
     1
1070
    44
1040
1.0
1070
    74
1070
     0
1000
MTEXTEND
  0
POINT
  5
443C
330
4184
100
AcDbEntity
  8
DEFPOINTS
 62
     0
100
AcDbPoint
 10
110.3067475629391
 20
214.7694369144065
 30
0.0
  0
POINT
  5
443D
330
4184
100
AcDbEntity
  8
DEFPOINTS
 62
     0
100
AcDbPoint
 10
106.7067879493542
 20
241.1215589269545
 30
0.0
  0
POINT
  5
443E
330
4184
100
AcDbEntity
  8
DEFPOINTS
 62
     0
100
AcDbPoint
 10
106.7068142294006
 20
258.2980627577065
 30
0.0
  0
ENDBLK
  5
4190
330
4184
100
AcDbEntity
  8
0
100
AcDbBlockEnd
  0
BLOCK
  5
419B
330
4191
100
AcDbEntity
  8
0
100
AcDbBlockBegin
  2
*D62
 70
     1
 10
0.0
 20
0.0
 30
0.0
  3
*D62
  1

  0
LINE
  5
4489
330
4191
100
AcDbEntity
  8
DIM
 62
     0
100
AcDbLine
 10
106.4067941952067
 20
245.2215173088705
 30
0.0
 11
94.92309588910778
 21
245.2215348789259
 31
0.0
  0
LINE
  5
448A
330
4191
100
AcDbEntity
  8
DIM
 62
     0
100
AcDbLine
 10
108.5067474110588
 20
214.6694396702864
 30
0.0
 11
94.92304914444199
 21
214.6694604533412
 31
0.0
  0
LINE
  5
448B
330
4191
100
AcDbEntity
  8
DIM
 62
     0
100
AcDbLine
 10
95.58975949577421
 20
243.2215338589283
 30
0.0
 11
95.58971887110734
 21
216.669459433339
 31
0.0
  0
SOLID
  5
448C
330
4191
100
AcDbEntity
  8
DIM
 62
     0
100
AcDbTrace
 10
95.25642616244127
 20
243.2215343689283
 30
0.0
 11
95.92309282910715
 21
243.2215333489284
 31
0.0
 12
95.58976255577368
 22
245.221533858926
 32
0.0
 13
95.58976255577368
 23
245.221533858926
 33
0.0
  0
SOLID
  5
448D
330
4191
100
AcDbEntity
  8
DIM
 62
     0
100
AcDbTrace
 10
95.25638553777442
 20
216.6694599433389
 30
0.0
 11
95.9230522044403
 21
216.6694589233391
 31
0.0
 12
95.58971581110787
 22
214.6694594333414
 32
0.0
 13
95.58971581110787
 23
214.6694594333414
 33
0.0
  0
MTEXT
  5
448E
330
4191
100
AcDbEntity
  8
DIM
 62
     2
100
AcDbMText
 10
94.1591798382856
 20
229.9454988348893
 30
0.0
 40
2.0
 41
0.0
 71
     5
 72
     1
  1
\A1;30.6
  7
TSTYLE6
 11
0.0000015299997359
 21
0.9999999999988295
 31
0.0
1001
ACAD
1000
MTEXTBEGIN
1070
    73
1070
     1
1070
    44
1040
1.0
1070
    74
1070
     0
1000
MTEXTEND
  0
POINT
  5
448F
330
4191
100
AcDbEntity
  8
DEFPOINTS
 62
     0
100
AcDbPoint
 10
106.706794222289
 20
245.2215168498705
 30
0.0
  0
POINT
  5
4490
330
4191
100
AcDbEntity
  8
DEFPOINTS
 62
     0
100
AcDbPoint
 10
108.8067474381411
 20
214.6694392112865
 30
0.0
  0
POINT
  5
4491
330
4191
100
AcDbEntity
  8
DEFPOINTS
 62
     0
100
AcDbPoint
 10
95.58971581110787
 20
214.6694594333414
 30
0.0
  0
ENDBLK
  5
419C
330
4191
100
AcDbEntity
  8
0
100
AcDbBlockEnd
  0
BLOCK
  5
41A7
330
419D
100
AcDbEntity
  8
0
100
AcDbBlockBegin
  2
*D63
 70
     1
 10
0.0
 20
0.0
 30
0.0
  3
*D63
  1

  0
LINE
  5
4477
330
419D
100
AcDbEntity
  8
DIM
 62
     0
100
AcDbLine
 10
106.4066479395557
 20
149.6194846473008
 30
0.0
 11
94.78820878854374
 21
149.6194846473008
 31
0.0
  0
LINE
  5
4478
330
419D
100
AcDbEntity
  8
DIM
 62
     0
100
AcDbLine
 10
108.0066942717678
 20
179.9216406295854
 30
0.0
 11
94.78820878854376
 21
179.9216406295854
 31
0.0
  0
LINE
  5
4479
330
419D
100
AcDbEntity
  8
DIM
 62
     0
100
AcDbLine
 10
95.45487545521041
 20
151.6194846473008
 30
0.0
 11
95.45487545521043
 21
177.9216406295854
 31
0.0
  0
SOLID
  5
447A
330
419D
100
AcDbEntity
  8
DIM
 62
     0
100
AcDbTrace
 10
95.12154212187708
 20
151.6194846473008
 30
0.0
 11
95.78820878854374
 21
151.6194846473008
 31
0.0
 12
95.45487545521041
 22
149.6194846473008
 32
0.0
 13
95.45487545521041
 23
149.6194846473008
 33
0.0
  0
SOLID
  5
447B
330
419D
100
AcDbEntity
  8
DIM
 62
     0
100
AcDbTrace
 10
95.12154212187709
 20
177.9216406295854
 30
0.0
 11
95.78820878854376
 21
177.9216406295854
 31
0.0
 12
95.45487545521043
 22
179.9216406295854
 32
0.0
 13
95.45487545521043
 23
179.9216406295854
 33
0.0
  0
MTEXT
  5
447C
330
419D
100
AcDbEntity
  8
DIM
 62
     2
100
AcDbMText
 10
94.02431611005351
 20
164.7705626384431
 30
0.0
 40
2.0
 41
0.0
 71
     5
 72
     1
  1
\A1;30.3
  7
TSTYLE6
 11
0.0000000000000001
 21
1.0
 31
0.0
1001
ACAD
1000
MTEXTBEGIN
1070
    73
1070
     1
1070
    44
1040
1.0
1070
    74
1070
     0
1000
MTEXTEND
  0
POINT
  5
447D
330
419D
100
AcDbEntity
  8
DEFPOINTS
 62
     0
100
AcDbPoint
 10
106.7066479512065
 20
149.6194846473008
 30
0.0
  0
POINT
  5
447E
330
419D
100
AcDbEntity
  8
DEFPOINTS
 62
     0
100
AcDbPoint
 10
108.3066942834185
 20
179.9216406295854
 30
0.0
  0
POINT
  5
447F
330
419D
100
AcDbEntity
  8
DEFPOINTS
 62
     0
100
AcDbPoint
 10
95.45487545521043
 20
179.9216406295854
 30
0.0
  0
ENDBLK
  5
41A8
330
419D
100
AcDbEntity
  8
0
100
AcDbBlockEnd
  0
BLOCK
  5
41B3
330
41A9
100
AcDbEntity
  8
0
100
AcDbBlockBegin
  2
*D64
 70
     1
 10
0.0
 20
0.0
 30
0.0
  3
*D64
  1

  0
LINE
  5
4480
330
41A9
100
AcDbEntity
  8
DIM
 62
     0
100
AcDbLine
 10
109.256747396958
 20
214.6694385227866
 30
0.0
 11
94.89257309293778
 21
214.6694604999679
 31
0.0
  0
LINE
  5
4481
330
41A9
100
AcDbEntity
  8
DIM
 62
     0
100
AcDbLine
 10
108.0066942563363
 20
179.9216410885849
 30
0.0
 11
94.89251992881792
 21
179.9216611532667
 31
0.0
  0
LINE
  5
4482
330
41A9
100
AcDbEntity
  8
DIM
 62
     0
100
AcDbLine
 10
95.55923669960442
 20
212.6694594799705
 30
0.0
 11
95.55918965548306
 21
181.9216601332646
 31
0.0
  0
SOLID
  5
4483
330
41A9
100
AcDbEntity
  8
DIM
 62
     0
100
AcDbTrace
 10
95.22590336627148
 20
212.6694599899703
 30
0.0
 11
95.89257003293736
 21
212.6694589699706
 31
0.0
 12
95.55923975960366
 22
214.6694594799682
 32
0.0
 13
95.55923975960366
 23
214.6694594799682
 33
0.0
  0
SOLID
  5
4484
330
41A9
100
AcDbEntity
  8
DIM
 62
     0
100
AcDbTrace
 10
95.2258563221501
 20
181.9216606432645
 30
0.0
 11
95.89252298881598
 21
181.9216596232647
 31
0.0
 12
95.5591865954838
 22
179.921660133267
 32
0.0
 13
95.5591865954838
 23
179.921660133267
 33
0.0
  0
MTEXT
  5
4485
330
41A9
100
AcDbEntity
  8
DIM
 62
     2
100
AcDbMText
 10
94.12865383238854
 20
197.2955619953727
 30
0.0
 40
2.0
 41
0.0
 71
     5
 72
     1
  1
\A1;34.7
  7
TSTYLE6
 11
0.0000015299996222
 21
0.9999999999988295
 31
0.0
1001
ACAD
1000
MTEXTBEGIN
1070
    73
1070
     1
1070
    44
1040
1.0
1070
    74
1070
     0
1000
MTEXTEND
  0
POINT
  5
4486
330
41A9
100
AcDbEntity
  8
DEFPOINTS
 62
     0
100
AcDbPoint
 10
109.5567474240403
 20
214.6694380637867
 30
0.0
  0
POINT
  5
4487
330
41A9
100
AcDbEntity
  8
DEFPOINTS
 62
     0
100
AcDbPoint
 10
108.3066942834186
 20
179.921640629585
 30
0.0
  0
POINT
  5
4488
330
41A9
100
AcDbEntity
  8
DEFPOINTS
 62
     0
100
AcDbPoint
 10
95.5591865954838
 20
179.921660133267
 30
0.0
  0
ENDBLK
  5
41B4
330
41A9
100
AcDbEntity
  8
0
100
AcDbBlockEnd
  0
BLOCK
  5
41BF
330
41B5
100
AcDbEntity
  8
0
100
AcDbBlockBegin
  2
*D65
 70
     1
 10
0.0
 20
0.0
 30
0.0
  3
*D65
  1

  0
LINE
  5
449C
330
41B5
100
AcDbEntity
  8
DIM
 62
     0
100
AcDbLine
 10
58.60660624074367
 20
186.6687324202769
 30
0.0
 11
75.61056900325931
 21
186.6687064042183
 31
0.0
  0
LINE
  5
449D
330
41B5
100
AcDbEntity
  8
DIM
 62
     0
100
AcDbLine
 10
66.00660473370568
 20
149.6195469183558
 30
0.0
 11
75.6105123180326
 21
149.6195322243797
 31
0.0
  0
LINE
  5
449E
330
41B5
100
AcDbEntity
  8
DIM
 62
     0
100
AcDbLine
 10
74.94389927659395
 20
184.6687074242205
 30
0.0
 11
74.94384871136618
 21
151.6195332443772
 31
0.0
  0
SOLID
  5
449F
330
41B5
100
AcDbEntity
  8
DIM
 62
     0
100
AcDbTrace
 10
74.61056594326101
 20
184.6687079342204
 30
0.0
 11
75.27723260992688
 21
184.6687069142206
 31
0.0
 12
74.94390233659342
 22
186.6687074242182
 32
0.0
 13
74.94390233659342
 23
186.6687074242182
 33
0.0
  0
SOLID
  5
44A0
330
41B5
100
AcDbEntity
  8
DIM
 62
     0
100
AcDbTrace
 10
74.61051537803324
 20
151.6195337543771
 30
0.0
 11
75.27718204469912
 21
151.6195327343773
 31
0.0
 12
74.94384565136671
 22
149.6195332443796
 32
0.0
 13
74.94384565136671
 23
149.6195332443796
 33
0.0
  0
MTEXT
  5
44A1
330
41B5
100
AcDbEntity
  8
DIM
 62
     2
100
AcDbMText
 10
73.51331464882489
 20
168.1441225230544
 30
0.0
 40
2.0
 41
0.0
 71
     5
 72
     1
  1
\A1;37.05
  7
TSTYLE6
 11
0.0000015299997359
 21
0.9999999999988295
 31
0.0
1001
ACAD
1000
MTEXTBEGIN
1070
    73
1070
     1
1070
    44
1040
1.0
1070
    74
1070
     0
1000
MTEXTEND
  0
POINT
  5
44A2
330
41B5
100
AcDbEntity
  8
DEFPOINTS
 62
     0
100
AcDbPoint
 10
58.3066062290933
 20
186.6687328792768
 30
0.0
  0
POINT
  5
44A3
330
41B5
100
AcDbEntity
  8
DEFPOINTS
 62
     0
100
AcDbPoint
 10
65.70660472205529
 20
149.6195473773557
 30
0.0
  0
POINT
  5
44A4
330
41B5
100
AcDbEntity
  8
DEFPOINTS
 62
     0
100
AcDbPoint
 10
74.94384565136671
 20
149.6195332443796
 30
0.0
  0
ENDBLK
  5
41C0
330
41B5
100
AcDbEntity
  8
0
100
AcDbBlockEnd
  0
BLOCK
  5
41CB
330
41C1
100
AcDbEntity
  8
0
100
AcDbBlockBegin
  2
*D66
 70
     1
 10
0.0
 20
0.0
 30
0.0
  3
*D66
  1

  0
LINE
  5
44A5
330
41C1
100
AcDbEntity
  8
DIM
 62
     0
100
AcDbLine
 10
50.60660498866226
 20
149.619570480351
 30
0.0
 11
37.63086984767533
 21
149.6195903332221
 31
0.0
  0
LINE
  5
44A6
330
41C1
100
AcDbEntity
  8
DIM
 62
     0
100
AcDbLine
 10
50.60675125980736
 20
245.2216436829194
 30
0.0
 11
37.63101611882005
 21
245.2216635357904
 31
0.0
  0
LINE
  5
44A7
330
41C1
100
AcDbEntity
  8
DIM
 62
     0
100
AcDbLine
 10
38.29753957434065
 20
151.6195893132199
 30
0.0
 11
38.29767972548651
 21
243.2216625157929
 31
0.0
  0
SOLID
  5
44A8
330
41C1
100
AcDbEntity
  8
DIM
 62
     0
100
AcDbTrace
 10
37.9642062410077
 20
151.6195898232198
 30
0.0
 11
38.6308729076736
 21
151.61958880322
 31
0.0
 12
38.29753651434122
 22
149.6195893132223
 32
0.0
 13
38.29753651434122
 23
149.6195893132223
 33
0.0
  0
SOLID
  5
44A9
330
41C1
100
AcDbEntity
  8
DIM
 62
     0
100
AcDbTrace
 10
37.96434639215356
 20
243.2216630257929
 30
0.0
 11
38.63101305881946
 21
243.2216620057931
 31
0.0
 12
38.29768278548595
 22
245.2216625157906
 32
0.0
 13
38.29768278548595
 23
245.2216625157906
 33
0.0
  0
MTEXT
  5
44AA
330
41C1
100
AcDbEntity
  8
DIM
 62
     2
100
AcDbMText
 10
36.86800528429449
 20
197.4206281018009
 30
0.0
 40
2.0
 41
0.0
 71
     5
 72
     1
  1
\A1;95.6
  7
TSTYLE6
 11
0.0000015299997145
 21
0.9999999999988295
 31
0.0
1001
ACAD
1000
MTEXTBEGIN
1070
    73
1070
     1
1070
    44
1040
1.0
1070
    74
1070
     0
1000
MTEXTEND
  0
POINT
  5
44AB
330
41C1
100
AcDbEntity
  8
DEFPOINTS
 62
     0
100
AcDbPoint
 10
50.90660500031263
 20
149.6195700213511
 30
0.0
  0
POINT
  5
44AC
330
41C1
100
AcDbEntity
  8
DEFPOINTS
 62
     0
100
AcDbPoint
 10
50.90675127145774
 20
245.2216432239194
 30
0.0
  0
POINT
  5
44AD
330
41C1
100
AcDbEntity
  8
DEFPOINTS
 62
     0
100
AcDbPoint
 10
38.29768278548595
 20
245.2216625157906
 30
0.0
  0
ENDBLK
  5
41CC
330
41C1
100
AcDbEntity
  8
0
100
AcDbBlockEnd
  0
BLOCK
  5
41D7
330
41CD
100
AcDbEntity
  8
0
100
AcDbBlockBegin
  2
*D67
 70
     1
 10
0.0
 20
0.0
 30
0.0
  3
*D67
  1

  0
LINE
  5
442C
330
41CD
100
AcDbEntity
  8
DIM
 62
     0
100
AcDbLine
 10
66.20675067779988
 20
245.0216198359757
 30
0.0
 11
66.20677491810162
 21
260.8649573355608
 31
0.0
  0
LINE
  5
442D
330
41CD
100
AcDbEntity
  8
DIM
 62
     0
100
AcDbLine
 10
50.4067509748584
 20
245.0216440099711
 30
0.0
 11
50.40677521516013
 21
260.8649815095557
 31
0.0
  0
LINE
  5
442E
330
41CD
100
AcDbEntity
  8
DIM
 62
     0
100
AcDbLine
 10
64.20677389810416
 20
260.1982937288943
 30
0.0
 11
52.40677419515799
 21
260.1983117828904
 31
0.0
  0
SOLID
  5
442F
330
41CD
100
AcDbEntity
  8
DIM
 62
     0
100
AcDbTrace
 10
64.20677440810407
 20
260.5316270622272
 30
0.0
 11
64.20677338810425
 21
259.8649603955613
 31
0.0
 12
66.20677389810182
 22
260.1982906688949
 32
0.0
 13
66.20677389810182
 23
260.1982906688949
 33
0.0
  0
SOLID
  5
4430
330
41CD
100
AcDbEntity
  8
DIM
 62
     0
100
AcDbTrace
 10
52.40677470515789
 20
260.5316451162233
 30
0.0
 11
52.40677368515808
 21
259.8649784495574
 31
0.0
 12
50.40677419516033
 22
260.1983148428898
 32
0.0
 13
50.40677419516033
 23
260.1983148428898
 33
0.0
  0
MTEXT
  5
4431
330
41CD
100
AcDbEntity
  8
DIM
 62
     2
100
AcDbMText
 10
58.30677623392556
 20
261.6279071215113
 30
0.0
 40
2.0
 41
0.0
 71
     5
 72
     1
  1
\A1;15.8
  7
TSTYLE6
 11
0.9999999999988295
 21
-0.0000015299997074
 31
0.0
1001
ACAD
1000
MTEXTBEGIN
1070
    73
1070
     1
1070
    44
1040
1.0
1070
    74
1070
     0
1000
MTEXTEND
  0
POINT
  5
4432
330
41CD
100
AcDbEntity
  8
DEFPOINTS
 62
     0
100
AcDbPoint
 10
66.20675021879995
 20
244.7216198243253
 30
0.0
  0
POINT
  5
4433
330
41CD
100
AcDbEntity
  8
DEFPOINTS
 62
     0
100
AcDbPoint
 10
50.40675051585846
 20
244.7216439983207
 30
0.0
  0
POINT
  5
4434
330
41CD
100
AcDbEntity
  8
DEFPOINTS
 62
     0
100
AcDbPoint
 10
50.40677419516033
 20
260.1983148428898
 30
0.0
  0
ENDBLK
  5
41D8
330
41CD
100
AcDbEntity
  8
0
100
AcDbBlockEnd
  0
BLOCK
  5
41E4
330
41D9
100
AcDbEntity
  8
0
100
AcDbBlockBegin
  2
*D68
 70
     1
 10
0.0
 20
0.0
 30
0.0
  3
*D68
  1

  0
LINE
  5
4492
330
41D9
100
AcDbEntity
  8
DIM
 62
     0
100
AcDbLine
 10
58.60660624486765
 20
185.0687329093568
 30
0.0
 11
71.23166561430247
 21
185.0687329093568
 31
0.0
  0
LINE
  5
4493
330
41D9
100
AcDbEntity
  8
DIM
 62
     0
100
AcDbLine
 10
58.60660624486765
 20
188.2687328491968
 30
0.0
 11
71.23166561430247
 21
188.2687328491968
 31
0.0
  0
LINE
  5
4494
330
41D9
100
AcDbEntity
  8
DIM
 62
     0
100
AcDbLine
 10
70.5649989476358
 20
183.0687329093568
 30
0.0
 11
70.5649989476358
 21
181.0687329093568
 31
0.0
  0
LINE
  5
4495
330
41D9
100
AcDbEntity
  8
DIM
 62
     0
100
AcDbLine
 10
70.5649989476358
 20
190.2687328491968
 30
0.0
 11
70.5649989476358
 21
199.7971781690139
 31
0.0
  0
SOLID
  5
4496
330
41D9
100
AcDbEntity
  8
DIM
 62
     0
100
AcDbTrace
 10
70.23166561430247
 20
183.0687329093568
 30
0.0
 11
70.89833228096913
 21
183.0687329093568
 31
0.0
 12
70.5649989476358
 22
185.0687329093568
 32
0.0
 13
70.5649989476358
 23
185.0687329093568
 33
0.0
  0
SOLID
  5
4497
330
41D9
100
AcDbEntity
  8
DIM
 62
     0
100
AcDbTrace
 10
70.23166561430247
 20
190.2687328491968
 30
0.0
 11
70.89833228096913
 21
190.2687328491968
 31
0.0
 12
70.5649989476358
 22
188.2687328491968
 32
0.0
 13
70.5649989476358
 23
188.2687328491968
 33
0.0
  0
MTEXT
  5
4498
330
41D9
100
AcDbEntity
  8
DIM
 62
     2
100
AcDbMText
 10
69.05708626005051
 20
197.0437334214014
 30
0.0
 40
2.0
 41
0.0
 71
     5
 72
     1
  1
\A1;%%c3.2
  7
TSTYLE6
 11
0.0000000000000001
 21
1.0
 31
0.0
1001
ACAD
1000
MTEXTBEGIN
1070
    73
1070
     1
1070
    44
1040
1.0
1070
    74
1070
     0
1000
MTEXTEND
  0
POINT
  5
4499
330
41D9
100
AcDbEntity
  8
DEFPOINTS
 62
     0
100
AcDbPoint
 10
58.30660622909329
 20
185.0687329093568
 30
0.0
  0
POINT
  5
449A
330
41D9
100
AcDbEntity
  8
DEFPOINTS
 62
     0
100
AcDbPoint
 10
58.30660622909329
 20
188.2687328491968
 30
0.0
  0
POINT
  5
449B
330
41D9
100
AcDbEntity
  8
DEFPOINTS
 62
     0
100
AcDbPoint
 10
70.5649989476358
 20
188.2687328491968
 30
0.0
  0
ENDBLK
  5
41E5
330
41D9
100
AcDbEntity
  8
0
100
AcDbBlockEnd
  0
BLOCK
  5
41F0
330
41E6
100
AcDbEntity
  8
0
100
AcDbBlockBegin
  2
*D69
 70
     1
 10
0.0
 20
0.0
 30
0.0
  3
*D69
  1

  0
LINE
  5
4465
330
41E6
100
AcDbEntity
  8
DIM
 62
     0
100
AcDbLine
 10
110.3066924829503
 20
178.769437558526
 30
0.0
 11
110.306624733526
 21
134.4887604865231
 31
0.0
  0
LINE
  5
4466
330
41E6
100
AcDbEntity
  8
DIM
 62
     0
100
AcDbLine
 10
152.500422887753
 20
170.2357995240967
 30
0.0
 11
152.500368194694
 21
134.4886959301067
 31
0.0
  0
LINE
  5
4467
330
41E6
100
AcDbEntity
  8
DIM
 62
     0
100
AcDbLine
 10
112.3066257535235
 20
135.1554240931895
 30
0.0
 11
150.5003692146961
 21
135.155365656772
 31
0.0
  0
SOLID
  5
4468
330
41E6
100
AcDbEntity
  8
DIM
 62
     0
100
AcDbTrace
 10
112.3066262635234
 20
135.4887574265224
 30
0.0
 11
112.3066252435236
 21
134.8220907598565
 31
0.0
 12
110.3066257535258
 22
135.1554271531889
 32
0.0
 13
110.3066257535258
 23
135.1554271531889
 33
0.0
  0
SOLID
  5
4469
330
41E6
100
AcDbEntity
  8
DIM
 62
     0
100
AcDbTrace
 10
150.500369724696
 20
135.488698990105
 30
0.0
 11
150.5003687046962
 21
134.8220323234391
 31
0.0
 12
152.5003692146938
 22
135.1553625967726
 32
0.0
 13
152.5003692146938
 23
135.1553625967726
 33
0.0
  0
MTEXT
  5
446A
330
41E6
100
AcDbEntity
  8
DIM
 62
     2
100
AcDbMText
 10
131.4034996348764
 20
136.561124752196
 30
0.0
 40
2.0
 41
0.0
 71
     5
 72
     1
  1
\A1;42.2
  7
TSTYLE6
 11
0.9999999999988295
 21
-0.0000015299997358
 31
0.0
1001
ACAD
1000
MTEXTBEGIN
1070
    73
1070
     1
1070
    44
1040
1.0
1070
    74
1070
     0
1000
MTEXTEND
  0
POINT
  5
446B
330
41E6
100
AcDbEntity
  8
DEFPOINTS
 62
     0
100
AcDbPoint
 10
110.3066929419502
 20
179.0694375856083
 30
0.0
  0
POINT
  5
446C
330
41E6
100
AcDbEntity
  8
DEFPOINTS
 62
     0
100
AcDbPoint
 10
152.500423346753
 20
170.5357995511789
 30
0.0
  0
POINT
  5
446D
330
41E6
100
AcDbEntity
  8
DEFPOINTS
 62
     0
100
AcDbPoint
 10
152.5003692146938
 20
135.1553625967726
 30
0.0
  0
ENDBLK
  5
41F1
330
41E6
100
AcDbEntity
  8
0
100
AcDbBlockEnd
  0
BLOCK
  5
41FC
330
41F2
100
AcDbEntity
  8
0
100
AcDbBlockBegin
  2
*D70
 70
     1
 10
0.0
 20
0.0
 30
0.0
  3
*D70
  1

  0
LINE
  5
446E
330
41F2
100
AcDbEntity
  8
DIM
 62
     0
100
AcDbLine
 10
129.3066641274104
 20
150.0123330446058
 30
0.0
 11
129.3066500099373
 21
140.7852247028788
 31
0.0
  0
LINE
  5
446F
330
41F2
100
AcDbEntity
  8
DIM
 62
     0
100
AcDbLine
 10
110.3066924829503
 20
178.7694375739579
 30
0.0
 11
110.3066343671602
 21
140.7852537728972
 31
0.0
  0
LINE
  5
4470
330
41F2
100
AcDbEntity
  8
DIM
 62
     0
100
AcDbLine
 10
127.3066510299395
 20
141.4518944295441
 30
0.0
 11
112.3066353871577
 21
141.4519173795637
 31
0.0
  0
SOLID
  5
4471
330
41F2
100
AcDbEntity
  8
DIM
 62
     0
100
AcDbTrace
 10
127.3066515399394
 20
141.785227762877
 30
0.0
 11
127.3066505199396
 21
141.1185610962112
 31
0.0
 12
129.3066510299371
 22
141.4518913695447
 32
0.0
 13
129.3066510299371
 23
141.4518913695447
 33
0.0
  0
SOLID
  5
4472
330
41F2
100
AcDbEntity
  8
DIM
 62
     0
100
AcDbTrace
 10
112.3066358971576
 20
141.7852507128966
 30
0.0
 11
112.3066348771577
 21
141.1185840462307
 31
0.0
 12
110.30663538716
 22
141.4519204395631
 32
0.0
 13
110.30663538716
 23
141.4519204395631
 33
0.0
  0
MTEXT
  5
4473
330
41F2
100
AcDbEntity
  8
DIM
 62
     2
100
AcDbMText
 10
119.8066453958427
 20
142.8815102701729
 30
0.0
 40
2.0
 41
0.0
 71
     5
 72
     1
  1
\A1;19
  7
TSTYLE6
 11
0.9999999999988295
 21
-0.0000015299997074
 31
0.0
1001
ACAD
1000
MTEXTBEGIN
1070
    73
1070
     1
1070
    44
1040
1.0
1070
    74
1070
     0
1000
MTEXTEND
  0
POINT
  5
4474
330
41F2
100
AcDbEntity
  8
DEFPOINTS
 62
     0
100
AcDbPoint
 10
129.3066645864103
 20
150.3123330562561
 30
0.0
  0
POINT
  5
4475
330
41F2
100
AcDbEntity
  8
DEFPOINTS
 62
     0
100
AcDbPoint
 10
110.3066929419502
 20
179.0694375856083
 30
0.0
  0
POINT
  5
4476
330
41F2
100
AcDbEntity
  8
DEFPOINTS
 62
     0
100
AcDbPoint
 10
110.30663538716
 20
141.4519204395631
 30
0.0
  0
ENDBLK
  5
41FD
330
41F2
100
AcDbEntity
  8
0
100
AcDbBlockEnd
  0
BLOCK
  5
4208
330
41FE
100
AcDbEntity
  8
0
100
AcDbBlockBegin
  2
*D71
 70
     1
 10
0.0
 20
0.0
 30
0.0
  3
*D71
  1

  0
LINE
  5
443F
330
41FE
100
AcDbEntity
  8
DIM
 62
     0
100
AcDbLine
 10
110.306748021939
 20
215.0694369260569
 30
0.0
 11
110.3068151817165
 21
258.9647239163733
 31
0.0
  0
LINE
  5
4440
330
41FE
100
AcDbEntity
  8
DIM
 62
     0
100
AcDbLine
 10
172.0067628502302
 20
186.2637673902255
 30
0.0
 11
172.0068740825301
 21
258.9646295152994
 31
0.0
  0
LINE
  5
4441
330
41FE
100
AcDbEntity
  8
DIM
 62
     0
100
AcDbLine
 10
112.3068141617143
 20
258.2980541897079
 30
0.0
 11
170.0068730625326
 21
258.297965908633
 31
0.0
  0
SOLID
  5
4442
330
41FE
100
AcDbEntity
  8
DIM
 62
     0
100
AcDbTrace
 10
112.3068146717143
 20
258.6313875230408
 30
0.0
 11
112.3068136517144
 21
257.964720856375
 31
0.0
 12
110.3068141617167
 22
258.2980572497074
 32
0.0
 13
110.3068141617167
 23
258.2980572497074
 33
0.0
  0
SOLID
  5
4443
330
41FE
100
AcDbEntity
  8
DIM
 62
     0
100
AcDbTrace
 10
170.0068735725325
 20
258.6312992419659
 30
0.0
 11
170.0068725525327
 21
257.9646325753001
 31
0.0
 12
172.0068730625303
 22
258.2979628486335
 32
0.0
 13
172.0068730625303
 23
258.2979628486335
 33
0.0
  0
MTEXT
  5
4444
330
41FE
100
AcDbEntity
  8
DIM
 62
     2
100
AcDbMText
 10
141.1568457994178
 20
259.7276144147895
 30
0.0
 40
2.0
 41
0.0
 71
     5
 72
     1
  1
\A1;61.7
  7
TSTYLE6
 11
0.9999999999988295
 21
-0.0000015299997358
 31
0.0
1001
ACAD
1000
MTEXTBEGIN
1070
    73
1070
     1
1070
    44
1040
1.0
1070
    74
1070
     0
1000
MTEXTEND
  0
POINT
  5
4445
330
41FE
100
AcDbEntity
  8
DEFPOINTS
 62
     0
100
AcDbPoint
 10
110.3067475629391
 20
214.7694369144065
 30
0.0
  0
POINT
  5
4446
330
41FE
100
AcDbEntity
  8
DEFPOINTS
 62
     0
100
AcDbPoint
 10
172.0067623912303
 20
185.9637673785751
 30
0.0
  0
POINT
  5
4447
330
41FE
100
AcDbEntity
  8
DEFPOINTS
 62
     0
100
AcDbPoint
 10
172.0068730625303
 20
258.2979628486335
 30
0.0
  0
ENDBLK
  5
4209
330
41FE
100
AcDbEntity
  8
0
100
AcDbBlockEnd
  0
BLOCK
  5
4215
330
420A
100
AcDbEntity
  8
0
100
AcDbBlockBegin
  2
*D72
 70
     1
 10
0.0
 20
0.0
 30
0.0
  3
*D72
  1

  0
LINE
  5
4448
330
420A
100
AcDbEntity
  8
DIM
 62
     0
100
AcDbLine
 10
135.3067902909386
 20
232.5458913474615
 30
0.0
 11
135.3068226439695
 21
253.691667246887
 31
0.0
  0
LINE
  5
4449
330
420A
100
AcDbEntity
  8
DIM
 62
     0
100
AcDbLine
 10
139.3067715497376
 20
220.3458854568375
 30
0.0
 11
139.3068225687646
 21
253.6916611268884
 31
0.0
  0
LINE
  5
444A
330
420A
100
AcDbEntity
  8
DIM
 62
     0
100
AcDbLine
 10
133.306821623972
 20
253.0250036402206
 30
0.0
 11
131.3068216239744
 21
253.02500670022
 31
0.0
  0
LINE
  5
444B
330
420A
100
AcDbEntity
  8
DIM
 62
     0
100
AcDbLine
 10
141.3068215487624
 20
253.0249914002231
 30
0.0
 11
143.3068215487601
 21
253.0249883402237
 31
0.0
  0
SOLID
  5
444C
330
420A
100
AcDbEntity
  8
DIM
 62
     0
100
AcDbTrace
 10
133.306822133972
 20
253.3583369735536
 30
0.0
 11
133.3068211139722
 21
252.6916703068876
 31
0.0
 12
135.3068216239697
 22
253.0250005802212
 32
0.0
 13
135.3068216239697
 23
253.0250005802212
 33
0.0
  0
SOLID
  5
444D
330
420A
100
AcDbEntity
  8
DIM
 62
     0
100
AcDbTrace
 10
141.3068220587624
 20
253.358324733556
 30
0.0
 11
141.3068210387625
 21
252.6916580668901
 31
0.0
 12
139.3068215487648
 22
253.0249944602225
 32
0.0
 13
139.3068215487648
 23
253.0249944602225
 33
0.0
  0
MTEXT
  5
444E
330
420A
100
AcDbEntity
  8
DIM
 62
     2
100
AcDbMText
 10
137.3068237283669
 20
254.4249975202202
 30
0.0
 40
2.0
 41
0.0
 71
     5
 72
     1
  1
\A1;4
  7
TSTYLE6
 11
0.9999999999988295
 21
-0.0000015299997074
 31
0.0
1001
ACAD
1000
MTEXTBEGIN
1070
    73
1070
     1
1070
    44
1040
1.0
1070
    74
1070
     0
1000
MTEXTEND
  0
POINT
  5
444F
330
420A
100
AcDbEntity
  8
DEFPOINTS
 62
     0
100
AcDbPoint
 10
135.3067898319387
 20
232.2458913358111
 30
0.0
  0
POINT
  5
4450
330
420A
100
AcDbEntity
  8
DEFPOINTS
 62
     0
100
AcDbPoint
 10
139.3067710907377
 20
220.0458854451872
 30
0.0
  0
POINT
  5
4451
330
420A
100
AcDbEntity
  8
DEFPOINTS
 62
     0
100
AcDbPoint
 10
139.3068215487648
 20
253.0249944602225
 30
0.0
  0
ENDBLK
  5
4216
330
420A
100
AcDbEntity
  8
0
100
AcDbBlockEnd
  0
BLOCK
  5
4222
330
4217
100
AcDbEntity
  8
0
100
AcDbBlockBegin
  2
*D73
 70
     1
 10
0.0
 20
0.0
 30
0.0
  3
*D73
  1

  0
LINE
  5
4452
330
4217
100
AcDbEntity
  8
DIM
 62
     0
100
AcDbLine
 10
131.3068091320926
 20
244.8112262368583
 30
0.0
 11
131.3068227191758
 21
253.6916742819357
 31
0.0
  0
LINE
  5
4453
330
4217
100
AcDbEntity
  8
DIM
 62
     0
100
AcDbLine
 10
135.3067902909386
 20
232.5458913474615
 30
0.0
 11
135.3068226439716
 21
253.6916681619369
 31
0.0
  0
LINE
  5
4454
330
4217
100
AcDbEntity
  8
DIM
 62
     0
100
AcDbLine
 10
129.3068216991783
 20
253.0250106752693
 30
0.0
 11
127.3068216991807
 21
253.0250137352688
 31
0.0
  0
LINE
  5
4455
330
4217
100
AcDbEntity
  8
DIM
 62
     0
100
AcDbLine
 10
137.3068216239694
 20
253.0249984352715
 30
0.0
 11
139.3068216239671
 21
253.024995375272
 31
0.0
  0
SOLID
  5
4456
330
4217
100
AcDbEntity
  8
DIM
 62
     0
100
AcDbTrace
 10
129.3068222091782
 20
253.3583440086022
 30
0.0
 11
129.3068211891784
 21
252.6916773419363
 31
0.0
 12
131.306821699176
 22
253.0250076152698
 32
0.0
 13
131.306821699176
 23
253.0250076152698
 33
0.0
  0
SOLID
  5
4457
330
4217
100
AcDbEntity
  8
DIM
 62
     0
100
AcDbTrace
 10
137.3068221339693
 20
253.3583317686045
 30
0.0
 11
137.3068211139695
 21
252.6916651019385
 31
0.0
 12
135.3068216239717
 22
253.025001495271
 32
0.0
 13
135.3068216239717
 23
253.025001495271
 33
0.0
  0
MTEXT
  5
4458
330
4217
100
AcDbEntity
  8
DIM
 62
     2
100
AcDbMText
 10
133.3068238035735
 20
254.4250045552688
 30
0.0
 40
2.0
 41
0.0
 71
     5
 72
     1
  1
\A1;4
  7
TSTYLE6
 11
0.9999999999988295
 21
-0.0000015299997358
 31
0.0
1001
ACAD
1000
MTEXTBEGIN
1070
    73
1070
     1
1070
    44
1040
1.0
1070
    74
1070
     0
1000
MTEXTEND
  0
POINT
  5
4459
330
4217
100
AcDbEntity
  8
DEFPOINTS
 62
     0
100
AcDbPoint
 10
131.3068086730927
 20
244.511226225208
 30
0.0
  0
POINT
  5
445A
330
4217
100
AcDbEntity
  8
DEFPOINTS
 62
     0
100
AcDbPoint
 10
135.3067898319387
 20
232.2458913358111
 30
0.0
  0
POINT
  5
445B
330
4217
100
AcDbEntity
  8
DEFPOINTS
 62
     0
100
AcDbPoint
 10
135.3068216239717
 20
253.025001495271
 30
0.0
  0
ENDBLK
  5
4223
330
4217
100
AcDbEntity
  8
0
100
AcDbBlockEnd
  0
ENDSEC
  0
SECTION
  2
ENTITIES
  0
LINE
  5
29
330
A
100
AcDbEntity
  8
CARTOUCHE
  6
CONTINUOUS
 62
     7
100
AcDbLine
 10
205.000037
 20
10.000793
 30
0.0
 11
5.0
 21
10.00106799999999
 31
0.0
  0
LINE
  5
2A
330
A
100
AcDbEntity
  8
CARTOUCHE
  6
CONTINUOUS
 62
     7
100
AcDbLine
 10
50.000001
 20
36.845393
 30
0.0
 11
50.000001
 21
5.000041
 31
0.0
  0
TEXT
  5
2B
330
A
100
AcDbEntity
  8
CARTOUCHE
  6
CONTINUOUS
 62
     7
100
AcDbText
 10
119.6202638513061
 20
32.43596665250082
 30
0.0
 40
1.8
  1
PRODUCT TYPE
 50
359.9999079999999
 41
0.8
  7
FINDER
 72
     1
 11
127.499991
 21
32.43595399999999
 31
0.0
100
AcDbText
  0
TEXT
  5
2D
330
A
100
AcDbEntity
  8
CARTOUCHE
  6
CONTINUOUS
 62
     2
100
AcDbText
 10
19.35727248705006
 20
6.600975074802885
 30
0.0
 40
1.8
  1
MOD. UT 902
 50
359.9999079999999
 41
1.05
  7
FINDER
 72
     1
 11
27.500001
 21
6.600961999999999
 31
0.0
100
AcDbText
  0
LINE
  5
2E
330
A
100
AcDbEntity
  8
CARTOUCHE
  6
CONTINUOUS
 62
     7
100
AcDbLine
 10
205.000008
 20
20.002808
 30
0.0
 11
49.999973
 21
20.00304499999999
 31
0.0
  0
TEXT
  5
31
330
A
100
AcDbEntity
  8
CARTOUCHE
  6
CONTINUOUS
 62
     7
100
AcDbText
 10
73.48571344884341
 20
16.62430476956831
 30
0.0
 40
1.8
  1
REV.
 50
359.9999079999999
 41
0.8
  7
FINDER
 72
     1
 11
75.833326
 21
16.624301
 31
0.0
100
AcDbText
  0
TEXT
  5
32
330
A
100
AcDbEntity
  8
CARTOUCHE
  6
CONTINUOUS
 62
     1
100
AcDbText
 10
75.18069298499402
 20
11.77627904793473
 30
0.0
 40
2.1
  1
0
 50
359.9999079999999
 41
0.8
  7
FINDER
 72
     1
 11
75.833326
 21
11.776278
 31
0.0
100
AcDbText
  0
LINE
  5
33
330
A
100
AcDbEntity
  8
CARTOUCHE
  6
CONTINUOUS
 62
     7
100
AcDbLine
 10
101.666651
 20
20.00296599999999
 30
0.0
 11
101.666651
 21
10.001024
 31
0.0
  0
LINE
  5
37
330
A
100
AcDbEntity
  8
CARTOUCHE
  6
CONTINUOUS
 62
     4
100
AcDbLine
 10
12.362923
 20
27.65548499999999
 30
0.0
 11
12.362923
 21
21.81019399999999
 31
0.0
  0
LINE
  5
38
330
A
100
AcDbEntity
  8
CARTOUCHE
  6
CONTINUOUS
 62
     4
100
AcDbLine
 10
12.362923
 20
21.81019399999999
 30
0.0
 11
10.88782299999999
 21
23.410844
 31
0.0
  0
LINE
  5
39
330
A
100
AcDbEntity
  8
CARTOUCHE
  6
CONTINUOUS
 62
     4
100
AcDbLine
 10
10.88782299999999
 20
23.410844
 30
0.0
 11
11.11642299999999
 21
23.410844
 31
0.0
  0
LINE
  5
3A
330
A
100
AcDbEntity
  8
CARTOUCHE
  6
CONTINUOUS
 62
     4
100
AcDbLine
 10
11.41387299999999
 20
23.766514
 30
0.0
 11
11.41387299999999
 21
27.652621
 31
0.0
  0
LINE
  5
3B
330
A
100
AcDbEntity
  8
CARTOUCHE
  6
CONTINUOUS
 62
     4
100
AcDbLine
 10
10.46482299999999
 20
27.399506
 30
0.0
 11
10.46482299999999
 21
24.428744
 31
0.0
  0
LINE
  5
3C
330
A
100
AcDbEntity
  8
CARTOUCHE
  6
CONTINUOUS
 62
     4
100
AcDbLine
 10
10.46482299999999
 20
24.428744
 30
0.0
 11
8.174775999999999
 21
24.428744
 31
0.0
  0
LINE
  5
3D
330
A
100
AcDbEntity
  8
CARTOUCHE
  6
CONTINUOUS
 62
     4
100
AcDbLine
 10
8.176313
 20
23.410844
 30
0.0
 11
9.378522999999999
 21
23.410844
 31
0.0
  0
LINE
  5
3E
330
A
100
AcDbEntity
  8
CARTOUCHE
  6
CONTINUOUS
 62
     4
100
AcDbLine
 10
9.378522999999999
 20
23.410844
 30
0.0
 11
12.173699
 21
20.66832799999999
 31
0.0
  0
LINE
  5
3F
330
A
100
AcDbEntity
  8
CARTOUCHE
  6
CONTINUOUS
 62
     4
100
AcDbLine
 10
13.323223
 20
21.169844
 30
0.0
 11
13.323223
 21
24.508394
 31
0.0
  0
LINE
  5
40
330
A
100
AcDbEntity
  8
CARTOUCHE
  6
CONTINUOUS
 62
     4
100
AcDbLine
 10
13.323223
 20
24.508394
 30
0.0
 11
14.455423
 21
24.508394
 31
0.0
  0
LINE
  5
41
330
A
100
AcDbEntity
  8
CARTOUCHE
  6
CONTINUOUS
 62
     4
100
AcDbLine
 10
14.35365599999999
 20
25.503344
 30
0.0
 11
13.323223
 21
25.503344
 31
0.0
  0
LINE
  5
42
330
A
100
AcDbEntity
  8
CARTOUCHE
  6
CONTINUOUS
 62
     4
100
AcDbLine
 10
13.323223
 20
25.503344
 30
0.0
 11
13.323223
 21
27.404134
 31
0.0
  0
LINE
  5
43
330
A
100
AcDbEntity
  8
CARTOUCHE
  6
CONTINUOUS
 62
     4
100
AcDbLine
 10
28.108423
 20
22.47903399999999
 30
0.0
 11
28.108423
 21
20.63209399999999
 31
0.0
  0
LINE
  5
44
330
A
100
AcDbEntity
  8
CARTOUCHE
  6
CONTINUOUS
 62
     4
100
AcDbLine
 10
28.108423
 20
20.63209399999999
 30
0.0
 11
29.89222299999999
 21
20.63209399999999
 31
0.0
  0
LINE
  5
45
330
A
100
AcDbEntity
  8
CARTOUCHE
  6
CONTINUOUS
 62
     4
100
AcDbLine
 10
29.89222299999999
 20
20.63209399999999
 30
0.0
 11
29.89222299999999
 21
23.324553
 31
0.0
  0
LINE
  5
46
330
A
100
AcDbEntity
  8
CARTOUCHE
  6
CONTINUOUS
 62
     4
100
AcDbLine
 10
26.28997299999999
 20
24.074144
 30
0.0
 11
26.28997299999999
 21
24.508394
 31
0.0
  0
LINE
  5
47
330
A
100
AcDbEntity
  8
CARTOUCHE
  6
CONTINUOUS
 62
     4
100
AcDbLine
 10
26.28997299999999
 20
24.508394
 30
0.0
 11
24.494923
 21
24.508394
 31
0.0
  0
LINE
  5
48
330
A
100
AcDbEntity
  8
CARTOUCHE
  6
CONTINUOUS
 62
     4
100
AcDbLine
 10
24.494923
 20
24.508394
 30
0.0
 11
24.494923
 21
20.63209399999999
 31
0.0
  0
LINE
  5
49
330
A
100
AcDbEntity
  8
CARTOUCHE
  6
CONTINUOUS
 62
     4
100
AcDbLine
 10
24.494923
 20
20.63209399999999
 30
0.0
 11
26.28997299999999
 21
20.63209399999999
 31
0.0
  0
LINE
  5
4A
330
A
100
AcDbEntity
  8
CARTOUCHE
  6
CONTINUOUS
 62
     4
100
AcDbLine
 10
26.28997299999999
 20
20.63209399999999
 30
0.0
 11
26.28997299999999
 21
22.43349899999999
 31
0.0
  0
LINE
  5
4B
330
A
100
AcDbEntity
  8
CARTOUCHE
  6
CONTINUOUS
 62
     4
100
AcDbLine
 10
35.986573
 20
25.823744
 30
0.0
 11
35.986573
 21
20.620844
 31
0.0
  0
LINE
  5
4C
330
A
100
AcDbEntity
  8
CARTOUCHE
  6
CONTINUOUS
 62
     4
100
AcDbLine
 10
35.986573
 20
20.620844
 30
0.0
 11
34.19152299999999
 21
20.620844
 31
0.0
  0
LINE
  5
4D
330
A
100
AcDbEntity
  8
CARTOUCHE
  6
CONTINUOUS
 62
     4
100
AcDbLine
 10
34.19152299999999
 20
24.319904
 30
0.0
 11
34.19152299999999
 21
25.823744
 31
0.0
  0
LINE
  5
4E
330
A
100
AcDbEntity
  8
CARTOUCHE
  6
CONTINUOUS
 62
     4
100
AcDbLine
 10
34.19152299999999
 20
25.823744
 30
0.0
 11
35.986573
 21
25.823744
 31
0.0
  0
LINE
  5
4F
330
A
100
AcDbEntity
  8
CARTOUCHE
  6
CONTINUOUS
 62
     4
100
AcDbLine
 10
42.732973
 20
24.508394
 30
0.0
 11
44.459623
 21
24.508394
 31
0.0
  0
LINE
  5
50
330
A
100
AcDbEntity
  8
CARTOUCHE
  6
CONTINUOUS
 62
     4
100
AcDbLine
 10
44.459623
 20
24.508394
 30
0.0
 11
44.459623
 21
24.165494
 31
0.0
  0
LINE
  5
51
330
A
100
AcDbEntity
  8
CARTOUCHE
  6
CONTINUOUS
 62
     4
100
AcDbLine
 10
47.28382299999999
 20
22.58779399999999
 30
0.0
 11
45.45457299999999
 21
22.58779399999999
 31
0.0
  0
LINE
  5
52
330
A
100
AcDbEntity
  8
CARTOUCHE
  6
CONTINUOUS
 62
     4
100
AcDbLine
 10
45.45457299999999
 20
22.58779399999999
 30
0.0
 11
45.45457299999999
 21
22.827644
 31
0.0
  0
LINE
  5
53
330
A
100
AcDbEntity
  8
CARTOUCHE
  6
CONTINUOUS
 62
     4
100
AcDbLine
 10
44.459623
 20
22.782194
 30
0.0
 11
44.459623
 21
20.63209399999999
 31
0.0
  0
LINE
  5
54
330
A
100
AcDbEntity
  8
CARTOUCHE
  6
CONTINUOUS
 62
     4
100
AcDbLine
 10
44.459623
 20
20.63209399999999
 30
0.0
 11
42.732973
 21
20.63209399999999
 31
0.0
  0
LINE
  5
55
330
A
100
AcDbEntity
  8
CARTOUCHE
  6
CONTINUOUS
 62
     4
100
AcDbLine
 10
42.732973
 20
20.63209399999999
 30
0.0
 11
42.732973
 21
24.508394
 31
0.0
  0
LINE
  5
56
330
A
100
AcDbEntity
  8
CARTOUCHE
  6
CONTINUOUS
 62
     4
100
AcDbLine
 10
39.15412299999999
 20
22.244444
 30
0.0
 11
39.05107299999999
 21
22.244444
 31
0.0
  0
LINE
  5
57
330
A
100
AcDbEntity
  8
CARTOUCHE
  6
CONTINUOUS
 62
     4
100
AcDbLine
 10
39.05107299999999
 20
22.244444
 30
0.0
 11
38.364823
 21
22.244444
 31
0.0
  0
LINE
  5
58
330
A
100
AcDbEntity
  8
CARTOUCHE
  6
CONTINUOUS
 62
     4
100
AcDbLine
 10
40.34302299999999
 20
21.855644
 30
0.0
 11
42.10387299999999
 21
21.855644
 31
0.0
  0
LINE
  5
59
330
A
100
AcDbEntity
  8
CARTOUCHE
  6
CONTINUOUS
 62
     4
100
AcDbLine
 10
42.20692299999999
 20
22.25614399999999
 30
0.0
 11
39.15412299999999
 21
22.244444
 31
0.0
  0
LINE
  5
5A
330
A
100
AcDbEntity
  8
CARTOUCHE
  6
CONTINUOUS
 62
     4
100
AcDbLine
 10
39.15412299999999
 20
23.079194
 30
0.0
 11
40.34302299999999
 21
23.079194
 31
0.0
  0
LINE
  5
5B
330
A
100
AcDbEntity
  8
CARTOUCHE
  6
CONTINUOUS
 62
     4
100
AcDbLine
 10
38.364823
 20
23.079194
 30
0.0
 11
39.15412299999999
 21
23.079194
 31
0.0
  0
LINE
  5
5C
330
A
100
AcDbEntity
  8
CARTOUCHE
  6
CONTINUOUS
 62
     4
100
AcDbLine
 10
21.087523
 20
24.931844
 30
0.0
 11
21.087523
 21
25.834994
 31
0.0
  0
LINE
  5
5D
330
A
100
AcDbEntity
  8
CARTOUCHE
  6
CONTINUOUS
 62
     4
100
AcDbLine
 10
21.087523
 20
25.834994
 30
0.0
 11
19.589473
 21
25.834994
 31
0.0
  0
LINE
  5
5E
330
A
100
AcDbEntity
  8
CARTOUCHE
  6
CONTINUOUS
 62
     4
100
AcDbLine
 10
18.674623
 20
24.931844
 30
0.0
 11
18.674623
 21
24.508394
 31
0.0
  0
LINE
  5
5F
330
A
100
AcDbEntity
  8
CARTOUCHE
  6
CONTINUOUS
 62
     4
100
AcDbLine
 10
18.674623
 20
24.508394
 30
0.0
 11
18.137323
 21
24.508394
 31
0.0
  0
LINE
  5
60
330
A
100
AcDbEntity
  8
CARTOUCHE
  6
CONTINUOUS
 62
     4
100
AcDbLine
 10
18.137323
 20
24.508394
 30
0.0
 11
18.137323
 21
23.410844
 31
0.0
  0
LINE
  5
61
330
A
100
AcDbEntity
  8
CARTOUCHE
  6
CONTINUOUS
 62
     4
100
AcDbLine
 10
18.137323
 20
23.410844
 30
0.0
 11
18.674623
 21
23.410844
 31
0.0
  0
LINE
  5
62
330
A
100
AcDbEntity
  8
CARTOUCHE
  6
CONTINUOUS
 62
     4
100
AcDbLine
 10
18.674623
 20
23.410844
 30
0.0
 11
18.674623
 21
20.63209399999999
 31
0.0
  0
LINE
  5
63
330
A
100
AcDbEntity
  8
CARTOUCHE
  6
CONTINUOUS
 62
     4
100
AcDbLine
 10
18.674623
 20
20.63209399999999
 30
0.0
 11
20.470123
 21
20.63209399999999
 31
0.0
  0
LINE
  5
64
330
A
100
AcDbEntity
  8
CARTOUCHE
  6
CONTINUOUS
 62
     4
100
AcDbLine
 10
20.470123
 20
20.63209399999999
 30
0.0
 11
20.470123
 21
23.410844
 31
0.0
  0
LINE
  5
65
330
A
100
AcDbEntity
  8
CARTOUCHE
  6
CONTINUOUS
 62
     4
100
AcDbLine
 10
20.470123
 20
23.410844
 30
0.0
 11
21.087523
 21
23.410844
 31
0.0
  0
LINE
  5
66
330
A
100
AcDbEntity
  8
CARTOUCHE
  6
CONTINUOUS
 62
     4
100
AcDbLine
 10
21.087523
 20
23.410844
 30
0.0
 11
21.087523
 21
24.508394
 31
0.0
  0
LINE
  5
67
330
A
100
AcDbEntity
  8
CARTOUCHE
  6
CONTINUOUS
 62
     4
100
AcDbLine
 10
21.087523
 20
24.508394
 30
0.0
 11
20.412973
 21
24.508394
 31
0.0
  0
LINE
  5
68
330
A
100
AcDbEntity
  8
CARTOUCHE
  6
CONTINUOUS
 62
     4
100
AcDbLine
 10
20.412973
 20
24.508394
 30
0.0
 11
20.461079
 21
24.768622
 31
0.0
  0
LINE
  5
69
330
A
100
AcDbEntity
  8
CARTOUCHE
  6
CONTINUOUS
 62
     4
100
AcDbLine
 10
20.679053
 20
24.931844
 30
0.0
 11
21.087523
 21
24.931844
 31
0.0
  0
LINE
  5
6A
330
A
100
AcDbEntity
  8
CARTOUCHE
  6
CONTINUOUS
 62
     4
100
AcDbLine
 10
21.807973
 20
20.63209399999999
 30
0.0
 11
21.807973
 21
24.508394
 31
0.0
  0
LINE
  5
6B
330
A
100
AcDbEntity
  8
CARTOUCHE
  6
CONTINUOUS
 62
     4
100
AcDbLine
 10
21.807973
 20
24.508394
 30
0.0
 11
23.625973
 21
24.508394
 31
0.0
  0
LINE
  5
6C
330
A
100
AcDbEntity
  8
CARTOUCHE
  6
CONTINUOUS
 62
     4
100
AcDbLine
 10
23.625973
 20
24.508394
 30
0.0
 11
23.625973
 21
20.63209399999999
 31
0.0
  0
LINE
  5
6D
330
A
100
AcDbEntity
  8
CARTOUCHE
  6
CONTINUOUS
 62
     4
100
AcDbLine
 10
23.625973
 20
20.63209399999999
 30
0.0
 11
21.807973
 21
20.63209399999999
 31
0.0
  0
LINE
  5
6E
330
A
100
AcDbEntity
  8
CARTOUCHE
  6
CONTINUOUS
 62
     4
100
AcDbLine
 10
21.807973
 20
24.943094
 30
0.0
 11
21.807973
 21
25.834994
 31
0.0
  0
LINE
  5
6F
330
A
100
AcDbEntity
  8
CARTOUCHE
  6
CONTINUOUS
 62
     4
100
AcDbLine
 10
21.807973
 20
25.834994
 30
0.0
 11
23.625973
 21
25.834994
 31
0.0
  0
LINE
  5
70
330
A
100
AcDbEntity
  8
CARTOUCHE
  6
CONTINUOUS
 62
     4
100
AcDbLine
 10
23.625973
 20
25.834994
 30
0.0
 11
23.625973
 21
24.943094
 31
0.0
  0
LINE
  5
71
330
A
100
AcDbEntity
  8
CARTOUCHE
  6
CONTINUOUS
 62
     4
100
AcDbLine
 10
23.625973
 20
24.943094
 30
0.0
 11
21.807973
 21
24.943094
 31
0.0
  0
ARC
  5
72
330
A
100
AcDbEntity
  8
CARTOUCHE
  6
CONTINUOUS
 62
     4
100
AcDbCircle
 10
19.58025899999999
 20
24.929401
 30
0.0
 40
0.905639
100
AcDbArc
 50
90.0
 51
180.0
  0
ARC
  5
73
330
A
100
AcDbEntity
  8
CARTOUCHE
  6
CONTINUOUS
 62
     4
100
AcDbCircle
 10
20.705988
 20
24.668716
 30
0.0
 40
0.264503
100
AcDbArc
 50
95.844673
 51
157.807812
  0
ARC
  5
74
330
A
100
AcDbEntity
  8
CARTOUCHE
  6
CONTINUOUS
 62
     4
100
AcDbCircle
 10
28.675028
 20
23.264873
 30
0.0
 40
1.218658
100
AcDbArc
 50
2.806996999999999
 51
66.54578100000001
  0
ARC
  5
75
330
A
100
AcDbEntity
  8
CARTOUCHE
  6
CONTINUOUS
 62
     4
100
AcDbCircle
 10
28.067403
 20
21.045261
 30
0.0
 40
3.511892
100
AcDbArc
 50
71.872392
 51
120.4055569999999
  0
ARC
  5
76
330
A
100
AcDbEntity
  8
CARTOUCHE
  6
CONTINUOUS
 62
     4
100
AcDbCircle
 10
27.457324
 20
22.47903399999999
 30
0.0
 40
0.6511239999999999
100
AcDbArc
 50
0.0
 51
97.150683
  0
ARC
  5
77
330
A
100
AcDbEntity
  8
CARTOUCHE
  6
CONTINUOUS
 62
     4
100
AcDbCircle
 10
27.44381
 20
21.82007899999999
 30
0.0
 40
1.306761
100
AcDbArc
 50
92.96251299999999
 51
152.003324
  0
CIRCLE
  5
78
330
A
100
AcDbEntity
  8
CARTOUCHE
  6
CONTINUOUS
 62
     4
100
AcDbCircle
 10
11.899646
 20
23.925422
 30
0.0
 40
4.756723
  0
ARC
  5
79
330
A
100
AcDbEntity
  8
CARTOUCHE
  6
CONTINUOUS
 62
     4
100
AcDbCircle
 10
11.899651
 20
23.925417
 30
0.0
 40
3.758726999999999
100
AcDbArc
 50
112.441032
 51
172.30447
  0
ARC
  5
7A
330
A
100
AcDbEntity
  8
CARTOUCHE
  6
CONTINUOUS
 62
     4
100
AcDbCircle
 10
11.899651
 20
23.925417
 30
0.0
 40
3.758726999999999
100
AcDbArc
 50
82.92015400000002
 51
97.425676
  0
ARC
  5
7B
330
A
100
AcDbEntity
  8
CARTOUCHE
  6
CONTINUOUS
 62
     4
100
AcDbCircle
 10
11.899651
 20
23.925417
 30
0.0
 40
3.758726999999999
100
AcDbArc
 50
187.868554
 51
67.74447600000001
  0
SPLINE
  5
7C
330
A
100
AcDbEntity
  8
CARTOUCHE
  6
CONTINUOUS
 62
     4
100
AcDbSpline
210
0.0
220
0.0
230
1.0
 70
     8
 71
     3
 72
    36
 73
    32
 74
    30
 42
0.0000000001
 43
0.0000000001
 44
0.000001
 12
-0.7486966541787443
 22
0.6629127544568397
 32
0.0
 13
0.8109899424984487
 23
0.5850600936368529
 33
0.0
 40
0.0
 40
0.0
 40
0.0
 40
0.0
 40
0.1780761553060556
 40
0.3550416348689564
 40
0.534344865884207
 40
0.7146560387434031
 40
1.070969089720223
 40
1.425796663898011
 40
1.782601001142071
 40
2.138603895040079
 40
2.494665093696485
 40
2.851054396920102
 40
3.206893011134889
 40
3.5633758813569
 40
3.91939376562976
 40
4.275489247209685
 40
4.631810020557422
 40
4.987968836485988
 40
5.344081360419366
 40
5.700398584840186
 40
6.056403071275471
 40
6.412685561611945
 40
6.768553833375487
 40
7.124993908020178
 40
7.480918575954275
 40
7.837064891658402
 40
8.193226462040993
 40
8.549153485654631
 40
8.905927656882472
 40
9.26182807522613
 40
9.970557563632079
 40
9.970557563632079
 40
9.970557563632079
 40
9.970557563632079
 10
34.19152297621248
 20
24.31990419713182
 30
0.0
 10
34.1470813023236
 20
24.35925384867082
 30
0.0
 10
34.0521719569681
 20
24.43173618392172
 30
0.0
 10
33.88702575613148
 20
24.50226791579082
 30
0.0
 10
33.71305223761583
 20
24.54495714766015
 30
0.0
 10
33.47834937114383
 20
24.58798310564185
 30
0.0
 10
33.18518211493348
 20
24.63800747804683
 30
0.0
 10
32.82899744348545
 20
24.659369294718
 30
0.0
 10
32.47326771695625
 20
24.64621390081769
 30
0.0
 10
32.11757591555201
 20
24.61242870860891
 30
0.0
 10
31.77299300510799
 20
24.5155708841489
 30
0.0
 10
31.44749964423073
 20
24.36660655392596
 30
0.0
 10
31.15775794383959
 20
24.15567801072957
 30
0.0
 10
30.90609576518011
 20
23.90204674026736
 30
0.0
 10
30.69450218406407
 20
23.61346834211755
 30
0.0
 10
30.53862681297708
 20
23.29089603959582
 30
0.0
 10
30.4427778154891
 20
22.9462329884785
 30
0.0
 10
30.40515987073751
 20
22.58968062292321
 30
0.0
 10
30.44352427876861
 20
22.23351817132072
 30
0.0
 10
30.53308941867978
 20
21.88748886639844
 30
0.0
 10
30.68157947778859
 20
21.56148506227442
 30
0.0
 10
30.88917782139148
 20
21.26919473918138
 30
0.0
 10
31.15221374974194
 20
21.02575919463754
 30
0.0
 10
31.4509261633181
 20
20.82973487900221
 30
0.0
 10
31.7761597563312
 20
20.68002671318712
 30
0.0
 10
32.1245992018452
 20
20.59680895475904
 30
0.0
 10
32.4803630861093
 20
20.56921458872081
 30
0.0
 10
32.83672042951041
 20
20.56880350163353
 30
0.0
 10
33.19288790635218
 20
20.58096018875884
 30
0.0
 10
33.6641915214532
 20
20.63797084694975
 30
0.0
 10
33.99993214719605
 20
20.78862716016669
 30
0.0
 10
34.19152297621248
 20
20.92684360711669
 30
0.0
 11
34.19152297621248
 21
24.31990419713182
 31
0.0
 11
34.04814564948316
 21
24.42551803537496
 31
0.0
 11
33.886414432493
 21
24.49734946038967
 31
0.0
 11
33.71305596481814
 21
24.54313679053143
 31
0.0
 11
33.53598457982956
 21
24.57716399139703
 31
0.0
 11
33.18386096308204
 21
24.63164336554592
 31
0.0
 11
32.8297140010732
 21
24.65361067318905
 31
0.0
 11
32.47307470160767
 21
24.64275936909139
 31
0.0
 11
32.11942187052807
 21
24.60192152108414
 31
0.0
 11
31.77626880985488
 21
24.50691864896159
 31
0.0
 11
31.45331806594562
 21
24.35619987525168
 31
0.0
 11
31.16425081659299
 21
24.14868782982736
 31
0.0
 11
30.91268311986691
 21
23.89611360248224
 31
0.0
 11
30.70379325220438
 21
23.60781901266321
 31
0.0
 11
30.54866063637869
 21
23.28729150751013
 31
0.0
 11
30.45247328846812
 21
22.94419894098582
 31
0.0
 11
30.41782044248039
 21
22.58972989255912
 31
0.0
 11
30.4520470898832
 21
22.23526594311771
 31
0.0
 11
30.54294059487364
 21
21.89073675637875
 31
0.0
 11
30.691396483504
 21
21.56716285752306
 31
0.0
 11
30.89849041843911
 21
21.27725022136696
 31
0.0
 11
31.15802450035081
 21
21.0337665401986
 31
0.0
 11
31.45548308742885
 21
20.83737935540596
 31
0.0
 11
31.77997022332717
 21
20.69112453447919
 31
0.0
 11
32.12581407620214
 21
20.60608206244055
 31
0.0
 11
32.48050427697165
 21
20.57374147270578
 31
0.0
 11
32.83641989969535
 21
20.57089422013112
 31
0.0
 11
33.19286980656467
 21
20.58610182742616
 31
0.0
 11
33.54527140198384
 21
20.63588357412756
 31
0.0
 11
34.19152297621248
 21
20.92684360711669
 31
0.0
  0
SPLINE
  5
7D
330
A
100
AcDbEntity
  8
CARTOUCHE
  6
CONTINUOUS
 62
     4
100
AcDbSpline
210
0.0
220
0.0
230
1.0
 70
     8
 71
     3
 72
    32
 73
    28
 74
    26
 42
0.0000000001
 43
0.0000000001
 44
0.000001
 12
-0.1341089932713914
 22
0.9909665876929119
 32
0.0
 13
0.0921211275959058
 23
0.9957478083583508
 33
0.0
 40
0.0
 40
0.0
 40
0.0
 40
0.0
 40
0.1932870726990354
 40
0.3866792452096321
 40
0.5800716448723838
 40
0.7723331336887238
 40
0.9658517963207502
 40
1.159368324722244
 40
1.351211885861728
 40
1.544293516073682
 40
1.738458265495974
 40
1.931764420786816
 40
2.315247530488627
 40
2.698534125382554
 40
2.891496493449493
 40
3.086239187656828
 40
3.279346076389814
 40
3.471494617804941
 40
3.665361350852593
 40
3.858866209618609
 40
4.051424456358019
 40
4.244517019109063
 40
4.629047421486942
 40
4.822526074880364
 40
5.015998230668783
 40
5.208856307653514
 40
5.402319509587272
 40
5.402319509587272
 40
5.402319509587272
 40
5.402319509587272
 10
34.19152297621248
 20
22.75924360711669
 30
0.0
 10
34.18288246463514
 20
22.82309061740926
 30
0.0
 10
34.14699032504411
 20
22.94923083584772
 30
0.0
 10
34.0386311915935
 20
23.11295856749961
 30
0.0
 10
33.88808692217448
 20
23.2375052632015
 30
0.0
 10
33.713903336865
 20
23.32349595013638
 30
0.0
 10
33.52952374823402
 20
23.381666646274
 30
0.0
 10
33.34290576820264
 20
23.43125923522332
 30
0.0
 10
33.1500593445487
 20
23.45345638096766
 30
0.0
 10
32.9567662653034
 20
23.43192402229585
 30
0.0
 10
32.77056094954621
 20
23.37588613719517
 30
0.0
 10
32.5400564300067
 20
23.25927875203683
 30
0.0
 10
32.3043208053898
 20
23.02895627192543
 30
0.0
 10
32.19918324728941
 20
22.70410853072548
 30
0.0
 10
32.25560999955026
 20
22.44863361631264
 30
0.0
 10
32.34552926468554
 20
22.27538547462595
 30
0.0
 10
32.47312191827226
 20
22.12730573798493
 30
0.0
 10
32.63483114160577
 20
22.01829644308999
 30
0.0
 10
32.81426091781529
 20
21.94472694998748
 30
0.0
 10
33.00144386925829
 20
21.89441488480765
 30
0.0
 10
33.1942829819659
 20
21.87304334806433
 30
0.0
 10
33.45148795617319
 20
21.88934820105486
 30
0.0
 10
33.70119762619981
 20
21.97262952139334
 30
0.0
 10
33.91655360502459
 20
22.11456126477981
 30
0.0
 10
34.05836119423946
 20
22.24858589816441
 30
0.0
 10
34.15639851653419
 20
22.41858974007391
 30
0.0
 10
34.18558229344233
 20
22.54608008734217
 30
0.0
 10
34.19152297621248
 20
22.61029360711668
 30
0.0
 11
34.19152297621248
 21
22.75924360711669
 31
0.0
 11
34.13791895137521
 21
22.94494973500174
 31
0.0
 11
34.03155373353055
 21
23.10646429401778
 31
0.0
 11
33.88383915758775
 21
23.2312882243935
 31
0.0
 11
33.71260018090836
 21
23.31870497950503
 31
0.0
 11
33.52912571204567
 21
23.38024026476581
 31
0.0
 11
33.34129541646134
 21
23.4268066350183
 31
0.0
 11
33.15043306379559
 21
23.44618483007101
 31
0.0
 11
32.95838311054932
 21
23.42625160056325
 31
0.0
 11
32.77240099875644
 21
23.3704787693241
 31
0.0
 11
32.6003783004499
 21
23.2823001555606
 31
0.0
 11
32.3303531106979
 21
23.01000300398823
 31
0.0
 11
32.22491909320101
 21
22.64150286445183
 31
0.0
 11
32.26331822628608
 21
22.45239971642014
 31
0.0
 11
32.35215412813561
 21
22.27909964132739
 31
0.0
 11
32.4790661567678
 21
22.13355370124998
 31
0.0
 11
32.63725672616544
 21
22.02448118124885
 31
0.0
 11
32.81564788989768
 21
21.94858052993353
 31
0.0
 11
33.00273750412712
 21
21.89916786421672
 31
0.0
 11
33.19419909206249
 21
21.87864610808737
 31
0.0
 11
33.38690243953787
 21
21.89090007892743
 31
0.0
 11
33.75163382265729
 21
22.01269765064039
 31
0.0
 11
33.91321018639743
 21
22.11912633605071
 31
0.0
 11
34.05119662359747
 21
22.25474052514755
 31
0.0
 11
34.14728879489485
 21
22.42195449774151
 31
0.0
 11
34.19152297621248
 21
22.61029360711668
 31
0.0
  0
LINE
  5
7E
330
A
100
AcDbEntity
  8
CARTOUCHE
  6
CONTINUOUS
 62
     4
100
AcDbLine
 10
34.19152299999999
 20
22.61029399999999
 30
0.0
 11
34.19152299999999
 21
22.759244
 31
0.0
  0
LINE
  5
7F
330
A
100
AcDbEntity
  8
CARTOUCHE
  6
CONTINUOUS
 62
     4
100
AcDbLine
 10
34.19152299999999
 20
20.620844
 30
0.0
 11
34.19152299999999
 21
20.926844
 31
0.0
  0
SPLINE
  5
80
330
A
100
AcDbEntity
  8
CARTOUCHE
  6
CONTINUOUS
 62
     4
100
AcDbSpline
210
0.0
220
0.0
230
1.0
 70
     8
 71
     3
 72
    46
 73
    42
 74
    40
 42
0.0000000001
 43
0.0000000001
 44
0.000001
 12
0.2679235453433934
 22
0.9634401765811027
 32
0.0
 13
0.1610223945668763
 23
0.9869507527977013
 33
0.0
 40
0.0
 40
0.0
 40
0.0
 40
0.0
 40
0.2811755879610205
 40
0.5640894598527233
 40
0.848996750074431
 40
1.131204584902207
 40
1.693847130716207
 40
2.25688272553264
 40
2.539006562895586
 40
2.82069662770917
 40
3.102988313571608
 40
3.385254961394737
 40
3.948537059671116
 40
4.512594879571459
 40
5.076290929579052
 40
5.639938991368811
 40
6.203885292827631
 40
6.76673802423201
 40
7.329350602228592
 40
7.892323292363507
 40
8.455148072837028
 40
8.737354674731138
 40
9.018966275430832
 40
9.581780957923619
 40
9.8640384101795
 40
10.14660875455177
 40
10.42765626274299
 40
10.71044466815239
 40
11.27439702776554
 40
11.83782171874066
 40
12.40154952919084
 40
12.96488070414784
 40
13.53013628041458
 40
13.81230340811157
 40
14.0937286718736
 40
14.37575650341838
 40
14.65756953458365
 40
14.93943539145296
 40
15.2212008302244
 40
15.50299648006998
 40
15.78483841467691
 40
15.78483841467691
 40
15.78483841467691
 40
15.78483841467691
 10
42.2069229762125
 20
22.2561436071167
 30
0.0
 10
42.23203416300934
 20
22.34644222648852
 30
0.0
 10
42.26336600835233
 20
22.53399302707783
 30
0.0
 10
42.24149685064988
 20
22.81801354893513
 30
0.0
 10
42.17836809953294
 20
23.09483432895953
 30
0.0
 10
42.05825188604774
 20
23.45212616882764
 30
0.0
 10
41.82306680068029
 20
23.8672500462518
 30
0.0
 10
41.46781676949063
 20
24.18453380611619
 30
0.0
 10
41.14761161207629
 20
24.38196283172969
 30
0.0
 10
40.8889755311834
 20
24.49665789401904
 30
0.0
 10
40.61969386966782
 20
24.58173362530222
 30
0.0
 10
40.25431496432636
 20
24.67112545926651
 30
0.0
 10
39.78717039719532
 20
24.7349172266618
 30
0.0
 10
39.22286209832438
 20
24.74314592079586
 30
0.0
 10
38.65912089182813
 20
24.70776726288799
 30
0.0
 10
38.10430973138448
 20
24.60055473365942
 30
0.0
 10
37.56703419814676
 20
24.41975302663695
 30
0.0
 10
37.09128412027332
 20
24.10132431889457
 30
0.0
 10
36.74193897991701
 20
23.6494135573821
 30
0.0
 10
36.52262166512311
 20
23.12465092262863
 30
0.0
 10
36.46286239872555
 20
22.65237437546891
 30
0.0
 10
36.49897197569238
 20
22.27677357904617
 30
0.0
 10
36.60138550967333
 20
21.914478475941
 30
0.0
 10
36.76185476285073
 20
21.56953949794036
 30
0.0
 10
36.99184531701846
 20
21.27135446443551
 30
0.0
 10
37.18412183917007
 20
21.0637297758158
 30
0.0
 10
37.41499114147041
 20
20.8981099506315
 30
0.0
 10
37.75233275177086
 20
20.73107999541951
 30
0.0
 10
38.19505514432213
 20
20.56630095377484
 30
0.0
 10
38.75227472239757
 20
20.4684543647121
 30
0.0
 10
39.31516450875555
 20
20.42686251213917
 30
0.0
 10
39.87978566121682
 20
20.45310413897527
 30
0.0
 10
40.34636221788838
 20
20.51793252236162
 30
0.0
 10
40.71317022013404
 20
20.60361845862005
 30
0.0
 10
40.98020793552477
 20
20.69575648453572
 30
0.0
 10
41.23634112546804
 20
20.8133707130675
 30
0.0
 10
41.48756204304269
 20
20.94257872732796
 30
0.0
 10
41.71131198312713
 20
21.11779586997518
 30
0.0
 10
41.89210410379192
 20
21.33577447260693
 30
0.0
 10
42.0370545583131
 20
21.57968832418388
 30
0.0
 10
42.0887453551459
 20
21.76292223727327
 30
0.0
 10
42.10387297621249
 20
21.85564360711669
 30
0.0
 11
42.2069229762125
 21
22.2561436071167
 31
0.0
 11
42.25187369928078
 21
22.53370336692194
 31
0.0
 11
42.23470970538826
 21
22.81609604661631
 31
0.0
 11
42.17357887835489
 21
23.0943678180467
 31
0.0
 11
42.08234233059616
 21
23.36142053588839
 31
0.0
 11
41.79914459059214
 21
23.84759505388021
 31
0.0
 11
41.38499580886721
 21
24.22902637720731
 31
0.0
 11
41.14444967147259
 21
24.37644216492157
 31
0.0
 11
40.88739588735783
 21
24.49164913231013
 31
0.0
 11
40.61887239332167
 21
24.57873375105807
 31
0.0
 11
40.34465192624326
 21
24.6456486068168
 31
0.0
 11
39.78677780416954
 21
24.72351512572941
 31
0.0
 11
39.22285539283774
 21
24.73587418697074
 31
0.0
 11
38.66058598489463
 21
24.6957948090196
 31
0.0
 11
38.10728319880826
 21
24.58829981854138
 31
0.0
 11
37.57690963109761
 21
24.39662477322789
 31
0.0
 11
37.11224330369889
 21
24.07899538626728
 31
0.0
 11
36.76366857941347
 21
23.63737494458054
 31
0.0
 11
36.54722159336241
 21
23.11767406956402
 31
0.0
 11
36.47887604508949
 21
22.55901436160783
 31
0.0
 11
36.50730298839906
 21
22.27824312562695
 31
0.0
 11
36.58066141679664
 21
22.00635409419069
 31
0.0
 11
36.82487619371594
 21
21.49928452588675
 31
0.0
 11
36.99507455897878
 21
21.27411393911514
 31
0.0
 11
37.19090624714093
 21
21.07040837833609
 31
0.0
 11
37.41820717151092
 21
20.90511471530928
 31
0.0
 11
37.66963145788086
 21
20.77567317677089
 31
0.0
 11
38.1996064863776
 21
20.58288122875969
 31
0.0
 11
38.75315260795133
 21
20.4778380326807
 31
0.0
 11
39.31548247397889
 21
20.43816227630538
 31
0.0
 11
39.87832438970059
 21
20.46163547548924
 31
0.0
 11
40.43780417420945
 21
20.54223471097221
 31
0.0
 11
40.71211753370237
 21
20.60834422386486
 31
0.0
 11
40.97822189579761
 21
20.69993377525821
 31
0.0
 11
41.23556355576588
 21
20.81532426148599
 31
0.0
 11
41.48298030283661
 21
20.95024471011851
 31
0.0
 11
41.70417597333143
 21
21.12494680466518
 31
0.0
 11
41.88612496759311
 21
21.3400893433574
 31
0.0
 11
42.02581025553314
 21
21.58482751880403
 31
0.0
 11
42.10387297621249
 21
21.85564360711669
 31
0.0
  0
SPLINE
  5
81
330
A
100
AcDbEntity
  8
CARTOUCHE
  6
CONTINUOUS
 62
     4
100
AcDbSpline
210
0.0
220
0.0
230
1.0
 70
     8
 71
     3
 72
    15
 73
    11
 74
     9
 42
0.0000000001
 43
0.0000000001
 44
0.000001
 12
0.1873467659221653
 22
-0.9822938406090642
 32
0.0
 13
0.7770129286964092
 23
0.6294846373332945
 33
0.0
 40
0.0
 40
0.0
 40
0.0
 40
0.0
 40
0.3371520882962173
 40
0.6743124420665221
 40
1.011741231949286
 40
1.348773281046474
 40
1.687274393511954
 40
1.85609288646097
 40
2.024671668997255
 40
2.361713795269126
 40
2.361713795269126
 40
2.361713795269126
 40
2.361713795269126
 10
38.3648229762125
 20
22.24444360711669
 30
0.0
 10
38.3858777606679
 20
22.13404946722274
 30
0.0
 10
38.47908823920581
 20
21.91720258641543
 30
0.0
 10
38.7543084196568
 20
21.70644962175585
 30
0.0
 10
39.06998579026008
 20
21.58181024957575
 30
0.0
 10
39.40539428132956
 20
21.52556294079901
 30
0.0
 10
39.68949383633028
 20
21.54062590043177
 30
0.0
 10
39.90812614741165
 20
21.59887432412624
 30
0.0
 10
40.11328190683266
 20
21.69222629120342
 30
0.0
 10
40.25572761300298
 20
21.78492266024259
 30
0.0
 10
40.3430229762125
 20
21.85564360711669
 30
0.0
 11
38.3648229762125
 21
22.24444360711669
 31
0.0
 11
38.50164219830394
 21
21.93629966675314
 31
0.0
 11
38.76098099155704
 21
21.72084551731241
 31
0.0
 11
39.07332908880514
 21
21.59318639542835
 31
0.0
 11
39.40580907592664
 21
21.53798084006903
 31
0.0
 11
39.74365139903879
 21
21.55908759838489
 31
0.0
 11
39.90657573481705
 21
21.60330661466392
 31
0.0
 11
40.06077578326682
 21
21.67143258943228
 31
0.0
 11
40.3430229762125
 21
21.85564360711669
 31
0.0
  0
SPLINE
  5
82
330
A
100
AcDbEntity
  8
CARTOUCHE
  6
CONTINUOUS
 62
     4
100
AcDbSpline
210
0.0
220
0.0
230
1.0
 70
     8
 71
     3
 72
    21
 73
    17
 74
    15
 42
0.0000000001
 43
0.0000000001
 44
0.000001
 12
-0.0762450288998757
 22
0.9970891111470715
 32
0.0
 13
-0.2154301143740796
 23
-0.9765192603429648
 33
0.0
 40
0.0
 40
0.0
 40
0.0
 40
0.0
 40
0.1868552501291134
 40
0.3735743240415496
 40
0.5613842212537326
 40
0.7484489381161512
 40
0.935588438582806
 40
1.123112064008598
 40
1.311428189761302
 40
1.500242138341786
 40
1.686443726256276
 40
1.873057604711231
 40
2.05952021535887
 40
2.246467675506947
 40
2.43462854345534
 40
2.621193756753851
 40
2.621193756753851
 40
2.621193756753851
 40
2.621193756753851
 10
40.3430229762125
 20
23.07919360711669
 30
0.0
 10
40.33827404823044
 20
23.14129738553815
 30
0.0
 10
40.31098607120404
 20
23.265320998041
 30
0.0
 10
40.21176993964345
 20
23.42743856410386
 30
0.0
 10
40.07410542495197
 20
23.55667636729545
 30
0.0
 10
39.91380146855937
 20
23.65566279649365
 30
0.0
 10
39.73873495456709
 20
23.72452138799517
 30
0.0
 10
39.55490004271078
 20
23.76544088796557
 30
0.0
 10
39.36639757169171
 20
23.77885750750727
 30
0.0
 10
39.1790224559892
 20
23.76782182101864
 30
0.0
 10
38.99274814414789
 20
23.72745913194852
 30
0.0
 10
38.83748760469036
 20
23.62068056673371
 30
0.0
 10
38.66640559987163
 20
23.54392780516534
 30
0.0
 10
38.52524863854352
 20
23.41621618712654
 30
0.0
 10
38.42100518625731
 20
23.258923243242
 30
0.0
 10
38.37822023129222
 20
23.13992178181536
 30
0.0
 10
38.3648229762125
 20
23.07919360711669
 30
0.0
 11
40.3430229762125
 21
23.07919360711669
 31
0.0
 11
40.30128482007762
 21
23.26132867168497
 31
0.0
 11
40.20559522220136
 21
23.42166431604199
 31
0.0
 11
40.07014905358667
 21
23.55176773224803
 31
0.0
 11
39.91135088271828
 21
23.65064317365039
 31
0.0
 11
39.73746285592489
 21
23.71981068462435
 31
0.0
 11
39.55447534379333
 21
23.76080659501807
 31
0.0
 11
39.36667772831405
 21
23.77477007425147
 31
0.0
 11
39.17824365086321
 21
23.76280187157365
 31
0.0
 11
38.99791204207538
 21
23.71641788353441
 31
0.0
 11
38.83484335052719
 21
23.62568105970969
 31
0.0
 11
38.67159397760771
 21
23.53558123947114
 31
0.0
 11
38.53168126994678
 21
23.41159000587154
 31
0.0
 11
38.42745670868595
 21
23.25493190905036
 31
0.0
 11
38.3648229762125
 21
23.07919360711669
 31
0.0
  0
SPLINE
  5
83
330
A
100
AcDbEntity
  8
CARTOUCHE
  6
CONTINUOUS
 62
     4
100
AcDbSpline
210
0.0
220
0.0
230
1.0
 70
     8
 71
     3
 72
    14
 73
    10
 74
     8
 42
0.0000000001
 43
0.0000000001
 44
0.000001
 12
0.0554704849890784
 22
0.9984603273516061
 32
0.0
 13
-0.0466631639368038
 23
-0.9989106812580427
 33
0.0
 40
0.0
 40
0.0
 40
0.0
 40
0.0
 40
0.2162139074022218
 40
0.4333924847994324
 40
0.6499495281904905
 40
0.8697428518080908
 40
1.087237595645041
 40
1.304827608132232
 40
1.522315904263428
 40
1.522315904263428
 40
1.522315904263428
 40
1.522315904263428
 10
45.4545729762125
 20
22.82764360711668
 30
0.0
 10
45.45857080631416
 20
22.89960394337094
 30
0.0
 10
45.42640845178713
 20
23.04880719341104
 30
0.0
 10
45.27439530019221
 20
23.21580479327942
 30
0.0
 10
45.06187441261872
 20
23.29256560222701
 30
0.0
 10
44.83996045298547
 20
23.27349163465662
 30
0.0
 10
44.63539403875084
 20
23.17927816693098
 30
0.0
 10
44.50069250367362
 20
22.99887923670179
 30
0.0
 10
44.46300587355137
 20
22.85461073446803
 30
0.0
 10
44.45962297621247
 20
22.78219360711668
 30
0.0
 11
45.4545729762125
 21
22.82764360711668
 31
0.0
 11
45.40925657835891
 21
23.03905624439607
 31
0.0
 11
45.2643208173426
 21
23.20079736409236
 31
0.0
 11
45.06139949806013
 21
23.27642755731508
 31
0.0
 11
44.84216559415751
 21
23.2607549970325
 31
0.0
 11
44.64694347697345
 21
23.16487840855711
 31
0.0
 11
44.51370731348553
 21
22.99285063220138
 31
0.0
 11
44.45962297621247
 21
22.78219360711668
 31
0.0
  0
SPLINE
  5
84
330
A
100
AcDbEntity
  8
CARTOUCHE
  6
CONTINUOUS
 62
     4
100
AcDbSpline
210
0.0
220
0.0
230
1.0
 70
     8
 71
     3
 72
    20
 73
    16
 74
    14
 42
0.0000000001
 43
0.0000000001
 44
0.000001
 12
0.1358608544273129
 22
0.9907279284618359
 32
0.0
 13
-0.8123777522852272
 23
-0.583131535412039
 33
0.0
 40
0.0
 40
0.0
 40
0.0
 40
0.0
 40
0.3099167376574408
 40
0.6201162120086082
 40
0.9308832229227103
 40
1.240782580369536
 40
1.550958571055999
 40
1.861841472929394
 40
2.170989032701104
 40
2.482794313402613
 40
2.792566681426362
 40
3.102412009711698
 40
3.413423418356818
 40
3.723770860918
 40
4.34241409277492
 40
4.34241409277492
 40
4.34241409277492
 40
4.34241409277492
 10
47.28382297621251
 20
22.58779360711669
 30
0.0
 10
47.29785816047233
 20
22.69014132961503
 30
0.0
 10
47.31442324043968
 20
22.89676966285277
 30
0.0
 10
47.300929655681
 20
23.20747621588526
 30
0.0
 10
47.25565430040702
 20
23.51474442121903
 30
0.0
 10
47.17620425041041
 20
23.81641651325381
 30
0.0
 10
47.02732817013799
 20
24.09240856669954
 30
0.0
 10
46.81020864916886
 20
24.32073910349872
 30
0.0
 10
46.53096591325816
 20
24.46673549232284
 30
0.0
 10
46.23076181269932
 20
24.54812138519135
 30
0.0
 10
45.92302828297229
 20
24.59724610143176
 30
0.0
 10
45.61155007781772
 20
24.58971042935069
 30
0.0
 10
45.30365677773262
 20
24.54593296501846
 30
0.0
 10
44.90384925448966
 20
24.43649405403212
 30
0.0
 10
44.62714697559995
 20
24.28574373300502
 30
0.0
 10
44.45962297621249
 20
24.16549360711669
 30
0.0
 11
47.28382297621251
 21
22.58779360711669
 31
0.0
 11
47.3080338234398
 21
22.89676387907709
 31
0.0
 11
47.29564801913904
 21
23.20671600883971
 31
0.0
 11
47.24989999164073
 21
23.51409730955235
 31
0.0
 11
47.1646800578296
 21
23.81204898160464
 31
0.0
 11
47.01605698726017
 21
24.08429955967585
 31
0.0
 11
46.79947591694868
 21
24.30732619143858
 31
0.0
 11
46.52824151124928
 21
24.45566419975128
 31
0.0
 11
46.22887996193931
 21
24.5428722112578
 31
0.0
 11
45.92238599753446
 21
24.58782115591738
 31
0.0
 11
45.61256799206709
 21
24.58370341795764
 31
0.0
 11
45.3047164351297
 21
24.53948194901727
 31
0.0
 11
45.00579935951135
 21
24.4560304659967
 31
0.0
 11
44.45962297621249
 21
24.16549360711669
 31
0.0
  0
ARC
  5
85
330
A
100
AcDbEntity
  8
CARTOUCHE
  6
CONTINUOUS
 62
     4
100
AcDbCircle
 10
10.95095399999999
 20
23.85149299999999
 30
0.0
 40
0.4706070000000001
100
AcDbArc
 50
290.581791
 51
349.597912
  0
SPLINE
  5
86
330
A
100
AcDbEntity
  8
CARTOUCHE
  6
CONTINUOUS
 62
     4
100
AcDbSpline
210
0.0
220
0.0
230
1.0
 70
     8
 71
     3
 72
    14
 73
    10
 74
     8
 42
0.0000000001
 43
0.0000000001
 44
0.000001
 12
-0.0678904074543379
 22
-0.9976927846665446
 32
0.0
 13
-0.8200536786282523
 23
0.5722866101598663
 33
0.0
 40
0.0
 40
0.0
 40
0.0
 40
0.0
 40
0.2180606789005079
 40
0.4363602626288003
 40
0.6537280242066231
 40
0.8729546411850229
 40
1.089088005528229
 40
1.305403373828843
 40
1.523279715932531
 40
1.523279715932531
 40
1.523279715932531
 40
1.523279715932531
 10
13.3232229762125
 20
21.16984360711669
 30
0.0
 10
13.3182882334324
 20
21.09732441846385
 30
0.0
 10
13.284440483435
 20
20.95301317401816
 30
0.0
 10
13.16948288538595
 20
20.7630742883032
 30
0.0
 10
12.99638521645118
 20
20.6240633334473
 30
0.0
 10
12.79557455913801
 20
20.53568047568411
 30
0.0
 10
12.57604688222645
 20
20.5036065741256
 30
0.0
 10
12.36194585198925
 20
20.55796217058826
 30
0.0
 10
12.23325574438505
 20
20.6267655025048
 30
0.0
 10
12.17369897910899
 20
20.66832807359032
 30
0.0
 11
13.3232229762125
 21
21.16984360711669
 31
0.0
 11
13.27374961772985
 21
20.95746843688553
 31
0.0
 11
13.15964273339541
 21
20.77136537381492
 31
0.0
 11
12.99218699760144
 21
20.63277473124212
 31
0.0
 11
12.79139755994316
 21
20.54477508934442
 31
0.0
 11
12.576934032064
 21
20.51795972590457
 31
0.0
 11
12.36599789339048
 21
20.56590052451097
 31
0.0
 11
12.17369897910899
 21
20.66832807359032
 31
0.0
  0
ARC
  5
87
330
A
100
AcDbEntity
  8
CARTOUCHE
  6
CONTINUOUS
 62
     4
100
AcDbCircle
 10
14.404539
 20
25.005869
 30
0.0
 40
0.5000710000000001
100
AcDbArc
 50
275.8401249999999
 51
95.840125
  0
INSERT
  5
88
330
A
100
AcDbEntity
  8
CARTOUCHE
  6
CONTINUOUS
 62
     4
100
AcDbBlockReference
  2
*X6
 10
0.0
 20
0.0
 30
0.0
1001
ACAD
1000
HATCH
1002
{
1070
    19
1000
ANSI31
1040
0.062992
1040
0.0
1000
R14_HATCH_DATA
1000
88
1011
1.0
1021
0.0
1031
0.0
1011
0.0
1021
1.0
1031
0.0
1011
0.0
1021
0.0
1031
1.0
1040
0.0
1010
0.0
1020
0.0
1030
1.0
1000
ANSI31
1070
     0
1070
     0
1071
        1
1071
        1
1071
       50
1070
     1
1040
10.46482299999999
1040
24.428744
1040
10.46482299999999
1040
27.399506
1070
     1
1040
8.174775999999999
1040
24.428744
1040
10.46482299999999
1040
24.428744
1070
     1
1040
11.41387299999999
1040
27.652621
1040
11.41387299999999
1040
23.766514
1070
     1
1040
11.11642299999999
1040
23.410844
1040
10.88782299999999
1040
23.410844
1070
     1
1040
10.88782299999999
1040
23.410844
1040
12.362923
1040
21.81019399999999
1070
     1
1040
12.362923
1040
21.81019399999999
1040
12.362923
1040
27.65548499999999
1070
     1
1040
9.378522999999999
1040
23.410844
1040
8.176313
1040
23.410844
1070
     1
1040
13.323223
1040
27.404134
1040
13.323223
1040
25.503344
1070
     1
1040
13.323223
1040
25.503344
1040
14.35365599999999
1040
25.503344
1070
     1
1040
14.455423
1040
24.508394
1040
13.323223
1040
24.508394
1070
     1
1040
13.323223
1040
24.508394
1040
13.323223
1040
21.169844
1070
     1
1040
13.323223
1040
21.169844
1040
13.31883499999999
1040
21.126412
1070
     1
1040
13.31883499999999
1040
21.126412
1040
13.311632
1040
21.08326799999999
1070
     1
1040
13.311632
1040
21.08326799999999
1040
13.301677
1040
21.040602
1070
     1
1040
13.301677
1040
21.040602
1040
13.289029
1040
20.99860499999999
1070
     1
1040
13.289029
1040
20.99860499999999
1040
13.27374999999999
1040
20.957468
1070
     1
1040
13.27374999999999
1040
20.957468
1040
13.25587699999999
1040
20.91734
1070
     1
1040
13.25587699999999
1040
20.91734
1040
13.23547999999999
1040
20.878466
1070
     1
1040
13.23547999999999
1040
20.878466
1040
13.212608
1040
20.841045
1070
     1
1040
13.212608
1040
20.841045
1040
13.187312
1040
20.805278
1070
     1
1040
13.187312
1040
20.805278
1040
13.159643
1040
20.77136499999999
1070
     1
1040
13.159643
1040
20.77136499999999
1040
13.129815
1040
20.73960499999999
1070
     1
1040
13.129815
1040
20.73960499999999
1040
13.09792
1040
20.70987399999999
1070
     1
1040
13.09792
1040
20.70987399999999
1040
13.064194
1040
20.682164
1070
     1
1040
13.064194
1040
20.682164
1040
13.028871
1040
20.656467
1070
     1
1040
13.028871
1040
20.656467
1040
12.99218699999999
1040
20.63277499999999
1070
     1
1040
12.99218699999999
1040
20.63277499999999
1040
12.91478699999999
1040
20.591129
1070
     1
1040
12.91478699999999
1040
20.591129
1040
12.874555
1040
20.573479
1070
     1
1040
12.874555
1040
20.573479
1040
12.83339999999999
1040
20.55801
1070
     1
1040
12.83339999999999
1040
20.55801
1040
12.791398
1040
20.544775
1070
     1
1040
12.791398
1040
20.544775
1040
12.749249
1040
20.53399399999999
1070
     1
1040
12.749249
1040
20.53399399999999
1040
12.706539
1040
20.52567799999999
1070
     1
1040
12.706539
1040
20.52567799999999
1040
12.663456
1040
20.52007
1070
     1
1040
12.663456
1040
20.52007
1040
12.620191
1040
20.517416
1070
     1
1040
12.620191
1040
20.517416
1040
12.57693399999999
1040
20.51796
1070
     1
1040
12.57693399999999
1040
20.51796
1040
12.533829
1040
20.52186
1070
     1
1040
12.533829
1040
20.52186
1040
12.491053
1040
20.528907
1070
     1
1040
12.491053
1040
20.528907
1040
12.448736
1040
20.53879699999999
1070
     1
1040
12.448736
1040
20.53879699999999
1040
12.407007
1040
20.551229
1070
     1
1040
12.407007
1040
20.551229
1040
12.365998
1040
20.565901
1070
     1
1040
12.365998
1040
20.565901
1040
12.286013
1040
20.60136299999999
1070
     1
1040
12.286013
1040
20.60136299999999
1040
12.228617
1040
20.63285299999999
1070
     1
1040
12.228617
1040
20.63285299999999
1040
12.173699
1040
20.66832799999999
1070
     1
1040
12.173699
1040
20.66832799999999
1040
9.378522999999999
1040
23.410844
1070
     2
1040
11.899646
1040
23.925422
1040
4.756723
1040
0.0
1040
6.283184999999999
1070
     1
1070
     2
1040
11.899651
1040
23.925417
1040
3.758726999999999
1040
1.962466
1040
3.007279999999999
1070
     1
1070
     2
1040
10.95095399999999
1040
23.85149299999999
1040
0.4706070000000001
1040
5.071608999999999
1040
6.101634999999999
1070
     1
1070
     2
1040
11.899651
1040
23.925417
1040
3.758726999999999
1040
1.44723
1040
1.700399
1070
     1
1070
     2
1040
11.899651
1040
23.925417
1040
3.758726999999999
1040
3.278925
1040
7.465549
1070
     1
1070
     2
1040
14.404539
1040
25.005869
1040
0.5000710000000001
1040
4.814318
1040
7.955911
1070
     1
1071
        0
1070
     0
1070
     1
1040
0.0
1040
0.062992
1070
     0
1070
     1
1040
0.7853979999999999
1040
-6.225169999999999
1040
-28.624349
1040
-0.141421
1040
0.141421
1070
     0
1071
        1
1040
-6.225169999999999
1040
-28.624349
1040
0.0
1002
}
  0
INSERT
  5
89
330
A
100
AcDbEntity
  8
CARTOUCHE
  6
CONTINUOUS
 62
     4
100
AcDbBlockReference
  2
*X7
 10
0.0
 20
0.0
 30
0.0
1001
ACAD
1000
HATCH
1002
{
1070
    19
1000
ANSI31
1040
0.062992
1040
0.0
1000
R14_HATCH_DATA
1000
89
1011
1.0
1021
0.0
1031
0.0
1011
0.0
1021
1.0
1031
0.0
1011
0.0
1021
0.0
1031
1.0
1040
0.0
1010
0.0
1020
0.0
1030
1.0
1000
ANSI31
1070
     0
1070
     0
1071
        1
1071
        1
1071
       16
1070
     1
1040
18.674623
1040
24.508394
1040
18.674623
1040
24.929401
1070
     1
1040
19.58025899999999
1040
25.834994
1040
21.087523
1040
25.834994
1070
     1
1040
21.087523
1040
25.834994
1040
21.087523
1040
24.931844
1070
     1
1040
21.087523
1040
24.931844
1040
20.679053
1040
24.931844
1070
     1
1040
20.461079
1040
24.768622
1040
20.412973
1040
24.508394
1070
     1
1040
20.412973
1040
24.508394
1040
21.087523
1040
24.508394
1070
     1
1040
21.087523
1040
24.508394
1040
21.087523
1040
23.410844
1070
     1
1040
21.087523
1040
23.410844
1040
20.470123
1040
23.410844
1070
     1
1040
20.470123
1040
23.410844
1040
20.470123
1040
20.63209399999999
1070
     1
1040
20.470123
1040
20.63209399999999
1040
18.674623
1040
20.63209399999999
1070
     1
1040
18.674623
1040
20.63209399999999
1040
18.674623
1040
23.410844
1070
     1
1040
18.674623
1040
23.410844
1040
18.137323
1040
23.410844
1070
     1
1040
18.137323
1040
23.410844
1040
18.137323
1040
24.508394
1070
     1
1040
18.137323
1040
24.508394
1040
18.674623
1040
24.508394
1070
     2
1040
19.58025899999999
1040
24.929401
1040
0.905639
1040
1.570795999999999
1040
3.141592999999999
1070
     1
1070
     2
1040
20.705988
1040
24.668716
1040
0.264503
1040
1.672804999999999
1040
2.754265999999999
1070
     1
1071
        0
1070
     0
1070
     1
1040
0.0
1040
0.062992
1070
     0
1070
     1
1040
0.7853979999999999
1040
-6.225169999999999
1040
-28.624349
1040
-0.141421
1040
0.141421
1070
     0
1071
        1
1040
-6.225169999999999
1040
-28.624349
1040
0.0
1002
}
  0
INSERT
  5
8A
330
A
100
AcDbEntity
  8
CARTOUCHE
  6
CONTINUOUS
 62
     4
100
AcDbBlockReference
  2
*X8
 10
0.0
 20
0.0
 30
0.0
1001
ACAD
1000
HATCH
1002
{
1070
    19
1000
ANSI31
1040
0.062992
1040
0.0
1000
R14_HATCH_DATA
1000
8A
1011
1.0
1021
0.0
1031
0.0
1011
0.0
1021
1.0
1031
0.0
1011
0.0
1021
0.0
1031
1.0
1040
0.0
1010
0.0
1020
0.0
1030
1.0
1000
ANSI31
1070
     0
1070
     0
1071
        1
1071
        1
1071
        4
1070
     1
1040
21.807973
1040
25.834994
1040
21.807973
1040
24.943094
1070
     1
1040
21.807973
1040
24.943094
1040
23.625973
1040
24.943094
1070
     1
1040
23.625973
1040
24.943094
1040
23.625973
1040
25.834994
1070
     1
1040
23.625973
1040
25.834994
1040
21.807973
1040
25.834994
1071
        0
1070
     0
1070
     1
1040
0.0
1040
0.062992
1070
     0
1070
     1
1040
0.7853979999999999
1040
-6.225169999999999
1040
-28.624349
1040
-0.141421
1040
0.141421
1070
     0
1071
        1
1040
-6.225169999999999
1040
-28.624349
1040
0.0
1002
}
  0
INSERT
  5
8B
330
A
100
AcDbEntity
  8
CARTOUCHE
  6
CONTINUOUS
 62
     4
100
AcDbBlockReference
  2
*X9
 10
0.0
 20
0.0
 30
0.0
1001
ACAD
1000
HATCH
1002
{
1070
    19
1000
ANSI31
1040
0.062992
1040
0.0
1000
R14_HATCH_DATA
1000
8B
1011
1.0
1021
0.0
1031
0.0
1011
0.0
1021
1.0
1031
0.0
1011
0.0
1021
0.0
1031
1.0
1040
0.0
1010
0.0
1020
0.0
1030
1.0
1000
ANSI31
1070
     0
1070
     0
1071
        1
1071
        1
1071
        4
1070
     1
1040
21.807973
1040
24.508394
1040
21.807973
1040
20.63209399999999
1070
     1
1040
21.807973
1040
20.63209399999999
1040
23.625973
1040
20.63209399999999
1070
     1
1040
23.625973
1040
20.63209399999999
1040
23.625973
1040
24.508394
1070
     1
1040
23.625973
1040
24.508394
1040
21.807973
1040
24.508394
1071
        0
1070
     0
1070
     1
1040
0.0
1040
0.062992
1070
     0
1070
     1
1040
0.7853979999999999
1040
-6.225169999999999
1040
-28.624349
1040
-0.141421
1040
0.141421
1070
     0
1071
        1
1040
-6.225169999999999
1040
-28.624349
1040
0.0
1002
}
  0
INSERT
  5
8C
330
A
100
AcDbEntity
  8
CARTOUCHE
  6
CONTINUOUS
 62
     4
100
AcDbBlockReference
  2
*X10
 10
0.0
 20
0.0
 30
0.0
1001
ACAD
1000
HATCH
1002
{
1070
    19
1000
ANSI31
1040
0.062992
1040
0.0
1000
R14_HATCH_DATA
1000
8C
1011
1.0
1021
0.0
1031
0.0
1011
0.0
1021
1.0
1031
0.0
1011
0.0
1021
0.0
1031
1.0
1040
0.0
1010
0.0
1020
0.0
1030
1.0
1000
ANSI31
1070
     0
1070
     0
1071
        1
1071
        1
1071
       12
1070
     1
1040
26.28997299999999
1040
24.508394
1040
26.28997299999999
1040
24.074144
1070
     1
1040
29.89222299999999
1040
23.324553
1040
29.89222299999999
1040
20.63209399999999
1070
     1
1040
29.89222299999999
1040
20.63209399999999
1040
28.108423
1040
20.63209399999999
1070
     1
1040
28.108423
1040
20.63209399999999
1040
28.108423
1040
22.47903399999999
1070
     1
1040
26.28997299999999
1040
22.43349899999999
1040
26.28997299999999
1040
20.63209399999999
1070
     1
1040
26.28997299999999
1040
20.63209399999999
1040
24.494923
1040
20.63209399999999
1070
     1
1040
24.494923
1040
20.63209399999999
1040
24.494923
1040
24.508394
1070
     1
1040
24.494923
1040
24.508394
1040
26.28997299999999
1040
24.508394
1070
     2
1040
28.067403
1040
21.045261
1040
3.511892
1040
1.25441
1040
2.101472999999999
1070
     1
1070
     2
1040
28.675028
1040
23.264873
1040
1.218658
1040
0.048991
1040
1.161443
1070
     1
1070
     2
1040
27.457324
1040
22.47903399999999
1040
0.6511239999999999
1040
0.0
1040
1.695599
1070
     1
1070
     2
1040
27.44381
1040
21.82007899999999
1040
1.306761
1040
1.622502
1040
2.652958
1070
     1
1071
        0
1070
     0
1070
     1
1040
0.0
1040
0.062992
1070
     0
1070
     1
1040
0.7853979999999999
1040
-6.225169999999999
1040
-28.624349
1040
-0.141421
1040
0.141421
1070
     0
1071
        1
1040
-6.225169999999999
1040
-28.624349
1040
0.0
1002
}
  0
INSERT
  5
8D
330
A
100
AcDbEntity
  8
CARTOUCHE
  6
CONTINUOUS
 62
     4
100
AcDbBlockReference
  2
*X11
 10
0.0
 20
0.0
 30
0.0
1001
ACAD
1000
HATCH
1002
{
1070
    19
1000
ANSI31
1040
0.062992
1040
0.0
1000
R14_HATCH_DATA
1000
8D
1011
1.0
1021
0.0
1031
0.0
1011
0.0
1021
1.0
1031
0.0
1011
0.0
1021
0.0
1031
1.0
1040
0.0
1010
0.0
1020
0.0
1030
1.0
1000
ANSI31
1070
     0
1070
     0
1071
        1
1071
        1
1071
      154
1070
     1
1040
34.19152299999999
1040
24.319904
1040
34.136639
1040
24.365465
1070
     1
1040
34.136639
1040
24.365465
1040
34.093353
1040
24.396952
1070
     1
1040
34.093353
1040
24.396952
1040
34.048146
1040
24.425518
1070
     1
1040
34.048146
1040
24.425518
1040
33.985315
1040
24.45824299999999
1070
     1
1040
33.985315
1040
24.45824299999999
1040
33.936415
1040
24.47918299999999
1070
     1
1040
33.936415
1040
24.47918299999999
1040
33.886414
1040
24.497349
1070
     1
1040
33.886414
1040
24.497349
1040
33.800369
1040
24.52267
1070
     1
1040
33.800369
1040
24.52267
1040
33.713056
1040
24.543137
1070
     1
1040
33.713056
1040
24.543137
1040
33.53598499999999
1040
24.577164
1070
     1
1040
33.53598499999999
1040
24.577164
1040
33.183861
1040
24.631643
1070
     1
1040
33.183861
1040
24.631643
1040
32.829714
1040
24.65361099999999
1070
     1
1040
32.829714
1040
24.65361099999999
1040
32.473075
1040
24.642759
1070
     1
1040
32.473075
1040
24.642759
1040
32.295535
1040
24.627567
1070
     1
1040
32.295535
1040
24.627567
1040
32.119422
1040
24.601922
1070
     1
1040
32.119422
1040
24.601922
1040
31.980393
1040
24.570874
1070
     1
1040
31.980393
1040
24.570874
1040
31.77626899999999
1040
24.506919
1070
     1
1040
31.77626899999999
1040
24.506919
1040
31.643857
1040
24.453442
1070
     1
1040
31.643857
1040
24.453442
1040
31.54719899999999
1040
24.407478
1070
     1
1040
31.54719899999999
1040
24.407478
1040
31.453318
1040
24.3562
1070
     1
1040
31.453318
1040
24.3562
1040
31.333276
1040
24.279541
1070
     1
1040
31.333276
1040
24.279541
1040
31.164251
1040
24.148688
1070
     1
1040
31.164251
1040
24.148688
1040
31.058938
1040
24.05235799999999
1070
     1
1040
31.058938
1040
24.05235799999999
1040
30.912683
1040
23.896114
1070
     1
1040
30.912683
1040
23.896114
1040
30.823445
1040
23.784931
1070
     1
1040
30.823445
1040
23.784931
1040
30.703793
1040
23.607819
1070
     1
1040
30.703793
1040
23.607819
1040
30.63481599999999
1040
23.48301999999999
1070
     1
1040
30.63481599999999
1040
23.48301999999999
1040
30.589096
1040
23.38631
1070
     1
1040
30.589096
1040
23.38631
1040
30.54866099999999
1040
23.287292
1070
     1
1040
30.54866099999999
1040
23.287292
1040
30.503077
1040
23.152132
1070
     1
1040
30.503077
1040
23.152132
1040
30.45247299999999
1040
22.94419899999999
1070
     1
1040
30.45247299999999
1040
22.94419899999999
1040
30.430632
1040
22.80314999999999
1070
     1
1040
30.430632
1040
22.80314999999999
1040
30.42104699999999
1040
22.696588
1070
     1
1040
30.42104699999999
1040
22.696588
1040
30.41782
1040
22.58973
1070
     1
1040
30.41782
1040
22.58973
1040
30.423783
1040
22.44735499999999
1070
     1
1040
30.423783
1040
22.44735499999999
1040
30.45204699999999
1040
22.235266
1070
     1
1040
30.45204699999999
1040
22.235266
1040
30.481823
1040
22.09568299999999
1070
     1
1040
30.481823
1040
22.09568299999999
1040
30.54294099999999
1040
21.89073699999999
1070
     1
1040
30.54294099999999
1040
21.89073699999999
1040
30.595245
1040
21.758144
1070
     1
1040
30.595245
1040
21.758144
1040
30.640663
1040
21.661326
1070
     1
1040
30.640663
1040
21.661326
1040
30.691396
1040
21.567163
1070
     1
1040
30.691396
1040
21.567163
1040
30.76734099999999
1040
21.44630199999999
1070
     1
1040
30.76734099999999
1040
21.44630199999999
1040
30.830371
1040
21.359778
1070
     1
1040
30.830371
1040
21.359778
1040
30.89849
1040
21.27724999999999
1070
     1
1040
30.89849
1040
21.27724999999999
1040
30.99676699999999
1040
21.17408
1070
     1
1040
30.99676699999999
1040
21.17408
1040
31.158025
1040
21.033767
1070
     1
1040
31.158025
1040
21.033767
1040
31.273232
1040
20.94957699999999
1070
     1
1040
31.273232
1040
20.94957699999999
1040
31.455483
1040
20.837379
1070
     1
1040
31.455483
1040
20.837379
1040
31.58228499999999
1040
20.77219599999999
1070
     1
1040
31.58228499999999
1040
20.77219599999999
1040
31.680038
1040
20.728943
1070
     1
1040
31.680038
1040
20.728943
1040
31.77997
1040
20.691125
1070
     1
1040
31.77997
1040
20.691125
1040
31.91640599999999
1040
20.64973699999999
1070
     1
1040
31.91640599999999
1040
20.64973699999999
1040
32.12581399999999
1040
20.606082
1070
     1
1040
32.12581399999999
1040
20.606082
1040
32.302677
1040
20.584734
1070
     1
1040
32.302677
1040
20.584734
1040
32.48050399999999
1040
20.573741
1070
     1
1040
32.48050399999999
1040
20.573741
1040
32.83642
1040
20.570894
1070
     1
1040
32.83642
1040
20.570894
1040
33.19287
1040
20.58610199999999
1070
     1
1040
33.19287
1040
20.58610199999999
1040
33.33459699999999
1040
20.6
1070
     1
1040
33.33459699999999
1040
20.6
1040
33.545271
1040
20.63588399999999
1070
     1
1040
33.545271
1040
20.63588399999999
1040
33.682853
1040
20.67301599999999
1070
     1
1040
33.682853
1040
20.67301599999999
1040
33.817433
1040
20.721154
1070
     1
1040
33.817433
1040
20.721154
1040
33.947848
1040
20.779822
1070
     1
1040
33.947848
1040
20.779822
1040
34.072933
1040
20.848544
1070
     1
1040
34.072933
1040
20.848544
1040
34.19152299999999
1040
20.926844
1070
     1
1040
34.19152299999999
1040
20.926844
1040
34.19152299999999
1040
20.620844
1070
     1
1040
34.19152299999999
1040
20.620844
1040
35.986573
1040
20.620844
1070
     1
1040
35.986573
1040
20.620844
1040
35.986573
1040
25.823744
1070
     1
1040
35.986573
1040
25.823744
1040
34.19152299999999
1040
25.823744
1070
     1
1040
34.19152299999999
1040
25.823744
1040
34.19152299999999
1040
24.319904
1070
     1
1040
34.19152299999999
1040
22.759244
1040
34.185224
1040
22.797429
1070
     1
1040
34.185224
1040
22.797429
1040
34.176704
1040
22.835258
1070
     1
1040
34.176704
1040
22.835258
1040
34.165972
1040
22.87256499999999
1070
     1
1040
34.165972
1040
22.87256499999999
1040
34.15304099999999
1040
22.909184
1070
     1
1040
34.15304099999999
1040
22.909184
1040
34.137919
1040
22.94494999999999
1070
     1
1040
34.137919
1040
22.94494999999999
1040
34.12062199999999
1040
22.97972399999999
1070
     1
1040
34.12062199999999
1040
22.97972399999999
1040
34.10124099999999
1040
23.01337
1070
     1
1040
34.10124099999999
1040
23.01337
1040
34.079871
1040
23.045781
1070
     1
1040
34.079871
1040
23.045781
1040
34.05661
1040
23.076848
1070
     1
1040
34.05661
1040
23.076848
1040
34.031554
1040
23.106464
1070
     1
1040
34.031554
1040
23.106464
1040
34.004808
1040
23.13453999999999
1070
     1
1040
34.004808
1040
23.13453999999999
1040
33.97651299999999
1040
23.16105899999999
1070
     1
1040
33.97651299999999
1040
23.16105899999999
1040
33.931497
1040
23.19792
1070
     1
1040
33.931497
1040
23.19792
1040
33.883839
1040
23.231288
1070
     1
1040
33.883839
1040
23.231288
1040
33.817408
1040
23.270254
1070
     1
1040
33.817408
1040
23.270254
1040
33.7126
1040
23.31870499999999
1070
     1
1040
33.7126
1040
23.31870499999999
1040
33.52912599999999
1040
23.38024
1070
     1
1040
33.52912599999999
1040
23.38024
1040
33.341295
1040
23.426807
1070
     1
1040
33.341295
1040
23.426807
1040
33.265367
1040
23.43872
1070
     1
1040
33.265367
1040
23.43872
1040
33.20799199999999
1040
23.44418399999999
1070
     1
1040
33.20799199999999
1040
23.44418399999999
1040
33.150433
1040
23.446185
1070
     1
1040
33.150433
1040
23.446185
1040
33.073206
1040
23.442941
1070
     1
1040
33.073206
1040
23.442941
1040
33.01556
1040
23.43626899999999
1070
     1
1040
33.01556
1040
23.43626899999999
1040
32.958383
1040
23.426252
1070
     1
1040
32.958383
1040
23.426252
1040
32.882791
1040
23.40794999999999
1070
     1
1040
32.882791
1040
23.40794999999999
1040
32.827093
1040
23.390689
1070
     1
1040
32.827093
1040
23.390689
1040
32.772401
1040
23.37047899999999
1070
     1
1040
32.772401
1040
23.37047899999999
1040
32.70162299999999
1040
23.339164
1070
     1
1040
32.70162299999999
1040
23.339164
1040
32.650176
1040
23.312245
1070
     1
1040
32.650176
1040
23.312245
1040
32.600378
1040
23.2823
1070
     1
1040
32.600378
1040
23.2823
1040
32.53744099999999
1040
23.23798
1070
     1
1040
32.53744099999999
1040
23.23798
1040
32.478372
1040
23.188413
1070
     1
1040
32.478372
1040
23.188413
1040
32.423769
1040
23.133776
1070
     1
1040
32.423769
1040
23.133776
1040
32.37422999999999
1040
23.07424699999999
1070
     1
1040
32.37422999999999
1040
23.07424699999999
1040
32.330353
1040
23.010003
1070
     1
1040
32.330353
1040
23.010003
1040
32.29281799999999
1040
22.941394
1070
     1
1040
32.29281799999999
1040
22.941394
1040
32.26252099999999
1040
22.869246
1070
     1
1040
32.26252099999999
1040
22.869246
1040
32.250396
1040
22.832155
1070
     1
1040
32.250396
1040
22.832155
1040
32.24044899999999
1040
22.794552
1070
     1
1040
32.24044899999999
1040
22.794552
1040
32.23280499999999
1040
22.75656099999999
1070
     1
1040
32.23280499999999
1040
22.75656099999999
1040
32.22758599999999
1040
22.71830599999999
1070
     1
1040
32.22758599999999
1040
22.71830599999999
1040
32.22491699999999
1040
22.67991199999999
1070
     1
1040
32.22491699999999
1040
22.67991199999999
1040
32.224919
1040
22.641503
1070
     1
1040
32.224919
1040
22.641503
1040
32.227693
1040
22.60294
1070
     1
1040
32.227693
1040
22.60294
1040
32.233111
1040
22.56461799999999
1070
     1
1040
32.233111
1040
22.56461799999999
1040
32.24098099999999
1040
22.526667
1070
     1
1040
32.24098099999999
1040
22.526667
1040
32.251114
1040
22.48921699999999
1070
     1
1040
32.251114
1040
22.48921699999999
1040
32.263318
1040
22.4524
1070
     1
1040
32.263318
1040
22.4524
1040
32.29364499999999
1040
22.380425
1070
     1
1040
32.29364499999999
1040
22.380425
1040
32.321048
1040
22.328706
1070
     1
1040
32.321048
1040
22.328706
1040
32.35215399999999
1040
22.2791
1070
     1
1040
32.35215399999999
1040
22.2791
1040
32.398586
1040
22.217113
1070
     1
1040
32.398586
1040
22.217113
1040
32.437235
1040
22.173772
1070
     1
1040
32.437235
1040
22.173772
1040
32.47906599999999
1040
22.133554
1070
     1
1040
32.47906599999999
1040
22.133554
1040
32.539186
1040
22.085487
1070
     1
1040
32.539186
1040
22.085487
1040
32.587212
1040
22.05335499999999
1070
     1
1040
32.587212
1040
22.05335499999999
1040
32.637257
1040
22.024481
1070
     1
1040
32.637257
1040
22.024481
1040
32.707048
1040
21.990519
1070
     1
1040
32.707048
1040
21.990519
1040
32.81564799999999
1040
21.948581
1070
     1
1040
32.81564799999999
1040
21.948581
1040
32.889663
1040
21.925699
1070
     1
1040
32.889663
1040
21.925699
1040
33.002738
1040
21.899168
1070
     1
1040
33.002738
1040
21.899168
1040
33.078914
1040
21.887245
1070
     1
1040
33.078914
1040
21.887245
1040
33.19419899999999
1040
21.878646
1070
     1
1040
33.19419899999999
1040
21.878646
1040
33.27146299999999
1040
21.879509
1070
     1
1040
33.27146299999999
1040
21.879509
1040
33.386902
1040
21.89089999999999
1070
     1
1040
33.386902
1040
21.89089999999999
1040
33.46279
1040
21.905127
1070
     1
1040
33.46279
1040
21.905127
1040
33.537631
1040
21.924554
1070
     1
1040
33.537631
1040
21.924554
1040
33.611002
1040
21.94904699999999
1070
     1
1040
33.611002
1040
21.94904699999999
1040
33.68247699999999
1040
21.978473
1070
     1
1040
33.68247699999999
1040
21.978473
1040
33.751634
1040
22.01269799999999
1070
     1
1040
33.751634
1040
22.01269799999999
1040
33.81849899999999
1040
22.05184599999999
1070
     1
1040
33.81849899999999
1040
22.05184599999999
1040
33.91321
1040
22.119126
1070
     1
1040
33.91321
1040
22.119126
1040
33.972146
1040
22.16959899999999
1070
     1
1040
33.972146
1040
22.16959899999999
1040
34.013325
1040
22.210664
1070
     1
1040
34.013325
1040
22.210664
1040
34.05119699999999
1040
22.254741
1070
     1
1040
34.05119699999999
1040
22.254741
1040
34.07423699999999
1040
22.285782
1070
     1
1040
34.07423699999999
1040
22.285782
1040
34.09545
1040
22.318141
1070
     1
1040
34.09545
1040
22.318141
1040
34.114752
1040
22.351701
1070
     1
1040
34.114752
1040
22.351701
1040
34.13205999999999
1040
22.386344
1070
     1
1040
34.13205999999999
1040
22.386344
1040
34.147289
1040
22.42195399999999
1070
     1
1040
34.147289
1040
22.42195399999999
1040
34.16041099999999
1040
22.458525
1070
     1
1040
34.16041099999999
1040
22.458525
1040
34.171377
1040
22.49579699999999
1070
     1
1040
34.171377
1040
22.49579699999999
1040
34.180205
1040
22.533619
1070
     1
1040
34.180205
1040
22.533619
1040
34.186914
1040
22.571835
1070
     1
1040
34.186914
1040
22.571835
1040
34.19152299999999
1040
22.61029399999999
1070
     1
1040
34.19152299999999
1040
22.61029399999999
1040
34.19152299999999
1040
22.759244
1071
        0
1070
     0
1070
     1
1040
0.0
1040
0.062992
1070
     0
1070
     1
1040
0.7853979999999999
1040
-6.225169999999999
1040
-28.624349
1040
-0.141421
1040
0.141421
1070
     0
1071
        1
1040
-6.225169999999999
1040
-28.624349
1040
0.0
1002
}
  0
INSERT
  5
8E
330
A
100
AcDbEntity
  8
CARTOUCHE
  6
CONTINUOUS
 62
     4
100
AcDbBlockReference
  2
*X12
 10
0.0
 20
0.0
 30
0.0
1001
ACAD
1000
HATCH
1002
{
1070
    19
1000
ANSI31
1040
0.062992
1040
0.0
1000
R14_HATCH_DATA
1000
8E
1011
1.0
1021
0.0
1031
0.0
1011
0.0
1021
1.0
1031
0.0
1011
0.0
1021
0.0
1031
1.0
1040
0.0
1010
0.0
1020
0.0
1030
1.0
1000
ANSI31
1070
     0
1070
     0
1071
        1
1071
        1
1071
      165
1070
     1
1040
39.05107299999999
1040
22.244444
1040
39.15412299999999
1040
22.244444
1070
     1
1040
39.15412299999999
1040
22.244444
1040
42.20692299999999
1040
22.25614399999999
1070
     1
1040
42.20692299999999
1040
22.25614399999999
1040
42.232378
1040
22.36584699999999
1070
     1
1040
42.232378
1040
22.36584699999999
1040
42.245048
1040
22.449462
1070
     1
1040
42.245048
1040
22.449462
1040
42.251874
1040
22.53370299999999
1070
     1
1040
42.251874
1040
22.53370299999999
1040
42.25173499999999
1040
22.646969
1070
     1
1040
42.25173499999999
1040
22.646969
1040
42.23470999999999
1040
22.81609599999999
1070
     1
1040
42.23470999999999
1040
22.81609599999999
1040
42.208465
1040
22.956213
1070
     1
1040
42.208465
1040
22.956213
1040
42.17357899999999
1040
23.09436799999999
1070
     1
1040
42.17357899999999
1040
23.09436799999999
1040
42.131795
1040
23.229146
1070
     1
1040
42.131795
1040
23.229146
1040
42.08234199999999
1040
23.36142099999999
1070
     1
1040
42.08234199999999
1040
23.36142099999999
1040
42.03686199999999
1040
23.464716
1070
     1
1040
42.03686199999999
1040
23.464716
1040
41.98586099999999
1040
23.56553499999999
1070
     1
1040
41.98586099999999
1040
23.56553499999999
1040
41.92928
1040
23.663323
1070
     1
1040
41.92928
1040
23.663323
1040
41.867061
1040
23.757527
1070
     1
1040
41.867061
1040
23.757527
1040
41.799145
1040
23.847595
1070
     1
1040
41.799145
1040
23.847595
1040
41.72552399999999
1040
23.93313
1070
     1
1040
41.72552399999999
1040
23.93313
1040
41.646719
1040
24.01400399999999
1070
     1
1040
41.646719
1040
24.01400399999999
1040
41.563309
1040
24.090255
1070
     1
1040
41.563309
1040
24.090255
1040
41.384996
1040
24.229026
1070
     1
1040
41.384996
1040
24.229026
1040
41.266986
1040
24.306605
1070
     1
1040
41.266986
1040
24.306605
1040
41.14444999999999
1040
24.376442
1070
     1
1040
41.14444999999999
1040
24.376442
1040
41.017719
1040
24.437986
1070
     1
1040
41.017719
1040
24.437986
1040
40.887396
1040
24.49164899999999
1070
     1
1040
40.887396
1040
24.49164899999999
1040
40.618872
1040
24.578734
1070
     1
1040
40.618872
1040
24.578734
1040
40.344652
1040
24.645649
1070
     1
1040
40.344652
1040
24.645649
1040
40.06700499999999
1040
24.69362999999999
1070
     1
1040
40.06700499999999
1040
24.69362999999999
1040
39.786778
1040
24.723515
1070
     1
1040
39.786778
1040
24.723515
1040
39.22285499999999
1040
24.73587399999999
1070
     1
1040
39.22285499999999
1040
24.73587399999999
1040
38.660586
1040
24.695795
1070
     1
1040
38.660586
1040
24.695795
1040
38.3823
1040
24.651139
1070
     1
1040
38.3823
1040
24.651139
1040
38.107283
1040
24.5883
1070
     1
1040
38.107283
1040
24.5883
1040
37.890593
1040
24.52408
1070
     1
1040
37.890593
1040
24.52408
1040
37.731586
1040
24.46569699999999
1070
     1
1040
37.731586
1040
24.46569699999999
1040
37.57690999999999
1040
24.396625
1070
     1
1040
37.57690999999999
1040
24.396625
1040
37.477006
1040
24.343979
1070
     1
1040
37.477006
1040
24.343979
1040
37.38006699999999
1040
24.285863
1070
     1
1040
37.38006699999999
1040
24.285863
1040
37.286613
1040
24.222306
1070
     1
1040
37.286613
1040
24.222306
1040
37.197165
1040
24.15334
1070
     1
1040
37.197165
1040
24.15334
1040
37.112243
1040
24.078995
1070
     1
1040
37.112243
1040
24.078995
1040
37.03231999999999
1040
23.999414
1070
     1
1040
37.03231999999999
1040
23.999414
1040
36.957469
1040
23.91497399999999
1070
     1
1040
36.957469
1040
23.91497399999999
1040
36.887723
1040
23.826164
1070
     1
1040
36.887723
1040
23.826164
1040
36.823113
1040
23.733469
1070
     1
1040
36.823113
1040
23.733469
1040
36.763669
1040
23.637375
1070
     1
1040
36.763669
1040
23.637375
1040
36.660491
1040
23.436489
1070
     1
1040
36.660491
1040
23.436489
1040
36.61706099999999
1040
23.332299
1070
     1
1040
36.61706099999999
1040
23.332299
1040
36.57925699999999
1040
23.225943
1070
     1
1040
36.57925699999999
1040
23.225943
1040
36.547222
1040
23.11767399999999
1070
     1
1040
36.547222
1040
23.11767399999999
1040
36.521104
1040
23.00778999999999
1070
     1
1040
36.521104
1040
23.00778999999999
1040
36.501051
1040
22.896613
1070
     1
1040
36.501051
1040
22.896613
1040
36.487223
1040
22.784512
1070
     1
1040
36.487223
1040
22.784512
1040
36.479778
1040
22.67185599999999
1070
     1
1040
36.479778
1040
22.67185599999999
1040
36.478876
1040
22.559014
1070
     1
1040
36.478876
1040
22.559014
1040
36.48475799999999
1040
22.446072
1070
     1
1040
36.48475799999999
1040
22.446072
1040
36.507303
1040
22.27824299999999
1070
     1
1040
36.507303
1040
22.27824299999999
1040
36.531842
1040
22.168363
1070
     1
1040
36.531842
1040
22.168363
1040
36.580661
1040
22.006354
1070
     1
1040
36.580661
1040
22.006354
1040
36.663176
1040
21.796051
1070
     1
1040
36.663176
1040
21.796051
1040
36.738102
1040
21.64424299999999
1070
     1
1040
36.738102
1040
21.64424299999999
1040
36.824876
1040
21.499285
1070
     1
1040
36.824876
1040
21.499285
1040
36.906565
1040
21.38422
1070
     1
1040
36.906565
1040
21.38422
1040
36.995075
1040
21.274114
1070
     1
1040
36.995075
1040
21.274114
1040
37.069976
1040
21.189232
1070
     1
1040
37.069976
1040
21.189232
1040
37.19090599999999
1040
21.070408
1070
     1
1040
37.19090599999999
1040
21.070408
1040
37.27814
1040
20.999373
1070
     1
1040
37.27814
1040
20.999373
1040
37.418207
1040
20.90511499999999
1070
     1
1040
37.418207
1040
20.90511499999999
1040
37.541992
1040
20.836757
1070
     1
1040
37.541992
1040
20.836757
1040
37.669631
1040
20.775673
1070
     1
1040
37.669631
1040
20.775673
1040
37.878008
1040
20.688457
1070
     1
1040
37.878008
1040
20.688457
1040
38.199606
1040
20.58288099999999
1070
     1
1040
38.199606
1040
20.58288099999999
1040
38.419015
1040
20.531338
1070
     1
1040
38.419015
1040
20.531338
1040
38.753153
1040
20.477838
1070
     1
1040
38.753153
1040
20.477838
1040
39.03387999999999
1040
20.450243
1070
     1
1040
39.03387999999999
1040
20.450243
1040
39.315482
1040
20.43816199999999
1070
     1
1040
39.315482
1040
20.43816199999999
1040
39.878324
1040
20.461635
1070
     1
1040
39.878324
1040
20.461635
1040
40.15919199999999
1040
20.49446799999999
1070
     1
1040
40.15919199999999
1040
20.49446799999999
1040
40.437804
1040
20.542235
1070
     1
1040
40.437804
1040
20.542235
1040
40.71211799999999
1040
20.608344
1070
     1
1040
40.71211799999999
1040
20.608344
1040
40.97822199999999
1040
20.69993399999999
1070
     1
1040
40.97822199999999
1040
20.69993399999999
1040
41.235564
1040
20.81532399999999
1070
     1
1040
41.235564
1040
20.81532399999999
1040
41.361299
1040
20.87918599999999
1070
     1
1040
41.361299
1040
20.87918599999999
1040
41.48297999999999
1040
20.950245
1070
     1
1040
41.48297999999999
1040
20.950245
1040
41.57561799999999
1040
21.014782
1070
     1
1040
41.57561799999999
1040
21.014782
1040
41.641621
1040
21.067895
1070
     1
1040
41.641621
1040
21.067895
1040
41.704176
1040
21.124947
1070
     1
1040
41.704176
1040
21.124947
1040
41.78170999999999
1040
21.20681499999999
1070
     1
1040
41.78170999999999
1040
21.20681499999999
1040
41.886125
1040
21.340089
1070
     1
1040
41.886125
1040
21.340089
1040
41.948068
1040
21.43459299999999
1070
     1
1040
41.948068
1040
21.43459299999999
1040
41.989546
1040
21.50838599999999
1070
     1
1040
41.989546
1040
21.50838599999999
1040
42.02581
1040
21.58482799999999
1070
     1
1040
42.02581
1040
21.58482799999999
1040
42.064953
1040
21.690806
1070
     1
1040
42.064953
1040
21.690806
1040
42.08734999999999
1040
21.77259999999999
1070
     1
1040
42.08734999999999
1040
21.77259999999999
1040
42.10387299999999
1040
21.855644
1070
     1
1040
42.10387299999999
1040
21.855644
1040
40.34302299999999
1040
21.855644
1070
     1
1040
40.34302299999999
1040
21.855644
1040
40.23475999999999
1040
21.775139
1070
     1
1040
40.23475999999999
1040
21.775139
1040
40.14934199999999
1040
21.72065499999999
1070
     1
1040
40.14934199999999
1040
21.72065499999999
1040
40.060776
1040
21.671433
1070
     1
1040
40.060776
1040
21.671433
1040
39.98475799999999
1040
21.634773
1070
     1
1040
39.98475799999999
1040
21.634773
1040
39.906576
1040
21.603307
1070
     1
1040
39.906576
1040
21.603307
1040
39.842277
1040
21.58263499999999
1070
     1
1040
39.842277
1040
21.58263499999999
1040
39.74365099999999
1040
21.559088
1070
     1
1040
39.74365099999999
1040
21.559088
1040
39.609337
1040
21.540536
1070
     1
1040
39.609337
1040
21.540536
1040
39.507639
1040
21.53565599999999
1070
     1
1040
39.507639
1040
21.53565599999999
1040
39.405809
1040
21.53798099999999
1070
     1
1040
39.405809
1040
21.53798099999999
1040
39.271392
1040
21.551496
1070
     1
1040
39.271392
1040
21.551496
1040
39.17168099999999
1040
21.569188
1070
     1
1040
39.17168099999999
1040
21.569188
1040
39.073329
1040
21.593186
1070
     1
1040
39.073329
1040
21.593186
1040
38.944884
1040
21.635037
1070
     1
1040
38.944884
1040
21.635037
1040
38.851395
1040
21.674301
1070
     1
1040
38.851395
1040
21.674301
1040
38.760981
1040
21.72084599999999
1070
     1
1040
38.760981
1040
21.72084599999999
1040
38.70284
1040
21.75613999999999
1070
     1
1040
38.70284
1040
21.75613999999999
1040
38.647077
1040
21.795104
1070
     1
1040
38.647077
1040
21.795104
1040
38.59445
1040
21.837967
1070
     1
1040
38.59445
1040
21.837967
1040
38.54571899999999
1040
21.88495599999999
1070
     1
1040
38.54571899999999
1040
21.88495599999999
1040
38.501642
1040
21.9363
1070
     1
1040
38.501642
1040
21.9363
1040
38.46287699999999
1040
21.99205
1070
     1
1040
38.46287699999999
1040
21.99205
1040
38.429669
1040
22.051562
1070
     1
1040
38.429669
1040
22.051562
1040
38.402161
1040
22.11401299999999
1070
     1
1040
38.402161
1040
22.11401299999999
1040
38.38049799999999
1040
22.178581
1070
     1
1040
38.38049799999999
1040
22.178581
1040
38.364823
1040
22.244444
1070
     1
1040
38.364823
1040
22.244444
1040
39.05107299999999
1040
22.244444
1070
     1
1040
38.364823
1040
23.079194
1040
39.15412299999999
1040
23.079194
1070
     1
1040
39.15412299999999
1040
23.079194
1040
40.34302299999999
1040
23.079194
1070
     1
1040
40.34302299999999
1040
23.079194
1040
40.339099
1040
23.116416
1070
     1
1040
40.339099
1040
23.116416
1040
40.333002
1040
23.153431
1070
     1
1040
40.333002
1040
23.153431
1040
40.324692
1040
23.19004899999999
1070
     1
1040
40.324692
1040
23.19004899999999
1040
40.314132
1040
23.226078
1070
     1
1040
40.314132
1040
23.226078
1040
40.301285
1040
23.261329
1070
     1
1040
40.301285
1040
23.261329
1040
40.286156
1040
23.295606
1070
     1
1040
40.286156
1040
23.295606
1040
40.268864
1040
23.32884599999999
1070
     1
1040
40.268864
1040
23.32884599999999
1040
40.24956699999999
1040
23.36098199999999
1070
     1
1040
40.24956699999999
1040
23.36098199999999
1040
40.228425
1040
23.39194399999999
1070
     1
1040
40.228425
1040
23.39194399999999
1040
40.205595
1040
23.42166399999999
1070
     1
1040
40.205595
1040
23.42166399999999
1040
40.155158
1040
23.47753399999999
1070
     1
1040
40.155158
1040
23.47753399999999
1040
40.113888
1040
23.516059
1070
     1
1040
40.113888
1040
23.516059
1040
40.070149
1040
23.551768
1070
     1
1040
40.070149
1040
23.551768
1040
40.008897
1040
23.59493599999999
1070
     1
1040
40.008897
1040
23.59493599999999
1040
39.960894
1040
23.624144
1070
     1
1040
39.960894
1040
23.624144
1040
39.911351
1040
23.65064299999999
1070
     1
1040
39.911351
1040
23.65064299999999
1040
39.84321299999999
1040
23.68180199999999
1070
     1
1040
39.84321299999999
1040
23.68180199999999
1040
39.737463
1040
23.719811
1070
     1
1040
39.737463
1040
23.719811
1040
39.665034
1040
23.739546
1070
     1
1040
39.665034
1040
23.739546
1040
39.554475
1040
23.760807
1070
     1
1040
39.554475
1040
23.760807
1040
39.479582
1040
23.769534
1070
     1
1040
39.479582
1040
23.769534
1040
39.366678
1040
23.77477
1070
     1
1040
39.366678
1040
23.77477
1040
39.291229
1040
23.773226
1070
     1
1040
39.291229
1040
23.773226
1040
39.178244
1040
23.762802
1070
     1
1040
39.178244
1040
23.762802
1040
39.104388
1040
23.74982399999999
1070
     1
1040
39.104388
1040
23.74982399999999
1040
39.06808499999999
1040
23.740847
1070
     1
1040
39.06808499999999
1040
23.740847
1040
39.032514
1040
23.729811
1070
     1
1040
39.032514
1040
23.729811
1040
38.997912
1040
23.716418
1070
     1
1040
38.997912
1040
23.716418
1040
38.964344
1040
23.700508
1070
     1
1040
38.964344
1040
23.700508
1040
38.834843
1040
23.625681
1070
     1
1040
38.834843
1040
23.625681
1040
38.671594
1040
23.535581
1070
     1
1040
38.671594
1040
23.535581
1040
38.640976
1040
23.51415999999999
1070
     1
1040
38.640976
1040
23.51415999999999
1040
38.61162499999999
1040
23.49087999999999
1070
     1
1040
38.61162499999999
1040
23.49087999999999
1040
38.58359099999999
1040
23.46591099999999
1070
     1
1040
38.58359099999999
1040
23.46591099999999
1040
38.53168099999999
1040
23.41159
1070
     1
1040
38.53168099999999
1040
23.41159
1040
38.485341
1040
23.352025
1070
     1
1040
38.485341
1040
23.352025
1040
38.454621
1040
23.304551
1070
     1
1040
38.454621
1040
23.304551
1040
38.427457
1040
23.25493199999999
1070
     1
1040
38.427457
1040
23.25493199999999
1040
38.39719999999999
1040
23.18647299999999
1070
     1
1040
38.39719999999999
1040
23.18647299999999
1040
38.37898
1040
23.133395
1070
     1
1040
38.37898
1040
23.133395
1040
38.364823
1040
23.079194
1071
        0
1070
     0
1070
     1
1040
0.0
1040
0.062992
1070
     0
1070
     1
1040
0.7853979999999999
1040
-6.225169999999999
1040
-28.624349
1040
-0.141421
1040
0.141421
1070
     0
1071
        1
1040
-6.225169999999999
1040
-28.624349
1040
0.0
1002
}
  0
INSERT
  5
8F
330
A
100
AcDbEntity
  8
CARTOUCHE
  6
CONTINUOUS
 62
     4
100
AcDbBlockReference
  2
*X13
 10
0.0
 20
0.0
 30
0.0
1001
ACAD
1000
HATCH
1002
{
1070
    19
1000
ANSI31
1040
0.062992
1040
0.0
1000
R14_HATCH_DATA
1000
8F
1011
1.0
1021
0.0
1031
0.0
1011
0.0
1021
1.0
1031
0.0
1011
0.0
1021
0.0
1031
1.0
1040
0.0
1010
0.0
1020
0.0
1030
1.0
1000
ANSI31
1070
     0
1070
     0
1071
        1
1071
        1
1071
       78
1070
     1
1040
42.732973
1040
24.508394
1040
42.732973
1040
20.63209399999999
1070
     1
1040
42.732973
1040
20.63209399999999
1040
44.459623
1040
20.63209399999999
1070
     1
1040
44.459623
1040
20.63209399999999
1040
44.459623
1040
22.782194
1070
     1
1040
44.459623
1040
22.782194
1040
44.46348799999999
1040
22.82556299999999
1070
     1
1040
44.46348799999999
1040
22.82556299999999
1040
44.470946
1040
22.86858599999999
1070
     1
1040
44.470946
1040
22.86858599999999
1040
44.48187899999999
1040
22.91099099999999
1070
     1
1040
44.48187899999999
1040
22.91099099999999
1040
44.49617199999999
1040
22.952504
1070
     1
1040
44.49617199999999
1040
22.952504
1040
44.513707
1040
22.992851
1070
     1
1040
44.513707
1040
22.992851
1040
44.534386
1040
23.031755
1070
     1
1040
44.534386
1040
23.031755
1040
44.55812199999999
1040
23.06881399999999
1070
     1
1040
44.55812199999999
1040
23.06881399999999
1040
44.58484099999999
1040
23.103624
1070
     1
1040
44.58484099999999
1040
23.103624
1040
44.61447299999999
1040
23.13578
1070
     1
1040
44.61447299999999
1040
23.13578
1040
44.646943
1040
23.164878
1070
     1
1040
44.646943
1040
23.164878
1040
44.682109
1040
23.190587
1070
     1
1040
44.682109
1040
23.190587
1040
44.719626
1040
23.212933
1070
     1
1040
44.719626
1040
23.212933
1040
44.759083
1040
23.232012
1070
     1
1040
44.759083
1040
23.232012
1040
44.80006699999999
1040
23.24791999999999
1070
     1
1040
44.80006699999999
1040
23.24791999999999
1040
44.84216599999999
1040
23.26075499999999
1070
     1
1040
44.84216599999999
1040
23.26075499999999
1040
44.88545499999999
1040
23.27065499999999
1070
     1
1040
44.88545499999999
1040
23.27065499999999
1040
44.92924099999999
1040
23.277344
1070
     1
1040
44.92924099999999
1040
23.277344
1040
44.973307
1040
23.280649
1070
     1
1040
44.973307
1040
23.280649
1040
45.017433
1040
23.280401
1070
     1
1040
45.017433
1040
23.280401
1040
45.06139899999999
1040
23.276428
1070
     1
1040
45.06139899999999
1040
23.276428
1040
45.10431899999999
1040
23.26873599999999
1070
     1
1040
45.10431899999999
1040
23.26873599999999
1040
45.146471
1040
23.257294
1070
     1
1040
45.146471
1040
23.257294
1040
45.18745599999999
1040
23.24213599999999
1070
     1
1040
45.18745599999999
1040
23.24213599999999
1040
45.226873
1040
23.22329299999999
1070
     1
1040
45.226873
1040
23.22329299999999
1040
45.264321
1040
23.200797
1070
     1
1040
45.264321
1040
23.200797
1040
45.29950399999999
1040
23.174642
1070
     1
1040
45.29950399999999
1040
23.174642
1040
45.331947
1040
23.145119
1070
     1
1040
45.331947
1040
23.145119
1040
45.36129099999999
1040
23.11249899999999
1070
     1
1040
45.36129099999999
1040
23.11249899999999
1040
45.38718099999999
1040
23.077054
1070
     1
1040
45.38718099999999
1040
23.077054
1040
45.409257
1040
23.03905599999999
1070
     1
1040
45.409257
1040
23.03905599999999
1040
45.427129
1040
22.999011
1070
     1
1040
45.427129
1040
22.999011
1040
45.440732
1040
22.957277
1070
     1
1040
45.440732
1040
22.957277
1040
45.44993
1040
22.91442299999999
1070
     1
1040
45.44993
1040
22.91442299999999
1040
45.45458899999999
1040
22.871022
1070
     1
1040
45.45458899999999
1040
22.871022
1040
45.455174
1040
22.849294
1070
     1
1040
45.455174
1040
22.849294
1040
45.45457299999999
1040
22.827644
1070
     1
1040
45.45457299999999
1040
22.827644
1040
45.45457299999999
1040
22.58779399999999
1070
     1
1040
45.45457299999999
1040
22.58779399999999
1040
47.28382299999999
1040
22.58779399999999
1070
     1
1040
47.28382299999999
1040
22.58779399999999
1040
47.30048
1040
22.741901
1070
     1
1040
47.30048
1040
22.741901
1040
47.308034
1040
22.896764
1070
     1
1040
47.308034
1040
22.896764
1040
47.30622299999999
1040
23.051921
1070
     1
1040
47.30622299999999
1040
23.051921
1040
47.295648
1040
23.206716
1070
     1
1040
47.295648
1040
23.206716
1040
47.276908
1040
23.360972
1070
     1
1040
47.276908
1040
23.360972
1040
47.2499
1040
23.514097
1070
     1
1040
47.2499
1040
23.514097
1040
47.221874
1040
23.635072
1070
     1
1040
47.221874
1040
23.635072
1040
47.19592
1040
23.724445
1070
     1
1040
47.19592
1040
23.724445
1040
47.16467999999999
1040
23.81204899999999
1070
     1
1040
47.16467999999999
1040
23.81204899999999
1040
47.113499
1040
23.92525
1070
     1
1040
47.113499
1040
23.92525
1040
47.067867
1040
24.006615
1070
     1
1040
47.067867
1040
24.006615
1040
47.016057
1040
24.0843
1070
     1
1040
47.016057
1040
24.0843
1040
46.97801799999999
1040
24.133848
1070
     1
1040
46.97801799999999
1040
24.133848
1040
46.937287
1040
24.181208
1070
     1
1040
46.937287
1040
24.181208
1040
46.893917
1040
24.226097
1070
     1
1040
46.893917
1040
24.226097
1040
46.847963
1040
24.26823
1070
     1
1040
46.847963
1040
24.26823
1040
46.799476
1040
24.307326
1070
     1
1040
46.799476
1040
24.307326
1040
46.74884699999999
1040
24.34298099999999
1070
     1
1040
46.74884699999999
1040
24.34298099999999
1040
46.696087
1040
24.37549699999999
1070
     1
1040
46.696087
1040
24.37549699999999
1040
46.613657
1040
24.418703
1070
     1
1040
46.613657
1040
24.418703
1040
46.528242
1040
24.455664
1070
     1
1040
46.528242
1040
24.455664
1040
46.410285
1040
24.496534
1070
     1
1040
46.410285
1040
24.496534
1040
46.22887999999999
1040
24.542872
1070
     1
1040
46.22887999999999
1040
24.542872
1040
46.106971
1040
24.566075
1070
     1
1040
46.106971
1040
24.566075
1040
45.92238599999999
1040
24.587821
1070
     1
1040
45.92238599999999
1040
24.587821
1040
45.798504
1040
24.591816
1070
     1
1040
45.798504
1040
24.591816
1040
45.61256799999999
1040
24.583703
1070
     1
1040
45.61256799999999
1040
24.583703
1040
45.457926
1040
24.566274
1070
     1
1040
45.457926
1040
24.566274
1040
45.304716
1040
24.539482
1070
     1
1040
45.304716
1040
24.539482
1040
45.183805
1040
24.51113499999999
1070
     1
1040
45.183805
1040
24.51113499999999
1040
45.00579899999999
1040
24.45603
1070
     1
1040
45.00579899999999
1040
24.45603
1040
44.89043399999999
1040
24.410518
1070
     1
1040
44.89043399999999
1040
24.410518
1040
44.777817
1040
24.358198
1070
     1
1040
44.777817
1040
24.358198
1040
44.668264
1040
24.29958
1070
     1
1040
44.668264
1040
24.29958
1040
44.459623
1040
24.165494
1070
     1
1040
44.459623
1040
24.165494
1040
44.459623
1040
24.508394
1070
     1
1040
44.459623
1040
24.508394
1040
42.732973
1040
24.508394
1071
        0
1070
     0
1070
     1
1040
0.0
1040
0.062992
1070
     0
1070
     1
1040
0.7853979999999999
1040
-6.225169999999999
1040
-28.624349
1040
-0.141421
1040
0.141421
1070
     0
1071
        1
1040
-6.225169999999999
1040
-28.624349
1040
0.0
1002
}
  0
LINE
  5
90
330
A
100
AcDbEntity
  8
CARTOUCHE
  6
CONTINUOUS
 62
     7
100
AcDbLine
 10
205.000037
 20
36.845156
 30
0.0
 11
5.0
 21
36.84546199999999
 31
0.0
  0
LINE
  5
91
330
A
100
AcDbEntity
  8
CARTOUCHE
  6
CONTINUOUS
 62
     7
100
AcDbLine
 10
153.33333
 20
20.002887
 30
0.0
 11
153.33333
 21
10.000945
 31
0.0
  0
TEXT
  5
94
330
A
100
AcDbEntity
  8
CARTOUCHE
  6
CONTINUOUS
 62
     2
100
AcDbText
 10
16.27474179128323
 20
14.3087820244314
 30
0.0
 40
1.8
  1
www.findernet.com
 50
359.9999079999999
 41
1.05
  7
FINDER
 72
     1
 11
27.500001
 21
14.308764
 31
0.0
100
AcDbText
  0
POLYLINE
  5
9B
330
A
100
AcDbEntity
  8
CARTOUCHE
  6
CONTINUOUS
 62
     7
100
AcDb2dPolyline
 66
     1
 10
0.0
 20
0.0
 30
0.0
 70
   129
  0
VERTEX
  5
44E5
330
9B
100
AcDbEntity
  8
CARTOUCHE
  6
CONTINUOUS
 62
     7
100
AcDbVertex
100
AcDb2dVertex
 10
205.000037
 20
292.0001829999999
 30
0.0
  0
VERTEX
  5
44E6
330
9B
100
AcDbEntity
  8
CARTOUCHE
  6
CONTINUOUS
 62
     7
100
AcDbVertex
100
AcDb2dVertex
 10
205.000037
 20
5.000182999999999
 30
0.0
  0
VERTEX
  5
44E7
330
9B
100
AcDbEntity
  8
CARTOUCHE
  6
CONTINUOUS
 62
     7
100
AcDbVertex
100
AcDb2dVertex
 10
5.0
 20
5.0
 30
0.0
  0
VERTEX
  5
44E8
330
9B
100
AcDbEntity
  8
CARTOUCHE
  6
CONTINUOUS
 62
     7
100
AcDbVertex
100
AcDb2dVertex
 10
5.0
 20
292.0
 30
0.0
  0
VERTEX
  5
44E9
330
9B
100
AcDbEntity
  8
CARTOUCHE
  6
CONTINUOUS
 62
     7
100
AcDbVertex
100
AcDb2dVertex
 10
204.999774
 20
292.0001829999999
 30
0.0
  0
SEQEND
  5
44EA
330
9B
100
AcDbEntity
  8
CARTOUCHE
  6
CONTINUOUS
 62
     7
  0
TEXT
  5
AA
330
A
100
AcDbEntity
  8
CARTOUCHE
  6
CONTINUOUS
 62
     7
100
AcDbText
 10
124.8174121978206
 20
16.62422630740211
 30
0.0
 40
1.8
  1
DATE
 50
359.9999079999999
 41
0.8
  7
FINDER
 72
     1
 11
127.4999769999999
 21
16.62422199999999
 31
0.0
100
AcDbText
  0
TEXT
  5
AB
330
A
100
AcDbEntity
  8
CARTOUCHE
  6
CONTINUOUS
 62
     1
100
AcDbText
 10
121.6268528526678
 20
11.77620843049254
 30
0.0
 40
2.1
  1
23/05/2006
 50
359.9999079999999
 41
0.8
  7
FINDER
 72
     1
 11
127.4999769999999
 21
11.776199
 31
0.0
100
AcDbText
  0
TEXT
  5
AC
330
A
100
AcDbEntity
  8
CARTOUCHE
  6
CONTINUOUS
 62
     7
100
AcDbText
 10
175.8682102523916
 20
16.62414829632233
 30
0.0
 40
1.8
  1
SCALE
 50
359.9999079999999
 41
0.8
  7
FINDER
 72
     1
 11
179.1666549999999
 21
16.624143
 31
0.0
100
AcDbText
  0
TEXT
  5
AD
330
A
100
AcDbEntity
  8
CARTOUCHE
  6
CONTINUOUS
 62
     1
100
AcDbText
 10
177.5353589563458
 20
11.7761226193768
 30
0.0
 40
2.1
  1
1:1
 50
359.9999079999999
 41
0.8
  7
FINDER
 72
     1
 11
179.1666549999999
 21
11.77612
 31
0.0
100
AcDbText
  0
TEXT
  5
AE
330
A
100
AcDbEntity
  8
CARTOUCHE
  6
CONTINUOUS
 62
     1
100
AcDbText
 10
123.4923511637159
 20
22.43596043507895
 30
0.0
 40
3.0
  1
4C52
 50
359.9999079999999
 41
0.8
  7
FINDER
 72
     1
 11
127.499991
 21
22.435954
 31
0.0
100
AcDbText
  0
INSERT
  5
3C64
330
A
100
AcDbEntity
  8
0
100
AcDbBlockReference
  2
NON_RELAZIONATI
 10
1.780010263660869
 20
-21.74078414669224
 30
0.0
  0
DIMENSION
  5
3F5E
330
A
100
AcDbEntity
  8
DIM
100
AcDbDimension
  2
*D61
 10
106.7068142294006
 20
258.2980627577065
 30
0.0
 11
99.27348115038977
 21
258.2980741307042
 31
0.0
 70
   160
  1
<>
  3
DSTYLE3
100
AcDbAlignedDimension
 13
110.3067475629391
 23
214.7694369144065
 33
0.0
 14
106.7067879493542
 24
241.1215589269545
 34
0.0
 50
359.9999123374725
100
AcDbRotatedDimension
  0
DIMENSION
  5
3F5F
330
A
100
AcDbEntity
  8
DIM
100
AcDbDimension
  2
*D62
 10
95.58971581110787
 20
214.6694594333414
 30
0.0
 11
95.58973918344081
 21
229.9454966461339
 31
0.0
 70
   160
  1
30.6
  3
DSTYLE2
100
AcDbAlignedDimension
 13
106.7067942222889
 23
245.2215168498705
 33
0.0
 14
108.8067474381411
 24
214.6694392112864
 34
0.0
 50
89.99991233747248
100
AcDbRotatedDimension
  0
DIMENSION
  5
3F60
330
A
100
AcDbEntity
  8
DIM
100
AcDbDimension
  2
*D63
 10
95.45487545521043
 20
179.9216406295854
 30
0.0
 11
95.45487545521039
 21
164.7705626384431
 31
0.0
 70
   160
  1
<>
  3
DSTYLE1
100
AcDbAlignedDimension
 13
106.7066479512065
 23
149.6194846473008
 33
0.0
 14
108.3066942834185
 24
179.9216406295854
 34
0.0
 50
90.0
100
AcDbRotatedDimension
  0
DIMENSION
  5
3F61
330
A
100
AcDbEntity
  8
DIM
100
AcDbDimension
  2
*D64
 10
95.5591865954838
 20
179.921660133267
 30
0.0
 11
95.55921317754375
 21
197.2955598066175
 31
0.0
 70
   160
  1
34.7
  3
DSTYLE2
100
AcDbAlignedDimension
 13
109.5567474240403
 23
214.6694380637867
 33
0.0
 14
108.3066942834186
 24
179.921640629585
 34
0.0
 50
89.999912337479
100
AcDbRotatedDimension
  0
LINE
  5
3F62
330
A
100
AcDbEntity
  8
DRAW
100
AcDbLine
 10
66.20662628571484
 20
163.7195883472586
 30
0.0
 11
66.20660547765481
 21
150.1195466029553
 31
0.0
  0
LINE
  5
3F63
330
A
100
AcDbEntity
  8
DRAW
100
AcDbLine
 10
50.40662658277335
 20
163.7196125212531
 30
0.0
 11
50.40660577471334
 21
150.1195707769498
 31
0.0
  0
DIMENSION
  5
3F64
330
A
100
AcDbEntity
  8
DIM
100
AcDbDimension
  2
*D65
 10
74.94384565136671
 20
149.6195332443796
 30
0.0
 11
74.94387399398011
 21
168.144120334299
 31
0.0
 70
   160
  1
<>
  3
DSTYLE1
100
AcDbAlignedDimension
 13
58.30660622909329
 23
186.6687328792768
 33
0.0
 14
65.7066047220553
 24
149.6195473773557
 34
0.0
 50
89.99991233747248
100
AcDbRotatedDimension
  0
DIMENSION
  5
3F65
330
A
100
AcDbEntity
  8
DIM
100
AcDbDimension
  2
*D66
 10
38.29768278548595
 20
245.2216625157906
 30
0.0
 11
38.29760964991356
 21
197.4206259145066
 31
0.0
 70
   160
  1
<>
  3
DSTYLE1
100
AcDbAlignedDimension
 13
50.90660500031265
 23
149.6195700213511
 33
0.0
 14
50.90675127145776
 24
245.2216432239195
 34
0.0
 50
89.99991233747371
100
AcDbRotatedDimension
  0
LINE
  5
3F66
330
A
100
AcDbEntity
  8
DRAW
  6
CONTINUOUS
 62
     7
100
AcDbLine
 10
50.90660500031265
 20
149.6195700213511
 30
0.0
 11
65.7066047220553
 21
149.6195473773557
 31
0.0
  0
ARC
  5
3F67
330
A
100
AcDbEntity
  8
DRAW
  6
CONTINUOUS
 62
     7
100
AcDbCircle
 10
52.75660633343353
 20
154.765116479065
 30
0.0
 40
0.9999999812000002
100
AcDbArc
 50
90.0
 51
180.0
  0
ARC
  5
3F68
330
A
100
AcDbEntity
  8
DRAW
  6
CONTINUOUS
 62
     7
100
AcDbCircle
 10
52.75660633343353
 20
153.04777651135
 30
0.0
 40
0.9999999812000002
100
AcDbArc
 50
180.0
 51
270.0
  0
LINE
  5
3F69
330
A
100
AcDbEntity
  8
DRAW
  6
CONTINUOUS
 62
     7
100
AcDbLine
 10
52.20660634377338
 20
159.199497395698
 30
0.0
 11
51.40660635881343
 21
159.9994973806591
 31
0.0
  0
LINE
  5
3F6A
330
A
100
AcDbEntity
  8
DRAW
  6
CONTINUOUS
 62
     7
100
AcDbLine
 10
54.20660630617351
 20
161.9494973439977
 30
0.0
 11
51.40660635881355
 21
161.9494973439977
 31
0.0
  0
ARC
  5
3F6B
330
A
100
AcDbEntity
  8
DRAW
  6
CONTINUOUS
 62
     7
100
AcDbCircle
 10
50.90660576531274
 20
150.1195700119505
 30
0.0
 40
0.4999999906000001
100
AcDbArc
 50
179.9999123374741
 51
269.9999123374733
  0
LINE
  5
3F6C
330
A
100
AcDbEntity
  8
DRAW
  6
CONTINUOUS
 62
     7
100
AcDbLine
 10
51.75660635223369
 20
154.765116479065
 30
0.0
 11
51.75660635223369
 21
152.9523295131446
 31
0.0
  0
LINE
  5
3F6D
330
A
100
AcDbEntity
  8
DRAW
  6
CONTINUOUS
 62
     7
100
AcDbLine
 10
51.75660635223369
 20
155.3723004676485
 30
0.0
 11
51.75660635223369
 21
155.358842467902
 31
0.0
  0
LINE
  5
3F6E
330
A
100
AcDbEntity
  8
DRAW
  6
CONTINUOUS
 62
     7
100
AcDbLine
 10
51.40660635881352
 20
160.6038043692974
 30
0.0
 11
51.40660635881352
 21
161.7150853484048
 31
0.0
  0
LINE
  5
3F6F
330
A
100
AcDbEntity
  8
DRAW
  6
CONTINUOUS
 62
     7
100
AcDbLine
 10
51.40660635881352
 20
161.9494973439977
 30
0.0
 11
51.40660635881352
 21
159.9994973806588
 31
0.0
  0
ARC
  5
3F70
330
A
100
AcDbEntity
  8
DRAW
  6
CONTINUOUS
 62
     7
100
AcDbCircle
 10
58.30660463498737
 20
149.4717177021329
 30
0.0
 40
2.2499999577
100
AcDbArc
 50
199.4711333374746
 51
340.5286913374707
  0
LINE
  5
3F71
330
A
100
AcDbEntity
  8
DRAW
  6
CONTINUOUS
 62
     7
100
AcDbLine
 10
61.82969489124946
 20
147.7217123447035
 30
0.0
 11
59.89675926843929
 21
146.6373023224801
 31
0.0
  0
LINE
  5
3F72
330
A
100
AcDbEntity
  8
DRAW
  6
CONTINUOUS
 62
     7
100
AcDbLine
 10
60.15660619431367
 20
152.0477765301498
 30
0.0
 11
63.85660612475371
 21
152.0477765301498
 31
0.0
  0
LINE
  5
3F73
330
A
100
AcDbEntity
  8
DRAW
  6
CONTINUOUS
 62
     7
100
AcDbLine
 10
60.15660619431367
 20
155.7651164602653
 30
0.0
 11
63.85660612475371
 21
155.7651164602653
 31
0.0
  0
LINE
  5
3F74
330
A
100
AcDbEntity
  8
DRAW
  6
CONTINUOUS
 62
     7
100
AcDbLine
 10
61.0066061783333
 20
159.199497395698
 30
0.0
 11
59.80660620089325
 21
159.199497395698
 31
0.0
  0
LINE
  5
3F75
330
A
100
AcDbEntity
  8
DRAW
  6
CONTINUOUS
 62
     7
100
AcDbLine
 10
61.80660616329362
 20
161.9494973439977
 30
0.0
 11
59.00660621593367
 21
161.9494973439977
 31
0.0
  0
TEXT
  5
3F76
330
A
100
AcDbEntity
  8
DRAW-TEXT
100
AcDbText
 10
56.74798101952693
 20
156.8874110643742
 30
0.0
 40
1.399999976158142
  1
COIL
 41
0.95
  7
TSTYLE6
100
AcDbText
  0
LINE
  5
3F77
330
A
100
AcDbEntity
  8
DRAW
  6
CONTINUOUS
 62
     7
100
AcDbLine
 10
54.80911702324476
 20
147.721723086186
 30
0.0
 11
56.70021234256239
 21
146.6464732130242
 31
0.0
  0
LINE
  5
3F78
330
A
100
AcDbEntity
  8
DRAW
  6
CONTINUOUS
 62
     7
100
AcDbLine
 10
54.80911702324476
 20
147.721723086186
 30
0.0
 11
53.55660204679347
 21
147.7217250025336
 31
0.0
  0
ARC
  5
3F79
330
A
100
AcDbEntity
  8
DRAW
  6
CONTINUOUS
 62
     7
100
AcDbCircle
 10
53.55660327079306
 20
148.5217249874922
 30
0.0
 40
0.7999999849600003
100
AcDbArc
 50
179.9999123374725
 51
269.9999123374733
  0
LINE
  5
3F7A
330
A
100
AcDbEntity
  8
DRAW
  6
CONTINUOUS
 62
     7
100
AcDbLine
 10
52.7566032858341
 20
148.521726211492
 30
0.0
 11
52.75660496565899
 21
149.6196511908497
 31
0.0
  0
LINE
  5
3F7B
330
A
100
AcDbEntity
  8
DRAW
  6
CONTINUOUS
 62
     7
100
AcDbLine
 10
56.18528352737087
 20
148.7217209618529
 30
0.0
 11
54.80660355329163
 21
148.7217230712329
 31
0.0
  0
LINE
  5
3F7C
330
A
100
AcDbEntity
  8
DRAW
  6
CONTINUOUS
 62
     7
100
AcDbLine
 10
54.80660355329167
 20
148.7217230712321
 30
0.0
 11
54.80660492711663
 21
149.6196480543502
 31
0.0
  0
ARC
  5
3F7D
330
A
100
AcDbEntity
  8
DRAW
  6
CONTINUOUS
 62
     7
100
AcDbCircle
 10
58.30660463498737
 20
149.4717177021329
 30
0.0
 40
3.2499999389
100
AcDbArc
 50
240.3780753374747
 51
299.2931583374767
  0
LINE
  5
3F7E
330
A
100
AcDbEntity
  8
DRAW
  6
CONTINUOUS
 62
     7
100
AcDbLine
 10
56.80660625729354
 20
159.199497395698
 30
0.0
 11
55.6066062798536
 21
159.199497395698
 31
0.0
  0
LINE
  5
3F7F
330
A
100
AcDbEntity
  8
DRAW
  6
CONTINUOUS
 62
     7
100
AcDbLine
 10
56.45660626387337
 20
155.7651164602653
 30
0.0
 11
52.65660633531341
 21
155.7651164602653
 31
0.0
  0
LINE
  5
3F80
330
A
100
AcDbEntity
  8
DRAW
  6
CONTINUOUS
 62
     7
100
AcDbLine
 10
56.45660626387337
 20
152.0477765301498
 30
0.0
 11
52.65660633531341
 21
152.0477765301498
 31
0.0
  0
LINE
  5
3F81
330
A
100
AcDbEntity
  8
DRAW
  6
CONTINUOUS
 62
     7
100
AcDbLine
 10
57.60660624225341
 20
161.9494973439977
 30
0.0
 11
54.80660629489332
 21
161.9494973439977
 31
0.0
  0
TEXT
  5
3F82
330
A
100
AcDbEntity
  8
DRAW-TEXT
100
AcDbText
 10
52.72709553747937
 20
156.9282325295271
 30
0.0
 40
1.399999976158142
  1
A2
 41
0.95
  7
TSTYLE6
100
AcDbText
  0
TEXT
  5
3F83
330
A
100
AcDbEntity
  8
DRAW-TEXT
100
AcDbText
 10
55.25131437219474
 20
156.9282325295271
 30
0.0
 40
1.199999928474426
  1
8
 41
0.95
  7
TSTYLE5
100
AcDbText
  0
LINE
  5
3F84
330
A
100
AcDbEntity
  8
DRAW
  6
CONTINUOUS
 62
     7
100
AcDbLine
 10
53.40660632121364
 20
159.199497395698
 30
0.0
 11
52.2066063437736
 21
159.199497395698
 31
0.0
  0
LINE
  5
3F85
330
A
100
AcDbEntity
  8
DRAW
  6
CONTINUOUS
 62
     7
100
AcDbLine
 10
54.20660630617351
 20
159.9994973806587
 30
0.0
 11
53.40660632121355
 21
159.1994973956976
 31
0.0
  0
LINE
  5
3F86
330
A
100
AcDbEntity
  8
DRAW
  6
CONTINUOUS
 62
     7
100
AcDbLine
 10
54.20660630617351
 20
161.9494973439977
 30
0.0
 11
54.20660630617351
 21
159.9994973806588
 31
0.0
  0
LINE
  5
3F87
330
A
100
AcDbEntity
  8
DRAW
  6
CONTINUOUS
 62
     7
100
AcDbLine
 10
54.80660629489341
 20
161.9494973439977
 30
0.0
 11
54.80660629489341
 21
159.9994973806588
 31
0.0
  0
LINE
  5
3F88
330
A
100
AcDbEntity
  8
DRAW
  6
CONTINUOUS
 62
     7
100
AcDbLine
 10
55.60660627985374
 20
159.199497395698
 30
0.0
 11
54.80660629489367
 21
159.9994973806591
 31
0.0
  0
ARC
  5
3F89
330
A
100
AcDbEntity
  8
DRAW
  6
CONTINUOUS
 62
     7
100
AcDbCircle
 10
56.50660626293358
 20
154.5651164828241
 30
0.0
 40
1.199999977439999
100
AcDbArc
 50
0.0
 51
90.0
  0
LINE
  5
3F8A
330
A
100
AcDbEntity
  8
DRAW
  6
CONTINUOUS
 62
     7
100
AcDbLine
 10
57.70660624037339
 20
154.5651164828241
 30
0.0
 11
57.70660624037339
 21
153.2477765075905
 31
0.0
  0
ARC
  5
3F8B
330
A
100
AcDbEntity
  8
DRAW
  6
CONTINUOUS
 62
     7
100
AcDbCircle
 10
56.50660626293358
 20
153.2477765075905
 30
0.0
 40
1.199999977439999
100
AcDbArc
 50
270.0
 51
0.0
  0
ARC
  5
3F8C
330
A
100
AcDbEntity
  8
DRAW
  6
CONTINUOUS
 62
     7
100
AcDbCircle
 10
60.10660619525345
 20
154.5651164828241
 30
0.0
 40
1.199999977439999
100
AcDbArc
 50
90.0
 51
180.0
  0
LINE
  5
3F8D
330
A
100
AcDbEntity
  8
DRAW
  6
CONTINUOUS
 62
     7
100
AcDbLine
 10
58.90660621781364
 20
154.5651164828241
 30
0.0
 11
58.90660621781364
 21
153.2477765075905
 31
0.0
  0
ARC
  5
3F8E
330
A
100
AcDbEntity
  8
DRAW
  6
CONTINUOUS
 62
     7
100
AcDbCircle
 10
60.10660619525345
 20
153.2477765075905
 30
0.0
 40
1.199999977439999
100
AcDbArc
 50
180.0
 51
270.0
  0
LINE
  5
3F8F
330
A
100
AcDbEntity
  8
DRAW
  6
CONTINUOUS
 62
     7
100
AcDbLine
 10
57.60660624225341
 20
159.9994973806587
 30
0.0
 11
56.80660625729334
 21
159.1994973956976
 31
0.0
  0
LINE
  5
3F90
330
A
100
AcDbEntity
  8
DRAW
  6
CONTINUOUS
 62
     7
100
AcDbLine
 10
57.60660624225341
 20
161.9494973439977
 30
0.0
 11
57.60660624225341
 21
159.9994973806588
 31
0.0
  0
LINE
  5
3F91
330
A
100
AcDbEntity
  8
DRAW
  6
CONTINUOUS
 62
     7
100
AcDbLine
 10
59.80660620089349
 20
159.199497395698
 30
0.0
 11
59.00660621593354
 21
159.9994973806591
 31
0.0
  0
LINE
  5
3F92
330
A
100
AcDbEntity
  8
DRAW
  6
CONTINUOUS
 62
     7
100
AcDbLine
 10
59.00660621593363
 20
159.9994973806587
 30
0.0
 11
59.00660621593363
 21
161.9494973439977
 31
0.0
  0
LINE
  5
3F93
330
A
100
AcDbEntity
  8
DRAW
  6
CONTINUOUS
 62
     7
100
AcDbLine
 10
61.82969489124946
 20
147.7217123447035
 30
0.0
 11
63.05660186818217
 21
147.7217104675361
 31
0.0
  0
LINE
  5
3F94
330
A
100
AcDbEntity
  8
DRAW
  6
CONTINUOUS
 62
     7
100
AcDbLine
 10
60.42792344760449
 20
148.7217144706146
 30
0.0
 11
61.80660342168359
 21
148.7217123612347
 31
0.0
  0
LINE
  5
3F95
330
A
100
AcDbEntity
  8
DRAW
  6
CONTINUOUS
 62
     7
100
AcDbLine
 10
61.80660342168323
 20
148.7217123612345
 30
0.0
 11
61.80660479550822
 21
149.6196373443524
 31
0.0
  0
ARC
  5
3F96
330
A
100
AcDbEntity
  8
DRAW
  6
CONTINUOUS
 62
     7
100
AcDbCircle
 10
63.05660309218194
 20
148.5217104524954
 30
0.0
 40
0.7999999849600003
100
AcDbArc
 50
269.9999123374737
 51
359.9999123374741
  0
LINE
  5
3F97
330
A
100
AcDbEntity
  8
DRAW
  6
CONTINUOUS
 62
     7
100
AcDbLine
 10
63.85660307714136
 20
148.5217092284956
 30
0.0
 11
63.85660475696624
 21
149.6196342078534
 31
0.0
  0
ARC
  5
3F98
330
A
100
AcDbEntity
  8
DRAW
  6
CONTINUOUS
 62
     7
100
AcDbCircle
 10
65.7066054870553
 20
150.1195473679545
 30
0.0
 40
0.4999999906000001
100
AcDbArc
 50
269.9999123374741
 51
359.9999123374741
  0
POINT
  5
3F99
330
A
100
AcDbEntity
  8
DRAW
  6
CONTINUOUS
 62
     7
100
AcDbPoint
 10
65.7066047220553
 20
149.6195473773557
 30
0.0
  0
ARC
  5
3F9A
330
A
100
AcDbEntity
  8
DRAW
  6
CONTINUOUS
 62
     7
100
AcDbCircle
 10
63.85660612475351
 20
154.765116479065
 30
0.0
 40
0.9999999812000002
100
AcDbArc
 50
0.0
 51
90.0
  0
ARC
  5
3F9B
330
A
100
AcDbEntity
  8
DRAW
  6
CONTINUOUS
 62
     7
100
AcDbCircle
 10
63.85660612475351
 20
153.04777651135
 30
0.0
 40
0.9999999812000002
100
AcDbArc
 50
270.0
 51
0.0
  0
LINE
  5
3F9C
330
A
100
AcDbEntity
  8
DRAW
  6
CONTINUOUS
 62
     7
100
AcDbLine
 10
65.20660609937351
 20
159.9994973806587
 30
0.0
 11
64.40660611441356
 21
159.1994973956976
 31
0.0
  0
LINE
  5
3F9D
330
A
100
AcDbEntity
  8
DRAW
  6
CONTINUOUS
 62
     7
100
AcDbLine
 10
62.40660615201353
 20
161.9494973439977
 30
0.0
 11
65.20660609937348
 21
161.9494973439977
 31
0.0
  0
TEXT
  5
3F9E
330
A
100
AcDbEntity
  8
DRAW-TEXT
100
AcDbText
 10
63.00655946516518
 20
156.954617017835
 30
0.0
 40
1.399999976158142
  1
A1
 41
0.95
  7
TSTYLE6
100
AcDbText
  0
TEXT
  5
3F9F
330
A
100
AcDbEntity
  8
DRAW-TEXT
100
AcDbText
 10
61.5867298304141
 20
156.9282325295271
 30
0.0
 40
1.199999928474426
  1
1
 41
0.95
  7
TSTYLE5
100
AcDbText
  0
LINE
  5
3FA0
330
A
100
AcDbEntity
  8
DRAW
  6
CONTINUOUS
 62
     7
100
AcDbLine
 10
63.85660612475351
 20
152.0477765301498
 30
0.0
 11
63.95660612287342
 21
152.0477765301498
 31
0.0
  0
LINE
  5
3FA1
330
A
100
AcDbEntity
  8
DRAW
  6
CONTINUOUS
 62
     7
100
AcDbLine
 10
63.85660612475351
 20
155.7651164602653
 30
0.0
 11
63.95660612287342
 21
155.7651164602653
 31
0.0
  0
LINE
  5
3FA2
330
A
100
AcDbEntity
  8
DRAW
  6
CONTINUOUS
 62
     7
100
AcDbLine
 10
62.40660615201353
 20
159.9994973806587
 30
0.0
 11
63.20660613697349
 21
159.1994973956976
 31
0.0
  0
LINE
  5
3FA3
330
A
100
AcDbEntity
  8
DRAW
  6
CONTINUOUS
 62
     7
100
AcDbLine
 10
62.40660615201353
 20
161.9494973439977
 30
0.0
 11
62.40660615201353
 21
159.9994973806588
 31
0.0
  0
LINE
  5
3FA4
330
A
100
AcDbEntity
  8
DRAW
  6
CONTINUOUS
 62
     7
100
AcDbLine
 10
61.80660616329362
 20
161.9494973439977
 30
0.0
 11
61.80660616329362
 21
159.9994973806588
 31
0.0
  0
LINE
  5
3FA5
330
A
100
AcDbEntity
  8
DRAW
  6
CONTINUOUS
 62
     7
100
AcDbLine
 10
61.80660616329362
 20
159.9994973806587
 30
0.0
 11
61.00660617833367
 21
159.1994973956976
 31
0.0
  0
LINE
  5
3FA6
330
A
100
AcDbEntity
  8
DRAW
  6
CONTINUOUS
 62
     7
100
AcDbLine
 10
63.20660613697339
 20
159.199497395698
 30
0.0
 11
64.40660611441344
 21
159.199497395698
 31
0.0
  0
LINE
  5
3FA7
330
A
100
AcDbEntity
  8
DRAW
  6
CONTINUOUS
 62
     7
100
AcDbLine
 10
64.85660610595335
 20
154.765116479065
 30
0.0
 11
64.85660610595335
 21
152.9523295131446
 31
0.0
  0
LINE
  5
3FA8
330
A
100
AcDbEntity
  8
DRAW
  6
CONTINUOUS
 62
     7
100
AcDbLine
 10
64.85660610595335
 20
155.3723004676485
 30
0.0
 11
64.85660610595335
 21
155.358842467902
 31
0.0
  0
LINE
  5
3FA9
330
A
100
AcDbEntity
  8
DRAW
  6
CONTINUOUS
 62
     7
100
AcDbLine
 10
65.20660609937351
 20
161.7150853484049
 30
0.0
 11
65.20660609937351
 21
159.9994973806589
 31
0.0
  0
LINE
  5
3FAA
330
A
100
AcDbEntity
  8
DRAW
  6
CONTINUOUS
 62
     7
100
AcDbLine
 10
65.20660609937351
 20
160.6038043692974
 30
0.0
 11
65.20660609937351
 21
161.9494973439977
 31
0.0
  0
DIMENSION
  5
3FAB
330
A
100
AcDbEntity
  8
DIM
100
AcDbDimension
  2
*D67
 10
50.40677419516033
 20
260.1983148428898
 30
0.0
 11
58.30677404663131
 21
260.1983027558923
 31
0.0
 70
   160
  1
<>
  3
DSTYLE1
100
AcDbAlignedDimension
 13
66.20675021879995
 23
244.7216198243253
 33
0.0
 14
50.40675051585846
 24
244.7216439983207
 34
0.0
 50
179.9999123374741
100
AcDbRotatedDimension
  0
DIMENSION
  5
3FAC
330
A
100
AcDbEntity
  8
DIM
100
AcDbDimension
  2
*D68
 10
70.5649989476358
 20
188.2687328491968
 30
0.0
 11
70.56499894763577
 21
197.0437334214014
 31
0.0
 70
   160
  1
%%c<>
  3
DSTYLE3
100
AcDbAlignedDimension
 13
58.30660622909329
 23
185.0687329093568
 33
0.0
 14
58.30660622909329
 24
188.2687328491968
 34
0.0
 50
90.0
100
AcDbRotatedDimension
  0
LINE
  5
3FAD
330
A
100
AcDbEntity
  8
DRAW
  6
CONTINUOUS
 62
     7
100
AcDbLine
 10
66.20669347866954
 20
207.6365605215678
 30
0.0
 11
66.20671251186568
 21
220.0765602876813
 31
0.0
  0
LINE
  5
3FAE
330
A
100
AcDbEntity
  8
DRAW
  6
CONTINUOUS
 62
     7
100
AcDbLine
 10
50.40669377572806
 20
207.6365846955632
 30
0.0
 11
50.40671280892418
 21
220.0765844616767
 31
0.0
  0
TEXT
  5
3FAF
330
A
100
AcDbEntity
  8
DRAW-TEXT
100
AcDbText
 10
52.61410156334351
 20
212.314436005021
 30
0.0
 40
1.399999976158142
  1
22
 41
0.95
  7
TSTYLE6
100
AcDbText
  0
TEXT
  5
3FB0
330
A
100
AcDbEntity
  8
DRAW-TEXT
100
AcDbText
 10
55.30264914281665
 20
212.3217986709751
 30
0.0
 40
1.199999928474426
  1
7
 41
0.95
  7
TSTYLE5
100
AcDbText
  0
TEXT
  5
3FB1
330
A
100
AcDbEntity
  8
DRAW-TEXT
100
AcDbText
 10
62.81095176534346
 20
212.3068811023581
 30
0.0
 40
1.399999976158142
  1
12
 41
0.95
  7
TSTYLE6
100
AcDbText
  0
TEXT
  5
3FB2
330
A
100
AcDbEntity
  8
DRAW-TEXT
100
AcDbText
 10
57.79178105354013
 20
212.3103221394489
 30
0.0
 40
1.399999976158142
  1
NC
 41
0.95
  7
TSTYLE6
100
AcDbText
  0
TEXT
  5
3FB3
330
A
100
AcDbEntity
  8
DRAW-TEXT
100
AcDbText
 10
61.44166596730233
 20
212.3217986709751
 30
0.0
 40
1.199999928474426
  1
2
 41
0.95
  7
TSTYLE5
100
AcDbText
  0
INSERT
  5
3FB5
330
A
100
AcDbEntity
  8
DRAW
100
AcDbBlockReference
  2
D
 10
-3.960801590685946
 20
2.664095523058676
 30
0.0
  0
LINE
  5
3FB6
330
A
100
AcDbEntity
  8
DRAW
  6
CONTINUOUS
 62
     7
100
AcDbLine
 10
64.85669198815651
 20
206.6457816056954
 30
0.0
 11
51.7566922344518
 21
206.6458016486913
 31
0.0
  0
LINE
  5
3FB7
330
A
100
AcDbEntity
  8
DRAW
  6
CONTINUOUS
 62
     7
100
AcDbLine
 10
65.7066933492257
 20
207.545813288274
 30
0.0
 11
50.90669362748304
 21
207.5458359322695
 31
0.0
  0
LINE
  5
3FB8
330
A
100
AcDbEntity
  8
DRAW
  6
CONTINUOUS
 62
     7
100
AcDbLine
 10
65.70669425307016
 20
208.1365612771669
 30
0.0
 11
50.9066945313275
 21
208.1365839211624
 31
0.0
  0
LINE
  5
3FB9
330
A
100
AcDbEntity
  8
DRAW
  6
CONTINUOUS
 62
     7
100
AcDbLine
 10
51.70674368227503
 20
208.6060672715025
 30
0.0
 11
54.50674362963511
 21
208.6060672715025
 31
0.0
  0
LINE
  5
3FBA
330
A
100
AcDbEntity
  8
DRAW
  6
CONTINUOUS
 62
     7
100
AcDbLine
 10
52.5067436672349
 20
211.3560672198027
 30
0.0
 11
51.70674368227484
 21
210.5560672348434
 31
0.0
  0
LINE
  5
3FBB
330
A
100
AcDbEntity
  8
DRAW
100
AcDbLine
 10
50.40664512829875
 20
175.8408732933606
 30
0.0
 11
53.30670602786892
 21
175.8408688562682
 31
0.0
  0
LINE
  5
3FBC
330
A
100
AcDbEntity
  8
DRAW
100
AcDbLine
 10
63.25696716088981
 20
174.5857985229184
 30
0.0
 11
50.40664320803445
 21
174.5857985229184
 31
0.0
  0
LINE
  5
3FBD
330
A
100
AcDbEntity
  8
DRAW
  6
CONTINUOUS
 62
     7
100
AcDbLine
 10
52.0067087976928
 20
192.6379175294978
 30
0.0
 11
52.0066852369865
 21
177.2387602568271
 31
0.0
  0
LINE
  5
3FBE
330
A
100
AcDbEntity
  8
DRAW
100
AcDbLine
 10
50.40664328774721
 20
174.6378983159766
 30
0.0
 11
50.40667128677521
 21
192.9379199719147
 31
0.0
  0
LINE
  5
3FBF
330
A
100
AcDbEntity
  8
DRAW
100
AcDbLine
 10
50.40665438968066
 20
181.8940651795527
 30
0.0
 11
50.40662658277314
 21
163.7196125212535
 31
0.0
  0
LINE
  5
3FC0
330
A
100
AcDbEntity
  8
DRAW
100
AcDbLine
 10
50.40663714165578
 20
167.967882660545
 30
0.0
 11
50.40663232215675
 21
164.8178827197688
 31
0.0
  0
LINE
  5
3FC1
330
A
100
AcDbEntity
  8
DRAW
100
AcDbLine
 10
50.40663714165578
 20
170.620844391502
 30
0.0
 11
50.40664328774713
 21
174.6378983159768
 31
0.0
  0
LINE
  5
3FC2
330
A
100
AcDbEntity
  8
DRAW
100
AcDbLine
 10
50.40664648208679
 20
176.7257022767235
 30
0.0
 11
50.55670195955099
 21
176.7257020471386
 31
0.0
  0
ARC
  5
3FC3
330
A
100
AcDbEntity
  8
DRAW
  6
CONTINUOUS
 62
     7
100
AcDbCircle
 10
50.84178785563029
 20
178.9359795694072
 30
0.0
 40
0.1999999962400001
100
AcDbArc
 50
89.99991233747289
 51
179.9999123374725
  0
ARC
  5
3FC4
330
A
100
AcDbEntity
  8
DRAW
  6
CONTINUOUS
 62
     7
100
AcDbCircle
 10
50.84178661631506
 20
178.1259695846356
 30
0.0
 40
0.1999999962400001
100
AcDbArc
 50
179.9999123374708
 51
215.9999123374773
  0
ARC
  5
3FC5
330
A
100
AcDbEntity
  8
DRAW
  6
CONTINUOUS
 62
     7
100
AcDbCircle
 10
50.84178730359565
 20
178.5751725761901
 30
0.0
 40
0.1999999962400001
100
AcDbArc
 50
179.9999123374708
 51
210.1751503374756
  0
ARC
  5
3FC6
330
A
100
AcDbEntity
  8
DRAW
  6
CONTINUOUS
 62
     7
100
AcDbCircle
 10
51.11384275045168
 20
177.5633881789663
 30
0.0
 40
0.1999999962400001
100
AcDbArc
 50
359.9999123374708
 51
37.40018033747532
  0
LINE
  5
3FC7
330
A
100
AcDbEntity
  8
DRAW
  6
CONTINUOUS
 62
     7
100
AcDbLine
 10
52.00668813972891
 20
179.1359777833504
 30
0.0
 11
50.8417881616304
 21
179.1359795656471
 31
0.0
  0
LINE
  5
3FC8
330
A
100
AcDbEntity
  8
DRAW
  6
CONTINUOUS
 62
     7
100
AcDbLine
 10
50.64178730735614
 20
178.5751728821906
 30
0.0
 11
50.64178662007567
 21
178.125969890636
 31
0.0
  0
LINE
  5
3FC9
330
A
100
AcDbEntity
  8
DRAW
  6
CONTINUOUS
 62
     7
100
AcDbLine
 10
51.27272493332259
 20
177.684863933593
 30
0.0
 11
50.6688881530371
 21
178.4746438426163
 31
0.0
  0
LINE
  5
3FCA
330
A
100
AcDbEntity
  8
DRAW
  6
CONTINUOUS
 62
     7
100
AcDbLine
 10
51.3138427466912
 20
177.5633878729659
 30
0.0
 11
51.31384270490537
 21
177.5360768734793
 31
0.0
  0
LINE
  5
3FCB
330
A
100
AcDbEntity
  8
DRAW
  6
CONTINUOUS
 62
     7
100
AcDbLine
 10
50.67998243949535
 20
178.008412834406
 30
0.0
 11
51.07866959241679
 21
177.4596652347307
 31
0.0
  0
LINE
  5
3FCC
330
A
100
AcDbEntity
  8
DRAW
  6
CONTINUOUS
 62
     7
100
AcDbLine
 10
51.31384270490537
 20
177.5360768734799
 30
0.0
 11
51.31384225001108
 21
177.2387602917962
 31
0.0
  0
LINE
  5
3FCD
330
A
100
AcDbEntity
  8
DRAW
  6
CONTINUOUS
 62
     7
100
AcDbLine
 10
51.07866959241675
 20
177.4596652347308
 30
0.0
 11
51.23916683664316
 21
177.2387602917962
 31
0.0
  0
LINE
  5
3FCE
330
A
100
AcDbEntity
  8
DRAW
  6
CONTINUOUS
 62
     7
100
AcDbLine
 10
50.64178785939077
 20
178.9359798754067
 30
0.0
 11
50.64178730735616
 21
178.5751728821902
 31
0.0
  0
ARC
  5
3FCF
330
A
100
AcDbEntity
  8
DRAW
  6
CONTINUOUS
 62
     7
100
AcDbCircle
 10
53.86919388046056
 20
182.9109748627515
 30
0.0
 40
2.162499959345
100
AcDbArc
 50
162.5075873374745
 51
197.4922373374725
  0
LINE
  5
3FD0
330
A
100
AcDbEntity
  8
DRAW
  6
CONTINUOUS
 62
     7
100
AcDbLine
 10
52.00669292097803
 20
182.2609777245961
 30
0.0
 11
51.80669292473831
 21
182.2609780305961
 31
0.0
  0
LINE
  5
3FD1
330
A
100
AcDbEntity
  8
DRAW
  6
CONTINUOUS
 62
     7
100
AcDbLine
 10
52.00669490997746
 20
183.5609777001545
 30
0.0
 11
51.80669491373774
 21
183.5609780061545
 31
0.0
  0
LINE
  5
3FD2
330
A
100
AcDbEntity
  8
DRAW
  6
CONTINUOUS
 62
     7
100
AcDbLine
 10
51.80669292473806
 20
182.2609780305965
 30
0.0
 11
51.80669391923783
 21
182.9109780183757
 31
0.0
  0
LINE
  5
3FD3
330
A
100
AcDbEntity
  8
DRAW
  6
CONTINUOUS
 62
     7
100
AcDbLine
 10
51.80669391923777
 20
182.9109780183753
 30
0.0
 11
51.80669491373757
 21
183.5609780061546
 31
0.0
  0
LINE
  5
3FD4
330
A
100
AcDbEntity
  8
DRAW
  6
CONTINUOUS
 62
     7
100
AcDbLine
 10
52.00669235959788
 20
181.894062731495
 30
0.0
 11
50.40665438968066
 21
181.8940651795527
 31
0.0
  0
LINE
  5
3FD5
330
A
100
AcDbEntity
  8
DRAW
  6
CONTINUOUS
 62
     7
100
AcDbLine
 10
52.00669541958643
 20
183.8940556938923
 30
0.0
 11
50.4066574496691
 21
183.89405814195
 31
0.0
  0
LINE
  5
3FD6
330
A
100
AcDbEntity
  8
DRAW
  6
CONTINUOUS
 62
     7
100
AcDbLine
 10
50.40667128677535
 20
192.9379199719151
 30
0.0
 11
50.40669377572823
 21
207.636584695563
 31
0.0
  0
ARC
  5
3FD7
330
A
100
AcDbEntity
  8
DRAW
  6
CONTINUOUS
 62
     7
100
AcDbCircle
 10
50.70667128113484
 20
192.9379195129149
 30
0.0
 40
0.29999999436
100
AcDbArc
 50
179.9999123374708
 51
269.9999123374737
  0
LINE
  5
3FD8
330
A
100
AcDbEntity
  8
DRAW
  6
CONTINUOUS
 62
     7
100
AcDbLine
 10
52.0067087976928
 20
192.6379175294978
 30
0.0
 11
50.70667082213503
 21
192.6379195185555
 31
0.0
  0
LINE
  5
3FD9
330
A
100
AcDbEntity
  8
DRAW
  6
CONTINUOUS
 62
     7
100
AcDbLine
 10
50.40668641528521
 20
202.8258367860107
 30
0.0
 11
51.75668638990365
 21
202.8258347205111
 31
0.0
  0
LINE
  5
3FDA
330
A
100
AcDbEntity
  8
DRAW
  6
CONTINUOUS
 62
     7
100
AcDbLine
 10
50.40668901628453
 20
204.5258367540482
 30
0.0
 11
51.75668899090297
 21
204.5258346885485
 31
0.0
  0
LINE
  5
3FDB
330
A
100
AcDbEntity
  8
DRAW
  6
CONTINUOUS
 62
     7
100
AcDbLine
 10
51.75669223445186
 20
206.6458016486913
 30
0.0
 11
51.75668638990353
 21
202.8258347205111
 31
0.0
  0
LINE
  5
3FDC
330
A
100
AcDbEntity
  8
DRAW
  6
CONTINUOUS
 62
     7
100
AcDbLine
 10
51.70674368227503
 20
208.6060672715025
 30
0.0
 11
51.70674368227503
 21
210.5560672348432
 31
0.0
  0
ARC
  5
3FDD
330
A
100
AcDbEntity
  8
DRAW
  6
CONTINUOUS
 62
     7
100
AcDbCircle
 10
50.90669286248351
 20
207.0458359416698
 30
0.0
 40
0.4999999906000001
100
AcDbArc
 50
89.99991233747328
 51
179.9999123374725
  0
ARC
  5
3FDE
330
A
100
AcDbEntity
  8
DRAW
  6
CONTINUOUS
 62
     7
100
AcDbCircle
 10
50.90669376632752
 20
207.6365839305626
 30
0.0
 40
0.4999999906000001
100
AcDbArc
 50
89.99991233747328
 51
179.9999123374757
  0
LINE
  5
3FDF
330
A
100
AcDbEntity
  8
DRAW
  6
CONTINUOUS
 62
     7
100
AcDbLine
 10
64.60663256079953
 20
192.637898251618
 30
0.0
 11
64.60660900012278
 21
177.2387602878191
 31
0.0
  0
LINE
  5
3FE0
330
A
100
AcDbEntity
  8
DRAW
100
AcDbLine
 10
66.20664299068869
 20
174.6378741419821
 30
0.0
 11
66.20667098971667
 21
192.9378957979203
 31
0.0
  0
CIRCLE
  5
3FE1
330
A
100
AcDbEntity
  8
DRAW
  6
HIDDEN2
 62
     7
100
AcDbCircle
 10
58.30660622909329
 20
186.6687328792768
 30
0.0
 40
1.59999996992
  0
LINE
  5
3FE2
330
A
100
AcDbEntity
  8
DRAW
  6
CENTER2
 62
     3
100
AcDbLine
 10
58.30660622909329
 20
186.6687328792768
 30
0.0
 11
58.30660622909329
 21
188.3487328476928
 31
0.0
  0
LINE
  5
3FE3
330
A
100
AcDbEntity
  8
DRAW
100
AcDbLine
 10
56.30670532020656
 20
175.8408642662701
 30
0.0
 11
60.30670506974456
 21
175.8408581462716
 31
0.0
  0
LINE
  5
3FE4
330
A
100
AcDbEntity
  8
DRAW
  6
CONTINUOUS
 62
     7
100
AcDbLine
 10
57.20670377540125
 20
177.2387602675235
 30
0.0
 11
56.30670532020656
 21
177.2387602650551
 31
0.0
  0
LINE
  5
3FE5
330
A
100
AcDbEntity
  8
DRAW
  6
CONTINUOUS
 62
     7
100
AcDbLine
 10
60.30670506974456
 20
177.2387602760258
 30
0.0
 11
59.40670377540119
 21
177.2387602735574
 31
0.0
  0
LINE
  5
3FE6
330
A
100
AcDbEntity
  8
DRAW
  6
CENTER2
 62
     3
100
AcDbLine
 10
58.30660622909329
 20
186.6687328792768
 30
0.0
 11
59.98660619750928
 21
186.6687328792768
 31
0.0
  0
POINT
  5
3FE7
330
A
100
AcDbEntity
  8
DRAW
  6
CONTINUOUS
 62
     7
100
AcDbPoint
 10
58.30660622909329
 20
186.6687328792768
 30
0.0
  0
LINE
  5
3FE8
330
A
100
AcDbEntity
  8
DRAW
  6
CENTER2
 62
     3
100
AcDbLine
 10
58.30660622909329
 20
186.6687328792768
 30
0.0
 11
58.30660622909329
 21
184.9887329108608
 31
0.0
  0
LINE
  5
3FE9
330
A
100
AcDbEntity
  8
DRAW
  6
CENTER2
 62
     3
100
AcDbLine
 10
58.30660622909329
 20
186.6687328792768
 30
0.0
 11
56.62660626067729
 21
186.6687328792768
 31
0.0
  0
LINE
  5
3FEA
330
A
100
AcDbEntity
  8
DRAW
100
AcDbLine
 10
66.20665815165259
 20
181.8940410055514
 30
0.0
 11
66.20663202509823
 21
164.8178585457733
 31
0.0
  0
LINE
  5
3FEB
330
A
100
AcDbEntity
  8
DRAW
100
AcDbLine
 10
66.05670195955099
 20
174.5857985608392
 30
0.0
 11
63.25696716088981
 21
174.5857985531604
 31
0.0
  0
LINE
  5
3FEC
330
A
100
AcDbEntity
  8
DRAW
100
AcDbLine
 10
66.20663202509843
 20
167.4708202767305
 30
0.0
 11
66.20662628571463
 21
163.7195883472582
 31
0.0
  0
LINE
  5
3FED
330
A
100
AcDbEntity
  8
DRAW
100
AcDbLine
 10
66.20663684459725
 20
170.6208202175066
 30
0.0
 11
66.2066429906886
 21
174.6378741419814
 31
0.0
  0
LINE
  5
3FEE
330
A
100
AcDbEntity
  8
DRAW
100
AcDbLine
 10
63.30670483132599
 20
175.8408535562727
 30
0.0
 11
66.20664889027072
 21
175.8408491193591
 31
0.0
  0
ARC
  5
3FEF
330
A
100
AcDbEntity
  8
DRAW
  6
CONTINUOUS
 62
     7
100
AcDbCircle
 10
65.77151157493393
 20
178.9359567269339
 30
0.0
 40
0.1999999962400001
100
AcDbArc
 50
359.9999123374708
 51
89.99991233747492
  0
ARC
  5
3FF0
330
A
100
AcDbEntity
  8
DRAW
  6
CONTINUOUS
 62
     7
100
AcDbCircle
 10
65.77151033561915
 20
178.1259467421632
 30
0.0
 40
0.1999999962400001
100
AcDbArc
 50
323.9999123374697
 51
359.9999123374741
  0
ARC
  5
3FF1
330
A
100
AcDbEntity
  8
DRAW
  6
CONTINUOUS
 62
     7
100
AcDbCircle
 10
65.77151102289929
 20
178.5751497337169
 30
0.0
 40
0.1999999962400001
100
AcDbArc
 50
329.8246743374721
 51
359.9999123374757
  0
ARC
  5
3FF2
330
A
100
AcDbEntity
  8
DRAW
  6
CONTINUOUS
 62
     7
100
AcDbCircle
 10
65.49945347998539
 20
177.5633661689853
 30
0.0
 40
0.1999999962400001
100
AcDbArc
 50
142.5996443374715
 51
179.9999123374692
  0
LINE
  5
3FF3
330
A
100
AcDbEntity
  8
DRAW
  6
CONTINUOUS
 62
     7
100
AcDbLine
 10
64.60661190283565
 20
179.1359585054706
 30
0.0
 11
65.77151188093417
 21
179.1359567231739
 31
0.0
  0
LINE
  5
3FF4
330
A
100
AcDbEntity
  8
DRAW
  6
CONTINUOUS
 62
     7
100
AcDbLine
 10
65.97151101913926
 20
178.5751494277174
 30
0.0
 11
65.9715103318588
 21
178.1259464361629
 31
0.0
  0
LINE
  5
3FF5
330
A
100
AcDbEntity
  8
DRAW
  6
CONTINUOUS
 62
     7
100
AcDbLine
 10
65.34057066883054
 20
177.6848424097925
 30
0.0
 11
65.94440986583942
 21
178.4746204710717
 31
0.0
  0
LINE
  5
3FF6
330
A
100
AcDbEntity
  8
DRAW
  6
CONTINUOUS
 62
     7
100
AcDbLine
 10
65.29945348374543
 20
177.5633664749857
 30
0.0
 11
65.2994534419596
 21
177.5360554754991
 31
0.0
  0
LINE
  5
3FF7
330
A
100
AcDbEntity
  8
DRAW
  6
CONTINUOUS
 62
     7
100
AcDbLine
 10
65.93331415271461
 20
178.0083894968129
 30
0.0
 11
65.53462532062771
 21
177.4596431171225
 31
0.0
  0
LINE
  5
3FF8
330
A
100
AcDbEntity
  8
DRAW
  6
CONTINUOUS
 62
     7
100
AcDbLine
 10
65.2994534419596
 20
177.5360554754988
 30
0.0
 11
65.29945298709806
 21
177.2387602897193
 31
0.0
  0
LINE
  5
3FF9
330
A
100
AcDbEntity
  8
DRAW
  6
CONTINUOUS
 62
     7
100
AcDbLine
 10
65.5346253206277
 20
177.459643117123
 30
0.0
 11
65.37414379417533
 21
177.2387602899242
 31
0.0
  0
LINE
  5
3FFA
330
A
100
AcDbEntity
  8
DRAW
  6
CONTINUOUS
 62
     7
100
AcDbLine
 10
65.97151157117389
 20
178.9359564209335
 30
0.0
 11
65.97151101913929
 21
178.5751494277172
 31
0.0
  0
ARC
  5
3FFB
330
A
100
AcDbEntity
  8
DRAW
  6
CONTINUOUS
 62
     7
100
AcDbCircle
 10
62.74411771360167
 20
182.9109612841202
 30
0.0
 40
2.162499959345
100
AcDbArc
 50
342.5075873374745
 51
17.49223733747257
  0
LINE
  5
3FFC
330
A
100
AcDbEntity
  8
DRAW
  6
CONTINUOUS
 62
     7
100
AcDbLine
 10
64.60661668408476
 20
182.2609584467163
 30
0.0
 11
64.80661668032448
 21
182.2609581407164
 31
0.0
  0
LINE
  5
3FFD
330
A
100
AcDbEntity
  8
DRAW
  6
CONTINUOUS
 62
     7
100
AcDbLine
 10
64.6066186730842
 20
183.5609584222747
 30
0.0
 11
64.8066186693239
 21
183.5609581162747
 31
0.0
  0
LINE
  5
3FFE
330
A
100
AcDbEntity
  8
DRAW
  6
CONTINUOUS
 62
     7
100
AcDbLine
 10
64.80661866932371
 20
183.5609581162752
 30
0.0
 11
64.80661668032415
 21
182.2609581407169
 31
0.0
  0
LINE
  5
3FFF
330
A
100
AcDbEntity
  8
DRAW
  6
CONTINUOUS
 62
     7
100
AcDbLine
 10
64.60661612270462
 20
181.8940434536152
 30
0.0
 11
66.20665815165259
 21
181.8940410055514
 31
0.0
  0
LINE
  5
4000
330
A
100
AcDbEntity
  8
DRAW
  6
CONTINUOUS
 62
     7
100
AcDbLine
 10
64.60662025369322
 20
184.5940364028519
 30
0.0
 11
66.20665822361054
 21
184.5940339547943
 31
0.0
  0
LINE
  5
4001
330
A
100
AcDbEntity
  8
DRAW
  6
CONTINUOUS
 62
     7
100
AcDbLine
 10
58.70674355067524
 20
208.6060672715025
 30
0.0
 11
61.5067434980353
 21
208.6060672715025
 31
0.0
  0
LINE
  5
4002
330
A
100
AcDbEntity
  8
DRAW
  6
CONTINUOUS
 62
     7
100
AcDbLine
 10
59.50674353563511
 20
211.3560672198027
 30
0.0
 11
60.70674351307504
 21
211.3560672198027
 31
0.0
  0
LINE
  5
4003
330
A
100
AcDbEntity
  8
DRAW
  6
CONTINUOUS
 62
     7
100
AcDbLine
 10
57.90674356571492
 20
208.6060672715025
 30
0.0
 11
55.10674361835495
 21
208.6060672715025
 31
0.0
  0
LINE
  5
4004
330
A
100
AcDbEntity
  8
DRAW
  6
CONTINUOUS
 62
     7
100
AcDbLine
 10
55.90674360331525
 20
211.3560672198027
 30
0.0
 11
57.10674358075529
 21
211.3560672198027
 31
0.0
  0
LINE
  5
4005
330
A
100
AcDbEntity
  8
DRAW
  6
CONTINUOUS
 62
     7
100
AcDbLine
 10
54.50674362963503
 20
210.5560672348433
 30
0.0
 11
53.70674364467496
 21
211.3560672198026
 31
0.0
  0
LINE
  5
4006
330
A
100
AcDbEntity
  8
DRAW
  6
CONTINUOUS
 62
     7
100
AcDbLine
 10
53.70674364467515
 20
211.3560672198027
 30
0.0
 11
52.50674366723521
 21
211.3560672198027
 31
0.0
  0
LINE
  5
4007
330
A
100
AcDbEntity
  8
DRAW
  6
CONTINUOUS
 62
     7
100
AcDbLine
 10
54.50674362963503
 20
208.6060672715025
 30
0.0
 11
54.50674362963503
 21
210.5560672348432
 31
0.0
  0
LINE
  5
4008
330
A
100
AcDbEntity
  8
DRAW
  6
CONTINUOUS
 62
     7
100
AcDbLine
 10
55.10674361835492
 20
208.6060672715025
 30
0.0
 11
55.10674361835492
 21
210.5560672348432
 31
0.0
  0
LINE
  5
4009
330
A
100
AcDbEntity
  8
DRAW
  6
CONTINUOUS
 62
     7
100
AcDbLine
 10
55.10674361835492
 20
210.5560672348433
 30
0.0
 11
55.90674360331489
 21
211.3560672198026
 31
0.0
  0
LINE
  5
400A
330
A
100
AcDbEntity
  8
DRAW
  6
CONTINUOUS
 62
     7
100
AcDbLine
 10
57.90674356571492
 20
210.5560672348433
 30
0.0
 11
57.10674358075497
 21
211.3560672198026
 31
0.0
  0
LINE
  5
400B
330
A
100
AcDbEntity
  8
DRAW
  6
CONTINUOUS
 62
     7
100
AcDbLine
 10
57.90674356571492
 20
208.6060672715025
 30
0.0
 11
57.90674356571492
 21
210.5560672348432
 31
0.0
  0
LINE
  5
400C
330
A
100
AcDbEntity
  8
DRAW
  6
CONTINUOUS
 62
     7
100
AcDbLine
 10
59.50674353563511
 20
211.3560672198027
 30
0.0
 11
58.70674355067504
 21
210.5560672348434
 31
0.0
  0
LINE
  5
400D
330
A
100
AcDbEntity
  8
DRAW
  6
CONTINUOUS
 62
     7
100
AcDbLine
 10
58.70674355067524
 20
208.6060672715025
 30
0.0
 11
58.70674355067524
 21
210.5560672348432
 31
0.0
  0
LINE
  5
400E
330
A
100
AcDbEntity
  8
DRAW
  6
CONTINUOUS
 62
     7
100
AcDbLine
 10
66.20667098971683
 20
192.9378957979197
 30
0.0
 11
66.20669347866971
 21
207.6365605215676
 31
0.0
  0
ARC
  5
400F
330
A
100
AcDbEntity
  8
DRAW
  6
CONTINUOUS
 62
     7
100
AcDbCircle
 10
65.90667099535733
 20
192.9378962569198
 30
0.0
 40
0.29999999436
100
AcDbArc
 50
269.9999123374737
 51
359.9999123374676
  0
LINE
  5
4010
330
A
100
AcDbEntity
  8
DRAW
  6
CONTINUOUS
 62
     7
100
AcDbLine
 10
64.60663256079953
 20
192.637898251618
 30
0.0
 11
65.90667053635728
 21
192.6378962625603
 31
0.0
  0
LINE
  5
4011
330
A
100
AcDbEntity
  8
DRAW
  6
CONTINUOUS
 62
     7
100
AcDbLine
 10
64.90674343411512
 20
210.5560672348433
 30
0.0
 11
64.10674344915516
 21
211.3560672198026
 31
0.0
  0
LINE
  5
4012
330
A
100
AcDbEntity
  8
DRAW
  6
CONTINUOUS
 62
     7
100
AcDbLine
 10
64.90674343411512
 20
208.6060672715025
 30
0.0
 11
62.10674348675516
 21
208.6060672715025
 31
0.0
  0
LINE
  5
4013
330
A
100
AcDbEntity
  8
DRAW
  6
CONTINUOUS
 62
     7
100
AcDbLine
 10
62.10674348675514
 20
210.5560672348433
 30
0.0
 11
62.90674347171509
 21
211.3560672198026
 31
0.0
  0
LINE
  5
4014
330
A
100
AcDbEntity
  8
DRAW
  6
CONTINUOUS
 62
     7
100
AcDbLine
 10
62.10674348675514
 20
208.6060672715025
 30
0.0
 11
62.10674348675514
 21
210.5560672348432
 31
0.0
  0
LINE
  5
4015
330
A
100
AcDbEntity
  8
DRAW
  6
CONTINUOUS
 62
     7
100
AcDbLine
 10
61.50674349803523
 20
210.5560672348433
 30
0.0
 11
60.70674351307516
 21
211.3560672198026
 31
0.0
  0
LINE
  5
4016
330
A
100
AcDbEntity
  8
DRAW
  6
CONTINUOUS
 62
     7
100
AcDbLine
 10
61.50674349803523
 20
208.6060672715025
 30
0.0
 11
61.50674349803523
 21
210.5560672348432
 31
0.0
  0
LINE
  5
4017
330
A
100
AcDbEntity
  8
DRAW
  6
CONTINUOUS
 62
     7
100
AcDbLine
 10
62.906743471715
 20
211.3560672198027
 30
0.0
 11
64.10674344915505
 21
211.3560672198027
 31
0.0
  0
LINE
  5
4018
330
A
100
AcDbEntity
  8
DRAW
  6
CONTINUOUS
 62
     7
100
AcDbLine
 10
64.85668874460782
 20
204.5258146455525
 30
0.0
 11
66.20668871922614
 21
204.5258125800529
 31
0.0
  0
LINE
  5
4019
330
A
100
AcDbEntity
  8
DRAW
  6
CONTINUOUS
 62
     7
100
AcDbLine
 10
64.8566861436085
 20
202.8258146775151
 30
0.0
 11
66.20668611822681
 21
202.8258126120156
 31
0.0
  0
LINE
  5
401A
330
A
100
AcDbEntity
  8
DRAW
  6
CONTINUOUS
 62
     7
100
AcDbLine
 10
64.85669198815651
 20
206.6457816056954
 30
0.0
 11
64.85668614360817
 21
202.8258146775153
 31
0.0
  0
ARC
  5
401B
330
A
100
AcDbEntity
  8
DRAW
  6
CONTINUOUS
 62
     7
100
AcDbCircle
 10
65.70669258422606
 20
207.0458132976745
 30
0.0
 40
0.4999999906000001
100
AcDbArc
 50
359.9999123374741
 51
89.99991233747412
  0
ARC
  5
401C
330
A
100
AcDbEntity
  8
DRAW
  6
CONTINUOUS
 62
     7
100
AcDbCircle
 10
65.70669348807007
 20
207.6365612865674
 30
0.0
 40
0.4999999906000001
100
AcDbArc
 50
359.9999123374741
 51
89.99991233747412
  0
LINE
  5
401D
330
A
100
AcDbEntity
  8
DRAW
  6
CONTINUOUS
 62
     7
100
AcDbLine
 10
64.90674343411512
 20
208.6060672715025
 30
0.0
 11
64.90674343411512
 21
210.5560672348432
 31
0.0
  0
ARC
  5
401E
330
A
100
AcDbEntity
  8
DRAW
  6
CONTINUOUS
 62
     7
100
AcDbCircle
 10
52.95674365877506
 20
215.8060671361436
 30
0.0
 40
1.199999977439999
100
AcDbArc
 50
180.0
 51
270.0
  0
LINE
  5
401F
330
A
100
AcDbEntity
  8
DRAW
  6
CONTINUOUS
 62
     7
100
AcDbLine
 10
51.70674368227503
 20
220.8060670421432
 30
0.0
 11
54.50674362963511
 21
220.8060670421432
 31
0.0
  0
ARC
  5
4020
330
A
100
AcDbEntity
  8
DRAW
  6
CONTINUOUS
 62
     7
100
AcDbCircle
 10
52.95674365877506
 20
217.136069111138
 30
0.0
 40
1.199999977439999
100
AcDbArc
 50
90.0
 51
180.0
  0
LINE
  5
4021
330
A
100
AcDbEntity
  8
DRAW
  6
CONTINUOUS
 62
     7
100
AcDbLine
 10
65.70674341907499
 20
220.0304010567265
 30
0.0
 11
50.90674369731504
 21
220.0304010567265
 31
0.0
  0
LINE
  5
4022
330
A
100
AcDbEntity
  8
DRAW
  6
CONTINUOUS
 62
     7
100
AcDbLine
 10
51.70674368227503
 20
222.7560670054822
 30
0.0
 11
52.5067436672351
 21
223.5560669904433
 31
0.0
  0
ARC
  5
4023
330
A
100
AcDbEntity
  8
DRAW
  6
CONTINUOUS
 62
     7
100
AcDbCircle
 10
52.95674365877506
 20
229.3360688817788
 30
0.0
 40
1.199999977439999
100
AcDbArc
 50
90.0
 51
180.0
  0
ARC
  5
4024
330
A
100
AcDbEntity
  8
DRAW
  6
CONTINUOUS
 62
     7
100
AcDbCircle
 10
52.95674365877506
 20
228.0060669067825
 30
0.0
 40
1.199999977439999
100
AcDbArc
 50
180.0
 51
270.0
  0
LINE
  5
4025
330
A
100
AcDbEntity
  8
DRAW
  6
CONTINUOUS
 62
     7
100
AcDbLine
 10
52.5067436672349
 20
235.7560667610823
 30
0.0
 11
51.70674368227484
 21
234.956066776123
 31
0.0
  0
LINE
  5
4026
330
A
100
AcDbEntity
  8
DRAW
  6
CONTINUOUS
 62
     7
100
AcDbLine
 10
51.70674368227503
 20
233.0060668127821
 30
0.0
 11
54.50674362963511
 21
233.0060668127821
 31
0.0
  0
ARC
  5
4027
330
A
100
AcDbEntity
  8
DRAW
  6
CONTINUOUS
 62
     7
100
AcDbCircle
 10
52.95674365877506
 20
239.9873666815351
 30
0.0
 40
1.199999977439999
100
AcDbArc
 50
180.0
 51
270.0
  0
LINE
  5
4028
330
A
100
AcDbEntity
  8
DRAW
  6
CONTINUOUS
 62
     7
100
AcDbLine
 10
50.90674369731516
 20
232.2216738275292
 30
0.0
 11
65.70674341907512
 21
232.2216738275292
 31
0.0
  0
ARC
  5
4029
330
A
100
AcDbEntity
  8
DRAW
  6
CONTINUOUS
 62
     7
100
AcDbCircle
 10
52.95674365877506
 20
241.5360686524177
 30
0.0
 40
1.199999977439999
100
AcDbArc
 50
90.0
 51
180.0
  0
LINE
  5
402A
330
A
100
AcDbEntity
  8
DRAW
  6
CONTINUOUS
 62
     7
100
AcDbLine
 10
65.70675099320045
 20
245.2216205799241
 30
0.0
 11
50.90675127145776
 21
245.2216432239195
 31
0.0
  0
LINE
  5
402B
330
A
100
AcDbEntity
  8
DRAW
  6
CONTINUOUS
 62
     7
100
AcDbLine
 10
50.40673147492054
 20
232.2765842323024
 30
0.0
 11
50.40675051585846
 21
244.7216439983207
 31
0.0
  0
LINE
  5
402C
330
A
100
AcDbEntity
  8
DRAW
  6
CONTINUOUS
 62
     7
100
AcDbLine
 10
50.40674370671524
 20
219.5304010661261
 30
0.0
 11
50.40674370671524
 21
231.7216738369288
 31
0.0
  0
LINE
  5
402D
330
A
100
AcDbEntity
  8
DRAW
  6
CONTINUOUS
 62
     7
100
AcDbLine
 10
51.75674368133525
 20
217.136069111138
 30
0.0
 11
51.75674368133525
 21
215.8060671361433
 31
0.0
  0
ARC
  5
402E
330
A
100
AcDbEntity
  8
DRAW
  6
CONTINUOUS
 62
     7
100
AcDbCircle
 10
50.90674369731516
 20
219.5304010661261
 30
0.0
 40
0.4999999906000001
100
AcDbArc
 50
90.0
 51
180.0
  0
LINE
  5
402F
330
A
100
AcDbEntity
  8
DRAW
  6
CONTINUOUS
 62
     7
100
AcDbLine
 10
51.70674368227503
 20
220.8060670421432
 30
0.0
 11
51.70674368227503
 21
222.7560670054821
 31
0.0
  0
ARC
  5
4030
330
A
100
AcDbEntity
  8
DRAW
  6
CONTINUOUS
 62
     7
100
AcDbCircle
 10
50.90674369731516
 20
231.7216738369288
 30
0.0
 40
0.4999999906000001
100
AcDbArc
 50
90.0
 51
180.0
  0
LINE
  5
4031
330
A
100
AcDbEntity
  8
DRAW
  6
CONTINUOUS
 62
     7
100
AcDbLine
 10
51.75674368133525
 20
229.3360688817788
 30
0.0
 11
51.75674368133525
 21
228.0060669067822
 31
0.0
  0
LINE
  5
4032
330
A
100
AcDbEntity
  8
DRAW
  6
CONTINUOUS
 62
     7
100
AcDbLine
 10
51.70674368227503
 20
233.0060668127821
 30
0.0
 11
51.70674368227503
 21
234.9560667761228
 31
0.0
  0
LINE
  5
4033
330
A
100
AcDbEntity
  8
DRAW
  6
CONTINUOUS
 62
     7
100
AcDbLine
 10
51.75674368133525
 20
241.5360686524177
 30
0.0
 11
51.75674368133525
 21
239.9873666815351
 31
0.0
  0
ARC
  5
4034
330
A
100
AcDbEntity
  8
DRAW
  6
CONTINUOUS
 62
     7
100
AcDbCircle
 10
50.9067505064578
 20
244.7216432333207
 30
0.0
 40
0.4999999906000001
100
AcDbArc
 50
89.99991233747328
 51
179.9999123374725
  0
LINE
  5
4035
330
A
100
AcDbEntity
  8
DRAW
  6
CONTINUOUS
 62
     7
100
AcDbLine
 10
50.40675051585833
 20
244.7216439983203
 30
0.0
 11
50.40675066885831
 21
244.8216439964403
 31
0.0
  0
LINE
  5
4036
330
A
100
AcDbEntity
  8
DRAW
  6
CONTINUOUS
 62
     7
100
AcDbLine
 10
50.90675127145789
 20
245.2216432239201
 30
0.0
 11
50.80675127333798
 21
245.2216433769201
 31
0.0
  0
LINE
  5
4037
330
A
100
AcDbEntity
  8
DRAW
  6
CONTINUOUS
 62
     7
100
AcDbLine
 10
66.20673117786203
 20
232.276560058307
 30
0.0
 11
66.20675021879995
 21
244.7216198243253
 31
0.0
  0
TEXT
  5
4038
330
A
100
AcDbEntity
  8
DRAW-TEXT
100
AcDbText
 10
62.97119548003512
 20
236.8028167577299
 30
0.0
 40
1.399999976158142
  1
11
 41
0.95
  7
TSTYLE6
100
AcDbText
  0
TEXT
  5
4039
330
A
100
AcDbEntity
  8
DRAW-TEXT
100
AcDbText
 10
56.78113500339633
 20
236.7818245091088
 30
0.0
 40
1.399999976158142
  1
COM
 41
0.95
  7
TSTYLE6
100
AcDbText
  0
TEXT
  5
403A
330
A
100
AcDbEntity
  8
DRAW-TEXT
100
AcDbText
 10
61.44166596730233
 20
236.7218082085642
 30
0.0
 40
1.199999928474426
  1
3
 41
0.95
  7
TSTYLE5
100
AcDbText
  0
TEXT
  5
403B
330
A
100
AcDbEntity
  8
DRAW-TEXT
100
AcDbText
 10
52.6332098922163
 20
236.8180419050818
 30
0.0
 40
1.399999976158142
  1
21
 41
0.95
  7
TSTYLE6
100
AcDbText
  0
TEXT
  5
403C
330
A
100
AcDbEntity
  8
DRAW-TEXT
100
AcDbText
 10
55.30264914281665
 20
236.7218082085642
 30
0.0
 40
1.199999928474426
  1
6
 41
0.95
  7
TSTYLE5
100
AcDbText
  0
LINE
  5
403D
330
A
100
AcDbEntity
  8
DRAW
  6
CONTINUOUS
 62
     7
100
AcDbLine
 10
60.70674351307491
 20
223.5560669904434
 30
0.0
 11
59.50674353563498
 21
223.5560669904434
 31
0.0
  0
LINE
  5
403E
330
A
100
AcDbEntity
  8
DRAW
  6
CONTINUOUS
 62
     7
100
AcDbLine
 10
59.85674352905528
 20
226.8060669293436
 30
0.0
 11
63.65674345761523
 21
226.8060669293436
 31
0.0
  0
LINE
  5
403F
330
A
100
AcDbEntity
  8
DRAW
  6
CONTINUOUS
 62
     7
100
AcDbLine
 10
59.85674352905528
 20
230.5360688592177
 30
0.0
 11
63.65674345761523
 21
230.5360688592177
 31
0.0
  0
LINE
  5
4040
330
A
100
AcDbEntity
  8
DRAW
  6
CONTINUOUS
 62
     7
100
AcDbLine
 10
58.70674355067524
 20
233.0060668127821
 30
0.0
 11
61.5067434980353
 21
233.0060668127821
 31
0.0
  0
LINE
  5
4041
330
A
100
AcDbEntity
  8
DRAW
  6
CONTINUOUS
 62
     7
100
AcDbLine
 10
59.50674353563511
 20
235.7560667610823
 30
0.0
 11
60.70674351307504
 21
235.7560667610823
 31
0.0
  0
LINE
  5
4042
330
A
100
AcDbEntity
  8
DRAW
  6
CONTINUOUS
 62
     7
100
AcDbLine
 10
58.70674355067524
 20
220.8060670421432
 30
0.0
 11
61.5067434980353
 21
220.8060670421432
 31
0.0
  0
LINE
  5
4043
330
A
100
AcDbEntity
  8
DRAW
  6
CONTINUOUS
 62
     7
100
AcDbLine
 10
59.85674352905528
 20
218.3360690885788
 30
0.0
 11
63.65674345761523
 21
218.3360690885788
 31
0.0
  0
LINE
  5
4044
330
A
100
AcDbEntity
  8
DRAW
  6
CONTINUOUS
 62
     7
100
AcDbLine
 10
59.85674352905528
 20
214.6060671587028
 30
0.0
 11
63.65674345761523
 21
214.6060671587028
 31
0.0
  0
TEXT
  5
4045
330
A
100
AcDbEntity
  8
DRAW-TEXT
100
AcDbText
 10
57.75585681854828
 20
224.6071277030523
 30
0.0
 40
1.399999976158142
  1
NO
 41
0.95
  7
TSTYLE6
100
AcDbText
  0
TEXT
  5
4046
330
A
100
AcDbEntity
  8
DRAW-TEXT
100
AcDbText
 10
52.63505536462263
 20
224.6324645012964
 30
0.0
 40
1.399999976158142
  1
24
 41
0.95
  7
TSTYLE6
100
AcDbText
  0
TEXT
  5
4047
330
A
100
AcDbEntity
  8
DRAW-TEXT
100
AcDbText
 10
55.30264914281665
 20
224.5217938279342
 30
0.0
 40
1.199999928474426
  1
5
 41
0.95
  7
TSTYLE5
100
AcDbText
  0
LINE
  5
4048
330
A
100
AcDbEntity
  8
DRAW
  6
CONTINUOUS
 62
     7
100
AcDbLine
 10
56.75674358733488
 20
218.3360690885788
 30
0.0
 11
52.95674365877481
 21
218.3360690885788
 31
0.0
  0
LINE
  5
4049
330
A
100
AcDbEntity
  8
DRAW
  6
CONTINUOUS
 62
     7
100
AcDbLine
 10
56.75674358733488
 20
214.6060671587028
 30
0.0
 11
52.95674365877481
 21
214.6060671587028
 31
0.0
  0
LINE
  5
404A
330
A
100
AcDbEntity
  8
DRAW
  6
CONTINUOUS
 62
     7
100
AcDbLine
 10
57.90674356571492
 20
220.8060670421432
 30
0.0
 11
55.10674361835495
 21
220.8060670421432
 31
0.0
  0
LINE
  5
404B
330
A
100
AcDbEntity
  8
DRAW
  6
CONTINUOUS
 62
     7
100
AcDbLine
 10
57.10674358075505
 20
223.5560669904434
 30
0.0
 11
55.90674360331501
 21
223.5560669904434
 31
0.0
  0
LINE
  5
404C
330
A
100
AcDbEntity
  8
DRAW
  6
CONTINUOUS
 62
     7
100
AcDbLine
 10
54.50674362963503
 20
222.7560670054822
 30
0.0
 11
53.70674364467496
 21
223.5560669904433
 31
0.0
  0
LINE
  5
404D
330
A
100
AcDbEntity
  8
DRAW
  6
CONTINUOUS
 62
     7
100
AcDbLine
 10
53.70674364467515
 20
223.5560669904434
 30
0.0
 11
52.50674366723521
 21
223.5560669904434
 31
0.0
  0
LINE
  5
404E
330
A
100
AcDbEntity
  8
DRAW
  6
CONTINUOUS
 62
     7
100
AcDbLine
 10
55.90674360331525
 20
223.5560669904434
 30
0.0
 11
55.10674361835528
 21
222.7560670054824
 31
0.0
  0
LINE
  5
404F
330
A
100
AcDbEntity
  8
DRAW
  6
CONTINUOUS
 62
     7
100
AcDbLine
 10
54.50674362963503
 20
220.8060670421432
 30
0.0
 11
54.50674362963503
 21
222.7560670054821
 31
0.0
  0
LINE
  5
4050
330
A
100
AcDbEntity
  8
DRAW
  6
CONTINUOUS
 62
     7
100
AcDbLine
 10
55.10674361835492
 20
220.8060670421432
 30
0.0
 11
55.10674361835492
 21
222.7560670054821
 31
0.0
  0
ARC
  5
4051
330
A
100
AcDbEntity
  8
DRAW
  6
CONTINUOUS
 62
     7
100
AcDbCircle
 10
56.8067435863951
 20
215.8060671361436
 30
0.0
 40
1.199999977439999
100
AcDbArc
 50
270.0
 51
0.0
  0
LINE
  5
4052
330
A
100
AcDbEntity
  8
DRAW
  6
CONTINUOUS
 62
     7
100
AcDbLine
 10
58.0067435638349
 20
215.8060671361436
 30
0.0
 11
58.0067435638349
 21
217.1360691111383
 31
0.0
  0
ARC
  5
4053
330
A
100
AcDbEntity
  8
DRAW
  6
CONTINUOUS
 62
     7
100
AcDbCircle
 10
56.8067435863951
 20
217.136069111138
 30
0.0
 40
1.199999977439999
100
AcDbArc
 50
0.0
 51
90.0
  0
ARC
  5
4054
330
A
100
AcDbEntity
  8
DRAW
  6
CONTINUOUS
 62
     7
100
AcDbCircle
 10
59.80674352999506
 20
215.8060671361436
 30
0.0
 40
1.199999977439999
100
AcDbArc
 50
180.0
 51
270.0
  0
LINE
  5
4055
330
A
100
AcDbEntity
  8
DRAW
  6
CONTINUOUS
 62
     7
100
AcDbLine
 10
58.60674355255525
 20
215.8060671361436
 30
0.0
 11
58.60674355255525
 21
217.1360691111383
 31
0.0
  0
ARC
  5
4056
330
A
100
AcDbEntity
  8
DRAW
  6
CONTINUOUS
 62
     7
100
AcDbCircle
 10
59.80674352999506
 20
217.136069111138
 30
0.0
 40
1.199999977439999
100
AcDbArc
 50
90.0
 51
180.0
  0
LINE
  5
4057
330
A
100
AcDbEntity
  8
DRAW
  6
CONTINUOUS
 62
     7
100
AcDbLine
 10
57.90674356571492
 20
222.7560670054822
 30
0.0
 11
57.10674358075497
 21
223.5560669904433
 31
0.0
  0
LINE
  5
4058
330
A
100
AcDbEntity
  8
DRAW
  6
CONTINUOUS
 62
     7
100
AcDbLine
 10
57.90674356571492
 20
220.8060670421432
 30
0.0
 11
57.90674356571492
 21
222.7560670054821
 31
0.0
  0
LINE
  5
4059
330
A
100
AcDbEntity
  8
DRAW
  6
CONTINUOUS
 62
     7
100
AcDbLine
 10
59.50674353563511
 20
223.5560669904434
 30
0.0
 11
58.70674355067504
 21
222.7560670054824
 31
0.0
  0
LINE
  5
405A
330
A
100
AcDbEntity
  8
DRAW
  6
CONTINUOUS
 62
     7
100
AcDbLine
 10
58.70674355067524
 20
220.8060670421432
 30
0.0
 11
58.70674355067524
 21
222.7560670054821
 31
0.0
  0
LINE
  5
405B
330
A
100
AcDbEntity
  8
DRAW
  6
CONTINUOUS
 62
     7
100
AcDbLine
 10
55.90674360331525
 20
235.7560667610823
 30
0.0
 11
57.10674358075529
 21
235.7560667610823
 31
0.0
  0
LINE
  5
405C
330
A
100
AcDbEntity
  8
DRAW
  6
CONTINUOUS
 62
     7
100
AcDbLine
 10
56.75674358733488
 20
226.8060669293436
 30
0.0
 11
52.95674365877481
 21
226.8060669293436
 31
0.0
  0
LINE
  5
405D
330
A
100
AcDbEntity
  8
DRAW
  6
CONTINUOUS
 62
     7
100
AcDbLine
 10
56.75674358733488
 20
230.5360688592177
 30
0.0
 11
52.95674365877481
 21
230.5360688592177
 31
0.0
  0
LINE
  5
405E
330
A
100
AcDbEntity
  8
DRAW
  6
CONTINUOUS
 62
     7
100
AcDbLine
 10
57.90674356571492
 20
233.0060668127821
 30
0.0
 11
55.10674361835495
 21
233.0060668127821
 31
0.0
  0
LINE
  5
405F
330
A
100
AcDbEntity
  8
DRAW
  6
CONTINUOUS
 62
     7
100
AcDbLine
 10
54.50674362963503
 20
234.9560667761229
 30
0.0
 11
53.70674364467496
 21
235.7560667610822
 31
0.0
  0
LINE
  5
4060
330
A
100
AcDbEntity
  8
DRAW
  6
CONTINUOUS
 62
     7
100
AcDbLine
 10
52.5067436672349
 20
235.7560667610823
 30
0.0
 11
53.70674364467484
 21
235.7560667610823
 31
0.0
  0
LINE
  5
4061
330
A
100
AcDbEntity
  8
DRAW
  6
CONTINUOUS
 62
     7
100
AcDbLine
 10
54.50674362963503
 20
233.0060668127821
 30
0.0
 11
54.50674362963503
 21
234.9560667761228
 31
0.0
  0
LINE
  5
4062
330
A
100
AcDbEntity
  8
DRAW
  6
CONTINUOUS
 62
     7
100
AcDbLine
 10
55.10674361835492
 20
233.0060668127821
 30
0.0
 11
55.10674361835492
 21
234.9560667761228
 31
0.0
  0
LINE
  5
4063
330
A
100
AcDbEntity
  8
DRAW
  6
CONTINUOUS
 62
     7
100
AcDbLine
 10
55.10674361835492
 20
234.9560667761229
 30
0.0
 11
55.90674360331489
 21
235.7560667610822
 31
0.0
  0
ARC
  5
4064
330
A
100
AcDbEntity
  8
DRAW
  6
CONTINUOUS
 62
     7
100
AcDbCircle
 10
56.8067435863951
 20
229.3360688817788
 30
0.0
 40
1.199999977439999
100
AcDbArc
 50
0.0
 51
90.0
  0
LINE
  5
4065
330
A
100
AcDbEntity
  8
DRAW
  6
CONTINUOUS
 62
     7
100
AcDbLine
 10
58.0067435638349
 20
228.0060669067825
 30
0.0
 11
58.0067435638349
 21
229.3360688817791
 31
0.0
  0
ARC
  5
4066
330
A
100
AcDbEntity
  8
DRAW
  6
CONTINUOUS
 62
     7
100
AcDbCircle
 10
56.8067435863951
 20
228.0060669067825
 30
0.0
 40
1.199999977439999
100
AcDbArc
 50
270.0
 51
0.0
  0
ARC
  5
4067
330
A
100
AcDbEntity
  8
DRAW
  6
CONTINUOUS
 62
     7
100
AcDbCircle
 10
59.80674352999506
 20
229.3360688817788
 30
0.0
 40
1.199999977439999
100
AcDbArc
 50
90.0
 51
180.0
  0
LINE
  5
4068
330
A
100
AcDbEntity
  8
DRAW
  6
CONTINUOUS
 62
     7
100
AcDbLine
 10
58.60674355255525
 20
228.0060669067825
 30
0.0
 11
58.60674355255525
 21
229.3360688817791
 31
0.0
  0
ARC
  5
4069
330
A
100
AcDbEntity
  8
DRAW
  6
CONTINUOUS
 62
     7
100
AcDbCircle
 10
59.80674352999506
 20
228.0060669067825
 30
0.0
 40
1.199999977439999
100
AcDbArc
 50
180.0
 51
270.0
  0
LINE
  5
406A
330
A
100
AcDbEntity
  8
DRAW
  6
CONTINUOUS
 62
     7
100
AcDbLine
 10
57.90674356571492
 20
234.9560667761229
 30
0.0
 11
57.10674358075497
 21
235.7560667610822
 31
0.0
  0
LINE
  5
406B
330
A
100
AcDbEntity
  8
DRAW
  6
CONTINUOUS
 62
     7
100
AcDbLine
 10
57.90674356571492
 20
233.0060668127821
 30
0.0
 11
57.90674356571492
 21
234.9560667761228
 31
0.0
  0
LINE
  5
406C
330
A
100
AcDbEntity
  8
DRAW
  6
CONTINUOUS
 62
     7
100
AcDbLine
 10
59.50674353563511
 20
235.7560667610823
 30
0.0
 11
58.70674355067504
 21
234.956066776123
 31
0.0
  0
LINE
  5
406D
330
A
100
AcDbEntity
  8
DRAW
  6
CONTINUOUS
 62
     7
100
AcDbLine
 10
58.70674355067524
 20
233.0060668127821
 30
0.0
 11
58.70674355067524
 21
234.9560667761228
 31
0.0
  0
LINE
  5
406E
330
A
100
AcDbEntity
  8
DRAW
  6
CONTINUOUS
 62
     7
100
AcDbLine
 10
66.20674340967491
 20
219.5304010661261
 30
0.0
 11
66.20674340967491
 21
231.7216738369288
 31
0.0
  0
TEXT
  5
406F
330
A
100
AcDbEntity
  8
DRAW-TEXT
100
AcDbText
 10
62.77979980665269
 20
224.6300038714216
 30
0.0
 40
1.399999976158142
  1
14
 41
0.95
  7
TSTYLE6
100
AcDbText
  0
TEXT
  5
4070
330
A
100
AcDbEntity
  8
DRAW-TEXT
100
AcDbText
 10
61.44166596730233
 20
224.5217938279342
 30
0.0
 40
1.199999928474426
  1
4
 41
0.95
  7
TSTYLE5
100
AcDbText
  0
LINE
  5
4071
330
A
100
AcDbEntity
  8
DRAW
  6
CONTINUOUS
 62
     7
100
AcDbLine
 10
64.90674343411512
 20
222.7560670054822
 30
0.0
 11
64.10674344915516
 21
223.5560669904433
 31
0.0
  0
ARC
  5
4072
330
A
100
AcDbEntity
  8
DRAW
  6
CONTINUOUS
 62
     7
100
AcDbCircle
 10
63.65674345761511
 20
215.8060671361436
 30
0.0
 40
1.199999977439999
100
AcDbArc
 50
270.0
 51
0.0
  0
LINE
  5
4073
330
A
100
AcDbEntity
  8
DRAW
  6
CONTINUOUS
 62
     7
100
AcDbLine
 10
64.90674343411512
 20
220.8060670421432
 30
0.0
 11
62.10674348675516
 21
220.8060670421432
 31
0.0
  0
ARC
  5
4074
330
A
100
AcDbEntity
  8
DRAW
  6
CONTINUOUS
 62
     7
100
AcDbCircle
 10
63.65674345761511
 20
217.136069111138
 30
0.0
 40
1.199999977439999
100
AcDbArc
 50
0.0
 51
90.0
  0
LINE
  5
4075
330
A
100
AcDbEntity
  8
DRAW
  6
CONTINUOUS
 62
     7
100
AcDbLine
 10
62.10674348675514
 20
222.7560670054822
 30
0.0
 11
62.90674347171509
 21
223.5560669904433
 31
0.0
  0
LINE
  5
4076
330
A
100
AcDbEntity
  8
DRAW
  6
CONTINUOUS
 62
     7
100
AcDbLine
 10
61.50674349803523
 20
222.7560670054822
 30
0.0
 11
60.70674351307516
 21
223.5560669904433
 31
0.0
  0
LINE
  5
4077
330
A
100
AcDbEntity
  8
DRAW
  6
CONTINUOUS
 62
     7
100
AcDbLine
 10
61.50674349803523
 20
220.8060670421432
 30
0.0
 11
61.50674349803523
 21
222.7560670054821
 31
0.0
  0
LINE
  5
4078
330
A
100
AcDbEntity
  8
DRAW
  6
CONTINUOUS
 62
     7
100
AcDbLine
 10
62.10674348675514
 20
220.8060670421432
 30
0.0
 11
62.10674348675514
 21
222.7560670054821
 31
0.0
  0
LINE
  5
4079
330
A
100
AcDbEntity
  8
DRAW
  6
CONTINUOUS
 62
     7
100
AcDbLine
 10
64.10674344915526
 20
223.5560669904434
 30
0.0
 11
62.90674347171521
 21
223.5560669904434
 31
0.0
  0
LINE
  5
407A
330
A
100
AcDbEntity
  8
DRAW
  6
CONTINUOUS
 62
     7
100
AcDbLine
 10
64.85674343505491
 20
217.136069111138
 30
0.0
 11
64.85674343505491
 21
215.8060671361433
 31
0.0
  0
LINE
  5
407B
330
A
100
AcDbEntity
  8
DRAW
  6
CONTINUOUS
 62
     7
100
AcDbLine
 10
64.90674343411512
 20
220.8060670421432
 30
0.0
 11
64.90674343411512
 21
222.7560670054821
 31
0.0
  0
ARC
  5
407C
330
A
100
AcDbEntity
  8
DRAW
  6
CONTINUOUS
 62
     7
100
AcDbCircle
 10
65.70674341907499
 20
219.5304010661261
 30
0.0
 40
0.4999999906000001
100
AcDbArc
 50
0.0
 51
90.0
  0
ARC
  5
407D
330
A
100
AcDbEntity
  8
DRAW
  6
CONTINUOUS
 62
     7
100
AcDbCircle
 10
63.65674345761511
 20
229.3360688817788
 30
0.0
 40
1.199999977439999
100
AcDbArc
 50
0.0
 51
90.0
  0
ARC
  5
407E
330
A
100
AcDbEntity
  8
DRAW
  6
CONTINUOUS
 62
     7
100
AcDbCircle
 10
63.65674345761511
 20
228.0060669067825
 30
0.0
 40
1.199999977439999
100
AcDbArc
 50
270.0
 51
0.0
  0
LINE
  5
407F
330
A
100
AcDbEntity
  8
DRAW
  6
CONTINUOUS
 62
     7
100
AcDbLine
 10
64.90674343411512
 20
233.0060668127821
 30
0.0
 11
62.10674348675516
 21
233.0060668127821
 31
0.0
  0
LINE
  5
4080
330
A
100
AcDbEntity
  8
DRAW
  6
CONTINUOUS
 62
     7
100
AcDbLine
 10
64.90674343411512
 20
234.9560667761229
 30
0.0
 11
64.10674344915516
 21
235.7560667610822
 31
0.0
  0
LINE
  5
4081
330
A
100
AcDbEntity
  8
DRAW
  6
CONTINUOUS
 62
     7
100
AcDbLine
 10
62.906743471715
 20
235.7560667610823
 30
0.0
 11
62.10674348675505
 21
234.956066776123
 31
0.0
  0
LINE
  5
4082
330
A
100
AcDbEntity
  8
DRAW
  6
CONTINUOUS
 62
     7
100
AcDbLine
 10
62.10674348675514
 20
234.9560667761229
 30
0.0
 11
62.10674348675514
 21
233.0060668127822
 31
0.0
  0
LINE
  5
4083
330
A
100
AcDbEntity
  8
DRAW
  6
CONTINUOUS
 62
     7
100
AcDbLine
 10
61.50674349803523
 20
234.9560667761229
 30
0.0
 11
60.70674351307516
 21
235.7560667610822
 31
0.0
  0
LINE
  5
4084
330
A
100
AcDbEntity
  8
DRAW
  6
CONTINUOUS
 62
     7
100
AcDbLine
 10
61.50674349803523
 20
233.0060668127821
 30
0.0
 11
61.50674349803523
 21
234.9560667761228
 31
0.0
  0
LINE
  5
4085
330
A
100
AcDbEntity
  8
DRAW
  6
CONTINUOUS
 62
     7
100
AcDbLine
 10
64.10674344915526
 20
235.7560667610823
 30
0.0
 11
62.90674347171521
 21
235.7560667610823
 31
0.0
  0
ARC
  5
4086
330
A
100
AcDbEntity
  8
DRAW
  6
CONTINUOUS
 62
     7
100
AcDbCircle
 10
65.70674341907499
 20
231.7216738369288
 30
0.0
 40
0.4999999906000001
100
AcDbArc
 50
0.0
 51
90.0
  0
LINE
  5
4087
330
A
100
AcDbEntity
  8
DRAW
  6
CONTINUOUS
 62
     7
100
AcDbLine
 10
64.85674343505491
 20
229.3360688817788
 30
0.0
 11
64.85674343505491
 21
228.0060669067822
 31
0.0
  0
LINE
  5
4088
330
A
100
AcDbEntity
  8
DRAW
  6
CONTINUOUS
 62
     7
100
AcDbLine
 10
64.90674343411512
 20
233.0060668127821
 30
0.0
 11
64.90674343411512
 21
234.9560667761228
 31
0.0
  0
LINE
  5
4089
330
A
100
AcDbEntity
  8
DRAW
  6
CONTINUOUS
 62
     7
100
AcDbLine
 10
59.85674352905528
 20
238.7873667040944
 30
0.0
 11
63.65674345761523
 21
238.7873667040944
 31
0.0
  0
LINE
  5
408A
330
A
100
AcDbEntity
  8
DRAW
  6
CONTINUOUS
 62
     7
100
AcDbLine
 10
59.85674352905528
 20
242.7360686298584
 30
0.0
 11
63.65674345761523
 21
242.7360686298584
 31
0.0
  0
LINE
  5
408B
330
A
100
AcDbEntity
  8
DRAW
  6
CONTINUOUS
 62
     7
100
AcDbLine
 10
56.75674358733488
 20
238.7873667040944
 30
0.0
 11
52.95674365877481
 21
238.7873667040944
 31
0.0
  0
LINE
  5
408C
330
A
100
AcDbEntity
  8
DRAW
  6
CONTINUOUS
 62
     7
100
AcDbLine
 10
56.75674358733488
 20
242.7360686298584
 30
0.0
 11
52.95674365877481
 21
242.7360686298584
 31
0.0
  0
ARC
  5
408D
330
A
100
AcDbEntity
  8
DRAW
  6
CONTINUOUS
 62
     7
100
AcDbCircle
 10
56.8067435863951
 20
239.9873666815351
 30
0.0
 40
1.199999977439999
100
AcDbArc
 50
270.0
 51
0.0
  0
ARC
  5
408E
330
A
100
AcDbEntity
  8
DRAW
  6
CONTINUOUS
 62
     7
100
AcDbCircle
 10
56.8067435863951
 20
241.5360686524177
 30
0.0
 40
1.199999977439999
100
AcDbArc
 50
0.0
 51
90.0
  0
LINE
  5
408F
330
A
100
AcDbEntity
  8
DRAW
  6
CONTINUOUS
 62
     7
100
AcDbLine
 10
58.0067435638349
 20
239.9873666815351
 30
0.0
 11
58.0067435638349
 21
241.5360686524177
 31
0.0
  0
ARC
  5
4090
330
A
100
AcDbEntity
  8
DRAW
  6
CONTINUOUS
 62
     7
100
AcDbCircle
 10
59.80674352999506
 20
239.9873666815351
 30
0.0
 40
1.199999977439999
100
AcDbArc
 50
180.0
 51
270.0
  0
ARC
  5
4091
330
A
100
AcDbEntity
  8
DRAW
  6
CONTINUOUS
 62
     7
100
AcDbCircle
 10
59.80674352999506
 20
241.5360686524177
 30
0.0
 40
1.199999977439999
100
AcDbArc
 50
90.0
 51
180.0
  0
LINE
  5
4092
330
A
100
AcDbEntity
  8
DRAW
  6
CONTINUOUS
 62
     7
100
AcDbLine
 10
58.60674355255525
 20
239.9873666815351
 30
0.0
 11
58.60674355255525
 21
241.5360686524177
 31
0.0
  0
ARC
  5
4093
330
A
100
AcDbEntity
  8
DRAW
  6
CONTINUOUS
 62
     7
100
AcDbCircle
 10
63.65674345761511
 20
239.9873666815351
 30
0.0
 40
1.199999977439999
100
AcDbArc
 50
270.0
 51
0.0
  0
ARC
  5
4094
330
A
100
AcDbEntity
  8
DRAW
  6
CONTINUOUS
 62
     7
100
AcDbCircle
 10
63.65674345761511
 20
241.5360686524177
 30
0.0
 40
1.199999977439999
100
AcDbArc
 50
0.0
 51
90.0
  0
LINE
  5
4095
330
A
100
AcDbEntity
  8
DRAW
  6
CONTINUOUS
 62
     7
100
AcDbLine
 10
64.85674343505491
 20
241.5360686524177
 30
0.0
 11
64.85674343505491
 21
239.9873666815351
 31
0.0
  0
ARC
  5
4096
330
A
100
AcDbEntity
  8
DRAW
  6
CONTINUOUS
 62
     7
100
AcDbCircle
 10
65.70675022820035
 20
244.7216205893255
 30
0.0
 40
0.4999999906000001
100
AcDbArc
 50
359.9999123374741
 51
89.99991233747412
  0
LINE
  5
4097
330
A
100
AcDbEntity
  8
DRAW
  6
CONTINUOUS
 62
     7
100
AcDbLine
 10
66.20675021879981
 20
244.7216198243249
 30
0.0
 11
66.20675037179977
 21
244.8216198224448
 31
0.0
  0
LINE
  5
4098
330
A
100
AcDbEntity
  8
DRAW
  6
CONTINUOUS
 62
     7
100
AcDbLine
 10
65.70675099320045
 20
245.2216205799241
 30
0.0
 11
65.80675099132036
 21
245.2216204269241
 31
0.0
  0
LINE
  5
409A
330
A
100
AcDbEntity
  8
DRAW
100
AcDbLine
 10
129.3066843343596
 20
163.2194918135865
 30
0.0
 11
129.3066645864103
 21
150.3123330562561
 31
0.0
  0
LINE
  5
409B
330
A
100
AcDbEntity
  8
DRAW
  6
CONTINUOUS
 62
     7
100
AcDbLine
 10
106.7066855125841
 20
174.1694091857334
 30
0.0
 11
106.7066479478405
 21
149.617284647342
 31
0.0
  0
DIMENSION
  5
409C
330
A
100
AcDbEntity
  8
DIM
100
AcDbDimension
  2
*D69
 10
152.5003692146938
 20
135.1553625967726
 30
0.0
 11
131.40349748411
 21
135.1553948749808
 31
0.0
 70
   160
  1
42.2
  3
DSTYLE2
100
AcDbAlignedDimension
 13
110.3066929419502
 23
179.0694375856082
 33
0.0
 14
152.5004233467529
 24
170.5357995511789
 34
0.0
 50
359.9999123374725
100
AcDbRotatedDimension
  0
DIMENSION
  5
409D
330
A
100
AcDbEntity
  8
DIM
100
AcDbDimension
  2
*D70
 10
110.30663538716
 20
141.4519204395631
 30
0.0
 11
119.8066432085485
 21
141.4519059045539
 31
0.0
 70
   160
  1
<>
  3
DSTYLE1
100
AcDbAlignedDimension
 13
129.3066645864103
 23
150.3123330562561
 33
0.0
 14
110.3066929419502
 24
179.0694375856082
 34
0.0
 50
179.9999123374741
100
AcDbRotatedDimension
  0
LINE
  5
409E
330
A
100
AcDbEntity
  8
DRAW
  6
CONTINUOUS
 62
     7
100
AcDbLine
 10
106.7066479512065
 20
149.6194846473008
 30
0.0
 11
128.8110268307584
 21
149.812352823981
 31
0.0
  0
LINE
  5
409F
330
A
100
AcDbEntity
  8
DRAW
  6
CONTINUOUS
 62
     7
100
AcDbLine
 10
106.7066466506208
 20
148.7694286632831
 30
0.0
 11
110.2066465848167
 21
148.7694233082842
 31
0.0
  0
LINE
  5
40A0
330
A
100
AcDbEntity
  8
DRAW
  6
CONTINUOUS
 62
     7
100
AcDbLine
 10
106.7066451206216
 20
147.7694286820842
 30
0.0
 11
110.2066450548174
 21
147.7694233270853
 31
0.0
  0
LINE
  5
40A1
330
A
100
AcDbEntity
  8
DRAW
  6
CONTINUOUS
 62
     7
100
AcDbLine
 10
110.2066427598175
 20
146.2694233552865
 30
0.0
 11
106.7066428256216
 21
146.2694287102854
 31
0.0
  0
LINE
  5
40A2
330
A
100
AcDbEntity
  8
DRAW
  6
CONTINUOUS
 62
     7
100
AcDbLine
 10
106.7162469477885
 20
149.6173686326537
 30
0.0
 11
106.706647947969
 21
149.6173686473402
 31
0.0
  0
LINE
  5
40A3
330
A
100
AcDbEntity
  8
DRAW
  6
CONTINUOUS
 62
     7
100
AcDbLine
 10
106.7066479478404
 20
149.6172846473418
 30
0.0
 11
106.7066428256217
 21
146.2694287102854
 31
0.0
  0
POINT
  5
40A4
330
A
100
AcDbEntity
  8
DRAW
  6
CONTINUOUS
 62
     7
100
AcDbPoint
 10
106.7066479512065
 20
149.6194846473008
 30
0.0
  0
LINE
  5
40A5
330
A
100
AcDbEntity
  8
DRAW
  6
CONTINUOUS
 62
     7
100
AcDbLine
 10
110.2066427598175
 20
146.2694233552865
 30
0.0
 11
110.2066479287685
 21
149.6478232917687
 31
0.0
  0
ARC
  5
40A6
330
A
100
AcDbEntity
  8
DRAW
  6
CONTINUOUS
 62
     7
100
AcDbCircle
 10
128.8066645958111
 20
150.3123338212562
 30
0.0
 40
0.4999999906000001
100
AcDbArc
 50
270.4999123374703
 51
359.9999123374725
  0
LINE
  5
40A7
330
A
100
AcDbEntity
  8
DRAW
  6
HIDDEN2
 62
     7
100
AcDbLine
 10
165.6036584740073
 20
174.9648007297591
 30
0.0
 11
167.6985424346235
 21
175.1112897270051
 31
0.0
  0
LINE
  5
40A8
330
A
100
AcDbEntity
  8
DRAW
  6
HIDDEN2
 62
     7
100
AcDbLine
 10
169.4320604020332
 20
171.8242067888022
 30
0.0
 11
167.2763054425614
 21
171.6734617916363
 31
0.0
  0
LINE
  5
40A9
330
A
100
AcDbEntity
  8
DRAW
  6
HIDDEN2
 62
     7
100
AcDbLine
 10
166.9730754482621
 20
185.4859555319617
 30
0.0
 11
167.8310804321316
 21
173.2159177626385
 31
0.0
  0
LINE
  5
40AA
330
A
100
AcDbEntity
  8
DRAW
  6
CONTINUOUS
 62
     7
100
AcDbLine
 10
168.0067625559451
 20
181.1386648072439
 30
0.0
 11
166.8067625559449
 21
181.1386647869257
 31
0.0
  0
LINE
  5
40AB
330
A
100
AcDbEntity
  8
DRAW
  6
CONTINUOUS
 62
     7
100
AcDbLine
 10
168.0067618527184
 20
201.7387646731711
 30
0.0
 11
166.8067618527184
 21
201.7387646322066
 31
0.0
  0
LINE
  5
40AC
330
A
100
AcDbEntity
  8
DRAW
  6
CONTINUOUS
 62
     7
100
AcDbLine
 10
140.2067626856622
 20
177.3387691477088
 30
0.0
 11
168.0067626773803
 21
177.581377021302
 31
0.0
  0
LINE
  5
40AD
330
A
100
AcDbEntity
  8
DRAW
  6
CONTINUOUS
 62
     7
100
AcDbLine
 10
151.2067497482671
 20
206.2427688033694
 30
0.0
 11
168.0067617039698
 21
206.0961578936954
 31
0.0
  0
DIMENSION
  5
40AE
330
A
100
AcDbEntity
  8
DIM
100
AcDbDimension
  2
*D71
 10
172.0068730625303
 20
258.2979628486335
 30
0.0
 11
141.1568436121235
 21
258.2980100491705
 31
0.0
 70
   160
  1
<>
  3
DSTYLE1
100
AcDbAlignedDimension
 13
110.3067475629391
 23
214.7694369144065
 33
0.0
 14
172.0067623912303
 24
185.963767378575
 34
0.0
 50
359.9999123374725
100
AcDbRotatedDimension
  0
LINE
  5
40AF
330
A
100
AcDbEntity
  8
DRAW
  6
HIDDEN2
 62
     7
100
AcDbLine
 10
136.2711860254577
 20
190.282609441785
 30
0.0
 11
134.5497370578209
 21
190.282609441785
 31
0.0
  0
ARC
  5
40B0
330
A
100
AcDbEntity
  8
DRAW
  6
HIDDEN2
 62
     7
100
AcDbCircle
 10
136.4067070229099
 20
178.1358486701437
 30
0.0
 40
1.89999996428
100
AcDbArc
 50
206.8322139999984
 51
292.0139079999987
  0
ARC
  5
40B1
330
A
100
AcDbEntity
  8
DRAW
  6
HIDDEN2
 62
     7
100
AcDbCircle
 10
133.8189440715597
 20
176.8268486947526
 30
0.0
 40
0.9999999812000002
100
AcDbArc
 50
26.83221399999846
 51
90.0
  0
LINE
  5
40B2
330
A
100
AcDbEntity
  8
DRAW
  6
CONTINUOUS
 62
     7
100
AcDbLine
 10
139.0067034625141
 20
175.840737735295
 30
0.0
 11
132.6555305819235
 21
175.8407474525878
 31
0.0
  0
LINE
  5
40B3
330
A
100
AcDbEntity
  8
DRAW
  6
CONTINUOUS
 62
     7
100
AcDbLine
 10
132.8085482784623
 20
192.6377539027071
 30
0.0
 11
139.2067291581689
 21
192.6377441134922
 31
0.0
  0
LINE
  5
40B4
330
A
100
AcDbEntity
  8
DRAW
  6
CONTINUOUS
 62
     7
100
AcDbLine
 10
131.3067907189043
 20
232.7764604458352
 30
0.0
 11
134.8111536062278
 21
232.7458730847359
 31
0.0
  0
DIMENSION
  5
40B5
330
A
100
AcDbEntity
  8
DIM
100
AcDbDimension
  2
*D72
 10
139.3068215487648
 20
253.0249944602225
 30
0.0
 11
137.3068215863673
 21
253.0249975202218
 31
0.0
 70
   160
  1
<>
  3
DSTYLE1
100
AcDbAlignedDimension
 13
135.3067898319387
 23
232.2458913358111
 33
0.0
 14
139.3067710907377
 24
220.0458854451872
 34
0.0
 50
359.9999123374741
100
AcDbRotatedDimension
  0
DIMENSION
  5
40B6
330
A
100
AcDbEntity
  8
DIM
100
AcDbDimension
  2
*D73
 10
135.3068216239717
 20
253.025001495271
 30
0.0
 11
133.3068216615739
 21
253.0250045552704
 31
0.0
 70
   160
  1
<>
  3
DSTYLE1
100
AcDbAlignedDimension
 13
131.3068086730927
 23
244.5112262252079
 33
0.0
 14
135.3067898319387
 24
232.2458913358111
 34
0.0
 50
359.9999123374725
100
AcDbRotatedDimension
  0
LINE
  5
40B7
330
A
100
AcDbEntity
  8
DRAW
  6
CONTINUOUS
 62
     7
100
AcDbLine
 10
108.806747438141
 20
214.6694392112858
 30
0.0
 11
108.6317673814315
 21
212.6694395166029
 31
0.0
  0
LINE
  5
40B8
330
A
100
AcDbEntity
  8
DRAW
  6
CONTINUOUS
 62
     7
100
AcDbLine
 10
107.7301603983825
 20
212.6694408960611
 30
0.0
 11
106.7051442705655
 21
216.4948753924219
 31
0.0
  0
LINE
  5
40B9
330
A
100
AcDbEntity
  8
DRAW
  6
CONTINUOUS
 62
     7
100
AcDbLine
 10
110.3066929419502
 20
179.0694375856082
 30
0.0
 11
110.3067475629391
 21
214.7694369144065
 31
0.0
  0
LINE
  5
40BA
330
A
100
AcDbEntity
  8
DRAW
  6
CONTINUOUS
 62
     7
100
AcDbLine
 10
109.2211732962129
 20
166.8693414758008
 30
0.0
 11
111.2211732586105
 21
166.8693384158014
 31
0.0
  0
LINE
  5
40BB
330
A
100
AcDbEntity
  8
DRAW
  6
CONTINUOUS
 62
     7
100
AcDbLine
 10
111.8115734826375
 20
166.3694205218871
 30
0.0
 11
109.0115735352808
 21
166.3694248058862
 31
0.0
  0
LINE
  5
40BC
330
A
100
AcDbEntity
  8
DRAW
  6
CONTINUOUS
 62
     7
100
AcDbLine
 10
109.2211788042119
 20
170.4693414081166
 30
0.0
 11
111.2211787666095
 21
170.4693383481171
 31
0.0
  0
LINE
  5
40BD
330
A
100
AcDbEntity
  8
DRAW
  6
CONTINUOUS
 62
     7
100
AcDbLine
 10
109.0115805732795
 20
170.9694247194011
 30
0.0
 11
111.8115805206362
 21
170.9694204354019
 31
0.0
  0
LINE
  5
40BE
330
A
100
AcDbEntity
  8
DRAW
  6
CONTINUOUS
 62
     7
100
AcDbLine
 10
110.2066942476964
 20
179.9216377225857
 30
0.0
 11
108.3066942834186
 21
179.921640629585
 31
0.0
  0
LINE
  5
40BF
330
A
100
AcDbEntity
  8
DRAW
  6
CONTINUOUS
 62
     7
100
AcDbLine
 10
109.0066950352576
 20
180.4216395491848
 30
0.0
 11
110.2066950126962
 21
180.4216377131852
 31
0.0
  0
LINE
  5
40C0
330
A
100
AcDbEntity
  8
DRAW
  6
CONTINUOUS
 62
     7
100
AcDbLine
 10
110.3066929419502
 20
179.0694375856082
 30
0.0
 11
107.5707009933901
 21
179.0694417716753
 31
0.0
  0
LINE
  5
40C1
330
A
100
AcDbEntity
  8
DRAW
  6
CONTINUOUS
 62
     7
100
AcDbLine
 10
106.7066855125841
 20
174.1694091857334
 30
0.0
 11
107.5707009933902
 21
179.0694417716751
 31
0.0
  0
LINE
  5
40C2
330
A
100
AcDbEntity
  8
DRAW
  6
CONTINUOUS
 62
     7
100
AcDbLine
 10
109.2211788042119
 20
170.4693414081166
 30
0.0
 11
109.221173296213
 21
166.8693414758008
 31
0.0
  0
LINE
  5
40C3
330
A
100
AcDbEntity
  8
DRAW
  6
CONTINUOUS
 62
     7
100
AcDbLine
 10
109.0115805732795
 20
170.9694247194011
 30
0.0
 11
109.0115735352809
 21
166.3694248058864
 31
0.0
  0
LINE
  5
40C4
330
A
100
AcDbEntity
  8
DRAW
  6
CONTINUOUS
 62
     7
100
AcDbLine
 10
109.0066950352576
 20
180.4216395491848
 30
0.0
 11
108.8323860868896
 21
182.414028778423
 31
0.0
  0
LINE
  5
40C5
330
A
100
AcDbEntity
  8
DRAW
  6
CONTINUOUS
 62
     7
100
AcDbLine
 10
106.8485407447843
 20
179.5516758675148
 30
0.0
 11
108.8317210985469
 21
182.4216397792974
 31
0.0
  0
LINE
  5
40C6
330
A
100
AcDbEntity
  8
DRAW
  6
CONTINUOUS
 62
     7
100
AcDbLine
 10
107.0923608518356
 20
176.3566655545328
 30
0.0
 11
106.706689375405
 21
176.694129138266
 31
0.0
  0
ARC
  5
40C7
330
A
100
AcDbEntity
  8
DRAW
  6
CONTINUOUS
 62
     7
100
AcDbCircle
 10
107.5066930365811
 20
179.0968848690918
 30
0.0
 40
0.7999999849600003
100
AcDbArc
 50
145.355051337475
 51
179.9999123374741
  0
LINE
  5
40C8
330
A
100
AcDbEntity
  8
DRAW
  6
CONTINUOUS
 62
     7
100
AcDbLine
 10
106.706689375405
 20
176.6941291382654
 30
0.0
 11
106.7066930516225
 21
179.0968860930909
 31
0.0
  0
LINE
  5
40C9
330
A
100
AcDbEntity
  8
DRAW
  6
CONTINUOUS
 62
     7
100
AcDbLine
 10
108.3066942834185
 20
179.9216406295854
 30
0.0
 11
108.3066929795527
 21
179.0694406456079
 31
0.0
  0
POINT
  5
40CA
330
A
100
AcDbEntity
  8
DRAW
  6
CONTINUOUS
 62
     7
100
AcDbPoint
 10
108.3066942834185
 20
179.9216406295854
 30
0.0
  0
POINT
  5
40CB
330
A
100
AcDbEntity
  8
DRAW
  6
CONTINUOUS
 62
     7
100
AcDbPoint
 10
108.3066942834186
 20
179.921640629585
 30
0.0
  0
LINE
  5
40CC
330
A
100
AcDbEntity
  8
DRAW
  6
CONTINUOUS
 62
     7
100
AcDbLine
 10
111.2211760126098
 20
168.6693383819592
 30
0.0
 11
111.2211787666092
 21
170.4693383481171
 31
0.0
  0
LINE
  5
40CD
330
A
100
AcDbEntity
  8
DRAW
  6
CONTINUOUS
 62
     7
100
AcDbLine
 10
110.2211787854104
 20
170.4693398781164
 30
0.0
 11
110.2211732774115
 21
166.8693399458006
 31
0.0
  0
LINE
  5
40CE
330
A
100
AcDbEntity
  8
DRAW
  6
CONTINUOUS
 62
     7
100
AcDbLine
 10
111.8115734826375
 20
166.3694205218871
 30
0.0
 11
111.811580520636
 21
170.9694204354018
 31
0.0
  0
LINE
  5
40CF
330
A
100
AcDbEntity
  8
DRAW
  6
CONTINUOUS
 62
     7
100
AcDbLine
 10
111.2211760126098
 20
168.6693383819592
 30
0.0
 11
111.2211732586103
 21
166.8693384158014
 31
0.0
  0
LINE
  5
40D0
330
A
100
AcDbEntity
  8
DRAW
  6
CONTINUOUS
 62
     7
100
AcDbLine
 10
110.2066929438302
 20
179.069437738608
 30
0.0
 11
110.2066950126958
 21
180.421637713185
 31
0.0
  0
POINT
  5
40D1
330
A
100
AcDbEntity
  8
DRAW
  6
CONTINUOUS
 62
     7
100
AcDbPoint
 10
110.3066929419502
 20
179.0694375856082
 30
0.0
  0
LINE
  5
40D2
330
A
100
AcDbEntity
  8
DRAW
  6
CONTINUOUS
 62
     7
100
AcDbLine
 10
107.7301603983825
 20
212.6694408960611
 30
0.0
 11
108.6317673814313
 21
212.6694395166027
 31
0.0
  0
ARC
  5
40D3
330
A
100
AcDbEntity
  8
DRAW
  6
CONTINUOUS
 62
     7
100
AcDbCircle
 10
112.7069270098141
 20
211.1694333098085
 30
0.0
 40
2.59999995112
100
AcDbArc
 50
157.3906263374753
 51
202.6091983374723
  0
LINE
  5
40D4
330
A
100
AcDbEntity
  8
DRAW
  6
HIDDEN2
 62
     7
100
AcDbLine
 10
134.549737057821
 20
190.282609441785
 30
0.0
 11
134.549737057821
 21
181.0163276159912
 31
0.0
  0
CIRCLE
  5
40D5
330
A
100
AcDbEntity
  8
DRAW
  6
CONTINUOUS
 62
     7
100
AcDbCircle
 10
133.2067221272437
 20
187.9686463812749
 30
0.0
 40
0.5999999887200001
  0
LINE
  5
40D6
330
A
100
AcDbEntity
  8
DRAW
  6
CONTINUOUS
 62
     7
100
AcDbLine
 10
132.5085352120578
 20
184.0939325223407
 30
0.0
 11
132.5085478251028
 21
192.3377543673472
 31
0.0
  0
LINE
  5
40D7
330
A
100
AcDbEntity
  8
DRAW
100
AcDbLine
 10
122.5504082263856
 20
163.719502141288
 30
0.0
 11
128.8066851087603
 21
163.7194925691862
 31
0.0
  0
LINE
  5
40D8
330
A
100
AcDbEntity
  8
DRAW
100
AcDbLine
 10
122.5504249313595
 20
174.6377879360115
 30
0.0
 11
132.455528745132
 21
174.6377727812055
 31
0.0
  0
LINE
  5
40D9
330
A
100
AcDbEntity
  8
DRAW
100
AcDbLine
 10
121.1004139930311
 20
167.4707362892595
 30
0.0
 11
122.3504139695295
 21
167.4707343767599
 31
0.0
  0
LINE
  5
40DA
330
A
100
AcDbEntity
  8
DRAW
100
AcDbLine
 10
121.100423655074
 20
173.7857981705292
 30
0.0
 11
122.3504236315724
 21
173.7857962580296
 31
0.0
  0
LINE
  5
40DB
330
A
100
AcDbEntity
  8
DRAW
100
AcDbLine
 10
121.100423655074
 20
173.7857981705292
 30
0.0
 11
121.100413993031
 21
167.4707362892598
 31
0.0
  0
LINE
  5
40DC
330
A
100
AcDbEntity
  8
DRAW
100
AcDbLine
 10
122.5504082263856
 20
163.719502141288
 30
0.0
 11
122.5504136597695
 21
167.2707340745208
 31
0.0
  0
ARC
  5
40DD
330
A
100
AcDbEntity
  8
DRAW
100
AcDbCircle
 10
122.3504136635298
 20
167.2707343805204
 30
0.0
 40
0.1999999962400001
100
AcDbArc
 50
359.9999123374708
 51
89.99991233747492
  0
ARC
  5
40DE
330
A
100
AcDbEntity
  8
DRAW
100
AcDbCircle
 10
122.3504239375726
 20
173.9857962542691
 30
0.0
 40
0.1999999962400001
100
AcDbArc
 50
269.9999123374749
 51
359.9999123374659
  0
LINE
  5
40DF
330
A
100
AcDbEntity
  8
DRAW
100
AcDbLine
 10
122.5504249283118
 20
174.6357959360484
 30
0.0
 11
122.5504239338119
 21
173.9857959482693
 31
0.0
  0
LINE
  5
40E0
330
A
100
AcDbEntity
  8
DRAW
100
AcDbLine
 10
132.6555314660228
 20
176.4185904417236
 30
0.0
 11
132.655529044324
 21
174.8357804714824
 31
0.0
  0
ARC
  5
40E1
330
A
100
AcDbEntity
  8
DRAW
100
AcDbCircle
 10
128.8066843437601
 20
163.219492578587
 30
0.0
 40
0.4999999906000001
100
AcDbArc
 50
359.9999123374741
 51
89.99991233747412
  0
ARC
  5
40E2
330
A
100
AcDbEntity
  8
DRAW
100
AcDbCircle
 10
132.4555290480844
 20
174.8357807774828
 30
0.0
 40
0.1999999962400001
100
AcDbArc
 50
269.9999123374708
 51
359.9999123374708
  0
ARC
  5
40E3
330
A
100
AcDbEntity
  8
DRAW
  6
CONTINUOUS
 62
     7
100
AcDbCircle
 10
130.9067324171848
 20
181.5939420200957
 30
0.0
 40
0.29999999436
100
AcDbArc
 50
89.99970433747696
 51
179.9999123374708
  0
LINE
  5
40E4
330
A
100
AcDbEntity
  8
DRAW
  6
HIDDEN2
 62
     7
100
AcDbLine
 10
133.8189440715597
 20
177.8268486759534
 30
0.0
 11
130.9197071260653
 21
177.8268486759534
 31
0.0
  0
LINE
  5
40E5
330
A
100
AcDbEntity
  8
DRAW
  6
HIDDEN2
 62
     7
100
AcDbLine
 10
134.549737057821
 20
181.016327615991
 30
0.0
 11
130.9630691252505
 21
179.1888286503479
 31
0.0
  0
ARC
  5
40E6
330
A
100
AcDbEntity
  8
DRAW
  6
CONTINUOUS
 62
     7
100
AcDbCircle
 10
132.1555314754233
 20
176.4185912067232
 30
0.0
 40
0.4999999906000001
100
AcDbArc
 50
359.9999123374741
 51
62.76546833747882
  0
LINE
  5
40E7
330
A
100
AcDbEntity
  8
DRAW
  6
HIDDEN2
 62
     7
100
AcDbLine
 10
130.9197071260656
 20
177.8268486759534
 30
0.0
 11
130.9197071260656
 21
179.1908486503102
 31
0.0
  0
ARC
  5
40E8
330
A
100
AcDbEntity
  8
DRAW
  6
CONTINUOUS
 62
     7
100
AcDbCircle
 10
131.106727041813
 20
178.083083780104
 30
0.0
 40
0.4999999906000001
100
AcDbArc
 50
179.9999123374741
 51
242.7654683374705
  0
LINE
  5
40E9
330
A
100
AcDbEntity
  8
DRAW
  6
CONTINUOUS
 62
     7
100
AcDbLine
 10
132.3843481513137
 20
176.8631608482764
 30
0.0
 11
130.8779103659216
 21
177.6385131385501
 31
0.0
  0
LINE
  5
40EA
330
A
100
AcDbEntity
  8
DRAW
  6
CONTINUOUS
 62
     7
100
AcDbLine
 10
130.6067324228253
 20
181.5939424790949
 30
0.0
 11
130.6067270512137
 21
178.0830845451031
 31
0.0
  0
ARC
  5
40EB
330
A
100
AcDbEntity
  8
DRAW
  6
CONTINUOUS
 62
     7
100
AcDbCircle
 10
132.7085352082973
 20
184.0939322163403
 30
0.0
 40
0.1999999962400001
100
AcDbArc
 50
179.9999123374708
 51
269.9997043374716
  0
LINE
  5
40EC
330
A
100
AcDbEntity
  8
DRAW
  6
CONTINUOUS
 62
     7
100
AcDbLine
 10
134.1067118160032
 20
181.8939251184883
 30
0.0
 11
130.9067338761847
 21
181.8939420144534
 31
0.0
  0
ARC
  5
40ED
330
A
100
AcDbEntity
  8
DRAW
  6
CONTINUOUS
 62
     7
100
AcDbCircle
 10
134.106713122003
 20
182.0939251147265
 30
0.0
 40
0.1999999962400001
100
AcDbArc
 50
269.9997043374712
 51
359.9999123374708
  0
ARC
  5
40EE
330
A
100
AcDbEntity
  8
DRAW
  6
CONTINUOUS
 62
     7
100
AcDbCircle
 10
134.1067155700026
 20
183.6939250846444
 30
0.0
 40
0.1999999962400001
100
AcDbArc
 50
359.9999123374708
 51
89.99970433747126
  0
LINE
  5
40EF
330
A
100
AcDbEntity
  8
DRAW
  6
CONTINUOUS
 62
     7
100
AcDbLine
 10
134.3067155662421
 20
183.6939247786449
 30
0.0
 11
134.3067131182426
 21
182.0939248087267
 31
0.0
  0
LINE
  5
40F0
330
A
100
AcDbEntity
  8
DRAW
  6
CONTINUOUS
 62
     7
100
AcDbLine
 10
134.1067168760024
 20
183.8939250808825
 30
0.0
 11
132.7085339022974
 21
183.893932220102
 31
0.0
  0
ARC
  5
40F1
330
A
100
AcDbEntity
  8
DRAW
  6
CONTINUOUS
 62
     7
100
AcDbCircle
 10
132.8085478194626
 20
192.3377539083476
 30
0.0
 40
0.29999999436
100
AcDbArc
 50
89.99991233747087
 51
179.9999123374708
  0
LINE
  5
40F2
330
A
100
AcDbEntity
  8
DRAW
  6
CONTINUOUS
 62
     7
100
AcDbLine
 10
106.7163932221084
 20
245.221516835184
 30
0.0
 11
130.8111724473824
 21
245.0112079741314
 31
0.0
  0
DIMENSION
  5
40F3
330
A
100
AcDbEntity
  8
DIM
100
AcDbDimension
  2
*D60
 10
110.3068060940031
 20
253.0250416526362
 30
0.0
 11
120.8068138965912
 21
253.0250255876274
 31
0.0
 70
   160
  1
<>
  3
DSTYLE1
100
AcDbAlignedDimension
 13
131.3068086730927
 23
244.5112262252079
 33
0.0
 14
110.3067475629391
 24
214.7694369144065
 34
0.0
 50
179.9999123374741
100
AcDbRotatedDimension
  0
LINE
  5
40F4
330
A
100
AcDbEntity
  8
DRAW
  6
CONTINUOUS
 62
     7
100
AcDbLine
 10
107.1567547367132
 20
219.4194756464794
 30
0.0
 11
107.1567879408934
 21
241.1215582384548
 31
0.0
  0
LINE
  5
40F5
330
A
100
AcDbEntity
  8
DRAW
  6
CONTINUOUS
 62
     7
100
AcDbLine
 10
110.3067474099394
 20
214.6694369162869
 30
0.0
 11
108.8067474381411
 21
214.6694392112864
 31
0.0
  0
LINE
  5
40F6
330
A
100
AcDbEntity
  8
DRAW
  6
CONTINUOUS
 62
     7
100
AcDbLine
 10
110.3067475629392
 20
214.7694369144064
 30
0.0
 11
107.2067476212229
 21
214.7694416574055
 31
0.0
  0
LINE
  5
40F7
330
A
100
AcDbEntity
  8
DRAW
  6
CONTINUOUS
 62
     7
100
AcDbLine
 10
111.8116629143779
 20
224.8215494229189
 30
0.0
 11
109.0116629670212
 21
224.821553706918
 31
0.0
  0
LINE
  5
40F8
330
A
100
AcDbEntity
  8
DRAW
  6
CONTINUOUS
 62
     7
100
AcDbLine
 10
111.6212626828293
 20
225.3214657048329
 30
0.0
 11
109.221262727952
 21
225.3214693768321
 31
0.0
  0
LINE
  5
40F9
330
A
100
AcDbEntity
  8
DRAW
  6
CONTINUOUS
 62
     7
100
AcDbLine
 10
111.8116699523767
 20
229.4215493364327
 30
0.0
 11
109.01167000502
 21
229.4215536204318
 31
0.0
  0
LINE
  5
40FA
330
A
100
AcDbEntity
  8
DRAW
  6
CONTINUOUS
 62
     7
100
AcDbLine
 10
111.6212681908283
 20
228.9214656371486
 30
0.0
 11
109.2212682359511
 21
228.9214693091479
 31
0.0
  0
LINE
  5
40FB
330
A
100
AcDbEntity
  8
DRAW
  6
CONTINUOUS
 62
     7
100
AcDbLine
 10
109.0116700050199
 20
229.4215536204319
 30
0.0
 11
109.0116629670213
 21
224.8215537069173
 31
0.0
  0
LINE
  5
40FC
330
A
100
AcDbEntity
  8
DRAW
  6
CONTINUOUS
 62
     7
100
AcDbLine
 10
109.2212627279519
 20
225.3214693768323
 30
0.0
 11
109.2212682359508
 21
228.921469309148
 31
0.0
  0
LINE
  5
40FD
330
A
100
AcDbEntity
  8
DRAW
  6
CONTINUOUS
 62
     7
100
AcDbLine
 10
106.706750485641
 20
216.635467387322
 30
0.0
 11
106.7067547451738
 21
219.4194763349795
 31
0.0
  0
LINE
  5
40FE
330
A
100
AcDbEntity
  8
DRAW
  6
CONTINUOUS
 62
     7
100
AcDbLine
 10
107.2067476212229
 20
214.7694416574058
 30
0.0
 11
106.7067504856411
 21
216.6354673873222
 31
0.0
  0
POINT
  5
40FF
330
A
100
AcDbEntity
  8
DRAW
  6
CONTINUOUS
 62
     7
100
AcDbPoint
 10
108.8067474381411
 20
214.6694392112864
 30
0.0
  0
LINE
  5
4100
330
A
100
AcDbEntity
  8
DRAW
  6
CONTINUOUS
 62
     7
100
AcDbLine
 10
107.1567547367132
 20
219.4194756464794
 30
0.0
 11
106.7067547451737
 21
219.4194763349793
 31
0.0
  0
LINE
  5
4101
330
A
100
AcDbEntity
  8
DRAW
  6
CONTINUOUS
 62
     7
100
AcDbLine
 10
110.2212682171499
 20
228.9214677791478
 30
0.0
 11
110.221262709151
 21
225.321467846832
 31
0.0
  0
LINE
  5
4102
330
A
100
AcDbEntity
  8
DRAW
  6
CONTINUOUS
 62
     7
100
AcDbLine
 10
111.6212626828293
 20
225.3214657048329
 30
0.0
 11
111.6212681908282
 21
228.9214656371486
 31
0.0
  0
LINE
  5
4103
330
A
100
AcDbEntity
  8
DRAW
  6
CONTINUOUS
 62
     7
100
AcDbLine
 10
111.8116629143779
 20
224.8215494229189
 30
0.0
 11
111.8116699523765
 21
229.4215493364335
 31
0.0
  0
POINT
  5
4104
330
A
100
AcDbEntity
  8
DRAW
  6
CONTINUOUS
 62
     7
100
AcDbPoint
 10
110.3067475629391
 20
214.7694369144065
 30
0.0
  0
POINT
  5
4105
330
A
100
AcDbEntity
  8
DRAW
  6
CONTINUOUS
 62
     7
100
AcDbPoint
 10
110.3067475629391
 20
214.7694369144065
 30
0.0
  0
LINE
  5
4106
330
A
100
AcDbEntity
  8
DRAW
  6
CONTINUOUS
 62
     7
100
AcDbLine
 10
106.7067942224172
 20
245.221600849869
 30
0.0
 11
106.7067879493542
 21
241.1215589269545
 31
0.0
  0
LINE
  5
4107
330
A
100
AcDbEntity
  8
DRAW
  6
CONTINUOUS
 62
     7
100
AcDbLine
 10
107.1567879408936
 20
241.1215582384548
 30
0.0
 11
106.7067879493542
 21
241.1215589269546
 31
0.0
  0
POINT
  5
4108
330
A
100
AcDbEntity
  8
DRAW
  6
CONTINUOUS
 62
     7
100
AcDbPoint
 10
106.7067879493542
 20
241.1215589269545
 30
0.0
  0
LINE
  5
4109
330
A
100
AcDbEntity
  8
DRAW
  6
CONTINUOUS
 62
     7
100
AcDbLine
 10
106.7163932221084
 20
245.221516835184
 30
0.0
 11
106.7067942222889
 21
245.2215168498705
 31
0.0
  0
LINE
  5
410A
330
A
100
AcDbEntity
  8
DRAW
  6
CONTINUOUS
 62
     7
100
AcDbLine
 10
106.7163932221084
 20
245.221516835184
 30
0.0
 11
106.7067942222889
 21
245.2215168498705
 31
0.0
  0
LINE
  5
410B
330
A
100
AcDbEntity
  8
DRAW
  6
CONTINUOUS
 62
     7
100
AcDbLine
 10
131.3067907189043
 20
232.7764604458352
 30
0.0
 11
131.3068086730927
 21
244.5112262252079
 31
0.0
  0
ARC
  5
410C
330
A
100
AcDbEntity
  8
DRAW
  6
CONTINUOUS
 62
     7
100
AcDbCircle
 10
130.8068086824933
 20
244.5112269902074
 30
0.0
 40
0.4999999906000001
100
AcDbArc
 50
359.9999123374741
 51
89.49991233747544
  0
LINE
  5
410D
330
A
100
AcDbEntity
  8
DRAW
  6
CONTINUOUS
 62
     7
100
AcDbLine
 10
139.3067710907377
 20
220.0458854451872
 30
0.0
 11
139.3067524220624
 21
207.8441346745942
 31
0.0
  0
LINE
  5
410E
330
A
100
AcDbEntity
  8
DRAW
  6
HIDDEN2
 62
     7
100
AcDbLine
 10
156.9255816371552
 20
184.3823895527084
 30
0.0
 11
137.1188870095211
 21
176.3743727032591
 31
0.0
  0
LINE
  5
410F
330
A
100
AcDbEntity
  8
DRAW
  6
HIDDEN2
 62
     7
100
AcDbLine
 10
155.9263016559413
 20
192.9385253918535
 30
0.0
 11
142.7426569037939
 21
192.016635409185
 31
0.0
  0
ARC
  5
4110
330
A
100
AcDbEntity
  8
DRAW
  6
CONTINUOUS
 62
     7
100
AcDbCircle
 10
150.706750894789
 20
206.9859862487319
 30
0.0
 40
0.4999999906000001
100
AcDbArc
 50
359.9999123374741
 51
89.69991233747565
  0
ARC
  5
4111
330
A
100
AcDbEntity
  8
DRAW
  6
CONTINUOUS
 62
     7
100
AcDbCircle
 10
150.706747895526
 20
205.0256832855875
 30
0.0
 40
0.4999999906000001
100
AcDbArc
 50
269.9999123374741
 51
359.9999123374741
  0
ARC
  5
4112
330
A
100
AcDbEntity
  8
DRAW
  6
CONTINUOUS
 62
     7
100
AcDbCircle
 10
136.7067078472661
 20
189.1358480043554
 30
0.0
 40
1.4999999718
100
AcDbArc
 50
168.3497393374757
 51
256.7922833374749
  0
LINE
  5
4113
330
A
100
AcDbEntity
  8
DRAW
  6
CONTINUOUS
 62
     7
100
AcDbLine
 10
139.2067203869639
 20
186.9049292161826
 30
0.0
 11
139.2067447457402
 21
202.8257009219467
 31
0.0
  0
LINE
  5
4114
330
A
100
AcDbEntity
  8
DRAW
  6
CONTINUOUS
 62
     7
100
AcDbLine
 10
140.2067621531244
 20
192.9387657965316
 30
0.0
 11
140.2067626856624
 21
177.3387665133129
 31
0.0
  0
LINE
  5
4115
330
A
100
AcDbEntity
  8
DRAW
  6
CONTINUOUS
 62
     7
100
AcDbLine
 10
139.2067203869639
 20
186.9049292161826
 30
0.0
 11
136.3146816394011
 21
187.6879816313735
 31
0.0
  0
ARC
  5
4116
330
A
100
AcDbEntity
  8
DRAW
  6
CONTINUOUS
 62
     7
100
AcDbCircle
 10
136.4067070229099
 20
178.1358486701437
 30
0.0
 40
1.89999996428
100
AcDbArc
 50
252.999999999999
 51
292.013907999997
  0
CIRCLE
  5
4117
330
A
100
AcDbEntity
  8
DRAW
  6
CONTINUOUS
 62
     7
100
AcDbCircle
 10
136.4067070229099
 20
178.1358486701437
 30
0.0
 40
1.09999997932
  0
CIRCLE
  5
4118
330
A
100
AcDbEntity
  8
DRAW
  6
CONTINUOUS
 62
     7
100
AcDbCircle
 10
136.4067070229099
 20
178.1358486701437
 30
0.0
 40
0.9999999812000002
  0
LINE
  5
4119
330
A
100
AcDbEntity
  8
DRAW
  6
CONTINUOUS
 62
     7
100
AcDbLine
 10
136.9400280128835
 20
178.2437626681148
 30
0.0
 11
136.04659102968
 21
177.7279356778124
 31
0.0
  0
LINE
  5
411A
330
A
100
AcDbEntity
  8
DRAW
  6
CONTINUOUS
 62
     7
100
AcDbLine
 10
136.9400281779895
 20
178.243760852134
 30
0.0
 11
136.046590405572
 21
177.7279352287906
 31
0.0
  0
ARC
  5
411B
330
A
100
AcDbEntity
  8
DRAW
  6
CONTINUOUS
 62
     7
100
AcDbCircle
 10
136.4067070229099
 20
178.1358486701437
 30
0.0
 40
1.89999996428
100
AcDbArc
 50
225.0000000000003
 51
264.0139079999974
  0
ARC
  5
411C
330
A
100
AcDbEntity
  8
DRAW
  6
CONTINUOUS
 62
     7
100
AcDbCircle
 10
136.1965910268601
 20
177.4681286826971
 30
0.0
 40
0.29999999436
100
AcDbArc
 50
119.9999999999993
 51
252.5324189999984
  0
ARC
  5
411D
330
A
100
AcDbEntity
  8
DRAW
  6
CONTINUOUS
 62
     7
100
AcDbCircle
 10
136.1965900052474
 20
177.468128004175
 30
0.0
 40
0.29999999436
100
AcDbArc
 50
119.9999123374716
 51
252.5323313374794
  0
ARC
  5
411E
330
A
100
AcDbEntity
  8
DRAW
  6
CONTINUOUS
 62
     7
100
AcDbCircle
 10
137.0900280100632
 20
177.983954672999
 30
0.0
 40
0.29999999436
100
AcDbArc
 50
347.4675810000007
 51
119.9999999999993
  0
ARC
  5
411F
330
A
100
AcDbEntity
  8
DRAW
  6
CONTINUOUS
 62
     7
100
AcDbCircle
 10
137.0900277776633
 20
177.9839526275182
 30
0.0
 40
0.29999999436
100
AcDbArc
 50
347.4674933374696
 51
119.999912337473
  0
CIRCLE
  5
4120
330
A
100
AcDbEntity
  8
DRAW
  6
CONTINUOUS
 62
     7
100
AcDbCircle
 10
135.8217984452181
 20
183.6334394617051
 30
0.0
 40
0.5999999887200001
  0
LINE
  5
4121
330
A
100
AcDbEntity
  8
DRAW
  6
CONTINUOUS
 62
     7
100
AcDbLine
 10
139.2067037879679
 20
176.0559104252497
 30
0.0
 11
139.2067200357155
 21
186.6753552255916
 31
0.0
  0
ARC
  5
4122
330
A
100
AcDbEntity
  8
DRAW
  6
CONTINUOUS
 62
     7
100
AcDbCircle
 10
139.0067037685886
 20
176.0407867315343
 30
0.0
 40
0.1999999962400001
100
AcDbArc
 50
269.9999123374708
 51
359.9999123374708
  0
LINE
  5
4123
330
A
100
AcDbEntity
  8
DRAW
  6
CONTINUOUS
 62
     7
100
AcDbLine
 10
139.2067626856624
 20
177.3387664791759
 30
0.0
 11
140.2067626856623
 21
177.338766513313
 31
0.0
  0
ARC
  5
4124
330
A
100
AcDbEntity
  8
DRAW
  6
CONTINUOUS
 62
     7
100
AcDbCircle
 10
138.9067200413561
 20
186.6753556845915
 30
0.0
 40
0.29999999436
100
AcDbArc
 50
359.9999123374708
 51
74.84977733746987
  0
LINE
  5
4125
330
A
100
AcDbEntity
  8
DRAW
  6
CONTINUOUS
 62
     7
100
AcDbLine
 10
139.2067447457399
 20
202.825700921946
 30
0.0
 11
150.7796381373287
 21
204.5310251833639
 31
0.0
  0
LINE
  5
4126
330
A
100
AcDbEntity
  8
DRAW
  6
CONTINUOUS
 62
     7
100
AcDbLine
 10
139.6051809574579
 20
207.5441382236376
 30
0.0
 11
150.7093696597289
 21
207.4859792353249
 31
0.0
  0
LINE
  5
4127
330
A
100
AcDbEntity
  8
DRAW
  6
CONTINUOUS
 62
     7
100
AcDbLine
 10
140.2067621531243
 20
192.9387657965316
 30
0.0
 11
140.206761869787
 21
201.2387608973931
 31
0.0
  0
LINE
  5
4128
330
A
100
AcDbEntity
  8
DRAW
  6
HIDDEN2
 62
     7
100
AcDbLine
 10
142.7426569037939
 20
192.0166354091852
 30
0.0
 11
136.2711860254575
 21
190.2826094417849
 31
0.0
  0
LINE
  5
4129
330
A
100
AcDbEntity
  8
DRAW
  6
CONTINUOUS
 62
     7
100
AcDbLine
 10
136.7067101422659
 20
190.6358479761538
 30
0.0
 11
139.0067260990229
 21
190.6358444571301
 31
0.0
  0
ARC
  5
412A
330
A
100
AcDbEntity
  8
DRAW
  6
CONTINUOUS
 62
     7
100
AcDbCircle
 10
136.7067078472661
 20
189.1358480043554
 30
0.0
 40
1.4999999718
100
AcDbArc
 50
89.99991233747289
 51
168.3497393374741
  0
ARC
  5
412B
330
A
100
AcDbEntity
  8
DRAW
  6
CONTINUOUS
 62
     7
100
AcDbCircle
 10
139.0067264050227
 20
190.8358444533696
 30
0.0
 40
0.1999999962400001
100
AcDbArc
 50
269.9999123374708
 51
359.9999123374708
  0
LINE
  5
412C
330
A
100
AcDbEntity
  8
DRAW
  6
CONTINUOUS
 62
     7
100
AcDbLine
 10
140.2067618697196
 20
201.2387608973931
 30
0.0
 11
140.206761810517
 21
202.9730584845444
 31
0.0
  0
ARC
  5
412D
330
A
100
AcDbEntity
  8
DRAW
  6
CONTINUOUS
 62
     7
100
AcDbCircle
 10
139.6067524164219
 20
207.8441342155938
 30
0.0
 40
0.29999999436
100
AcDbArc
 50
179.9999123374708
 51
269.6999123374788
  0
LINE
  5
412E
330
A
100
AcDbEntity
  8
DRAW
  6
HIDDEN2
 62
     7
100
AcDbLine
 10
160.8817105627796
 20
190.7810974324129
 30
0.0
 11
166.9730754482619
 21
185.4859555319615
 31
0.0
  0
LINE
  5
412F
330
A
100
AcDbEntity
  8
DRAW
  6
CONTINUOUS
 62
     7
100
AcDbLine
 10
165.8067618868554
 20
200.7387645980695
 30
0.0
 11
165.806762521808
 21
182.1386647235398
 31
0.0
  0
ARC
  5
4130
330
A
100
AcDbEntity
  8
DRAW
100
AcDbCircle
 10
159.6179535865386
 20
175.9180557118379
 30
0.0
 40
0.4999999906000001
100
AcDbArc
 50
94.00000000000217
 51
274.0000000000022
  0
LINE
  5
4131
330
A
100
AcDbEntity
  8
DRAW
  6
HIDDEN2
 62
     7
100
AcDbLine
 10
165.0067224852297
 20
177.3575606847753
 30
0.0
 11
156.9255816371552
 21
184.3823895527085
 31
0.0
  0
LINE
  5
4132
330
A
100
AcDbEntity
  8
DRAW
100
AcDbLine
 10
157.2067611324738
 20
175.3387697280387
 30
0.0
 11
157.2067610763534
 21
176.982743993243
 31
0.0
  0
LINE
  5
4133
330
A
100
AcDbEntity
  8
DRAW
100
AcDbLine
 10
158.4067611044474
 20
177.4975987490432
 30
0.0
 11
158.4067611781434
 21
175.3387697690031
 31
0.0
  0
LINE
  5
4134
330
A
100
AcDbEntity
  8
DRAW
100
AcDbLine
 10
159.2067613800649
 20
177.5045802729929
 30
0.0
 11
159.2067614539993
 21
175.3387697963128
 31
0.0
  0
POINT
  5
4135
330
A
100
AcDbEntity
  8
DRAW
100
AcDbPoint
 10
152.5004233467529
 20
170.5357995511789
 30
0.0
  0
LINE
  5
4136
330
A
100
AcDbEntity
  8
DRAW
100
AcDbLine
 10
157.2067611324738
 20
175.3387697280387
 30
0.0
 11
158.4067611781434
 21
175.3387697690031
 31
0.0
  0
LINE
  5
4137
330
A
100
AcDbEntity
  8
DRAW
100
AcDbLine
 10
159.2067614539993
 20
175.3387697963128
 30
0.0
 11
158.4067611781434
 21
175.3387697690031
 31
0.0
  0
ARC
  5
4138
330
A
100
AcDbEntity
  8
DRAW
  6
CONTINUOUS
 62
     7
100
AcDbCircle
 10
156.7067610763534
 20
176.9827439761745
 30
0.0
 40
0.4999999999999994
100
AcDbArc
 50
0.0000019559078002
 51
90.5000019559087
  0
LINE
  5
4139
330
A
100
AcDbEntity
  8
DRAW
  6
HIDDEN2
 62
     7
100
AcDbLine
 10
162.1620685387089
 20
175.4408327208102
 30
0.0
 11
162.0777055402949
 21
176.6472776981291
 31
0.0
  0
LINE
  5
413A
330
A
100
AcDbEntity
  8
DRAW
  6
HIDDEN2
 62
     7
100
AcDbLine
 10
165.6036584740073
 20
174.9648007297591
 30
0.0
 11
165.4641454766302
 21
176.9599286922508
 31
0.0
  0
LINE
  5
413B
330
A
100
AcDbEntity
  8
DRAW
  6
HIDDEN2
 62
     7
100
AcDbLine
 10
166.2362874621136
 20
172.4289687774335
 30
0.0
 11
165.0067224852293
 21
177.3575606847759
 31
0.0
  0
ARC
  5
413C
330
A
100
AcDbEntity
  8
DRAW
  6
HIDDEN2
 62
     7
100
AcDbCircle
 10
161.0832985589901
 20
154.9626461058005
 30
0.0
 40
20.50658061447628
100
AcDbArc
 50
77.26544000000327
 51
94.00000000000302
  0
ARC
  5
413D
330
A
100
AcDbEntity
  8
DRAW
  6
HIDDEN2
 62
     7
100
AcDbCircle
 10
167.206549443873
 20
172.6710257728827
 30
0.0
 40
0.9999999812000002
100
AcDbArc
 50
194.0079800000012
 51
274.0000000000005
  0
LINE
  5
413E
330
A
100
AcDbEntity
  8
DRAW
  6
HIDDEN2
 62
     7
100
AcDbLine
 10
165.1120634832492
 20
176.9353096927143
 30
0.0
 11
159.5719865874025
 21
176.4159387024784
 31
0.0
  0
LINE
  5
413F
330
A
100
AcDbEntity
  8
DRAW
  6
CONTINUOUS
 62
     7
100
AcDbLine
 10
161.719023998486
 20
177.5265045424872
 30
0.0
 11
162.4067614027938
 21
176.838767185134
 31
0.0
  0
LINE
  5
4140
330
A
100
AcDbEntity
  8
DRAW
  6
CONTINUOUS
 62
     7
100
AcDbLine
 10
163.2067613788733
 20
177.5394878807041
 30
0.0
 11
163.2067614027938
 21
176.8387672124437
 31
0.0
  0
LINE
  5
4141
330
A
100
AcDbEntity
  8
DRAW
  6
CONTINUOUS
 62
     7
100
AcDbLine
 10
163.2067614027938
 20
176.8387672124437
 30
0.0
 11
162.4067614027938
 21
176.838767185134
 31
0.0
  0
LINE
  5
4142
330
A
100
AcDbEntity
  8
DRAW
  6
CONTINUOUS
 62
     7
100
AcDbLine
 10
166.8067625559451
 20
181.1386647576768
 30
0.0
 11
165.806762521808
 21
182.1386647235397
 31
0.0
  0
LINE
  5
4143
330
A
100
AcDbEntity
  8
DRAW
  6
HIDDEN2
 62
     7
100
AcDbLine
 10
167.2597604428725
 20
177.0854906898903
 30
0.0
 11
165.4641454766301
 21
176.9599286922508
 31
0.0
  0
LINE
  5
4144
330
A
100
AcDbEntity
  8
DRAW
  6
CONTINUOUS
 62
     7
100
AcDbLine
 10
165.9888391131423
 20
181.9565881446366
 30
0.0
 11
165.806762521808
 21
182.1386647235398
 31
0.0
  0
ARC
  5
4145
330
A
100
AcDbEntity
  8
DRAW
  6
HIDDEN2
 62
     7
100
AcDbCircle
 10
154.9771796737851
 20
183.9887115601104
 30
0.0
 40
8.999999830800001
100
AcDbArc
 50
48.99999999999955
 51
83.94644900000043
  0
LINE
  5
4146
330
A
100
AcDbEntity
  8
DRAW
  6
CONTINUOUS
 62
     7
100
AcDbLine
 10
151.2067508853884
 20
206.9859854837313
 30
0.0
 11
151.2067478861255
 21
205.0256825205872
 31
0.0
  0
LINE
  5
4147
330
A
100
AcDbEntity
  8
DRAW
  6
CONTINUOUS
 62
     7
100
AcDbLine
 10
165.9889558382044
 20
200.9209585618576
 30
0.0
 11
165.8067618868554
 21
200.7387645980695
 31
0.0
  0
LINE
  5
4148
330
A
100
AcDbEntity
  8
DRAW
  6
CONTINUOUS
 62
     7
100
AcDbLine
 10
166.8067618527184
 20
201.7387646322065
 30
0.0
 11
165.8067618868554
 21
200.7387645980694
 31
0.0
  0
LINE
  5
4149
330
A
100
AcDbEntity
  8
DRAW
  6
CONTINUOUS
 62
     7
100
AcDbLine
 10
135.3067719777037
 20
220.5764545552101
 30
0.0
 11
135.3067898319387
 21
232.2458913358111
 31
0.0
  0
LINE
  5
414A
330
A
100
AcDbEntity
  8
DRAW
  6
CONTINUOUS
 62
     7
100
AcDbLine
 10
135.3067719777037
 20
220.5764545552101
 30
0.0
 11
138.8111348650271
 21
220.5458671941106
 31
0.0
  0
ARC
  5
414B
330
A
100
AcDbEntity
  8
DRAW
  6
CONTINUOUS
 62
     7
100
AcDbCircle
 10
138.8067711001382
 20
220.0458862101868
 30
0.0
 40
0.4999999906000001
100
AcDbArc
 50
359.9999123374741
 51
89.49991233747544
  0
ARC
  5
414C
330
A
100
AcDbEntity
  8
DRAW
  6
CONTINUOUS
 62
     7
100
AcDbCircle
 10
134.8067898413388
 20
232.245892100811
 30
0.0
 40
0.4999999906000001
100
AcDbArc
 50
359.9999123374741
 51
89.49991233747871
  0
LINE
  5
414D
330
A
100
AcDbEntity
  8
DRAW
  6
CONTINUOUS
 62
     7
100
AcDbLine
 10
169.3067617101961
 20
205.9137672834248
 30
0.0
 11
169.3067623639207
 21
186.763767286405
 31
0.0
  0
ARC
  5
414E
330
A
100
AcDbEntity
  8
DRAW
  6
HIDDEN2
 62
     7
100
AcDbCircle
 10
168.3298624227546
 20
173.2507967619831
 30
0.0
 40
0.4999999906000001
100
AcDbArc
 50
183.9999999999981
 51
274.0000000000022
  0
LINE
  5
414F
330
A
100
AcDbEntity
  8
DRAW
  6
HIDDEN2
 62
     7
100
AcDbLine
 10
168.3647404220988
 20
172.7520137713599
 30
0.0
 11
169.3623044033447
 21
172.8217707700486
 31
0.0
  0
LINE
  5
4150
330
A
100
AcDbEntity
  8
DRAW
  6
HIDDEN2
 62
     7
100
AcDbLine
 10
169.3623044033448
 20
172.8217707700487
 30
0.0
 11
169.4320604020333
 21
171.8242067888028
 31
0.0
  0
LINE
  5
4151
330
A
100
AcDbEntity
  8
DRAW
  6
CONTINUOUS
 62
     7
100
AcDbLine
 10
170.8067624731592
 20
183.5637672422431
 30
0.0
 11
172.0067624731592
 21
183.5637672832076
 31
0.0
  0
LINE
  5
4152
330
A
100
AcDbEntity
  8
DRAW
  6
CONTINUOUS
 62
     7
100
AcDbLine
 10
169.3067623912303
 20
185.963767286405
 30
0.0
 11
171.80676238825
 21
185.9637673717477
 31
0.0
  0
LINE
  5
4153
330
A
100
AcDbEntity
  8
DRAW
  6
CONTINUOUS
 62
     7
100
AcDbLine
 10
169.3067623639206
 20
186.763767286405
 30
0.0
 11
171.8067623609404
 21
186.7637673717476
 31
0.0
  0
LINE
  5
4154
330
A
100
AcDbEntity
  8
DRAW
  6
CONTINUOUS
 62
     7
100
AcDbLine
 10
169.3067626779815
 20
177.563767286405
 30
0.0
 11
171.8067626750013
 21
177.5637673717476
 31
0.0
  0
LINE
  5
4155
330
A
100
AcDbEntity
  8
DRAW
  6
CONTINUOUS
 62
     7
100
AcDbLine
 10
171.8067625550881
 20
181.1637673717476
 30
0.0
 11
169.3067625550882
 21
181.163767286405
 31
0.0
  0
LINE
  5
4156
330
A
100
AcDbEntity
  8
DRAW
  6
CONTINUOUS
 62
     7
100
AcDbLine
 10
171.8067625730101
 20
180.6387671059867
 30
0.0
 11
169.3067625730101
 21
180.638767020644
 31
0.0
  0
LINE
  5
4157
330
A
100
AcDbEntity
  8
DRAW
  6
CONTINUOUS
 62
     7
100
AcDbLine
 10
170.8067624731592
 20
183.563767432978
 30
0.0
 11
170.8067625550881
 21
181.1637673376105
 31
0.0
  0
LINE
  5
4158
330
A
100
AcDbEntity
  8
DRAW
  6
CONTINUOUS
 62
     7
100
AcDbLine
 10
169.3067625380196
 20
181.663767286405
 30
0.0
 11
169.3067624953043
 21
182.9150559808962
 31
0.0
  0
LINE
  5
4159
330
A
100
AcDbEntity
  8
DRAW
  6
CONTINUOUS
 62
     7
100
AcDbLine
 10
168.0067626779815
 20
177.5637672420268
 30
0.0
 11
168.0067626711541
 21
177.7637672450071
 31
0.0
  0
LINE
  5
415A
330
A
100
AcDbEntity
  8
DRAW
  6
CONTINUOUS
 62
     7
100
AcDbLine
 10
169.0567626779815
 20
177.5637672778707
 30
0.0
 11
168.0067626779815
 21
177.5637672420268
 31
0.0
  0
LINE
  5
415B
330
A
100
AcDbEntity
  8
DRAW
  6
CONTINUOUS
 62
     7
100
AcDbLine
 10
168.0067626711541
 20
177.7637672450071
 30
0.0
 11
168.0067625559451
 21
181.1386647986413
 31
0.0
  0
LINE
  5
415C
330
A
100
AcDbEntity
  8
DRAW
  6
CONTINUOUS
 62
     7
100
AcDbLine
 10
169.3067625730101
 20
180.638767020644
 30
0.0
 11
169.3067626412842
 21
178.638767020644
 31
0.0
  0
LINE
  5
415D
330
A
100
AcDbEntity
  8
DRAW
  6
CONTINUOUS
 62
     7
100
AcDbLine
 10
169.3067625550882
 20
181.1637672864049
 30
0.0
 11
169.3067625380196
 21
181.663767286405
 31
0.0
  0
LINE
  5
415E
330
A
100
AcDbEntity
  8
DRAW
  6
CONTINUOUS
 62
     7
100
AcDbLine
 10
169.3067626779815
 20
177.563767286405
 30
0.0
 11
169.3067626412842
 21
178.638767020644
 31
0.0
  0
LINE
  5
415F
330
A
100
AcDbEntity
  8
DRAW
  6
CONTINUOUS
 62
     7
100
AcDbLine
 10
169.3067626779815
 20
177.563767286405
 30
0.0
 11
169.0567626779815
 21
177.5637672778707
 31
0.0
  0
LINE
  5
4160
330
A
100
AcDbEntity
  8
DRAW
  6
CONTINUOUS
 62
     7
100
AcDbLine
 10
169.3067625730101
 20
180.638767020644
 30
0.0
 11
169.3067625550881
 21
181.163767286405
 31
0.0
  0
LINE
  5
4161
330
A
100
AcDbEntity
  8
DRAW
  6
CONTINUOUS
 62
     7
100
AcDbLine
 10
169.3067624219536
 20
185.063767286405
 30
0.0
 11
170.8067624219536
 21
185.0637673376106
 31
0.0
  0
LINE
  5
4162
330
A
100
AcDbEntity
  8
DRAW
  6
CONTINUOUS
 62
     7
100
AcDbLine
 10
169.3067625243648
 20
182.063767286405
 30
0.0
 11
170.8067625243648
 21
182.0637673376106
 31
0.0
  0
LINE
  5
4163
330
A
100
AcDbEntity
  8
DRAW
  6
CONTINUOUS
 62
     7
100
AcDbLine
 10
169.3067623912303
 20
185.963767286405
 30
0.0
 11
169.3067624953043
 21
182.9150559808963
 31
0.0
  0
ARC
  5
4164
330
A
100
AcDbEntity
  8
DRAW
  6
CONTINUOUS
 62
     7
100
AcDbCircle
 10
171.4067624731593
 20
183.5637671673579
 30
0.0
 40
1.000000000000067
100
AcDbArc
 50
179.9999964917535
 51
233.1301043100592
  0
LINE
  5
4165
330
A
100
AcDbEntity
  8
DRAW
  6
CONTINUOUS
 62
     7
100
AcDbLine
 10
170.9067623912303
 20
185.9637673410243
 30
0.0
 11
170.9067624048851
 21
185.5637672456568
 31
0.0
  0
LINE
  5
4166
330
A
100
AcDbEntity
  8
DRAW
  6
CONTINUOUS
 62
     7
100
AcDbLine
 10
170.8067624048851
 20
185.5637672422431
 30
0.0
 11
170.9067624048851
 21
185.5637672456568
 31
0.0
  0
LINE
  5
4167
330
A
100
AcDbEntity
  8
DRAW
  6
CONTINUOUS
 62
     7
100
AcDbLine
 10
170.8067623912303
 20
185.9637673376106
 30
0.0
 11
170.8067624048851
 21
185.5637672422432
 31
0.0
  0
LINE
  5
4168
330
A
100
AcDbEntity
  8
DRAW
  6
CONTINUOUS
 62
     7
100
AcDbLine
 10
170.8067624731592
 20
183.5637673376106
 30
0.0
 11
170.8067624048851
 21
185.5637672422431
 31
0.0
  0
ARC
  5
4169
330
A
100
AcDbEntity
  8
DRAW
  6
CONTINUOUS
 62
     7
100
AcDbCircle
 10
171.4067624731593
 20
183.5637673580928
 30
0.0
 40
1.000000000000067
100
AcDbArc
 50
126.8698996017586
 51
180.0000074200621
  0
LINE
  5
416A
330
A
100
AcDbEntity
  8
DRAW
  6
CONTINUOUS
 62
     7
100
AcDbLine
 10
172.0067624731592
 20
183.5637674739425
 30
0.0
 11
172.0067625550881
 21
181.163767378575
 31
0.0
  0
LINE
  5
416B
330
A
100
AcDbEntity
  8
DRAW
  6
CONTINUOUS
 62
     7
100
AcDbLine
 10
171.8067625550881
 20
181.1637673717476
 30
0.0
 11
172.0067625550881
 21
181.163767378575
 31
0.0
  0
ARC
  5
416C
330
A
100
AcDbEntity
  8
DRAW
  6
CONTINUOUS
 62
     7
100
AcDbCircle
 10
171.8067626681739
 20
177.7637673747278
 30
0.0
 40
0.2000000029802323
100
AcDbArc
 50
270.0000019559078
 51
0.0000019559078002
  0
LINE
  5
416D
330
A
100
AcDbEntity
  8
DRAW
  6
CONTINUOUS
 62
     7
100
AcDbLine
 10
172.0067625550881
 20
181.163767378575
 30
0.0
 11
172.0067626711541
 21
177.7637673815553
 31
0.0
  0
LINE
  5
416E
330
A
100
AcDbEntity
  8
DRAW
  6
CONTINUOUS
 62
     7
100
AcDbLine
 10
171.8067625550881
 20
181.1637673717476
 30
0.0
 11
171.8067625730101
 21
180.6387671059867
 31
0.0
  0
LINE
  5
416F
330
A
100
AcDbEntity
  8
DRAW
  6
CONTINUOUS
 62
     7
100
AcDbLine
 10
172.0067624731592
 20
183.5637672832076
 30
0.0
 11
172.0067623912303
 21
185.963767378575
 31
0.0
  0
LINE
  5
4170
330
A
100
AcDbEntity
  8
DRAW
  6
CONTINUOUS
 62
     7
100
AcDbLine
 10
171.80676238825
 20
185.9637673717476
 30
0.0
 11
172.0067623912303
 21
185.963767378575
 31
0.0
  0
LINE
  5
4171
330
A
100
AcDbEntity
  8
DRAW
  6
CONTINUOUS
 62
     7
100
AcDbLine
 10
171.8067623609404
 20
186.7637673717476
 30
0.0
 11
172.0067623639206
 21
186.763767378575
 31
0.0
  0
LINE
  5
4172
330
A
100
AcDbEntity
  8
DRAW
  6
CONTINUOUS
 62
     7
100
AcDbLine
 10
172.0067623639206
 20
186.763767378575
 30
0.0
 11
172.0067623912302
 21
185.963767378575
 31
0.0
  0
POINT
  5
4173
330
A
100
AcDbEntity
  8
DRAW
  6
CONTINUOUS
 62
     7
100
AcDbPoint
 10
172.0067623912303
 20
185.963767378575
 30
0.0
  0
LINE
  5
4174
330
A
100
AcDbEntity
  8
DRAW
  6
CONTINUOUS
 62
     7
100
AcDbLine
 10
168.0067617101961
 20
205.9137672390465
 30
0.0
 11
168.0067617033687
 21
206.1137672420268
 31
0.0
  0
LINE
  5
4175
330
A
100
AcDbEntity
  8
DRAW
  6
CONTINUOUS
 62
     7
100
AcDbLine
 10
169.3067617101961
 20
205.9137672834248
 30
0.0
 11
169.3067617033687
 21
206.113767286405
 31
0.0
  0
LINE
  5
4176
330
A
100
AcDbEntity
  8
DRAW
  6
CONTINUOUS
 62
     7
100
AcDbLine
 10
169.3067617033686
 20
206.113767286405
 30
0.0
 11
168.0067617033686
 21
206.1137672420268
 31
0.0
  0
LINE
  5
4177
330
A
100
AcDbEntity
  8
DRAW
  6
CONTINUOUS
 62
     7
100
AcDbLine
 10
168.0067617101961
 20
205.9137672390465
 30
0.0
 11
168.0067618527184
 21
201.7387646731709
 31
0.0
  0
INSERT
  5
44AE
330
A
100
AcDbEntity
  8
0
100
AcDbBlockReference
  2
NON_RELAZIONATI
 10
-3.960801590685946
 20
2.664095523058676
 30
0.0
  0
LINE
  5
44AF
330
A
100
AcDbEntity
  8
DRAW
100
AcDbLine
 10
51.35670172113242
 20
164.0858007552635
 30
0.0
 11
65.25696692247125
 21
164.0858007552635
 31
0.0
  0
ARC
  5
44B0
330
A
100
AcDbEntity
  8
DRAW
100
AcDbCircle
 10
51.35670173305334
 20
164.8858007671844
 30
0.0
 40
0.8000000119209289
100
AcDbArc
 50
180.0
 51
270.0
  0
ARC
  5
44B1
330
A
100
AcDbEntity
  8
DRAW
100
AcDbCircle
 10
65.25670170921149
 20
164.8858007671844
 30
0.0
 40
0.8000000119209289
100
AcDbArc
 50
270.0
 51
0.0
  0
LINE
  5
44B2
330
A
100
AcDbEntity
  8
DRAW
100
AcDbLine
 10
51.35670173305334
 20
174.5858005061086
 30
0.0
 11
50.55670172113241
 21
174.5858005061086
 31
0.0
  0
LINE
  5
44B3
330
A
100
AcDbEntity
  8
DRAW
100
AcDbLine
 10
53.30670507419461
 20
174.5858004711395
 30
0.0
 11
51.35670173305334
 21
174.5858004711395
 31
0.0
  0
LINE
  5
44B4
330
A
100
AcDbEntity
  8
DRAW
100
AcDbLine
 10
50.55670172113241
 20
170.5858003153738
 30
0.0
 11
50.55670172113241
 21
174.5858005061086
 31
0.0
  0
LINE
  5
44B5
330
A
100
AcDbEntity
  8
DRAW
100
AcDbLine
 10
50.55670172113241
 20
164.8858007671844
 30
0.0
 11
50.55670172113241
 21
170.5858003153737
 31
0.0
  0
LINE
  5
44B6
330
A
100
AcDbEntity
  8
DRAW
100
AcDbLine
 10
65.25670170921149
 20
174.5858005061086
 30
0.0
 11
66.05670172113241
 21
174.5858005061086
 31
0.0
  0
LINE
  5
44B7
330
A
100
AcDbEntity
  8
DRAW
100
AcDbLine
 10
66.05670172113241
 20
170.5858003153738
 30
0.0
 11
66.05670172113241
 21
174.5858005061086
 31
0.0
  0
LINE
  5
44B8
330
A
100
AcDbEntity
  8
DRAW
100
AcDbLine
 10
66.05670172113241
 20
164.8858007671844
 30
0.0
 11
66.05670172113241
 21
170.5858003153737
 31
0.0
  0
LINE
  5
44B9
330
A
100
AcDbEntity
  8
DRAW
100
AcDbLine
 10
58.30670170608226
 20
169.5357993352503
 30
0.0
 11
53.8067017090625
 21
170.5357993352503
 31
0.0
  0
LINE
  5
44BA
330
A
100
AcDbEntity
  8
DRAW
100
AcDbLine
 10
62.80670170906245
 20
170.5357993352503
 30
0.0
 11
58.30670170608222
 21
169.5357993352503
 31
0.0
  0
LINE
  5
44BB
330
A
100
AcDbEntity
  8
DRAW
100
AcDbLine
 10
58.30670171204269
 20
171.5357993352503
 30
0.0
 11
62.80670170906245
 21
170.5357993352503
 31
0.0
  0
LINE
  5
44BC
330
A
100
AcDbEntity
  8
DRAW
100
AcDbLine
 10
53.80670170906251
 20
170.5357993352503
 30
0.0
 11
58.30670171204274
 21
171.5357993352503
 31
0.0
  0
LINE
  5
44BD
330
A
100
AcDbEntity
  8
DRAW
100
AcDbLine
 10
58.30670171196061
 20
170.9506049159989
 30
0.0
 11
56.44007651701308
 21
170.5357993173964
 31
0.0
  0
LINE
  5
44BE
330
A
100
AcDbEntity
  8
DRAW
100
AcDbLine
 10
60.17332690111186
 20
170.535799318135
 30
0.0
 11
58.30670171196065
 21
170.9506049159989
 31
0.0
  0
LINE
  5
44BF
330
A
100
AcDbEntity
  8
DRAW
100
AcDbLine
 10
58.30670171204269
 20
171.5357993352503
 30
0.0
 11
58.30670171196062
 21
170.9506049159989
 31
0.0
  0
LINE
  5
44C0
330
A
100
AcDbEntity
  8
DRAW
100
AcDbLine
 10
58.30670170616429
 20
170.1209937195325
 30
0.0
 11
60.17332690111182
 21
170.535799318135
 31
0.0
  0
LINE
  5
44C1
330
A
100
AcDbEntity
  8
DRAW
100
AcDbLine
 10
62.80670170906245
 20
170.5357993352503
 30
0.0
 11
60.17332690111182
 21
170.535799318135
 31
0.0
  0
LINE
  5
44C2
330
A
100
AcDbEntity
  8
DRAW
100
AcDbLine
 10
56.4400765170131
 20
170.5357993173964
 30
0.0
 11
58.3067017061643
 21
170.1209937195325
 31
0.0
  0
LINE
  5
44C3
330
A
100
AcDbEntity
  8
DRAW
100
AcDbLine
 10
58.30670170608226
 20
169.5357993352503
 30
0.0
 11
58.30670170616434
 21
170.1209937195325
 31
0.0
  0
LINE
  5
44C4
330
A
100
AcDbEntity
  8
DRAW
100
AcDbLine
 10
53.80670170906251
 20
170.5357993352503
 30
0.0
 11
56.44007651701314
 21
170.5357993173964
 31
0.0
  0
LINE
  5
44C5
330
A
100
AcDbEntity
  8
DRAW
100
AcDbLine
 10
57.20670282172694
 20
174.5858004711395
 30
0.0
 11
56.30670436653224
 21
174.5858004711395
 31
0.0
  0
LINE
  5
44C6
330
A
100
AcDbEntity
  8
DRAW
100
AcDbLine
 10
65.25670170921149
 20
174.5858004711395
 30
0.0
 11
63.30670387765167
 21
174.5858004711395
 31
0.0
  0
LINE
  5
44C7
330
A
100
AcDbEntity
  8
DRAW
100
AcDbLine
 10
60.30670411607025
 20
174.5858004711395
 30
0.0
 11
59.40670282172686
 21
174.5858004711395
 31
0.0
  0
LINE
  5
44C8
330
A
100
AcDbEntity
  8
DRAW
100
AcDbLine
 10
145.6004235374878
 20
164.0858004652362
 30
0.0
 11
122.7004204805533
 21
164.0858004652362
 31
0.0
  0
LINE
  5
44C9
330
A
100
AcDbEntity
  8
DRAW
100
AcDbLine
 10
152.100423346753
 20
174.5858004652361
 30
0.0
 11
152.100423346753
 21
170.5858002745013
 31
0.0
  0
LINE
  5
44CA
330
A
100
AcDbEntity
  8
DRAW
100
AcDbLine
 10
151.300423334832
 20
174.5858004652361
 30
0.0
 11
152.100423346753
 21
174.5858004652361
 31
0.0
  0
LINE
  5
44CB
330
A
100
AcDbEntity
  8
DRAW
100
AcDbLine
 10
122.7004208964856
 20
164.885800442188
 30
0.0
 11
122.7004208964856
 21
164.0858004652362
 31
0.0
  0
LINE
  5
44CC
330
A
100
AcDbEntity
  8
DRAW
100
AcDbLine
 10
122.70042164261
 20
174.585800430267
 30
0.0
 11
151.300423334832
 21
174.585800430267
 31
0.0
  0
ARC
  5
44CD
330
A
100
AcDbEntity
  8
DRAW
100
AcDbCircle
 10
145.6004235374878
 20
170.5858002745013
 30
0.0
 40
6.499999809265137
100
AcDbArc
 50
270.0
 51
0.0
  0
LINE
  5
44CE
330
A
100
AcDbEntity
  8
DRAW
100
AcDbLine
 10
122.7004208964856
 20
167.785800430267
 30
0.0
 11
122.7004205782856
 21
164.885800442188
 31
0.0
  0
LINE
  5
44CF
330
A
100
AcDbEntity
  8
DRAW
100
AcDbLine
 10
122.7004215548306
 20
173.7857997257692
 30
0.0
 11
121.100423346753
 21
173.7857997257692
 31
0.0
  0
LINE
  5
44D0
330
A
100
AcDbEntity
  8
DRAW
100
AcDbLine
 10
121.100423346753
 20
167.785800430267
 30
0.0
 11
122.7004208964856
 21
167.785800430267
 31
0.0
  0
LINE
  5
44D1
330
A
100
AcDbEntity
  8
DRAW
100
AcDbLine
 10
121.100423346753
 20
173.7857997257692
 30
0.0
 11
121.100423346753
 21
167.785800430267
 31
0.0
  0
LINE
  5
44D2
330
A
100
AcDbEntity
  8
DRAW
100
AcDbLine
 10
122.70042164261
 20
174.585800430267
 30
0.0
 11
122.7004215548306
 21
173.7857997257692
 31
0.0
  0
LINE
  5
44D3
330
A
100
AcDbEntity
  8
DRAW
100
AcDbLine
 10
152.100423346753
 20
169.535799633141
 30
0.0
 11
152.0150549014574
 21
169.535799633141
 31
0.0
  0
LINE
  5
44D4
330
A
100
AcDbEntity
  8
DRAW
100
AcDbLine
 10
152.100423346753
 20
169.535799633141
 30
0.0
 11
152.100423346753
 21
170.5357994364397
 31
0.0
  0
LINE
  5
44D5
330
A
100
AcDbEntity
  8
DRAW
100
AcDbLine
 10
152.5004233467529
 20
170.9506052313742
 30
0.0
 11
152.5004233467529
 21
170.5357995511789
 31
0.0
  0
LINE
  5
44D6
330
A
100
AcDbEntity
  8
DRAW
100
AcDbLine
 10
152.100423346753
 20
171.535799633141
 30
0.0
 11
152.500423346753
 21
170.9506052313742
 31
0.0
  0
LINE
  5
44D7
330
A
100
AcDbEntity
  8
DRAW
100
AcDbLine
 10
152.5004233467529
 20
170.5357995511789
 30
0.0
 11
152.5004233467529
 21
170.1209940349078
 31
0.0
  0
LINE
  5
44D8
330
A
100
AcDbEntity
  8
DRAW
100
AcDbLine
 10
152.100423346753
 20
169.535799633141
 30
0.0
 11
152.500423346753
 21
170.1209940349078
 31
0.0
  0
LINE
  5
44D9
330
A
100
AcDbEntity
  8
DRAW
100
AcDbLine
 10
152.100423346753
 20
170.5357994364397
 30
0.0
 11
152.500423346753
 21
170.5357995511789
 31
0.0
  0
ENDSEC
  0
SECTION
  2
OBJECTS
  0
DICTIONARY
  5
19
330
0
100
AcDbDictionary
  3
ACAD_GROUP
350
1A
  3
ACAD_LAYOUT
350
34B8
  3
ACAD_MLINESTYLE
350
1B
  3
ACAD_PLOTSETTINGS
350
34B9
1001
ACAD
1000
TREAT_AS_HARD
1070
     0
  0
DICTIONARY
  5
44E1
330
A
100
AcDbDictionary
  3
ACAD_LAYOUTSELFREF
350
44E2
  0
DICTIONARY
  5
44E3
330
B
100
AcDbDictionary
  3
ACAD_LAYOUTSELFREF
350
44E4
  0
DICTIONARY
  5
1A
102
{ACAD_REACTORS
330
19
102
}
330
19
100
AcDbDictionary
1001
ACAD
1000
TREAT_AS_HARD
1070
     0
  0
DICTIONARY
  5
34B8
102
{ACAD_REACTORS
330
19
102
}
330
19
100
AcDbDictionary
1001
ACAD
1000
TREAT_AS_HARD
1070
     0
  0
DICTIONARY
  5
1B
102
{ACAD_REACTORS
330
19
102
}
330
19
100
AcDbDictionary
  3
STANDARD
350
1C
1001
ACAD
1000
TREAT_AS_HARD
1070
     0
  0
DICTIONARY
  5
34B9
102
{ACAD_REACTORS
330
19
102
}
330
19
100
AcDbDictionary
1001
ACAD
1000
TREAT_AS_HARD
1070
     0
  0
XRECORD
  5
44E2
102
{ACAD_REACTORS
330
44E1
102
}
330
44E1
100
AcDbXrecord
340
A
  0
XRECORD
  5
44E4
102
{ACAD_REACTORS
330
44E3
102
}
330
44E3
100
AcDbXrecord
340
B
  0
MLINESTYLE
  5
1C
102
{ACAD_REACTORS
330
1B
102
}
330
1B
100
AcDbMlineStyle
  2
STANDARD
 70
     0
  3

 62
     0
 51
90.0
 52
90.0
 71
     2
 49
0.5
 62
   256
  6
BYLAYER
 49
-0.5
 62
   256
  6
BYLAYER
  0
ENDSEC
  0
EOF
