  0
SECTION
  2
HEADER
  9
$ACADVER
  1
AC1006
  9
$DWGCODEPAGE
  3
ansi_1252
  9
$INSBASE
 10
0.0
 20
0.0
 30
0.0
  9
$EXTMIN
 10
0.0
 20
0.0
  9
$EXTMAX
 10
100.0
 20
100.0
  9
$LIMMIN
 10
0.0
 20
0.0
  9
$LIMMAX
 10
100.0
 20
100.0
  9
$VIEWCTR
 10
6.591
 20
4.579
  9
$VIEWSIZE
 40
9.158
  9
$SNAPMODE
 70
  0
  9
$SNAPUNIT
 10
1.0
 20
1.0
  9
$SNAPBASE
 10
0.0
 20
0.0
  9
$SNAPANG
 50
0.0
  9
$SNAPSTYLE
 70
  0
  9
$SNAPISOPAIR
 70
  0
  9
$GRIDMODE
 70
  0
  9
$GRIDUNIT
 10
0.0
 20
0.0
  9
$ORTHOMODE
 70
  0
  9
$REGENMODE
 70
  1
  9
$FILLMODE
 70
  1
  9
$QTEXTMODE
 70
  0
  9
$MIRRTEXT
 70
  1
  9
$DRAGMODE
 70
  2
  9
$LTSCALE
 40
1.0
  9
$OSMODE
 70
  0
  9
$ATTMODE
 70
  1
  9
$TEXTSIZE
 40
0.2
  9
$TRACEWID
 40
0.05
  9
$TEXTSTYLE
  7
STANDARD
  9
$CLAYER
  8
0
  9
$CELTYPE
  6
CONTINUOUS
  9
$CECOLOR
 62
256
  9
$DIMSCALE
 40
1.0
  9
$DIMASZ
 40
0.18
  9
$DIMEXO
 40
0.063
  9
$DIMDLI
 40
0.38
  9
$DIMRND
 40
0.0
  9
$DIMDLE
 40
0.0
  9
$DIMEXE
 40
0.18
  9
$DIMTP
 40
0.0
  9
$DIMTM
 40
0.0
  9
$DIMTXT
 40
0.18
  9
$DIMCEN
 40
0.09
  9
$DIMTSZ
 40
0.0
  9
$DIMTOL
 70
  0
  9
$DIMLIM
 70
  0
  9
$DIMTIH
 70
  1
  9
$DIMTOH
 70
  1
  9
$DIMSE1
 70
  0
  9
$DIMSE2
 70
  0
  9
$DIMTAD
 70
  0
  9
$DIMZIN
 70
  0
  9
$DIMBLK
  1

  9
$DIMASO
 70
  1
  9
$DIMSHO
 70
  1
  9
$DIMPOST
  1

  9
$DIMAPOST
  1

  9
$DIMALT
 70
  0
  9
$DIMALTD
 70
  2
  9
$DIMALTF
 40
25.4
  9
$DIMLFAC
 40
1.0
  9
$DIMTOFL
 70
  0
  9
$DIMTVP
 40
0.0
  9
$DIMTIX
 70
  0
  9
$DIMSOXD
 70
  0
  9
$DIMSAH
 70
  0
  9
$DIMBLK1
  1

  9
$DIMBLK2
  1

  9
$LUNITS
 70
  2
  9
$LUPREC
 70
  4
  9
$AXISMODE
 70
  0
  9
$AXISUNIT
 10
0.0
 20
0.0
  9
$SKETCHINC
 40
0.1
  9
$FILLETRAD
 40
0.0
  9
$AUNITS
 70
  0
  9
$AUPREC
 70
  3
  9
$MENU
  1
acad
  9
$ELEVATION
 40
0.0
  9
$THICKNESS
 40
0.0
  9
$LIMCHECK
 70
  0
  9
$BLIPMODE
 70
  1
  9
$CHAMFERA
 40
0.0
  9
$CHAMFERB
 40
0.0
  9
$SKPOLY
 70
  0
  9
$TDCREATE
 40
0.000000000
  9
$TDUPDATE
 40
0.000000000
  9
$TDINDWG
 40
0.0000000000
  9
$TDUSRTIMER
 40
0.0000000000
  9
$USRTIMER
 70
  1
  9
$ANGBASE
 50
0.0
  9
$ANGDIR
 70
  0
  9
$PDMODE
 70
  0
  9
$PDSIZE
 40
0.0
  9
$PLINEWID
 40
0.0
  9
$COORDS
 70
  0
  9
$SPLFRAME
 70
  0
  9
$SPLINETYPE
 70
  6
  9
$SPLINESEGS
 70
  8
  9
$ATTDIA
 70
  0
  9
$ATTREQ
 70
  1
  9
$HANDLING
 70
  0
  9
$HANDSEED
  5
3
  9
$SURFTAB1
 70
  6
  9
$SURFTAB2
 70
  6
  9
$SURFTYPE
 70
  6
  9
$SURFU
 70
  6
  9
$SURFV
 70
  6
  9
$FLATLAND
 70
  0
  9
$UCSNAME
  2

  9
$UCSORG
 10
0.0
 20
0.0
 30
0.0
  9
$UCSXDIR
 10
1.0
 20
0.0
 30
0.0
  9
$UCSYDIR
 10
0.0
 20
1.0
 30
0.0
  9
$USERI1
 70
  0
  9
$USERI2
 70
  0
  9
$USERI3
 70
  0
  9
$USERI4
 70
  0
  9
$USERI5
 70
  0
  9
$USERR1
 40
0.0
  9
$USERR2
 40
0.0
  9
$USERR3
 40
0.0
  9
$USERR4
 40
0.0
  9
$USERR5
 40
0.0
  9
$WORLDVIEW
 70
  1
  0
ENDSEC
  0
SECTION
  2
TABLES
  0
TABLE
  2
VPORT
 70
  1
  0
VPORT
  2
*ACTIVE
 70
  0
 10
0.0
 20
0.0
 11
1.0
 21
1.0
 12
6.591
 22
4.579
 13
0.0
 23
0.0
 14
1.0
 24
1.0
 15
0.0
 25
0.0
 16
0.0
 26
0.0
 36
1.0
 17
0.0
 27
0.0
 37
0.0
 40
9.158
 41
0.689
 42
50.0
 43
0.0
 44
0.0
 50
0.0
 51
0.0
 71
  0
 72
100
 73
  1
 74
  1
 75
  0
 76
  0
 77
  0
 78
  0
  0
ENDTAB
  0
TABLE
  2
LTYPE
 70
  1
  0
LTYPE
  2
CONTINUOUS
 70
  0
  3
Solid line
 72
 65
 73
  0
 40
0.0
  0
ENDTAB
  0
TABLE
  2
LAYER
 70
  7
  0
LAYER
  2
0
 70
  0
 62
  1
  6
CONTINUOUS
  0
LAYER
  2
1
 70
  0
 62
  1
  6
CONTINUOUS
  0
LAYER
  2
2
 70
  0
 62
  1
  6
CONTINUOUS
  0
LAYER
  2
3
 70
  0
 62
  1
  6
CONTINUOUS
  0
LAYER
  2
5
 70
  0
 62
  1
  6
CONTINUOUS
  0
LAYER
  2
255
 70
  0
 62
  1
  6
CONTINUOUS
  0
LAYER
  2
DEFPOINTS
 70
  0
 62
  1
  6
CONTINUOUS
  0
ENDTAB
  0
TABLE
  2
STYLE
 70
  1
  0
STYLE
  2
STANDARD
 70
  0
 40
0.0
 41
1.0
 50
0.0
 71
  0
 42
0.2
  3
txt
  4

  0
ENDTAB
  0
TABLE
  2
VIEW
 70
  0
  0
ENDTAB
  0
TABLE
  2
UCS
 70
  0
  0
ENDTAB
  0
ENDSEC
  0
SECTION
  2
BLOCKS
  0
BLOCK
  8
0
  2
_G_T_1
 70
 64
 10
0.0
 20
0.0
  0
TEXT
  8
5
  6
CONTINUOUS
 62
  1
 10
622.981
 20
204.165
 30
0.0
 40
1.5
  1
3
 41
1.0
  0
ENDBLK
  8
0
  0
BLOCK
  8
0
  2
_G_T_10
 70
 64
 10
0.0
 20
0.0
  0
TEXT
  8
5
  6
CONTINUOUS
 62
  1
 10
612.878
 20
196.182
 30
0.0
 40
1.5
  1
10
 41
1.0
  0
ENDBLK
  8
0
  0
BLOCK
  8
0
  2
_G_T_11
 70
 64
 10
0.0
 20
0.0
  0
TEXT
  8
5
  6
CONTINUOUS
 62
  1
 10
622.848
 20
196.123
 30
0.0
 40
1.5
  1
11
 41
1.0
  0
ENDBLK
  8
0
  0
BLOCK
  8
0
  2
_G_T_12
 70
 64
 10
0.0
 20
0.0
  0
TEXT
  8
5
  6
CONTINUOUS
 62
  1
 10
632.804
 20
196.167
 30
0.0
 40
1.5
  1
12
 41
1.0
  0
ENDBLK
  8
0
  0
BLOCK
  8
0
  2
_G_T_13
 70
 64
 10
0.0
 20
0.0
  0
TEXT
  8
5
  6
CONTINUOUS
 62
  1
 10
606.298
 20
188.683
 30
0.0
 40
1.5
  1
13
 41
1.0
  0
ENDBLK
  8
0
  0
BLOCK
  8
0
  2
_G_T_14
 70
 64
 10
0.0
 20
0.0
  0
TEXT
  8
5
  6
CONTINUOUS
 62
  1
 10
606.298
 20
186.732
 30
0.0
 40
1.5
  1
A1
 41
1.0
  0
ENDBLK
  8
0
  0
BLOCK
  8
0
  2
_G_T_15
 70
 64
 10
0.0
 20
0.0
  0
TEXT
  8
5
  6
CONTINUOUS
 62
  1
 10
632.555
 20
188.698
 30
0.0
 40
1.5
  1
14
 41
1.0
  0
ENDBLK
  8
0
  0
BLOCK
  8
0
  2
_G_T_16
 70
 64
 10
0.0
 20
0.0
  0
TEXT
  8
5
  6
CONTINUOUS
 62
  1
 10
632.482
 20
186.857
 30
0.0
 40
1.5
  1
A2
 41
1.0
  0
ENDBLK
  8
0
  0
BLOCK
  8
0
  2
_G_T_17
 70
 64
 10
0.0
 20
0.0
  0
TEXT
  8
5
  6
CONTINUOUS
 62
  1
 10
607.376
 20
203.656
 30
0.0
 40
1.5
  1
12
 50
90.0
 41
1.0
  0
ENDBLK
  8
0
  0
BLOCK
  8
0
  2
_G_T_18
 70
 64
 10
0.0
 20
0.0
  0
TEXT
  8
5
  6
CONTINUOUS
 62
  1
 10
617.436
 20
203.656
 30
0.0
 40
1.5
  1
22
 50
90.0
 41
1.0
  0
ENDBLK
  8
0
  0
BLOCK
  8
0
  2
_G_T_19
 70
 64
 10
0.0
 20
0.0
  0
TEXT
  8
5
  6
CONTINUOUS
 62
  1
 10
627.434
 20
203.594
 30
0.0
 40
1.5
  1
32
 50
90.0
 41
1.0
  0
ENDBLK
  8
0
  0
BLOCK
  8
0
  2
_G_T_2
 70
 64
 10
0.0
 20
0.0
  0
TEXT
  8
5
  6
CONTINUOUS
 62
  1
 10
612.982
 20
204.165
 30
0.0
 40
1.5
  1
2
 41
1.0
  0
ENDBLK
  8
0
  0
BLOCK
  8
0
  2
_G_T_20
 70
 64
 10
0.0
 20
0.0
  0
TEXT
  8
5
  6
CONTINUOUS
 62
  1
 10
637.432
 20
203.656
 30
0.0
 40
1.5
  1
42
 50
90.0
 41
1.0
  0
ENDBLK
  8
0
  0
BLOCK
  8
0
  2
_G_T_21
 70
 64
 10
0.0
 20
0.0
  0
TEXT
  8
5
  6
CONTINUOUS
 62
  1
 10
607.387
 20
196.02
 30
0.0
 40
1.5
  1
11
 50
90.0
 41
1.0
  0
ENDBLK
  8
0
  0
BLOCK
  8
0
  2
_G_T_22
 70
 64
 10
0.0
 20
0.0
  0
TEXT
  8
5
  6
CONTINUOUS
 62
  1
 10
617.448
 20
196.057
 30
0.0
 40
1.5
  1
21
 50
90.0
 41
1.0
  0
ENDBLK
  8
0
  0
BLOCK
  8
0
  2
_G_T_23
 70
 64
 10
0.0
 20
0.0
  0
TEXT
  8
5
  6
CONTINUOUS
 62
  1
 10
627.451
 20
196.093
 30
0.0
 40
1.5
  1
31
 50
90.0
 41
1.0
  0
ENDBLK
  8
0
  0
BLOCK
  8
0
  2
_G_T_24
 70
 64
 10
0.0
 20
0.0
  0
TEXT
  8
5
  6
CONTINUOUS
 62
  1
 10
637.428
 20
196.049
 30
0.0
 40
1.5
  1
41
 50
90.0
 41
1.0
  0
ENDBLK
  8
0
  0
BLOCK
  8
0
  2
_G_T_25
 70
 64
 10
0.0
 20
0.0
  0
TEXT
  8
5
  6
CONTINUOUS
 62
  1
 10
637.467
 20
199.107
 30
0.0
 40
1.5
  1
44
 50
90.0
 41
1.0
  0
ENDBLK
  8
0
  0
BLOCK
  8
0
  2
_G_T_26
 70
 64
 10
0.0
 20
0.0
  0
TEXT
  8
5
  6
CONTINUOUS
 62
  1
 10
627.469
 20
199.044
 30
0.0
 40
1.5
  1
34
 50
90.0
 41
1.0
  0
ENDBLK
  8
0
  0
BLOCK
  8
0
  2
_G_T_27
 70
 64
 10
0.0
 20
0.0
  0
TEXT
  8
5
  6
CONTINUOUS
 62
  1
 10
617.471
 20
199.107
 30
0.0
 40
1.5
  1
24
 50
90.0
 41
1.0
  0
ENDBLK
  8
0
  0
BLOCK
  8
0
  2
_G_T_28
 70
 64
 10
0.0
 20
0.0
  0
TEXT
  8
5
  6
CONTINUOUS
 62
  1
 10
607.41
 20
199.107
 30
0.0
 40
1.5
  1
14
 50
90.0
 41
1.0
  0
ENDBLK
  8
0
  0
BLOCK
  8
0
  2
_G_T_3
 70
 64
 10
0.0
 20
0.0
  0
TEXT
  8
5
  6
CONTINUOUS
 62
  1
 10
602.896
 20
204.165
 30
0.0
 40
1.5
  1
1
 41
1.0
  0
ENDBLK
  8
0
  0
BLOCK
  8
0
  2
_G_T_4
 70
 64
 10
0.0
 20
0.0
  0
TEXT
  8
5
  6
CONTINUOUS
 62
  1
 10
632.937
 20
204.208
 30
0.0
 40
1.5
  1
4
 41
1.0
  0
ENDBLK
  8
0
  0
BLOCK
  8
0
  2
_G_T_5
 70
 64
 10
0.0
 20
0.0
  0
TEXT
  8
5
  6
CONTINUOUS
 62
  1
 10
603.112
 20
199.531
 30
0.0
 40
1.5
  1
5
 41
1.0
  0
ENDBLK
  8
0
  0
BLOCK
  8
0
  2
_G_T_6
 70
 64
 10
0.0
 20
0.0
  0
TEXT
  8
5
  6
CONTINUOUS
 62
  1
 10
613.198
 20
199.531
 30
0.0
 40
1.5
  1
6
 41
1.0
  0
ENDBLK
  8
0
  0
BLOCK
  8
0
  2
_G_T_7
 70
 64
 10
0.0
 20
0.0
  0
TEXT
  8
5
  6
CONTINUOUS
 62
  1
 10
623.197
 20
199.531
 30
0.0
 40
1.5
  1
7
 41
1.0
  0
ENDBLK
  8
0
  0
BLOCK
  8
0
  2
_G_T_8
 70
 64
 10
0.0
 20
0.0
  0
TEXT
  8
5
  6
CONTINUOUS
 62
  1
 10
633.153
 20
199.574
 30
0.0
 40
1.5
  1
8
 41
1.0
  0
ENDBLK
  8
0
  0
BLOCK
  8
0
  2
_G_T_9
 70
 64
 10
0.0
 20
0.0
  0
TEXT
  8
5
  6
CONTINUOUS
 62
  1
 10
603.026
 20
196.152
 30
0.0
 40
1.5
  1
9
 41
1.0
  0
ENDBLK
  8
0
  0
BLOCK
  8
0
  2
*X28
 70
 65
 10
0.0
 20
0.0
  0
LINE
  8
3
  6
CONTINUOUS
 62
  7
 10
553.833
 20
-12.0
 30
0.0
 11
552.811
 21
-12.0
 31
0.0
  0
LINE
  8
3
  6
CONTINUOUS
 62
  7
 10
550.587
 20
-12.0
 30
0.0
 11
549.627
 21
-12.0
 31
0.0
  0
LINE
  8
3
  6
CONTINUOUS
 62
  7
 10
548.515
 20
-12.0
 30
0.0
 11
547.044
 21
-12.0
 31
0.0
  0
LINE
  8
3
  6
CONTINUOUS
 62
  7
 10
545.516
 20
-12.0
 30
0.0
 11
544.495
 21
-12.0
 31
0.0
  0
LINE
  8
3
  6
CONTINUOUS
 62
  7
 10
545.548
 20
-8.0
 30
0.0
 11
547.025
 21
-8.0
 31
0.0
  0
LINE
  8
3
  6
CONTINUOUS
 62
  7
 10
547.729
 20
-8.0
 30
0.0
 11
548.678
 21
-8.0
 31
0.0
  0
LINE
  8
3
  6
CONTINUOUS
 62
  7
 10
549.627
 20
-8.0
 30
0.0
 11
550.587
 21
-8.0
 31
0.0
  0
LINE
  8
3
  6
CONTINUOUS
 62
  7
 10
551.302
 20
-8.0
 30
0.0
 11
552.779
 21
-8.0
 31
0.0
  0
ENDBLK
  8
0
  0
BLOCK
  8
0
  2
*X29
 70
 65
 10
0.0
 20
0.0
  0
LINE
  8
3
  6
CONTINUOUS
 62
  7
 10
557.734
 20
-12.0
 30
0.0
 11
555.939
 21
-12.0
 31
0.0
  0
ENDBLK
  8
0
  0
BLOCK
  8
0
  2
*X30
 70
 65
 10
0.0
 20
0.0
  0
ENDBLK
  8
0
  0
BLOCK
  8
0
  2
*X31
 70
 65
 10
0.0
 20
0.0
  0
LINE
  8
3
  6
CONTINUOUS
 62
  7
 10
560.89
 20
-12.0
 30
0.0
 11
559.072
 21
-12.0
 31
0.0
  0
ENDBLK
  8
0
  0
BLOCK
  8
0
  2
*X32
 70
 65
 10
0.0
 20
0.0
  0
LINE
  8
3
  6
CONTINUOUS
 62
  7
 10
567.156
 20
-12.0
 30
0.0
 11
565.089
 21
-12.0
 31
0.0
  0
LINE
  8
3
  6
CONTINUOUS
 62
  7
 10
564.182
 20
-12.0
 30
0.0
 11
561.759
 21
-12.0
 31
0.0
  0
ENDBLK
  8
0
  0
BLOCK
  8
0
  2
*X33
 70
 65
 10
0.0
 20
0.0
  0
LINE
  8
3
  6
CONTINUOUS
 62
  7
 10
573.251
 20
-12.0
 30
0.0
 11
571.363
 21
-12.0
 31
0.0
  0
LINE
  8
3
  6
CONTINUOUS
 62
  7
 10
569.599
 20
-12.0
 30
0.0
 11
567.734
 21
-12.0
 31
0.0
  0
ENDBLK
  8
0
  0
BLOCK
  8
0
  2
*X34
 70
 65
 10
0.0
 20
0.0
  0
LINE
  8
3
  6
CONTINUOUS
 62
  7
 10
579.457
 20
-12.0
 30
0.0
 11
573.787
 21
-12.0
 31
0.0
  0
ENDBLK
  8
0
  0
BLOCK
  8
0
  2
*X35
 70
 65
 10
0.0
 20
0.0
  0
LINE
  8
3
  6
CONTINUOUS
 62
  7
 10
584.571
 20
-12.0
 30
0.0
 11
582.683
 21
-12.0
 31
0.0
  0
LINE
  8
3
  6
CONTINUOUS
 62
  7
 10
581.79
 20
-12.0
 30
0.0
 11
579.997
 21
-12.0
 31
0.0
  0
ENDBLK
  8
0
  0
BLOCK
  8
0
  2
*D36
 70
 65
 10
0.0
 20
0.0
  0
LINE
  8
1
  6
CONTINUOUS
 62
  2
 10
662.359
 20
89.309
 30
0.0
 11
662.359
 21
77.527
 31
0.0
  0
LINE
  8
1
  6
CONTINUOUS
 62
  3
 10
662.359
 20
78.694
 30
0.0
 11
663.559
 21
78.91
 31
0.0
  0
LINE
  8
1
  6
CONTINUOUS
 62
  3
 10
663.559
 20
78.91
 30
0.0
 11
663.559
 21
78.478
 31
0.0
  0
LINE
  8
1
  6
CONTINUOUS
 62
  3
 10
663.559
 20
78.478
 30
0.0
 11
662.359
 21
78.694
 31
0.0
  0
LINE
  8
1
  6
CONTINUOUS
 62
  3
 10
661.859
 20
78.694
 30
0.0
 11
660.659
 21
78.478
 31
0.0
  0
LINE
  8
1
  6
CONTINUOUS
 62
  3
 10
660.659
 20
78.478
 30
0.0
 11
660.659
 21
78.91
 31
0.0
  0
LINE
  8
1
  6
CONTINUOUS
 62
  3
 10
660.659
 20
78.91
 30
0.0
 11
661.859
 21
78.694
 31
0.0
  0
LINE
  8
1
  6
CONTINUOUS
 62
  2
 10
664.159
 20
78.694
 30
0.0
 11
662.359
 21
78.694
 31
0.0
  0
LINE
  8
1
  6
CONTINUOUS
 62
  2
 10
662.359
 20
78.694
 30
0.0
 11
661.859
 21
78.694
 31
0.0
  0
LINE
  8
1
  6
CONTINUOUS
 62
  2
 10
661.859
 20
78.694
 30
0.0
 11
646.45
 21
78.694
 31
0.0
  0
TEXT
  8
1
  6
CONTINUOUS
 62
  2
 10
647.96
 20
79.86
 30
0.0
 40
3.5
  1
0.5
 50
360.0
 41
0.94
 72
  1
 11
652.895
 21
79.86
 31
0.0
  0
LINE
  8
1
  6
CONTINUOUS
 62
  2
 10
661.859
 20
89.309
 30
0.0
 11
661.859
 21
77.527
 31
0.0
  0
POINT
  8
DEFPOINTS
 62
  2
 10
662.359
 20
91.309
 30
0.0
  0
POINT
  8
DEFPOINTS
 62
  2
 10
661.859
 20
91.309
 30
0.0
  0
POINT
  8
DEFPOINTS
 62
  2
 10
661.859
 20
78.694
 30
0.0
  0
ENDBLK
  8
0
  0
BLOCK
  8
0
  2
*D37
 70
 65
 10
0.0
 20
0.0
  0
LINE
  8
1
  6
CONTINUOUS
 62
  2
 10
678.609
 20
97.409
 30
0.0
 11
690.725
 21
97.409
 31
0.0
  0
LINE
  8
1
  6
CONTINUOUS
 62
  3
 10
689.558
 20
97.409
 30
0.0
 11
689.342
 21
98.609
 31
0.0
  0
LINE
  8
1
  6
CONTINUOUS
 62
  3
 10
689.342
 20
98.609
 30
0.0
 11
689.774
 21
98.609
 31
0.0
  0
LINE
  8
1
  6
CONTINUOUS
 62
  3
 10
689.774
 20
98.609
 30
0.0
 11
689.558
 21
97.409
 31
0.0
  0
LINE
  8
1
  6
CONTINUOUS
 62
  3
 10
689.558
 20
90.409
 30
0.0
 11
689.774
 21
89.209
 31
0.0
  0
LINE
  8
1
  6
CONTINUOUS
 62
  3
 10
689.774
 20
89.209
 30
0.0
 11
689.342
 21
89.209
 31
0.0
  0
LINE
  8
1
  6
CONTINUOUS
 62
  3
 10
689.342
 20
89.209
 30
0.0
 11
689.558
 21
90.409
 31
0.0
  0
LINE
  8
1
  6
CONTINUOUS
 62
  2
 10
689.558
 20
99.209
 30
0.0
 11
689.558
 21
97.409
 31
0.0
  0
LINE
  8
1
  6
CONTINUOUS
 62
  2
 10
689.558
 20
97.409
 30
0.0
 11
689.558
 21
90.409
 31
0.0
  0
LINE
  8
1
  6
CONTINUOUS
 62
  2
 10
689.558
 20
90.409
 30
0.0
 11
689.558
 21
79.277
 31
0.0
  0
TEXT
  8
1
  6
CONTINUOUS
 62
  2
 10
688.391
 20
81.254
 30
0.0
 40
3.5
  1
7
 50
90.0
 41
0.94
 72
  1
 11
688.391
 21
82.899
 31
0.0
  0
LINE
  8
1
  6
CONTINUOUS
 62
  2
 10
674.659
 20
90.409
 30
0.0
 11
690.725
 21
90.409
 31
0.0
  0
POINT
  8
DEFPOINTS
 62
  2
 10
676.609
 20
97.409
 30
0.0
  0
POINT
  8
DEFPOINTS
 62
  2
 10
672.659
 20
90.409
 30
0.0
  0
POINT
  8
DEFPOINTS
 62
  2
 10
689.558
 20
90.409
 30
0.0
  0
ENDBLK
  8
0
  0
BLOCK
  8
0
  2
*D38
 70
 65
 10
0.0
 20
0.0
  0
LINE
  8
1
  6
CONTINUOUS
 62
  2
 10
603.368
 20
89.309
 30
0.0
 11
603.368
 21
77.527
 31
0.0
  0
LINE
  8
1
  6
CONTINUOUS
 62
  3
 10
603.368
 20
78.694
 30
0.0
 11
602.168
 21
78.478
 31
0.0
  0
LINE
  8
1
  6
CONTINUOUS
 62
  3
 10
602.168
 20
78.478
 30
0.0
 11
602.168
 21
78.91
 31
0.0
  0
LINE
  8
1
  6
CONTINUOUS
 62
  3
 10
602.168
 20
78.91
 30
0.0
 11
603.368
 21
78.694
 31
0.0
  0
LINE
  8
1
  6
CONTINUOUS
 62
  3
 10
608.118
 20
78.694
 30
0.0
 11
609.318
 21
78.91
 31
0.0
  0
LINE
  8
1
  6
CONTINUOUS
 62
  3
 10
609.318
 20
78.91
 30
0.0
 11
609.318
 21
78.478
 31
0.0
  0
LINE
  8
1
  6
CONTINUOUS
 62
  3
 10
609.318
 20
78.478
 30
0.0
 11
608.118
 21
78.694
 31
0.0
  0
LINE
  8
1
  6
CONTINUOUS
 62
  2
 10
585.099
 20
78.694
 30
0.0
 11
603.368
 21
78.694
 31
0.0
  0
LINE
  8
1
  6
CONTINUOUS
 62
  2
 10
603.368
 20
78.694
 30
0.0
 11
608.118
 21
78.694
 31
0.0
  0
LINE
  8
1
  6
CONTINUOUS
 62
  2
 10
608.118
 20
78.694
 30
0.0
 11
609.918
 21
78.694
 31
0.0
  0
TEXT
  8
1
  6
CONTINUOUS
 62
  2
 10
586.61
 20
79.86
 30
0.0
 40
3.5
  1
4.8
 41
0.94
 72
  1
 11
591.545
 21
79.86
 31
0.0
  0
LINE
  8
1
  6
CONTINUOUS
 62
  2
 10
608.118
 20
89.309
 30
0.0
 11
608.118
 21
77.527
 31
0.0
  0
POINT
  8
DEFPOINTS
 62
  2
 10
603.368
 20
91.309
 30
0.0
  0
POINT
  8
DEFPOINTS
 62
  2
 10
608.118
 20
91.309
 30
0.0
  0
POINT
  8
DEFPOINTS
 62
  2
 10
608.118
 20
78.694
 30
0.0
  0
ENDBLK
  8
0
  0
BLOCK
  8
0
  2
*D39
 70
 65
 10
0.0
 20
0.0
  0
LINE
  8
1
  6
CONTINUOUS
 62
  2
 10
600.343
 20
99.409
 30
0.0
 11
600.343
 21
143.55
 31
0.0
  0
LINE
  8
1
  6
CONTINUOUS
 62
  3
 10
600.343
 20
142.383
 30
0.0
 11
601.543
 21
142.599
 31
0.0
  0
LINE
  8
1
  6
CONTINUOUS
 62
  3
 10
601.543
 20
142.599
 30
0.0
 11
601.543
 21
142.167
 31
0.0
  0
LINE
  8
1
  6
CONTINUOUS
 62
  3
 10
601.543
 20
142.167
 30
0.0
 11
600.343
 21
142.383
 31
0.0
  0
LINE
  8
1
  6
CONTINUOUS
 62
  3
 10
641.143
 20
142.383
 30
0.0
 11
639.943
 21
142.167
 31
0.0
  0
LINE
  8
1
  6
CONTINUOUS
 62
  3
 10
639.943
 20
142.167
 30
0.0
 11
639.943
 21
142.599
 31
0.0
  0
LINE
  8
1
  6
CONTINUOUS
 62
  3
 10
639.943
 20
142.599
 30
0.0
 11
641.143
 21
142.383
 31
0.0
  0
LINE
  8
1
  6
CONTINUOUS
 62
  2
 10
600.343
 20
142.383
 30
0.0
 11
641.143
 21
142.383
 31
0.0
  0
TEXT
  8
1
  6
CONTINUOUS
 62
  2
 10
614.163
 20
143.55
 30
0.0
 40
3.5
  1
40.8
 41
0.94
 72
  1
 11
620.743
 21
143.55
 31
0.0
  0
LINE
  8
1
  6
CONTINUOUS
 62
  2
 10
641.143
 20
99.409
 30
0.0
 11
641.143
 21
143.55
 31
0.0
  0
POINT
  8
DEFPOINTS
 62
  2
 10
600.343
 20
97.409
 30
0.0
  0
POINT
  8
DEFPOINTS
 62
  2
 10
641.143
 20
97.409
 30
0.0
  0
POINT
  8
DEFPOINTS
 62
  2
 10
641.143
 20
142.383
 30
0.0
  0
ENDBLK
  8
0
  0
BLOCK
  8
0
  2
*D40
 70
 65
 10
0.0
 20
0.0
  0
LINE
  8
1
  6
CONTINUOUS
 62
  2
 10
648.909
 20
99.409
 30
0.0
 11
648.909
 21
143.55
 31
0.0
  0
LINE
  8
1
  6
CONTINUOUS
 62
  3
 10
648.909
 20
142.383
 30
0.0
 11
650.109
 21
142.599
 31
0.0
  0
LINE
  8
1
  6
CONTINUOUS
 62
  3
 10
650.109
 20
142.599
 30
0.0
 11
650.109
 21
142.167
 31
0.0
  0
LINE
  8
1
  6
CONTINUOUS
 62
  3
 10
650.109
 20
142.167
 30
0.0
 11
648.909
 21
142.383
 31
0.0
  0
LINE
  8
1
  6
CONTINUOUS
 62
  3
 10
676.609
 20
142.383
 30
0.0
 11
675.409
 21
142.167
 31
0.0
  0
LINE
  8
1
  6
CONTINUOUS
 62
  3
 10
675.409
 20
142.167
 30
0.0
 11
675.409
 21
142.599
 31
0.0
  0
LINE
  8
1
  6
CONTINUOUS
 62
  3
 10
675.409
 20
142.599
 30
0.0
 11
676.609
 21
142.383
 31
0.0
  0
LINE
  8
1
  6
CONTINUOUS
 62
  2
 10
648.909
 20
142.383
 30
0.0
 11
676.609
 21
142.383
 31
0.0
  0
TEXT
  8
1
  6
CONTINUOUS
 62
  2
 10
656.179
 20
143.55
 30
0.0
 40
3.5
  1
27.7
 41
0.94
 72
  1
 11
662.759
 21
143.55
 31
0.0
  0
LINE
  8
1
  6
CONTINUOUS
 62
  2
 10
676.609
 20
99.409
 30
0.0
 11
676.609
 21
143.55
 31
0.0
  0
POINT
  8
DEFPOINTS
 62
  2
 10
648.909
 20
97.409
 30
0.0
  0
POINT
  8
DEFPOINTS
 62
  2
 10
676.609
 20
97.409
 30
0.0
  0
POINT
  8
DEFPOINTS
 62
  2
 10
676.609
 20
142.383
 30
0.0
  0
ENDBLK
  8
0
  0
BLOCK
  8
0
  2
*D41
 70
 65
 10
0.0
 20
0.0
  0
LINE
  8
1
  6
CONTINUOUS
 62
  2
 10
605.374
 20
208.6
 30
0.0
 11
605.374
 21
217.673
 31
0.0
  0
LINE
  8
1
  6
CONTINUOUS
 62
  3
 10
605.374
 20
216.506
 30
0.0
 11
606.574
 21
216.722
 31
0.0
  0
LINE
  8
1
  6
CONTINUOUS
 62
  3
 10
606.574
 20
216.722
 30
0.0
 11
606.574
 21
216.29
 31
0.0
  0
LINE
  8
1
  6
CONTINUOUS
 62
  3
 10
606.574
 20
216.29
 30
0.0
 11
605.374
 21
216.506
 31
0.0
  0
LINE
  8
1
  6
CONTINUOUS
 62
  3
 10
615.374
 20
216.506
 30
0.0
 11
614.174
 21
216.29
 31
0.0
  0
LINE
  8
1
  6
CONTINUOUS
 62
  3
 10
614.174
 20
216.29
 30
0.0
 11
614.174
 21
216.722
 31
0.0
  0
LINE
  8
1
  6
CONTINUOUS
 62
  3
 10
614.174
 20
216.722
 30
0.0
 11
615.374
 21
216.506
 31
0.0
  0
LINE
  8
1
  6
CONTINUOUS
 62
  2
 10
605.374
 20
216.506
 30
0.0
 11
615.374
 21
216.506
 31
0.0
  0
TEXT
  8
1
  6
CONTINUOUS
 62
  2
 10
607.084
 20
217.673
 30
0.0
 40
3.5
  1
10
 41
0.94
 72
  1
 11
610.374
 21
217.673
 31
0.0
  0
LINE
  8
1
  6
CONTINUOUS
 62
  2
 10
615.374
 20
208.6
 30
0.0
 11
615.374
 21
217.673
 31
0.0
  0
POINT
  8
DEFPOINTS
 62
  2
 10
605.374
 20
206.6
 30
0.0
  0
POINT
  8
DEFPOINTS
 62
  2
 10
615.374
 20
206.6
 30
0.0
  0
POINT
  8
DEFPOINTS
 62
  2
 10
615.374
 20
216.506
 30
0.0
  0
ENDBLK
  8
0
  0
BLOCK
  8
0
  2
*D42
 70
 65
 10
0.0
 20
0.0
  0
LINE
  8
1
  6
CONTINUOUS
 62
  2
 10
615.374
 20
208.6
 30
0.0
 11
615.374
 21
217.673
 31
0.0
  0
LINE
  8
1
  6
CONTINUOUS
 62
  3
 10
615.374
 20
216.506
 30
0.0
 11
616.574
 21
216.722
 31
0.0
  0
LINE
  8
1
  6
CONTINUOUS
 62
  3
 10
616.574
 20
216.722
 30
0.0
 11
616.574
 21
216.29
 31
0.0
  0
LINE
  8
1
  6
CONTINUOUS
 62
  3
 10
616.574
 20
216.29
 30
0.0
 11
615.374
 21
216.506
 31
0.0
  0
LINE
  8
1
  6
CONTINUOUS
 62
  3
 10
625.374
 20
216.506
 30
0.0
 11
624.174
 21
216.29
 31
0.0
  0
LINE
  8
1
  6
CONTINUOUS
 62
  3
 10
624.174
 20
216.29
 30
0.0
 11
624.174
 21
216.722
 31
0.0
  0
LINE
  8
1
  6
CONTINUOUS
 62
  3
 10
624.174
 20
216.722
 30
0.0
 11
625.374
 21
216.506
 31
0.0
  0
LINE
  8
1
  6
CONTINUOUS
 62
  2
 10
615.374
 20
216.506
 30
0.0
 11
625.374
 21
216.506
 31
0.0
  0
TEXT
  8
1
  6
CONTINUOUS
 62
  2
 10
617.084
 20
217.673
 30
0.0
 40
3.5
  1
10
 41
0.94
 72
  1
 11
620.374
 21
217.673
 31
0.0
  0
LINE
  8
1
  6
CONTINUOUS
 62
  2
 10
625.374
 20
208.6
 30
0.0
 11
625.374
 21
217.673
 31
0.0
  0
POINT
  8
DEFPOINTS
 62
  2
 10
615.374
 20
206.6
 30
0.0
  0
POINT
  8
DEFPOINTS
 62
  2
 10
625.374
 20
206.6
 30
0.0
  0
POINT
  8
DEFPOINTS
 62
  2
 10
625.374
 20
216.506
 30
0.0
  0
ENDBLK
  8
0
  0
BLOCK
  8
0
  2
*D43
 70
 65
 10
0.0
 20
0.0
  0
LINE
  8
1
  6
CONTINUOUS
 62
  2
 10
625.374
 20
208.6
 30
0.0
 11
625.374
 21
217.673
 31
0.0
  0
LINE
  8
1
  6
CONTINUOUS
 62
  3
 10
625.374
 20
216.506
 30
0.0
 11
626.574
 21
216.722
 31
0.0
  0
LINE
  8
1
  6
CONTINUOUS
 62
  3
 10
626.574
 20
216.722
 30
0.0
 11
626.574
 21
216.29
 31
0.0
  0
LINE
  8
1
  6
CONTINUOUS
 62
  3
 10
626.574
 20
216.29
 30
0.0
 11
625.374
 21
216.506
 31
0.0
  0
LINE
  8
1
  6
CONTINUOUS
 62
  3
 10
635.374
 20
216.506
 30
0.0
 11
634.174
 21
216.29
 31
0.0
  0
LINE
  8
1
  6
CONTINUOUS
 62
  3
 10
634.174
 20
216.29
 30
0.0
 11
634.174
 21
216.722
 31
0.0
  0
LINE
  8
1
  6
CONTINUOUS
 62
  3
 10
634.174
 20
216.722
 30
0.0
 11
635.374
 21
216.506
 31
0.0
  0
LINE
  8
1
  6
CONTINUOUS
 62
  2
 10
625.374
 20
216.506
 30
0.0
 11
635.374
 21
216.506
 31
0.0
  0
TEXT
  8
1
  6
CONTINUOUS
 62
  2
 10
627.084
 20
217.673
 30
0.0
 40
3.5
  1
10
 41
0.94
 72
  1
 11
630.374
 21
217.673
 31
0.0
  0
LINE
  8
1
  6
CONTINUOUS
 62
  2
 10
635.374
 20
208.6
 30
0.0
 11
635.374
 21
217.673
 31
0.0
  0
POINT
  8
DEFPOINTS
 62
  2
 10
625.374
 20
206.6
 30
0.0
  0
POINT
  8
DEFPOINTS
 62
  2
 10
635.374
 20
206.6
 30
0.0
  0
POINT
  8
DEFPOINTS
 62
  2
 10
635.374
 20
216.506
 30
0.0
  0
ENDBLK
  8
0
  0
BLOCK
  8
0
  2
*D44
 70
 65
 10
0.0
 20
0.0
  0
LINE
  8
1
  6
CONTINUOUS
 62
  2
 10
600.624
 20
206.35
 30
0.0
 11
590.677
 21
206.35
 31
0.0
  0
LINE
  8
1
  6
CONTINUOUS
 62
  3
 10
591.844
 20
206.35
 30
0.0
 11
592.06
 21
205.15
 31
0.0
  0
LINE
  8
1
  6
CONTINUOUS
 62
  3
 10
592.06
 20
205.15
 30
0.0
 11
591.628
 21
205.15
 31
0.0
  0
LINE
  8
1
  6
CONTINUOUS
 62
  3
 10
591.628
 20
205.15
 30
0.0
 11
591.844
 21
206.35
 31
0.0
  0
LINE
  8
1
  6
CONTINUOUS
 62
  3
 10
591.844
 20
210.2
 30
0.0
 11
591.628
 21
211.4
 31
0.0
  0
LINE
  8
1
  6
CONTINUOUS
 62
  3
 10
591.628
 20
211.4
 30
0.0
 11
592.06
 21
211.4
 31
0.0
  0
LINE
  8
1
  6
CONTINUOUS
 62
  3
 10
592.06
 20
211.4
 30
0.0
 11
591.844
 21
210.2
 31
0.0
  0
LINE
  8
1
  6
CONTINUOUS
 62
  2
 10
591.844
 20
204.55
 30
0.0
 11
591.844
 21
206.35
 31
0.0
  0
LINE
  8
1
  6
CONTINUOUS
 62
  2
 10
591.844
 20
206.35
 30
0.0
 11
591.844
 21
210.2
 31
0.0
  0
LINE
  8
1
  6
CONTINUOUS
 62
  2
 10
591.844
 20
210.2
 30
0.0
 11
591.844
 21
224.891
 31
0.0
  0
TEXT
  8
1
  6
CONTINUOUS
 62
  2
 10
590.677
 20
213.51
 30
0.0
 40
3.5
  1
3.8
 50
90.0
 41
0.94
 72
  1
 11
590.677
 21
218.445
 31
0.0
  0
LINE
  8
1
  6
CONTINUOUS
 62
  2
 10
598.874
 20
210.2
 30
0.0
 11
590.677
 21
210.2
 31
0.0
  0
POINT
  8
DEFPOINTS
 62
  2
 10
602.624
 20
206.35
 30
0.0
  0
POINT
  8
DEFPOINTS
 62
  2
 10
600.874
 20
210.2
 30
0.0
  0
POINT
  8
DEFPOINTS
 62
  2
 10
591.844
 20
210.2
 30
0.0
  0
ENDBLK
  8
0
  0
BLOCK
  8
0
  2
*D45
 70
 65
 10
0.0
 20
0.0
  0
LINE
  8
1
  6
CONTINUOUS
 62
  2
 10
640.124
 20
201.6
 30
0.0
 11
654.56
 21
201.6
 31
0.0
  0
LINE
  8
1
  6
CONTINUOUS
 62
  3
 10
653.393
 20
201.6
 30
0.0
 11
653.609
 21
200.4
 31
0.0
  0
LINE
  8
1
  6
CONTINUOUS
 62
  3
 10
653.609
 20
200.4
 30
0.0
 11
653.177
 21
200.4
 31
0.0
  0
LINE
  8
1
  6
CONTINUOUS
 62
  3
 10
653.177
 20
200.4
 30
0.0
 11
653.393
 21
201.6
 31
0.0
  0
LINE
  8
1
  6
CONTINUOUS
 62
  3
 10
653.393
 20
206.35
 30
0.0
 11
653.177
 21
207.55
 31
0.0
  0
LINE
  8
1
  6
CONTINUOUS
 62
  3
 10
653.177
 20
207.55
 30
0.0
 11
653.609
 21
207.55
 31
0.0
  0
LINE
  8
1
  6
CONTINUOUS
 62
  3
 10
653.609
 20
207.55
 30
0.0
 11
653.393
 21
206.35
 31
0.0
  0
LINE
  8
1
  6
CONTINUOUS
 62
  2
 10
653.393
 20
199.8
 30
0.0
 11
653.393
 21
201.6
 31
0.0
  0
LINE
  8
1
  6
CONTINUOUS
 62
  2
 10
653.393
 20
201.6
 30
0.0
 11
653.393
 21
206.35
 31
0.0
  0
LINE
  8
1
  6
CONTINUOUS
 62
  2
 10
653.393
 20
206.35
 30
0.0
 11
653.393
 21
219.019
 31
0.0
  0
TEXT
  8
1
  6
CONTINUOUS
 62
  2
 10
652.226
 20
207.639
 30
0.0
 40
3.5
  1
4.8
 50
90.0
 41
0.94
 72
  1
 11
652.226
 21
212.574
 31
0.0
  0
LINE
  8
1
  6
CONTINUOUS
 62
  2
 10
640.124
 20
206.35
 30
0.0
 11
647.781
 21
206.35
 31
0.0
  0
LINE
  8
1
  6
CONTINUOUS
 62
  2
 10
652.226
 20
206.35
 30
0.0
 11
654.56
 21
206.35
 31
0.0
  0
POINT
  8
DEFPOINTS
 62
  2
 10
638.124
 20
201.6
 30
0.0
  0
POINT
  8
DEFPOINTS
 62
  2
 10
638.124
 20
206.35
 30
0.0
  0
POINT
  8
DEFPOINTS
 62
  2
 10
653.393
 20
206.35
 30
0.0
  0
ENDBLK
  8
0
  0
BLOCK
  8
0
  2
*D46
 70
 65
 10
0.0
 20
0.0
  0
LINE
  8
1
  6
CONTINUOUS
 62
  2
 10
640.124
 20
195.7
 30
0.0
 11
654.56
 21
195.7
 31
0.0
  0
LINE
  8
1
  6
CONTINUOUS
 62
  3
 10
653.393
 20
195.7
 30
0.0
 11
653.609
 21
194.5
 31
0.0
  0
LINE
  8
1
  6
CONTINUOUS
 62
  3
 10
653.609
 20
194.5
 30
0.0
 11
653.177
 21
194.5
 31
0.0
  0
LINE
  8
1
  6
CONTINUOUS
 62
  3
 10
653.177
 20
194.5
 30
0.0
 11
653.393
 21
195.7
 31
0.0
  0
LINE
  8
1
  6
CONTINUOUS
 62
  3
 10
653.393
 20
201.6
 30
0.0
 11
653.177
 21
202.8
 31
0.0
  0
LINE
  8
1
  6
CONTINUOUS
 62
  3
 10
653.177
 20
202.8
 30
0.0
 11
653.609
 21
202.8
 31
0.0
  0
LINE
  8
1
  6
CONTINUOUS
 62
  3
 10
653.609
 20
202.8
 30
0.0
 11
653.393
 21
201.6
 31
0.0
  0
LINE
  8
1
  6
CONTINUOUS
 62
  2
 10
653.393
 20
181.008
 30
0.0
 11
653.393
 21
195.7
 31
0.0
  0
LINE
  8
1
  6
CONTINUOUS
 62
  2
 10
653.393
 20
195.7
 30
0.0
 11
653.393
 21
201.6
 31
0.0
  0
LINE
  8
1
  6
CONTINUOUS
 62
  2
 10
653.393
 20
201.6
 30
0.0
 11
653.393
 21
203.4
 31
0.0
  0
TEXT
  8
1
  6
CONTINUOUS
 62
  2
 10
652.226
 20
182.519
 30
0.0
 40
3.5
  1
5.9
 50
90.0
 41
0.94
 72
  1
 11
652.226
 21
187.454
 31
0.0
  0
LINE
  8
1
  6
CONTINUOUS
 62
  2
 10
640.124
 20
201.6
 30
0.0
 11
654.56
 21
201.6
 31
0.0
  0
POINT
  8
DEFPOINTS
 62
  2
 10
638.124
 20
195.7
 30
0.0
  0
POINT
  8
DEFPOINTS
 62
  2
 10
638.124
 20
201.6
 30
0.0
  0
POINT
  8
DEFPOINTS
 62
  2
 10
653.393
 20
201.6
 30
0.0
  0
ENDBLK
  8
0
  0
BLOCK
  8
0
  2
*D47
 70
 65
 10
0.0
 20
0.0
  0
LINE
  8
1
  6
CONTINUOUS
 62
  2
 10
605.374
 20
183.7
 30
0.0
 11
605.374
 21
170.897
 31
0.0
  0
LINE
  8
1
  6
CONTINUOUS
 62
  3
 10
605.374
 20
172.063
 30
0.0
 11
606.574
 21
172.279
 31
0.0
  0
LINE
  8
1
  6
CONTINUOUS
 62
  3
 10
606.574
 20
172.279
 30
0.0
 11
606.574
 21
171.847
 31
0.0
  0
LINE
  8
1
  6
CONTINUOUS
 62
  3
 10
606.574
 20
171.847
 30
0.0
 11
605.374
 21
172.063
 31
0.0
  0
LINE
  8
1
  6
CONTINUOUS
 62
  3
 10
635.374
 20
172.063
 30
0.0
 11
634.174
 21
171.847
 31
0.0
  0
LINE
  8
1
  6
CONTINUOUS
 62
  3
 10
634.174
 20
171.847
 30
0.0
 11
634.174
 21
172.279
 31
0.0
  0
LINE
  8
1
  6
CONTINUOUS
 62
  3
 10
634.174
 20
172.279
 30
0.0
 11
635.374
 21
172.063
 31
0.0
  0
LINE
  8
1
  6
CONTINUOUS
 62
  2
 10
605.374
 20
172.063
 30
0.0
 11
635.374
 21
172.063
 31
0.0
  0
TEXT
  8
1
  6
CONTINUOUS
 62
  2
 10
617.084
 20
173.23
 30
0.0
 40
3.5
  1
30
 41
0.94
 72
  1
 11
620.374
 21
173.23
 31
0.0
  0
LINE
  8
1
  6
CONTINUOUS
 62
  2
 10
635.374
 20
183.7
 30
0.0
 11
635.374
 21
170.897
 31
0.0
  0
POINT
  8
DEFPOINTS
 62
  2
 10
605.374
 20
185.7
 30
0.0
  0
POINT
  8
DEFPOINTS
 62
  2
 10
635.374
 20
185.7
 30
0.0
  0
POINT
  8
DEFPOINTS
 62
  2
 10
635.374
 20
172.063
 30
0.0
  0
ENDBLK
  8
0
  0
BLOCK
  8
0
  2
*D48
 70
 65
 10
0.0
 20
0.0
  0
LINE
  8
1
  6
CONTINUOUS
 62
  2
 10
603.124
 20
188.45
 30
0.0
 11
590.677
 21
188.45
 31
0.0
  0
LINE
  8
1
  6
CONTINUOUS
 62
  3
 10
591.844
 20
188.45
 30
0.0
 11
592.06
 21
187.25
 31
0.0
  0
LINE
  8
1
  6
CONTINUOUS
 62
  3
 10
592.06
 20
187.25
 30
0.0
 11
591.628
 21
187.25
 31
0.0
  0
LINE
  8
1
  6
CONTINUOUS
 62
  3
 10
591.628
 20
187.25
 30
0.0
 11
591.844
 21
188.45
 31
0.0
  0
LINE
  8
1
  6
CONTINUOUS
 62
  3
 10
591.844
 20
195.7
 30
0.0
 11
591.628
 21
196.9
 31
0.0
  0
LINE
  8
1
  6
CONTINUOUS
 62
  3
 10
591.628
 20
196.9
 30
0.0
 11
592.06
 21
196.9
 31
0.0
  0
LINE
  8
1
  6
CONTINUOUS
 62
  3
 10
592.06
 20
196.9
 30
0.0
 11
591.844
 21
195.7
 31
0.0
  0
LINE
  8
1
  6
CONTINUOUS
 62
  2
 10
591.844
 20
173.758
 30
0.0
 11
591.844
 21
188.45
 31
0.0
  0
LINE
  8
1
  6
CONTINUOUS
 62
  2
 10
591.844
 20
188.45
 30
0.0
 11
591.844
 21
195.7
 31
0.0
  0
LINE
  8
1
  6
CONTINUOUS
 62
  2
 10
591.844
 20
195.7
 30
0.0
 11
591.844
 21
197.5
 31
0.0
  0
TEXT
  8
1
  6
CONTINUOUS
 62
  2
 10
590.677
 20
175.269
 30
0.0
 40
3.5
  1
7.2
 50
90.0
 41
0.94
 72
  1
 11
590.677
 21
180.204
 31
0.0
  0
LINE
  8
1
  6
CONTINUOUS
 62
  2
 10
600.624
 20
195.7
 30
0.0
 11
590.677
 21
195.7
 31
0.0
  0
POINT
  8
DEFPOINTS
 62
  2
 10
605.124
 20
188.45
 30
0.0
  0
POINT
  8
DEFPOINTS
 62
  2
 10
602.624
 20
195.7
 30
0.0
  0
POINT
  8
DEFPOINTS
 62
  2
 10
591.844
 20
195.7
 30
0.0
  0
ENDBLK
  8
0
  0
BLOCK
  8
0
  2
*D49
 70
 65
 10
0.0
 20
0.0
  0
LINE
  8
1
  6
CONTINUOUS
 62
  2
 10
677.709
 20
97.409
 30
0.0
 11
690.725
 21
97.409
 31
0.0
  0
LINE
  8
1
  6
CONTINUOUS
 62
  3
 10
689.558
 20
97.409
 30
0.0
 11
689.342
 21
98.609
 31
0.0
  0
LINE
  8
1
  6
CONTINUOUS
 62
  3
 10
689.342
 20
98.609
 30
0.0
 11
689.774
 21
98.609
 31
0.0
  0
LINE
  8
1
  6
CONTINUOUS
 62
  3
 10
689.774
 20
98.609
 30
0.0
 11
689.558
 21
97.409
 31
0.0
  0
LINE
  8
1
  6
CONTINUOUS
 62
  3
 10
689.558
 20
134.509
 30
0.0
 11
689.774
 21
133.309
 31
0.0
  0
LINE
  8
1
  6
CONTINUOUS
 62
  3
 10
689.774
 20
133.309
 30
0.0
 11
689.342
 21
133.309
 31
0.0
  0
LINE
  8
1
  6
CONTINUOUS
 62
  3
 10
689.342
 20
133.309
 30
0.0
 11
689.558
 21
134.509
 31
0.0
  0
LINE
  8
1
  6
CONTINUOUS
 62
  2
 10
689.558
 20
97.409
 30
0.0
 11
689.558
 21
134.509
 31
0.0
  0
TEXT
  8
1
  6
CONTINUOUS
 62
  2
 10
688.391
 20
111.648
 30
0.0
 40
3.5
  1
37.1
 50
90.0
 41
0.94
 72
  1
 11
688.391
 21
118.228
 31
0.0
  0
LINE
  8
1
  6
CONTINUOUS
 62
  2
 10
677.475
 20
134.509
 30
0.0
 11
690.725
 21
134.509
 31
0.0
  0
POINT
  8
DEFPOINTS
 62
  2
 10
675.709
 20
97.409
 30
0.0
  0
POINT
  8
DEFPOINTS
 62
  2
 10
675.475
 20
134.509
 30
0.0
  0
POINT
  8
DEFPOINTS
 62
  2
 10
689.558
 20
134.509
 30
0.0
  0
ENDBLK
  8
0
  0
ENDSEC
  0
SECTION
  2
ENTITIES
  0
LINE
  8
3
  6
CONTINUOUS
 62
  1
 10
742.264
 20
-25.016
 30
0.0
 11
542.264
 21
-25.015
 31
0.0
  0
LINE
  8
3
  6
CONTINUOUS
 62
  1
 10
587.264
 20
1.829
 30
0.0
 11
587.264
 21
-30.016
 31
0.0
  0
TEXT
  8
3
  6
CONTINUOUS
 62
  1
 10
657.213
 20
-2.58
 30
0.0
 40
1.8
  1
PRODUCT TYPE
 50
360.0
 41
0.46
  0
TEXT
  8
3
  6
CONTINUOUS
 62
  4
 10
557.055
 20
-28.415
 30
0.0
 40
1.8
  1
MOD. UT 902
 50
360.0
 41
0.6
  0
LINE
  8
3
  6
CONTINUOUS
 62
  1
 10
742.264
 20
-15.014
 30
0.0
 11
587.264
 21
-15.013
 31
0.0
  0
TEXT
  8
3
  6
CONTINUOUS
 62
  1
 10
610.985
 20
-18.392
 30
0.0
 40
1.8
  1
REV.
 50
360.0
 41
0.46
  0
TEXT
  8
3
  6
CONTINUOUS
 62
  2
 10
612.717
 20
-23.24
 30
0.0
 40
2.1
  1
0
 50
360.0
 41
0.46
  0
LINE
  8
3
  6
CONTINUOUS
 62
  1
 10
638.931
 20
-15.013
 30
0.0
 11
638.931
 21
-25.015
 31
0.0
  0
LINE
  8
3
  6
CONTINUOUS
 62
  7
 10
549.627
 20
-7.361
 30
0.0
 11
549.627
 21
-13.206
 31
0.0
  0
LINE
  8
3
  6
CONTINUOUS
 62
  7
 10
549.627
 20
-13.206
 30
0.0
 11
548.152
 21
-11.606
 31
0.0
  0
LINE
  8
3
  6
CONTINUOUS
 62
  7
 10
548.152
 20
-11.606
 30
0.0
 11
548.38
 21
-11.606
 31
0.0
  0
LINE
  8
3
  6
CONTINUOUS
 62
  7
 10
548.678
 20
-11.25
 30
0.0
 11
548.678
 21
-7.364
 31
0.0
  0
LINE
  8
3
  6
CONTINUOUS
 62
  7
 10
547.729
 20
-7.617
 30
0.0
 11
547.729
 21
-10.588
 31
0.0
  0
LINE
  8
3
  6
CONTINUOUS
 62
  7
 10
547.729
 20
-10.588
 30
0.0
 11
545.439
 21
-10.588
 31
0.0
  0
LINE
  8
3
  6
CONTINUOUS
 62
  7
 10
545.44
 20
-11.606
 30
0.0
 11
546.642
 21
-11.606
 31
0.0
  0
LINE
  8
3
  6
CONTINUOUS
 62
  7
 10
546.642
 20
-11.606
 30
0.0
 11
549.438
 21
-14.348
 31
0.0
  0
LINE
  8
3
  6
CONTINUOUS
 62
  7
 10
550.587
 20
-13.847
 30
0.0
 11
550.587
 21
-10.508
 31
0.0
  0
LINE
  8
3
  6
CONTINUOUS
 62
  7
 10
550.587
 20
-10.508
 30
0.0
 11
551.719
 21
-10.508
 31
0.0
  0
LINE
  8
3
  6
CONTINUOUS
 62
  7
 10
551.618
 20
-9.513
 30
0.0
 11
550.587
 21
-9.513
 31
0.0
  0
LINE
  8
3
  6
CONTINUOUS
 62
  7
 10
550.587
 20
-9.513
 30
0.0
 11
550.587
 21
-7.612
 31
0.0
  0
LINE
  8
3
  6
CONTINUOUS
 62
  7
 10
565.372
 20
-12.537
 30
0.0
 11
565.372
 21
-14.384
 31
0.0
  0
LINE
  8
3
  6
CONTINUOUS
 62
  7
 10
565.372
 20
-14.384
 30
0.0
 11
567.156
 21
-14.384
 31
0.0
  0
LINE
  8
3
  6
CONTINUOUS
 62
  7
 10
567.156
 20
-14.384
 30
0.0
 11
567.156
 21
-11.692
 31
0.0
  0
LINE
  8
3
  6
CONTINUOUS
 62
  7
 10
563.554
 20
-10.942
 30
0.0
 11
563.554
 21
-10.508
 31
0.0
  0
LINE
  8
3
  6
CONTINUOUS
 62
  7
 10
563.554
 20
-10.508
 30
0.0
 11
561.759
 21
-10.508
 31
0.0
  0
LINE
  8
3
  6
CONTINUOUS
 62
  7
 10
561.759
 20
-10.508
 30
0.0
 11
561.759
 21
-14.384
 31
0.0
  0
LINE
  8
3
  6
CONTINUOUS
 62
  7
 10
561.759
 20
-14.384
 30
0.0
 11
563.554
 21
-14.384
 31
0.0
  0
LINE
  8
3
  6
CONTINUOUS
 62
  7
 10
563.554
 20
-14.384
 30
0.0
 11
563.554
 21
-12.583
 31
0.0
  0
LINE
  8
3
  6
CONTINUOUS
 62
  7
 10
573.251
 20
-9.193
 30
0.0
 11
573.251
 21
-14.396
 31
0.0
  0
LINE
  8
3
  6
CONTINUOUS
 62
  7
 10
573.251
 20
-14.396
 30
0.0
 11
571.455
 21
-14.396
 31
0.0
  0
LINE
  8
3
  6
CONTINUOUS
 62
  7
 10
571.455
 20
-10.697
 30
0.0
 11
571.455
 21
-9.193
 31
0.0
  0
LINE
  8
3
  6
CONTINUOUS
 62
  7
 10
571.455
 20
-9.193
 30
0.0
 11
573.251
 21
-9.193
 31
0.0
  0
LINE
  8
3
  6
CONTINUOUS
 62
  7
 10
579.997
 20
-10.508
 30
0.0
 11
581.724
 21
-10.508
 31
0.0
  0
LINE
  8
3
  6
CONTINUOUS
 62
  7
 10
581.724
 20
-10.508
 30
0.0
 11
581.724
 21
-10.851
 31
0.0
  0
LINE
  8
3
  6
CONTINUOUS
 62
  7
 10
584.548
 20
-12.429
 30
0.0
 11
582.719
 21
-12.429
 31
0.0
  0
LINE
  8
3
  6
CONTINUOUS
 62
  7
 10
582.719
 20
-12.429
 30
0.0
 11
582.719
 21
-12.189
 31
0.0
  0
LINE
  8
3
  6
CONTINUOUS
 62
  7
 10
581.724
 20
-12.234
 30
0.0
 11
581.724
 21
-14.384
 31
0.0
  0
LINE
  8
3
  6
CONTINUOUS
 62
  7
 10
581.724
 20
-14.384
 30
0.0
 11
579.997
 21
-14.384
 31
0.0
  0
LINE
  8
3
  6
CONTINUOUS
 62
  7
 10
579.997
 20
-14.384
 30
0.0
 11
579.997
 21
-10.508
 31
0.0
  0
LINE
  8
3
  6
CONTINUOUS
 62
  7
 10
576.418
 20
-12.772
 30
0.0
 11
576.315
 21
-12.772
 31
0.0
  0
LINE
  8
3
  6
CONTINUOUS
 62
  7
 10
576.315
 20
-12.772
 30
0.0
 11
575.629
 21
-12.772
 31
0.0
  0
LINE
  8
3
  6
CONTINUOUS
 62
  7
 10
577.607
 20
-13.161
 30
0.0
 11
579.368
 21
-13.161
 31
0.0
  0
LINE
  8
3
  6
CONTINUOUS
 62
  7
 10
579.471
 20
-12.76
 30
0.0
 11
576.418
 21
-12.772
 31
0.0
  0
LINE
  8
3
  6
CONTINUOUS
 62
  7
 10
576.418
 20
-11.937
 30
0.0
 11
577.607
 21
-11.937
 31
0.0
  0
LINE
  8
3
  6
CONTINUOUS
 62
  7
 10
575.629
 20
-11.937
 30
0.0
 11
576.418
 21
-11.937
 31
0.0
  0
LINE
  8
3
  6
CONTINUOUS
 62
  7
 10
558.351
 20
-10.085
 30
0.0
 11
558.351
 21
-9.181
 31
0.0
  0
LINE
  8
3
  6
CONTINUOUS
 62
  7
 10
558.351
 20
-9.181
 30
0.0
 11
556.853
 21
-9.181
 31
0.0
  0
LINE
  8
3
  6
CONTINUOUS
 62
  7
 10
555.939
 20
-10.085
 30
0.0
 11
555.939
 21
-10.508
 31
0.0
  0
LINE
  8
3
  6
CONTINUOUS
 62
  7
 10
555.939
 20
-10.508
 30
0.0
 11
555.401
 21
-10.508
 31
0.0
  0
LINE
  8
3
  6
CONTINUOUS
 62
  7
 10
555.401
 20
-10.508
 30
0.0
 11
555.401
 21
-11.606
 31
0.0
  0
LINE
  8
3
  6
CONTINUOUS
 62
  7
 10
555.401
 20
-11.606
 30
0.0
 11
555.939
 21
-11.606
 31
0.0
  0
LINE
  8
3
  6
CONTINUOUS
 62
  7
 10
555.939
 20
-11.606
 30
0.0
 11
555.939
 21
-14.384
 31
0.0
  0
LINE
  8
3
  6
CONTINUOUS
 62
  7
 10
555.939
 20
-14.384
 30
0.0
 11
557.734
 21
-14.384
 31
0.0
  0
LINE
  8
3
  6
CONTINUOUS
 62
  7
 10
557.734
 20
-14.384
 30
0.0
 11
557.734
 21
-11.606
 31
0.0
  0
LINE
  8
3
  6
CONTINUOUS
 62
  7
 10
557.734
 20
-11.606
 30
0.0
 11
558.351
 21
-11.606
 31
0.0
  0
LINE
  8
3
  6
CONTINUOUS
 62
  7
 10
558.351
 20
-11.606
 30
0.0
 11
558.351
 21
-10.508
 31
0.0
  0
LINE
  8
3
  6
CONTINUOUS
 62
  7
 10
558.351
 20
-10.508
 30
0.0
 11
557.677
 21
-10.508
 31
0.0
  0
LINE
  8
3
  6
CONTINUOUS
 62
  7
 10
557.677
 20
-10.508
 30
0.0
 11
557.725
 21
-10.248
 31
0.0
  0
LINE
  8
3
  6
CONTINUOUS
 62
  7
 10
557.943
 20
-10.085
 30
0.0
 11
558.351
 21
-10.085
 31
0.0
  0
LINE
  8
3
  6
CONTINUOUS
 62
  7
 10
559.072
 20
-14.384
 30
0.0
 11
559.072
 21
-10.508
 31
0.0
  0
LINE
  8
3
  6
CONTINUOUS
 62
  7
 10
559.072
 20
-10.508
 30
0.0
 11
560.89
 21
-10.508
 31
0.0
  0
LINE
  8
3
  6
CONTINUOUS
 62
  7
 10
560.89
 20
-10.508
 30
0.0
 11
560.89
 21
-14.384
 31
0.0
  0
LINE
  8
3
  6
CONTINUOUS
 62
  7
 10
560.89
 20
-14.384
 30
0.0
 11
559.072
 21
-14.384
 31
0.0
  0
LINE
  8
3
  6
CONTINUOUS
 62
  7
 10
559.072
 20
-10.073
 30
0.0
 11
559.072
 21
-9.181
 31
0.0
  0
LINE
  8
3
  6
CONTINUOUS
 62
  7
 10
559.072
 20
-9.181
 30
0.0
 11
560.89
 21
-9.181
 31
0.0
  0
LINE
  8
3
  6
CONTINUOUS
 62
  7
 10
560.89
 20
-9.181
 30
0.0
 11
560.89
 21
-10.073
 31
0.0
  0
LINE
  8
3
  6
CONTINUOUS
 62
  7
 10
560.89
 20
-10.073
 30
0.0
 11
559.072
 21
-10.073
 31
0.0
  0
ARC
  8
3
  6
CONTINUOUS
 62
  7
 10
556.844
 20
-10.087
 30
0.0
 40
0.906
 50
90.0
 51
180.0
  0
ARC
  8
3
  6
CONTINUOUS
 62
  7
 10
557.97
 20
-10.348
 30
0.0
 40
0.265
 50
95.845
 51
157.808
  0
ARC
  8
3
  6
CONTINUOUS
 62
  7
 10
565.939
 20
-11.752
 30
0.0
 40
1.219
 50
2.807
 51
66.546
  0
ARC
  8
3
  6
CONTINUOUS
 62
  7
 10
565.331
 20
-13.971
 30
0.0
 40
3.512
 50
71.872
 51
120.406
  0
ARC
  8
3
  6
CONTINUOUS
 62
  7
 10
564.721
 20
-12.537
 30
0.0
 40
0.651
 50
0.0
 51
97.151
  0
ARC
  8
3
  6
CONTINUOUS
 62
  7
 10
564.708
 20
-13.196
 30
0.0
 40
1.307
 50
92.963
 51
152.003
  0
CIRCLE
  8
3
  6
CONTINUOUS
 62
  7
 10
549.164
 20
-11.091
 30
0.0
 40
4.757
  0
ARC
  8
3
  6
CONTINUOUS
 62
  7
 10
549.164
 20
-11.091
 30
0.0
 40
3.759
 50
112.441
 51
172.304
  0
ARC
  8
3
  6
CONTINUOUS
 62
  7
 10
549.164
 20
-11.091
 30
0.0
 40
3.759
 50
82.92
 51
97.426
  0
ARC
  8
3
  6
CONTINUOUS
 62
  7
 10
549.164
 20
-11.091
 30
0.0
 40
3.759
 50
187.869
 51
67.744
  0
POLYLINE
  8
3
  6
CONTINUOUS
 62
  7
 66
  1
 10
0.0
 20
0.0
 30
0.0
  0
VERTEX
  8
3
  6
CONTINUOUS
 62
  7
 10
571.455
 20
-10.697
 30
0.0
  0
VERTEX
  8
3
  6
CONTINUOUS
 62
  7
 10
571.401
 20
-10.651
 30
0.0
  0
VERTEX
  8
3
  6
CONTINUOUS
 62
  7
 10
571.357
 20
-10.619
 30
0.0
  0
VERTEX
  8
3
  6
CONTINUOUS
 62
  7
 10
571.312
 20
-10.591
 30
0.0
  0
VERTEX
  8
3
  6
CONTINUOUS
 62
  7
 10
571.249
 20
-10.558
 30
0.0
  0
VERTEX
  8
3
  6
CONTINUOUS
 62
  7
 10
571.2
 20
-10.537
 30
0.0
  0
VERTEX
  8
3
  6
CONTINUOUS
 62
  7
 10
571.149
 20
-10.519
 30
0.0
  0
VERTEX
  8
3
  6
CONTINUOUS
 62
  7
 10
571.064
 20
-10.494
 30
0.0
  0
VERTEX
  8
3
  6
CONTINUOUS
 62
  7
 10
570.977
 20
-10.473
 30
0.0
  0
VERTEX
  8
3
  6
CONTINUOUS
 62
  7
 10
570.802
 20
-10.44
 30
0.0
  0
VERTEX
  8
3
  6
CONTINUOUS
 62
  7
 10
570.451
 20
-10.385
 30
0.0
  0
VERTEX
  8
3
  6
CONTINUOUS
 62
  7
 10
570.095
 20
-10.363
 30
0.0
  0
VERTEX
  8
3
  6
CONTINUOUS
 62
  7
 10
569.739
 20
-10.374
 30
0.0
  0
VERTEX
  8
3
  6
CONTINUOUS
 62
  7
 10
569.562
 20
-10.389
 30
0.0
  0
VERTEX
  8
3
  6
CONTINUOUS
 62
  7
 10
569.385
 20
-10.414
 30
0.0
  0
VERTEX
  8
3
  6
CONTINUOUS
 62
  7
 10
569.246
 20
-10.445
 30
0.0
  0
VERTEX
  8
3
  6
CONTINUOUS
 62
  7
 10
569.042
 20
-10.509
 30
0.0
  0
VERTEX
  8
3
  6
CONTINUOUS
 62
  7
 10
568.91
 20
-10.562
 30
0.0
  0
VERTEX
  8
3
  6
CONTINUOUS
 62
  7
 10
568.813
 20
-10.608
 30
0.0
  0
VERTEX
  8
3
  6
CONTINUOUS
 62
  7
 10
568.719
 20
-10.659
 30
0.0
  0
VERTEX
  8
3
  6
CONTINUOUS
 62
  7
 10
568.599
 20
-10.736
 30
0.0
  0
VERTEX
  8
3
  6
CONTINUOUS
 62
  7
 10
568.43
 20
-10.866
 30
0.0
  0
VERTEX
  8
3
  6
CONTINUOUS
 62
  7
 10
568.324
 20
-10.962
 30
0.0
  0
VERTEX
  8
3
  6
CONTINUOUS
 62
  7
 10
568.178
 20
-11.118
 30
0.0
  0
VERTEX
  8
3
  6
CONTINUOUS
 62
  7
 10
568.089
 20
-11.23
 30
0.0
  0
VERTEX
  8
3
  6
CONTINUOUS
 62
  7
 10
567.969
 20
-11.407
 30
0.0
  0
VERTEX
  8
3
  6
CONTINUOUS
 62
  7
 10
567.9
 20
-11.531
 30
0.0
  0
VERTEX
  8
3
  6
CONTINUOUS
 62
  7
 10
567.854
 20
-11.628
 30
0.0
  0
VERTEX
  8
3
  6
CONTINUOUS
 62
  7
 10
567.813
 20
-11.727
 30
0.0
  0
VERTEX
  8
3
  6
CONTINUOUS
 62
  7
 10
567.768
 20
-11.862
 30
0.0
  0
VERTEX
  8
3
  6
CONTINUOUS
 62
  7
 10
567.717
 20
-12.07
 30
0.0
  0
VERTEX
  8
3
  6
CONTINUOUS
 62
  7
 10
567.695
 20
-12.211
 30
0.0
  0
VERTEX
  8
3
  6
CONTINUOUS
 62
  7
 10
567.685
 20
-12.317
 30
0.0
  0
VERTEX
  8
3
  6
CONTINUOUS
 62
  7
 10
567.682
 20
-12.424
 30
0.0
  0
VERTEX
  8
3
  6
CONTINUOUS
 62
  7
 10
567.688
 20
-12.566
 30
0.0
  0
VERTEX
  8
3
  6
CONTINUOUS
 62
  7
 10
567.716
 20
-12.778
 30
0.0
  0
VERTEX
  8
3
  6
CONTINUOUS
 62
  7
 10
567.745
 20
-12.918
 30
0.0
  0
VERTEX
  8
3
  6
CONTINUOUS
 62
  7
 10
567.806
 20
-13.123
 30
0.0
  0
VERTEX
  8
3
  6
CONTINUOUS
 62
  7
 10
567.858
 20
-13.256
 30
0.0
  0
VERTEX
  8
3
  6
CONTINUOUS
 62
  7
 10
567.903
 20
-13.353
 30
0.0
  0
VERTEX
  8
3
  6
CONTINUOUS
 62
  7
 10
567.954
 20
-13.447
 30
0.0
  0
VERTEX
  8
3
  6
CONTINUOUS
 62
  7
 10
568.03
 20
-13.568
 30
0.0
  0
VERTEX
  8
3
  6
CONTINUOUS
 62
  7
 10
568.092
 20
-13.654
 30
0.0
  0
VERTEX
  8
3
  6
CONTINUOUS
 62
  7
 10
568.16
 20
-13.737
 30
0.0
  0
VERTEX
  8
3
  6
CONTINUOUS
 62
  7
 10
568.259
 20
-13.84
 30
0.0
  0
VERTEX
  8
3
  6
CONTINUOUS
 62
  7
 10
568.337
 20
-13.913
 30
0.0
  0
VERTEX
  8
3
  6
CONTINUOUS
 62
  7
 10
568.42
 20
-13.981
 30
0.0
  0
VERTEX
  8
3
  6
CONTINUOUS
 62
  7
 10
568.535
 20
-14.065
 30
0.0
  0
VERTEX
  8
3
  6
CONTINUOUS
 62
  7
 10
568.717
 20
-14.177
 30
0.0
  0
VERTEX
  8
3
  6
CONTINUOUS
 62
  7
 10
568.843
 20
-14.243
 30
0.0
  0
VERTEX
  8
3
  6
CONTINUOUS
 62
  7
 10
568.941
 20
-14.286
 30
0.0
  0
VERTEX
  8
3
  6
CONTINUOUS
 62
  7
 10
569.041
 20
-14.324
 30
0.0
  0
VERTEX
  8
3
  6
CONTINUOUS
 62
  7
 10
569.177
 20
-14.366
 30
0.0
  0
VERTEX
  8
3
  6
CONTINUOUS
 62
  7
 10
569.387
 20
-14.41
 30
0.0
  0
VERTEX
  8
3
  6
CONTINUOUS
 62
  7
 10
569.564
 20
-14.431
 30
0.0
  0
VERTEX
  8
3
  6
CONTINUOUS
 62
  7
 10
569.741
 20
-14.443
 30
0.0
  0
VERTEX
  8
3
  6
CONTINUOUS
 62
  7
 10
570.097
 20
-14.446
 30
0.0
  0
VERTEX
  8
3
  6
CONTINUOUS
 62
  7
 10
570.453
 20
-14.431
 30
0.0
  0
VERTEX
  8
3
  6
CONTINUOUS
 62
  7
 10
570.63
 20
-14.412
 30
0.0
  0
VERTEX
  8
3
  6
CONTINUOUS
 62
  7
 10
570.806
 20
-14.381
 30
0.0
  0
VERTEX
  8
3
  6
CONTINUOUS
 62
  7
 10
570.944
 20
-14.344
 30
0.0
  0
VERTEX
  8
3
  6
CONTINUOUS
 62
  7
 10
571.079
 20
-14.296
 30
0.0
  0
VERTEX
  8
3
  6
CONTINUOUS
 62
  7
 10
571.211
 20
-14.237
 30
0.0
  0
VERTEX
  8
3
  6
CONTINUOUS
 62
  7
 10
571.336
 20
-14.168
 30
0.0
  0
VERTEX
  8
3
  6
CONTINUOUS
 62
  7
 10
571.455
 20
-14.09
 30
0.0
  0
SEQEND
  8
0
  0
POLYLINE
  8
3
  6
CONTINUOUS
 62
  7
 66
  1
 10
0.0
 20
0.0
 30
0.0
  0
VERTEX
  8
3
  6
CONTINUOUS
 62
  7
 10
571.455
 20
-12.257
 30
0.0
  0
VERTEX
  8
3
  6
CONTINUOUS
 62
  7
 10
571.449
 20
-12.219
 30
0.0
  0
VERTEX
  8
3
  6
CONTINUOUS
 62
  7
 10
571.441
 20
-12.181
 30
0.0
  0
VERTEX
  8
3
  6
CONTINUOUS
 62
  7
 10
571.43
 20
-12.144
 30
0.0
  0
VERTEX
  8
3
  6
CONTINUOUS
 62
  7
 10
571.417
 20
-12.107
 30
0.0
  0
VERTEX
  8
3
  6
CONTINUOUS
 62
  7
 10
571.402
 20
-12.072
 30
0.0
  0
VERTEX
  8
3
  6
CONTINUOUS
 62
  7
 10
571.385
 20
-12.037
 30
0.0
  0
VERTEX
  8
3
  6
CONTINUOUS
 62
  7
 10
571.365
 20
-12.003
 30
0.0
  0
VERTEX
  8
3
  6
CONTINUOUS
 62
  7
 10
571.344
 20
-11.971
 30
0.0
  0
VERTEX
  8
3
  6
CONTINUOUS
 62
  7
 10
571.321
 20
-11.94
 30
0.0
  0
VERTEX
  8
3
  6
CONTINUOUS
 62
  7
 10
571.296
 20
-11.911
 30
0.0
  0
VERTEX
  8
3
  6
CONTINUOUS
 62
  7
 10
571.269
 20
-11.882
 30
0.0
  0
VERTEX
  8
3
  6
CONTINUOUS
 62
  7
 10
571.241
 20
-11.856
 30
0.0
  0
VERTEX
  8
3
  6
CONTINUOUS
 62
  7
 10
571.196
 20
-11.819
 30
0.0
  0
VERTEX
  8
3
  6
CONTINUOUS
 62
  7
 10
571.149
 20
-11.786
 30
0.0
  0
VERTEX
  8
3
  6
CONTINUOUS
 62
  7
 10
571.082
 20
-11.747
 30
0.0
  0
VERTEX
  8
3
  6
CONTINUOUS
 62
  7
 10
570.977
 20
-11.698
 30
0.0
  0
VERTEX
  8
3
  6
CONTINUOUS
 62
  7
 10
570.794
 20
-11.636
 30
0.0
  0
VERTEX
  8
3
  6
CONTINUOUS
 62
  7
 10
570.607
 20
-11.59
 30
0.0
  0
VERTEX
  8
3
  6
CONTINUOUS
 62
  7
 10
570.531
 20
-11.578
 30
0.0
  0
VERTEX
  8
3
  6
CONTINUOUS
 62
  7
 10
570.473
 20
-11.572
 30
0.0
  0
VERTEX
  8
3
  6
CONTINUOUS
 62
  7
 10
570.415
 20
-11.57
 30
0.0
  0
VERTEX
  8
3
  6
CONTINUOUS
 62
  7
 10
570.338
 20
-11.573
 30
0.0
  0
VERTEX
  8
3
  6
CONTINUOUS
 62
  7
 10
570.28
 20
-11.58
 30
0.0
  0
VERTEX
  8
3
  6
CONTINUOUS
 62
  7
 10
570.223
 20
-11.59
 30
0.0
  0
VERTEX
  8
3
  6
CONTINUOUS
 62
  7
 10
570.148
 20
-11.608
 30
0.0
  0
VERTEX
  8
3
  6
CONTINUOUS
 62
  7
 10
570.038
 20
-11.645
 30
0.0
  0
VERTEX
  8
3
  6
CONTINUOUS
 62
  7
 10
569.968
 20
-11.676
 30
0.0
  0
VERTEX
  8
3
  6
CONTINUOUS
 62
  7
 10
569.916
 20
-11.703
 30
0.0
  0
VERTEX
  8
3
  6
CONTINUOUS
 62
  7
 10
569.866
 20
-11.733
 30
0.0
  0
VERTEX
  8
3
  6
CONTINUOUS
 62
  7
 10
569.803
 20
-11.777
 30
0.0
  0
VERTEX
  8
3
  6
CONTINUOUS
 62
  7
 10
569.743
 20
-11.827
 30
0.0
  0
VERTEX
  8
3
  6
CONTINUOUS
 62
  7
 10
569.688
 20
-11.882
 30
0.0
  0
VERTEX
  8
3
  6
CONTINUOUS
 62
  7
 10
569.638
 20
-11.942
 30
0.0
  0
VERTEX
  8
3
  6
CONTINUOUS
 62
  7
 10
569.594
 20
-12.006
 30
0.0
  0
VERTEX
  8
3
  6
CONTINUOUS
 62
  7
 10
569.557
 20
-12.076
 30
0.0
  0
VERTEX
  8
3
  6
CONTINUOUS
 62
  7
 10
569.54
 20
-12.111
 30
0.0
  0
VERTEX
  8
3
  6
CONTINUOUS
 62
  7
 10
569.526
 20
-12.148
 30
0.0
  0
VERTEX
  8
3
  6
CONTINUOUS
 62
  7
 10
569.514
 20
-12.186
 30
0.0
  0
VERTEX
  8
3
  6
CONTINUOUS
 62
  7
 10
569.504
 20
-12.223
 30
0.0
  0
VERTEX
  8
3
  6
CONTINUOUS
 62
  7
 10
569.497
 20
-12.262
 30
0.0
  0
VERTEX
  8
3
  6
CONTINUOUS
 62
  7
 10
569.491
 20
-12.3
 30
0.0
  0
VERTEX
  8
3
  6
CONTINUOUS
 62
  7
 10
569.489
 20
-12.339
 30
0.0
  0
VERTEX
  8
3
  6
CONTINUOUS
 62
  7
 10
569.489
 20
-12.378
 30
0.0
  0
VERTEX
  8
3
  6
CONTINUOUS
 62
  7
 10
569.492
 20
-12.416
 30
0.0
  0
VERTEX
  8
3
  6
CONTINUOUS
 62
  7
 10
569.498
 20
-12.454
 30
0.0
  0
VERTEX
  8
3
  6
CONTINUOUS
 62
  7
 10
569.506
 20
-12.492
 30
0.0
  0
VERTEX
  8
3
  6
CONTINUOUS
 62
  7
 10
569.516
 20
-12.53
 30
0.0
  0
VERTEX
  8
3
  6
CONTINUOUS
 62
  7
 10
569.528
 20
-12.566
 30
0.0
  0
VERTEX
  8
3
  6
CONTINUOUS
 62
  7
 10
569.558
 20
-12.638
 30
0.0
  0
VERTEX
  8
3
  6
CONTINUOUS
 62
  7
 10
569.586
 20
-12.689
 30
0.0
  0
VERTEX
  8
3
  6
CONTINUOUS
 62
  7
 10
569.617
 20
-12.738
 30
0.0
  0
VERTEX
  8
3
  6
CONTINUOUS
 62
  7
 10
569.663
 20
-12.8
 30
0.0
  0
VERTEX
  8
3
  6
CONTINUOUS
 62
  7
 10
569.702
 20
-12.843
 30
0.0
  0
VERTEX
  8
3
  6
CONTINUOUS
 62
  7
 10
569.744
 20
-12.883
 30
0.0
  0
VERTEX
  8
3
  6
CONTINUOUS
 62
  7
 10
569.804
 20
-12.931
 30
0.0
  0
VERTEX
  8
3
  6
CONTINUOUS
 62
  7
 10
569.852
 20
-12.964
 30
0.0
  0
VERTEX
  8
3
  6
CONTINUOUS
 62
  7
 10
569.902
 20
-12.993
 30
0.0
  0
VERTEX
  8
3
  6
CONTINUOUS
 62
  7
 10
569.972
 20
-13.026
 30
0.0
  0
VERTEX
  8
3
  6
CONTINUOUS
 62
  7
 10
570.08
 20
-13.068
 30
0.0
  0
VERTEX
  8
3
  6
CONTINUOUS
 62
  7
 10
570.154
 20
-13.091
 30
0.0
  0
VERTEX
  8
3
  6
CONTINUOUS
 62
  7
 10
570.267
 20
-13.117
 30
0.0
  0
VERTEX
  8
3
  6
CONTINUOUS
 62
  7
 10
570.343
 20
-13.129
 30
0.0
  0
VERTEX
  8
3
  6
CONTINUOUS
 62
  7
 10
570.458
 20
-13.138
 30
0.0
  0
VERTEX
  8
3
  6
CONTINUOUS
 62
  7
 10
570.536
 20
-13.137
 30
0.0
  0
VERTEX
  8
3
  6
CONTINUOUS
 62
  7
 10
570.651
 20
-13.125
 30
0.0
  0
VERTEX
  8
3
  6
CONTINUOUS
 62
  7
 10
570.727
 20
-13.111
 30
0.0
  0
VERTEX
  8
3
  6
CONTINUOUS
 62
  7
 10
570.802
 20
-13.092
 30
0.0
  0
VERTEX
  8
3
  6
CONTINUOUS
 62
  7
 10
570.876
 20
-13.067
 30
0.0
  0
VERTEX
  8
3
  6
CONTINUOUS
 62
  7
 10
570.948
 20
-13.037
 30
0.0
  0
VERTEX
  8
3
  6
CONTINUOUS
 62
  7
 10
571.017
 20
-13.003
 30
0.0
  0
VERTEX
  8
3
  6
CONTINUOUS
 62
  7
 10
571.084
 20
-12.964
 30
0.0
  0
VERTEX
  8
3
  6
CONTINUOUS
 62
  7
 10
571.178
 20
-12.897
 30
0.0
  0
VERTEX
  8
3
  6
CONTINUOUS
 62
  7
 10
571.237
 20
-12.846
 30
0.0
  0
VERTEX
  8
3
  6
CONTINUOUS
 62
  7
 10
571.278
 20
-12.805
 30
0.0
  0
VERTEX
  8
3
  6
CONTINUOUS
 62
  7
 10
571.315
 20
-12.761
 30
0.0
  0
VERTEX
  8
3
  6
CONTINUOUS
 62
  7
 10
571.338
 20
-12.73
 30
0.0
  0
VERTEX
  8
3
  6
CONTINUOUS
 62
  7
 10
571.36
 20
-12.698
 30
0.0
  0
VERTEX
  8
3
  6
CONTINUOUS
 62
  7
 10
571.379
 20
-12.664
 30
0.0
  0
VERTEX
  8
3
  6
CONTINUOUS
 62
  7
 10
571.396
 20
-12.63
 30
0.0
  0
VERTEX
  8
3
  6
CONTINUOUS
 62
  7
 10
571.411
 20
-12.594
 30
0.0
  0
VERTEX
  8
3
  6
CONTINUOUS
 62
  7
 10
571.425
 20
-12.557
 30
0.0
  0
VERTEX
  8
3
  6
CONTINUOUS
 62
  7
 10
571.435
 20
-12.52
 30
0.0
  0
VERTEX
  8
3
  6
CONTINUOUS
 62
  7
 10
571.444
 20
-12.483
 30
0.0
  0
VERTEX
  8
3
  6
CONTINUOUS
 62
  7
 10
571.451
 20
-12.444
 30
0.0
  0
VERTEX
  8
3
  6
CONTINUOUS
 62
  7
 10
571.455
 20
-12.406
 30
0.0
  0
SEQEND
  8
0
  0
LINE
  8
3
  6
CONTINUOUS
 62
  7
 10
571.455
 20
-12.406
 30
0.0
 11
571.455
 21
-12.257
 31
0.0
  0
LINE
  8
3
  6
CONTINUOUS
 62
  7
 10
571.455
 20
-14.396
 30
0.0
 11
571.455
 21
-14.09
 31
0.0
  0
POLYLINE
  8
3
  6
CONTINUOUS
 62
  7
 66
  1
 10
0.0
 20
0.0
 30
0.0
  0
VERTEX
  8
3
  6
CONTINUOUS
 62
  7
 10
579.471
 20
-12.76
 30
0.0
  0
VERTEX
  8
3
  6
CONTINUOUS
 62
  7
 10
579.496
 20
-12.65
 30
0.0
  0
VERTEX
  8
3
  6
CONTINUOUS
 62
  7
 10
579.509
 20
-12.566
 30
0.0
  0
VERTEX
  8
3
  6
CONTINUOUS
 62
  7
 10
579.516
 20
-12.482
 30
0.0
  0
VERTEX
  8
3
  6
CONTINUOUS
 62
  7
 10
579.516
 20
-12.369
 30
0.0
  0
VERTEX
  8
3
  6
CONTINUOUS
 62
  7
 10
579.499
 20
-12.201
 30
0.0
  0
VERTEX
  8
3
  6
CONTINUOUS
 62
  7
 10
579.473
 20
-12.062
 30
0.0
  0
VERTEX
  8
3
  6
CONTINUOUS
 62
  7
 10
579.438
 20
-11.925
 30
0.0
  0
VERTEX
  8
3
  6
CONTINUOUS
 62
  7
 10
579.397
 20
-11.791
 30
0.0
  0
VERTEX
  8
3
  6
CONTINUOUS
 62
  7
 10
579.348
 20
-11.658
 30
0.0
  0
VERTEX
  8
3
  6
CONTINUOUS
 62
  7
 10
579.302
 20
-11.555
 30
0.0
  0
VERTEX
  8
3
  6
CONTINUOUS
 62
  7
 10
579.224
 20
-11.404
 30
0.0
  0
VERTEX
  8
3
  6
CONTINUOUS
 62
  7
 10
579.164
 20
-11.308
 30
0.0
  0
VERTEX
  8
3
  6
CONTINUOUS
 62
  7
 10
579.065
 20
-11.171
 30
0.0
  0
VERTEX
  8
3
  6
CONTINUOUS
 62
  7
 10
578.991
 20
-11.085
 30
0.0
  0
VERTEX
  8
3
  6
CONTINUOUS
 62
  7
 10
578.871
 20
-10.965
 30
0.0
  0
VERTEX
  8
3
  6
CONTINUOUS
 62
  7
 10
578.764
 20
-10.873
 30
0.0
  0
VERTEX
  8
3
  6
CONTINUOUS
 62
  7
 10
578.651
 20
-10.788
 30
0.0
  0
VERTEX
  8
3
  6
CONTINUOUS
 62
  7
 10
578.533
 20
-10.711
 30
0.0
  0
VERTEX
  8
3
  6
CONTINUOUS
 62
  7
 10
578.41
 20
-10.641
 30
0.0
  0
VERTEX
  8
3
  6
CONTINUOUS
 62
  7
 10
578.284
 20
-10.579
 30
0.0
  0
VERTEX
  8
3
  6
CONTINUOUS
 62
  7
 10
578.153
 20
-10.525
 30
0.0
  0
VERTEX
  8
3
  6
CONTINUOUS
 62
  7
 10
577.885
 20
-10.438
 30
0.0
  0
VERTEX
  8
3
  6
CONTINUOUS
 62
  7
 10
577.611
 20
-10.371
 30
0.0
  0
VERTEX
  8
3
  6
CONTINUOUS
 62
  7
 10
577.334
 20
-10.323
 30
0.0
  0
VERTEX
  8
3
  6
CONTINUOUS
 62
  7
 10
577.053
 20
-10.293
 30
0.0
  0
VERTEX
  8
3
  6
CONTINUOUS
 62
  7
 10
576.489
 20
-10.28
 30
0.0
  0
VERTEX
  8
3
  6
CONTINUOUS
 62
  7
 10
575.927
 20
-10.32
 30
0.0
  0
VERTEX
  8
3
  6
CONTINUOUS
 62
  7
 10
575.649
 20
-10.365
 30
0.0
  0
VERTEX
  8
3
  6
CONTINUOUS
 62
  7
 10
575.374
 20
-10.427
 30
0.0
  0
VERTEX
  8
3
  6
CONTINUOUS
 62
  7
 10
575.157
 20
-10.491
 30
0.0
  0
VERTEX
  8
3
  6
CONTINUOUS
 62
  7
 10
574.998
 20
-10.55
 30
0.0
  0
VERTEX
  8
3
  6
CONTINUOUS
 62
  7
 10
574.843
 20
-10.619
 30
0.0
  0
VERTEX
  8
3
  6
CONTINUOUS
 62
  7
 10
574.743
 20
-10.671
 30
0.0
  0
VERTEX
  8
3
  6
CONTINUOUS
 62
  7
 10
574.646
 20
-10.729
 30
0.0
  0
VERTEX
  8
3
  6
CONTINUOUS
 62
  7
 10
574.552
 20
-10.793
 30
0.0
  0
VERTEX
  8
3
  6
CONTINUOUS
 62
  7
 10
574.463
 20
-10.862
 30
0.0
  0
VERTEX
  8
3
  6
CONTINUOUS
 62
  7
 10
574.378
 20
-10.936
 30
0.0
  0
VERTEX
  8
3
  6
CONTINUOUS
 62
  7
 10
574.297
 20
-11.016
 30
0.0
  0
VERTEX
  8
3
  6
CONTINUOUS
 62
  7
 10
574.222
 20
-11.1
 30
0.0
  0
VERTEX
  8
3
  6
CONTINUOUS
 62
  7
 10
574.152
 20
-11.189
 30
0.0
  0
VERTEX
  8
3
  6
CONTINUOUS
 62
  7
 10
574.088
 20
-11.282
 30
0.0
  0
VERTEX
  8
3
  6
CONTINUOUS
 62
  7
 10
574.028
 20
-11.378
 30
0.0
  0
VERTEX
  8
3
  6
CONTINUOUS
 62
  7
 10
573.925
 20
-11.58
 30
0.0
  0
VERTEX
  8
3
  6
CONTINUOUS
 62
  7
 10
573.881
 20
-11.684
 30
0.0
  0
VERTEX
  8
3
  6
CONTINUOUS
 62
  7
 10
573.843
 20
-11.79
 30
0.0
  0
VERTEX
  8
3
  6
CONTINUOUS
 62
  7
 10
573.811
 20
-11.899
 30
0.0
  0
VERTEX
  8
3
  6
CONTINUOUS
 62
  7
 10
573.785
 20
-12.009
 30
0.0
  0
VERTEX
  8
3
  6
CONTINUOUS
 62
  7
 10
573.765
 20
-12.12
 30
0.0
  0
VERTEX
  8
3
  6
CONTINUOUS
 62
  7
 10
573.751
 20
-12.233
 30
0.0
  0
VERTEX
  8
3
  6
CONTINUOUS
 62
  7
 10
573.744
 20
-12.345
 30
0.0
  0
VERTEX
  8
3
  6
CONTINUOUS
 62
  7
 10
573.743
 20
-12.458
 30
0.0
  0
VERTEX
  8
3
  6
CONTINUOUS
 62
  7
 10
573.749
 20
-12.571
 30
0.0
  0
VERTEX
  8
3
  6
CONTINUOUS
 62
  7
 10
573.771
 20
-12.739
 30
0.0
  0
VERTEX
  8
3
  6
CONTINUOUS
 62
  7
 10
573.796
 20
-12.849
 30
0.0
  0
VERTEX
  8
3
  6
CONTINUOUS
 62
  7
 10
573.845
 20
-13.011
 30
0.0
  0
VERTEX
  8
3
  6
CONTINUOUS
 62
  7
 10
573.928
 20
-13.222
 30
0.0
  0
VERTEX
  8
3
  6
CONTINUOUS
 62
  7
 10
574.003
 20
-13.374
 30
0.0
  0
VERTEX
  8
3
  6
CONTINUOUS
 62
  7
 10
574.09
 20
-13.519
 30
0.0
  0
VERTEX
  8
3
  6
CONTINUOUS
 62
  7
 10
574.172
 20
-13.634
 30
0.0
  0
VERTEX
  8
3
  6
CONTINUOUS
 62
  7
 10
574.26
 20
-13.743
 30
0.0
  0
VERTEX
  8
3
  6
CONTINUOUS
 62
  7
 10
574.335
 20
-13.828
 30
0.0
  0
VERTEX
  8
3
  6
CONTINUOUS
 62
  7
 10
574.455
 20
-13.947
 30
0.0
  0
VERTEX
  8
3
  6
CONTINUOUS
 62
  7
 10
574.543
 20
-14.018
 30
0.0
  0
VERTEX
  8
3
  6
CONTINUOUS
 62
  7
 10
574.684
 20
-14.112
 30
0.0
  0
VERTEX
  8
3
  6
CONTINUOUS
 62
  7
 10
574.807
 20
-14.18
 30
0.0
  0
VERTEX
  8
3
  6
CONTINUOUS
 62
  7
 10
574.934
 20
-14.241
 30
0.0
  0
VERTEX
  8
3
  6
CONTINUOUS
 62
  7
 10
575.143
 20
-14.328
 30
0.0
  0
VERTEX
  8
3
  6
CONTINUOUS
 62
  7
 10
575.464
 20
-14.434
 30
0.0
  0
VERTEX
  8
3
  6
CONTINUOUS
 62
  7
 10
575.684
 20
-14.485
 30
0.0
  0
VERTEX
  8
3
  6
CONTINUOUS
 62
  7
 10
576.018
 20
-14.539
 30
0.0
  0
VERTEX
  8
3
  6
CONTINUOUS
 62
  7
 10
576.299
 20
-14.566
 30
0.0
  0
VERTEX
  8
3
  6
CONTINUOUS
 62
  7
 10
576.58
 20
-14.578
 30
0.0
  0
VERTEX
  8
3
  6
CONTINUOUS
 62
  7
 10
577.144
 20
-14.555
 30
0.0
  0
VERTEX
  8
3
  6
CONTINUOUS
 62
  7
 10
577.701
 20
-14.474
 30
0.0
  0
VERTEX
  8
3
  6
CONTINUOUS
 62
  7
 10
577.976
 20
-14.408
 30
0.0
  0
VERTEX
  8
3
  6
CONTINUOUS
 62
  7
 10
578.242
 20
-14.317
 30
0.0
  0
VERTEX
  8
3
  6
CONTINUOUS
 62
  7
 10
578.499
 20
-14.201
 30
0.0
  0
VERTEX
  8
3
  6
CONTINUOUS
 62
  7
 10
578.625
 20
-14.137
 30
0.0
  0
VERTEX
  8
3
  6
CONTINUOUS
 62
  7
 10
578.747
 20
-14.066
 30
0.0
  0
VERTEX
  8
3
  6
CONTINUOUS
 62
  7
 10
578.839
 20
-14.002
 30
0.0
  0
VERTEX
  8
3
  6
CONTINUOUS
 62
  7
 10
578.905
 20
-13.949
 30
0.0
  0
VERTEX
  8
3
  6
CONTINUOUS
 62
  7
 10
578.968
 20
-13.892
 30
0.0
  0
VERTEX
  8
3
  6
CONTINUOUS
 62
  7
 10
579.046
 20
-13.81
 30
0.0
  0
VERTEX
  8
3
  6
CONTINUOUS
 62
  7
 10
579.15
 20
-13.676
 30
0.0
  0
VERTEX
  8
3
  6
CONTINUOUS
 62
  7
 10
579.212
 20
-13.582
 30
0.0
  0
VERTEX
  8
3
  6
CONTINUOUS
 62
  7
 10
579.253
 20
-13.508
 30
0.0
  0
VERTEX
  8
3
  6
CONTINUOUS
 62
  7
 10
579.29
 20
-13.432
 30
0.0
  0
VERTEX
  8
3
  6
CONTINUOUS
 62
  7
 10
579.329
 20
-13.326
 30
0.0
  0
VERTEX
  8
3
  6
CONTINUOUS
 62
  7
 10
579.351
 20
-13.244
 30
0.0
  0
VERTEX
  8
3
  6
CONTINUOUS
 62
  7
 10
579.368
 20
-13.161
 30
0.0
  0
SEQEND
  8
0
  0
POLYLINE
  8
3
  6
CONTINUOUS
 62
  7
 66
  1
 10
0.0
 20
0.0
 30
0.0
  0
VERTEX
  8
3
  6
CONTINUOUS
 62
  7
 10
575.629
 20
-12.772
 30
0.0
  0
VERTEX
  8
3
  6
CONTINUOUS
 62
  7
 10
575.644
 20
-12.838
 30
0.0
  0
VERTEX
  8
3
  6
CONTINUOUS
 62
  7
 10
575.666
 20
-12.902
 30
0.0
  0
VERTEX
  8
3
  6
CONTINUOUS
 62
  7
 10
575.694
 20
-12.965
 30
0.0
  0
VERTEX
  8
3
  6
CONTINUOUS
 62
  7
 10
575.727
 20
-13.025
 30
0.0
  0
VERTEX
  8
3
  6
CONTINUOUS
 62
  7
 10
575.766
 20
-13.08
 30
0.0
  0
VERTEX
  8
3
  6
CONTINUOUS
 62
  7
 10
575.81
 20
-13.132
 30
0.0
  0
VERTEX
  8
3
  6
CONTINUOUS
 62
  7
 10
575.859
 20
-13.179
 30
0.0
  0
VERTEX
  8
3
  6
CONTINUOUS
 62
  7
 10
575.911
 20
-13.222
 30
0.0
  0
VERTEX
  8
3
  6
CONTINUOUS
 62
  7
 10
575.967
 20
-13.26
 30
0.0
  0
VERTEX
  8
3
  6
CONTINUOUS
 62
  7
 10
576.025
 20
-13.296
 30
0.0
  0
VERTEX
  8
3
  6
CONTINUOUS
 62
  7
 10
576.147
 20
-13.356
 30
0.0
  0
VERTEX
  8
3
  6
CONTINUOUS
 62
  7
 10
576.241
 20
-13.393
 30
0.0
  0
VERTEX
  8
3
  6
CONTINUOUS
 62
  7
 10
576.338
 20
-13.423
 30
0.0
  0
VERTEX
  8
3
  6
CONTINUOUS
 62
  7
 10
576.469
 20
-13.454
 30
0.0
  0
VERTEX
  8
3
  6
CONTINUOUS
 62
  7
 10
576.569
 20
-13.469
 30
0.0
  0
VERTEX
  8
3
  6
CONTINUOUS
 62
  7
 10
576.671
 20
-13.478
 30
0.0
  0
VERTEX
  8
3
  6
CONTINUOUS
 62
  7
 10
576.806
 20
-13.48
 30
0.0
  0
VERTEX
  8
3
  6
CONTINUOUS
 62
  7
 10
576.907
 20
-13.473
 30
0.0
  0
VERTEX
  8
3
  6
CONTINUOUS
 62
  7
 10
577.007
 20
-13.457
 30
0.0
  0
VERTEX
  8
3
  6
CONTINUOUS
 62
  7
 10
577.073
 20
-13.443
 30
0.0
  0
VERTEX
  8
3
  6
CONTINUOUS
 62
  7
 10
577.17
 20
-13.413
 30
0.0
  0
VERTEX
  8
3
  6
CONTINUOUS
 62
  7
 10
577.233
 20
-13.389
 30
0.0
  0
VERTEX
  8
3
  6
CONTINUOUS
 62
  7
 10
577.324
 20
-13.345
 30
0.0
  0
VERTEX
  8
3
  6
CONTINUOUS
 62
  7
 10
577.442
 20
-13.278
 30
0.0
  0
VERTEX
  8
3
  6
CONTINUOUS
 62
  7
 10
577.526
 20
-13.222
 30
0.0
  0
VERTEX
  8
3
  6
CONTINUOUS
 62
  7
 10
577.607
 20
-13.161
 30
0.0
  0
SEQEND
  8
0
  0
POLYLINE
  8
3
  6
CONTINUOUS
 62
  7
 66
  1
 10
0.0
 20
0.0
 30
0.0
  0
VERTEX
  8
3
  6
CONTINUOUS
 62
  7
 10
577.607
 20
-11.937
 30
0.0
  0
VERTEX
  8
3
  6
CONTINUOUS
 62
  7
 10
577.603
 20
-11.9
 30
0.0
  0
VERTEX
  8
3
  6
CONTINUOUS
 62
  7
 10
577.597
 20
-11.863
 30
0.0
  0
VERTEX
  8
3
  6
CONTINUOUS
 62
  7
 10
577.589
 20
-11.826
 30
0.0
  0
VERTEX
  8
3
  6
CONTINUOUS
 62
  7
 10
577.578
 20
-11.79
 30
0.0
  0
VERTEX
  8
3
  6
CONTINUOUS
 62
  7
 10
577.565
 20
-11.755
 30
0.0
  0
VERTEX
  8
3
  6
CONTINUOUS
 62
  7
 10
577.55
 20
-11.72
 30
0.0
  0
VERTEX
  8
3
  6
CONTINUOUS
 62
  7
 10
577.533
 20
-11.687
 30
0.0
  0
VERTEX
  8
3
  6
CONTINUOUS
 62
  7
 10
577.513
 20
-11.655
 30
0.0
  0
VERTEX
  8
3
  6
CONTINUOUS
 62
  7
 10
577.492
 20
-11.624
 30
0.0
  0
VERTEX
  8
3
  6
CONTINUOUS
 62
  7
 10
577.469
 20
-11.594
 30
0.0
  0
VERTEX
  8
3
  6
CONTINUOUS
 62
  7
 10
577.419
 20
-11.538
 30
0.0
  0
VERTEX
  8
3
  6
CONTINUOUS
 62
  7
 10
577.377
 20
-11.5
 30
0.0
  0
VERTEX
  8
3
  6
CONTINUOUS
 62
  7
 10
577.334
 20
-11.464
 30
0.0
  0
VERTEX
  8
3
  6
CONTINUOUS
 62
  7
 10
577.273
 20
-11.421
 30
0.0
  0
VERTEX
  8
3
  6
CONTINUOUS
 62
  7
 10
577.224
 20
-11.392
 30
0.0
  0
VERTEX
  8
3
  6
CONTINUOUS
 62
  7
 10
577.175
 20
-11.366
 30
0.0
  0
VERTEX
  8
3
  6
CONTINUOUS
 62
  7
 10
577.107
 20
-11.334
 30
0.0
  0
VERTEX
  8
3
  6
CONTINUOUS
 62
  7
 10
577.001
 20
-11.296
 30
0.0
  0
VERTEX
  8
3
  6
CONTINUOUS
 62
  7
 10
576.929
 20
-11.277
 30
0.0
  0
VERTEX
  8
3
  6
CONTINUOUS
 62
  7
 10
576.818
 20
-11.256
 30
0.0
  0
VERTEX
  8
3
  6
CONTINUOUS
 62
  7
 10
576.744
 20
-11.247
 30
0.0
  0
VERTEX
  8
3
  6
CONTINUOUS
 62
  7
 10
576.631
 20
-11.242
 30
0.0
  0
VERTEX
  8
3
  6
CONTINUOUS
 62
  7
 10
576.557
 20
-11.243
 30
0.0
  0
VERTEX
  8
3
  6
CONTINUOUS
 62
  7
 10
576.445
 20
-11.253
 30
0.0
  0
VERTEX
  8
3
  6
CONTINUOUS
 62
  7
 10
576.37
 20
-11.266
 30
0.0
  0
VERTEX
  8
3
  6
CONTINUOUS
 62
  7
 10
576.334
 20
-11.275
 30
0.0
  0
VERTEX
  8
3
  6
CONTINUOUS
 62
  7
 10
576.298
 20
-11.286
 30
0.0
  0
VERTEX
  8
3
  6
CONTINUOUS
 62
  7
 10
576.263
 20
-11.299
 30
0.0
  0
VERTEX
  8
3
  6
CONTINUOUS
 62
  7
 10
576.229
 20
-11.315
 30
0.0
  0
VERTEX
  8
3
  6
CONTINUOUS
 62
  7
 10
576.099
 20
-11.39
 30
0.0
  0
VERTEX
  8
3
  6
CONTINUOUS
 62
  7
 10
575.936
 20
-11.481
 30
0.0
  0
VERTEX
  8
3
  6
CONTINUOUS
 62
  7
 10
575.905
 20
-11.502
 30
0.0
  0
VERTEX
  8
3
  6
CONTINUOUS
 62
  7
 10
575.876
 20
-11.526
 30
0.0
  0
VERTEX
  8
3
  6
CONTINUOUS
 62
  7
 10
575.847
 20
-11.551
 30
0.0
  0
VERTEX
  8
3
  6
CONTINUOUS
 62
  7
 10
575.795
 20
-11.605
 30
0.0
  0
VERTEX
  8
3
  6
CONTINUOUS
 62
  7
 10
575.749
 20
-11.664
 30
0.0
  0
VERTEX
  8
3
  6
CONTINUOUS
 62
  7
 10
575.719
 20
-11.712
 30
0.0
  0
VERTEX
  8
3
  6
CONTINUOUS
 62
  7
 10
575.692
 20
-11.761
 30
0.0
  0
VERTEX
  8
3
  6
CONTINUOUS
 62
  7
 10
575.661
 20
-11.83
 30
0.0
  0
VERTEX
  8
3
  6
CONTINUOUS
 62
  7
 10
575.643
 20
-11.883
 30
0.0
  0
VERTEX
  8
3
  6
CONTINUOUS
 62
  7
 10
575.629
 20
-11.937
 30
0.0
  0
SEQEND
  8
0
  0
POLYLINE
  8
3
  6
CONTINUOUS
 62
  7
 66
  1
 10
0.0
 20
0.0
 30
0.0
  0
VERTEX
  8
3
  6
CONTINUOUS
 62
  7
 10
582.719
 20
-12.189
 30
0.0
  0
VERTEX
  8
3
  6
CONTINUOUS
 62
  7
 10
582.719
 20
-12.167
 30
0.0
  0
VERTEX
  8
3
  6
CONTINUOUS
 62
  7
 10
582.719
 20
-12.145
 30
0.0
  0
VERTEX
  8
3
  6
CONTINUOUS
 62
  7
 10
582.714
 20
-12.101
 30
0.0
  0
VERTEX
  8
3
  6
CONTINUOUS
 62
  7
 10
582.704
 20
-12.058
 30
0.0
  0
VERTEX
  8
3
  6
CONTINUOUS
 62
  7
 10
582.691
 20
-12.016
 30
0.0
  0
VERTEX
  8
3
  6
CONTINUOUS
 62
  7
 10
582.673
 20
-11.976
 30
0.0
  0
VERTEX
  8
3
  6
CONTINUOUS
 62
  7
 10
582.65
 20
-11.938
 30
0.0
  0
VERTEX
  8
3
  6
CONTINUOUS
 62
  7
 10
582.624
 20
-11.903
 30
0.0
  0
VERTEX
  8
3
  6
CONTINUOUS
 62
  7
 10
582.595
 20
-11.87
 30
0.0
  0
VERTEX
  8
3
  6
CONTINUOUS
 62
  7
 10
582.562
 20
-11.841
 30
0.0
  0
VERTEX
  8
3
  6
CONTINUOUS
 62
  7
 10
582.527
 20
-11.815
 30
0.0
  0
VERTEX
  8
3
  6
CONTINUOUS
 62
  7
 10
582.489
 20
-11.792
 30
0.0
  0
VERTEX
  8
3
  6
CONTINUOUS
 62
  7
 10
582.45
 20
-11.774
 30
0.0
  0
VERTEX
  8
3
  6
CONTINUOUS
 62
  7
 10
582.408
 20
-11.758
 30
0.0
  0
VERTEX
  8
3
  6
CONTINUOUS
 62
  7
 10
582.366
 20
-11.747
 30
0.0
  0
VERTEX
  8
3
  6
CONTINUOUS
 62
  7
 10
582.323
 20
-11.74
 30
0.0
  0
VERTEX
  8
3
  6
CONTINUOUS
 62
  7
 10
582.279
 20
-11.736
 30
0.0
  0
VERTEX
  8
3
  6
CONTINUOUS
 62
  7
 10
582.236
 20
-11.736
 30
0.0
  0
VERTEX
  8
3
  6
CONTINUOUS
 62
  7
 10
582.192
 20
-11.739
 30
0.0
  0
VERTEX
  8
3
  6
CONTINUOUS
 62
  7
 10
582.149
 20
-11.746
 30
0.0
  0
VERTEX
  8
3
  6
CONTINUOUS
 62
  7
 10
582.106
 20
-11.756
 30
0.0
  0
VERTEX
  8
3
  6
CONTINUOUS
 62
  7
 10
582.064
 20
-11.769
 30
0.0
  0
VERTEX
  8
3
  6
CONTINUOUS
 62
  7
 10
582.023
 20
-11.784
 30
0.0
  0
VERTEX
  8
3
  6
CONTINUOUS
 62
  7
 10
581.983
 20
-11.804
 30
0.0
  0
VERTEX
  8
3
  6
CONTINUOUS
 62
  7
 10
581.946
 20
-11.826
 30
0.0
  0
VERTEX
  8
3
  6
CONTINUOUS
 62
  7
 10
581.911
 20
-11.852
 30
0.0
  0
VERTEX
  8
3
  6
CONTINUOUS
 62
  7
 10
581.878
 20
-11.881
 30
0.0
  0
VERTEX
  8
3
  6
CONTINUOUS
 62
  7
 10
581.849
 20
-11.913
 30
0.0
  0
VERTEX
  8
3
  6
CONTINUOUS
 62
  7
 10
581.822
 20
-11.948
 30
0.0
  0
VERTEX
  8
3
  6
CONTINUOUS
 62
  7
 10
581.798
 20
-11.985
 30
0.0
  0
VERTEX
  8
3
  6
CONTINUOUS
 62
  7
 10
581.778
 20
-12.024
 30
0.0
  0
VERTEX
  8
3
  6
CONTINUOUS
 62
  7
 10
581.76
 20
-12.064
 30
0.0
  0
VERTEX
  8
3
  6
CONTINUOUS
 62
  7
 10
581.746
 20
-12.105
 30
0.0
  0
VERTEX
  8
3
  6
CONTINUOUS
 62
  7
 10
581.735
 20
-12.148
 30
0.0
  0
VERTEX
  8
3
  6
CONTINUOUS
 62
  7
 10
581.727
 20
-12.191
 30
0.0
  0
VERTEX
  8
3
  6
CONTINUOUS
 62
  7
 10
581.724
 20
-12.234
 30
0.0
  0
SEQEND
  8
0
  0
POLYLINE
  8
3
  6
CONTINUOUS
 62
  7
 66
  1
 10
0.0
 20
0.0
 30
0.0
  0
VERTEX
  8
3
  6
CONTINUOUS
 62
  7
 10
584.548
 20
-12.429
 30
0.0
  0
VERTEX
  8
3
  6
CONTINUOUS
 62
  7
 10
584.564
 20
-12.274
 30
0.0
  0
VERTEX
  8
3
  6
CONTINUOUS
 62
  7
 10
584.572
 20
-12.119
 30
0.0
  0
VERTEX
  8
3
  6
CONTINUOUS
 62
  7
 10
584.57
 20
-11.964
 30
0.0
  0
VERTEX
  8
3
  6
CONTINUOUS
 62
  7
 10
584.56
 20
-11.809
 30
0.0
  0
VERTEX
  8
3
  6
CONTINUOUS
 62
  7
 10
584.541
 20
-11.656
 30
0.0
  0
VERTEX
  8
3
  6
CONTINUOUS
 62
  7
 10
584.514
 20
-11.503
 30
0.0
  0
VERTEX
  8
3
  6
CONTINUOUS
 62
  7
 10
584.486
 20
-11.382
 30
0.0
  0
VERTEX
  8
3
  6
CONTINUOUS
 62
  7
 10
584.46
 20
-11.292
 30
0.0
  0
VERTEX
  8
3
  6
CONTINUOUS
 62
  7
 10
584.429
 20
-11.204
 30
0.0
  0
VERTEX
  8
3
  6
CONTINUOUS
 62
  7
 10
584.378
 20
-11.091
 30
0.0
  0
VERTEX
  8
3
  6
CONTINUOUS
 62
  7
 10
584.332
 20
-11.01
 30
0.0
  0
VERTEX
  8
3
  6
CONTINUOUS
 62
  7
 10
584.28
 20
-10.932
 30
0.0
  0
VERTEX
  8
3
  6
CONTINUOUS
 62
  7
 10
584.242
 20
-10.883
 30
0.0
  0
VERTEX
  8
3
  6
CONTINUOUS
 62
  7
 10
584.202
 20
-10.835
 30
0.0
  0
VERTEX
  8
3
  6
CONTINUOUS
 62
  7
 10
584.158
 20
-10.791
 30
0.0
  0
VERTEX
  8
3
  6
CONTINUOUS
 62
  7
 10
584.112
 20
-10.749
 30
0.0
  0
VERTEX
  8
3
  6
CONTINUOUS
 62
  7
 10
584.064
 20
-10.71
 30
0.0
  0
VERTEX
  8
3
  6
CONTINUOUS
 62
  7
 10
584.013
 20
-10.674
 30
0.0
  0
VERTEX
  8
3
  6
CONTINUOUS
 62
  7
 10
583.96
 20
-10.641
 30
0.0
  0
VERTEX
  8
3
  6
CONTINUOUS
 62
  7
 10
583.878
 20
-10.598
 30
0.0
  0
VERTEX
  8
3
  6
CONTINUOUS
 62
  7
 10
583.792
 20
-10.561
 30
0.0
  0
VERTEX
  8
3
  6
CONTINUOUS
 62
  7
 10
583.675
 20
-10.52
 30
0.0
  0
VERTEX
  8
3
  6
CONTINUOUS
 62
  7
 10
583.494
 20
-10.474
 30
0.0
  0
VERTEX
  8
3
  6
CONTINUOUS
 62
  7
 10
583.372
 20
-10.451
 30
0.0
  0
VERTEX
  8
3
  6
CONTINUOUS
 62
  7
 10
583.187
 20
-10.429
 30
0.0
  0
VERTEX
  8
3
  6
CONTINUOUS
 62
  7
 10
583.063
 20
-10.425
 30
0.0
  0
VERTEX
  8
3
  6
CONTINUOUS
 62
  7
 10
582.877
 20
-10.433
 30
0.0
  0
VERTEX
  8
3
  6
CONTINUOUS
 62
  7
 10
582.723
 20
-10.45
 30
0.0
  0
VERTEX
  8
3
  6
CONTINUOUS
 62
  7
 10
582.57
 20
-10.477
 30
0.0
  0
VERTEX
  8
3
  6
CONTINUOUS
 62
  7
 10
582.449
 20
-10.505
 30
0.0
  0
VERTEX
  8
3
  6
CONTINUOUS
 62
  7
 10
582.271
 20
-10.56
 30
0.0
  0
VERTEX
  8
3
  6
CONTINUOUS
 62
  7
 10
582.156
 20
-10.605
 30
0.0
  0
VERTEX
  8
3
  6
CONTINUOUS
 62
  7
 10
582.043
 20
-10.658
 30
0.0
  0
VERTEX
  8
3
  6
CONTINUOUS
 62
  7
 10
581.933
 20
-10.716
 30
0.0
  0
VERTEX
  8
3
  6
CONTINUOUS
 62
  7
 10
581.724
 20
-10.851
 30
0.0
  0
SEQEND
  8
0
  0
ARC
  8
3
  6
CONTINUOUS
 62
  7
 10
548.215
 20
-11.165
 30
0.0
 40
0.471
 50
290.582
 51
349.598
  0
POLYLINE
  8
3
  6
CONTINUOUS
 62
  7
 66
  1
 10
0.0
 20
0.0
 30
0.0
  0
VERTEX
  8
3
  6
CONTINUOUS
 62
  7
 10
550.587
 20
-13.847
 30
0.0
  0
VERTEX
  8
3
  6
CONTINUOUS
 62
  7
 10
550.583
 20
-13.89
 30
0.0
  0
VERTEX
  8
3
  6
CONTINUOUS
 62
  7
 10
550.576
 20
-13.933
 30
0.0
  0
VERTEX
  8
3
  6
CONTINUOUS
 62
  7
 10
550.566
 20
-13.976
 30
0.0
  0
VERTEX
  8
3
  6
CONTINUOUS
 62
  7
 10
550.553
 20
-14.017
 30
0.0
  0
VERTEX
  8
3
  6
CONTINUOUS
 62
  7
 10
550.538
 20
-14.059
 30
0.0
  0
VERTEX
  8
3
  6
CONTINUOUS
 62
  7
 10
550.52
 20
-14.099
 30
0.0
  0
VERTEX
  8
3
  6
CONTINUOUS
 62
  7
 10
550.5
 20
-14.137
 30
0.0
  0
VERTEX
  8
3
  6
CONTINUOUS
 62
  7
 10
550.477
 20
-14.175
 30
0.0
  0
VERTEX
  8
3
  6
CONTINUOUS
 62
  7
 10
550.452
 20
-14.21
 30
0.0
  0
VERTEX
  8
3
  6
CONTINUOUS
 62
  7
 10
550.424
 20
-14.244
 30
0.0
  0
VERTEX
  8
3
  6
CONTINUOUS
 62
  7
 10
550.395
 20
-14.276
 30
0.0
  0
VERTEX
  8
3
  6
CONTINUOUS
 62
  7
 10
550.363
 20
-14.306
 30
0.0
  0
VERTEX
  8
3
  6
CONTINUOUS
 62
  7
 10
550.329
 20
-14.334
 30
0.0
  0
VERTEX
  8
3
  6
CONTINUOUS
 62
  7
 10
550.294
 20
-14.359
 30
0.0
  0
VERTEX
  8
3
  6
CONTINUOUS
 62
  7
 10
550.257
 20
-14.383
 30
0.0
  0
VERTEX
  8
3
  6
CONTINUOUS
 62
  7
 10
550.18
 20
-14.425
 30
0.0
  0
VERTEX
  8
3
  6
CONTINUOUS
 62
  7
 10
550.14
 20
-14.442
 30
0.0
  0
VERTEX
  8
3
  6
CONTINUOUS
 62
  7
 10
550.099
 20
-14.458
 30
0.0
  0
VERTEX
  8
3
  6
CONTINUOUS
 62
  7
 10
550.058
 20
-14.471
 30
0.0
  0
VERTEX
  8
3
  6
CONTINUOUS
 62
  7
 10
550.015
 20
-14.482
 30
0.0
  0
VERTEX
  8
3
  6
CONTINUOUS
 62
  7
 10
549.972
 20
-14.49
 30
0.0
  0
VERTEX
  8
3
  6
CONTINUOUS
 62
  7
 10
549.929
 20
-14.496
 30
0.0
  0
VERTEX
  8
3
  6
CONTINUOUS
 62
  7
 10
549.885
 20
-14.499
 30
0.0
  0
VERTEX
  8
3
  6
CONTINUOUS
 62
  7
 10
549.842
 20
-14.498
 30
0.0
  0
VERTEX
  8
3
  6
CONTINUOUS
 62
  7
 10
549.799
 20
-14.495
 30
0.0
  0
VERTEX
  8
3
  6
CONTINUOUS
 62
  7
 10
549.756
 20
-14.488
 30
0.0
  0
VERTEX
  8
3
  6
CONTINUOUS
 62
  7
 10
549.713
 20
-14.478
 30
0.0
  0
VERTEX
  8
3
  6
CONTINUOUS
 62
  7
 10
549.671
 20
-14.465
 30
0.0
  0
VERTEX
  8
3
  6
CONTINUOUS
 62
  7
 10
549.63
 20
-14.45
 30
0.0
  0
VERTEX
  8
3
  6
CONTINUOUS
 62
  7
 10
549.55
 20
-14.415
 30
0.0
  0
VERTEX
  8
3
  6
CONTINUOUS
 62
  7
 10
549.493
 20
-14.384
 30
0.0
  0
VERTEX
  8
3
  6
CONTINUOUS
 62
  7
 10
549.438
 20
-14.348
 30
0.0
  0
SEQEND
  8
0
  0
ARC
  8
3
  6
CONTINUOUS
 62
  7
 10
551.669
 20
-10.011
 30
0.0
 40
0.5
 50
275.84
 51
95.84
  0
LINE
  8
3
  6
CONTINUOUS
 62
  1
 10
742.264
 20
1.829
 30
0.0
 11
542.264
 21
1.829
 31
0.0
  0
LINE
  8
3
  6
CONTINUOUS
 62
  1
 10
690.597
 20
-15.014
 30
0.0
 11
690.597
 21
-25.015
 31
0.0
  0
TEXT
  8
3
  6
CONTINUOUS
 62
  4
 10
553.752
 20
-20.708
 30
0.0
 40
1.8
  1
www.findernet.com
 50
360.0
 41
0.6
  0
LINE
  8
3
  6
CONTINUOUS
 62
  1
 10
742.264
 20
256.984
 30
0.0
 11
742.264
 21
-30.016
 31
0.0
  0
LINE
  8
3
  6
CONTINUOUS
 62
  1
 10
742.264
 20
-30.016
 30
0.0
 11
542.264
 21
-30.016
 31
0.0
  0
LINE
  8
3
  6
CONTINUOUS
 62
  1
 10
542.264
 20
-30.016
 30
0.0
 11
542.264
 21
256.984
 31
0.0
  0
LINE
  8
3
  6
CONTINUOUS
 62
  1
 10
542.264
 20
256.984
 30
0.0
 11
742.264
 21
256.984
 31
0.0
  0
TEXT
  8
3
  6
CONTINUOUS
 62
  1
 10
662.41
 20
-18.392
 30
0.0
 40
1.8
  1
DATE
 50
360.0
 41
0.46
  0
TEXT
  8
3
  6
CONTINUOUS
 62
  2
 10
660.69
 20
-23.24
 30
0.0
 40
2.1
  1
18/06/08
 50
360.0
 41
0.46
  0
TEXT
  8
3
  6
CONTINUOUS
 62
  1
 10
713.368
 20
-18.392
 30
0.0
 40
1.8
  1
SCALE
 50
360.0
 41
0.46
  0
TEXT
  8
3
  6
CONTINUOUS
 62
  2
 10
715.152
 20
-23.24
 30
0.0
 40
2.1
  1
1:1
 50
360.0
 41
0.46
  0
TEXT
  8
3
  6
CONTINUOUS
 62
  2
 10
661.036
 20
-10.426
 30
0.0
 40
3.0
  1
56.34
 50
360.0
 41
0.46
  0
INSERT
  8
0
  2
*X28
 10
0.0
 20
0.0
 30
0.0
  0
INSERT
  8
0
  2
*X29
 10
0.0
 20
0.0
 30
0.0
  0
INSERT
  8
0
  2
*X30
 10
0.0
 20
0.0
 30
0.0
  0
INSERT
  8
0
  2
*X31
 10
0.0
 20
0.0
 30
0.0
  0
INSERT
  8
0
  2
*X32
 10
0.0
 20
0.0
 30
0.0
  0
INSERT
  8
0
  2
*X33
 10
0.0
 20
0.0
 30
0.0
  0
INSERT
  8
0
  2
*X34
 10
0.0
 20
0.0
 30
0.0
  0
INSERT
  8
0
  2
*X35
 10
0.0
 20
0.0
 30
0.0
  0
LINE
  8
2
  6
CONTINUOUS
 62
  5
 10
602.082
 20
103.309
 30
0.0
 11
602.218
 21
131.809
 31
0.0
  0
LINE
  8
2
  6
CONTINUOUS
 62
  4
 10
600.739
 20
131.809
 30
0.0
 11
600.411
 21
103.309
 31
0.0
  0
LINE
  8
2
  6
CONTINUOUS
 62
  4
 10
641.143
 20
97.409
 30
0.0
 11
641.075
 21
103.309
 31
0.0
  0
LINE
  8
2
  6
CONTINUOUS
 62
  4
 10
600.411
 20
103.309
 30
0.0
 11
600.343
 21
97.409
 31
0.0
  0
LINE
  8
2
  6
CONTINUOUS
 62
  5
 10
640.175
 20
103.309
 30
0.0
 11
639.404
 21
103.309
 31
0.0
  0
LINE
  8
2
  6
CONTINUOUS
 62
  5
 10
602.082
 20
103.309
 30
0.0
 11
601.311
 21
103.309
 31
0.0
  0
LINE
  8
2
  6
CONTINUOUS
 62
  4
 10
601.243
 20
97.409
 30
0.0
 11
640.243
 21
97.409
 31
0.0
  0
LINE
  8
2
  6
CONTINUOUS
 62
  5
 10
641.075
 20
103.309
 30
0.0
 11
640.175
 21
103.309
 31
0.0
  0
LINE
  8
2
  6
CONTINUOUS
 62
  4
 10
641.143
 20
97.409
 30
0.0
 11
640.243
 21
97.409
 31
0.0
  0
LINE
  8
2
  6
CONTINUOUS
 62
  4
 10
600.343
 20
97.409
 30
0.0
 11
601.243
 21
97.409
 31
0.0
  0
LINE
  8
2
  6
CONTINUOUS
 62
  5
 10
600.411
 20
103.309
 30
0.0
 11
601.311
 21
103.309
 31
0.0
  0
LINE
  8
2
  6
CONTINUOUS
 62
  5
 10
639.266
 20
132.215
 30
0.0
 11
639.404
 21
103.309
 31
0.0
  0
LINE
  8
2
  6
CONTINUOUS
 62
  4
 10
641.075
 20
103.309
 30
0.0
 11
640.742
 21
132.215
 31
0.0
  0
LINE
  8
2
  6
CONTINUOUS
 62
  6
 10
634.243
 20
90.409
 30
0.0
 11
637.243
 21
90.409
 31
0.0
  0
LINE
  8
2
  6
CONTINUOUS
 62
  6
 10
637.243
 20
90.409
 30
0.0
 11
638.118
 21
91.284
 31
0.0
  0
LINE
  8
2
  6
CONTINUOUS
 62
  6
 10
638.118
 20
91.284
 30
0.0
 11
638.118
 21
91.309
 31
0.0
  0
LINE
  8
2
  6
CONTINUOUS
 62
  6
 10
634.243
 20
90.409
 30
0.0
 11
633.368
 21
91.284
 31
0.0
  0
LINE
  8
2
  6
CONTINUOUS
 62
  6
 10
633.368
 20
91.284
 30
0.0
 11
633.368
 21
91.309
 31
0.0
  0
CIRCLE
  8
2
  6
CONTINUOUS
 62
  5
 10
635.743
 20
93.559
 30
0.0
 40
1.3
  0
LINE
  8
2
  6
CONTINUOUS
 62
  6
 10
638.493
 20
96.909
 30
0.0
 11
638.118
 21
96.909
 31
0.0
  0
LINE
  8
2
  6
CONTINUOUS
 62
  6
 10
633.368
 20
96.909
 30
0.0
 11
632.993
 21
96.909
 31
0.0
  0
LINE
  8
2
  6
CONTINUOUS
 62
  6
 10
638.118
 20
96.909
 30
0.0
 11
638.118
 21
91.309
 31
0.0
  0
LINE
  8
2
  6
CONTINUOUS
 62
  6
 10
638.493
 20
97.409
 30
0.0
 11
638.493
 21
96.909
 31
0.0
  0
LINE
  8
2
  6
CONTINUOUS
 62
  6
 10
633.368
 20
91.309
 30
0.0
 11
633.368
 21
96.909
 31
0.0
  0
LINE
  8
2
  6
CONTINUOUS
 62
  6
 10
632.993
 20
97.409
 30
0.0
 11
632.993
 21
96.909
 31
0.0
  0
LINE
  8
2
  6
CONTINUOUS
 62
  6
 10
624.243
 20
90.409
 30
0.0
 11
627.243
 21
90.409
 31
0.0
  0
LINE
  8
2
  6
CONTINUOUS
 62
  6
 10
627.243
 20
90.409
 30
0.0
 11
628.118
 21
91.284
 31
0.0
  0
LINE
  8
2
  6
CONTINUOUS
 62
  6
 10
628.118
 20
91.284
 30
0.0
 11
628.118
 21
91.309
 31
0.0
  0
LINE
  8
2
  6
CONTINUOUS
 62
  6
 10
624.243
 20
90.409
 30
0.0
 11
623.368
 21
91.284
 31
0.0
  0
LINE
  8
2
  6
CONTINUOUS
 62
  6
 10
623.368
 20
91.284
 30
0.0
 11
623.368
 21
91.309
 31
0.0
  0
CIRCLE
  8
2
  6
CONTINUOUS
 62
  5
 10
625.743
 20
93.559
 30
0.0
 40
1.3
  0
LINE
  8
2
  6
CONTINUOUS
 62
  6
 10
628.493
 20
96.909
 30
0.0
 11
628.118
 21
96.909
 31
0.0
  0
LINE
  8
2
  6
CONTINUOUS
 62
  6
 10
623.368
 20
96.909
 30
0.0
 11
622.993
 21
96.909
 31
0.0
  0
LINE
  8
2
  6
CONTINUOUS
 62
  6
 10
628.118
 20
96.909
 30
0.0
 11
628.118
 21
91.309
 31
0.0
  0
LINE
  8
2
  6
CONTINUOUS
 62
  6
 10
628.493
 20
97.409
 30
0.0
 11
628.493
 21
96.909
 31
0.0
  0
LINE
  8
2
  6
CONTINUOUS
 62
  6
 10
623.368
 20
91.309
 30
0.0
 11
623.368
 21
96.909
 31
0.0
  0
LINE
  8
2
  6
CONTINUOUS
 62
  6
 10
622.993
 20
97.409
 30
0.0
 11
622.993
 21
96.909
 31
0.0
  0
LINE
  8
2
  6
CONTINUOUS
 62
  6
 10
614.243
 20
90.409
 30
0.0
 11
617.243
 21
90.409
 31
0.0
  0
LINE
  8
2
  6
CONTINUOUS
 62
  6
 10
617.243
 20
90.409
 30
0.0
 11
618.118
 21
91.284
 31
0.0
  0
LINE
  8
2
  6
CONTINUOUS
 62
  6
 10
618.118
 20
91.284
 30
0.0
 11
618.118
 21
91.309
 31
0.0
  0
LINE
  8
2
  6
CONTINUOUS
 62
  6
 10
614.243
 20
90.409
 30
0.0
 11
613.368
 21
91.284
 31
0.0
  0
LINE
  8
2
  6
CONTINUOUS
 62
  6
 10
613.368
 20
91.284
 30
0.0
 11
613.368
 21
91.309
 31
0.0
  0
CIRCLE
  8
2
  6
CONTINUOUS
 62
  5
 10
615.743
 20
93.559
 30
0.0
 40
1.3
  0
LINE
  8
2
  6
CONTINUOUS
 62
  6
 10
618.493
 20
96.909
 30
0.0
 11
618.118
 21
96.909
 31
0.0
  0
LINE
  8
2
  6
CONTINUOUS
 62
  6
 10
613.368
 20
96.909
 30
0.0
 11
612.993
 21
96.909
 31
0.0
  0
LINE
  8
2
  6
CONTINUOUS
 62
  6
 10
618.118
 20
96.909
 30
0.0
 11
618.118
 21
91.309
 31
0.0
  0
LINE
  8
2
  6
CONTINUOUS
 62
  6
 10
618.493
 20
97.409
 30
0.0
 11
618.493
 21
96.909
 31
0.0
  0
LINE
  8
2
  6
CONTINUOUS
 62
  6
 10
613.368
 20
91.309
 30
0.0
 11
613.368
 21
96.909
 31
0.0
  0
LINE
  8
2
  6
CONTINUOUS
 62
  6
 10
612.993
 20
97.409
 30
0.0
 11
612.993
 21
96.909
 31
0.0
  0
LINE
  8
2
  6
CONTINUOUS
 62
  6
 10
604.243
 20
90.409
 30
0.0
 11
607.243
 21
90.409
 31
0.0
  0
LINE
  8
2
  6
CONTINUOUS
 62
  6
 10
607.243
 20
90.409
 30
0.0
 11
608.118
 21
91.284
 31
0.0
  0
LINE
  8
2
  6
CONTINUOUS
 62
  6
 10
608.118
 20
91.284
 30
0.0
 11
608.118
 21
91.309
 31
0.0
  0
LINE
  8
2
  6
CONTINUOUS
 62
  6
 10
604.243
 20
90.409
 30
0.0
 11
603.368
 21
91.284
 31
0.0
  0
LINE
  8
2
  6
CONTINUOUS
 62
  6
 10
603.368
 20
91.284
 30
0.0
 11
603.368
 21
91.309
 31
0.0
  0
CIRCLE
  8
2
  6
CONTINUOUS
 62
  5
 10
605.743
 20
93.559
 30
0.0
 40
1.3
  0
LINE
  8
2
  6
CONTINUOUS
 62
  6
 10
608.493
 20
96.909
 30
0.0
 11
608.118
 21
96.909
 31
0.0
  0
LINE
  8
2
  6
CONTINUOUS
 62
  6
 10
603.368
 20
96.909
 30
0.0
 11
602.993
 21
96.909
 31
0.0
  0
LINE
  8
2
  6
CONTINUOUS
 62
  6
 10
608.118
 20
96.909
 30
0.0
 11
608.118
 21
91.309
 31
0.0
  0
LINE
  8
2
  6
CONTINUOUS
 62
  6
 10
608.493
 20
97.409
 30
0.0
 11
608.493
 21
96.909
 31
0.0
  0
LINE
  8
2
  6
CONTINUOUS
 62
  6
 10
603.368
 20
91.309
 30
0.0
 11
603.368
 21
96.909
 31
0.0
  0
LINE
  8
2
  6
CONTINUOUS
 62
  6
 10
602.993
 20
97.409
 30
0.0
 11
602.993
 21
96.909
 31
0.0
  0
LINE
  8
2
  6
CONTINUOUS
 62
  4
 10
676.541
 20
103.309
 30
0.0
 11
676.213
 21
131.809
 31
0.0
  0
LINE
  8
2
  6
CONTINUOUS
 62
  5
 10
674.711
 20
131.809
 30
0.0
 11
674.87
 21
103.309
 31
0.0
  0
LINE
  8
2
  6
CONTINUOUS
 62
  4
 10
676.541
 20
103.309
 30
0.0
 11
676.609
 21
97.409
 31
0.0
  0
LINE
  8
2
  6
CONTINUOUS
 62
  4
 10
648.909
 20
97.409
 30
0.0
 11
648.977
 21
103.309
 31
0.0
  0
LINE
  8
2
  6
CONTINUOUS
 62
  5
 10
675.641
 20
103.309
 30
0.0
 11
674.87
 21
103.309
 31
0.0
  0
LINE
  8
2
  6
CONTINUOUS
 62
  4
 10
675.709
 20
97.409
 30
0.0
 11
649.809
 21
97.409
 31
0.0
  0
LINE
  8
2
  6
CONTINUOUS
 62
  5
 10
649.877
 20
103.309
 30
0.0
 11
650.841
 21
103.309
 31
0.0
  0
LINE
  8
2
  6
CONTINUOUS
 62
  4
 10
675.709
 20
97.409
 30
0.0
 11
676.609
 21
97.409
 31
0.0
  0
LINE
  8
2
  6
CONTINUOUS
 62
  5
 10
675.641
 20
103.309
 30
0.0
 11
676.541
 21
103.309
 31
0.0
  0
LINE
  8
2
  6
CONTINUOUS
 62
  5
 10
648.977
 20
103.309
 30
0.0
 11
649.877
 21
103.309
 31
0.0
  0
LINE
  8
2
  6
CONTINUOUS
 62
  4
 10
648.909
 20
97.409
 30
0.0
 11
649.809
 21
97.409
 31
0.0
  0
LINE
  8
2
  6
CONTINUOUS
 62
  4
 10
649.31
 20
132.215
 30
0.0
 11
648.977
 21
103.309
 31
0.0
  0
LINE
  8
2
  6
CONTINUOUS
 62
  5
 10
650.841
 20
103.309
 30
0.0
 11
650.979
 21
132.215
 31
0.0
  0
LINE
  8
2
  6
CONTINUOUS
 62
  6
 10
667.909
 20
90.409
 30
0.0
 11
668.109
 21
90.409
 31
0.0
  0
LINE
  8
2
  6
CONTINUOUS
 62
  6
 10
668.109
 20
90.409
 30
0.0
 11
668.255
 21
91.284
 31
0.0
  0
LINE
  8
2
  6
CONTINUOUS
 62
  6
 10
667.909
 20
90.409
 30
0.0
 11
667.763
 21
91.284
 31
0.0
  0
LINE
  8
2
  6
CONTINUOUS
 62
  6
 10
668.259
 20
91.309
 30
0.0
 11
668.255
 21
91.284
 31
0.0
  0
LINE
  8
2
  6
CONTINUOUS
 62
  6
 10
667.763
 20
91.284
 30
0.0
 11
667.759
 21
91.309
 31
0.0
  0
LINE
  8
2
  6
CONTINUOUS
 62
  6
 10
668.259
 20
91.309
 30
0.0
 11
668.259
 21
96.909
 31
0.0
  0
LINE
  8
2
  6
CONTINUOUS
 62
  6
 10
667.759
 20
96.909
 30
0.0
 11
667.759
 21
91.309
 31
0.0
  0
LINE
  8
2
  6
CONTINUOUS
 62
  6
 10
667.759
 20
97.409
 30
0.0
 11
667.759
 21
96.909
 31
0.0
  0
LINE
  8
2
  6
CONTINUOUS
 62
  6
 10
668.259
 20
97.409
 30
0.0
 11
668.259
 21
96.909
 31
0.0
  0
LINE
  8
2
  6
CONTINUOUS
 62
  6
 10
672.859
 20
90.409
 30
0.0
 11
672.659
 21
90.409
 31
0.0
  0
LINE
  8
2
  6
CONTINUOUS
 62
  6
 10
672.659
 20
90.409
 30
0.0
 11
672.513
 21
91.284
 31
0.0
  0
LINE
  8
2
  6
CONTINUOUS
 62
  6
 10
672.859
 20
90.409
 30
0.0
 11
673.005
 21
91.284
 31
0.0
  0
LINE
  8
2
  6
CONTINUOUS
 62
  6
 10
672.509
 20
91.309
 30
0.0
 11
672.513
 21
91.284
 31
0.0
  0
LINE
  8
2
  6
CONTINUOUS
 62
  6
 10
673.005
 20
91.284
 30
0.0
 11
673.009
 21
91.309
 31
0.0
  0
LINE
  8
2
  6
CONTINUOUS
 62
  6
 10
673.009
 20
91.309
 30
0.0
 11
673.009
 21
96.909
 31
0.0
  0
LINE
  8
2
  6
CONTINUOUS
 62
  6
 10
672.509
 20
91.309
 30
0.0
 11
672.509
 21
96.909
 31
0.0
  0
LINE
  8
2
  6
CONTINUOUS
 62
  6
 10
672.509
 20
97.409
 30
0.0
 11
672.509
 21
96.909
 31
0.0
  0
LINE
  8
2
  6
CONTINUOUS
 62
  6
 10
673.009
 20
97.409
 30
0.0
 11
673.009
 21
96.909
 31
0.0
  0
LINE
  8
2
  6
CONTINUOUS
 62
  6
 10
653.359
 20
90.409
 30
0.0
 11
656.359
 21
90.409
 31
0.0
  0
LINE
  8
2
  6
CONTINUOUS
 62
  6
 10
656.359
 20
90.409
 30
0.0
 11
657.234
 21
91.284
 31
0.0
  0
LINE
  8
2
  6
CONTINUOUS
 62
  6
 10
657.234
 20
91.284
 30
0.0
 11
657.234
 21
91.309
 31
0.0
  0
LINE
  8
2
  6
CONTINUOUS
 62
  6
 10
653.359
 20
90.409
 30
0.0
 11
652.484
 21
91.284
 31
0.0
  0
LINE
  8
2
  6
CONTINUOUS
 62
  6
 10
652.484
 20
91.284
 30
0.0
 11
652.484
 21
91.309
 31
0.0
  0
LINE
  8
2
  6
CONTINUOUS
 62
  6
 10
652.484
 20
96.909
 30
0.0
 11
652.109
 21
96.909
 31
0.0
  0
LINE
  8
2
  6
CONTINUOUS
 62
  6
 10
657.609
 20
96.909
 30
0.0
 11
657.234
 21
96.909
 31
0.0
  0
CIRCLE
  8
2
  6
CONTINUOUS
 62
  5
 10
654.859
 20
93.559
 30
0.0
 40
1.3
  0
LINE
  8
2
  6
CONTINUOUS
 62
  6
 10
652.484
 20
91.309
 30
0.0
 11
652.484
 21
96.909
 31
0.0
  0
LINE
  8
2
  6
CONTINUOUS
 62
  6
 10
657.234
 20
96.909
 30
0.0
 11
657.234
 21
91.309
 31
0.0
  0
LINE
  8
2
  6
CONTINUOUS
 62
  6
 10
652.109
 20
97.409
 30
0.0
 11
652.109
 21
96.909
 31
0.0
  0
LINE
  8
2
  6
CONTINUOUS
 62
  6
 10
657.609
 20
97.409
 30
0.0
 11
657.609
 21
96.909
 31
0.0
  0
LINE
  8
2
  6
CONTINUOUS
 62
  6
 10
662.009
 20
90.409
 30
0.0
 11
662.209
 21
90.409
 31
0.0
  0
LINE
  8
2
  6
CONTINUOUS
 62
  6
 10
662.209
 20
90.409
 30
0.0
 11
662.355
 21
91.284
 31
0.0
  0
LINE
  8
2
  6
CONTINUOUS
 62
  6
 10
662.009
 20
90.409
 30
0.0
 11
661.863
 21
91.284
 31
0.0
  0
LINE
  8
2
  6
CONTINUOUS
 62
  6
 10
662.359
 20
91.309
 30
0.0
 11
662.355
 21
91.284
 31
0.0
  0
LINE
  8
2
  6
CONTINUOUS
 62
  6
 10
661.863
 20
91.284
 30
0.0
 11
661.859
 21
91.309
 31
0.0
  0
LINE
  8
2
  6
CONTINUOUS
 62
  6
 10
662.359
 20
91.309
 30
0.0
 11
662.359
 21
96.909
 31
0.0
  0
LINE
  8
2
  6
CONTINUOUS
 62
  6
 10
661.859
 20
96.909
 30
0.0
 11
661.859
 21
91.309
 31
0.0
  0
LINE
  8
2
  6
CONTINUOUS
 62
  6
 10
661.859
 20
97.409
 30
0.0
 11
661.859
 21
96.909
 31
0.0
  0
LINE
  8
2
  6
CONTINUOUS
 62
  6
 10
662.359
 20
97.409
 30
0.0
 11
662.359
 21
96.909
 31
0.0
  0
LINE
  8
2
  6
CONTINUOUS
 62
  6
 10
602.218
 20
131.809
 30
0.0
 11
600.739
 21
131.809
 31
0.0
  0
LINE
  8
2
  6
CONTINUOUS
 62
  6
 10
612.643
 20
131.809
 30
0.0
 11
605.838
 21
131.809
 31
0.0
  0
LINE
  8
2
  6
CONTINUOUS
 62
  6
 10
612.643
 20
131.809
 30
0.0
 11
612.643
 21
132.912
 31
0.0
  0
LINE
  8
2
  6
CONTINUOUS
 62
  4
 10
600.739
 20
131.809
 30
0.0
 11
600.752
 21
132.912
 31
0.0
  0
LINE
  8
2
  6
CONTINUOUS
 62
  6
 10
612.643
 20
132.912
 30
0.0
 11
612.643
 21
133.209
 31
0.0
  0
ARC
  8
2
  6
CONTINUOUS
 62
  4
 10
601.052
 20
132.909
 30
0.0
 40
0.3
 50
90.0
 51
179.34
  0
POLYLINE
  8
2
  6
CONTINUOUS
 62
  5
 66
  1
 10
0.0
 20
0.0
 30
0.0
  0
VERTEX
  8
2
  6
CONTINUOUS
 62
  5
 10
639.138
 20
133.209
 30
0.0
  0
VERTEX
  8
2
  6
CONTINUOUS
 62
  5
 10
639.141
 20
133.209
 30
0.0
  0
VERTEX
  8
2
  6
CONTINUOUS
 62
  5
 10
639.146
 20
133.208
 30
0.0
  0
VERTEX
  8
2
  6
CONTINUOUS
 62
  5
 10
639.152
 20
133.207
 30
0.0
  0
VERTEX
  8
2
  6
CONTINUOUS
 62
  5
 10
639.157
 20
133.205
 30
0.0
  0
VERTEX
  8
2
  6
CONTINUOUS
 62
  5
 10
639.161
 20
133.204
 30
0.0
  0
VERTEX
  8
2
  6
CONTINUOUS
 62
  5
 10
639.165
 20
133.202
 30
0.0
  0
VERTEX
  8
2
  6
CONTINUOUS
 62
  5
 10
639.17
 20
133.199
 30
0.0
  0
VERTEX
  8
2
  6
CONTINUOUS
 62
  5
 10
639.176
 20
133.195
 30
0.0
  0
VERTEX
  8
2
  6
CONTINUOUS
 62
  5
 10
639.181
 20
133.191
 30
0.0
  0
VERTEX
  8
2
  6
CONTINUOUS
 62
  5
 10
639.186
 20
133.186
 30
0.0
  0
VERTEX
  8
2
  6
CONTINUOUS
 62
  5
 10
639.19
 20
133.181
 30
0.0
  0
VERTEX
  8
2
  6
CONTINUOUS
 62
  5
 10
639.195
 20
133.175
 30
0.0
  0
VERTEX
  8
2
  6
CONTINUOUS
 62
  5
 10
639.205
 20
133.162
 30
0.0
  0
VERTEX
  8
2
  6
CONTINUOUS
 62
  5
 10
639.213
 20
133.148
 30
0.0
  0
VERTEX
  8
2
  6
CONTINUOUS
 62
  5
 10
639.222
 20
133.13
 30
0.0
  0
VERTEX
  8
2
  6
CONTINUOUS
 62
  5
 10
639.233
 20
133.102
 30
0.0
  0
VERTEX
  8
2
  6
CONTINUOUS
 62
  5
 10
639.242
 20
133.074
 30
0.0
  0
VERTEX
  8
2
  6
CONTINUOUS
 62
  5
 10
639.249
 20
133.046
 30
0.0
  0
VERTEX
  8
2
  6
CONTINUOUS
 62
  5
 10
639.259
 20
132.981
 30
0.0
  0
VERTEX
  8
2
  6
CONTINUOUS
 62
  5
 10
639.262
 20
132.912
 30
0.0
  0
SEQEND
  8
0
  0
LINE
  8
2
  6
CONTINUOUS
 62
  6
 10
613.546
 20
133.209
 30
0.0
 11
612.643
 21
133.209
 31
0.0
  0
ARC
  8
2
  6
CONTINUOUS
 62
  4
 10
640.434
 20
132.909
 30
0.0
 40
0.3
 50
0.662
 51
89.998
  0
LINE
  8
2
  6
CONTINUOUS
 62
  4
 10
640.434
 20
133.209
 30
0.0
 11
639.138
 21
133.209
 31
0.0
  0
LINE
  8
2
  6
CONTINUOUS
 62
  6
 10
602.238
 20
131.809
 30
0.0
 11
602.259
 21
133.809
 31
0.0
  0
LINE
  8
2
  6
CONTINUOUS
 62
  6
 10
605.838
 20
131.809
 30
0.0
 11
605.817
 21
133.809
 31
0.0
  0
LINE
  8
2
  6
CONTINUOUS
 62
  6
 10
602.259
 20
133.809
 30
0.0
 11
605.817
 21
133.809
 31
0.0
  0
LINE
  8
2
  6
CONTINUOUS
 62
  4
 10
601.543
 20
135.009
 30
0.0
 11
610.743
 21
135.009
 31
0.0
  0
LINE
  8
2
  6
CONTINUOUS
 62
  4
 10
610.743
 20
135.009
 30
0.0
 11
612.643
 21
135.009
 31
0.0
  0
LINE
  8
2
  6
CONTINUOUS
 62
  4
 10
612.643
 20
135.009
 30
0.0
 11
613.543
 21
135.009
 31
0.0
  0
LINE
  8
2
  6
CONTINUOUS
 62
  4
 10
613.543
 20
135.009
 30
0.0
 11
613.546
 21
133.209
 31
0.0
  0
LINE
  8
2
  6
CONTINUOUS
 62
  4
 10
601.543
 20
134.509
 30
0.0
 11
601.543
 21
135.009
 31
0.0
  0
LINE
  8
2
  6
CONTINUOUS
 62
  6
 10
610.743
 20
132.909
 30
0.0
 11
612.643
 21
132.909
 31
0.0
  0
LINE
  8
2
  6
CONTINUOUS
 62
  6
 10
601.031
 20
132.909
 30
0.0
 11
602.25
 21
132.909
 31
0.0
  0
LINE
  8
2
  6
CONTINUOUS
 62
  6
 10
605.827
 20
132.909
 30
0.0
 11
606.081
 21
132.909
 31
0.0
  0
LINE
  8
2
  6
CONTINUOUS
 62
  6
 10
610.743
 20
132.909
 30
0.0
 11
606.081
 21
132.909
 31
0.0
  0
LINE
  8
2
  6
CONTINUOUS
 62
  6
 10
610.743
 20
134.509
 30
0.0
 11
612.559
 21
134.509
 31
0.0
  0
LINE
  8
2
  6
CONTINUOUS
 62
  4
 10
601.543
 20
134.509
 30
0.0
 11
601.149
 21
134.509
 31
0.0
  0
LINE
  8
2
  6
CONTINUOUS
 62
  6
 10
601.053
 20
133.209
 30
0.0
 11
601.031
 21
132.909
 31
0.0
  0
LINE
  8
2
  6
CONTINUOUS
 62
  6
 10
605.616
 20
134.509
 30
0.0
 11
602.466
 21
134.509
 31
0.0
  0
LINE
  8
2
  6
CONTINUOUS
 62
  6
 10
606.116
 20
134.509
 30
0.0
 11
605.616
 21
134.509
 31
0.0
  0
LINE
  8
2
  6
CONTINUOUS
 62
  6
 10
610.743
 20
134.509
 30
0.0
 11
606.116
 21
134.509
 31
0.0
  0
LINE
  8
2
  6
CONTINUOUS
 62
  6
 10
609.743
 20
131.809
 30
0.0
 11
609.743
 21
132.909
 31
0.0
  0
LINE
  8
2
  6
CONTINUOUS
 62
  6
 10
611.743
 20
131.809
 30
0.0
 11
611.743
 21
132.909
 31
0.0
  0
LINE
  8
2
  6
CONTINUOUS
 62
  6
 10
612.643
 20
132.912
 30
0.0
 11
612.559
 21
134.509
 31
0.0
  0
LINE
  8
2
  6
CONTINUOUS
 62
  6
 10
676.213
 20
131.809
 30
0.0
 11
674.734
 21
131.809
 31
0.0
  0
LINE
  8
2
  6
CONTINUOUS
 62
  6
 10
671.759
 20
131.809
 30
0.0
 11
674.734
 21
131.809
 31
0.0
  0
LINE
  8
2
  6
CONTINUOUS
 62
  4
 10
676.209
 20
132.109
 30
0.0
 11
676.2
 21
132.912
 31
0.0
  0
LINE
  8
2
  6
CONTINUOUS
 62
  6
 10
671.759
 20
131.809
 30
0.0
 11
671.759
 21
132.912
 31
0.0
  0
ARC
  8
2
  6
CONTINUOUS
 62
  4
 10
675.9
 20
132.909
 30
0.0
 40
0.3
 50
0.66
 51
61.163
  0
LINE
  8
2
  6
CONTINUOUS
 62
  6
 10
671.759
 20
132.912
 30
0.0
 11
671.759
 21
133.209
 31
0.0
  0
ARC
  8
2
  6
CONTINUOUS
 62
  4
 10
649.618
 20
132.909
 30
0.0
 40
0.3
 50
90.002
 51
179.338
  0
POLYLINE
  8
2
  6
CONTINUOUS
 62
  5
 66
  1
 10
0.0
 20
0.0
 30
0.0
  0
VERTEX
  8
2
  6
CONTINUOUS
 62
  5
 10
651.107
 20
133.209
 30
0.0
  0
VERTEX
  8
2
  6
CONTINUOUS
 62
  5
 10
651.104
 20
133.209
 30
0.0
  0
VERTEX
  8
2
  6
CONTINUOUS
 62
  5
 10
651.099
 20
133.208
 30
0.0
  0
VERTEX
  8
2
  6
CONTINUOUS
 62
  5
 10
651.093
 20
133.207
 30
0.0
  0
VERTEX
  8
2
  6
CONTINUOUS
 62
  5
 10
651.088
 20
133.205
 30
0.0
  0
VERTEX
  8
2
  6
CONTINUOUS
 62
  5
 10
651.084
 20
133.204
 30
0.0
  0
VERTEX
  8
2
  6
CONTINUOUS
 62
  5
 10
651.08
 20
133.202
 30
0.0
  0
VERTEX
  8
2
  6
CONTINUOUS
 62
  5
 10
651.075
 20
133.199
 30
0.0
  0
VERTEX
  8
2
  6
CONTINUOUS
 62
  5
 10
651.069
 20
133.195
 30
0.0
  0
VERTEX
  8
2
  6
CONTINUOUS
 62
  5
 10
651.064
 20
133.191
 30
0.0
  0
VERTEX
  8
2
  6
CONTINUOUS
 62
  5
 10
651.059
 20
133.186
 30
0.0
  0
VERTEX
  8
2
  6
CONTINUOUS
 62
  5
 10
651.055
 20
133.181
 30
0.0
  0
VERTEX
  8
2
  6
CONTINUOUS
 62
  5
 10
651.05
 20
133.175
 30
0.0
  0
VERTEX
  8
2
  6
CONTINUOUS
 62
  5
 10
651.04
 20
133.162
 30
0.0
  0
VERTEX
  8
2
  6
CONTINUOUS
 62
  5
 10
651.032
 20
133.148
 30
0.0
  0
VERTEX
  8
2
  6
CONTINUOUS
 62
  5
 10
651.023
 20
133.13
 30
0.0
  0
VERTEX
  8
2
  6
CONTINUOUS
 62
  5
 10
651.012
 20
133.102
 30
0.0
  0
VERTEX
  8
2
  6
CONTINUOUS
 62
  5
 10
651.003
 20
133.074
 30
0.0
  0
VERTEX
  8
2
  6
CONTINUOUS
 62
  5
 10
650.996
 20
133.046
 30
0.0
  0
VERTEX
  8
2
  6
CONTINUOUS
 62
  5
 10
650.986
 20
132.981
 30
0.0
  0
VERTEX
  8
2
  6
CONTINUOUS
 62
  5
 10
650.982
 20
132.912
 30
0.0
  0
SEQEND
  8
0
  0
LINE
  8
2
  6
CONTINUOUS
 62
  4
 10
669.059
 20
133.209
 30
0.0
 11
651.107
 21
133.209
 31
0.0
  0
LINE
  8
2
  6
CONTINUOUS
 62
  4
 10
651.107
 20
133.209
 30
0.0
 11
649.618
 21
133.209
 31
0.0
  0
LINE
  8
2
  6
CONTINUOUS
 62
  6
 10
675.059
 20
131.809
 30
0.0
 11
675.059
 21
133.809
 31
0.0
  0
LINE
  8
2
  6
CONTINUOUS
 62
  4
 10
676.213
 20
131.809
 30
0.0
 11
676.209
 21
132.109
 31
0.0
  0
LINE
  8
2
  6
CONTINUOUS
 62
  6
 10
675.059
 20
133.809
 30
0.0
 11
675.538
 21
133.809
 31
0.0
  0
LINE
  8
2
  6
CONTINUOUS
 62
  4
 10
675.538
 20
133.809
 30
0.0
 11
676.038
 21
133.809
 31
0.0
  0
LINE
  8
2
  6
CONTINUOUS
 62
  4
 10
676.045
 20
133.172
 30
0.0
 11
676.038
 21
133.809
 31
0.0
  0
LINE
  8
2
  6
CONTINUOUS
 62
  4
 10
670.359
 20
134.509
 30
0.0
 11
669.059
 21
133.209
 31
0.0
  0
LINE
  8
2
  6
CONTINUOUS
 62
  6
 10
673.659
 20
132.909
 30
0.0
 11
675.059
 21
132.909
 31
0.0
  0
LINE
  8
2
  6
CONTINUOUS
 62
  6
 10
672.259
 20
132.909
 30
0.0
 11
673.659
 21
132.909
 31
0.0
  0
LINE
  8
2
  6
CONTINUOUS
 62
  6
 10
671.759
 20
132.909
 30
0.0
 11
672.259
 21
132.909
 31
0.0
  0
LINE
  8
2
  6
CONTINUOUS
 62
  6
 10
674.975
 20
134.509
 30
0.0
 11
673.659
 21
134.509
 31
0.0
  0
LINE
  8
2
  6
CONTINUOUS
 62
  6
 10
673.659
 20
134.509
 30
0.0
 11
672.343
 21
134.509
 31
0.0
  0
LINE
  8
2
  6
CONTINUOUS
 62
  4
 10
675.512
 20
133.809
 30
0.0
 11
675.475
 21
134.509
 31
0.0
  0
LINE
  8
2
  6
CONTINUOUS
 62
  6
 10
675.475
 20
134.509
 30
0.0
 11
674.975
 21
134.509
 31
0.0
  0
LINE
  8
2
  6
CONTINUOUS
 62
  6
 10
671.843
 20
134.509
 30
0.0
 11
671.759
 21
132.912
 31
0.0
  0
LINE
  8
2
  6
CONTINUOUS
 62
  6
 10
672.343
 20
134.509
 30
0.0
 11
671.843
 21
134.509
 31
0.0
  0
LINE
  8
2
  6
CONTINUOUS
 62
  6
 10
672.659
 20
132.109
 30
0.0
 11
672.659
 21
132.909
 31
0.0
  0
LINE
  8
2
  6
CONTINUOUS
 62
  6
 10
674.659
 20
132.109
 30
0.0
 11
674.659
 21
132.909
 31
0.0
  0
LINE
  8
2
  6
CONTINUOUS
 62
  4
 10
601.149
 20
134.509
 30
0.0
 11
601.053
 21
133.209
 31
0.0
  0
LINE
  8
2
  6
CONTINUOUS
 62
  6
 10
602.466
 20
134.509
 30
0.0
 11
601.543
 21
134.509
 31
0.0
  0
LINE
  8
2
  6
CONTINUOUS
 62
  4
 10
639.138
 20
133.209
 30
0.0
 11
613.546
 21
133.209
 31
0.0
  0
LINE
  8
2
  6
CONTINUOUS
 62
  5
 10
639.262
 20
132.912
 30
0.0
 11
639.266
 21
132.215
 31
0.0
  0
LINE
  8
2
  6
CONTINUOUS
 62
  4
 10
640.734
 20
132.912
 30
0.0
 11
640.742
 21
132.215
 31
0.0
  0
LINE
  8
2
  6
CONTINUOUS
 62
  4
 10
649.318
 20
132.912
 30
0.0
 11
649.31
 21
132.215
 31
0.0
  0
LINE
  8
2
  6
CONTINUOUS
 62
  5
 10
650.982
 20
132.912
 30
0.0
 11
650.979
 21
132.215
 31
0.0
  0
LINE
  8
2
  6
CONTINUOUS
 62
  6
 10
671.759
 20
133.209
 30
0.0
 11
669.059
 21
133.209
 31
0.0
  0
LINE
  8
2
  6
CONTINUOUS
 62
  6
 10
676.059
 20
131.809
 30
0.0
 11
676.045
 21
133.172
 31
0.0
  0
LINE
  8
2
  6
CONTINUOUS
 62
  6
 10
600.874
 20
183.4
 30
0.0
 11
610.274
 21
183.4
 31
0.0
  0
LINE
  8
2
  6
CONTINUOUS
 62
  6
 10
614.774
 20
183.4
 30
0.0
 11
614.824
 21
183.4
 31
0.0
  0
LINE
  8
2
  6
CONTINUOUS
 62
  6
 10
625.924
 20
183.4
 30
0.0
 11
625.974
 21
183.4
 31
0.0
  0
LINE
  8
2
  6
CONTINUOUS
 62
  6
 10
630.474
 20
183.4
 30
0.0
 11
639.874
 21
183.4
 31
0.0
  0
LINE
  8
2
  6
CONTINUOUS
 62
  6
 10
625.974
 20
183.4
 30
0.0
 11
630.474
 21
183.4
 31
0.0
  0
LINE
  8
2
  6
CONTINUOUS
 62
  6
 10
625.624
 20
183.1
 30
0.0
 11
625.924
 21
183.4
 31
0.0
  0
LINE
  8
2
  6
CONTINUOUS
 62
  6
 10
614.824
 20
183.4
 30
0.0
 11
615.124
 21
183.1
 31
0.0
  0
LINE
  8
2
  6
CONTINUOUS
 62
  6
 10
615.124
 20
183.1
 30
0.0
 11
625.624
 21
183.1
 31
0.0
  0
LINE
  8
2
  6
CONTINUOUS
 62
  6
 10
610.274
 20
183.4
 30
0.0
 11
614.774
 21
183.4
 31
0.0
  0
LINE
  8
2
  6
CONTINUOUS
 62
  6
 10
639.874
 20
209.3
 30
0.0
 11
630.474
 21
209.3
 31
0.0
  0
LINE
  8
2
  6
CONTINUOUS
 62
  6
 10
625.974
 20
209.3
 30
0.0
 11
614.774
 21
209.3
 31
0.0
  0
LINE
  8
2
  6
CONTINUOUS
 62
  6
 10
610.274
 20
209.3
 30
0.0
 11
600.874
 21
209.3
 31
0.0
  0
LINE
  8
2
  6
CONTINUOUS
 62
  6
 10
630.474
 20
209.3
 30
0.0
 11
625.974
 21
209.3
 31
0.0
  0
LINE
  8
2
  6
CONTINUOUS
 62
  6
 10
614.774
 20
209.3
 30
0.0
 11
610.274
 21
209.3
 31
0.0
  0
LINE
  8
2
  6
CONTINUOUS
 62
  6
 10
600.874
 20
209.3
 30
0.0
 11
600.874
 21
183.4
 31
0.0
  0
LINE
  8
2
  6
CONTINUOUS
 62
  6
 10
639.874
 20
183.4
 30
0.0
 11
639.874
 21
209.3
 31
0.0
  0
LINE
  8
2
  6
CONTINUOUS
 62
  4
 10
600.874
 20
210.2
 30
0.0
 11
639.875
 21
210.2
 31
0.0
  0
LINE
  8
2
  6
CONTINUOUS
 62
  4
 10
599.974
 20
209.3
 30
0.0
 11
599.974
 21
183.4
 31
0.0
  0
LINE
  8
2
  6
CONTINUOUS
 62
  4
 10
639.875
 20
182.5
 30
0.0
 11
600.874
 21
182.5
 31
0.0
  0
LINE
  8
2
  6
CONTINUOUS
 62
  4
 10
640.774
 20
209.3
 30
0.0
 11
640.774
 21
183.4
 31
0.0
  0
ARC
  8
2
  6
CONTINUOUS
 62
  4
 10
639.875
 20
209.3
 30
0.0
 40
0.9
 50
359.998
 51
90.002
  0
ARC
  8
2
  6
CONTINUOUS
 62
  4
 10
600.874
 20
209.3
 30
0.0
 40
0.9
 50
89.998
 51
180.002
  0
ARC
  8
2
  6
CONTINUOUS
 62
  4
 10
600.874
 20
183.399
 30
0.0
 40
0.9
 50
179.998
 51
270.002
  0
ARC
  8
2
  6
CONTINUOUS
 62
  4
 10
639.875
 20
183.399
 30
0.0
 40
0.9
 50
269.998
 51
0.002
  0
CIRCLE
  8
2
  6
CONTINUOUS
 62
  5
 10
620.374
 20
189.45
 30
0.0
 40
2.5
  0
LINE
  8
2
  6
CONTINUOUS
 62
  5
 10
620.685
 20
187.899
 30
0.0
 11
621.553
 21
188.396
 31
0.0
  0
LINE
  8
2
  6
CONTINUOUS
 62
  5
 10
620.064
 20
191.0
 30
0.0
 11
619.196
 21
190.503
 31
0.0
  0
LINE
  8
2
  6
CONTINUOUS
 62
  5
 10
618.824
 20
189.139
 30
0.0
 11
619.321
 21
188.271
 31
0.0
  0
LINE
  8
2
  6
CONTINUOUS
 62
  5
 10
621.925
 20
189.76
 30
0.0
 11
621.428
 21
190.628
 31
0.0
  0
LINE
  8
2
  6
CONTINUOUS
 62
  5
 10
620.56
 20
190.132
 30
0.0
 11
620.064
 21
191.0
 31
0.0
  0
LINE
  8
2
  6
CONTINUOUS
 62
  5
 10
621.428
 20
190.628
 30
0.0
 11
620.56
 21
190.132
 31
0.0
  0
LINE
  8
2
  6
CONTINUOUS
 62
  5
 10
621.553
 20
188.396
 30
0.0
 11
621.057
 21
189.264
 31
0.0
  0
LINE
  8
2
  6
CONTINUOUS
 62
  5
 10
621.057
 20
189.264
 30
0.0
 11
621.925
 21
189.76
 31
0.0
  0
LINE
  8
2
  6
CONTINUOUS
 62
  5
 10
619.196
 20
190.503
 30
0.0
 11
619.692
 21
189.635
 31
0.0
  0
LINE
  8
2
  6
CONTINUOUS
 62
  5
 10
619.692
 20
189.635
 30
0.0
 11
618.824
 21
189.139
 31
0.0
  0
LINE
  8
2
  6
CONTINUOUS
 62
  5
 10
620.189
 20
188.767
 30
0.0
 11
620.685
 21
187.899
 31
0.0
  0
LINE
  8
2
  6
CONTINUOUS
 62
  5
 10
619.321
 20
188.271
 30
0.0
 11
620.189
 21
188.767
 31
0.0
  0
LINE
  8
2
  6
CONTINUOUS
 62
  5
 10
601.474
 20
194.7
 30
0.0
 11
609.624
 21
194.7
 31
0.0
  0
LINE
  8
2
  6
CONTINUOUS
 62
  5
 10
601.474
 20
193.2
 30
0.0
 11
639.274
 21
193.2
 31
0.0
  0
LINE
  8
2
  6
CONTINUOUS
 62
  5
 10
639.274
 20
194.7
 30
0.0
 11
631.124
 21
194.7
 31
0.0
  0
LINE
  8
2
  6
CONTINUOUS
 62
  5
 10
629.624
 20
194.7
 30
0.0
 11
621.124
 21
194.7
 31
0.0
  0
LINE
  8
2
  6
CONTINUOUS
 62
  5
 10
611.124
 20
194.7
 30
0.0
 11
619.624
 21
194.7
 31
0.0
  0
LINE
  8
2
  6
CONTINUOUS
 62
  5
 10
601.474
 20
194.7
 30
0.0
 11
601.474
 21
193.2
 31
0.0
  0
LINE
  8
2
  6
CONTINUOUS
 62
  5
 10
639.274
 20
193.2
 30
0.0
 11
639.274
 21
194.7
 31
0.0
  0
CIRCLE
  8
2
  6
CONTINUOUS
 62
  6
 10
620.374
 20
189.45
 30
0.0
 40
2.855
  0
LINE
  8
2
  6
CONTINUOUS
 62
  5
 10
639.274
 20
184.2
 30
0.0
 11
639.274
 21
193.2
 31
0.0
  0
ARC
  8
2
  6
CONTINUOUS
 62
  5
 10
639.074
 20
184.2
 30
0.0
 40
0.2
 50
270.0
 51
0.0
  0
LINE
  8
2
  6
CONTINUOUS
 62
  5
 10
601.474
 20
193.2
 30
0.0
 11
601.474
 21
184.2
 31
0.0
  0
LINE
  8
2
  6
CONTINUOUS
 62
  5
 10
601.674
 20
184.0
 30
0.0
 11
639.074
 21
184.0
 31
0.0
  0
ARC
  8
2
  6
CONTINUOUS
 62
  5
 10
601.674
 20
184.2
 30
0.0
 40
0.2
 50
180.0
 51
270.0
  0
LINE
  8
2
  6
CONTINUOUS
 62
  5
 10
609.624
 20
208.7
 30
0.0
 11
611.124
 21
208.7
 31
0.0
  0
LINE
  8
2
  6
CONTINUOUS
 62
  5
 10
611.124
 20
208.7
 30
0.0
 11
619.624
 21
208.7
 31
0.0
  0
LINE
  8
2
  6
CONTINUOUS
 62
  5
 10
619.624
 20
208.7
 30
0.0
 11
621.124
 21
208.7
 31
0.0
  0
LINE
  8
2
  6
CONTINUOUS
 62
  5
 10
621.124
 20
208.7
 30
0.0
 11
629.624
 21
208.7
 31
0.0
  0
LINE
  8
2
  6
CONTINUOUS
 62
  5
 10
629.624
 20
208.7
 30
0.0
 11
631.124
 21
208.7
 31
0.0
  0
LINE
  8
2
  6
CONTINUOUS
 62
  5
 10
609.624
 20
208.7
 30
0.0
 11
609.624
 21
194.7
 31
0.0
  0
LINE
  8
2
  6
CONTINUOUS
 62
  5
 10
631.124
 20
208.7
 30
0.0
 11
631.124
 21
194.7
 31
0.0
  0
LINE
  8
2
  6
CONTINUOUS
 62
  5
 10
621.124
 20
208.7
 30
0.0
 11
621.124
 21
194.7
 31
0.0
  0
LINE
  8
2
  6
CONTINUOUS
 62
  5
 10
629.624
 20
208.7
 30
0.0
 11
629.624
 21
194.7
 31
0.0
  0
LINE
  8
2
  6
CONTINUOUS
 62
  5
 10
611.124
 20
208.7
 30
0.0
 11
611.124
 21
194.7
 31
0.0
  0
LINE
  8
2
  6
CONTINUOUS
 62
  5
 10
619.624
 20
208.7
 30
0.0
 11
619.624
 21
194.7
 31
0.0
  0
LINE
  8
2
  6
CONTINUOUS
 62
  5
 10
601.674
 20
208.7
 30
0.0
 11
609.624
 21
208.7
 31
0.0
  0
LINE
  8
2
  6
CONTINUOUS
 62
  5
 10
601.474
 20
208.5
 30
0.0
 11
601.474
 21
194.7
 31
0.0
  0
ARC
  8
2
  6
CONTINUOUS
 62
  5
 10
601.674
 20
208.5
 30
0.0
 40
0.2
 50
90.0
 51
180.0
  0
LINE
  8
2
  6
CONTINUOUS
 62
  5
 10
639.274
 20
194.7
 30
0.0
 11
639.274
 21
208.5
 31
0.0
  0
LINE
  8
2
  6
CONTINUOUS
 62
  5
 10
631.124
 20
208.7
 30
0.0
 11
639.074
 21
208.7
 31
0.0
  0
ARC
  8
2
  6
CONTINUOUS
 62
  5
 10
639.074
 20
208.5
 30
0.0
 40
0.2
 50
0.0
 51
90.0
  0
LINE
  8
2
  6
CONTINUOUS
 62
  6
 10
632.999
 20
201.85
 30
0.0
 11
632.999
 21
201.845
 31
0.0
  0
LINE
  8
2
  6
CONTINUOUS
 62
  6
 10
632.999
 20
201.354
 30
0.0
 11
632.999
 21
201.35
 31
0.0
  0
LINE
  8
2
  6
CONTINUOUS
 62
  6
 10
637.749
 20
201.35
 30
0.0
 11
632.999
 21
201.35
 31
0.0
  0
LINE
  8
2
  6
CONTINUOUS
 62
  6
 10
637.749
 20
201.85
 30
0.0
 11
632.999
 21
201.85
 31
0.0
  0
LINE
  8
2
  6
CONTINUOUS
 62
  6
 10
637.749
 20
201.85
 30
0.0
 11
637.749
 21
201.845
 31
0.0
  0
LINE
  8
2
  6
CONTINUOUS
 62
  6
 10
637.749
 20
201.354
 30
0.0
 11
637.749
 21
201.35
 31
0.0
  0
LINE
  8
2
  6
CONTINUOUS
 62
  6
 10
632.624
 20
201.85
 30
0.0
 11
632.624
 21
201.35
 31
0.0
  0
LINE
  8
2
  6
CONTINUOUS
 62
  6
 10
632.624
 20
201.35
 30
0.0
 11
632.999
 21
201.35
 31
0.0
  0
LINE
  8
2
  6
CONTINUOUS
 62
  6
 10
632.999
 20
201.85
 30
0.0
 11
632.624
 21
201.85
 31
0.0
  0
LINE
  8
2
  6
CONTINUOUS
 62
  6
 10
638.124
 20
201.85
 30
0.0
 11
637.749
 21
201.85
 31
0.0
  0
LINE
  8
2
  6
CONTINUOUS
 62
  6
 10
637.749
 20
201.35
 30
0.0
 11
638.124
 21
201.35
 31
0.0
  0
LINE
  8
2
  6
CONTINUOUS
 62
  6
 10
638.124
 20
201.35
 30
0.0
 11
638.124
 21
201.85
 31
0.0
  0
LINE
  8
2
  6
CONTINUOUS
 62
  6
 10
622.999
 20
201.85
 30
0.0
 11
622.999
 21
201.845
 31
0.0
  0
LINE
  8
2
  6
CONTINUOUS
 62
  6
 10
622.999
 20
201.354
 30
0.0
 11
622.999
 21
201.35
 31
0.0
  0
LINE
  8
2
  6
CONTINUOUS
 62
  6
 10
627.749
 20
201.35
 30
0.0
 11
622.999
 21
201.35
 31
0.0
  0
LINE
  8
2
  6
CONTINUOUS
 62
  6
 10
627.749
 20
201.85
 30
0.0
 11
622.999
 21
201.85
 31
0.0
  0
LINE
  8
2
  6
CONTINUOUS
 62
  6
 10
627.749
 20
201.85
 30
0.0
 11
627.749
 21
201.845
 31
0.0
  0
LINE
  8
2
  6
CONTINUOUS
 62
  6
 10
627.749
 20
201.354
 30
0.0
 11
627.749
 21
201.35
 31
0.0
  0
LINE
  8
2
  6
CONTINUOUS
 62
  6
 10
622.624
 20
201.85
 30
0.0
 11
622.624
 21
201.35
 31
0.0
  0
LINE
  8
2
  6
CONTINUOUS
 62
  6
 10
622.624
 20
201.35
 30
0.0
 11
622.999
 21
201.35
 31
0.0
  0
LINE
  8
2
  6
CONTINUOUS
 62
  6
 10
622.999
 20
201.85
 30
0.0
 11
622.624
 21
201.85
 31
0.0
  0
LINE
  8
2
  6
CONTINUOUS
 62
  6
 10
628.124
 20
201.85
 30
0.0
 11
627.749
 21
201.85
 31
0.0
  0
LINE
  8
2
  6
CONTINUOUS
 62
  6
 10
627.749
 20
201.35
 30
0.0
 11
628.124
 21
201.35
 31
0.0
  0
LINE
  8
2
  6
CONTINUOUS
 62
  6
 10
628.124
 20
201.35
 30
0.0
 11
628.124
 21
201.85
 31
0.0
  0
LINE
  8
2
  6
CONTINUOUS
 62
  6
 10
612.999
 20
201.85
 30
0.0
 11
612.999
 21
201.845
 31
0.0
  0
LINE
  8
2
  6
CONTINUOUS
 62
  6
 10
612.999
 20
201.354
 30
0.0
 11
612.999
 21
201.35
 31
0.0
  0
LINE
  8
2
  6
CONTINUOUS
 62
  6
 10
617.749
 20
201.35
 30
0.0
 11
612.999
 21
201.35
 31
0.0
  0
LINE
  8
2
  6
CONTINUOUS
 62
  6
 10
617.749
 20
201.85
 30
0.0
 11
612.999
 21
201.85
 31
0.0
  0
LINE
  8
2
  6
CONTINUOUS
 62
  6
 10
617.749
 20
201.85
 30
0.0
 11
617.749
 21
201.845
 31
0.0
  0
LINE
  8
2
  6
CONTINUOUS
 62
  6
 10
617.749
 20
201.354
 30
0.0
 11
617.749
 21
201.35
 31
0.0
  0
LINE
  8
2
  6
CONTINUOUS
 62
  6
 10
612.624
 20
201.85
 30
0.0
 11
612.624
 21
201.35
 31
0.0
  0
LINE
  8
2
  6
CONTINUOUS
 62
  6
 10
612.624
 20
201.35
 30
0.0
 11
612.999
 21
201.35
 31
0.0
  0
LINE
  8
2
  6
CONTINUOUS
 62
  6
 10
612.999
 20
201.85
 30
0.0
 11
612.624
 21
201.85
 31
0.0
  0
LINE
  8
2
  6
CONTINUOUS
 62
  6
 10
618.124
 20
201.85
 30
0.0
 11
617.749
 21
201.85
 31
0.0
  0
LINE
  8
2
  6
CONTINUOUS
 62
  6
 10
617.749
 20
201.35
 30
0.0
 11
618.124
 21
201.35
 31
0.0
  0
LINE
  8
2
  6
CONTINUOUS
 62
  6
 10
618.124
 20
201.35
 30
0.0
 11
618.124
 21
201.85
 31
0.0
  0
LINE
  8
2
  6
CONTINUOUS
 62
  6
 10
602.999
 20
201.85
 30
0.0
 11
602.999
 21
201.845
 31
0.0
  0
LINE
  8
2
  6
CONTINUOUS
 62
  6
 10
602.999
 20
201.354
 30
0.0
 11
602.999
 21
201.35
 31
0.0
  0
LINE
  8
2
  6
CONTINUOUS
 62
  6
 10
607.749
 20
201.35
 30
0.0
 11
602.999
 21
201.35
 31
0.0
  0
LINE
  8
2
  6
CONTINUOUS
 62
  6
 10
607.749
 20
201.85
 30
0.0
 11
602.999
 21
201.85
 31
0.0
  0
LINE
  8
2
  6
CONTINUOUS
 62
  6
 10
607.749
 20
201.85
 30
0.0
 11
607.749
 21
201.845
 31
0.0
  0
LINE
  8
2
  6
CONTINUOUS
 62
  6
 10
607.749
 20
201.354
 30
0.0
 11
607.749
 21
201.35
 31
0.0
  0
LINE
  8
2
  6
CONTINUOUS
 62
  6
 10
602.624
 20
201.85
 30
0.0
 11
602.624
 21
201.35
 31
0.0
  0
LINE
  8
2
  6
CONTINUOUS
 62
  6
 10
602.624
 20
201.35
 30
0.0
 11
602.999
 21
201.35
 31
0.0
  0
LINE
  8
2
  6
CONTINUOUS
 62
  6
 10
602.999
 20
201.85
 30
0.0
 11
602.624
 21
201.85
 31
0.0
  0
LINE
  8
2
  6
CONTINUOUS
 62
  6
 10
608.124
 20
201.85
 30
0.0
 11
607.749
 21
201.85
 31
0.0
  0
LINE
  8
2
  6
CONTINUOUS
 62
  6
 10
607.749
 20
201.35
 30
0.0
 11
608.124
 21
201.35
 31
0.0
  0
LINE
  8
2
  6
CONTINUOUS
 62
  6
 10
608.124
 20
201.35
 30
0.0
 11
608.124
 21
201.85
 31
0.0
  0
LINE
  8
2
  6
CONTINUOUS
 62
  6
 10
637.749
 20
206.1
 30
0.0
 11
637.749
 21
206.104
 31
0.0
  0
LINE
  8
2
  6
CONTINUOUS
 62
  6
 10
637.749
 20
206.595
 30
0.0
 11
637.749
 21
206.6
 31
0.0
  0
LINE
  8
2
  6
CONTINUOUS
 62
  6
 10
632.999
 20
206.6
 30
0.0
 11
637.749
 21
206.6
 31
0.0
  0
LINE
  8
2
  6
CONTINUOUS
 62
  6
 10
632.999
 20
206.1
 30
0.0
 11
637.749
 21
206.1
 31
0.0
  0
LINE
  8
2
  6
CONTINUOUS
 62
  6
 10
632.999
 20
206.1
 30
0.0
 11
632.999
 21
206.104
 31
0.0
  0
LINE
  8
2
  6
CONTINUOUS
 62
  6
 10
632.999
 20
206.595
 30
0.0
 11
632.999
 21
206.6
 31
0.0
  0
LINE
  8
2
  6
CONTINUOUS
 62
  6
 10
638.124
 20
206.1
 30
0.0
 11
638.124
 21
206.6
 31
0.0
  0
LINE
  8
2
  6
CONTINUOUS
 62
  6
 10
638.124
 20
206.6
 30
0.0
 11
637.749
 21
206.6
 31
0.0
  0
LINE
  8
2
  6
CONTINUOUS
 62
  6
 10
637.749
 20
206.1
 30
0.0
 11
638.124
 21
206.1
 31
0.0
  0
LINE
  8
2
  6
CONTINUOUS
 62
  6
 10
632.624
 20
206.1
 30
0.0
 11
632.999
 21
206.1
 31
0.0
  0
LINE
  8
2
  6
CONTINUOUS
 62
  6
 10
632.999
 20
206.6
 30
0.0
 11
632.624
 21
206.6
 31
0.0
  0
LINE
  8
2
  6
CONTINUOUS
 62
  6
 10
632.624
 20
206.6
 30
0.0
 11
632.624
 21
206.1
 31
0.0
  0
LINE
  8
2
  6
CONTINUOUS
 62
  6
 10
627.749
 20
206.1
 30
0.0
 11
627.749
 21
206.104
 31
0.0
  0
LINE
  8
2
  6
CONTINUOUS
 62
  6
 10
627.749
 20
206.595
 30
0.0
 11
627.749
 21
206.6
 31
0.0
  0
LINE
  8
2
  6
CONTINUOUS
 62
  6
 10
622.999
 20
206.6
 30
0.0
 11
627.749
 21
206.6
 31
0.0
  0
LINE
  8
2
  6
CONTINUOUS
 62
  6
 10
622.999
 20
206.1
 30
0.0
 11
627.749
 21
206.1
 31
0.0
  0
LINE
  8
2
  6
CONTINUOUS
 62
  6
 10
622.999
 20
206.1
 30
0.0
 11
622.999
 21
206.104
 31
0.0
  0
LINE
  8
2
  6
CONTINUOUS
 62
  6
 10
622.999
 20
206.595
 30
0.0
 11
622.999
 21
206.6
 31
0.0
  0
LINE
  8
2
  6
CONTINUOUS
 62
  6
 10
628.124
 20
206.1
 30
0.0
 11
628.124
 21
206.6
 31
0.0
  0
LINE
  8
2
  6
CONTINUOUS
 62
  6
 10
628.124
 20
206.6
 30
0.0
 11
627.749
 21
206.6
 31
0.0
  0
LINE
  8
2
  6
CONTINUOUS
 62
  6
 10
627.749
 20
206.1
 30
0.0
 11
628.124
 21
206.1
 31
0.0
  0
LINE
  8
2
  6
CONTINUOUS
 62
  6
 10
622.624
 20
206.1
 30
0.0
 11
622.999
 21
206.1
 31
0.0
  0
LINE
  8
2
  6
CONTINUOUS
 62
  6
 10
622.999
 20
206.6
 30
0.0
 11
622.624
 21
206.6
 31
0.0
  0
LINE
  8
2
  6
CONTINUOUS
 62
  6
 10
622.624
 20
206.6
 30
0.0
 11
622.624
 21
206.1
 31
0.0
  0
LINE
  8
2
  6
CONTINUOUS
 62
  6
 10
617.749
 20
206.1
 30
0.0
 11
617.749
 21
206.104
 31
0.0
  0
LINE
  8
2
  6
CONTINUOUS
 62
  6
 10
617.749
 20
206.595
 30
0.0
 11
617.749
 21
206.6
 31
0.0
  0
LINE
  8
2
  6
CONTINUOUS
 62
  6
 10
612.999
 20
206.6
 30
0.0
 11
617.749
 21
206.6
 31
0.0
  0
LINE
  8
2
  6
CONTINUOUS
 62
  6
 10
612.999
 20
206.1
 30
0.0
 11
617.749
 21
206.1
 31
0.0
  0
LINE
  8
2
  6
CONTINUOUS
 62
  6
 10
612.999
 20
206.1
 30
0.0
 11
612.999
 21
206.104
 31
0.0
  0
LINE
  8
2
  6
CONTINUOUS
 62
  6
 10
612.999
 20
206.595
 30
0.0
 11
612.999
 21
206.6
 31
0.0
  0
LINE
  8
2
  6
CONTINUOUS
 62
  6
 10
618.124
 20
206.1
 30
0.0
 11
618.124
 21
206.6
 31
0.0
  0
LINE
  8
2
  6
CONTINUOUS
 62
  6
 10
618.124
 20
206.6
 30
0.0
 11
617.749
 21
206.6
 31
0.0
  0
LINE
  8
2
  6
CONTINUOUS
 62
  6
 10
617.749
 20
206.1
 30
0.0
 11
618.124
 21
206.1
 31
0.0
  0
LINE
  8
2
  6
CONTINUOUS
 62
  6
 10
612.624
 20
206.1
 30
0.0
 11
612.999
 21
206.1
 31
0.0
  0
LINE
  8
2
  6
CONTINUOUS
 62
  6
 10
612.999
 20
206.6
 30
0.0
 11
612.624
 21
206.6
 31
0.0
  0
LINE
  8
2
  6
CONTINUOUS
 62
  6
 10
612.624
 20
206.6
 30
0.0
 11
612.624
 21
206.1
 31
0.0
  0
LINE
  8
2
  6
CONTINUOUS
 62
  6
 10
607.749
 20
206.1
 30
0.0
 11
607.749
 21
206.104
 31
0.0
  0
LINE
  8
2
  6
CONTINUOUS
 62
  6
 10
607.749
 20
206.595
 30
0.0
 11
607.749
 21
206.6
 31
0.0
  0
LINE
  8
2
  6
CONTINUOUS
 62
  6
 10
602.999
 20
206.6
 30
0.0
 11
607.749
 21
206.6
 31
0.0
  0
LINE
  8
2
  6
CONTINUOUS
 62
  6
 10
602.999
 20
206.1
 30
0.0
 11
607.749
 21
206.1
 31
0.0
  0
LINE
  8
2
  6
CONTINUOUS
 62
  6
 10
602.999
 20
206.1
 30
0.0
 11
602.999
 21
206.104
 31
0.0
  0
LINE
  8
2
  6
CONTINUOUS
 62
  6
 10
602.999
 20
206.595
 30
0.0
 11
602.999
 21
206.6
 31
0.0
  0
LINE
  8
2
  6
CONTINUOUS
 62
  6
 10
608.124
 20
206.1
 30
0.0
 11
608.124
 21
206.6
 31
0.0
  0
LINE
  8
2
  6
CONTINUOUS
 62
  6
 10
608.124
 20
206.6
 30
0.0
 11
607.749
 21
206.6
 31
0.0
  0
LINE
  8
2
  6
CONTINUOUS
 62
  6
 10
607.749
 20
206.1
 30
0.0
 11
608.124
 21
206.1
 31
0.0
  0
LINE
  8
2
  6
CONTINUOUS
 62
  6
 10
602.624
 20
206.1
 30
0.0
 11
602.999
 21
206.1
 31
0.0
  0
LINE
  8
2
  6
CONTINUOUS
 62
  6
 10
602.999
 20
206.6
 30
0.0
 11
602.624
 21
206.6
 31
0.0
  0
LINE
  8
2
  6
CONTINUOUS
 62
  6
 10
602.624
 20
206.6
 30
0.0
 11
602.624
 21
206.1
 31
0.0
  0
LINE
  8
2
  6
CONTINUOUS
 62
  6
 10
627.749
 20
195.95
 30
0.0
 11
627.749
 21
195.945
 31
0.0
  0
LINE
  8
2
  6
CONTINUOUS
 62
  6
 10
622.999
 20
195.95
 30
0.0
 11
622.999
 21
195.945
 31
0.0
  0
LINE
  8
2
  6
CONTINUOUS
 62
  6
 10
622.999
 20
195.95
 30
0.0
 11
627.749
 21
195.95
 31
0.0
  0
LINE
  8
2
  6
CONTINUOUS
 62
  6
 10
622.999
 20
195.454
 30
0.0
 11
622.999
 21
195.45
 31
0.0
  0
LINE
  8
2
  6
CONTINUOUS
 62
  6
 10
622.999
 20
195.45
 30
0.0
 11
627.749
 21
195.45
 31
0.0
  0
LINE
  8
2
  6
CONTINUOUS
 62
  6
 10
627.749
 20
195.454
 30
0.0
 11
627.749
 21
195.45
 31
0.0
  0
LINE
  8
2
  6
CONTINUOUS
 62
  6
 10
622.624
 20
195.45
 30
0.0
 11
622.624
 21
195.95
 31
0.0
  0
LINE
  8
2
  6
CONTINUOUS
 62
  6
 10
622.624
 20
195.95
 30
0.0
 11
622.999
 21
195.95
 31
0.0
  0
LINE
  8
2
  6
CONTINUOUS
 62
  6
 10
622.999
 20
195.45
 30
0.0
 11
622.624
 21
195.45
 31
0.0
  0
LINE
  8
2
  6
CONTINUOUS
 62
  6
 10
628.124
 20
195.45
 30
0.0
 11
627.749
 21
195.45
 31
0.0
  0
LINE
  8
2
  6
CONTINUOUS
 62
  6
 10
627.749
 20
195.95
 30
0.0
 11
628.124
 21
195.95
 31
0.0
  0
LINE
  8
2
  6
CONTINUOUS
 62
  6
 10
628.124
 20
195.95
 30
0.0
 11
628.124
 21
195.45
 31
0.0
  0
LINE
  8
2
  6
CONTINUOUS
 62
  6
 10
635.124
 20
186.075
 30
0.0
 11
635.129
 21
186.075
 31
0.0
  0
LINE
  8
2
  6
CONTINUOUS
 62
  6
 10
635.62
 20
186.075
 30
0.0
 11
635.624
 21
186.075
 31
0.0
  0
LINE
  8
2
  6
CONTINUOUS
 62
  6
 10
635.624
 20
190.825
 30
0.0
 11
635.624
 21
186.075
 31
0.0
  0
LINE
  8
2
  6
CONTINUOUS
 62
  6
 10
635.124
 20
190.825
 30
0.0
 11
635.124
 21
186.075
 31
0.0
  0
LINE
  8
2
  6
CONTINUOUS
 62
  6
 10
635.124
 20
190.825
 30
0.0
 11
635.129
 21
190.825
 31
0.0
  0
LINE
  8
2
  6
CONTINUOUS
 62
  6
 10
635.62
 20
190.825
 30
0.0
 11
635.624
 21
190.825
 31
0.0
  0
LINE
  8
2
  6
CONTINUOUS
 62
  6
 10
635.624
 20
191.2
 30
0.0
 11
635.124
 21
191.2
 31
0.0
  0
LINE
  8
2
  6
CONTINUOUS
 62
  6
 10
635.124
 20
191.2
 30
0.0
 11
635.124
 21
190.825
 31
0.0
  0
LINE
  8
2
  6
CONTINUOUS
 62
  6
 10
635.624
 20
190.825
 30
0.0
 11
635.624
 21
191.2
 31
0.0
  0
LINE
  8
2
  6
CONTINUOUS
 62
  6
 10
635.624
 20
185.7
 30
0.0
 11
635.624
 21
186.075
 31
0.0
  0
LINE
  8
2
  6
CONTINUOUS
 62
  6
 10
635.124
 20
186.075
 30
0.0
 11
635.124
 21
185.7
 31
0.0
  0
LINE
  8
2
  6
CONTINUOUS
 62
  6
 10
635.124
 20
185.7
 30
0.0
 11
635.624
 21
185.7
 31
0.0
  0
LINE
  8
2
  6
CONTINUOUS
 62
  6
 10
605.624
 20
190.825
 30
0.0
 11
605.62
 21
190.825
 31
0.0
  0
LINE
  8
2
  6
CONTINUOUS
 62
  6
 10
605.129
 20
190.825
 30
0.0
 11
605.124
 21
190.825
 31
0.0
  0
LINE
  8
2
  6
CONTINUOUS
 62
  6
 10
605.124
 20
186.075
 30
0.0
 11
605.124
 21
190.825
 31
0.0
  0
LINE
  8
2
  6
CONTINUOUS
 62
  6
 10
605.624
 20
186.075
 30
0.0
 11
605.624
 21
190.825
 31
0.0
  0
LINE
  8
2
  6
CONTINUOUS
 62
  6
 10
605.624
 20
186.075
 30
0.0
 11
605.62
 21
186.075
 31
0.0
  0
LINE
  8
2
  6
CONTINUOUS
 62
  6
 10
605.129
 20
186.075
 30
0.0
 11
605.124
 21
186.075
 31
0.0
  0
LINE
  8
2
  6
CONTINUOUS
 62
  6
 10
605.124
 20
185.7
 30
0.0
 11
605.624
 21
185.7
 31
0.0
  0
LINE
  8
2
  6
CONTINUOUS
 62
  6
 10
605.624
 20
185.7
 30
0.0
 11
605.624
 21
186.075
 31
0.0
  0
LINE
  8
2
  6
CONTINUOUS
 62
  6
 10
605.124
 20
186.075
 30
0.0
 11
605.124
 21
185.7
 31
0.0
  0
LINE
  8
2
  6
CONTINUOUS
 62
  6
 10
605.124
 20
191.2
 30
0.0
 11
605.124
 21
190.825
 31
0.0
  0
LINE
  8
2
  6
CONTINUOUS
 62
  6
 10
605.624
 20
190.825
 30
0.0
 11
605.624
 21
191.2
 31
0.0
  0
LINE
  8
2
  6
CONTINUOUS
 62
  6
 10
605.624
 20
191.2
 30
0.0
 11
605.124
 21
191.2
 31
0.0
  0
LINE
  8
2
  6
CONTINUOUS
 62
  6
 10
602.999
 20
195.95
 30
0.0
 11
602.999
 21
195.945
 31
0.0
  0
LINE
  8
2
  6
CONTINUOUS
 62
  6
 10
602.999
 20
195.454
 30
0.0
 11
602.999
 21
195.45
 31
0.0
  0
LINE
  8
2
  6
CONTINUOUS
 62
  6
 10
607.749
 20
195.45
 30
0.0
 11
602.999
 21
195.45
 31
0.0
  0
LINE
  8
2
  6
CONTINUOUS
 62
  6
 10
607.749
 20
195.95
 30
0.0
 11
602.999
 21
195.95
 31
0.0
  0
LINE
  8
2
  6
CONTINUOUS
 62
  6
 10
607.749
 20
195.95
 30
0.0
 11
607.749
 21
195.945
 31
0.0
  0
LINE
  8
2
  6
CONTINUOUS
 62
  6
 10
607.749
 20
195.454
 30
0.0
 11
607.749
 21
195.45
 31
0.0
  0
LINE
  8
2
  6
CONTINUOUS
 62
  6
 10
608.124
 20
195.45
 30
0.0
 11
608.124
 21
195.95
 31
0.0
  0
LINE
  8
2
  6
CONTINUOUS
 62
  6
 10
608.124
 20
195.95
 30
0.0
 11
607.749
 21
195.95
 31
0.0
  0
LINE
  8
2
  6
CONTINUOUS
 62
  6
 10
607.749
 20
195.45
 30
0.0
 11
608.124
 21
195.45
 31
0.0
  0
LINE
  8
2
  6
CONTINUOUS
 62
  6
 10
602.624
 20
195.45
 30
0.0
 11
602.999
 21
195.45
 31
0.0
  0
LINE
  8
2
  6
CONTINUOUS
 62
  6
 10
602.999
 20
195.95
 30
0.0
 11
602.624
 21
195.95
 31
0.0
  0
LINE
  8
2
  6
CONTINUOUS
 62
  6
 10
602.624
 20
195.95
 30
0.0
 11
602.624
 21
195.45
 31
0.0
  0
LINE
  8
2
  6
CONTINUOUS
 62
  6
 10
612.999
 20
195.95
 30
0.0
 11
612.999
 21
195.945
 31
0.0
  0
LINE
  8
2
  6
CONTINUOUS
 62
  6
 10
612.999
 20
195.454
 30
0.0
 11
612.999
 21
195.45
 31
0.0
  0
LINE
  8
2
  6
CONTINUOUS
 62
  6
 10
617.749
 20
195.45
 30
0.0
 11
612.999
 21
195.45
 31
0.0
  0
LINE
  8
2
  6
CONTINUOUS
 62
  6
 10
617.749
 20
195.95
 30
0.0
 11
612.999
 21
195.95
 31
0.0
  0
LINE
  8
2
  6
CONTINUOUS
 62
  6
 10
617.749
 20
195.95
 30
0.0
 11
617.749
 21
195.945
 31
0.0
  0
LINE
  8
2
  6
CONTINUOUS
 62
  6
 10
617.749
 20
195.454
 30
0.0
 11
617.749
 21
195.45
 31
0.0
  0
LINE
  8
2
  6
CONTINUOUS
 62
  6
 10
618.124
 20
195.45
 30
0.0
 11
618.124
 21
195.95
 31
0.0
  0
LINE
  8
2
  6
CONTINUOUS
 62
  6
 10
618.124
 20
195.95
 30
0.0
 11
617.749
 21
195.95
 31
0.0
  0
LINE
  8
2
  6
CONTINUOUS
 62
  6
 10
617.749
 20
195.45
 30
0.0
 11
618.124
 21
195.45
 31
0.0
  0
LINE
  8
2
  6
CONTINUOUS
 62
  6
 10
612.624
 20
195.45
 30
0.0
 11
612.999
 21
195.45
 31
0.0
  0
LINE
  8
2
  6
CONTINUOUS
 62
  6
 10
612.999
 20
195.95
 30
0.0
 11
612.624
 21
195.95
 31
0.0
  0
LINE
  8
2
  6
CONTINUOUS
 62
  6
 10
612.624
 20
195.95
 30
0.0
 11
612.624
 21
195.45
 31
0.0
  0
LINE
  8
2
  6
CONTINUOUS
 62
  6
 10
637.749
 20
195.95
 30
0.0
 11
637.749
 21
195.945
 31
0.0
  0
LINE
  8
2
  6
CONTINUOUS
 62
  6
 10
632.999
 20
195.95
 30
0.0
 11
632.999
 21
195.945
 31
0.0
  0
LINE
  8
2
  6
CONTINUOUS
 62
  6
 10
632.999
 20
195.95
 30
0.0
 11
637.749
 21
195.95
 31
0.0
  0
LINE
  8
2
  6
CONTINUOUS
 62
  6
 10
632.999
 20
195.454
 30
0.0
 11
632.999
 21
195.45
 31
0.0
  0
LINE
  8
2
  6
CONTINUOUS
 62
  6
 10
632.999
 20
195.45
 30
0.0
 11
637.749
 21
195.45
 31
0.0
  0
LINE
  8
2
  6
CONTINUOUS
 62
  6
 10
637.749
 20
195.454
 30
0.0
 11
637.749
 21
195.45
 31
0.0
  0
LINE
  8
2
  6
CONTINUOUS
 62
  6
 10
632.624
 20
195.45
 30
0.0
 11
632.624
 21
195.95
 31
0.0
  0
LINE
  8
2
  6
CONTINUOUS
 62
  6
 10
632.624
 20
195.95
 30
0.0
 11
632.999
 21
195.95
 31
0.0
  0
LINE
  8
2
  6
CONTINUOUS
 62
  6
 10
632.999
 20
195.45
 30
0.0
 11
632.624
 21
195.45
 31
0.0
  0
LINE
  8
2
  6
CONTINUOUS
 62
  6
 10
638.124
 20
195.45
 30
0.0
 11
637.749
 21
195.45
 31
0.0
  0
LINE
  8
2
  6
CONTINUOUS
 62
  6
 10
637.749
 20
195.95
 30
0.0
 11
638.124
 21
195.95
 31
0.0
  0
LINE
  8
2
  6
CONTINUOUS
 62
  6
 10
638.124
 20
195.95
 30
0.0
 11
638.124
 21
195.45
 31
0.0
  0
INSERT
  8
0
  2
_G_T_1
 10
0.0
 20
0.0
 30
0.0
  0
INSERT
  8
0
  2
_G_T_2
 10
0.0
 20
0.0
 30
0.0
  0
INSERT
  8
0
  2
_G_T_3
 10
0.0
 20
0.0
 30
0.0
  0
INSERT
  8
0
  2
_G_T_4
 10
0.0
 20
0.0
 30
0.0
  0
INSERT
  8
0
  2
_G_T_5
 10
0.0
 20
0.0
 30
0.0
  0
INSERT
  8
0
  2
_G_T_6
 10
0.0
 20
0.0
 30
0.0
  0
INSERT
  8
0
  2
_G_T_7
 10
0.0
 20
0.0
 30
0.0
  0
INSERT
  8
0
  2
_G_T_8
 10
0.0
 20
0.0
 30
0.0
  0
INSERT
  8
0
  2
_G_T_9
 10
0.0
 20
0.0
 30
0.0
  0
INSERT
  8
0
  2
_G_T_10
 10
0.0
 20
0.0
 30
0.0
  0
INSERT
  8
0
  2
_G_T_11
 10
0.0
 20
0.0
 30
0.0
  0
INSERT
  8
0
  2
_G_T_12
 10
0.0
 20
0.0
 30
0.0
  0
INSERT
  8
0
  2
_G_T_13
 10
0.0
 20
0.0
 30
0.0
  0
INSERT
  8
0
  2
_G_T_14
 10
0.0
 20
0.0
 30
0.0
  0
INSERT
  8
0
  2
_G_T_15
 10
0.0
 20
0.0
 30
0.0
  0
INSERT
  8
0
  2
_G_T_16
 10
0.0
 20
0.0
 30
0.0
  0
INSERT
  8
0
  2
_G_T_17
 10
0.0
 20
0.0
 30
0.0
  0
INSERT
  8
0
  2
_G_T_18
 10
0.0
 20
0.0
 30
0.0
  0
INSERT
  8
0
  2
_G_T_19
 10
0.0
 20
0.0
 30
0.0
  0
INSERT
  8
0
  2
_G_T_20
 10
0.0
 20
0.0
 30
0.0
  0
INSERT
  8
0
  2
_G_T_21
 10
0.0
 20
0.0
 30
0.0
  0
INSERT
  8
0
  2
_G_T_22
 10
0.0
 20
0.0
 30
0.0
  0
INSERT
  8
0
  2
_G_T_23
 10
0.0
 20
0.0
 30
0.0
  0
INSERT
  8
0
  2
_G_T_24
 10
0.0
 20
0.0
 30
0.0
  0
INSERT
  8
0
  2
_G_T_25
 10
0.0
 20
0.0
 30
0.0
  0
INSERT
  8
0
  2
_G_T_26
 10
0.0
 20
0.0
 30
0.0
  0
INSERT
  8
0
  2
_G_T_27
 10
0.0
 20
0.0
 30
0.0
  0
INSERT
  8
0
  2
_G_T_28
 10
0.0
 20
0.0
 30
0.0
  0
LINE
  8
2
  6
CONTINUOUS
 62
  4
 10
675.475
 20
134.509
 30
0.0
 11
670.359
 21
134.509
 31
0.0
  0
POINT
  8
255
  6
CONTINUOUS
 62
  2
 10
662.359
 20
91.309
 30
0.0
  0
POINT
  8
255
  6
CONTINUOUS
 62
  2
 10
661.859
 20
91.309
 30
0.0
  0
DIMENSION
  8
1
  6
CONTINUOUS
 62
  2
  2
*D36
 10
661.859
 20
78.694
 30
0.0
 11
652.895
 21
82.083
 31
0.0
 70
129
  1
<>
 13
662.359
 23
91.309
 33
0.0
 14
661.859
 24
91.309
 34
0.0
 51
2.914E+273
  0
POINT
  8
255
  6
CONTINUOUS
 62
  2
 10
676.609
 20
97.409
 30
0.0
  0
POINT
  8
255
  6
CONTINUOUS
 62
  2
 10
672.659
 20
90.409
 30
0.0
  0
DIMENSION
  8
1
  6
CONTINUOUS
 62
  2
  2
*D37
 10
689.558
 20
90.409
 30
0.0
 11
686.169
 21
82.899
 31
0.0
 70
128
  1
<>
 13
676.609
 23
97.409
 33
0.0
 14
672.659
 24
90.409
 34
0.0
 50
90.0
 51
2.914E+273
  0
DIMENSION
  8
1
  6
CONTINUOUS
 62
  2
  2
*D38
 10
608.118
 20
78.694
 30
0.0
 11
591.545
 21
82.083
 31
0.0
 70
129
  1
<>
 13
603.368
 23
91.309
 33
0.0
 14
608.118
 24
91.309
 34
0.0
 51
2.914E+273
  0
POINT
  8
255
  6
CONTINUOUS
 62
  2
 10
600.343
 20
97.409
 30
0.0
  0
POINT
  8
255
  6
CONTINUOUS
 62
  2
 10
641.143
 20
97.409
 30
0.0
  0
DIMENSION
  8
1
  6
CONTINUOUS
 62
  2
  2
*D39
 10
641.143
 20
142.383
 30
0.0
 11
620.743
 21
145.772
 31
0.0
 70
129
  1
<>
 13
600.343
 23
97.409
 33
0.0
 14
641.143
 24
97.409
 34
0.0
 51
2.914E+273
  0
POINT
  8
255
  6
CONTINUOUS
 62
  2
 10
648.909
 20
97.409
 30
0.0
  0
POINT
  8
255
  6
CONTINUOUS
 62
  2
 10
676.609
 20
97.409
 30
0.0
  0
DIMENSION
  8
1
  6
CONTINUOUS
 62
  2
  2
*D40
 10
676.609
 20
142.383
 30
0.0
 11
662.759
 21
145.772
 31
0.0
 70
129
  1
<>
 13
648.909
 23
97.409
 33
0.0
 14
676.609
 24
97.409
 34
0.0
 51
2.914E+273
  0
DIMENSION
  8
1
  6
CONTINUOUS
 62
  2
  2
*D41
 10
615.374
 20
216.506
 30
0.0
 11
610.374
 21
219.895
 31
0.0
 70
129
  1
<>
 13
605.374
 23
206.6
 33
0.0
 14
615.374
 24
206.6
 34
0.0
 51
2.914E+273
  0
DIMENSION
  8
1
  6
CONTINUOUS
 62
  2
  2
*D42
 10
625.374
 20
216.506
 30
0.0
 11
620.374
 21
219.895
 31
0.0
 70
129
  1
<>
 13
615.374
 23
206.6
 33
0.0
 14
625.374
 24
206.6
 34
0.0
 51
2.914E+273
  0
DIMENSION
  8
1
  6
CONTINUOUS
 62
  2
  2
*D43
 10
635.374
 20
216.506
 30
0.0
 11
630.374
 21
219.895
 31
0.0
 70
129
  1
<>
 13
625.374
 23
206.6
 33
0.0
 14
635.374
 24
206.6
 34
0.0
 51
2.914E+273
  0
POINT
  8
255
  6
CONTINUOUS
 62
  2
 10
600.874
 20
210.2
 30
0.0
  0
DIMENSION
  8
1
  6
CONTINUOUS
 62
  2
  2
*D44
 10
591.844
 20
210.2
 30
0.0
 11
588.455
 21
218.445
 31
0.0
 70
128
  1
<>
 13
602.624
 23
206.35
 33
0.0
 14
600.874
 24
210.2
 34
0.0
 50
90.0
 51
2.914E+273
  0
DIMENSION
  8
1
  6
CONTINUOUS
 62
  2
  2
*D45
 10
653.393
 20
206.35
 30
0.0
 11
650.004
 21
212.574
 31
0.0
 70
129
  1
<>
 13
638.124
 23
201.6
 33
0.0
 14
638.124
 24
206.35
 34
0.0
 51
2.914E+273
  0
DIMENSION
  8
1
  6
CONTINUOUS
 62
  2
  2
*D46
 10
653.393
 20
201.6
 30
0.0
 11
650.004
 21
187.454
 31
0.0
 70
129
  1
<>
 13
638.124
 23
195.7
 33
0.0
 14
638.124
 24
201.6
 34
0.0
 51
2.914E+273
  0
DIMENSION
  8
1
  6
CONTINUOUS
 62
  2
  2
*D47
 10
635.374
 20
172.063
 30
0.0
 11
620.374
 21
175.453
 31
0.0
 70
129
  1
<>
 13
605.374
 23
185.7
 33
0.0
 14
635.374
 24
185.7
 34
0.0
 51
2.914E+273
  0
DIMENSION
  8
1
  6
CONTINUOUS
 62
  2
  2
*D48
 10
591.844
 20
195.7
 30
0.0
 11
588.455
 21
180.204
 31
0.0
 70
128
  1
<>
 13
605.124
 23
188.45
 33
0.0
 14
602.624
 24
195.7
 34
0.0
 50
90.0
 51
2.914E+273
  0
DIMENSION
  8
1
  6
CONTINUOUS
 62
  2
  2
*D49
 10
689.558
 20
134.509
 30
0.0
 11
686.169
 21
118.228
 31
0.0
 70
128
  1
<>
 13
675.709
 23
97.409
 33
0.0
 14
675.475
 24
134.509
 34
0.0
 50
90.0
 51
2.914E+273
  0
ENDSEC
  0
EOF
