  0
SECTION
  2
HEADER
  9
$ACADVER
  1
AC1012
  9
$DWGCODEPAGE
  3
ANSI_1252
  9
$INSBASE
 10
0.0
 20
0.0
 30
0.0
  9
$EXTMIN
 10
5.0
 20
5.0
 30
0.0
  9
$EXTMAX
 10
205.000037
 20
292.000183
 30
0.0
  9
$LIMMIN
 10
0.0
 20
0.0
  9
$LIMMAX
 10
210.0
 20
296.0
  9
$ORTHOMODE
 70
     1
  9
$REGENMODE
 70
     1
  9
$FILLMODE
 70
     1
  9
$QTEXTMODE
 70
     0
  9
$MIRRTEXT
 70
     1
  9
$DRAGMODE
 70
     2
  9
$LTSCALE
 40
0.5
  9
$OSMODE
 70
    37
  9
$ATTMODE
 70
     1
  9
$TEXTSIZE
 40
0.2
  9
$TRACEWID
 40
0.05
  9
$TEXTSTYLE
  7
FINDER
  9
$CLAYER
  8
0
  9
$CELTYPE
  6
CONTINUOUS
  9
$CECOLOR
 62
   256
  9
$CELTSCALE
 40
1.0
  9
$DELOBJ
 70
     1
  9
$DISPSILH
 70
     0
  9
$DIMSCALE
 40
1.0
  9
$DIMASZ
 40
2.5
  9
$DIMEXO
 40
2.0
  9
$DIMDLI
 40
6.5
  9
$DIMRND
 40
0.0
  9
$DIMDLE
 40
0.0
  9
$DIMEXE
 40
1.25
  9
$DIMTP
 40
0.0
  9
$DIMTM
 40
0.0
  9
$DIMTXT
 40
3.5
  9
$DIMCEN
 40
2.5
  9
$DIMTSZ
 40
0.0
  9
$DIMTOL
 70
     0
  9
$DIMLIM
 70
     0
  9
$DIMTIH
 70
     0
  9
$DIMTOH
 70
     0
  9
$DIMSE1
 70
     0
  9
$DIMSE2
 70
     0
  9
$DIMTAD
 70
     1
  9
$DIMZIN
 70
     8
  9
$DIMBLK
  1

  9
$DIMASO
 70
     1
  9
$DIMSHO
 70
     1
  9
$DIMPOST
  1

  9
$DIMAPOST
  1

  9
$DIMALT
 70
     0
  9
$DIMALTD
 70
     3
  9
$DIMALTF
 40
0.03937
  9
$DIMLFAC
 40
1.0
  9
$DIMTOFL
 70
     1
  9
$DIMTVP
 40
0.0
  9
$DIMTIX
 70
     0
  9
$DIMSOXD
 70
     0
  9
$DIMSAH
 70
     0
  9
$DIMBLK1
  1

  9
$DIMBLK2
  1

  9
$DIMSTYLE
  2
FINDER
  9
$DIMCLRD
 70
   256
  9
$DIMCLRE
 70
   256
  9
$DIMCLRT
 70
     2
  9
$DIMTFAC
 40
1.0
  9
$DIMGAP
 40
0.625
  9
$DIMJUST
 70
     0
  9
$DIMSD1
 70
     0
  9
$DIMSD2
 70
     0
  9
$DIMTOLJ
 70
     0
  9
$DIMTZIN
 70
     8
  9
$DIMALTZ
 70
     0
  9
$DIMALTTZ
 70
     0
  9
$DIMFIT
 70
     3
  9
$DIMUPT
 70
     0
  9
$DIMUNIT
 70
     2
  9
$DIMDEC
 70
     2
  9
$DIMTDEC
 70
     2
  9
$DIMALTU
 70
     2
  9
$DIMALTTD
 70
     3
  9
$DIMTXSTY
  7
FINDER
  9
$DIMAUNIT
 70
     0
  9
$LUNITS
 70
     2
  9
$LUPREC
 70
     4
  9
$SKETCHINC
 40
0.1
  9
$FILLETRAD
 40
0.5
  9
$AUNITS
 70
     0
  9
$AUPREC
 70
     3
  9
$MENU
  1
acad
  9
$ELEVATION
 40
0.0
  9
$PELEVATION
 40
0.0
  9
$THICKNESS
 40
0.0
  9
$LIMCHECK
 70
     0
  9
$BLIPMODE
 70
     1
  9
$CHAMFERA
 40
4.0
  9
$CHAMFERB
 40
4.0
  9
$CHAMFERC
 40
0.0
  9
$CHAMFERD
 40
0.0
  9
$SKPOLY
 70
     0
  9
$TDCREATE
 40
2451901.420981018
  9
$TDUPDATE
 40
2451961.584569328
  9
$TDINDWG
 40
0.5415203704
  9
$TDUSRTIMER
 40
0.5415203704
  9
$USRTIMER
 70
     1
  9
$ANGBASE
 50
0.0
  9
$ANGDIR
 70
     0
  9
$PDMODE
 70
     0
  9
$PDSIZE
 40
0.0
  9
$PLINEWID
 40
0.0
  9
$COORDS
 70
     2
  9
$SPLFRAME
 70
     0
  9
$SPLINETYPE
 70
     6
  9
$SPLINESEGS
 70
     8
  9
$ATTDIA
 70
     0
  9
$ATTREQ
 70
     1
  9
$HANDLING
 70
     1
  9
$HANDSEED
  5
1057
  9
$SURFTAB1
 70
     6
  9
$SURFTAB2
 70
     6
  9
$SURFTYPE
 70
     6
  9
$SURFU
 70
     6
  9
$SURFV
 70
     6
  9
$UCSNAME
  2

  9
$UCSORG
 10
0.0
 20
0.0
 30
0.0
  9
$UCSXDIR
 10
1.0
 20
0.0
 30
0.0
  9
$UCSYDIR
 10
0.0
 20
1.0
 30
0.0
  9
$PUCSNAME
  2

  9
$PUCSORG
 10
0.0
 20
0.0
 30
0.0
  9
$PUCSXDIR
 10
1.0
 20
0.0
 30
0.0
  9
$PUCSYDIR
 10
0.0
 20
1.0
 30
0.0
  9
$USERI1
 70
     0
  9
$USERI2
 70
     0
  9
$USERI3
 70
     0
  9
$USERI4
 70
     0
  9
$USERI5
 70
     0
  9
$USERR1
 40
0.0
  9
$USERR2
 40
0.0
  9
$USERR3
 40
0.0
  9
$USERR4
 40
0.0
  9
$USERR5
 40
0.0
  9
$WORLDVIEW
 70
     1
  9
$SHADEDGE
 70
     3
  9
$SHADEDIF
 70
    70
  9
$TILEMODE
 70
     1
  9
$MAXACTVP
 70
    16
  9
$PINSBASE
 10
0.0
 20
0.0
 30
0.0
  9
$PLIMCHECK
 70
     0
  9
$PEXTMIN
 10
1.000000E+20
 20
1.000000E+20
 30
1.000000E+20
  9
$PEXTMAX
 10
-1.000000E+20
 20
-1.000000E+20
 30
-1.000000E+20
  9
$PLIMMIN
 10
0.0
 20
0.0
  9
$PLIMMAX
 10
100.0
 20
100.0
  9
$UNITMODE
 70
     0
  9
$VISRETAIN
 70
     0
  9
$PLINEGEN
 70
     1
  9
$PSLTSCALE
 70
     0
  9
$TREEDEPTH
 70
  3020
  9
$PICKSTYLE
 70
     0
  9
$CMLSTYLE
  2
STANDARD
  9
$CMLJUST
 70
     0
  9
$CMLSCALE
 40
1.0
  9
$SAVEIMAGES
 70
     0
  0
ENDSEC
  0
SECTION
  2
CLASSES
  0
CLASS
  1
LWPOLYLINE
  2
AcDbPolyline
  3
"AutoCAD"
 90
    32768
280
     0
281
     1
  0
CLASS
  1
IMAGE
  2
AcDbRasterImage
  3
ISM
 90
    32895
280
     0
281
     1
  0
CLASS
  1
OLE2FRAME
  2
AcDbOle2Frame
  3
""
 90
    32768
280
     0
281
     1
  0
CLASS
  1
HATCH
  2
AcDbHatch
  3
"ACAD_SEDONA"
 90
    32768
280
     0
281
     1
  0
CLASS
  1
DICTIONARYVAR
  2
AcDbDictionaryVar
  3
"AutoCAD"
 90
    32768
280
     0
281
     0
  0
CLASS
  1
RASTERVARIABLES
  2
AcDbRasterVariables
  3
ISM
 90
    32768
280
     0
281
     0
  0
CLASS
  1
IMAGEDEF
  2
AcDbRasterImageDef
  3
ISM
 90
    32768
280
     0
281
     0
  0
CLASS
  1
IMAGEDEF_REACTOR
  2
AcDbRasterImageDefReactor
  3
ISM
 90
    32769
280
     0
281
     0
  0
CLASS
  1
SPATIAL_FILTER
  2
AcDbSpatialFilter
  3
"Acad"
 90
    32768
280
     0
281
     0
  0
CLASS
  1
XRECORD
  2
AcDbXrecord
  3
"<Built In>"
 90
    32768
280
     0
281
     0
  0
CLASS
  1
SORTENTSTABLE
  2
AcDbSortentsTable
  3
"AutoCAD"
 90
    32768
280
     0
281
     0
  0
CLASS
  1
LAYER_INDEX
  2
AcDbLayerIndex
  3
"Acad"
 90
    32768
280
     0
281
     0
  0
CLASS
  1
SPATIAL_INDEX
  2
AcDbSpatialIndex
  3
"Acad"
 90
    32768
280
     0
281
     0
  0
CLASS
  1
OBJECT_PTR
  2
CAseDLPNTableRecord
  3
ASE-LPNTableRecord
 90
    32769
280
     0
281
     0
  0
CLASS
  1
LAYOUT
  2
AcDbLayout
  3
"AutoCAD 2000"
 90
    32769
280
     1
281
     0
  0
CLASS
  1
PLOTSETTINGS
  2
AcDbPlotSettings
  3
"AutoCAD 2000"
 90
    32769
280
     1
281
     0
  0
CLASS
  1
ACDBDICTIONARYWDFLT
  2
AcDbDictionaryWithDefault
  3
"AutoCAD 2000"
 90
    32769
280
     1
281
     0
  0
CLASS
  1
ACDBPLACEHOLDER
  2
AcDbPlaceHolder
  3
"AutoCAD 2000"
 90
    32769
280
     1
281
     0
  0
CLASS
  1
VBA_PROJECT
  2
AcDbVbaProject
  3
"acadvba"
 90
    32769
280
     1
281
     0
  0
CLASS
  1
WIPEOUT
  2
AcDbWipeout
  3
WipeOut|AutoCAD Express Tool|expresstools@autodesk.com
 90
    32895
280
     1
281
     1
  0
CLASS
  1
WIPEOUTVARIABLES
  2
AcDbWipeoutVariables
  3
WipeOut|AutoCAD Express Tool|expresstools@autodesk.com
 90
    32768
280
     1
281
     0
  0
CLASS
  1
RTEXT
  2
RText
  3
RText|AutoCAD Express Tool|expresstools@autodesk.com
 90
    32768
280
     1
281
     1
  0
CLASS
  1
ARCALIGNEDTEXT
  2
AcDbArcAlignedText
  3
ATEXT|AutoCAD Express Tool|expresstools@autodesk.com
 90
    32768
280
     1
281
     1
  0
ENDSEC
  0
SECTION
  2
TABLES
  0
TABLE
  2
VPORT
  5
12
100
AcDbSymbolTable
 70
     2
  0
VPORT
  5
1056
100
AcDbSymbolTableRecord
100
AcDbViewportTableRecord
  2
*ACTIVE
 70
     0
 10
0.0
 20
0.0
 11
1.0
 21
1.0
 12
104.994405
 22
148.496827
 13
0.0
 23
0.0
 14
1.0
 24
1.0
 15
2.0
 25
2.0
 16
0.0
 26
0.0
 36
1.0
 17
0.0
 27
0.0
 37
0.0
 40
289.716738
 41
1.645313
 42
50.0
 43
0.0
 44
0.0
 50
0.0
 51
0.0
 71
     0
 72
   100
 73
     1
 74
     1
 75
     0
 76
     0
 77
     0
 78
     0
  0
ENDTAB
  0
TABLE
  2
LTYPE
  5
D
100
AcDbSymbolTable
 70
     1
  0
LTYPE
  5
E
100
AcDbSymbolTableRecord
100
AcDbLinetypeTableRecord
  2
BYBLOCK
 70
     0
  3

 72
    65
 73
     0
 40
0.0
  0
LTYPE
  5
F
100
AcDbSymbolTableRecord
100
AcDbLinetypeTableRecord
  2
BYLAYER
 70
     0
  3

 72
    65
 73
     0
 40
0.0
  0
LTYPE
  5
5
100
AcDbSymbolTableRecord
100
AcDbLinetypeTableRecord
  2
CONTINUOUS
 70
     0
  3
Solid line
 72
    65
 73
     0
 40
0.0
  0
ENDTAB
  0
TABLE
  2
LAYER
  5
A
100
AcDbSymbolTable
 70
     6
  0
LAYER
  5
4
100
AcDbSymbolTableRecord
100
AcDbLayerTableRecord
  2
0
 70
     0
 62
     7
  6
CONTINUOUS
  0
LAYER
  5
26
100
AcDbSymbolTableRecord
100
AcDbLayerTableRecord
  2
DRAW
 70
     0
 62
     7
  6
CONTINUOUS
  0
LAYER
  5
2E
100
AcDbSymbolTableRecord
100
AcDbLayerTableRecord
  2
CARTOUCHE
 70
     0
 62
     7
  6
CONTINUOUS
  0
LAYER
  5
103
100
AcDbSymbolTableRecord
100
AcDbLayerTableRecord
  2
DRAW-TEXT
 70
     0
 62
     1
  6
CONTINUOUS
  0
LAYER
  5
136
100
AcDbSymbolTableRecord
100
AcDbLayerTableRecord
  2
DIM
 70
     0
 62
     3
  6
CONTINUOUS
  0
LAYER
  5
141
100
AcDbSymbolTableRecord
100
AcDbLayerTableRecord
  2
DEFPOINTS
 70
     0
 62
     7
  6
CONTINUOUS
  0
ENDTAB
  0
TABLE
  2
STYLE
  5
B
100
AcDbSymbolTable
 70
     2
  0
STYLE
  5
C
100
AcDbSymbolTableRecord
100
AcDbTextStyleTableRecord
  2
STANDARD
 70
     0
 40
0.0
 41
1.0
 50
0.0
 71
     0
 42
0.2
  3
txt
  4

  0
STYLE
  5
1B
100
AcDbSymbolTableRecord
100
AcDbTextStyleTableRecord
  2
FINDER
 70
     0
 40
1.8
 41
1.0
 50
0.0
 71
     0
 42
0.2
  3
ARIAL.TTF
  4

1001
ACAD
1000
Arial
1071
       34
  0
ENDTAB
  0
TABLE
  2
VIEW
  5
10
100
AcDbSymbolTable
 70
     0
  0
ENDTAB
  0
TABLE
  2
UCS
  5
11
100
AcDbSymbolTable
 70
     0
  0
ENDTAB
  0
TABLE
  2
APPID
  5
14
100
AcDbSymbolTable
 70
     1
  0
APPID
  5
15
100
AcDbSymbolTableRecord
100
AcDbRegAppTableRecord
  2
ACAD
 70
     0
  0
ENDTAB
  0
TABLE
  2
DIMSTYLE
  5
16
100
AcDbSymbolTable
 70
     1
  0
DIMSTYLE
105
1D
102
{ACAD_REACTORS
330
146
330
153
330
160
330
16C
102
}
100
AcDbSymbolTableRecord
100
AcDbDimStyleTableRecord
  2
FINDER
 70
     0
  3

  4

  5

  6

  7

 40
1.0
 41
2.5
 42
2.0
 43
6.5
 44
1.25
 45
0.0
 46
0.0
 47
0.0
 48
0.0
140
3.5
141
2.5
142
0.0
143
0.03937
144
1.0
145
0.0
146
1.0
147
0.625
 71
     0
 72
     0
 73
     0
 74
     0
 75
     0
 76
     0
 77
     1
 78
     8
170
     0
171
     3
172
     1
173
     0
174
     0
175
     0
176
   256
177
   256
178
     2
270
     2
271
     2
272
     2
273
     2
274
     3
340
1B
275
     0
280
     0
281
     0
282
     0
283
     0
284
     8
285
     0
286
     0
287
     3
288
     0
  0
ENDTAB
  0
TABLE
  2
BLOCK_RECORD
  5
1
100
AcDbSymbolTable
 70
    12
  0
BLOCK_RECORD
  5
2
100
AcDbSymbolTableRecord
100
AcDbBlockTableRecord
  2
*MODEL_SPACE
  0
BLOCK_RECORD
  5
7
100
AcDbSymbolTableRecord
100
AcDbBlockTableRecord
  2
*PAPER_SPACE
  0
BLOCK_RECORD
  5
139
100
AcDbSymbolTableRecord
100
AcDbBlockTableRecord
  2
*D0
  0
BLOCK_RECORD
  5
147
100
AcDbSymbolTableRecord
100
AcDbBlockTableRecord
  2
*D1
  0
BLOCK_RECORD
  5
154
100
AcDbSymbolTableRecord
100
AcDbBlockTableRecord
  2
*D2
  0
BLOCK_RECORD
  5
161
100
AcDbSymbolTableRecord
100
AcDbBlockTableRecord
  2
*D3
  0
BLOCK_RECORD
  5
EB8
100
AcDbSymbolTableRecord
100
AcDbBlockTableRecord
  2
*X4
  0
BLOCK_RECORD
  5
EEB
100
AcDbSymbolTableRecord
100
AcDbBlockTableRecord
  2
*X5
  0
BLOCK_RECORD
  5
EF8
100
AcDbSymbolTableRecord
100
AcDbBlockTableRecord
  2
*X6
  0
BLOCK_RECORD
  5
F0F
100
AcDbSymbolTableRecord
100
AcDbBlockTableRecord
  2
*X7
  0
BLOCK_RECORD
  5
FA0
100
AcDbSymbolTableRecord
100
AcDbBlockTableRecord
  2
*X8
  0
BLOCK_RECORD
  5
FC0
100
AcDbSymbolTableRecord
100
AcDbBlockTableRecord
  2
*X9
  0
BLOCK_RECORD
  5
FEF
100
AcDbSymbolTableRecord
100
AcDbBlockTableRecord
  2
*X10
  0
BLOCK_RECORD
  5
1019
100
AcDbSymbolTableRecord
100
AcDbBlockTableRecord
  2
*X11
  0
ENDTAB
  0
ENDSEC
  0
SECTION
  2
BLOCKS
  0
BLOCK
  5
3
100
AcDbEntity
  8
0
100
AcDbBlockBegin
  2
*MODEL_SPACE
 70
     0
 10
0.0
 20
0.0
 30
0.0
  3
*MODEL_SPACE
  1

  0
ENDBLK
  5
6
100
AcDbEntity
  8
0
100
AcDbBlockEnd
  0
BLOCK
  5
8
100
AcDbEntity
 67
     1
  8
0
100
AcDbBlockBegin
  2
*PAPER_SPACE
 70
     0
 10
0.0
 20
0.0
 30
0.0
  3
*PAPER_SPACE
  1

  0
ENDBLK
  5
9
100
AcDbEntity
 67
     1
  8
0
100
AcDbBlockEnd
  0
BLOCK
  5
13A
100
AcDbEntity
  8
0
100
AcDbBlockBegin
  2
*D0
 70
     1
 10
0.0
 20
0.0
 30
0.0
  3
*D0
  1

  0
LINE
  5
13B
100
AcDbEntity
  8
0
  6
BYBLOCK
100
AcDbLine
 10
19.044206
 20
197.547232
 30
0.0
 11
19.044206
 21
202.25
 31
0.0
  0
LINE
  5
13C
100
AcDbEntity
  8
0
  6
BYBLOCK
100
AcDbLine
 10
51.544206
 20
197.547232
 30
0.0
 11
51.544206
 21
202.25
 31
0.0
  0
LINE
  5
13D
100
AcDbEntity
  8
0
  6
BYBLOCK
100
AcDbLine
 10
21.544206
 20
201.0
 30
0.0
 11
49.044206
 21
201.0
 31
0.0
  0
SOLID
  5
13E
100
AcDbEntity
  8
0
  6
BYBLOCK
100
AcDbTrace
 10
21.544206
 20
201.416667
 30
0.0
 11
21.544206
 21
200.583333
 31
0.0
 12
19.044206
 22
201.0
 32
0.0
 13
19.044206
 23
201.0
 33
0.0
  0
SOLID
  5
13F
100
AcDbEntity
  8
0
  6
BYBLOCK
100
AcDbTrace
 10
49.044206
 20
201.416667
 30
0.0
 11
49.044206
 21
200.583333
 31
0.0
 12
51.544206
 22
201.0
 32
0.0
 13
51.544206
 23
201.0
 33
0.0
  0
MTEXT
  5
140
100
AcDbEntity
  8
0
  6
BYBLOCK
 62
     2
100
AcDbMText
 10
35.294206
 20
202.544645
 30
0.0
 40
1.8
 41
0.0
 71
     5
 72
     1
  1
32.5
  7
FINDER
  0
POINT
  5
142
100
AcDbEntity
  8
DEFPOINTS
  6
BYBLOCK
 62
     0
100
AcDbPoint
 10
19.044206
 20
195.547232
 30
0.0
  0
POINT
  5
143
100
AcDbEntity
  8
DEFPOINTS
  6
BYBLOCK
 62
     0
100
AcDbPoint
 10
51.544206
 20
195.547232
 30
0.0
  0
POINT
  5
144
100
AcDbEntity
  8
DEFPOINTS
  6
BYBLOCK
 62
     0
100
AcDbPoint
 10
51.544206
 20
201.0
 30
0.0
  0
ENDBLK
  5
145
100
AcDbEntity
  8
0
100
AcDbBlockEnd
  0
BLOCK
  5
148
100
AcDbEntity
  8
0
100
AcDbBlockBegin
  2
*D1
 70
     1
 10
0.0
 20
0.0
 30
0.0
  3
*D1
  1

  0
LINE
  5
149
100
AcDbEntity
  8
0
  6
BYBLOCK
100
AcDbLine
 10
18.044206
 20
196.547232
 30
0.0
 11
13.75
 21
196.547232
 31
0.0
  0
LINE
  5
14A
100
AcDbEntity
  8
0
  6
BYBLOCK
100
AcDbLine
 10
18.044206
 20
160.147232
 30
0.0
 11
13.75
 21
160.147232
 31
0.0
  0
LINE
  5
14B
100
AcDbEntity
  8
0
  6
BYBLOCK
100
AcDbLine
 10
15.0
 20
194.047232
 30
0.0
 11
15.0
 21
162.647232
 31
0.0
  0
SOLID
  5
14C
100
AcDbEntity
  8
0
  6
BYBLOCK
100
AcDbTrace
 10
14.583333
 20
194.047232
 30
0.0
 11
15.416667
 21
194.047232
 31
0.0
 12
15.0
 22
196.547232
 32
0.0
 13
15.0
 23
196.547232
 33
0.0
  0
SOLID
  5
14D
100
AcDbEntity
  8
0
  6
BYBLOCK
100
AcDbTrace
 10
14.583333
 20
162.647232
 30
0.0
 11
15.416667
 21
162.647232
 31
0.0
 12
15.0
 22
160.147232
 32
0.0
 13
15.0
 23
160.147232
 33
0.0
  0
MTEXT
  5
14E
100
AcDbEntity
  8
0
  6
BYBLOCK
 62
     2
100
AcDbMText
 10
13.455355
 20
178.347232
 30
0.0
 40
1.8
 41
0.0
 71
     5
 72
     1
  1
36.4
  7
FINDER
 11
0.0
 21
1.0
 31
0.0
  0
POINT
  5
14F
100
AcDbEntity
  8
DEFPOINTS
  6
BYBLOCK
 62
     0
100
AcDbPoint
 10
20.044206
 20
196.547232
 30
0.0
  0
POINT
  5
150
100
AcDbEntity
  8
DEFPOINTS
  6
BYBLOCK
 62
     0
100
AcDbPoint
 10
20.044206
 20
160.147232
 30
0.0
  0
POINT
  5
151
100
AcDbEntity
  8
DEFPOINTS
  6
BYBLOCK
 62
     0
100
AcDbPoint
 10
15.0
 20
160.147232
 30
0.0
  0
ENDBLK
  5
152
100
AcDbEntity
  8
0
100
AcDbBlockEnd
  0
BLOCK
  5
B73
100
AcDbEntity
  8
0
100
AcDbBlockBegin
  2
*D2
 70
     1
 10
0.0
 20
0.0
 30
0.0
  3
*D2
  1

  0
LINE
  5
B74
100
AcDbEntity
  8
0
  6
BYBLOCK
100
AcDbLine
 10
84.349999
 20
195.148237
 30
0.0
 11
84.349999
 21
202.25
 31
0.0
  0
LINE
  5
B75
100
AcDbEntity
  8
0
  6
BYBLOCK
100
AcDbLine
 10
138.55
 20
195.672669
 30
0.0
 11
138.55
 21
202.25
 31
0.0
  0
LINE
  5
B76
100
AcDbEntity
  8
0
  6
BYBLOCK
100
AcDbLine
 10
86.849999
 20
201.0
 30
0.0
 11
136.05
 21
201.0
 31
0.0
  0
SOLID
  5
B77
100
AcDbEntity
  8
0
  6
BYBLOCK
100
AcDbTrace
 10
86.849999
 20
201.416667
 30
0.0
 11
86.849999
 21
200.583333
 31
0.0
 12
84.349999
 22
201.0
 32
0.0
 13
84.349999
 23
201.0
 33
0.0
  0
SOLID
  5
B78
100
AcDbEntity
  8
0
  6
BYBLOCK
100
AcDbTrace
 10
136.05
 20
201.416667
 30
0.0
 11
136.05
 21
200.583333
 31
0.0
 12
138.55
 22
201.0
 32
0.0
 13
138.55
 23
201.0
 33
0.0
  0
MTEXT
  5
B79
100
AcDbEntity
  8
0
  6
BYBLOCK
 62
     2
100
AcDbMText
 10
111.45
 20
202.544031
 30
0.0
 40
1.8
 41
0.0
 71
     5
 72
     1
  1
54.2
  7
FINDER
  0
POINT
  5
B7A
100
AcDbEntity
  8
DEFPOINTS
  6
BYBLOCK
 62
     0
100
AcDbPoint
 10
84.349999
 20
193.148237
 30
0.0
  0
POINT
  5
B7B
100
AcDbEntity
  8
DEFPOINTS
  6
BYBLOCK
 62
     0
100
AcDbPoint
 10
138.55
 20
193.672669
 30
0.0
  0
POINT
  5
B7C
100
AcDbEntity
  8
DEFPOINTS
  6
BYBLOCK
 62
     0
100
AcDbPoint
 10
138.55
 20
201.0
 30
0.0
  0
ENDBLK
  5
B7D
100
AcDbEntity
  8
0
100
AcDbBlockEnd
  0
BLOCK
  5
EA3
100
AcDbEntity
  8
0
100
AcDbBlockBegin
  2
*D3
 70
     1
 10
0.0
 20
0.0
 30
0.0
  3
*D3
  1

  0
LINE
  5
EA4
100
AcDbEntity
  8
0
  6
BYBLOCK
100
AcDbLine
 10
71.800001
 20
183.676242
 30
0.0
 11
71.800001
 21
202.25
 31
0.0
  0
LINE
  5
EA5
100
AcDbEntity
  8
0
  6
BYBLOCK
100
AcDbLine
 10
81.849999
 20
201.0
 30
0.0
 11
74.300001
 21
201.0
 31
0.0
  0
SOLID
  5
EA6
100
AcDbEntity
  8
0
  6
BYBLOCK
100
AcDbTrace
 10
81.849999
 20
201.416667
 30
0.0
 11
81.849999
 21
200.583333
 31
0.0
 12
84.349999
 22
201.0
 32
0.0
 13
84.349999
 23
201.0
 33
0.0
  0
SOLID
  5
EA7
100
AcDbEntity
  8
0
  6
BYBLOCK
100
AcDbTrace
 10
74.300001
 20
201.416667
 30
0.0
 11
74.300001
 21
200.583333
 31
0.0
 12
71.800001
 22
201.0
 32
0.0
 13
71.800001
 23
201.0
 33
0.0
  0
MTEXT
  5
EA8
100
AcDbEntity
  8
0
  6
BYBLOCK
 62
     2
100
AcDbMText
 10
78.075
 20
202.544031
 30
0.0
 40
1.8
 41
0.0
 71
     5
 72
     1
  1
12.55
  7
FINDER
  0
POINT
  5
EA9
100
AcDbEntity
  8
DEFPOINTS
  6
BYBLOCK
 62
     0
100
AcDbPoint
 10
84.349999
 20
193.148237
 30
0.0
  0
POINT
  5
EAA
100
AcDbEntity
  8
DEFPOINTS
  6
BYBLOCK
 62
     0
100
AcDbPoint
 10
71.800001
 20
181.676242
 30
0.0
  0
POINT
  5
EAB
100
AcDbEntity
  8
DEFPOINTS
  6
BYBLOCK
 62
     0
100
AcDbPoint
 10
71.800001
 20
201.0
 30
0.0
  0
ENDBLK
  5
EAC
100
AcDbEntity
  8
0
100
AcDbBlockEnd
  0
BLOCK
  5
EE9
100
AcDbEntity
  8
0
100
AcDbBlockBegin
  2
*X4
 70
     1
 10
0.0
 20
0.0
 30
0.0
  3
*X4
  1

  0
LINE
  5
EB9
100
AcDbEntity
  8
0
  6
CONTINUOUS
 62
     0
100
AcDbLine
 10
41.233824
 20
20.814544
 30
0.0
 11
42.038521
 21
21.619241
 31
0.0
  0
LINE
  5
EBA
100
AcDbEntity
  8
0
  6
CONTINUOUS
 62
     0
100
AcDbLine
 10
40.761924
 20
20.625487
 30
0.0
 11
41.992081
 21
21.855644
 31
0.0
  0
LINE
  5
EBB
100
AcDbEntity
  8
0
  6
CONTINUOUS
 62
     0
100
AcDbLine
 10
42.109364
 20
22.25577
 30
0.0
 11
42.234688
 21
22.381093
 31
0.0
  0
LINE
  5
EBC
100
AcDbEntity
  8
0
  6
CONTINUOUS
 62
     0
100
AcDbLine
 10
40.387144
 20
20.533549
 30
0.0
 11
41.709238
 21
21.855644
 31
0.0
  0
LINE
  5
EBD
100
AcDbEntity
  8
0
  6
CONTINUOUS
 62
     0
100
AcDbLine
 10
41.825433
 20
22.254682
 30
0.0
 11
42.248624
 21
22.677873
 31
0.0
  0
LINE
  5
EBE
100
AcDbEntity
  8
0
  6
CONTINUOUS
 62
     0
100
AcDbLine
 10
40.05278
 20
20.482029
 30
0.0
 11
41.426395
 21
21.855644
 31
0.0
  0
LINE
  5
EBF
100
AcDbEntity
  8
0
  6
CONTINUOUS
 62
     0
100
AcDbLine
 10
41.541502
 20
22.253593
 30
0.0
 11
42.21409
 21
22.926181
 31
0.0
  0
LINE
  5
EC0
100
AcDbEntity
  8
0
  6
CONTINUOUS
 62
     0
100
AcDbLine
 10
39.74394
 20
20.456031
 30
0.0
 11
41.143553
 21
21.855644
 31
0.0
  0
LINE
  5
EC1
100
AcDbEntity
  8
0
  6
CONTINUOUS
 62
     0
100
AcDbLine
 10
41.257572
 20
22.252505
 30
0.0
 11
42.156032
 21
23.150966
 31
0.0
  0
LINE
  5
EC2
100
AcDbEntity
  8
0
  6
CONTINUOUS
 62
     0
100
AcDbLine
 10
39.448788
 20
20.443722
 30
0.0
 11
40.86071
 21
21.855644
 31
0.0
  0
LINE
  5
EC3
100
AcDbEntity
  8
0
  6
CONTINUOUS
 62
     0
100
AcDbLine
 10
40.973641
 20
22.251417
 30
0.0
 11
42.082697
 21
23.360473
 31
0.0
  0
LINE
  5
EC4
100
AcDbEntity
  8
0
  6
CONTINUOUS
 62
     0
100
AcDbLine
 10
39.166766
 20
20.444542
 30
0.0
 11
40.577867
 21
21.855644
 31
0.0
  0
LINE
  5
EC5
100
AcDbEntity
  8
0
  6
CONTINUOUS
 62
     0
100
AcDbLine
 10
40.68971
 20
22.250329
 30
0.0
 11
41.992262
 21
23.552881
 31
0.0
  0
LINE
  5
EC6
100
AcDbEntity
  8
0
  6
CONTINUOUS
 62
     0
100
AcDbLine
 10
38.902535
 20
20.463154
 30
0.0
 11
40.178872
 21
21.739491
 31
0.0
  0
LINE
  5
EC7
100
AcDbEntity
  8
0
  6
CONTINUOUS
 62
     0
100
AcDbLine
 10
40.405779
 20
22.249241
 30
0.0
 11
41.885758
 21
23.729219
 31
0.0
  0
LINE
  5
EC8
100
AcDbEntity
  8
0
  6
CONTINUOUS
 62
     0
100
AcDbLine
 10
38.650769
 20
20.494231
 30
0.0
 11
39.711135
 21
21.554596
 31
0.0
  0
LINE
  5
EC9
100
AcDbEntity
  8
0
  6
CONTINUOUS
 62
     0
100
AcDbLine
 10
40.121848
 20
22.248152
 30
0.0
 11
41.763132
 21
23.889436
 31
0.0
  0
LINE
  5
ECA
100
AcDbEntity
  8
0
  6
CONTINUOUS
 62
     0
100
AcDbLine
 10
38.407693
 20
20.533998
 30
0.0
 11
39.411545
 21
21.53785
 31
0.0
  0
LINE
  5
ECB
100
AcDbEntity
  8
0
  6
CONTINUOUS
 62
     0
100
AcDbLine
 10
39.837917
 20
22.247064
 30
0.0
 11
41.624849
 21
24.033997
 31
0.0
  0
LINE
  5
ECC
100
AcDbEntity
  8
0
  6
CONTINUOUS
 62
     0
100
AcDbLine
 10
38.180128
 20
20.589276
 30
0.0
 11
39.162324
 21
21.571471
 31
0.0
  0
LINE
  5
ECD
100
AcDbEntity
  8
0
  6
CONTINUOUS
 62
     0
100
AcDbLine
 10
39.553986
 20
22.245976
 30
0.0
 11
41.470496
 21
24.162486
 31
0.0
  0
LINE
  5
ECE
100
AcDbEntity
  8
0
  6
CONTINUOUS
 62
     0
100
AcDbLine
 10
37.96719
 20
20.65918
 30
0.0
 11
38.94359
 21
21.63558
 31
0.0
  0
LINE
  5
ECF
100
AcDbEntity
  8
0
  6
CONTINUOUS
 62
     0
100
AcDbLine
 10
39.270055
 20
22.244888
 30
0.0
 11
40.104361
 21
23.079194
 31
0.0
  0
LINE
  5
ED0
100
AcDbEntity
  8
0
  6
CONTINUOUS
 62
     0
100
AcDbLine
 10
40.296756
 20
23.271589
 30
0.0
 11
41.306075
 21
24.280908
 31
0.0
  0
LINE
  5
ED1
100
AcDbEntity
  8
0
  6
CONTINUOUS
 62
     0
100
AcDbLine
 10
37.762127
 20
20.736959
 30
0.0
 11
38.751667
 21
21.7265
 31
0.0
  0
LINE
  5
ED2
100
AcDbEntity
  8
0
  6
CONTINUOUS
 62
     0
100
AcDbLine
 10
38.986768
 20
22.244444
 30
0.0
 11
39.821518
 21
23.079194
 31
0.0
  0
LINE
  5
ED3
100
AcDbEntity
  8
0
  6
CONTINUOUS
 62
     0
100
AcDbLine
 10
40.185855
 20
23.443531
 30
0.0
 11
41.127162
 21
24.384837
 31
0.0
  0
LINE
  5
ED4
100
AcDbEntity
  8
0
  6
CONTINUOUS
 62
     0
100
AcDbLine
 10
37.567077
 20
20.824752
 30
0.0
 11
38.587242
 21
21.844917
 31
0.0
  0
LINE
  5
ED5
100
AcDbEntity
  8
0
  6
CONTINUOUS
 62
     0
100
AcDbLine
 10
38.703926
 20
22.244444
 30
0.0
 11
39.538676
 21
23.079194
 31
0.0
  0
LINE
  5
ED6
100
AcDbEntity
  8
0
  6
CONTINUOUS
 62
     0
100
AcDbLine
 10
40.035599
 20
23.576117
 30
0.0
 11
40.932542
 21
24.47306
 31
0.0
  0
LINE
  5
ED7
100
AcDbEntity
  8
0
  6
CONTINUOUS
 62
     0
100
AcDbLine
 10
37.386162
 20
20.92668
 30
0.0
 11
38.458814
 21
21.999332
 31
0.0
  0
LINE
  5
ED8
100
AcDbEntity
  8
0
  6
CONTINUOUS
 62
     0
100
AcDbLine
 10
38.421083
 20
22.244444
 30
0.0
 11
39.255833
 21
23.079194
 31
0.0
  0
LINE
  5
ED9
100
AcDbEntity
  8
0
  6
CONTINUOUS
 62
     0
100
AcDbLine
 10
39.853662
 20
23.677023
 30
0.0
 11
40.721945
 21
24.545306
 31
0.0
  0
LINE
  5
EDA
100
AcDbEntity
  8
0
  6
CONTINUOUS
 62
     0
100
AcDbLine
 10
37.22185
 20
21.045211
 30
0.0
 11
38.375638
 21
22.198999
 31
0.0
  0
LINE
  5
EDB
100
AcDbEntity
  8
0
  6
CONTINUOUS
 62
     0
100
AcDbLine
 10
39.638454
 20
23.744657
 30
0.0
 11
40.501236
 21
24.607439
 31
0.0
  0
LINE
  5
EDC
100
AcDbEntity
  8
0
  6
CONTINUOUS
 62
     0
100
AcDbLine
 10
37.07656
 20
21.182763
 30
0.0
 11
38.97299
 21
23.079194
 31
0.0
  0
LINE
  5
EDD
100
AcDbEntity
  8
0
  6
CONTINUOUS
 62
     0
100
AcDbLine
 10
39.38488
 20
23.773926
 30
0.0
 11
40.269576
 21
24.658623
 31
0.0
  0
LINE
  5
EDE
100
AcDbEntity
  8
0
  6
CONTINUOUS
 62
     0
100
AcDbLine
 10
36.946052
 20
21.335098
 30
0.0
 11
38.690147
 21
23.079194
 31
0.0
  0
LINE
  5
EDF
100
AcDbEntity
  8
0
  6
CONTINUOUS
 62
     0
100
AcDbLine
 10
39.069245
 20
23.741134
 30
0.0
 11
40.026103
 21
24.697992
 31
0.0
  0
LINE
  5
EE0
100
AcDbEntity
  8
0
  6
CONTINUOUS
 62
     0
100
AcDbLine
 10
36.825922
 20
21.497811
 30
0.0
 11
38.407305
 21
23.079194
 31
0.0
  0
LINE
  5
EE1
100
AcDbEntity
  8
0
  6
CONTINUOUS
 62
     0
100
AcDbLine
 10
36.722045
 20
21.676776
 30
0.0
 11
39.769169
 21
24.723901
 31
0.0
  0
LINE
  5
EE2
100
AcDbEntity
  8
0
  6
CONTINUOUS
 62
     0
100
AcDbLine
 10
36.633672
 20
21.871247
 30
0.0
 11
39.492393
 21
24.729967
 31
0.0
  0
LINE
  5
EE3
100
AcDbEntity
  8
0
  6
CONTINUOUS
 62
     0
100
AcDbLine
 10
36.558727
 20
22.079144
 30
0.0
 11
39.214889
 21
24.735306
 31
0.0
  0
LINE
  5
EE4
100
AcDbEntity
  8
0
  6
CONTINUOUS
 62
     0
100
AcDbLine
 10
36.503475
 20
22.306735
 30
0.0
 11
38.910338
 21
24.713597
 31
0.0
  0
LINE
  5
EE5
100
AcDbEntity
  8
0
  6
CONTINUOUS
 62
     0
100
AcDbLine
 10
36.478924
 20
22.565027
 30
0.0
 11
38.599964
 21
24.686067
 31
0.0
  0
LINE
  5
EE6
100
AcDbEntity
  8
0
  6
CONTINUOUS
 62
     0
100
AcDbLine
 10
36.497306
 20
22.866251
 30
0.0
 11
38.252546
 21
24.621491
 31
0.0
  0
LINE
  5
EE7
100
AcDbEntity
  8
0
  6
CONTINUOUS
 62
     0
100
AcDbLine
 10
36.58207
 20
23.233858
 30
0.0
 11
37.861674
 21
24.513462
 31
0.0
  0
LINE
  5
EE8
100
AcDbEntity
  8
0
  6
CONTINUOUS
 62
     0
100
AcDbLine
 10
36.878958
 20
23.813588
 30
0.0
 11
37.289934
 21
24.224564
 31
0.0
  0
ENDBLK
  5
EEA
100
AcDbEntity
  8
0
100
AcDbBlockEnd
  0
BLOCK
  5
EF6
100
AcDbEntity
  8
0
100
AcDbBlockBegin
  2
*X5
 70
     1
 10
0.0
 20
0.0
 30
0.0
  3
*X5
  1

  0
LINE
  5
EEC
100
AcDbEntity
  8
0
  6
CONTINUOUS
 62
     0
100
AcDbLine
 10
23.583484
 20
24.943094
 30
0.0
 11
23.625973
 21
24.985582
 31
0.0
  0
LINE
  5
EED
100
AcDbEntity
  8
0
  6
CONTINUOUS
 62
     0
100
AcDbLine
 10
23.300642
 20
24.943094
 30
0.0
 11
23.625973
 21
25.268425
 31
0.0
  0
LINE
  5
EEE
100
AcDbEntity
  8
0
  6
CONTINUOUS
 62
     0
100
AcDbLine
 10
23.017799
 20
24.943094
 30
0.0
 11
23.625973
 21
25.551268
 31
0.0
  0
LINE
  5
EEF
100
AcDbEntity
  8
0
  6
CONTINUOUS
 62
     0
100
AcDbLine
 10
22.734956
 20
24.943094
 30
0.0
 11
23.625973
 21
25.83411
 31
0.0
  0
LINE
  5
EF0
100
AcDbEntity
  8
0
  6
CONTINUOUS
 62
     0
100
AcDbLine
 10
22.452114
 20
24.943094
 30
0.0
 11
23.344014
 21
25.834994
 31
0.0
  0
LINE
  5
EF1
100
AcDbEntity
  8
0
  6
CONTINUOUS
 62
     0
100
AcDbLine
 10
22.169271
 20
24.943094
 30
0.0
 11
23.061171
 21
25.834994
 31
0.0
  0
LINE
  5
EF2
100
AcDbEntity
  8
0
  6
CONTINUOUS
 62
     0
100
AcDbLine
 10
21.886428
 20
24.943094
 30
0.0
 11
22.778328
 21
25.834994
 31
0.0
  0
LINE
  5
EF3
100
AcDbEntity
  8
0
  6
CONTINUOUS
 62
     0
100
AcDbLine
 10
21.807973
 20
25.147481
 30
0.0
 11
22.495485
 21
25.834994
 31
0.0
  0
LINE
  5
EF4
100
AcDbEntity
  8
0
  6
CONTINUOUS
 62
     0
100
AcDbLine
 10
21.807973
 20
25.430324
 30
0.0
 11
22.212643
 21
25.834994
 31
0.0
  0
LINE
  5
EF5
100
AcDbEntity
  8
0
  6
CONTINUOUS
 62
     0
100
AcDbLine
 10
21.807973
 20
25.713167
 30
0.0
 11
21.9298
 21
25.834994
 31
0.0
  0
ENDBLK
  5
EF7
100
AcDbEntity
  8
0
100
AcDbBlockEnd
  0
BLOCK
  5
F0D
100
AcDbEntity
  8
0
100
AcDbBlockBegin
  2
*X6
 70
     1
 10
0.0
 20
0.0
 30
0.0
  3
*X6
  1

  0
LINE
  5
EF9
100
AcDbEntity
  8
0
  6
CONTINUOUS
 62
     0
100
AcDbLine
 10
23.515125
 20
20.632094
 30
0.0
 11
23.625973
 21
20.742941
 31
0.0
  0
LINE
  5
EFA
100
AcDbEntity
  8
0
  6
CONTINUOUS
 62
     0
100
AcDbLine
 10
23.232282
 20
20.632094
 30
0.0
 11
23.625973
 21
21.025784
 31
0.0
  0
LINE
  5
EFB
100
AcDbEntity
  8
0
  6
CONTINUOUS
 62
     0
100
AcDbLine
 10
22.94944
 20
20.632094
 30
0.0
 11
23.625973
 21
21.308627
 31
0.0
  0
LINE
  5
EFC
100
AcDbEntity
  8
0
  6
CONTINUOUS
 62
     0
100
AcDbLine
 10
22.666597
 20
20.632094
 30
0.0
 11
23.625973
 21
21.59147
 31
0.0
  0
LINE
  5
EFD
100
AcDbEntity
  8
0
  6
CONTINUOUS
 62
     0
100
AcDbLine
 10
22.383754
 20
20.632094
 30
0.0
 11
23.625973
 21
21.874312
 31
0.0
  0
LINE
  5
EFE
100
AcDbEntity
  8
0
  6
CONTINUOUS
 62
     0
100
AcDbLine
 10
22.100912
 20
20.632094
 30
0.0
 11
23.625973
 21
22.157155
 31
0.0
  0
LINE
  5
EFF
100
AcDbEntity
  8
0
  6
CONTINUOUS
 62
     0
100
AcDbLine
 10
21.818069
 20
20.632094
 30
0.0
 11
23.625973
 21
22.439998
 31
0.0
  0
LINE
  5
F00
100
AcDbEntity
  8
0
  6
CONTINUOUS
 62
     0
100
AcDbLine
 10
21.807973
 20
20.90484
 30
0.0
 11
23.625973
 21
22.72284
 31
0.0
  0
LINE
  5
F01
100
AcDbEntity
  8
0
  6
CONTINUOUS
 62
     0
100
AcDbLine
 10
21.807973
 20
21.187683
 30
0.0
 11
23.625973
 21
23.005683
 31
0.0
  0
LINE
  5
F02
100
AcDbEntity
  8
0
  6
CONTINUOUS
 62
     0
100
AcDbLine
 10
21.807973
 20
21.470526
 30
0.0
 11
23.625973
 21
23.288526
 31
0.0
  0
LINE
  5
F03
100
AcDbEntity
  8
0
  6
CONTINUOUS
 62
     0
100
AcDbLine
 10
21.807973
 20
21.753369
 30
0.0
 11
23.625973
 21
23.571369
 31
0.0
  0
LINE
  5
F04
100
AcDbEntity
  8
0
  6
CONTINUOUS
 62
     0
100
AcDbLine
 10
21.807973
 20
22.036211
 30
0.0
 11
23.625973
 21
23.854211
 31
0.0
  0
LINE
  5
F05
100
AcDbEntity
  8
0
  6
CONTINUOUS
 62
     0
100
AcDbLine
 10
21.807973
 20
22.319054
 30
0.0
 11
23.625973
 21
24.137054
 31
0.0
  0
LINE
  5
F06
100
AcDbEntity
  8
0
  6
CONTINUOUS
 62
     0
100
AcDbLine
 10
21.807973
 20
22.601897
 30
0.0
 11
23.625973
 21
24.419897
 31
0.0
  0
LINE
  5
F07
100
AcDbEntity
  8
0
  6
CONTINUOUS
 62
     0
100
AcDbLine
 10
21.807973
 20
22.884739
 30
0.0
 11
23.431627
 21
24.508394
 31
0.0
  0
LINE
  5
F08
100
AcDbEntity
  8
0
  6
CONTINUOUS
 62
     0
100
AcDbLine
 10
21.807973
 20
23.167582
 30
0.0
 11
23.148784
 21
24.508394
 31
0.0
  0
LINE
  5
F09
100
AcDbEntity
  8
0
  6
CONTINUOUS
 62
     0
100
AcDbLine
 10
21.807973
 20
23.450425
 30
0.0
 11
22.865942
 21
24.508394
 31
0.0
  0
LINE
  5
F0A
100
AcDbEntity
  8
0
  6
CONTINUOUS
 62
     0
100
AcDbLine
 10
21.807973
 20
23.733268
 30
0.0
 11
22.583099
 21
24.508394
 31
0.0
  0
LINE
  5
F0B
100
AcDbEntity
  8
0
  6
CONTINUOUS
 62
     0
100
AcDbLine
 10
21.807973
 20
24.01611
 30
0.0
 11
22.300256
 21
24.508394
 31
0.0
  0
LINE
  5
F0C
100
AcDbEntity
  8
0
  6
CONTINUOUS
 62
     0
100
AcDbLine
 10
21.807973
 20
24.298953
 30
0.0
 11
22.017414
 21
24.508394
 31
0.0
  0
ENDBLK
  5
F0E
100
AcDbEntity
  8
0
100
AcDbBlockEnd
  0
BLOCK
  5
F9E
100
AcDbEntity
  8
0
100
AcDbBlockBegin
  2
*X7
 70
     1
 10
0.0
 20
0.0
 30
0.0
  3
*X7
  1

  0
LINE
  5
F10
100
AcDbEntity
  8
0
  6
CONTINUOUS
 62
     0
100
AcDbLine
 10
14.989467
 20
20.308874
 30
0.0
 11
15.516193
 21
20.8356
 31
0.0
  0
LINE
  5
F11
100
AcDbEntity
  8
0
  6
CONTINUOUS
 62
     0
100
AcDbLine
 10
14.112517
 20
19.714767
 30
0.0
 11
16.1103
 21
21.71255
 31
0.0
  0
LINE
  5
F12
100
AcDbEntity
  8
0
  6
CONTINUOUS
 62
     0
100
AcDbLine
 10
13.596595
 20
19.481687
 30
0.0
 11
16.34338
 21
22.228473
 31
0.0
  0
LINE
  5
F13
100
AcDbEntity
  8
0
  6
CONTINUOUS
 62
     0
100
AcDbLine
 10
13.174894
 20
19.342829
 30
0.0
 11
16.482238
 21
22.650174
 31
0.0
  0
LINE
  5
F14
100
AcDbEntity
  8
0
  6
CONTINUOUS
 62
     0
100
AcDbLine
 10
12.804844
 20
19.255622
 30
0.0
 11
16.569445
 21
23.020223
 31
0.0
  0
LINE
  5
F15
100
AcDbEntity
  8
0
  6
CONTINUOUS
 62
     0
100
AcDbLine
 10
14.795352
 20
21.528973
 30
0.0
 11
16.622133
 21
23.355754
 31
0.0
  0
LINE
  5
F16
100
AcDbEntity
  8
0
  6
CONTINUOUS
 62
     0
100
AcDbLine
 10
12.469313
 20
19.202934
 30
0.0
 11
14.296095
 21
21.029715
 31
0.0
  0
LINE
  5
F17
100
AcDbEntity
  8
0
  6
CONTINUOUS
 62
     0
100
AcDbLine
 10
15.293536
 20
22.309999
 30
0.0
 11
16.649275
 21
23.665738
 31
0.0
  0
LINE
  5
F18
100
AcDbEntity
  8
0
  6
CONTINUOUS
 62
     0
100
AcDbLine
 10
12.159329
 20
19.175793
 30
0.0
 11
13.515068
 21
20.531532
 31
0.0
  0
LINE
  5
F19
100
AcDbEntity
  8
0
  6
CONTINUOUS
 62
     0
100
AcDbLine
 10
15.479088
 20
22.778394
 30
0.0
 11
16.656273
 21
23.955579
 31
0.0
  0
LINE
  5
F1A
100
AcDbEntity
  8
0
  6
CONTINUOUS
 62
     0
100
AcDbLine
 10
11.869488
 20
19.168795
 30
0.0
 11
13.046674
 21
20.34598
 31
0.0
  0
LINE
  5
F1B
100
AcDbEntity
  8
0
  6
CONTINUOUS
 62
     0
100
AcDbLine
 10
15.580082
 20
23.162231
 30
0.0
 11
16.646682
 21
24.228831
 31
0.0
  0
LINE
  5
F1C
100
AcDbEntity
  8
0
  6
CONTINUOUS
 62
     0
100
AcDbLine
 10
11.596236
 20
19.178385
 30
0.0
 11
12.662836
 21
20.244985
 31
0.0
  0
LINE
  5
F1D
100
AcDbEntity
  8
0
  6
CONTINUOUS
 62
     0
100
AcDbLine
 10
12.654531
 20
20.519523
 30
0.0
 11
13.323223
 21
21.188215
 31
0.0
  0
LINE
  5
F1E
100
AcDbEntity
  8
0
  6
CONTINUOUS
 62
     0
100
AcDbLine
 10
15.634125
 20
23.499117
 30
0.0
 11
16.622986
 21
24.487978
 31
0.0
  0
LINE
  5
F1F
100
AcDbEntity
  8
0
  6
CONTINUOUS
 62
     0
100
AcDbLine
 10
11.33709
 20
19.202082
 30
0.0
 11
12.325951
 21
20.190943
 31
0.0
  0
LINE
  5
F20
100
AcDbEntity
  8
0
  6
CONTINUOUS
 62
     0
100
AcDbLine
 10
12.404347
 20
20.552181
 30
0.0
 11
13.323223
 21
21.471057
 31
0.0
  0
LINE
  5
F21
100
AcDbEntity
  8
0
  6
CONTINUOUS
 62
     0
100
AcDbLine
 10
15.656425
 20
23.804259
 30
0.0
 11
16.586997
 21
24.734832
 31
0.0
  0
LINE
  5
F22
100
AcDbEntity
  8
0
  6
CONTINUOUS
 62
     0
100
AcDbLine
 10
11.090236
 20
19.23807
 30
0.0
 11
12.020808
 21
20.168643
 31
0.0
  0
LINE
  5
F23
100
AcDbEntity
  8
0
  6
CONTINUOUS
 62
     0
100
AcDbLine
 10
12.212553
 20
20.64323
 30
0.0
 11
13.323223
 21
21.7539
 31
0.0
  0
LINE
  5
F24
100
AcDbEntity
  8
0
  6
CONTINUOUS
 62
     0
100
AcDbLine
 10
15.654961
 20
24.085639
 30
0.0
 11
16.540085
 21
24.970762
 31
0.0
  0
LINE
  5
F25
100
AcDbEntity
  8
0
  6
CONTINUOUS
 62
     0
100
AcDbLine
 10
10.854306
 20
19.284983
 30
0.0
 11
11.739429
 21
20.170106
 31
0.0
  0
LINE
  5
F26
100
AcDbEntity
  8
0
  6
CONTINUOUS
 62
     0
100
AcDbLine
 10
12.063213
 20
20.776733
 30
0.0
 11
13.323223
 21
22.036743
 31
0.0
  0
LINE
  5
F27
100
AcDbEntity
  8
0
  6
CONTINUOUS
 62
     0
100
AcDbLine
 10
15.634541
 20
24.34806
 30
0.0
 11
16.483306
 21
25.196826
 31
0.0
  0
LINE
  5
F28
100
AcDbEntity
  8
0
  6
CONTINUOUS
 62
     0
100
AcDbLine
 10
10.628242
 20
19.341761
 30
0.0
 11
11.477007
 21
20.190527
 31
0.0
  0
LINE
  5
F29
100
AcDbEntity
  8
0
  6
CONTINUOUS
 62
     0
100
AcDbLine
 10
11.920447
 20
20.916809
 30
0.0
 11
13.323223
 21
22.319586
 31
0.0
  0
LINE
  5
F2A
100
AcDbEntity
  8
0
  6
CONTINUOUS
 62
     0
100
AcDbLine
 10
15.598315
 20
24.594678
 30
0.0
 11
16.417496
 21
25.413858
 31
0.0
  0
LINE
  5
F2B
100
AcDbEntity
  8
0
  6
CONTINUOUS
 62
     0
100
AcDbLine
 10
10.411209
 20
19.407572
 30
0.0
 11
11.23039
 21
20.226752
 31
0.0
  0
LINE
  5
F2C
100
AcDbEntity
  8
0
  6
CONTINUOUS
 62
     0
100
AcDbLine
 10
11.77768
 20
21.056886
 30
0.0
 11
13.323223
 21
22.602428
 31
0.0
  0
LINE
  5
F2D
100
AcDbEntity
  8
0
  6
CONTINUOUS
 62
     0
100
AcDbLine
 10
15.548478
 20
24.827684
 30
0.0
 11
16.343321
 21
25.622526
 31
0.0
  0
LINE
  5
F2E
100
AcDbEntity
  8
0
  6
CONTINUOUS
 62
     0
100
AcDbLine
 10
10.202541
 20
19.481747
 30
0.0
 11
10.997384
 21
20.276589
 31
0.0
  0
LINE
  5
F2F
100
AcDbEntity
  8
0
  6
CONTINUOUS
 62
     0
100
AcDbLine
 10
12.362923
 20
21.924971
 30
0.0
 11
13.323223
 21
22.885271
 31
0.0
  0
LINE
  5
F30
100
AcDbEntity
  8
0
  6
CONTINUOUS
 62
     0
100
AcDbLine
 10
11.634914
 20
21.196962
 30
0.0
 11
12.307877
 21
21.869925
 31
0.0
  0
LINE
  5
F31
100
AcDbEntity
  8
0
  6
CONTINUOUS
 62
     0
100
AcDbLine
 10
15.486619
 20
25.048667
 30
0.0
 11
16.261321
 21
25.823369
 31
0.0
  0
LINE
  5
F32
100
AcDbEntity
  8
0
  6
CONTINUOUS
 62
     0
100
AcDbLine
 10
10.001699
 20
19.563747
 30
0.0
 11
10.776401
 21
20.338449
 31
0.0
  0
LINE
  5
F33
100
AcDbEntity
  8
0
  6
CONTINUOUS
 62
     0
100
AcDbLine
 10
12.362923
 20
22.207814
 30
0.0
 11
13.323223
 21
23.168114
 31
0.0
  0
LINE
  5
F34
100
AcDbEntity
  8
0
  6
CONTINUOUS
 62
     0
100
AcDbLine
 10
11.492148
 20
21.337039
 30
0.0
 11
12.172228
 21
22.017119
 31
0.0
  0
LINE
  5
F35
100
AcDbEntity
  8
0
  6
CONTINUOUS
 62
     0
100
AcDbLine
 10
15.41392
 20
25.258811
 30
0.0
 11
16.171934
 21
26.016825
 31
0.0
  0
LINE
  5
F36
100
AcDbEntity
  8
0
  6
CONTINUOUS
 62
     0
100
AcDbLine
 10
9.808243
 20
19.653134
 30
0.0
 11
10.566257
 21
20.411147
 31
0.0
  0
LINE
  5
F37
100
AcDbEntity
  8
0
  6
CONTINUOUS
 62
     0
100
AcDbLine
 10
12.362923
 20
22.490656
 30
0.0
 11
13.323223
 21
23.450956
 31
0.0
  0
LINE
  5
F38
100
AcDbEntity
  8
0
  6
CONTINUOUS
 62
     0
100
AcDbLine
 10
14.38066
 20
24.508394
 30
0.0
 11
14.903943
 21
25.031677
 31
0.0
  0
LINE
  5
F39
100
AcDbEntity
  8
0
  6
CONTINUOUS
 62
     0
100
AcDbLine
 10
11.349382
 20
21.477115
 30
0.0
 11
12.03658
 21
22.164313
 31
0.0
  0
LINE
  5
F3A
100
AcDbEntity
  8
0
  6
CONTINUOUS
 62
     0
100
AcDbLine
 10
15.331283
 20
25.459017
 30
0.0
 11
16.075518
 21
26.203251
 31
0.0
  0
LINE
  5
F3B
100
AcDbEntity
  8
0
  6
CONTINUOUS
 62
     0
100
AcDbLine
 10
9.621817
 20
19.74955
 30
0.0
 11
10.366051
 21
20.493784
 31
0.0
  0
LINE
  5
F3C
100
AcDbEntity
  8
0
  6
CONTINUOUS
 62
     0
100
AcDbLine
 10
12.362923
 20
22.773499
 30
0.0
 11
13.323223
 21
23.733799
 31
0.0
  0
LINE
  5
F3D
100
AcDbEntity
  8
0
  6
CONTINUOUS
 62
     0
100
AcDbLine
 10
14.097817
 20
24.508394
 30
0.0
 11
14.840413
 21
25.25099
 31
0.0
  0
LINE
  5
F3E
100
AcDbEntity
  8
0
  6
CONTINUOUS
 62
     0
100
AcDbLine
 10
11.206616
 20
21.617192
 30
0.0
 11
11.900931
 21
22.311507
 31
0.0
  0
LINE
  5
F3F
100
AcDbEntity
  8
0
  6
CONTINUOUS
 62
     0
100
AcDbLine
 10
15.2394
 20
25.649976
 30
0.0
 11
15.972362
 21
26.382939
 31
0.0
  0
LINE
  5
F40
100
AcDbEntity
  8
0
  6
CONTINUOUS
 62
     0
100
AcDbLine
 10
9.442129
 20
19.852705
 30
0.0
 11
10.175091
 21
20.585668
 31
0.0
  0
LINE
  5
F41
100
AcDbEntity
  8
0
  6
CONTINUOUS
 62
     0
100
AcDbLine
 10
12.362923
 20
23.056342
 30
0.0
 11
13.323223
 21
24.016642
 31
0.0
  0
LINE
  5
F42
100
AcDbEntity
  8
0
  6
CONTINUOUS
 62
     0
100
AcDbLine
 10
13.814975
 20
24.508394
 30
0.0
 11
14.709087
 21
25.402506
 31
0.0
  0
LINE
  5
F43
100
AcDbEntity
  8
0
  6
CONTINUOUS
 62
     0
100
AcDbLine
 10
11.063849
 20
21.757268
 30
0.0
 11
11.765282
 21
22.458701
 31
0.0
  0
LINE
  5
F44
100
AcDbEntity
  8
0
  6
CONTINUOUS
 62
     0
100
AcDbLine
 10
15.138805
 20
25.832223
 30
0.0
 11
15.862703
 21
26.556122
 31
0.0
  0
LINE
  5
F45
100
AcDbEntity
  8
0
  6
CONTINUOUS
 62
     0
100
AcDbLine
 10
9.268945
 20
19.962364
 30
0.0
 11
9.992844
 21
20.686263
 31
0.0
  0
LINE
  5
F46
100
AcDbEntity
  8
0
  6
CONTINUOUS
 62
     0
100
AcDbLine
 10
12.362923
 20
23.339185
 30
0.0
 11
13.323223
 21
24.299485
 31
0.0
  0
LINE
  5
F47
100
AcDbEntity
  8
0
  6
CONTINUOUS
 62
     0
100
AcDbLine
 10
13.532132
 20
24.508394
 30
0.0
 11
14.516893
 21
25.493154
 31
0.0
  0
LINE
  5
F48
100
AcDbEntity
  8
0
  6
CONTINUOUS
 62
     0
100
AcDbLine
 10
10.921083
 20
21.897345
 30
0.0
 11
11.629634
 21
22.605895
 31
0.0
  0
LINE
  5
F49
100
AcDbEntity
  8
0
  6
CONTINUOUS
 62
     0
100
AcDbLine
 10
15.029907
 20
26.006168
 30
0.0
 11
15.746727
 21
26.722988
 31
0.0
  0
LINE
  5
F4A
100
AcDbEntity
  8
0
  6
CONTINUOUS
 62
     0
100
AcDbLine
 10
9.102079
 20
20.078341
 30
0.0
 11
9.818899
 21
20.795161
 31
0.0
  0
LINE
  5
F4B
100
AcDbEntity
  8
0
  6
CONTINUOUS
 62
     0
100
AcDbLine
 10
12.362923
 20
23.622027
 30
0.0
 11
14.244239
 21
25.503344
 31
0.0
  0
LINE
  5
F4C
100
AcDbEntity
  8
0
  6
CONTINUOUS
 62
     0
100
AcDbLine
 10
10.778317
 20
22.037421
 30
0.0
 11
11.493985
 21
22.753089
 31
0.0
  0
LINE
  5
F4D
100
AcDbEntity
  8
0
  6
CONTINUOUS
 62
     0
100
AcDbLine
 10
14.913014
 20
26.172119
 30
0.0
 11
15.624577
 21
26.883681
 31
0.0
  0
LINE
  5
F4E
100
AcDbEntity
  8
0
  6
CONTINUOUS
 62
     0
100
AcDbLine
 10
8.941386
 20
20.200491
 30
0.0
 11
9.652949
 21
20.912053
 31
0.0
  0
LINE
  5
F4F
100
AcDbEntity
  8
0
  6
CONTINUOUS
 62
     0
100
AcDbLine
 10
12.362923
 20
23.90487
 30
0.0
 11
13.961397
 21
25.503344
 31
0.0
  0
LINE
  5
F50
100
AcDbEntity
  8
0
  6
CONTINUOUS
 62
     0
100
AcDbLine
 10
10.635551
 20
22.177498
 30
0.0
 11
11.358336
 21
22.900283
 31
0.0
  0
LINE
  5
F51
100
AcDbEntity
  8
0
  6
CONTINUOUS
 62
     0
100
AcDbLine
 10
14.78835
 20
26.330297
 30
0.0
 11
15.49636
 21
27.038307
 31
0.0
  0
LINE
  5
F52
100
AcDbEntity
  8
0
  6
CONTINUOUS
 62
     0
100
AcDbLine
 10
8.78676
 20
20.328707
 30
0.0
 11
9.494771
 21
21.036718
 31
0.0
  0
LINE
  5
F53
100
AcDbEntity
  8
0
  6
CONTINUOUS
 62
     0
100
AcDbLine
 10
12.362923
 20
24.187713
 30
0.0
 11
13.678554
 21
25.503344
 31
0.0
  0
LINE
  5
F54
100
AcDbEntity
  8
0
  6
CONTINUOUS
 62
     0
100
AcDbLine
 10
10.492785
 20
22.317574
 30
0.0
 11
11.222688
 21
23.047477
 31
0.0
  0
LINE
  5
F55
100
AcDbEntity
  8
0
  6
CONTINUOUS
 62
     0
100
AcDbLine
 10
14.65606
 20
26.48085
 30
0.0
 11
15.362148
 21
27.186938
 31
0.0
  0
LINE
  5
F56
100
AcDbEntity
  8
0
  6
CONTINUOUS
 62
     0
100
AcDbLine
 10
8.63813
 20
20.462919
 30
0.0
 11
9.344218
 21
21.169008
 31
0.0
  0
LINE
  5
F57
100
AcDbEntity
  8
0
  6
CONTINUOUS
 62
     0
100
AcDbLine
 10
12.362923
 20
24.470555
 30
0.0
 11
13.395711
 21
25.503344
 31
0.0
  0
LINE
  5
F58
100
AcDbEntity
  8
0
  6
CONTINUOUS
 62
     0
100
AcDbLine
 10
10.350018
 20
22.457651
 30
0.0
 11
11.087039
 21
23.194672
 31
0.0
  0
LINE
  5
F59
100
AcDbEntity
  8
0
  6
CONTINUOUS
 62
     0
100
AcDbLine
 10
14.516224
 20
26.623856
 30
0.0
 11
15.221979
 21
27.329612
 31
0.0
  0
LINE
  5
F5A
100
AcDbEntity
  8
0
  6
CONTINUOUS
 62
     0
100
AcDbLine
 10
8.495456
 20
20.603088
 30
0.0
 11
9.201211
 21
21.308844
 31
0.0
  0
LINE
  5
F5B
100
AcDbEntity
  8
0
  6
CONTINUOUS
 62
     0
100
AcDbLine
 10
11.020368
 20
23.410844
 30
0.0
 11
11.413873
 21
23.804348
 31
0.0
  0
LINE
  5
F5C
100
AcDbEntity
  8
0
  6
CONTINUOUS
 62
     0
100
AcDbLine
 10
12.362923
 20
24.753398
 30
0.0
 11
13.323223
 21
25.713698
 31
0.0
  0
LINE
  5
F5D
100
AcDbEntity
  8
0
  6
CONTINUOUS
 62
     0
100
AcDbLine
 10
10.207252
 20
22.597727
 30
0.0
 11
10.951391
 21
23.341866
 31
0.0
  0
LINE
  5
F5E
100
AcDbEntity
  8
0
  6
CONTINUOUS
 62
     0
100
AcDbLine
 10
14.368854
 20
26.75933
 30
0.0
 11
15.07586
 21
27.466336
 31
0.0
  0
LINE
  5
F5F
100
AcDbEntity
  8
0
  6
CONTINUOUS
 62
     0
100
AcDbLine
 10
8.358732
 20
20.749207
 30
0.0
 11
9.065738
 21
21.456213
 31
0.0
  0
LINE
  5
F60
100
AcDbEntity
  8
0
  6
CONTINUOUS
 62
     0
100
AcDbLine
 10
12.362923
 20
25.036241
 30
0.0
 11
13.323223
 21
25.996541
 31
0.0
  0
LINE
  5
F61
100
AcDbEntity
  8
0
  6
CONTINUOUS
 62
     0
100
AcDbLine
 10
10.064486
 20
22.737804
 30
0.0
 11
11.413873
 21
24.087191
 31
0.0
  0
LINE
  5
F62
100
AcDbEntity
  8
0
  6
CONTINUOUS
 62
     0
100
AcDbLine
 10
14.213901
 20
26.887219
 30
0.0
 11
14.923766
 21
27.597084
 31
0.0
  0
LINE
  5
F63
100
AcDbEntity
  8
0
  6
CONTINUOUS
 62
     0
100
AcDbLine
 10
8.227983
 20
20.901301
 30
0.0
 11
8.937848
 21
21.611166
 31
0.0
  0
LINE
  5
F64
100
AcDbEntity
  8
0
  6
CONTINUOUS
 62
     0
100
AcDbLine
 10
12.362923
 20
25.319084
 30
0.0
 11
13.323223
 21
26.279384
 31
0.0
  0
LINE
  5
F65
100
AcDbEntity
  8
0
  6
CONTINUOUS
 62
     0
100
AcDbLine
 10
9.92172
 20
22.87788
 30
0.0
 11
11.413873
 21
24.370034
 31
0.0
  0
LINE
  5
F66
100
AcDbEntity
  8
0
  6
CONTINUOUS
 62
     0
100
AcDbLine
 10
14.051246
 20
27.007407
 30
0.0
 11
14.76564
 21
27.7218
 31
0.0
  0
LINE
  5
F67
100
AcDbEntity
  8
0
  6
CONTINUOUS
 62
     0
100
AcDbLine
 10
8.103267
 20
21.059428
 30
0.0
 11
8.81766
 21
21.773821
 31
0.0
  0
LINE
  5
F68
100
AcDbEntity
  8
0
  6
CONTINUOUS
 62
     0
100
AcDbLine
 10
12.362923
 20
25.601926
 30
0.0
 11
13.323223
 21
26.562226
 31
0.0
  0
LINE
  5
F69
100
AcDbEntity
  8
0
  6
CONTINUOUS
 62
     0
100
AcDbLine
 10
9.778954
 20
23.017957
 30
0.0
 11
11.413873
 21
24.652876
 31
0.0
  0
LINE
  5
F6A
100
AcDbEntity
  8
0
  6
CONTINUOUS
 62
     0
100
AcDbLine
 10
13.880701
 20
27.119704
 30
0.0
 11
14.601389
 21
27.840392
 31
0.0
  0
LINE
  5
F6B
100
AcDbEntity
  8
0
  6
CONTINUOUS
 62
     0
100
AcDbLine
 10
7.984675
 20
21.223678
 30
0.0
 11
8.705364
 21
21.944367
 31
0.0
  0
LINE
  5
F6C
100
AcDbEntity
  8
0
  6
CONTINUOUS
 62
     0
100
AcDbLine
 10
12.362923
 20
25.884769
 30
0.0
 11
13.323223
 21
26.845069
 31
0.0
  0
LINE
  5
F6D
100
AcDbEntity
  8
0
  6
CONTINUOUS
 62
     0
100
AcDbLine
 10
9.636187
 20
23.158033
 30
0.0
 11
11.413873
 21
24.935719
 31
0.0
  0
LINE
  5
F6E
100
AcDbEntity
  8
0
  6
CONTINUOUS
 62
     0
100
AcDbLine
 10
13.701993
 20
27.223839
 30
0.0
 11
14.430886
 21
27.952732
 31
0.0
  0
LINE
  5
F6F
100
AcDbEntity
  8
0
  6
CONTINUOUS
 62
     0
100
AcDbLine
 10
7.872335
 20
21.394181
 30
0.0
 11
8.601228
 21
22.123074
 31
0.0
  0
LINE
  5
F70
100
AcDbEntity
  8
0
  6
CONTINUOUS
 62
     0
100
AcDbLine
 10
12.362923
 20
26.167612
 30
0.0
 11
13.323223
 21
27.127912
 31
0.0
  0
LINE
  5
F71
100
AcDbEntity
  8
0
  6
CONTINUOUS
 62
     0
100
AcDbLine
 10
9.493421
 20
23.29811
 30
0.0
 11
11.413873
 21
25.218562
 31
0.0
  0
LINE
  5
F72
100
AcDbEntity
  8
0
  6
CONTINUOUS
 62
     0
100
AcDbLine
 10
13.51476
 20
27.319448
 30
0.0
 11
14.253964
 21
28.058653
 31
0.0
  0
LINE
  5
F73
100
AcDbEntity
  8
0
  6
CONTINUOUS
 62
     0
100
AcDbLine
 10
7.766415
 20
21.571104
 30
0.0
 11
8.505619
 21
22.310308
 31
0.0
  0
LINE
  5
F74
100
AcDbEntity
  8
0
  6
CONTINUOUS
 62
     0
100
AcDbLine
 10
10.464823
 20
24.552354
 30
0.0
 11
11.413873
 21
25.501404
 31
0.0
  0
LINE
  5
F75
100
AcDbEntity
  8
0
  6
CONTINUOUS
 62
     0
100
AcDbLine
 10
9.323312
 20
23.410844
 30
0.0
 11
10.341212
 21
24.428744
 31
0.0
  0
LINE
  5
F76
100
AcDbEntity
  8
0
  6
CONTINUOUS
 62
     0
100
AcDbLine
 10
12.362923
 20
26.450454
 30
0.0
 11
14.070408
 21
28.157939
 31
0.0
  0
LINE
  5
F77
100
AcDbEntity
  8
0
  6
CONTINUOUS
 62
     0
100
AcDbLine
 10
7.667128
 20
21.75466
 30
0.0
 11
8.419014
 21
22.506545
 31
0.0
  0
LINE
  5
F78
100
AcDbEntity
  8
0
  6
CONTINUOUS
 62
     0
100
AcDbLine
 10
10.464823
 20
24.835197
 30
0.0
 11
11.413873
 21
25.784247
 31
0.0
  0
LINE
  5
F79
100
AcDbEntity
  8
0
  6
CONTINUOUS
 62
     0
100
AcDbLine
 10
9.040469
 20
23.410844
 30
0.0
 11
10.058369
 21
24.428744
 31
0.0
  0
LINE
  5
F7A
100
AcDbEntity
  8
0
  6
CONTINUOUS
 62
     0
100
AcDbLine
 10
12.362923
 20
26.733297
 30
0.0
 11
13.879952
 21
28.250326
 31
0.0
  0
LINE
  5
F7B
100
AcDbEntity
  8
0
  6
CONTINUOUS
 62
     0
100
AcDbLine
 10
7.574741
 20
21.945116
 30
0.0
 11
8.342034
 21
22.712408
 31
0.0
  0
LINE
  5
F7C
100
AcDbEntity
  8
0
  6
CONTINUOUS
 62
     0
100
AcDbLine
 10
10.464823
 20
25.11804
 30
0.0
 11
11.413873
 21
26.06709
 31
0.0
  0
LINE
  5
F7D
100
AcDbEntity
  8
0
  6
CONTINUOUS
 62
     0
100
AcDbLine
 10
8.757627
 20
23.410844
 30
0.0
 11
9.775527
 21
24.428744
 31
0.0
  0
LINE
  5
F7E
100
AcDbEntity
  8
0
  6
CONTINUOUS
 62
     0
100
AcDbLine
 10
12.362923
 20
27.01614
 30
0.0
 11
13.682269
 21
28.335486
 31
0.0
  0
LINE
  5
F7F
100
AcDbEntity
  8
0
  6
CONTINUOUS
 62
     0
100
AcDbLine
 10
7.489582
 20
22.142799
 30
0.0
 11
8.275484
 21
22.928701
 31
0.0
  0
LINE
  5
F80
100
AcDbEntity
  8
0
  6
CONTINUOUS
 62
     0
100
AcDbLine
 10
10.464823
 20
25.400883
 30
0.0
 11
11.413873
 21
26.349933
 31
0.0
  0
LINE
  5
F81
100
AcDbEntity
  8
0
  6
CONTINUOUS
 62
     0
100
AcDbLine
 10
8.474784
 20
23.410844
 30
0.0
 11
9.492684
 21
24.428744
 31
0.0
  0
LINE
  5
F82
100
AcDbEntity
  8
0
  6
CONTINUOUS
 62
     0
100
AcDbLine
 10
12.362923
 20
27.298983
 30
0.0
 11
13.476956
 21
28.413016
 31
0.0
  0
LINE
  5
F83
100
AcDbEntity
  8
0
  6
CONTINUOUS
 62
     0
100
AcDbLine
 10
7.412052
 20
22.348111
 30
0.0
 11
8.220417
 21
23.156477
 31
0.0
  0
LINE
  5
F84
100
AcDbEntity
  8
0
  6
CONTINUOUS
 62
     0
100
AcDbLine
 10
10.464823
 20
25.683725
 30
0.0
 11
11.413873
 21
26.632775
 31
0.0
  0
LINE
  5
F85
100
AcDbEntity
  8
0
  6
CONTINUOUS
 62
     0
100
AcDbLine
 10
8.191941
 20
23.410844
 30
0.0
 11
9.209841
 21
24.428744
 31
0.0
  0
LINE
  5
F86
100
AcDbEntity
  8
0
  6
CONTINUOUS
 62
     0
100
AcDbLine
 10
12.362923
 20
27.581825
 30
0.0
 11
13.26352
 21
28.482423
 31
0.0
  0
LINE
  5
F87
100
AcDbEntity
  8
0
  6
CONTINUOUS
 62
     0
100
AcDbLine
 10
7.342645
 20
22.561547
 30
0.0
 11
8.178233
 21
23.397136
 31
0.0
  0
LINE
  5
F88
100
AcDbEntity
  8
0
  6
CONTINUOUS
 62
     0
100
AcDbLine
 10
10.464823
 20
25.966568
 30
0.0
 11
11.413873
 21
26.915618
 31
0.0
  0
LINE
  5
F89
100
AcDbEntity
  8
0
  6
CONTINUOUS
 62
     0
100
AcDbLine
 10
12.172484
 20
27.674229
 30
0.0
 11
13.041351
 21
28.543096
 31
0.0
  0
LINE
  5
F8A
100
AcDbEntity
  8
0
  6
CONTINUOUS
 62
     0
100
AcDbLine
 10
7.281971
 20
22.783716
 30
0.0
 11
8.926999
 21
24.428744
 31
0.0
  0
LINE
  5
F8B
100
AcDbEntity
  8
0
  6
CONTINUOUS
 62
     0
100
AcDbLine
 10
10.464823
 20
26.249411
 30
0.0
 11
11.413873
 21
27.198461
 31
0.0
  0
LINE
  5
F8C
100
AcDbEntity
  8
0
  6
CONTINUOUS
 62
     0
100
AcDbLine
 10
11.899556
 20
27.684144
 30
0.0
 11
12.809691
 21
28.594279
 31
0.0
  0
LINE
  5
F8D
100
AcDbEntity
  8
0
  6
CONTINUOUS
 62
     0
100
AcDbLine
 10
7.230788
 20
23.015376
 30
0.0
 11
8.644156
 21
24.428744
 31
0.0
  0
LINE
  5
F8E
100
AcDbEntity
  8
0
  6
CONTINUOUS
 62
     0
100
AcDbLine
 10
10.464823
 20
26.532253
 30
0.0
 11
11.413873
 21
27.481303
 31
0.0
  0
LINE
  5
F8F
100
AcDbEntity
  8
0
  6
CONTINUOUS
 62
     0
100
AcDbLine
 10
11.605159
 20
27.672589
 30
0.0
 11
12.567584
 21
28.635015
 31
0.0
  0
LINE
  5
F90
100
AcDbEntity
  8
0
  6
CONTINUOUS
 62
     0
100
AcDbLine
 10
7.190052
 20
23.257483
 30
0.0
 11
8.361313
 21
24.428744
 31
0.0
  0
LINE
  5
F91
100
AcDbEntity
  8
0
  6
CONTINUOUS
 62
     0
100
AcDbLine
 10
10.464823
 20
26.815096
 30
0.0
 11
12.313807
 21
28.66408
 31
0.0
  0
LINE
  5
F92
100
AcDbEntity
  8
0
  6
CONTINUOUS
 62
     0
100
AcDbLine
 10
7.160988
 20
23.511261
 30
0.0
 11
8.191864
 21
24.542137
 31
0.0
  0
LINE
  5
F93
100
AcDbEntity
  8
0
  6
CONTINUOUS
 62
     0
100
AcDbLine
 10
10.464823
 20
27.097939
 30
0.0
 11
12.046753
 21
28.679869
 31
0.0
  0
LINE
  5
F94
100
AcDbEntity
  8
0
  6
CONTINUOUS
 62
     0
100
AcDbLine
 10
7.145198
 20
23.778314
 30
0.0
 11
8.270421
 21
24.903537
 31
0.0
  0
LINE
  5
F95
100
AcDbEntity
  8
0
  6
CONTINUOUS
 62
     0
100
AcDbLine
 10
10.464823
 20
27.380782
 30
0.0
 11
11.764259
 21
28.680217
 31
0.0
  0
LINE
  5
F96
100
AcDbEntity
  8
0
  6
CONTINUOUS
 62
     0
100
AcDbLine
 10
7.14485
 20
24.060809
 30
0.0
 11
8.412672
 21
25.328631
 31
0.0
  0
LINE
  5
F97
100
AcDbEntity
  8
0
  6
CONTINUOUS
 62
     0
100
AcDbLine
 10
9.92464
 20
27.123441
 30
0.0
 11
11.463286
 21
28.662087
 31
0.0
  0
LINE
  5
F98
100
AcDbEntity
  8
0
  6
CONTINUOUS
 62
     0
100
AcDbLine
 10
7.16298
 20
24.361781
 30
0.0
 11
8.701626
 21
25.900428
 31
0.0
  0
LINE
  5
F99
100
AcDbEntity
  8
0
  6
CONTINUOUS
 62
     0
100
AcDbLine
 10
7.204078
 20
24.685722
 30
0.0
 11
11.139345
 21
28.620989
 31
0.0
  0
LINE
  5
F9A
100
AcDbEntity
  8
0
  6
CONTINUOUS
 62
     0
100
AcDbLine
 10
7.275296
 20
25.039783
 30
0.0
 11
10.785285
 21
28.549771
 31
0.0
  0
LINE
  5
F9B
100
AcDbEntity
  8
0
  6
CONTINUOUS
 62
     0
100
AcDbLine
 10
7.389393
 20
25.436722
 30
0.0
 11
10.388345
 21
28.435675
 31
0.0
  0
LINE
  5
F9C
100
AcDbEntity
  8
0
  6
CONTINUOUS
 62
     0
100
AcDbLine
 10
7.574054
 20
25.904226
 30
0.0
 11
9.920841
 21
28.251013
 31
0.0
  0
LINE
  5
F9D
100
AcDbEntity
  8
0
  6
CONTINUOUS
 62
     0
100
AcDbLine
 10
7.923915
 20
26.53693
 30
0.0
 11
9.288138
 21
27.901153
 31
0.0
  0
ENDBLK
  5
F9F
100
AcDbEntity
  8
0
100
AcDbBlockEnd
  0
BLOCK
  5
FBE
100
AcDbEntity
  8
0
100
AcDbBlockBegin
  2
*X8
 70
     1
 10
0.0
 20
0.0
 30
0.0
  3
*X8
  1

  0
LINE
  5
FA1
100
AcDbEntity
  8
0
  6
CONTINUOUS
 62
     0
100
AcDbLine
 10
20.403855
 20
20.632094
 30
0.0
 11
20.470123
 21
20.698361
 31
0.0
  0
LINE
  5
FA2
100
AcDbEntity
  8
0
  6
CONTINUOUS
 62
     0
100
AcDbLine
 10
20.121013
 20
20.632094
 30
0.0
 11
20.470123
 21
20.981204
 31
0.0
  0
LINE
  5
FA3
100
AcDbEntity
  8
0
  6
CONTINUOUS
 62
     0
100
AcDbLine
 10
19.83817
 20
20.632094
 30
0.0
 11
20.470123
 21
21.264047
 31
0.0
  0
LINE
  5
FA4
100
AcDbEntity
  8
0
  6
CONTINUOUS
 62
     0
100
AcDbLine
 10
19.555327
 20
20.632094
 30
0.0
 11
20.470123
 21
21.546889
 31
0.0
  0
LINE
  5
FA5
100
AcDbEntity
  8
0
  6
CONTINUOUS
 62
     0
100
AcDbLine
 10
19.272484
 20
20.632094
 30
0.0
 11
20.470123
 21
21.829732
 31
0.0
  0
LINE
  5
FA6
100
AcDbEntity
  8
0
  6
CONTINUOUS
 62
     0
100
AcDbLine
 10
18.989642
 20
20.632094
 30
0.0
 11
20.470123
 21
22.112575
 31
0.0
  0
LINE
  5
FA7
100
AcDbEntity
  8
0
  6
CONTINUOUS
 62
     0
100
AcDbLine
 10
18.706799
 20
20.632094
 30
0.0
 11
20.470123
 21
22.395418
 31
0.0
  0
LINE
  5
FA8
100
AcDbEntity
  8
0
  6
CONTINUOUS
 62
     0
100
AcDbLine
 10
18.674623
 20
20.88276
 30
0.0
 11
20.470123
 21
22.67826
 31
0.0
  0
LINE
  5
FA9
100
AcDbEntity
  8
0
  6
CONTINUOUS
 62
     0
100
AcDbLine
 10
20.919864
 20
23.410844
 30
0.0
 11
21.087523
 21
23.578503
 31
0.0
  0
LINE
  5
FAA
100
AcDbEntity
  8
0
  6
CONTINUOUS
 62
     0
100
AcDbLine
 10
18.674623
 20
21.165603
 30
0.0
 11
20.470123
 21
22.961103
 31
0.0
  0
LINE
  5
FAB
100
AcDbEntity
  8
0
  6
CONTINUOUS
 62
     0
100
AcDbLine
 10
20.637021
 20
23.410844
 30
0.0
 11
21.087523
 21
23.861346
 31
0.0
  0
LINE
  5
FAC
100
AcDbEntity
  8
0
  6
CONTINUOUS
 62
     0
100
AcDbLine
 10
18.674623
 20
21.448446
 30
0.0
 11
20.470123
 21
23.243946
 31
0.0
  0
LINE
  5
FAD
100
AcDbEntity
  8
0
  6
CONTINUOUS
 62
     0
100
AcDbLine
 10
18.674623
 20
21.731288
 30
0.0
 11
21.087523
 21
24.144188
 31
0.0
  0
LINE
  5
FAE
100
AcDbEntity
  8
0
  6
CONTINUOUS
 62
     0
100
AcDbLine
 10
18.674623
 20
22.014131
 30
0.0
 11
21.087523
 21
24.427031
 31
0.0
  0
LINE
  5
FAF
100
AcDbEntity
  8
0
  6
CONTINUOUS
 62
     0
100
AcDbLine
 10
18.674623
 20
22.296974
 30
0.0
 11
20.886043
 21
24.508394
 31
0.0
  0
LINE
  5
FB0
100
AcDbEntity
  8
0
  6
CONTINUOUS
 62
     0
100
AcDbLine
 10
21.02665
 20
24.931844
 30
0.0
 11
21.087523
 21
24.992717
 31
0.0
  0
LINE
  5
FB1
100
AcDbEntity
  8
0
  6
CONTINUOUS
 62
     0
100
AcDbLine
 10
18.674623
 20
22.579817
 30
0.0
 11
20.6032
 21
24.508394
 31
0.0
  0
LINE
  5
FB2
100
AcDbEntity
  8
0
  6
CONTINUOUS
 62
     0
100
AcDbLine
 10
20.743807
 20
24.931844
 30
0.0
 11
21.087523
 21
25.275559
 31
0.0
  0
LINE
  5
FB3
100
AcDbEntity
  8
0
  6
CONTINUOUS
 62
     0
100
AcDbLine
 10
18.674623
 20
22.862659
 30
0.0
 11
20.433977
 21
24.622013
 31
0.0
  0
LINE
  5
FB4
100
AcDbEntity
  8
0
  6
CONTINUOUS
 62
     0
100
AcDbLine
 10
18.674623
 20
23.145502
 30
0.0
 11
21.087523
 21
25.558402
 31
0.0
  0
LINE
  5
FB5
100
AcDbEntity
  8
0
  6
CONTINUOUS
 62
     0
100
AcDbLine
 10
18.657122
 20
23.410844
 30
0.0
 11
21.081272
 21
25.834994
 31
0.0
  0
LINE
  5
FB6
100
AcDbEntity
  8
0
  6
CONTINUOUS
 62
     0
100
AcDbLine
 10
18.374279
 20
23.410844
 30
0.0
 11
20.798429
 21
25.834994
 31
0.0
  0
LINE
  5
FB7
100
AcDbEntity
  8
0
  6
CONTINUOUS
 62
     0
100
AcDbLine
 10
18.137323
 20
23.45673
 30
0.0
 11
20.515586
 21
25.834994
 31
0.0
  0
LINE
  5
FB8
100
AcDbEntity
  8
0
  6
CONTINUOUS
 62
     0
100
AcDbLine
 10
18.137323
 20
23.739573
 30
0.0
 11
20.232744
 21
25.834994
 31
0.0
  0
LINE
  5
FB9
100
AcDbEntity
  8
0
  6
CONTINUOUS
 62
     0
100
AcDbLine
 10
18.674623
 20
24.559716
 30
0.0
 11
19.949901
 21
25.834994
 31
0.0
  0
LINE
  5
FBA
100
AcDbEntity
  8
0
  6
CONTINUOUS
 62
     0
100
AcDbLine
 10
18.137323
 20
24.022416
 30
0.0
 11
18.623301
 21
24.508394
 31
0.0
  0
LINE
  5
FBB
100
AcDbEntity
  8
0
  6
CONTINUOUS
 62
     0
100
AcDbLine
 10
18.674623
 20
24.842558
 30
0.0
 11
19.667058
 21
25.834994
 31
0.0
  0
LINE
  5
FBC
100
AcDbEntity
  8
0
  6
CONTINUOUS
 62
     0
100
AcDbLine
 10
18.137323
 20
24.305258
 30
0.0
 11
18.340458
 21
24.508394
 31
0.0
  0
LINE
  5
FBD
100
AcDbEntity
  8
0
  6
CONTINUOUS
 62
     0
100
AcDbLine
 10
18.702805
 20
25.153583
 30
0.0
 11
19.356077
 21
25.806855
 31
0.0
  0
ENDBLK
  5
FBF
100
AcDbEntity
  8
0
100
AcDbBlockEnd
  0
BLOCK
  5
FED
100
AcDbEntity
  8
0
100
AcDbBlockBegin
  2
*X9
 70
     1
 10
0.0
 20
0.0
 30
0.0
  3
*X9
  1

  0
LINE
  5
FC1
100
AcDbEntity
  8
0
  6
CONTINUOUS
 62
     0
100
AcDbLine
 10
35.948955
 20
20.620844
 30
0.0
 11
35.986573
 21
20.658462
 31
0.0
  0
LINE
  5
FC2
100
AcDbEntity
  8
0
  6
CONTINUOUS
 62
     0
100
AcDbLine
 10
35.666112
 20
20.620844
 30
0.0
 11
35.986573
 21
20.941305
 31
0.0
  0
LINE
  5
FC3
100
AcDbEntity
  8
0
  6
CONTINUOUS
 62
     0
100
AcDbLine
 10
35.383269
 20
20.620844
 30
0.0
 11
35.986573
 21
21.224147
 31
0.0
  0
LINE
  5
FC4
100
AcDbEntity
  8
0
  6
CONTINUOUS
 62
     0
100
AcDbLine
 10
35.100427
 20
20.620844
 30
0.0
 11
35.986573
 21
21.50699
 31
0.0
  0
LINE
  5
FC5
100
AcDbEntity
  8
0
  6
CONTINUOUS
 62
     0
100
AcDbLine
 10
34.817584
 20
20.620844
 30
0.0
 11
35.986573
 21
21.789833
 31
0.0
  0
LINE
  5
FC6
100
AcDbEntity
  8
0
  6
CONTINUOUS
 62
     0
100
AcDbLine
 10
34.534741
 20
20.620844
 30
0.0
 11
35.986573
 21
22.072675
 31
0.0
  0
LINE
  5
FC7
100
AcDbEntity
  8
0
  6
CONTINUOUS
 62
     0
100
AcDbLine
 10
34.251898
 20
20.620844
 30
0.0
 11
35.986573
 21
22.355518
 31
0.0
  0
LINE
  5
FC8
100
AcDbEntity
  8
0
  6
CONTINUOUS
 62
     0
100
AcDbLine
 10
34.191523
 20
20.843311
 30
0.0
 11
35.986573
 21
22.638361
 31
0.0
  0
LINE
  5
FC9
100
AcDbEntity
  8
0
  6
CONTINUOUS
 62
     0
100
AcDbLine
 10
33.76931
 20
20.703941
 30
0.0
 11
35.986573
 21
22.921204
 31
0.0
  0
LINE
  5
FCA
100
AcDbEntity
  8
0
  6
CONTINUOUS
 62
     0
100
AcDbLine
 10
33.392366
 20
20.60984
 30
0.0
 11
35.986573
 21
23.204046
 31
0.0
  0
LINE
  5
FCB
100
AcDbEntity
  8
0
  6
CONTINUOUS
 62
     0
100
AcDbLine
 10
33.081013
 20
20.58133
 30
0.0
 11
35.986573
 21
23.486889
 31
0.0
  0
LINE
  5
FCC
100
AcDbEntity
  8
0
  6
CONTINUOUS
 62
     0
100
AcDbLine
 10
32.788122
 20
20.571281
 30
0.0
 11
35.986573
 21
23.769732
 31
0.0
  0
LINE
  5
FCD
100
AcDbEntity
  8
0
  6
CONTINUOUS
 62
     0
100
AcDbLine
 10
32.507524
 20
20.573525
 30
0.0
 11
35.986573
 21
24.052574
 31
0.0
  0
LINE
  5
FCE
100
AcDbEntity
  8
0
  6
CONTINUOUS
 62
     0
100
AcDbLine
 10
34.178814
 20
22.527659
 30
0.0
 11
35.986573
 21
24.335417
 31
0.0
  0
LINE
  5
FCF
100
AcDbEntity
  8
0
  6
CONTINUOUS
 62
     0
100
AcDbLine
 10
32.243083
 20
20.591928
 30
0.0
 11
33.594792
 21
21.943636
 31
0.0
  0
LINE
  5
FD0
100
AcDbEntity
  8
0
  6
CONTINUOUS
 62
     0
100
AcDbLine
 10
34.181643
 20
22.81333
 30
0.0
 11
35.986573
 21
24.61826
 31
0.0
  0
LINE
  5
FD1
100
AcDbEntity
  8
0
  6
CONTINUOUS
 62
     0
100
AcDbLine
 10
32.000516
 20
20.632203
 30
0.0
 11
33.247555
 21
21.879242
 31
0.0
  0
LINE
  5
FD2
100
AcDbEntity
  8
0
  6
CONTINUOUS
 62
     0
100
AcDbLine
 10
34.100287
 20
23.014817
 30
0.0
 11
35.986573
 21
24.901103
 31
0.0
  0
LINE
  5
FD3
100
AcDbEntity
  8
0
  6
CONTINUOUS
 62
     0
100
AcDbLine
 10
31.777522
 20
20.692051
 30
0.0
 11
32.988078
 21
21.902608
 31
0.0
  0
LINE
  5
FD4
100
AcDbEntity
  8
0
  6
CONTINUOUS
 62
     0
100
AcDbLine
 10
33.969461
 20
23.166833
 30
0.0
 11
35.986573
 21
25.183945
 31
0.0
  0
LINE
  5
FD5
100
AcDbEntity
  8
0
  6
CONTINUOUS
 62
     0
100
AcDbLine
 10
31.577357
 20
20.774729
 30
0.0
 11
32.769161
 21
21.966533
 31
0.0
  0
LINE
  5
FD6
100
AcDbEntity
  8
0
  6
CONTINUOUS
 62
     0
100
AcDbLine
 10
33.798691
 20
23.278906
 30
0.0
 11
35.986573
 21
25.466788
 31
0.0
  0
LINE
  5
FD7
100
AcDbEntity
  8
0
  6
CONTINUOUS
 62
     0
100
AcDbLine
 10
31.394628
 20
20.874843
 30
0.0
 11
32.578781
 21
22.058996
 31
0.0
  0
LINE
  5
FD8
100
AcDbEntity
  8
0
  6
CONTINUOUS
 62
     0
100
AcDbLine
 10
33.595067
 20
23.358124
 30
0.0
 11
35.986573
 21
25.749631
 31
0.0
  0
LINE
  5
FD9
100
AcDbEntity
  8
0
  6
CONTINUOUS
 62
     0
100
AcDbLine
 10
31.223131
 20
20.986189
 30
0.0
 11
32.424733
 21
22.187791
 31
0.0
  0
LINE
  5
FDA
100
AcDbEntity
  8
0
  6
CONTINUOUS
 62
     0
100
AcDbLine
 10
33.373037
 20
23.418937
 30
0.0
 11
35.777843
 21
25.823744
 31
0.0
  0
LINE
  5
FDB
100
AcDbEntity
  8
0
  6
CONTINUOUS
 62
     0
100
AcDbLine
 10
31.067037
 20
21.112937
 30
0.0
 11
32.307803
 21
22.353704
 31
0.0
  0
LINE
  5
FDC
100
AcDbEntity
  8
0
  6
CONTINUOUS
 62
     0
100
AcDbLine
 10
33.115995
 20
23.444738
 30
0.0
 11
34.077945
 21
24.406688
 31
0.0
  0
LINE
  5
FDD
100
AcDbEntity
  8
0
  6
CONTINUOUS
 62
     0
100
AcDbLine
 10
34.191523
 20
24.520266
 30
0.0
 11
35.495
 21
25.823744
 31
0.0
  0
LINE
  5
FDE
100
AcDbEntity
  8
0
  6
CONTINUOUS
 62
     0
100
AcDbLine
 10
30.922891
 20
21.251634
 30
0.0
 11
32.233585
 21
22.562329
 31
0.0
  0
LINE
  5
FDF
100
AcDbEntity
  8
0
  6
CONTINUOUS
 62
     0
100
AcDbLine
 10
32.748174
 20
23.35976
 30
0.0
 11
33.885911
 21
24.497497
 31
0.0
  0
LINE
  5
FE0
100
AcDbEntity
  8
0
  6
CONTINUOUS
 62
     0
100
AcDbLine
 10
34.191523
 20
24.803109
 30
0.0
 11
35.212158
 21
25.823744
 31
0.0
  0
LINE
  5
FE1
100
AcDbEntity
  8
0
  6
CONTINUOUS
 62
     0
100
AcDbLine
 10
30.795736
 20
21.407322
 30
0.0
 11
32.266041
 21
22.877627
 31
0.0
  0
LINE
  5
FE2
100
AcDbEntity
  8
0
  6
CONTINUOUS
 62
     0
100
AcDbLine
 10
34.191523
 20
25.085952
 30
0.0
 11
34.929315
 21
25.823744
 31
0.0
  0
LINE
  5
FE3
100
AcDbEntity
  8
0
  6
CONTINUOUS
 62
     0
100
AcDbLine
 10
30.684862
 20
21.579291
 30
0.0
 11
33.65908
 21
24.553509
 31
0.0
  0
LINE
  5
FE4
100
AcDbEntity
  8
0
  6
CONTINUOUS
 62
     0
100
AcDbLine
 10
34.191523
 20
25.368794
 30
0.0
 11
34.646472
 21
25.823744
 31
0.0
  0
LINE
  5
FE5
100
AcDbEntity
  8
0
  6
CONTINUOUS
 62
     0
100
AcDbLine
 10
30.591179
 20
21.76845
 30
0.0
 11
33.418127
 21
24.595399
 31
0.0
  0
LINE
  5
FE6
100
AcDbEntity
  8
0
  6
CONTINUOUS
 62
     0
100
AcDbLine
 10
34.191523
 20
25.651637
 30
0.0
 11
34.363629
 21
25.823744
 31
0.0
  0
LINE
  5
FE7
100
AcDbEntity
  8
0
  6
CONTINUOUS
 62
     0
100
AcDbLine
 10
30.51714
 20
21.977254
 30
0.0
 11
33.172249
 21
24.632364
 31
0.0
  0
LINE
  5
FE8
100
AcDbEntity
  8
0
  6
CONTINUOUS
 62
     0
100
AcDbLine
 10
30.459126
 20
22.202083
 30
0.0
 11
32.905926
 21
24.648883
 31
0.0
  0
LINE
  5
FE9
100
AcDbEntity
  8
0
  6
CONTINUOUS
 62
     0
100
AcDbLine
 10
30.423694
 20
22.449493
 30
0.0
 11
32.621475
 21
24.647275
 31
0.0
  0
LINE
  5
FEA
100
AcDbEntity
  8
0
  6
CONTINUOUS
 62
     0
100
AcDbLine
 10
30.424318
 20
22.732961
 30
0.0
 11
32.321114
 21
24.629756
 31
0.0
  0
LINE
  5
FEB
100
AcDbEntity
  8
0
  6
CONTINUOUS
 62
     0
100
AcDbLine
 10
30.48456
 20
23.076045
 30
0.0
 11
31.978931
 21
24.570416
 31
0.0
  0
LINE
  5
FEC
100
AcDbEntity
  8
0
  6
CONTINUOUS
 62
     0
100
AcDbLine
 10
30.667096
 20
23.541423
 30
0.0
 11
31.516241
 21
24.390569
 31
0.0
  0
ENDBLK
  5
FEE
100
AcDbEntity
  8
0
100
AcDbBlockEnd
  0
BLOCK
  5
1017
100
AcDbEntity
  8
0
100
AcDbBlockBegin
  2
*X10
 70
     1
 10
0.0
 20
0.0
 30
0.0
  3
*X10
  1

  0
LINE
  5
FF0
100
AcDbEntity
  8
0
  6
CONTINUOUS
 62
     0
100
AcDbLine
 10
29.737665
 20
20.632094
 30
0.0
 11
29.892223
 21
20.786652
 31
0.0
  0
LINE
  5
FF1
100
AcDbEntity
  8
0
  6
CONTINUOUS
 62
     0
100
AcDbLine
 10
29.454822
 20
20.632094
 30
0.0
 11
29.892223
 21
21.069494
 31
0.0
  0
LINE
  5
FF2
100
AcDbEntity
  8
0
  6
CONTINUOUS
 62
     0
100
AcDbLine
 10
29.171979
 20
20.632094
 30
0.0
 11
29.892223
 21
21.352337
 31
0.0
  0
LINE
  5
FF3
100
AcDbEntity
  8
0
  6
CONTINUOUS
 62
     0
100
AcDbLine
 10
28.889137
 20
20.632094
 30
0.0
 11
29.892223
 21
21.63518
 31
0.0
  0
LINE
  5
FF4
100
AcDbEntity
  8
0
  6
CONTINUOUS
 62
     0
100
AcDbLine
 10
28.606294
 20
20.632094
 30
0.0
 11
29.892223
 21
21.918023
 31
0.0
  0
LINE
  5
FF5
100
AcDbEntity
  8
0
  6
CONTINUOUS
 62
     0
100
AcDbLine
 10
28.323451
 20
20.632094
 30
0.0
 11
29.892223
 21
22.200865
 31
0.0
  0
LINE
  5
FF6
100
AcDbEntity
  8
0
  6
CONTINUOUS
 62
     0
100
AcDbLine
 10
28.108423
 20
20.699908
 30
0.0
 11
29.892223
 21
22.483708
 31
0.0
  0
LINE
  5
FF7
100
AcDbEntity
  8
0
  6
CONTINUOUS
 62
     0
100
AcDbLine
 10
28.108423
 20
20.982751
 30
0.0
 11
29.892223
 21
22.766551
 31
0.0
  0
LINE
  5
FF8
100
AcDbEntity
  8
0
  6
CONTINUOUS
 62
     0
100
AcDbLine
 10
28.108423
 20
21.265593
 30
0.0
 11
29.892223
 21
23.049393
 31
0.0
  0
LINE
  5
FF9
100
AcDbEntity
  8
0
  6
CONTINUOUS
 62
     0
100
AcDbLine
 10
28.108423
 20
21.548436
 30
0.0
 11
29.891843
 21
23.331856
 31
0.0
  0
LINE
  5
FFA
100
AcDbEntity
  8
0
  6
CONTINUOUS
 62
     0
100
AcDbLine
 10
28.108423
 20
21.831279
 30
0.0
 11
29.853268
 21
23.576124
 31
0.0
  0
LINE
  5
FFB
100
AcDbEntity
  8
0
  6
CONTINUOUS
 62
     0
100
AcDbLine
 10
28.108423
 20
22.114122
 30
0.0
 11
29.777815
 21
23.783513
 31
0.0
  0
LINE
  5
FFC
100
AcDbEntity
  8
0
  6
CONTINUOUS
 62
     0
100
AcDbLine
 10
28.108423
 20
22.396964
 30
0.0
 11
29.67413
 21
23.962671
 31
0.0
  0
LINE
  5
FFD
100
AcDbEntity
  8
0
  6
CONTINUOUS
 62
     0
100
AcDbLine
 10
28.084087
 20
22.655471
 30
0.0
 11
29.54593
 21
24.117314
 31
0.0
  0
LINE
  5
FFE
100
AcDbEntity
  8
0
  6
CONTINUOUS
 62
     0
100
AcDbLine
 10
26.06071
 20
20.632094
 30
0.0
 11
26.289973
 21
20.861357
 31
0.0
  0
LINE
  5
FFF
100
AcDbEntity
  8
0
  6
CONTINUOUS
 62
     0
100
AcDbLine
 10
27.9938
 20
22.848027
 30
0.0
 11
29.394359
 21
24.248585
 31
0.0
  0
LINE
  5
1000
100
AcDbEntity
  8
0
  6
CONTINUOUS
 62
     0
100
AcDbLine
 10
25.777867
 20
20.632094
 30
0.0
 11
26.289973
 21
21.1442
 31
0.0
  0
LINE
  5
1001
100
AcDbEntity
  8
0
  6
CONTINUOUS
 62
     0
100
AcDbLine
 10
27.856431
 20
22.993501
 30
0.0
 11
29.218545
 21
24.355614
 31
0.0
  0
LINE
  5
1002
100
AcDbEntity
  8
0
  6
CONTINUOUS
 62
     0
100
AcDbLine
 10
25.495024
 20
20.632094
 30
0.0
 11
26.289973
 21
21.427042
 31
0.0
  0
LINE
  5
1003
100
AcDbEntity
  8
0
  6
CONTINUOUS
 62
     0
100
AcDbLine
 10
27.673361
 20
23.093274
 30
0.0
 11
29.008732
 21
24.428645
 31
0.0
  0
LINE
  5
1004
100
AcDbEntity
  8
0
  6
CONTINUOUS
 62
     0
100
AcDbLine
 10
25.212181
 20
20.632094
 30
0.0
 11
26.289973
 21
21.709885
 31
0.0
  0
LINE
  5
1005
100
AcDbEntity
  8
0
  6
CONTINUOUS
 62
     0
100
AcDbLine
 10
27.426682
 20
23.129436
 30
0.0
 11
28.781111
 21
24.483866
 31
0.0
  0
LINE
  5
1006
100
AcDbEntity
  8
0
  6
CONTINUOUS
 62
     0
100
AcDbLine
 10
24.929339
 20
20.632094
 30
0.0
 11
26.289973
 21
21.992728
 31
0.0
  0
LINE
  5
1007
100
AcDbEntity
  8
0
  6
CONTINUOUS
 62
     0
100
AcDbLine
 10
27.093379
 20
23.078976
 30
0.0
 11
28.539658
 21
24.525255
 31
0.0
  0
LINE
  5
1008
100
AcDbEntity
  8
0
  6
CONTINUOUS
 62
     0
100
AcDbLine
 10
24.646496
 20
20.632094
 30
0.0
 11
26.289973
 21
22.275571
 31
0.0
  0
LINE
  5
1009
100
AcDbEntity
  8
0
  6
CONTINUOUS
 62
     0
100
AcDbLine
 10
24.494923
 20
20.763363
 30
0.0
 11
28.282141
 21
24.550582
 31
0.0
  0
LINE
  5
100A
100
AcDbEntity
  8
0
  6
CONTINUOUS
 62
     0
100
AcDbLine
 10
24.494923
 20
21.046206
 30
0.0
 11
28.005321
 21
24.556604
 31
0.0
  0
LINE
  5
100B
100
AcDbEntity
  8
0
  6
CONTINUOUS
 62
     0
100
AcDbLine
 10
24.494923
 20
21.329049
 30
0.0
 11
27.704195
 21
24.538321
 31
0.0
  0
LINE
  5
100C
100
AcDbEntity
  8
0
  6
CONTINUOUS
 62
     0
100
AcDbLine
 10
24.494923
 20
21.611891
 30
0.0
 11
27.370303
 21
24.487272
 31
0.0
  0
LINE
  5
100D
100
AcDbEntity
  8
0
  6
CONTINUOUS
 62
     0
100
AcDbLine
 10
24.494923
 20
21.894734
 30
0.0
 11
26.987035
 21
24.386846
 31
0.0
  0
LINE
  5
100E
100
AcDbEntity
  8
0
  6
CONTINUOUS
 62
     0
100
AcDbLine
 10
24.494923
 20
22.177577
 30
0.0
 11
26.510566
 21
24.19322
 31
0.0
  0
LINE
  5
100F
100
AcDbEntity
  8
0
  6
CONTINUOUS
 62
     0
100
AcDbLine
 10
24.494923
 20
22.46042
 30
0.0
 11
26.289973
 21
24.25547
 31
0.0
  0
LINE
  5
1010
100
AcDbEntity
  8
0
  6
CONTINUOUS
 62
     0
100
AcDbLine
 10
24.494923
 20
22.743262
 30
0.0
 11
26.260054
 21
24.508394
 31
0.0
  0
LINE
  5
1011
100
AcDbEntity
  8
0
  6
CONTINUOUS
 62
     0
100
AcDbLine
 10
24.494923
 20
23.026105
 30
0.0
 11
25.977212
 21
24.508394
 31
0.0
  0
LINE
  5
1012
100
AcDbEntity
  8
0
  6
CONTINUOUS
 62
     0
100
AcDbLine
 10
24.494923
 20
23.308948
 30
0.0
 11
25.694369
 21
24.508394
 31
0.0
  0
LINE
  5
1013
100
AcDbEntity
  8
0
  6
CONTINUOUS
 62
     0
100
AcDbLine
 10
24.494923
 20
23.59179
 30
0.0
 11
25.411526
 21
24.508394
 31
0.0
  0
LINE
  5
1014
100
AcDbEntity
  8
0
  6
CONTINUOUS
 62
     0
100
AcDbLine
 10
24.494923
 20
23.874633
 30
0.0
 11
25.128683
 21
24.508394
 31
0.0
  0
LINE
  5
1015
100
AcDbEntity
  8
0
  6
CONTINUOUS
 62
     0
100
AcDbLine
 10
24.494923
 20
24.157476
 30
0.0
 11
24.845841
 21
24.508394
 31
0.0
  0
LINE
  5
1016
100
AcDbEntity
  8
0
  6
CONTINUOUS
 62
     0
100
AcDbLine
 10
24.494923
 20
24.440319
 30
0.0
 11
24.562998
 21
24.508394
 31
0.0
  0
ENDBLK
  5
1018
100
AcDbEntity
  8
0
100
AcDbBlockEnd
  0
BLOCK
  5
103A
100
AcDbEntity
  8
0
100
AcDbBlockBegin
  2
*X11
 70
     1
 10
0.0
 20
0.0
 30
0.0
  3
*X11
  1

  0
LINE
  5
101A
100
AcDbEntity
  8
0
  6
CONTINUOUS
 62
     0
100
AcDbLine
 10
47.249714
 20
22.587794
 30
0.0
 11
47.287957
 21
22.626036
 31
0.0
  0
LINE
  5
101B
100
AcDbEntity
  8
0
  6
CONTINUOUS
 62
     0
100
AcDbLine
 10
46.966872
 20
22.587794
 30
0.0
 11
47.307662
 21
22.928584
 31
0.0
  0
LINE
  5
101C
100
AcDbEntity
  8
0
  6
CONTINUOUS
 62
     0
100
AcDbLine
 10
46.684029
 20
22.587794
 30
0.0
 11
47.296115
 21
23.19988
 31
0.0
  0
LINE
  5
101D
100
AcDbEntity
  8
0
  6
CONTINUOUS
 62
     0
100
AcDbLine
 10
46.401186
 20
22.587794
 30
0.0
 11
47.261533
 21
23.448141
 31
0.0
  0
LINE
  5
101E
100
AcDbEntity
  8
0
  6
CONTINUOUS
 62
     0
100
AcDbLine
 10
44.445486
 20
20.632094
 30
0.0
 11
44.459623
 21
20.64623
 31
0.0
  0
LINE
  5
101F
100
AcDbEntity
  8
0
  6
CONTINUOUS
 62
     0
100
AcDbLine
 10
46.118343
 20
22.587794
 30
0.0
 11
47.209214
 21
23.678665
 31
0.0
  0
LINE
  5
1020
100
AcDbEntity
  8
0
  6
CONTINUOUS
 62
     0
100
AcDbLine
 10
44.162643
 20
20.632094
 30
0.0
 11
44.459623
 21
20.929073
 31
0.0
  0
LINE
  5
1021
100
AcDbEntity
  8
0
  6
CONTINUOUS
 62
     0
100
AcDbLine
 10
45.835501
 20
22.587794
 30
0.0
 11
47.132011
 21
23.884304
 31
0.0
  0
LINE
  5
1022
100
AcDbEntity
  8
0
  6
CONTINUOUS
 62
     0
100
AcDbLine
 10
43.879801
 20
20.632094
 30
0.0
 11
44.459623
 21
21.211916
 31
0.0
  0
LINE
  5
1023
100
AcDbEntity
  8
0
  6
CONTINUOUS
 62
     0
100
AcDbLine
 10
45.552658
 20
22.587794
 30
0.0
 11
47.029303
 21
24.064438
 31
0.0
  0
LINE
  5
1024
100
AcDbEntity
  8
0
  6
CONTINUOUS
 62
     0
100
AcDbLine
 10
43.596958
 20
20.632094
 30
0.0
 11
44.459623
 21
21.494759
 31
0.0
  0
LINE
  5
1025
100
AcDbEntity
  8
0
  6
CONTINUOUS
 62
     0
100
AcDbLine
 10
45.454573
 20
22.772551
 30
0.0
 11
46.900895
 21
24.218874
 31
0.0
  0
LINE
  5
1026
100
AcDbEntity
  8
0
  6
CONTINUOUS
 62
     0
100
AcDbLine
 10
43.314115
 20
20.632094
 30
0.0
 11
44.459623
 21
21.777601
 31
0.0
  0
LINE
  5
1027
100
AcDbEntity
  8
0
  6
CONTINUOUS
 62
     0
100
AcDbLine
 10
45.418199
 20
23.01902
 30
0.0
 11
46.74471
 21
24.345531
 31
0.0
  0
LINE
  5
1028
100
AcDbEntity
  8
0
  6
CONTINUOUS
 62
     0
100
AcDbLine
 10
43.031273
 20
20.632094
 30
0.0
 11
44.459623
 21
22.060444
 31
0.0
  0
LINE
  5
1029
100
AcDbEntity
  8
0
  6
CONTINUOUS
 62
     0
100
AcDbLine
 10
45.294614
 20
23.178278
 30
0.0
 11
46.558784
 21
24.442448
 31
0.0
  0
LINE
  5
102A
100
AcDbEntity
  8
0
  6
CONTINUOUS
 62
     0
100
AcDbLine
 10
42.74843
 20
20.632094
 30
0.0
 11
44.459623
 21
22.343287
 31
0.0
  0
LINE
  5
102B
100
AcDbEntity
  8
0
  6
CONTINUOUS
 62
     0
100
AcDbLine
 10
45.102547
 20
23.269053
 30
0.0
 11
46.346357
 21
24.512863
 31
0.0
  0
LINE
  5
102C
100
AcDbEntity
  8
0
  6
CONTINUOUS
 62
     0
100
AcDbLine
 10
42.732973
 20
20.899479
 30
0.0
 11
44.459623
 21
22.626129
 31
0.0
  0
LINE
  5
102D
100
AcDbEntity
  8
0
  6
CONTINUOUS
 62
     0
100
AcDbLine
 10
44.797622
 20
23.246971
 30
0.0
 11
46.115166
 21
24.564515
 31
0.0
  0
LINE
  5
102E
100
AcDbEntity
  8
0
  6
CONTINUOUS
 62
     0
100
AcDbLine
 10
42.732973
 20
21.182322
 30
0.0
 11
44.492506
 21
22.941855
 31
0.0
  0
LINE
  5
102F
100
AcDbEntity
  8
0
  6
CONTINUOUS
 62
     0
100
AcDbLine
 10
42.732973
 20
21.465165
 30
0.0
 11
45.857715
 21
24.589906
 31
0.0
  0
LINE
  5
1030
100
AcDbEntity
  8
0
  6
CONTINUOUS
 62
     0
100
AcDbLine
 10
42.732973
 20
21.748008
 30
0.0
 11
45.563093
 21
24.578127
 31
0.0
  0
LINE
  5
1031
100
AcDbEntity
  8
0
  6
CONTINUOUS
 62
     0
100
AcDbLine
 10
42.732973
 20
22.03085
 30
0.0
 11
45.222277
 21
24.520155
 31
0.0
  0
LINE
  5
1032
100
AcDbEntity
  8
0
  6
CONTINUOUS
 62
     0
100
AcDbLine
 10
42.732973
 20
22.313693
 30
0.0
 11
44.777089
 21
24.357809
 31
0.0
  0
LINE
  5
1033
100
AcDbEntity
  8
0
  6
CONTINUOUS
 62
     0
100
AcDbLine
 10
42.732973
 20
22.596536
 30
0.0
 11
44.459623
 21
24.323186
 31
0.0
  0
LINE
  5
1034
100
AcDbEntity
  8
0
  6
CONTINUOUS
 62
     0
100
AcDbLine
 10
42.732973
 20
22.879378
 30
0.0
 11
44.361988
 21
24.508394
 31
0.0
  0
LINE
  5
1035
100
AcDbEntity
  8
0
  6
CONTINUOUS
 62
     0
100
AcDbLine
 10
42.732973
 20
23.162221
 30
0.0
 11
44.079145
 21
24.508394
 31
0.0
  0
LINE
  5
1036
100
AcDbEntity
  8
0
  6
CONTINUOUS
 62
     0
100
AcDbLine
 10
42.732973
 20
23.445064
 30
0.0
 11
43.796303
 21
24.508394
 31
0.0
  0
LINE
  5
1037
100
AcDbEntity
  8
0
  6
CONTINUOUS
 62
     0
100
AcDbLine
 10
42.732973
 20
23.727907
 30
0.0
 11
43.51346
 21
24.508394
 31
0.0
  0
LINE
  5
1038
100
AcDbEntity
  8
0
  6
CONTINUOUS
 62
     0
100
AcDbLine
 10
42.732973
 20
24.010749
 30
0.0
 11
43.230617
 21
24.508394
 31
0.0
  0
LINE
  5
1039
100
AcDbEntity
  8
0
  6
CONTINUOUS
 62
     0
100
AcDbLine
 10
42.732973
 20
24.293592
 30
0.0
 11
42.947775
 21
24.508394
 31
0.0
  0
ENDBLK
  5
103B
100
AcDbEntity
  8
0
100
AcDbBlockEnd
  0
ENDSEC
  0
SECTION
  2
ENTITIES
  0
POLYLINE
  5
2D
100
AcDbEntity
  8
CARTOUCHE
  6
CONTINUOUS
 62
     7
100
AcDb2dPolyline
 66
     1
 10
0.0
 20
0.0
 30
0.0
 70
   129
  0
VERTEX
  5
EB2
100
AcDbEntity
  8
CARTOUCHE
  6
CONTINUOUS
 62
     7
100
AcDbVertex
100
AcDb2dVertex
 10
205.000037
 20
292.000183
 30
0.0
  0
VERTEX
  5
EB3
100
AcDbEntity
  8
CARTOUCHE
  6
CONTINUOUS
 62
     7
100
AcDbVertex
100
AcDb2dVertex
 10
205.000037
 20
5.000183
 30
0.0
  0
VERTEX
  5
EB4
100
AcDbEntity
  8
CARTOUCHE
  6
CONTINUOUS
 62
     7
100
AcDbVertex
100
AcDb2dVertex
 10
5.0
 20
5.0
 30
0.0
  0
VERTEX
  5
EB5
100
AcDbEntity
  8
CARTOUCHE
  6
CONTINUOUS
 62
     7
100
AcDbVertex
100
AcDb2dVertex
 10
5.0
 20
292.0
 30
0.0
  0
VERTEX
  5
EB6
100
AcDbEntity
  8
CARTOUCHE
  6
CONTINUOUS
 62
     7
100
AcDbVertex
100
AcDb2dVertex
 10
204.999774
 20
292.000183
 30
0.0
  0
SEQEND
  5
EB7
100
AcDbEntity
  8
CARTOUCHE
  6
CONTINUOUS
 62
     7
  0
LINE
  5
2F
100
AcDbEntity
  8
CARTOUCHE
  6
CONTINUOUS
 62
     7
100
AcDbLine
 10
205.000037
 20
36.845156
 30
0.0
 11
5.0
 21
36.845462
 31
0.0
  0
LINE
  5
30
100
AcDbEntity
  8
CARTOUCHE
  6
CONTINUOUS
 62
     7
100
AcDbLine
 10
205.000008
 20
20.002808
 30
0.0
 11
49.999973
 21
20.003045
 31
0.0
  0
LINE
  5
31
100
AcDbEntity
  8
CARTOUCHE
  6
CONTINUOUS
 62
     7
100
AcDbLine
 10
205.000037
 20
10.000793
 30
0.0
 11
5.0
 21
10.001068
 31
0.0
  0
SPLINE
  5
32
100
AcDbEntity
  8
CARTOUCHE
  6
CONTINUOUS
 62
     4
100
AcDbSpline
210
0.0
220
0.0
230
-1.0
 70
     8
 71
     3
 72
    21
 73
    17
 74
    15
 42
0.0000001
 43
0.0000001
 44
0.000001
 12
-0.0762450288998757
 22
0.9970891111470715
 32
0.0
 13
-0.2154301143740796
 23
-0.9765192603429648
 33
0.0
 40
0.0
 40
0.0
 40
0.0
 40
0.0
 40
0.1868552544910631
 40
0.3735743379497275
 40
0.5613842505736386
 40
0.7484489883359557
 40
0.9355885045750216
 40
1.123112117669891
 40
1.311428171606846
 40
1.500241975701495
 40
1.68644341515699
 40
1.873056879838249
 40
2.059519584354549
 40
2.246467155624063
 40
2.434628048413954
 40
2.621193228285582
 40
2.621193228285582
 40
2.621193228285582
 40
2.621193228285582
 10
40.3430229762125
 20
23.07919360711669
 30
0.0
 10
40.33827404811957
 20
23.14129738698791
 30
0.0
 10
40.31098575637731
 20
23.26532095743951
 30
0.0
 10
40.21176942058871
 20
23.42743837256688
 30
0.0
 10
40.07410479994639
 20
23.55667608106139
 30
0.0
 10
39.9138008107931
 20
23.65566247942489
 30
0.0
 10
39.73873429209119
 20
23.72452107693797
 30
0.0
 10
39.55489941934138
 20
23.76544062640578
 30
0.0
 10
39.36639702832007
 20
23.77885734971313
 30
0.0
 10
39.17902204364417
 20
23.76782173584163
 30
0.0
 10
38.99274789300326
 20
23.72745922539276
 30
0.0
 10
38.83748771726681
 20
23.62068032967624
 30
0.0
 10
38.66640566438338
 20
23.54392781271009
 30
0.0
 10
38.52524856751328
 20
23.41621622896002
 30
0.0
 10
38.42100497412087
 20
23.25892330491868
 30
0.0
 10
38.37822022889183
 20
23.1399217709347
 30
0.0
 10
38.36482297621251
 20
23.0791936071167
 30
0.0
 11
40.3430229762125
 21
23.07919360711669
 31
0.0
 11
40.30128482007762
 21
23.26132867168497
 31
0.0
 11
40.20559522220136
 21
23.42166431604199
 31
0.0
 11
40.07014905358668
 21
23.55176773224803
 31
0.0
 11
39.91135088271828
 21
23.6506431736504
 31
0.0
 11
39.7374628559249
 21
23.71981068462436
 31
0.0
 11
39.55447534379333
 21
23.76080659501808
 31
0.0
 11
39.36667772831406
 21
23.77477007425147
 31
0.0
 11
39.17824365086322
 21
23.76280187157366
 31
0.0
 11
38.99791204207538
 21
23.71641788353441
 31
0.0
 11
38.83484335052719
 21
23.62568105970969
 31
0.0
 11
38.6715939776077
 21
23.53558123947115
 31
0.0
 11
38.53168126994678
 21
23.41159000587155
 31
0.0
 11
38.42745670868595
 21
23.25493190905037
 31
0.0
 11
38.36482297621251
 21
23.0791936071167
 31
0.0
  0
SPLINE
  5
33
100
AcDbEntity
  8
CARTOUCHE
  6
CONTINUOUS
 62
     4
100
AcDbSpline
210
0.0
220
0.0
230
1.0
 70
     8
 71
     3
 72
    15
 73
    11
 74
     9
 42
0.0000001
 43
0.0000001
 44
0.000001
 12
0.1873467659221653
 22
-0.9822938406090642
 32
0.0
 13
0.7770129286964091
 23
0.6294846373332945
 33
0.0
 40
0.0
 40
0.0
 40
0.0
 40
0.0
 40
0.3371521140362622
 40
0.6743125245575566
 40
1.011741450839519
 40
1.34877367337186
 40
1.687274841773488
 40
1.856093329057823
 40
2.024672152796235
 40
2.361712998590453
 40
2.361712998590453
 40
2.361712998590453
 40
2.361712998590453
 10
38.3648229762125
 20
22.24444360711669
 30
0.0
 10
38.38587776227534
 20
22.13404945879465
 30
0.0
 10
38.47908885254962
 20
21.91720273148486
 30
0.0
 10
38.75430937478617
 20
21.70645023854778
 30
0.0
 10
39.06998691557769
 20
21.58181099425638
 30
0.0
 10
39.40539548706931
 20
21.52556359245149
 30
0.0
 10
39.6894951413102
 20
21.54062625211872
 30
0.0
 10
39.90812750047185
 20
21.5988745675465
 30
0.0
 10
40.11328304540707
 20
21.69222607636082
 30
0.0
 10
40.25572794465221
 20
21.78492292892293
 30
0.0
 10
40.3430229762125
 20
21.85564360711669
 30
0.0
 11
38.3648229762125
 21
22.24444360711669
 31
0.0
 11
38.50164219830394
 21
21.93629966675314
 31
0.0
 11
38.76098099155704
 21
21.72084551731241
 31
0.0
 11
39.07332908880515
 21
21.59318639542836
 31
0.0
 11
39.40580907592665
 21
21.53798084006903
 31
0.0
 11
39.7436513990388
 21
21.55908759838489
 31
0.0
 11
39.90657573481705
 21
21.60330661466393
 31
0.0
 11
40.06077578326683
 21
21.67143258943228
 31
0.0
 11
40.3430229762125
 21
21.85564360711669
 31
0.0
  0
LINE
  5
34
100
AcDbEntity
  8
CARTOUCHE
  6
CONTINUOUS
 62
     4
100
AcDbLine
 10
39.154123
 20
23.079194
 30
0.0
 11
40.343023
 21
23.079194
 31
0.0
  0
LINE
  5
35
100
AcDbEntity
  8
CARTOUCHE
  6
CONTINUOUS
 62
     4
100
AcDbLine
 10
42.206923
 20
22.256144
 30
0.0
 11
39.154123
 21
22.244444
 31
0.0
  0
INSERT
  5
36
100
AcDbEntity
  8
CARTOUCHE
  6
CONTINUOUS
 62
     4
100
AcDbBlockReference
  2
*X4
 10
0.0
 20
0.0
 30
0.0
1001
ACAD
1000
HATCH
1002
{
1070
    19
1000
ANSI31
1040
0.062992
1040
0.0
1000
R14_HATCH_DATA
1000
36
1011
1.0
1021
0.0
1031
0.0
1011
0.0
1021
1.0
1031
0.0
1011
0.0
1021
0.0
1031
1.0
1040
0.0
1010
0.0
1020
0.0
1030
1.0
1000
ANSI31
1070
     0
1070
     0
1071
        1
1071
        1
1071
      165
1070
     1
1040
39.051073
1040
22.244444
1040
39.154123
1040
22.244444
1070
     1
1040
39.154123
1040
22.244444
1040
42.206923
1040
22.256144
1070
     1
1040
42.206923
1040
22.256144
1040
42.232378
1040
22.365847
1070
     1
1040
42.232378
1040
22.365847
1040
42.245048
1040
22.449462
1070
     1
1040
42.245048
1040
22.449462
1040
42.251874
1040
22.533703
1070
     1
1040
42.251874
1040
22.533703
1040
42.251735
1040
22.646969
1070
     1
1040
42.251735
1040
22.646969
1040
42.23471
1040
22.816096
1070
     1
1040
42.23471
1040
22.816096
1040
42.208465
1040
22.956213
1070
     1
1040
42.208465
1040
22.956213
1040
42.173579
1040
23.094368
1070
     1
1040
42.173579
1040
23.094368
1040
42.131795
1040
23.229146
1070
     1
1040
42.131795
1040
23.229146
1040
42.082342
1040
23.361421
1070
     1
1040
42.082342
1040
23.361421
1040
42.036862
1040
23.464716
1070
     1
1040
42.036862
1040
23.464716
1040
41.985861
1040
23.565535
1070
     1
1040
41.985861
1040
23.565535
1040
41.92928
1040
23.663323
1070
     1
1040
41.92928
1040
23.663323
1040
41.867061
1040
23.757527
1070
     1
1040
41.867061
1040
23.757527
1040
41.799145
1040
23.847595
1070
     1
1040
41.799145
1040
23.847595
1040
41.725524
1040
23.93313
1070
     1
1040
41.725524
1040
23.93313
1040
41.646719
1040
24.014004
1070
     1
1040
41.646719
1040
24.014004
1040
41.563309
1040
24.090255
1070
     1
1040
41.563309
1040
24.090255
1040
41.384996
1040
24.229026
1070
     1
1040
41.384996
1040
24.229026
1040
41.266986
1040
24.306605
1070
     1
1040
41.266986
1040
24.306605
1040
41.14445
1040
24.376442
1070
     1
1040
41.14445
1040
24.376442
1040
41.017719
1040
24.437986
1070
     1
1040
41.017719
1040
24.437986
1040
40.887396
1040
24.491649
1070
     1
1040
40.887396
1040
24.491649
1040
40.618872
1040
24.578734
1070
     1
1040
40.618872
1040
24.578734
1040
40.344652
1040
24.645649
1070
     1
1040
40.344652
1040
24.645649
1040
40.067005
1040
24.69363
1070
     1
1040
40.067005
1040
24.69363
1040
39.786778
1040
24.723515
1070
     1
1040
39.786778
1040
24.723515
1040
39.222855
1040
24.735874
1070
     1
1040
39.222855
1040
24.735874
1040
38.660586
1040
24.695795
1070
     1
1040
38.660586
1040
24.695795
1040
38.3823
1040
24.651139
1070
     1
1040
38.3823
1040
24.651139
1040
38.107283
1040
24.5883
1070
     1
1040
38.107283
1040
24.5883
1040
37.890593
1040
24.52408
1070
     1
1040
37.890593
1040
24.52408
1040
37.731586
1040
24.465697
1070
     1
1040
37.731586
1040
24.465697
1040
37.57691
1040
24.396625
1070
     1
1040
37.57691
1040
24.396625
1040
37.477006
1040
24.343979
1070
     1
1040
37.477006
1040
24.343979
1040
37.380067
1040
24.285863
1070
     1
1040
37.380067
1040
24.285863
1040
37.286613
1040
24.222306
1070
     1
1040
37.286613
1040
24.222306
1040
37.197165
1040
24.15334
1070
     1
1040
37.197165
1040
24.15334
1040
37.112243
1040
24.078995
1070
     1
1040
37.112243
1040
24.078995
1040
37.03232
1040
23.999414
1070
     1
1040
37.03232
1040
23.999414
1040
36.957469
1040
23.914974
1070
     1
1040
36.957469
1040
23.914974
1040
36.887723
1040
23.826164
1070
     1
1040
36.887723
1040
23.826164
1040
36.823113
1040
23.733469
1070
     1
1040
36.823113
1040
23.733469
1040
36.763669
1040
23.637375
1070
     1
1040
36.763669
1040
23.637375
1040
36.660491
1040
23.436489
1070
     1
1040
36.660491
1040
23.436489
1040
36.617061
1040
23.332299
1070
     1
1040
36.617061
1040
23.332299
1040
36.579257
1040
23.225943
1070
     1
1040
36.579257
1040
23.225943
1040
36.547222
1040
23.117674
1070
     1
1040
36.547222
1040
23.117674
1040
36.521104
1040
23.00779
1070
     1
1040
36.521104
1040
23.00779
1040
36.501051
1040
22.896613
1070
     1
1040
36.501051
1040
22.896613
1040
36.487223
1040
22.784512
1070
     1
1040
36.487223
1040
22.784512
1040
36.479778
1040
22.671856
1070
     1
1040
36.479778
1040
22.671856
1040
36.478876
1040
22.559014
1070
     1
1040
36.478876
1040
22.559014
1040
36.484758
1040
22.446072
1070
     1
1040
36.484758
1040
22.446072
1040
36.507303
1040
22.278243
1070
     1
1040
36.507303
1040
22.278243
1040
36.531842
1040
22.168363
1070
     1
1040
36.531842
1040
22.168363
1040
36.580661
1040
22.006354
1070
     1
1040
36.580661
1040
22.006354
1040
36.663176
1040
21.796051
1070
     1
1040
36.663176
1040
21.796051
1040
36.738102
1040
21.644243
1070
     1
1040
36.738102
1040
21.644243
1040
36.824876
1040
21.499285
1070
     1
1040
36.824876
1040
21.499285
1040
36.906565
1040
21.38422
1070
     1
1040
36.906565
1040
21.38422
1040
36.995075
1040
21.274114
1070
     1
1040
36.995075
1040
21.274114
1040
37.069976
1040
21.189232
1070
     1
1040
37.069976
1040
21.189232
1040
37.190906
1040
21.070408
1070
     1
1040
37.190906
1040
21.070408
1040
37.27814
1040
20.999373
1070
     1
1040
37.27814
1040
20.999373
1040
37.418207
1040
20.905115
1070
     1
1040
37.418207
1040
20.905115
1040
37.541992
1040
20.836757
1070
     1
1040
37.541992
1040
20.836757
1040
37.669631
1040
20.775673
1070
     1
1040
37.669631
1040
20.775673
1040
37.878008
1040
20.688457
1070
     1
1040
37.878008
1040
20.688457
1040
38.199606
1040
20.582881
1070
     1
1040
38.199606
1040
20.582881
1040
38.419015
1040
20.531338
1070
     1
1040
38.419015
1040
20.531338
1040
38.753153
1040
20.477838
1070
     1
1040
38.753153
1040
20.477838
1040
39.03388
1040
20.450243
1070
     1
1040
39.03388
1040
20.450243
1040
39.315482
1040
20.438162
1070
     1
1040
39.315482
1040
20.438162
1040
39.878324
1040
20.461635
1070
     1
1040
39.878324
1040
20.461635
1040
40.159192
1040
20.494468
1070
     1
1040
40.159192
1040
20.494468
1040
40.437804
1040
20.542235
1070
     1
1040
40.437804
1040
20.542235
1040
40.712118
1040
20.608344
1070
     1
1040
40.712118
1040
20.608344
1040
40.978222
1040
20.699934
1070
     1
1040
40.978222
1040
20.699934
1040
41.235564
1040
20.815324
1070
     1
1040
41.235564
1040
20.815324
1040
41.361299
1040
20.879186
1070
     1
1040
41.361299
1040
20.879186
1040
41.48298
1040
20.950245
1070
     1
1040
41.48298
1040
20.950245
1040
41.575618
1040
21.014782
1070
     1
1040
41.575618
1040
21.014782
1040
41.641621
1040
21.067895
1070
     1
1040
41.641621
1040
21.067895
1040
41.704176
1040
21.124947
1070
     1
1040
41.704176
1040
21.124947
1040
41.78171
1040
21.206815
1070
     1
1040
41.78171
1040
21.206815
1040
41.886125
1040
21.340089
1070
     1
1040
41.886125
1040
21.340089
1040
41.948068
1040
21.434593
1070
     1
1040
41.948068
1040
21.434593
1040
41.989546
1040
21.508386
1070
     1
1040
41.989546
1040
21.508386
1040
42.02581
1040
21.584828
1070
     1
1040
42.02581
1040
21.584828
1040
42.064953
1040
21.690806
1070
     1
1040
42.064953
1040
21.690806
1040
42.08735
1040
21.7726
1070
     1
1040
42.08735
1040
21.7726
1040
42.103873
1040
21.855644
1070
     1
1040
42.103873
1040
21.855644
1040
40.343023
1040
21.855644
1070
     1
1040
40.343023
1040
21.855644
1040
40.23476
1040
21.775139
1070
     1
1040
40.23476
1040
21.775139
1040
40.149342
1040
21.720655
1070
     1
1040
40.149342
1040
21.720655
1040
40.060776
1040
21.671433
1070
     1
1040
40.060776
1040
21.671433
1040
39.984758
1040
21.634773
1070
     1
1040
39.984758
1040
21.634773
1040
39.906576
1040
21.603307
1070
     1
1040
39.906576
1040
21.603307
1040
39.842277
1040
21.582635
1070
     1
1040
39.842277
1040
21.582635
1040
39.743651
1040
21.559088
1070
     1
1040
39.743651
1040
21.559088
1040
39.609337
1040
21.540536
1070
     1
1040
39.609337
1040
21.540536
1040
39.507639
1040
21.535656
1070
     1
1040
39.507639
1040
21.535656
1040
39.405809
1040
21.537981
1070
     1
1040
39.405809
1040
21.537981
1040
39.271392
1040
21.551496
1070
     1
1040
39.271392
1040
21.551496
1040
39.171681
1040
21.569188
1070
     1
1040
39.171681
1040
21.569188
1040
39.073329
1040
21.593186
1070
     1
1040
39.073329
1040
21.593186
1040
38.944884
1040
21.635037
1070
     1
1040
38.944884
1040
21.635037
1040
38.851395
1040
21.674301
1070
     1
1040
38.851395
1040
21.674301
1040
38.760981
1040
21.720846
1070
     1
1040
38.760981
1040
21.720846
1040
38.70284
1040
21.75614
1070
     1
1040
38.70284
1040
21.75614
1040
38.647077
1040
21.795104
1070
     1
1040
38.647077
1040
21.795104
1040
38.59445
1040
21.837967
1070
     1
1040
38.59445
1040
21.837967
1040
38.545719
1040
21.884956
1070
     1
1040
38.545719
1040
21.884956
1040
38.501642
1040
21.9363
1070
     1
1040
38.501642
1040
21.9363
1040
38.462877
1040
21.99205
1070
     1
1040
38.462877
1040
21.99205
1040
38.429669
1040
22.051562
1070
     1
1040
38.429669
1040
22.051562
1040
38.402161
1040
22.114013
1070
     1
1040
38.402161
1040
22.114013
1040
38.380498
1040
22.178581
1070
     1
1040
38.380498
1040
22.178581
1040
38.364823
1040
22.244444
1070
     1
1040
38.364823
1040
22.244444
1040
39.051073
1040
22.244444
1070
     1
1040
38.364823
1040
23.079194
1040
39.154123
1040
23.079194
1070
     1
1040
39.154123
1040
23.079194
1040
40.343023
1040
23.079194
1070
     1
1040
40.343023
1040
23.079194
1040
40.339099
1040
23.116416
1070
     1
1040
40.339099
1040
23.116416
1040
40.333002
1040
23.153431
1070
     1
1040
40.333002
1040
23.153431
1040
40.324692
1040
23.190049
1070
     1
1040
40.324692
1040
23.190049
1040
40.314132
1040
23.226078
1070
     1
1040
40.314132
1040
23.226078
1040
40.301285
1040
23.261329
1070
     1
1040
40.301285
1040
23.261329
1040
40.286156
1040
23.295606
1070
     1
1040
40.286156
1040
23.295606
1040
40.268864
1040
23.328846
1070
     1
1040
40.268864
1040
23.328846
1040
40.249567
1040
23.360982
1070
     1
1040
40.249567
1040
23.360982
1040
40.228425
1040
23.391944
1070
     1
1040
40.228425
1040
23.391944
1040
40.205595
1040
23.421664
1070
     1
1040
40.205595
1040
23.421664
1040
40.155158
1040
23.477534
1070
     1
1040
40.155158
1040
23.477534
1040
40.113888
1040
23.516059
1070
     1
1040
40.113888
1040
23.516059
1040
40.070149
1040
23.551768
1070
     1
1040
40.070149
1040
23.551768
1040
40.008897
1040
23.594936
1070
     1
1040
40.008897
1040
23.594936
1040
39.960894
1040
23.624144
1070
     1
1040
39.960894
1040
23.624144
1040
39.911351
1040
23.650643
1070
     1
1040
39.911351
1040
23.650643
1040
39.843213
1040
23.681802
1070
     1
1040
39.843213
1040
23.681802
1040
39.737463
1040
23.719811
1070
     1
1040
39.737463
1040
23.719811
1040
39.665034
1040
23.739546
1070
     1
1040
39.665034
1040
23.739546
1040
39.554475
1040
23.760807
1070
     1
1040
39.554475
1040
23.760807
1040
39.479582
1040
23.769534
1070
     1
1040
39.479582
1040
23.769534
1040
39.366678
1040
23.77477
1070
     1
1040
39.366678
1040
23.77477
1040
39.291229
1040
23.773226
1070
     1
1040
39.291229
1040
23.773226
1040
39.178244
1040
23.762802
1070
     1
1040
39.178244
1040
23.762802
1040
39.104388
1040
23.749824
1070
     1
1040
39.104388
1040
23.749824
1040
39.068085
1040
23.740847
1070
     1
1040
39.068085
1040
23.740847
1040
39.032514
1040
23.729811
1070
     1
1040
39.032514
1040
23.729811
1040
38.997912
1040
23.716418
1070
     1
1040
38.997912
1040
23.716418
1040
38.964344
1040
23.700508
1070
     1
1040
38.964344
1040
23.700508
1040
38.834843
1040
23.625681
1070
     1
1040
38.834843
1040
23.625681
1040
38.671594
1040
23.535581
1070
     1
1040
38.671594
1040
23.535581
1040
38.640976
1040
23.51416
1070
     1
1040
38.640976
1040
23.51416
1040
38.611625
1040
23.49088
1070
     1
1040
38.611625
1040
23.49088
1040
38.583591
1040
23.465911
1070
     1
1040
38.583591
1040
23.465911
1040
38.531681
1040
23.41159
1070
     1
1040
38.531681
1040
23.41159
1040
38.485341
1040
23.352025
1070
     1
1040
38.485341
1040
23.352025
1040
38.454621
1040
23.304551
1070
     1
1040
38.454621
1040
23.304551
1040
38.427457
1040
23.254932
1070
     1
1040
38.427457
1040
23.254932
1040
38.3972
1040
23.186473
1070
     1
1040
38.3972
1040
23.186473
1040
38.37898
1040
23.133395
1070
     1
1040
38.37898
1040
23.133395
1040
38.364823
1040
23.079194
1071
        0
1070
     0
1070
     1
1040
0.0
1040
0.062992
1070
     0
1070
     1
1040
0.785398
1040
-6.22517
1040
-28.624349
1040
-0.141421
1040
0.141421
1070
     0
1071
        1
1040
-6.22517
1040
-28.624349
1040
0.0
1002
}
  0
SPLINE
  5
37
100
AcDbEntity
  8
CARTOUCHE
  6
CONTINUOUS
 62
     4
100
AcDbSpline
210
0.0
220
0.0
230
1.0
 70
     8
 71
     3
 72
    46
 73
    42
 74
    40
 42
0.0000001
 43
0.0000001
 44
0.000001
 12
0.2679235453433934
 22
0.9634401765811029
 32
0.0
 13
0.1610223945668763
 23
0.9869507527977013
 33
0.0
 40
0.0
 40
0.0
 40
0.0
 40
0.0
 40
0.2811750796503045
 40
0.564088879055396
 40
0.848996137055497
 40
1.131203953305268
 40
1.693846441362772
 40
2.256881955637969
 40
2.539005752871453
 40
2.82069577771237
 40
3.10298742486103
 40
3.38525403659849
 40
3.948536069069792
 40
4.512593829792804
 40
5.076289826652828
 40
5.639937838168406
 40
6.2038840903654
 40
6.766736771207038
 40
7.329349297989459
 40
7.892321937217589
 40
8.455146667050026
 40
8.73735324357032
 40
9.018964818970465
 40
9.581779450805994
 40
9.864036877849454
 40
10.14660719714255
 40
10.42765468170207
 40
10.71044306512549
 40
11.27439538244285
 40
11.83782003463079
 40
12.40154780658862
 40
12.96487894167
 40
13.53013446902046
 40
13.81230156690056
 40
14.09372679950091
 40
14.37575459410578
 40
14.65756756838715
 40
14.93943336458308
 40
15.22119875341787
 40
15.50299432171135
 40
15.78483572811754
 40
15.78483572811754
 40
15.78483572811754
 40
15.78483572811754
 10
42.2069229762125
 20
22.2561436071167
 30
0.0
 10
42.2320341176132
 20
22.3464420632462
 30
0.0
 10
42.26336464147739
 20
22.53399287488758
 30
0.0
 10
42.24149608329661
 20
22.8180131107924
 30
0.0
 10
42.17836727502067
 20
23.09483389003594
 30
0.0
 10
42.05825120664016
 20
23.45212571811312
 30
0.0
 10
41.8230662027482
 20
23.86724960201155
 30
0.0
 10
41.46781625684352
 20
24.18453336175033
 30
0.0
 10
41.14761116479388
 20
24.3819623925892
 30
0.0
 10
40.88897513028328
 20
24.49665746156387
 30
0.0
 10
40.61969351239294
 20
24.58173320376633
 30
0.0
 10
40.25431466085239
 20
24.67112506006321
 30
0.0
 10
39.78717015303302
 20
24.73491686377472
 30
0.0
 10
39.22286191438472
 20
24.74314560896781
 30
0.0
 10
38.6591207586762
 20
24.70776700654681
 30
0.0
 10
38.10430963940351
 20
24.60055453197603
 30
0.0
 10
37.56703414053914
 20
24.41975287868164
 30
0.0
 10
37.09128408887103
 20
24.10132422112936
 30
0.0
 10
36.74193896822071
 20
23.64941350842831
 30
0.0
 10
36.52262166648302
 20
23.12465092345435
 30
0.0
 10
36.4628624049949
 20
22.65237441832042
 30
0.0
 10
36.49897198241179
 20
22.27677365581592
 30
0.0
 10
36.60138551467248
 20
21.91447858732574
 30
0.0
 10
36.76185476287774
 20
21.56953964406969
 30
0.0
 10
36.99184530900153
 20
21.27135464682456
 30
0.0
 10
37.18412182401923
 20
21.06372998507461
 30
0.0
 10
37.41499111831874
 20
20.89811018872763
 30
0.0
 10
37.75233271639089
 20
20.73108027472569
 30
0.0
 10
38.19505509243059
 20
20.56630128617908
 30
0.0
 10
38.75227464306411
 20
20.46845476892714
 30
0.0
 10
39.31516439613785
 20
20.42686299267516
 30
0.0
 10
39.87978550253785
 20
20.45310470204113
 30
0.0
 10
40.3463620097438
 20
20.51793315533649
 30
0.0
 10
40.71316996174686
 20
20.60361914488436
 30
0.0
 10
40.98020763016106
 20
20.69575720930983
 30
0.0
 10
41.23634075531815
 20
20.81337147401733
 30
0.0
 10
41.48756161568505
 20
20.94257950230669
 30
0.0
 10
41.71131144352496
 20
21.1177966629821
 30
0.0
 10
41.89210360145349
 20
21.33577522622756
 30
0.0
 10
42.03705337486477
 20
21.5796890671691
 30
0.0
 10
42.08874538349662
 20
21.76292241104264
 30
0.0
 10
42.10387297621249
 20
21.85564360711669
 30
0.0
 11
42.2069229762125
 21
22.2561436071167
 31
0.0
 11
42.25187369928078
 21
22.53370336692195
 31
0.0
 11
42.23470970538826
 21
22.81609604661632
 31
0.0
 11
42.1735788783549
 21
23.0943678180467
 31
0.0
 11
42.08234233059616
 21
23.36142053588839
 31
0.0
 11
41.79914459059214
 21
23.84759505388021
 31
0.0
 11
41.38499580886721
 21
24.22902637720731
 31
0.0
 11
41.1444496714726
 21
24.37644216492157
 31
0.0
 11
40.88739588735783
 21
24.49164913231013
 31
0.0
 11
40.61887239332167
 21
24.57873375105808
 31
0.0
 11
40.34465192624326
 21
24.64564860681681
 31
0.0
 11
39.78677780416955
 21
24.72351512572941
 31
0.0
 11
39.22285539283774
 21
24.73587418697074
 31
0.0
 11
38.66058598489463
 21
24.6957948090196
 31
0.0
 11
38.10728319880826
 21
24.58829981854138
 31
0.0
 11
37.57690963109762
 21
24.3966247732279
 31
0.0
 11
37.1122433036989
 21
24.07899538626728
 31
0.0
 11
36.76366857941348
 21
23.63737494458054
 31
0.0
 11
36.54722159336241
 21
23.11767406956402
 31
0.0
 11
36.47887604508949
 21
22.55901436160784
 31
0.0
 11
36.50730298839907
 21
22.27824312562695
 31
0.0
 11
36.58066141679664
 21
22.00635409419069
 31
0.0
 11
36.82487619371594
 21
21.49928452588675
 31
0.0
 11
36.99507455897878
 21
21.27411393911514
 31
0.0
 11
37.19090624714094
 21
21.07040837833609
 31
0.0
 11
37.41820717151092
 21
20.90511471530929
 31
0.0
 11
37.66963145788086
 21
20.77567317677089
 31
0.0
 11
38.1996064863776
 21
20.58288122875969
 31
0.0
 11
38.75315260795133
 21
20.4778380326807
 31
0.0
 11
39.3154824739789
 21
20.43816227630538
 31
0.0
 11
39.87832438970059
 21
20.46163547548925
 31
0.0
 11
40.43780417420945
 21
20.54223471097222
 31
0.0
 11
40.71211753370237
 21
20.60834422386486
 31
0.0
 11
40.97822189579761
 21
20.69993377525822
 31
0.0
 11
41.23556355576588
 21
20.81532426148599
 31
0.0
 11
41.48298030283661
 21
20.95024471011851
 31
0.0
 11
41.70417597333143
 21
21.12494680466518
 31
0.0
 11
41.88612496759311
 21
21.3400893433574
 31
0.0
 11
42.02581025553314
 21
21.58482751880403
 31
0.0
 11
42.10387297621249
 21
21.85564360711669
 31
0.0
  0
TEXT
  5
38
100
AcDbEntity
  8
CARTOUCHE
  6
CONTINUOUS
 62
     2
100
AcDbText
 10
19.49393
 20
6.600975
 30
0.0
 40
1.8
  1
MOD. UT 902
 50
359.999908
 41
1.05
  7
FINDER
 72
     1
 11
27.500001
 21
6.600962
 31
0.0
100
AcDbText
  0
INSERT
  5
39
100
AcDbEntity
  8
CARTOUCHE
  6
CONTINUOUS
 62
     4
100
AcDbBlockReference
  2
*X5
 10
0.0
 20
0.0
 30
0.0
1001
ACAD
1000
HATCH
1002
{
1070
    19
1000
ANSI31
1040
0.062992
1040
0.0
1000
R14_HATCH_DATA
1000
39
1011
1.0
1021
0.0
1031
0.0
1011
0.0
1021
1.0
1031
0.0
1011
0.0
1021
0.0
1031
1.0
1040
0.0
1010
0.0
1020
0.0
1030
1.0
1000
ANSI31
1070
     0
1070
     0
1071
        1
1071
        1
1071
        4
1070
     1
1040
21.807973
1040
25.834994
1040
21.807973
1040
24.943094
1070
     1
1040
21.807973
1040
24.943094
1040
23.625973
1040
24.943094
1070
     1
1040
23.625973
1040
24.943094
1040
23.625973
1040
25.834994
1070
     1
1040
23.625973
1040
25.834994
1040
21.807973
1040
25.834994
1071
        0
1070
     0
1070
     1
1040
0.0
1040
0.062992
1070
     0
1070
     1
1040
0.785398
1040
-6.22517
1040
-28.624349
1040
-0.141421
1040
0.141421
1070
     0
1071
        1
1040
-6.22517
1040
-28.624349
1040
0.0
1002
}
  0
LINE
  5
3A
100
AcDbEntity
  8
CARTOUCHE
  6
CONTINUOUS
 62
     4
100
AcDbLine
 10
23.625973
 20
24.943094
 30
0.0
 11
21.807973
 21
24.943094
 31
0.0
  0
LINE
  5
3B
100
AcDbEntity
  8
CARTOUCHE
  6
CONTINUOUS
 62
     4
100
AcDbLine
 10
21.807973
 20
25.834994
 30
0.0
 11
23.625973
 21
25.834994
 31
0.0
  0
LINE
  5
3C
100
AcDbEntity
  8
CARTOUCHE
  6
CONTINUOUS
 62
     4
100
AcDbLine
 10
21.807973
 20
24.508394
 30
0.0
 11
23.625973
 21
24.508394
 31
0.0
  0
LINE
  5
3D
100
AcDbEntity
  8
CARTOUCHE
  6
CONTINUOUS
 62
     4
100
AcDbLine
 10
23.625973
 20
20.632094
 30
0.0
 11
21.807973
 21
20.632094
 31
0.0
  0
INSERT
  5
3E
100
AcDbEntity
  8
CARTOUCHE
  6
CONTINUOUS
 62
     4
100
AcDbBlockReference
  2
*X6
 10
0.0
 20
0.0
 30
0.0
1001
ACAD
1000
HATCH
1002
{
1070
    19
1000
ANSI31
1040
0.062992
1040
0.0
1000
R14_HATCH_DATA
1000
3E
1011
1.0
1021
0.0
1031
0.0
1011
0.0
1021
1.0
1031
0.0
1011
0.0
1021
0.0
1031
1.0
1040
0.0
1010
0.0
1020
0.0
1030
1.0
1000
ANSI31
1070
     0
1070
     0
1071
        1
1071
        1
1071
        4
1070
     1
1040
21.807973
1040
24.508394
1040
21.807973
1040
20.632094
1070
     1
1040
21.807973
1040
20.632094
1040
23.625973
1040
20.632094
1070
     1
1040
23.625973
1040
20.632094
1040
23.625973
1040
24.508394
1070
     1
1040
23.625973
1040
24.508394
1040
21.807973
1040
24.508394
1071
        0
1070
     0
1070
     1
1040
0.0
1040
0.062992
1070
     0
1070
     1
1040
0.785398
1040
-6.22517
1040
-28.624349
1040
-0.141421
1040
0.141421
1070
     0
1071
        1
1040
-6.22517
1040
-28.624349
1040
0.0
1002
}
  0
TEXT
  5
3F
100
AcDbEntity
  8
CARTOUCHE
  6
CONTINUOUS
 62
     2
100
AcDbText
 10
16.190942
 20
14.308782
 30
0.0
 40
1.8
  1
www.findernet.com
 50
359.999908
 41
1.05
  7
FINDER
 72
     1
 11
27.500001
 21
14.308764
 31
0.0
100
AcDbText
  0
ARC
  5
40
100
AcDbEntity
  8
CARTOUCHE
  6
CONTINUOUS
 62
     4
100
AcDbCircle
 10
14.404539
 20
25.005869
 30
0.0
 40
0.500071
100
AcDbArc
 50
275.840125
 51
95.840125
  0
ARC
  5
41
100
AcDbEntity
  8
CARTOUCHE
  6
CONTINUOUS
 62
     4
100
AcDbCircle
 10
11.899651
 20
23.925417
 30
0.0
 40
3.758727
100
AcDbArc
 50
187.868554
 51
67.744476
  0
INSERT
  5
42
100
AcDbEntity
  8
CARTOUCHE
  6
CONTINUOUS
 62
     4
100
AcDbBlockReference
  2
*X7
 10
0.0
 20
0.0
 30
0.0
1001
ACAD
1000
HATCH
1002
{
1070
    19
1000
ANSI31
1040
0.062992
1040
0.0
1000
R14_HATCH_DATA
1000
42
1011
1.0
1021
0.0
1031
0.0
1011
0.0
1021
1.0
1031
0.0
1011
0.0
1021
0.0
1031
1.0
1040
0.0
1010
0.0
1020
0.0
1030
1.0
1000
ANSI31
1070
     0
1070
     0
1071
        1
1071
        1
1071
       50
1070
     1
1040
10.464823
1040
24.428744
1040
10.464823
1040
27.399506
1070
     1
1040
8.174776
1040
24.428744
1040
10.464823
1040
24.428744
1070
     1
1040
11.413873
1040
27.652621
1040
11.413873
1040
23.766514
1070
     1
1040
11.116423
1040
23.410844
1040
10.887823
1040
23.410844
1070
     1
1040
10.887823
1040
23.410844
1040
12.362923
1040
21.810194
1070
     1
1040
12.362923
1040
21.810194
1040
12.362923
1040
27.655485
1070
     1
1040
9.378523
1040
23.410844
1040
8.176313
1040
23.410844
1070
     1
1040
13.323223
1040
27.404134
1040
13.323223
1040
25.503344
1070
     1
1040
13.323223
1040
25.503344
1040
14.353656
1040
25.503344
1070
     1
1040
14.455423
1040
24.508394
1040
13.323223
1040
24.508394
1070
     1
1040
13.323223
1040
24.508394
1040
13.323223
1040
21.169844
1070
     1
1040
13.323223
1040
21.169844
1040
13.318835
1040
21.126412
1070
     1
1040
13.318835
1040
21.126412
1040
13.311632
1040
21.083268
1070
     1
1040
13.311632
1040
21.083268
1040
13.301677
1040
21.040602
1070
     1
1040
13.301677
1040
21.040602
1040
13.289029
1040
20.998605
1070
     1
1040
13.289029
1040
20.998605
1040
13.27375
1040
20.957468
1070
     1
1040
13.27375
1040
20.957468
1040
13.255877
1040
20.91734
1070
     1
1040
13.255877
1040
20.91734
1040
13.23548
1040
20.878466
1070
     1
1040
13.23548
1040
20.878466
1040
13.212608
1040
20.841045
1070
     1
1040
13.212608
1040
20.841045
1040
13.187312
1040
20.805278
1070
     1
1040
13.187312
1040
20.805278
1040
13.159643
1040
20.771365
1070
     1
1040
13.159643
1040
20.771365
1040
13.129815
1040
20.739605
1070
     1
1040
13.129815
1040
20.739605
1040
13.09792
1040
20.709874
1070
     1
1040
13.09792
1040
20.709874
1040
13.064194
1040
20.682164
1070
     1
1040
13.064194
1040
20.682164
1040
13.028871
1040
20.656467
1070
     1
1040
13.028871
1040
20.656467
1040
12.992187
1040
20.632775
1070
     1
1040
12.992187
1040
20.632775
1040
12.914787
1040
20.591129
1070
     1
1040
12.914787
1040
20.591129
1040
12.874555
1040
20.573479
1070
     1
1040
12.874555
1040
20.573479
1040
12.8334
1040
20.55801
1070
     1
1040
12.8334
1040
20.55801
1040
12.791398
1040
20.544775
1070
     1
1040
12.791398
1040
20.544775
1040
12.749249
1040
20.533994
1070
     1
1040
12.749249
1040
20.533994
1040
12.706539
1040
20.525678
1070
     1
1040
12.706539
1040
20.525678
1040
12.663456
1040
20.52007
1070
     1
1040
12.663456
1040
20.52007
1040
12.620191
1040
20.517416
1070
     1
1040
12.620191
1040
20.517416
1040
12.576934
1040
20.51796
1070
     1
1040
12.576934
1040
20.51796
1040
12.533829
1040
20.52186
1070
     1
1040
12.533829
1040
20.52186
1040
12.491053
1040
20.528907
1070
     1
1040
12.491053
1040
20.528907
1040
12.448736
1040
20.538797
1070
     1
1040
12.448736
1040
20.538797
1040
12.407007
1040
20.551229
1070
     1
1040
12.407007
1040
20.551229
1040
12.365998
1040
20.565901
1070
     1
1040
12.365998
1040
20.565901
1040
12.286013
1040
20.601363
1070
     1
1040
12.286013
1040
20.601363
1040
12.228617
1040
20.632853
1070
     1
1040
12.228617
1040
20.632853
1040
12.173699
1040
20.668328
1070
     1
1040
12.173699
1040
20.668328
1040
9.378523
1040
23.410844
1070
     2
1040
11.899646
1040
23.925422
1040
4.756723
1040
0.0
1040
6.283185
1070
     1
1070
     2
1040
11.899651
1040
23.925417
1040
3.758727
1040
1.962466
1040
3.00728
1070
     1
1070
     2
1040
10.950954
1040
23.851493
1040
0.470607
1040
5.071609
1040
6.101635
1070
     1
1070
     2
1040
11.899651
1040
23.925417
1040
3.758727
1040
1.44723
1040
1.700399
1070
     1
1070
     2
1040
11.899651
1040
23.925417
1040
3.758727
1040
3.278925
1040
7.465549
1070
     1
1070
     2
1040
14.404539
1040
25.005869
1040
0.500071
1040
4.814318
1040
7.955911
1070
     1
1071
        0
1070
     0
1070
     1
1040
0.0
1040
0.062992
1070
     0
1070
     1
1040
0.785398
1040
-6.22517
1040
-28.624349
1040
-0.141421
1040
0.141421
1070
     0
1071
        1
1040
-6.22517
1040
-28.624349
1040
0.0
1002
}
  0
CIRCLE
  5
43
100
AcDbEntity
  8
CARTOUCHE
  6
CONTINUOUS
 62
     4
100
AcDbCircle
 10
11.899646
 20
23.925422
 30
0.0
 40
4.756723
  0
SPLINE
  5
44
100
AcDbEntity
  8
CARTOUCHE
  6
CONTINUOUS
 62
     4
100
AcDbSpline
210
0.0
220
0.0
230
1.0
 70
     8
 71
     3
 72
    14
 73
    10
 74
     8
 42
0.0000001
 43
0.0000001
 44
0.000001
 12
-0.0678904074543379
 22
-0.9976927846665446
 32
0.0
 13
-0.8200536786282524
 23
0.5722866101598663
 33
0.0
 40
0.0
 40
0.0
 40
0.0
 40
0.0
 40
0.2180605659125796
 40
0.4363602901220761
 40
0.6537282770324749
 40
0.8729550900782449
 40
1.089088660433416
 40
1.305404211068232
 40
1.523279999837271
 40
1.523279999837271
 40
1.523279999837271
 40
1.523279999837271
 10
13.32322297621251
 20
21.16984360711669
 30
0.0
 10
13.31828823598933
 20
21.0973244560396
 30
0.0
 10
13.2844408636731
 20
20.95301310268235
 30
0.0
 10
13.16948287756626
 20
20.76307428111757
 30
0.0
 10
12.99638504773296
 20
20.62406330263204
 30
0.0
 10
12.79557417189416
 20
20.53568034010336
 30
0.0
 10
12.57604637235984
 20
20.50360648332739
 30
0.0
 10
12.3619451595874
 20
20.55796150196734
 30
0.0
 10
12.23325559313034
 20
20.62676560806014
 30
0.0
 10
12.17369897910899
 20
20.66832807359032
 30
0.0
 11
13.32322297621251
 21
21.16984360711669
 31
0.0
 11
13.27374961772985
 21
20.95746843688553
 31
0.0
 11
13.15964273339541
 21
20.77136537381492
 31
0.0
 11
12.99218699760145
 21
20.63277473124213
 31
0.0
 11
12.79139755994316
 21
20.54477508934442
 31
0.0
 11
12.57693403206401
 21
20.51795972590457
 31
0.0
 11
12.36599789339048
 21
20.56590052451097
 31
0.0
 11
12.17369897910899
 21
20.66832807359032
 31
0.0
  0
LINE
  5
45
100
AcDbEntity
  8
CARTOUCHE
  6
CONTINUOUS
 62
     4
100
AcDbLine
 10
9.378523
 20
23.410844
 30
0.0
 11
12.173699
 21
20.668328
 31
0.0
  0
ARC
  5
46
100
AcDbEntity
  8
CARTOUCHE
  6
CONTINUOUS
 62
     4
100
AcDbCircle
 10
11.899651
 20
23.925417
 30
0.0
 40
3.758727
100
AcDbArc
 50
112.441032
 51
172.30447
  0
LINE
  5
47
100
AcDbEntity
  8
CARTOUCHE
  6
CONTINUOUS
 62
     4
100
AcDbLine
 10
10.464823
 20
27.399506
 30
0.0
 11
10.464823
 21
24.428744
 31
0.0
  0
LINE
  5
48
100
AcDbEntity
  8
CARTOUCHE
  6
CONTINUOUS
 62
     4
100
AcDbLine
 10
8.176313
 20
23.410844
 30
0.0
 11
9.378523
 21
23.410844
 31
0.0
  0
LINE
  5
49
100
AcDbEntity
  8
CARTOUCHE
  6
CONTINUOUS
 62
     4
100
AcDbLine
 10
10.464823
 20
24.428744
 30
0.0
 11
8.174776
 21
24.428744
 31
0.0
  0
LINE
  5
4A
100
AcDbEntity
  8
CARTOUCHE
  6
CONTINUOUS
 62
     4
100
AcDbLine
 10
13.323223
 20
25.503344
 30
0.0
 11
13.323223
 21
27.404134
 31
0.0
  0
LINE
  5
4B
100
AcDbEntity
  8
CARTOUCHE
  6
CONTINUOUS
 62
     4
100
AcDbLine
 10
12.362923
 20
27.655485
 30
0.0
 11
12.362923
 21
21.810194
 31
0.0
  0
LINE
  5
4C
100
AcDbEntity
  8
CARTOUCHE
  6
CONTINUOUS
 62
     4
100
AcDbLine
 10
11.413873
 20
23.766514
 30
0.0
 11
11.413873
 21
27.652621
 31
0.0
  0
ARC
  5
4D
100
AcDbEntity
  8
CARTOUCHE
  6
CONTINUOUS
 62
     4
100
AcDbCircle
 10
10.950954
 20
23.851493
 30
0.0
 40
0.470607
100
AcDbArc
 50
290.581791
 51
349.597912
  0
LINE
  5
4E
100
AcDbEntity
  8
CARTOUCHE
  6
CONTINUOUS
 62
     4
100
AcDbLine
 10
10.887823
 20
23.410844
 30
0.0
 11
11.116423
 21
23.410844
 31
0.0
  0
LINE
  5
4F
100
AcDbEntity
  8
CARTOUCHE
  6
CONTINUOUS
 62
     4
100
AcDbLine
 10
12.362923
 20
21.810194
 30
0.0
 11
10.887823
 21
23.410844
 31
0.0
  0
LINE
  5
50
100
AcDbEntity
  8
CARTOUCHE
  6
CONTINUOUS
 62
     4
100
AcDbLine
 10
13.323223
 20
21.169844
 30
0.0
 11
13.323223
 21
24.508394
 31
0.0
  0
LINE
  5
51
100
AcDbEntity
  8
CARTOUCHE
  6
CONTINUOUS
 62
     4
100
AcDbLine
 10
14.353656
 20
25.503344
 30
0.0
 11
13.323223
 21
25.503344
 31
0.0
  0
LINE
  5
52
100
AcDbEntity
  8
CARTOUCHE
  6
CONTINUOUS
 62
     4
100
AcDbLine
 10
13.323223
 20
24.508394
 30
0.0
 11
14.455423
 21
24.508394
 31
0.0
  0
ARC
  5
53
100
AcDbEntity
  8
CARTOUCHE
  6
CONTINUOUS
 62
     4
100
AcDbCircle
 10
11.899651
 20
23.925417
 30
0.0
 40
3.758727
100
AcDbArc
 50
82.920154
 51
97.425676
  0
INSERT
  5
54
100
AcDbEntity
  8
CARTOUCHE
  6
CONTINUOUS
 62
     4
100
AcDbBlockReference
  2
*X8
 10
0.0
 20
0.0
 30
0.0
1001
ACAD
1000
HATCH
1002
{
1070
    19
1000
ANSI31
1040
0.062992
1040
0.0
1000
R14_HATCH_DATA
1000
54
1011
1.0
1021
0.0
1031
0.0
1011
0.0
1021
1.0
1031
0.0
1011
0.0
1021
0.0
1031
1.0
1040
0.0
1010
0.0
1020
0.0
1030
1.0
1000
ANSI31
1070
     0
1070
     0
1071
        1
1071
        1
1071
       16
1070
     1
1040
18.674623
1040
24.508394
1040
18.674623
1040
24.929401
1070
     1
1040
19.580259
1040
25.834994
1040
21.087523
1040
25.834994
1070
     1
1040
21.087523
1040
25.834994
1040
21.087523
1040
24.931844
1070
     1
1040
21.087523
1040
24.931844
1040
20.679053
1040
24.931844
1070
     1
1040
20.461079
1040
24.768622
1040
20.412973
1040
24.508394
1070
     1
1040
20.412973
1040
24.508394
1040
21.087523
1040
24.508394
1070
     1
1040
21.087523
1040
24.508394
1040
21.087523
1040
23.410844
1070
     1
1040
21.087523
1040
23.410844
1040
20.470123
1040
23.410844
1070
     1
1040
20.470123
1040
23.410844
1040
20.470123
1040
20.632094
1070
     1
1040
20.470123
1040
20.632094
1040
18.674623
1040
20.632094
1070
     1
1040
18.674623
1040
20.632094
1040
18.674623
1040
23.410844
1070
     1
1040
18.674623
1040
23.410844
1040
18.137323
1040
23.410844
1070
     1
1040
18.137323
1040
23.410844
1040
18.137323
1040
24.508394
1070
     1
1040
18.137323
1040
24.508394
1040
18.674623
1040
24.508394
1070
     2
1040
19.580259
1040
24.929401
1040
0.905639
1040
1.570796
1040
3.141593
1070
     1
1070
     2
1040
20.705988
1040
24.668716
1040
0.264503
1040
1.672805
1040
2.754266
1070
     1
1071
        0
1070
     0
1070
     1
1040
0.0
1040
0.062992
1070
     0
1070
     1
1040
0.785398
1040
-6.22517
1040
-28.624349
1040
-0.141421
1040
0.141421
1070
     0
1071
        1
1040
-6.22517
1040
-28.624349
1040
0.0
1002
}
  0
LINE
  5
55
100
AcDbEntity
  8
CARTOUCHE
  6
CONTINUOUS
 62
     4
100
AcDbLine
 10
21.807973
 20
20.632094
 30
0.0
 11
21.807973
 21
24.508394
 31
0.0
  0
LINE
  5
56
100
AcDbEntity
  8
CARTOUCHE
  6
CONTINUOUS
 62
     4
100
AcDbLine
 10
20.470123
 20
20.632094
 30
0.0
 11
20.470123
 21
23.410844
 31
0.0
  0
LINE
  5
57
100
AcDbEntity
  8
CARTOUCHE
  6
CONTINUOUS
 62
     4
100
AcDbLine
 10
18.674623
 20
23.410844
 30
0.0
 11
18.674623
 21
20.632094
 31
0.0
  0
LINE
  5
58
100
AcDbEntity
  8
CARTOUCHE
  6
CONTINUOUS
 62
     4
100
AcDbLine
 10
18.674623
 20
20.632094
 30
0.0
 11
20.470123
 21
20.632094
 31
0.0
  0
ARC
  5
59
100
AcDbEntity
  8
CARTOUCHE
  6
CONTINUOUS
 62
     4
100
AcDbCircle
 10
19.580259
 20
24.929401
 30
0.0
 40
0.905639
100
AcDbArc
 50
90.0
 51
180.0
  0
LINE
  5
5A
100
AcDbEntity
  8
CARTOUCHE
  6
CONTINUOUS
 62
     4
100
AcDbLine
 10
18.137323
 20
23.410844
 30
0.0
 11
18.674623
 21
23.410844
 31
0.0
  0
LINE
  5
5B
100
AcDbEntity
  8
CARTOUCHE
  6
CONTINUOUS
 62
     4
100
AcDbLine
 10
18.137323
 20
24.508394
 30
0.0
 11
18.137323
 21
23.410844
 31
0.0
  0
LINE
  5
5C
100
AcDbEntity
  8
CARTOUCHE
  6
CONTINUOUS
 62
     4
100
AcDbLine
 10
18.674623
 20
24.508394
 30
0.0
 11
18.137323
 21
24.508394
 31
0.0
  0
LINE
  5
5D
100
AcDbEntity
  8
CARTOUCHE
  6
CONTINUOUS
 62
     4
100
AcDbLine
 10
18.674623
 20
24.931844
 30
0.0
 11
18.674623
 21
24.508394
 31
0.0
  0
LINE
  5
5E
100
AcDbEntity
  8
CARTOUCHE
  6
CONTINUOUS
 62
     4
100
AcDbLine
 10
20.679053
 20
24.931844
 30
0.0
 11
21.087523
 21
24.931844
 31
0.0
  0
LINE
  5
5F
100
AcDbEntity
  8
CARTOUCHE
  6
CONTINUOUS
 62
     4
100
AcDbLine
 10
21.087523
 20
24.508394
 30
0.0
 11
20.412973
 21
24.508394
 31
0.0
  0
LINE
  5
60
100
AcDbEntity
  8
CARTOUCHE
  6
CONTINUOUS
 62
     4
100
AcDbLine
 10
20.470123
 20
23.410844
 30
0.0
 11
21.087523
 21
23.410844
 31
0.0
  0
LINE
  5
61
100
AcDbEntity
  8
CARTOUCHE
  6
CONTINUOUS
 62
     4
100
AcDbLine
 10
21.087523
 20
25.834994
 30
0.0
 11
19.589473
 21
25.834994
 31
0.0
  0
ARC
  5
62
100
AcDbEntity
  8
CARTOUCHE
  6
CONTINUOUS
 62
     4
100
AcDbCircle
 10
20.705988
 20
24.668716
 30
0.0
 40
0.264503
100
AcDbArc
 50
95.844673
 51
157.807812
  0
LINE
  5
63
100
AcDbEntity
  8
CARTOUCHE
  6
CONTINUOUS
 62
     4
100
AcDbLine
 10
20.412973
 20
24.508394
 30
0.0
 11
20.461079
 21
24.768622
 31
0.0
  0
LINE
  5
64
100
AcDbEntity
  8
CARTOUCHE
  6
CONTINUOUS
 62
     4
100
AcDbLine
 10
21.807973
 20
24.943094
 30
0.0
 11
21.807973
 21
25.834994
 31
0.0
  0
LINE
  5
65
100
AcDbEntity
  8
CARTOUCHE
  6
CONTINUOUS
 62
     4
100
AcDbLine
 10
21.087523
 20
23.410844
 30
0.0
 11
21.087523
 21
24.508394
 31
0.0
  0
LINE
  5
66
100
AcDbEntity
  8
CARTOUCHE
  6
CONTINUOUS
 62
     4
100
AcDbLine
 10
21.087523
 20
24.931844
 30
0.0
 11
21.087523
 21
25.834994
 31
0.0
  0
SPLINE
  5
67
100
AcDbEntity
  8
CARTOUCHE
  6
CONTINUOUS
 62
     4
100
AcDbSpline
210
0.0
220
0.0
230
-1.0
 70
     8
 71
     3
 72
    36
 73
    32
 74
    30
 42
0.0000001
 43
0.0000001
 44
0.000001
 12
-0.7486966541787443
 22
0.6629127544568397
 32
0.0
 13
0.8109899424984487
 23
0.5850600936368528
 33
0.0
 40
0.0
 40
0.0
 40
0.0
 40
0.0
 40
0.1780757831166552
 40
0.3550411304737638
 40
0.5343443125649352
 40
0.714655491811149
 40
1.070968606639404
 40
1.425796208074303
 40
1.782600543780741
 40
2.138603420097711
 40
2.494664590840577
 40
2.851053865932449
 40
3.206892455734438
 40
3.563375304300148
 40
3.919393169056189
 40
4.275488633957715
 40
4.63180939296686
 40
4.98796819639783
 40
5.344080709448852
 40
5.700397923933461
 40
6.056402401153455
 40
6.412684881890918
 40
6.768553141959223
 40
7.124993202679218
 40
7.480917853860609
 40
7.837064146578088
 40
8.193225691107732
 40
8.549152693439989
 40
8.905926847727792
 40
9.261827245523043
 40
9.970556688389352
 40
9.970556688389352
 40
9.970556688389352
 40
9.970556688389352
 10
34.19152297621249
 20
24.31990419713182
 30
0.0
 10
34.14708139520926
 20
24.35925376642779
 30
0.0
 10
34.05217150086914
 20
24.43173507527464
 30
0.0
 10
33.88702571777853
 20
24.50226704153207
 30
0.0
 10
33.71305219922994
 20
24.54495620852745
 30
0.0
 10
33.47834936508675
 20
24.58798228938456
 30
0.0
 10
33.1851820926192
 20
24.6380068096761
 30
0.0
 10
32.82899740219373
 20
24.65936878443557
 30
0.0
 10
32.47326766739478
 20
24.64621351281227
 30
0.0
 10
32.11757587007376
 20
24.61242842857664
 30
0.0
 10
31.7729929656132
 20
24.51557066505452
 30
0.0
 10
31.44749961346493
 20
24.36660637828334
 30
0.0
 10
31.15775792247553
 20
24.15567786292991
 30
0.0
 10
30.90609575122359
 20
23.90204661589372
 30
0.0
 10
30.69450217558054
 20
23.61346823741279
 30
0.0
 10
30.53862680930607
 20
23.29089595113819
 30
0.0
 10
30.4427778154184
 20
22.94623291404152
 30
0.0
 10
30.40515987330755
 20
22.5896805608234
 30
0.0
 10
30.44352428304454
 20
22.23351812056702
 30
0.0
 10
30.53308942379928
 20
21.88748882621621
 30
0.0
 10
30.68157948277334
 20
21.56148503257428
 30
0.0
 10
30.88917782475931
 20
21.26919472073597
 30
0.0
 10
31.15221375027256
 20
21.02575919010237
 30
0.0
 10
31.45092615893588
 20
20.82973489264703
 30
0.0
 10
31.77615974301296
 20
20.68002674890266
 30
0.0
 10
32.12459917705964
 20
20.59680902996356
 30
0.0
 10
32.48036304556569
 20
20.56921473627849
 30
0.0
 10
32.83672036586225
 20
20.56880375590484
 30
0.0
 10
33.1928878270672
 20
20.5809605165969
 30
0.0
 10
33.66419136840351
 20
20.63797128162552
 30
0.0
 10
33.99993215950679
 20
20.78862716904784
 30
0.0
 10
34.19152297621249
 20
20.92684360711669
 30
0.0
 11
34.19152297621249
 21
24.31990419713182
 31
0.0
 11
34.04814564948316
 21
24.42551803537496
 31
0.0
 11
33.886414432493
 21
24.49734946038967
 31
0.0
 11
33.71305596481814
 21
24.54313679053143
 31
0.0
 11
33.53598457982956
 21
24.57716399139704
 31
0.0
 11
33.18386096308204
 21
24.63164336554592
 31
0.0
 11
32.8297140010732
 21
24.65361067318905
 31
0.0
 11
32.47307470160767
 21
24.6427593690914
 31
0.0
 11
32.11942187052807
 21
24.60192152108414
 31
0.0
 11
31.77626880985488
 21
24.50691864896159
 31
0.0
 11
31.45331806594562
 21
24.35619987525168
 31
0.0
 11
31.16425081659299
 21
24.14868782982736
 31
0.0
 11
30.91268311986691
 21
23.89611360248224
 31
0.0
 11
30.70379325220439
 21
23.60781901266322
 31
0.0
 11
30.54866063637869
 21
23.28729150751013
 31
0.0
 11
30.45247328846812
 21
22.94419894098582
 31
0.0
 11
30.4178204424804
 21
22.58972989255913
 31
0.0
 11
30.4520470898832
 21
22.23526594311771
 31
0.0
 11
30.54294059487364
 21
21.89073675637875
 31
0.0
 11
30.691396483504
 21
21.56716285752306
 31
0.0
 11
30.89849041843911
 21
21.27725022136696
 31
0.0
 11
31.15802450035081
 21
21.03376654019861
 31
0.0
 11
31.45548308742885
 21
20.83737935540596
 31
0.0
 11
31.77997022332717
 21
20.69112453447919
 31
0.0
 11
32.12581407620214
 21
20.60608206244056
 31
0.0
 11
32.48050427697165
 21
20.57374147270578
 31
0.0
 11
32.83641989969535
 21
20.57089422013113
 31
0.0
 11
33.19286980656467
 21
20.58610182742617
 31
0.0
 11
33.54527140198384
 21
20.63588357412756
 31
0.0
 11
34.19152297621249
 21
20.92684360711669
 31
0.0
  0
INSERT
  5
68
100
AcDbEntity
  8
CARTOUCHE
  6
CONTINUOUS
 62
     4
100
AcDbBlockReference
  2
*X9
 10
0.0
 20
0.0
 30
0.0
1001
ACAD
1000
HATCH
1002
{
1070
    19
1000
ANSI31
1040
0.062992
1040
0.0
1000
R14_HATCH_DATA
1000
68
1011
1.0
1021
0.0
1031
0.0
1011
0.0
1021
1.0
1031
0.0
1011
0.0
1021
0.0
1031
1.0
1040
0.0
1010
0.0
1020
0.0
1030
1.0
1000
ANSI31
1070
     0
1070
     0
1071
        1
1071
        1
1071
      154
1070
     1
1040
34.191523
1040
24.319904
1040
34.136639
1040
24.365465
1070
     1
1040
34.136639
1040
24.365465
1040
34.093353
1040
24.396952
1070
     1
1040
34.093353
1040
24.396952
1040
34.048146
1040
24.425518
1070
     1
1040
34.048146
1040
24.425518
1040
33.985315
1040
24.458243
1070
     1
1040
33.985315
1040
24.458243
1040
33.936415
1040
24.479183
1070
     1
1040
33.936415
1040
24.479183
1040
33.886414
1040
24.497349
1070
     1
1040
33.886414
1040
24.497349
1040
33.800369
1040
24.52267
1070
     1
1040
33.800369
1040
24.52267
1040
33.713056
1040
24.543137
1070
     1
1040
33.713056
1040
24.543137
1040
33.535985
1040
24.577164
1070
     1
1040
33.535985
1040
24.577164
1040
33.183861
1040
24.631643
1070
     1
1040
33.183861
1040
24.631643
1040
32.829714
1040
24.653611
1070
     1
1040
32.829714
1040
24.653611
1040
32.473075
1040
24.642759
1070
     1
1040
32.473075
1040
24.642759
1040
32.295535
1040
24.627567
1070
     1
1040
32.295535
1040
24.627567
1040
32.119422
1040
24.601922
1070
     1
1040
32.119422
1040
24.601922
1040
31.980393
1040
24.570874
1070
     1
1040
31.980393
1040
24.570874
1040
31.776269
1040
24.506919
1070
     1
1040
31.776269
1040
24.506919
1040
31.643857
1040
24.453442
1070
     1
1040
31.643857
1040
24.453442
1040
31.547199
1040
24.407478
1070
     1
1040
31.547199
1040
24.407478
1040
31.453318
1040
24.3562
1070
     1
1040
31.453318
1040
24.3562
1040
31.333276
1040
24.279541
1070
     1
1040
31.333276
1040
24.279541
1040
31.164251
1040
24.148688
1070
     1
1040
31.164251
1040
24.148688
1040
31.058938
1040
24.052358
1070
     1
1040
31.058938
1040
24.052358
1040
30.912683
1040
23.896114
1070
     1
1040
30.912683
1040
23.896114
1040
30.823445
1040
23.784931
1070
     1
1040
30.823445
1040
23.784931
1040
30.703793
1040
23.607819
1070
     1
1040
30.703793
1040
23.607819
1040
30.634816
1040
23.48302
1070
     1
1040
30.634816
1040
23.48302
1040
30.589096
1040
23.38631
1070
     1
1040
30.589096
1040
23.38631
1040
30.548661
1040
23.287292
1070
     1
1040
30.548661
1040
23.287292
1040
30.503077
1040
23.152132
1070
     1
1040
30.503077
1040
23.152132
1040
30.452473
1040
22.944199
1070
     1
1040
30.452473
1040
22.944199
1040
30.430632
1040
22.80315
1070
     1
1040
30.430632
1040
22.80315
1040
30.421047
1040
22.696588
1070
     1
1040
30.421047
1040
22.696588
1040
30.41782
1040
22.58973
1070
     1
1040
30.41782
1040
22.58973
1040
30.423783
1040
22.447355
1070
     1
1040
30.423783
1040
22.447355
1040
30.452047
1040
22.235266
1070
     1
1040
30.452047
1040
22.235266
1040
30.481823
1040
22.095683
1070
     1
1040
30.481823
1040
22.095683
1040
30.542941
1040
21.890737
1070
     1
1040
30.542941
1040
21.890737
1040
30.595245
1040
21.758144
1070
     1
1040
30.595245
1040
21.758144
1040
30.640663
1040
21.661326
1070
     1
1040
30.640663
1040
21.661326
1040
30.691396
1040
21.567163
1070
     1
1040
30.691396
1040
21.567163
1040
30.767341
1040
21.446302
1070
     1
1040
30.767341
1040
21.446302
1040
30.830371
1040
21.359778
1070
     1
1040
30.830371
1040
21.359778
1040
30.89849
1040
21.27725
1070
     1
1040
30.89849
1040
21.27725
1040
30.996767
1040
21.17408
1070
     1
1040
30.996767
1040
21.17408
1040
31.158025
1040
21.033767
1070
     1
1040
31.158025
1040
21.033767
1040
31.273232
1040
20.949577
1070
     1
1040
31.273232
1040
20.949577
1040
31.455483
1040
20.837379
1070
     1
1040
31.455483
1040
20.837379
1040
31.582285
1040
20.772196
1070
     1
1040
31.582285
1040
20.772196
1040
31.680038
1040
20.728943
1070
     1
1040
31.680038
1040
20.728943
1040
31.77997
1040
20.691125
1070
     1
1040
31.77997
1040
20.691125
1040
31.916406
1040
20.649737
1070
     1
1040
31.916406
1040
20.649737
1040
32.125814
1040
20.606082
1070
     1
1040
32.125814
1040
20.606082
1040
32.302677
1040
20.584734
1070
     1
1040
32.302677
1040
20.584734
1040
32.480504
1040
20.573741
1070
     1
1040
32.480504
1040
20.573741
1040
32.83642
1040
20.570894
1070
     1
1040
32.83642
1040
20.570894
1040
33.19287
1040
20.586102
1070
     1
1040
33.19287
1040
20.586102
1040
33.334597
1040
20.6
1070
     1
1040
33.334597
1040
20.6
1040
33.545271
1040
20.635884
1070
     1
1040
33.545271
1040
20.635884
1040
33.682853
1040
20.673016
1070
     1
1040
33.682853
1040
20.673016
1040
33.817433
1040
20.721154
1070
     1
1040
33.817433
1040
20.721154
1040
33.947848
1040
20.779822
1070
     1
1040
33.947848
1040
20.779822
1040
34.072933
1040
20.848544
1070
     1
1040
34.072933
1040
20.848544
1040
34.191523
1040
20.926844
1070
     1
1040
34.191523
1040
20.926844
1040
34.191523
1040
20.620844
1070
     1
1040
34.191523
1040
20.620844
1040
35.986573
1040
20.620844
1070
     1
1040
35.986573
1040
20.620844
1040
35.986573
1040
25.823744
1070
     1
1040
35.986573
1040
25.823744
1040
34.191523
1040
25.823744
1070
     1
1040
34.191523
1040
25.823744
1040
34.191523
1040
24.319904
1070
     1
1040
34.191523
1040
22.759244
1040
34.185224
1040
22.797429
1070
     1
1040
34.185224
1040
22.797429
1040
34.176704
1040
22.835258
1070
     1
1040
34.176704
1040
22.835258
1040
34.165972
1040
22.872565
1070
     1
1040
34.165972
1040
22.872565
1040
34.153041
1040
22.909184
1070
     1
1040
34.153041
1040
22.909184
1040
34.137919
1040
22.94495
1070
     1
1040
34.137919
1040
22.94495
1040
34.120622
1040
22.979724
1070
     1
1040
34.120622
1040
22.979724
1040
34.101241
1040
23.01337
1070
     1
1040
34.101241
1040
23.01337
1040
34.079871
1040
23.045781
1070
     1
1040
34.079871
1040
23.045781
1040
34.05661
1040
23.076848
1070
     1
1040
34.05661
1040
23.076848
1040
34.031554
1040
23.106464
1070
     1
1040
34.031554
1040
23.106464
1040
34.004808
1040
23.13454
1070
     1
1040
34.004808
1040
23.13454
1040
33.976513
1040
23.161059
1070
     1
1040
33.976513
1040
23.161059
1040
33.931497
1040
23.19792
1070
     1
1040
33.931497
1040
23.19792
1040
33.883839
1040
23.231288
1070
     1
1040
33.883839
1040
23.231288
1040
33.817408
1040
23.270254
1070
     1
1040
33.817408
1040
23.270254
1040
33.7126
1040
23.318705
1070
     1
1040
33.7126
1040
23.318705
1040
33.529126
1040
23.38024
1070
     1
1040
33.529126
1040
23.38024
1040
33.341295
1040
23.426807
1070
     1
1040
33.341295
1040
23.426807
1040
33.265367
1040
23.43872
1070
     1
1040
33.265367
1040
23.43872
1040
33.207992
1040
23.444184
1070
     1
1040
33.207992
1040
23.444184
1040
33.150433
1040
23.446185
1070
     1
1040
33.150433
1040
23.446185
1040
33.073206
1040
23.442941
1070
     1
1040
33.073206
1040
23.442941
1040
33.01556
1040
23.436269
1070
     1
1040
33.01556
1040
23.436269
1040
32.958383
1040
23.426252
1070
     1
1040
32.958383
1040
23.426252
1040
32.882791
1040
23.40795
1070
     1
1040
32.882791
1040
23.40795
1040
32.827093
1040
23.390689
1070
     1
1040
32.827093
1040
23.390689
1040
32.772401
1040
23.370479
1070
     1
1040
32.772401
1040
23.370479
1040
32.701623
1040
23.339164
1070
     1
1040
32.701623
1040
23.339164
1040
32.650176
1040
23.312245
1070
     1
1040
32.650176
1040
23.312245
1040
32.600378
1040
23.2823
1070
     1
1040
32.600378
1040
23.2823
1040
32.537441
1040
23.23798
1070
     1
1040
32.537441
1040
23.23798
1040
32.478372
1040
23.188413
1070
     1
1040
32.478372
1040
23.188413
1040
32.423769
1040
23.133776
1070
     1
1040
32.423769
1040
23.133776
1040
32.37423
1040
23.074247
1070
     1
1040
32.37423
1040
23.074247
1040
32.330353
1040
23.010003
1070
     1
1040
32.330353
1040
23.010003
1040
32.292818
1040
22.941394
1070
     1
1040
32.292818
1040
22.941394
1040
32.262521
1040
22.869246
1070
     1
1040
32.262521
1040
22.869246
1040
32.250396
1040
22.832155
1070
     1
1040
32.250396
1040
22.832155
1040
32.240449
1040
22.794552
1070
     1
1040
32.240449
1040
22.794552
1040
32.232805
1040
22.756561
1070
     1
1040
32.232805
1040
22.756561
1040
32.227586
1040
22.718306
1070
     1
1040
32.227586
1040
22.718306
1040
32.224917
1040
22.679912
1070
     1
1040
32.224917
1040
22.679912
1040
32.224919
1040
22.641503
1070
     1
1040
32.224919
1040
22.641503
1040
32.227693
1040
22.60294
1070
     1
1040
32.227693
1040
22.60294
1040
32.233111
1040
22.564618
1070
     1
1040
32.233111
1040
22.564618
1040
32.240981
1040
22.526667
1070
     1
1040
32.240981
1040
22.526667
1040
32.251114
1040
22.489217
1070
     1
1040
32.251114
1040
22.489217
1040
32.263318
1040
22.4524
1070
     1
1040
32.263318
1040
22.4524
1040
32.293645
1040
22.380425
1070
     1
1040
32.293645
1040
22.380425
1040
32.321048
1040
22.328706
1070
     1
1040
32.321048
1040
22.328706
1040
32.352154
1040
22.2791
1070
     1
1040
32.352154
1040
22.2791
1040
32.398586
1040
22.217113
1070
     1
1040
32.398586
1040
22.217113
1040
32.437235
1040
22.173772
1070
     1
1040
32.437235
1040
22.173772
1040
32.479066
1040
22.133554
1070
     1
1040
32.479066
1040
22.133554
1040
32.539186
1040
22.085487
1070
     1
1040
32.539186
1040
22.085487
1040
32.587212
1040
22.053355
1070
     1
1040
32.587212
1040
22.053355
1040
32.637257
1040
22.024481
1070
     1
1040
32.637257
1040
22.024481
1040
32.707048
1040
21.990519
1070
     1
1040
32.707048
1040
21.990519
1040
32.815648
1040
21.948581
1070
     1
1040
32.815648
1040
21.948581
1040
32.889663
1040
21.925699
1070
     1
1040
32.889663
1040
21.925699
1040
33.002738
1040
21.899168
1070
     1
1040
33.002738
1040
21.899168
1040
33.078914
1040
21.887245
1070
     1
1040
33.078914
1040
21.887245
1040
33.194199
1040
21.878646
1070
     1
1040
33.194199
1040
21.878646
1040
33.271463
1040
21.879509
1070
     1
1040
33.271463
1040
21.879509
1040
33.386902
1040
21.8909
1070
     1
1040
33.386902
1040
21.8909
1040
33.46279
1040
21.905127
1070
     1
1040
33.46279
1040
21.905127
1040
33.537631
1040
21.924554
1070
     1
1040
33.537631
1040
21.924554
1040
33.611002
1040
21.949047
1070
     1
1040
33.611002
1040
21.949047
1040
33.682477
1040
21.978473
1070
     1
1040
33.682477
1040
21.978473
1040
33.751634
1040
22.012698
1070
     1
1040
33.751634
1040
22.012698
1040
33.818499
1040
22.051846
1070
     1
1040
33.818499
1040
22.051846
1040
33.91321
1040
22.119126
1070
     1
1040
33.91321
1040
22.119126
1040
33.972146
1040
22.169599
1070
     1
1040
33.972146
1040
22.169599
1040
34.013325
1040
22.210664
1070
     1
1040
34.013325
1040
22.210664
1040
34.051197
1040
22.254741
1070
     1
1040
34.051197
1040
22.254741
1040
34.074237
1040
22.285782
1070
     1
1040
34.074237
1040
22.285782
1040
34.09545
1040
22.318141
1070
     1
1040
34.09545
1040
22.318141
1040
34.114752
1040
22.351701
1070
     1
1040
34.114752
1040
22.351701
1040
34.13206
1040
22.386344
1070
     1
1040
34.13206
1040
22.386344
1040
34.147289
1040
22.421954
1070
     1
1040
34.147289
1040
22.421954
1040
34.160411
1040
22.458525
1070
     1
1040
34.160411
1040
22.458525
1040
34.171377
1040
22.495797
1070
     1
1040
34.171377
1040
22.495797
1040
34.180205
1040
22.533619
1070
     1
1040
34.180205
1040
22.533619
1040
34.186914
1040
22.571835
1070
     1
1040
34.186914
1040
22.571835
1040
34.191523
1040
22.610294
1070
     1
1040
34.191523
1040
22.610294
1040
34.191523
1040
22.759244
1071
        0
1070
     0
1070
     1
1040
0.0
1040
0.062992
1070
     0
1070
     1
1040
0.785398
1040
-6.22517
1040
-28.624349
1040
-0.141421
1040
0.141421
1070
     0
1071
        1
1040
-6.22517
1040
-28.624349
1040
0.0
1002
}
  0
LINE
  5
69
100
AcDbEntity
  8
CARTOUCHE
  6
CONTINUOUS
 62
     4
100
AcDbLine
 10
26.289973
 20
20.632094
 30
0.0
 11
26.289973
 21
22.433499
 31
0.0
  0
LINE
  5
6A
100
AcDbEntity
  8
CARTOUCHE
  6
CONTINUOUS
 62
     4
100
AcDbLine
 10
29.892223
 20
20.632094
 30
0.0
 11
29.892223
 21
23.324553
 31
0.0
  0
LINE
  5
6B
100
AcDbEntity
  8
CARTOUCHE
  6
CONTINUOUS
 62
     4
100
AcDbLine
 10
28.108423
 20
22.479034
 30
0.0
 11
28.108423
 21
20.632094
 31
0.0
  0
LINE
  5
6C
100
AcDbEntity
  8
CARTOUCHE
  6
CONTINUOUS
 62
     4
100
AcDbLine
 10
23.625973
 20
24.508394
 30
0.0
 11
23.625973
 21
20.632094
 31
0.0
  0
LINE
  5
6D
100
AcDbEntity
  8
CARTOUCHE
  6
CONTINUOUS
 62
     4
100
AcDbLine
 10
24.494923
 20
24.508394
 30
0.0
 11
24.494923
 21
20.632094
 31
0.0
  0
INSERT
  5
6E
100
AcDbEntity
  8
CARTOUCHE
  6
CONTINUOUS
 62
     4
100
AcDbBlockReference
  2
*X10
 10
0.0
 20
0.0
 30
0.0
1001
ACAD
1000
HATCH
1002
{
1070
    19
1000
ANSI31
1040
0.062992
1040
0.0
1000
R14_HATCH_DATA
1000
6E
1011
1.0
1021
0.0
1031
0.0
1011
0.0
1021
1.0
1031
0.0
1011
0.0
1021
0.0
1031
1.0
1040
0.0
1010
0.0
1020
0.0
1030
1.0
1000
ANSI31
1070
     0
1070
     0
1071
        1
1071
        1
1071
       12
1070
     1
1040
26.289973
1040
24.508394
1040
26.289973
1040
24.074144
1070
     1
1040
29.892223
1040
23.324553
1040
29.892223
1040
20.632094
1070
     1
1040
29.892223
1040
20.632094
1040
28.108423
1040
20.632094
1070
     1
1040
28.108423
1040
20.632094
1040
28.108423
1040
22.479034
1070
     1
1040
26.289973
1040
22.433499
1040
26.289973
1040
20.632094
1070
     1
1040
26.289973
1040
20.632094
1040
24.494923
1040
20.632094
1070
     1
1040
24.494923
1040
20.632094
1040
24.494923
1040
24.508394
1070
     1
1040
24.494923
1040
24.508394
1040
26.289973
1040
24.508394
1070
     2
1040
28.067403
1040
21.045261
1040
3.511892
1040
1.25441
1040
2.101473
1070
     1
1070
     2
1040
28.675028
1040
23.264873
1040
1.218658
1040
0.048991
1040
1.161443
1070
     1
1070
     2
1040
27.457324
1040
22.479034
1040
0.651124
1040
0.0
1040
1.695599
1070
     1
1070
     2
1040
27.44381
1040
21.820079
1040
1.306761
1040
1.622502
1040
2.652958
1070
     1
1071
        0
1070
     0
1070
     1
1040
0.0
1040
0.062992
1070
     0
1070
     1
1040
0.785398
1040
-6.22517
1040
-28.624349
1040
-0.141421
1040
0.141421
1070
     0
1071
        1
1040
-6.22517
1040
-28.624349
1040
0.0
1002
}
  0
LINE
  5
6F
100
AcDbEntity
  8
CARTOUCHE
  6
CONTINUOUS
 62
     4
100
AcDbLine
 10
24.494923
 20
20.632094
 30
0.0
 11
26.289973
 21
20.632094
 31
0.0
  0
LINE
  5
70
100
AcDbEntity
  8
CARTOUCHE
  6
CONTINUOUS
 62
     4
100
AcDbLine
 10
28.108423
 20
20.632094
 30
0.0
 11
29.892223
 21
20.632094
 31
0.0
  0
ARC
  5
71
100
AcDbEntity
  8
CARTOUCHE
  6
CONTINUOUS
 62
     4
100
AcDbCircle
 10
27.44381
 20
21.820079
 30
0.0
 40
1.306761
100
AcDbArc
 50
92.962513
 51
152.003324
  0
ARC
  5
72
100
AcDbEntity
  8
CARTOUCHE
  6
CONTINUOUS
 62
     4
100
AcDbCircle
 10
28.067403
 20
21.045261
 30
0.0
 40
3.511892
100
AcDbArc
 50
71.872392
 51
120.405557
  0
LINE
  5
73
100
AcDbEntity
  8
CARTOUCHE
  6
CONTINUOUS
 62
     4
100
AcDbLine
 10
26.289973
 20
24.508394
 30
0.0
 11
24.494923
 21
24.508394
 31
0.0
  0
LINE
  5
74
100
AcDbEntity
  8
CARTOUCHE
  6
CONTINUOUS
 62
     4
100
AcDbLine
 10
23.625973
 20
25.834994
 30
0.0
 11
23.625973
 21
24.943094
 31
0.0
  0
LINE
  5
75
100
AcDbEntity
  8
CARTOUCHE
  6
CONTINUOUS
 62
     4
100
AcDbLine
 10
26.289973
 20
24.074144
 30
0.0
 11
26.289973
 21
24.508394
 31
0.0
  0
ARC
  5
76
100
AcDbEntity
  8
CARTOUCHE
  6
CONTINUOUS
 62
     4
100
AcDbCircle
 10
27.457324
 20
22.479034
 30
0.0
 40
0.651124
100
AcDbArc
 50
0.0
 51
97.150683
  0
ARC
  5
77
100
AcDbEntity
  8
CARTOUCHE
  6
CONTINUOUS
 62
     4
100
AcDbCircle
 10
28.675028
 20
23.264873
 30
0.0
 40
1.218658
100
AcDbArc
 50
2.806997
 51
66.545781
  0
LINE
  5
78
100
AcDbEntity
  8
CARTOUCHE
  6
CONTINUOUS
 62
     4
100
AcDbLine
 10
35.986573
 20
25.823744
 30
0.0
 11
35.986573
 21
20.620844
 31
0.0
  0
LINE
  5
79
100
AcDbEntity
  8
CARTOUCHE
  6
CONTINUOUS
 62
     4
100
AcDbLine
 10
34.191523
 20
20.620844
 30
0.0
 11
34.191523
 21
20.926844
 31
0.0
  0
LINE
  5
7A
100
AcDbEntity
  8
CARTOUCHE
  6
CONTINUOUS
 62
     4
100
AcDbLine
 10
35.986573
 20
20.620844
 30
0.0
 11
34.191523
 21
20.620844
 31
0.0
  0
LINE
  5
7B
100
AcDbEntity
  8
CARTOUCHE
  6
CONTINUOUS
 62
     4
100
AcDbLine
 10
34.191523
 20
25.823744
 30
0.0
 11
35.986573
 21
25.823744
 31
0.0
  0
SPLINE
  5
7C
100
AcDbEntity
  8
CARTOUCHE
  6
CONTINUOUS
 62
     4
100
AcDbSpline
210
0.0
220
0.0
230
1.0
 70
     8
 71
     3
 72
    32
 73
    28
 74
    26
 42
0.0000001
 43
0.0000001
 44
0.000001
 12
-0.1341089932713914
 22
0.9909665876929121
 32
0.0
 13
0.0921211275959058
 23
0.9957478083583508
 33
0.0
 40
0.0
 40
0.0
 40
0.0
 40
0.0
 40
0.1932867580524454
 40
0.3866788451150791
 40
0.5800711654485758
 40
0.7723325873166358
 40
0.9658511975047813
 40
1.159367686947902
 40
1.351211207743471
 40
1.544292792016133
 40
1.738457494080144
 40
1.931763602335261
 40
2.315246619553241
 40
2.69853312463332
 40
2.891495447689225
 40
3.086238095910866
 40
3.279344938314636
 40
3.471493433338554
 40
3.665360119317714
 40
3.858864929667114
 40
4.051423127032069
 40
4.24451564009766
 40
4.629045942604745
 40
4.822524541072649
 40
5.015996623878569
 40
5.208854618112321
 40
5.402317524092618
 40
5.402317524092618
 40
5.402317524092618
 40
5.402317524092618
 10
34.19152297621249
 20
22.75924360711669
 30
0.0
 10
34.1828824787008
 20
22.82309051347451
 30
0.0
 10
34.14698932765786
 20
22.94923029275335
 30
0.0
 10
34.03863076707331
 20
23.1129580496783
 30
0.0
 10
33.88808648116188
 20
23.23750470853534
 30
0.0
 10
33.71390301491271
 20
23.32349543169012
 30
0.0
 10
33.52952349037025
 20
23.38166617796113
 30
0.0
 10
33.34290557585106
 20
23.43125883501366
 30
0.0
 10
33.15005919966966
 20
23.45345604214745
 30
0.0
 10
32.95676615887827
 20
23.43192373593081
 30
0.0
 10
32.77056087653815
 20
23.37588590159822
 30
0.0
 10
32.54005639299716
 20
23.25927858270805
 30
0.0
 10
32.30432079782051
 20
23.02895618029821
 30
0.0
 10
32.19918324987907
 20
22.70410851499887
 30
0.0
 10
32.25560999634822
 20
22.44863366086686
 30
0.0
 10
32.3455292506966
 20
22.27538556520209
 30
0.0
 10
32.47312188731868
 20
22.12730587473819
 30
0.0
 10
32.63483108758956
 20
22.0182966283113
 30
0.0
 10
32.81426083384697
 20
21.94472718644528
 30
0.0
 10
33.0014437485347
 20
21.89441517126608
 30
0.0
 10
33.19428281780493
 20
21.87304368275571
 30
0.0
 10
33.45148771916182
 20
21.88934859964266
 30
0.0
 10
33.70119731467648
 20
21.97262997799401
 30
0.0
 10
33.91655313581233
 20
22.11456177388942
 30
0.0
 10
34.05836074509369
 20
22.24858637370176
 30
0.0
 10
34.15639752139457
 20
22.41859021075639
 30
0.0
 10
34.1855823025302
 20
22.54608018557384
 30
0.0
 10
34.19152297621249
 20
22.61029360711668
 30
0.0
 11
34.19152297621249
 21
22.75924360711669
 31
0.0
 11
34.13791895137521
 21
22.94494973500174
 31
0.0
 11
34.03155373353056
 21
23.10646429401779
 31
0.0
 11
33.88383915758775
 21
23.2312882243935
 31
0.0
 11
33.71260018090836
 21
23.31870497950504
 31
0.0
 11
33.52912571204567
 21
23.38024026476581
 31
0.0
 11
33.34129541646134
 21
23.4268066350183
 31
0.0
 11
33.15043306379559
 21
23.44618483007101
 31
0.0
 11
32.95838311054932
 21
23.42625160056325
 31
0.0
 11
32.77240099875644
 21
23.37047876932411
 31
0.0
 11
32.6003783004499
 21
23.2823001555606
 31
0.0
 11
32.3303531106979
 21
23.01000300398824
 31
0.0
 11
32.22491909320101
 21
22.64150286445184
 31
0.0
 11
32.26331822628609
 21
22.45239971642014
 31
0.0
 11
32.35215412813562
 21
22.27909964132739
 31
0.0
 11
32.4790661567678
 21
22.13355370124998
 31
0.0
 11
32.63725672616545
 21
22.02448118124886
 31
0.0
 11
32.81564788989768
 21
21.94858052993354
 31
0.0
 11
33.00273750412712
 21
21.89916786421673
 31
0.0
 11
33.19419909206249
 21
21.87864610808738
 31
0.0
 11
33.38690243953788
 21
21.89090007892743
 31
0.0
 11
33.7516338226573
 21
22.01269765064039
 31
0.0
 11
33.91321018639743
 21
22.11912633605072
 31
0.0
 11
34.05119662359747
 21
22.25474052514756
 31
0.0
 11
34.14728879489485
 21
22.42195449774152
 31
0.0
 11
34.19152297621249
 21
22.61029360711668
 31
0.0
  0
LINE
  5
7D
100
AcDbEntity
  8
CARTOUCHE
  6
CONTINUOUS
 62
     4
100
AcDbLine
 10
34.191523
 20
22.610294
 30
0.0
 11
34.191523
 21
22.759244
 31
0.0
  0
LINE
  5
7E
100
AcDbEntity
  8
CARTOUCHE
  6
CONTINUOUS
 62
     4
100
AcDbLine
 10
34.191523
 20
24.319904
 30
0.0
 11
34.191523
 21
25.823744
 31
0.0
  0
LINE
  5
7F
100
AcDbEntity
  8
CARTOUCHE
  6
CONTINUOUS
 62
     4
100
AcDbLine
 10
38.364823
 20
23.079194
 30
0.0
 11
39.154123
 21
23.079194
 31
0.0
  0
LINE
  5
80
100
AcDbEntity
  8
CARTOUCHE
  6
CONTINUOUS
 62
     4
100
AcDbLine
 10
39.051073
 20
22.244444
 30
0.0
 11
38.364823
 21
22.244444
 31
0.0
  0
LINE
  5
81
100
AcDbEntity
  8
CARTOUCHE
  6
CONTINUOUS
 62
     4
100
AcDbLine
 10
39.154123
 20
22.244444
 30
0.0
 11
39.051073
 21
22.244444
 31
0.0
  0
LINE
  5
82
100
AcDbEntity
  8
CARTOUCHE
  6
CONTINUOUS
 62
     7
100
AcDbLine
 10
50.000001
 20
36.845393
 30
0.0
 11
50.000001
 21
5.000041
 31
0.0
  0
LINE
  5
83
100
AcDbEntity
  8
CARTOUCHE
  6
CONTINUOUS
 62
     4
100
AcDbLine
 10
44.459623
 20
22.782194
 30
0.0
 11
44.459623
 21
20.632094
 31
0.0
  0
LINE
  5
84
100
AcDbEntity
  8
CARTOUCHE
  6
CONTINUOUS
 62
     4
100
AcDbLine
 10
42.732973
 20
20.632094
 30
0.0
 11
42.732973
 21
24.508394
 31
0.0
  0
INSERT
  5
85
100
AcDbEntity
  8
CARTOUCHE
  6
CONTINUOUS
 62
     4
100
AcDbBlockReference
  2
*X11
 10
0.0
 20
0.0
 30
0.0
1001
ACAD
1000
HATCH
1002
{
1070
    19
1000
ANSI31
1040
0.062992
1040
0.0
1000
R14_HATCH_DATA
1000
85
1011
1.0
1021
0.0
1031
0.0
1011
0.0
1021
1.0
1031
0.0
1011
0.0
1021
0.0
1031
1.0
1040
0.0
1010
0.0
1020
0.0
1030
1.0
1000
ANSI31
1070
     0
1070
     0
1071
        1
1071
        1
1071
       78
1070
     1
1040
42.732973
1040
24.508394
1040
42.732973
1040
20.632094
1070
     1
1040
42.732973
1040
20.632094
1040
44.459623
1040
20.632094
1070
     1
1040
44.459623
1040
20.632094
1040
44.459623
1040
22.782194
1070
     1
1040
44.459623
1040
22.782194
1040
44.463488
1040
22.825563
1070
     1
1040
44.463488
1040
22.825563
1040
44.470946
1040
22.868586
1070
     1
1040
44.470946
1040
22.868586
1040
44.481879
1040
22.910991
1070
     1
1040
44.481879
1040
22.910991
1040
44.496172
1040
22.952504
1070
     1
1040
44.496172
1040
22.952504
1040
44.513707
1040
22.992851
1070
     1
1040
44.513707
1040
22.992851
1040
44.534386
1040
23.031755
1070
     1
1040
44.534386
1040
23.031755
1040
44.558122
1040
23.068814
1070
     1
1040
44.558122
1040
23.068814
1040
44.584841
1040
23.103624
1070
     1
1040
44.584841
1040
23.103624
1040
44.614473
1040
23.13578
1070
     1
1040
44.614473
1040
23.13578
1040
44.646943
1040
23.164878
1070
     1
1040
44.646943
1040
23.164878
1040
44.682109
1040
23.190587
1070
     1
1040
44.682109
1040
23.190587
1040
44.719626
1040
23.212933
1070
     1
1040
44.719626
1040
23.212933
1040
44.759083
1040
23.232012
1070
     1
1040
44.759083
1040
23.232012
1040
44.800067
1040
23.24792
1070
     1
1040
44.800067
1040
23.24792
1040
44.842166
1040
23.260755
1070
     1
1040
44.842166
1040
23.260755
1040
44.885455
1040
23.270655
1070
     1
1040
44.885455
1040
23.270655
1040
44.929241
1040
23.277344
1070
     1
1040
44.929241
1040
23.277344
1040
44.973307
1040
23.280649
1070
     1
1040
44.973307
1040
23.280649
1040
45.017433
1040
23.280401
1070
     1
1040
45.017433
1040
23.280401
1040
45.061399
1040
23.276428
1070
     1
1040
45.061399
1040
23.276428
1040
45.104319
1040
23.268736
1070
     1
1040
45.104319
1040
23.268736
1040
45.146471
1040
23.257294
1070
     1
1040
45.146471
1040
23.257294
1040
45.187456
1040
23.242136
1070
     1
1040
45.187456
1040
23.242136
1040
45.226873
1040
23.223293
1070
     1
1040
45.226873
1040
23.223293
1040
45.264321
1040
23.200797
1070
     1
1040
45.264321
1040
23.200797
1040
45.299504
1040
23.174642
1070
     1
1040
45.299504
1040
23.174642
1040
45.331947
1040
23.145119
1070
     1
1040
45.331947
1040
23.145119
1040
45.361291
1040
23.112499
1070
     1
1040
45.361291
1040
23.112499
1040
45.387181
1040
23.077054
1070
     1
1040
45.387181
1040
23.077054
1040
45.409257
1040
23.039056
1070
     1
1040
45.409257
1040
23.039056
1040
45.427129
1040
22.999011
1070
     1
1040
45.427129
1040
22.999011
1040
45.440732
1040
22.957277
1070
     1
1040
45.440732
1040
22.957277
1040
45.44993
1040
22.914423
1070
     1
1040
45.44993
1040
22.914423
1040
45.454589
1040
22.871022
1070
     1
1040
45.454589
1040
22.871022
1040
45.455174
1040
22.849294
1070
     1
1040
45.455174
1040
22.849294
1040
45.454573
1040
22.827644
1070
     1
1040
45.454573
1040
22.827644
1040
45.454573
1040
22.587794
1070
     1
1040
45.454573
1040
22.587794
1040
47.283823
1040
22.587794
1070
     1
1040
47.283823
1040
22.587794
1040
47.30048
1040
22.741901
1070
     1
1040
47.30048
1040
22.741901
1040
47.308034
1040
22.896764
1070
     1
1040
47.308034
1040
22.896764
1040
47.306223
1040
23.051921
1070
     1
1040
47.306223
1040
23.051921
1040
47.295648
1040
23.206716
1070
     1
1040
47.295648
1040
23.206716
1040
47.276908
1040
23.360972
1070
     1
1040
47.276908
1040
23.360972
1040
47.2499
1040
23.514097
1070
     1
1040
47.2499
1040
23.514097
1040
47.221874
1040
23.635072
1070
     1
1040
47.221874
1040
23.635072
1040
47.19592
1040
23.724445
1070
     1
1040
47.19592
1040
23.724445
1040
47.16468
1040
23.812049
1070
     1
1040
47.16468
1040
23.812049
1040
47.113499
1040
23.92525
1070
     1
1040
47.113499
1040
23.92525
1040
47.067867
1040
24.006615
1070
     1
1040
47.067867
1040
24.006615
1040
47.016057
1040
24.0843
1070
     1
1040
47.016057
1040
24.0843
1040
46.978018
1040
24.133848
1070
     1
1040
46.978018
1040
24.133848
1040
46.937287
1040
24.181208
1070
     1
1040
46.937287
1040
24.181208
1040
46.893917
1040
24.226097
1070
     1
1040
46.893917
1040
24.226097
1040
46.847963
1040
24.26823
1070
     1
1040
46.847963
1040
24.26823
1040
46.799476
1040
24.307326
1070
     1
1040
46.799476
1040
24.307326
1040
46.748847
1040
24.342981
1070
     1
1040
46.748847
1040
24.342981
1040
46.696087
1040
24.375497
1070
     1
1040
46.696087
1040
24.375497
1040
46.613657
1040
24.418703
1070
     1
1040
46.613657
1040
24.418703
1040
46.528242
1040
24.455664
1070
     1
1040
46.528242
1040
24.455664
1040
46.410285
1040
24.496534
1070
     1
1040
46.410285
1040
24.496534
1040
46.22888
1040
24.542872
1070
     1
1040
46.22888
1040
24.542872
1040
46.106971
1040
24.566075
1070
     1
1040
46.106971
1040
24.566075
1040
45.922386
1040
24.587821
1070
     1
1040
45.922386
1040
24.587821
1040
45.798504
1040
24.591816
1070
     1
1040
45.798504
1040
24.591816
1040
45.612568
1040
24.583703
1070
     1
1040
45.612568
1040
24.583703
1040
45.457926
1040
24.566274
1070
     1
1040
45.457926
1040
24.566274
1040
45.304716
1040
24.539482
1070
     1
1040
45.304716
1040
24.539482
1040
45.183805
1040
24.511135
1070
     1
1040
45.183805
1040
24.511135
1040
45.005799
1040
24.45603
1070
     1
1040
45.005799
1040
24.45603
1040
44.890434
1040
24.410518
1070
     1
1040
44.890434
1040
24.410518
1040
44.777817
1040
24.358198
1070
     1
1040
44.777817
1040
24.358198
1040
44.668264
1040
24.29958
1070
     1
1040
44.668264
1040
24.29958
1040
44.459623
1040
24.165494
1070
     1
1040
44.459623
1040
24.165494
1040
44.459623
1040
24.508394
1070
     1
1040
44.459623
1040
24.508394
1040
42.732973
1040
24.508394
1071
        0
1070
     0
1070
     1
1040
0.0
1040
0.062992
1070
     0
1070
     1
1040
0.785398
1040
-6.22517
1040
-28.624349
1040
-0.141421
1040
0.141421
1070
     0
1071
        1
1040
-6.22517
1040
-28.624349
1040
0.0
1002
}
  0
LINE
  5
86
100
AcDbEntity
  8
CARTOUCHE
  6
CONTINUOUS
 62
     4
100
AcDbLine
 10
44.459623
 20
20.632094
 30
0.0
 11
42.732973
 21
20.632094
 31
0.0
  0
LINE
  5
87
100
AcDbEntity
  8
CARTOUCHE
  6
CONTINUOUS
 62
     4
100
AcDbLine
 10
42.732973
 20
24.508394
 30
0.0
 11
44.459623
 21
24.508394
 31
0.0
  0
LINE
  5
88
100
AcDbEntity
  8
CARTOUCHE
  6
CONTINUOUS
 62
     4
100
AcDbLine
 10
40.343023
 20
21.855644
 30
0.0
 11
42.103873
 21
21.855644
 31
0.0
  0
SPLINE
  5
89
100
AcDbEntity
  8
CARTOUCHE
  6
CONTINUOUS
 62
     4
100
AcDbSpline
210
0.0
220
0.0
230
-1.0
 70
     8
 71
     3
 72
    20
 73
    16
 74
    14
 42
0.0000001
 43
0.0000001
 44
0.000001
 12
0.1358608544273129
 22
0.9907279284618359
 32
0.0
 13
-0.8123777522852272
 23
-0.583131535412039
 33
0.0
 40
0.0
 40
0.0
 40
0.0
 40
0.0
 40
0.3099164094844504
 40
0.620115935849634
 40
0.9308830016378429
 40
1.240782440235695
 40
1.550958544551884
 40
1.861841568787858
 40
2.170989242543665
 40
2.482794625570478
 40
2.792567094310104
 40
3.102412505173151
 40
3.413423989889623
 40
3.723771516235911
 40
4.342414481743269
 40
4.342414481743269
 40
4.342414481743269
 40
4.342414481743269
 10
47.28382297621251
 20
22.58779360711669
 30
0.0
 10
47.29785814561036
 20
22.69014122123831
 30
0.0
 10
47.31442412809633
 20
22.89676939405084
 30
0.0
 10
47.3009300446424
 20
23.20747589800257
 30
0.0
 10
47.25565471224022
 20
23.51474414590117
 30
0.0
 10
47.17620454100132
 20
23.81641630141703
 30
0.0
 10
47.02732837572081
 20
24.0924084229208
 30
0.0
 10
46.81020876026039
 20
24.32073903095973
 30
0.0
 10
46.53096593187423
 20
24.46673548372093
 30
0.0
 10
46.23076173615316
 20
24.54812143120015
 30
0.0
 10
45.92302812013527
 20
24.59724620003242
 30
0.0
 10
45.61154982347273
 20
24.58971058619114
 30
0.0
 10
45.30365644994705
 20
24.5459331430227
 30
0.0
 10
44.90384885766133
 20
24.43649450290007
 30
0.0
 10
44.62714690347446
 20
24.28574368123275
 30
0.0
 10
44.45962297621249
 20
24.16549360711669
 30
0.0
 11
47.28382297621251
 21
22.58779360711669
 31
0.0
 11
47.3080338234398
 21
22.8967638790771
 31
0.0
 11
47.29564801913904
 21
23.20671600883972
 31
0.0
 11
47.24989999164073
 21
23.51409730955235
 31
0.0
 11
47.16468005782961
 21
23.81204898160464
 31
0.0
 11
47.01605698726017
 21
24.08429955967585
 31
0.0
 11
46.79947591694869
 21
24.30732619143858
 31
0.0
 11
46.52824151124928
 21
24.45566419975128
 31
0.0
 11
46.22887996193932
 21
24.5428722112578
 31
0.0
 11
45.92238599753447
 21
24.58782115591738
 31
0.0
 11
45.61256799206709
 21
24.58370341795764
 31
0.0
 11
45.3047164351297
 21
24.53948194901727
 31
0.0
 11
45.00579935951135
 21
24.45603046599671
 31
0.0
 11
44.45962297621249
 21
24.16549360711669
 31
0.0
  0
LINE
  5
8A
100
AcDbEntity
  8
CARTOUCHE
  6
CONTINUOUS
 62
     4
100
AcDbLine
 10
47.283823
 20
22.587794
 30
0.0
 11
45.454573
 21
22.587794
 31
0.0
  0
SPLINE
  5
8B
100
AcDbEntity
  8
CARTOUCHE
  6
CONTINUOUS
 62
     4
100
AcDbSpline
210
0.0
220
0.0
230
-1.0
 70
     8
 71
     3
 72
    14
 73
    10
 74
     8
 42
0.0000001
 43
0.0000001
 44
0.000001
 12
0.0554704849890783
 22
0.9984603273516061
 32
0.0
 13
-0.0466631639368038
 23
-0.9989106812580427
 33
0.0
 40
0.0
 40
0.0
 40
0.0
 40
0.0
 40
0.2162139231727977
 40
0.4333925507518398
 40
0.6499496526662421
 40
0.8697430299868365
 40
1.087237840365025
 40
1.304827906875886
 40
1.522316014566312
 40
1.522316014566312
 40
1.522316014566312
 40
1.522316014566312
 10
45.4545729762125
 20
22.82764360711668
 30
0.0
 10
45.45857080660576
 20
22.89960394861971
 30
0.0
 10
45.4264083633415
 20
23.04880721389077
 30
0.0
 10
45.27439513245806
 20
23.21580478488278
 30
0.0
 10
45.06187418617559
 20
23.29256557144738
 30
0.0
 10
44.83996015173
 20
23.2734915919662
 30
0.0
 10
44.63539375174635
 20
23.17927808332161
 30
0.0
 10
44.50069195487549
 20
22.99887927082835
 30
0.0
 10
44.46300587062029
 20
22.85461067172287
 30
0.0
 10
44.45962297621247
 20
22.78219360711668
 30
0.0
 11
45.4545729762125
 21
22.82764360711668
 31
0.0
 11
45.40925657835891
 21
23.03905624439607
 31
0.0
 11
45.2643208173426
 21
23.20079736409237
 31
0.0
 11
45.06139949806013
 21
23.27642755731508
 31
0.0
 11
44.84216559415751
 21
23.2607549970325
 31
0.0
 11
44.64694347697346
 21
23.16487840855711
 31
0.0
 11
44.51370731348553
 21
22.99285063220138
 31
0.0
 11
44.45962297621247
 21
22.78219360711668
 31
0.0
  0
LINE
  5
8C
100
AcDbEntity
  8
CARTOUCHE
  6
CONTINUOUS
 62
     4
100
AcDbLine
 10
45.454573
 20
22.587794
 30
0.0
 11
45.454573
 21
22.827644
 31
0.0
  0
LINE
  5
8D
100
AcDbEntity
  8
CARTOUCHE
  6
CONTINUOUS
 62
     4
100
AcDbLine
 10
44.459623
 20
24.508394
 30
0.0
 11
44.459623
 21
24.165494
 31
0.0
  0
TEXT
  5
8E
100
AcDbEntity
  8
CARTOUCHE
  6
CONTINUOUS
 62
     1
100
AcDbText
 10
75.188142
 20
11.776279
 30
0.0
 40
2.1
  1
0
 50
359.999908
 41
0.8
  7
FINDER
 72
     1
 11
75.833326
 21
11.776278
 31
0.0
100
AcDbText
  0
TEXT
  5
8F
100
AcDbEntity
  8
CARTOUCHE
  6
CONTINUOUS
 62
     7
100
AcDbText
 10
73.494063
 20
16.624305
 30
0.0
 40
1.8
  1
REV.
 50
359.999908
 41
0.8
  7
FINDER
 72
     1
 11
75.833326
 21
16.624301
 31
0.0
100
AcDbText
  0
LINE
  5
90
100
AcDbEntity
  8
CARTOUCHE
  6
CONTINUOUS
 62
     7
100
AcDbLine
 10
101.666651
 20
20.002966
 30
0.0
 11
101.666651
 21
10.001024
 31
0.0
  0
TEXT
  5
E1
100
AcDbEntity
  8
CARTOUCHE
  6
CONTINUOUS
 62
     7
100
AcDbText
 10
119.722419
 20
32.435966
 30
0.0
 40
1.8
  1
PRODUCT TYPE
 50
359.999908
 41
0.8
  7
FINDER
 72
     1
 11
127.499991
 21
32.435954
 31
0.0
100
AcDbText
  0
TEXT
  5
E2
100
AcDbEntity
  8
CARTOUCHE
  6
CONTINUOUS
 62
     1
100
AcDbText
 10
123.796034
 20
22.43596
 30
0.0
 40
3.0
  1
6012
 50
359.999908
 41
0.8
  7
FINDER
 72
     1
 11
127.499991
 21
22.435954
 31
0.0
100
AcDbText
  0
TEXT
  5
E3
100
AcDbEntity
  8
CARTOUCHE
  6
CONTINUOUS
 62
     1
100
AcDbText
 10
121.646907
 20
11.776208
 30
0.0
 40
2.1
  1
01/01/2001
 50
359.999908
 41
0.8
  7
FINDER
 72
     1
 11
127.499977
 21
11.776199
 31
0.0
100
AcDbText
  0
TEXT
  5
E4
100
AcDbEntity
  8
CARTOUCHE
  6
CONTINUOUS
 62
     7
100
AcDbText
 10
124.919567
 20
16.624226
 30
0.0
 40
1.8
  1
DATE
 50
359.999908
 41
0.8
  7
FINDER
 72
     1
 11
127.499977
 21
16.624222
 31
0.0
100
AcDbText
  0
LINE
  5
E5
100
AcDbEntity
  8
CARTOUCHE
  6
CONTINUOUS
 62
     7
100
AcDbLine
 10
153.33333
 20
20.002887
 30
0.0
 11
153.33333
 21
10.000945
 31
0.0
  0
TEXT
  5
F4
100
AcDbEntity
  8
CARTOUCHE
  6
CONTINUOUS
 62
     1
100
AcDbText
 10
177.623026
 20
11.776122
 30
0.0
 40
2.1
  1
1:1
 50
359.999908
 41
0.8
  7
FINDER
 72
     1
 11
179.166655
 21
11.77612
 31
0.0
100
AcDbText
  0
TEXT
  5
F5
100
AcDbEntity
  8
CARTOUCHE
  6
CONTINUOUS
 62
     7
100
AcDbText
 10
175.87705
 20
16.624148
 30
0.0
 40
1.8
  1
SCALE
 50
359.999908
 41
0.8
  7
FINDER
 72
     1
 11
179.166655
 21
16.624143
 31
0.0
100
AcDbText
  0
DIMENSION
  5
146
100
AcDbEntity
  8
DIM
  6
CONTINUOUS
100
AcDbDimension
  2
*D0
 10
51.544206
 20
201.0
 30
0.0
 11
35.294206
 21
202.544645
 31
0.0
 70
    32
  3
FINDER
100
AcDbAlignedDimension
 13
19.044206
 23
195.547232
 33
0.0
 14
51.544206
 24
195.547232
 34
0.0
100
AcDbRotatedDimension
  0
DIMENSION
  5
153
100
AcDbEntity
  8
DIM
  6
CONTINUOUS
100
AcDbDimension
  2
*D1
 10
15.0
 20
160.147232
 30
0.0
 11
13.455355
 21
178.347232
 31
0.0
 70
    32
  3
FINDER
100
AcDbAlignedDimension
 13
20.044206
 23
196.547232
 33
0.0
 14
20.044206
 24
160.147232
 34
0.0
 50
90.0
100
AcDbRotatedDimension
  0
DIMENSION
  5
160
100
AcDbEntity
  8
DIM
  6
CONTINUOUS
100
AcDbDimension
  2
*D2
 10
138.55
 20
201.0
 30
0.0
 11
111.45
 21
202.544031
 31
0.0
 70
    32
  3
FINDER
100
AcDbAlignedDimension
 13
84.349999
 23
193.148237
 33
0.0
 14
138.55
 24
193.672669
 34
0.0
100
AcDbRotatedDimension
  0
DIMENSION
  5
16C
100
AcDbEntity
  8
DIM
  6
CONTINUOUS
100
AcDbDimension
  2
*D3
 10
71.800001
 20
201.0
 30
0.0
 11
78.075
 21
202.544031
 31
0.0
 70
    32
  3
FINDER
100
AcDbAlignedDimension
 13
84.349999
 23
193.148237
 33
0.0
 14
71.800001
 24
181.676242
 34
0.0
100
AcDbRotatedDimension
1001
ACAD
1000
DSTYLE
1002
{
1070
    75
1070
     1
1070
   287
1070
     4
1002
}
  0
LINE
  5
62F
100
AcDbEntity
  8
DRAW
  6
CONTINUOUS
100
AcDbLine
 10
136.054364
 20
196.172653
 30
0.0
 11
101.750001
 21
196.472023
 31
0.0
  0
LINE
  5
630
100
AcDbEntity
  8
DRAW
  6
CONTINUOUS
100
AcDbLine
 10
136.054364
 20
196.114077
 30
0.0
 11
101.750001
 21
196.413446
 31
0.0
  0
LINE
  5
631
100
AcDbEntity
  8
DRAW
  6
CONTINUOUS
100
AcDbLine
 10
136.054365
 20
194.421746
 30
0.0
 11
101.750001
 21
194.545749
 31
0.0
  0
LINE
  5
632
100
AcDbEntity
  8
DRAW
  6
CONTINUOUS
100
AcDbLine
 10
136.054365
 20
194.563162
 30
0.0
 11
101.750001
 21
194.687165
 31
0.0
  0
LINE
  5
633
100
AcDbEntity
  8
DRAW
  6
CONTINUOUS
100
AcDbLine
 10
136.054365
 20
161.4426
 30
0.0
 11
87.050001
 21
161.26546
 31
0.0
  0
LINE
  5
634
100
AcDbEntity
  8
DRAW
  6
CONTINUOUS
100
AcDbLine
 10
136.054365
 20
161.584016
 30
0.0
 11
87.050001
 21
161.406876
 31
0.0
  0
LINE
  5
635
100
AcDbEntity
  8
DRAW
  6
CONTINUOUS
100
AcDbLine
 10
87.050001
 20
160.100308
 30
0.0
 11
136.054364
 21
160.527962
 31
0.0
  0
LINE
  5
636
100
AcDbEntity
  8
DRAW
  6
CONTINUOUS
100
AcDbLine
 10
87.050001
 20
160.158884
 30
0.0
 11
136.054364
 21
160.586539
 31
0.0
  0
LINE
  5
637
100
AcDbEntity
  8
DRAW
  6
CONTINUOUS
100
AcDbLine
 10
135.250001
 20
132.723783
 30
0.0
 11
101.750001
 21
132.844877
 31
0.0
  0
LINE
  5
638
100
AcDbEntity
  8
DRAW
  6
CONTINUOUS
100
AcDbLine
 10
135.250001
 20
132.582367
 30
0.0
 11
101.750001
 21
132.703461
 31
0.0
  0
LINE
  5
639
100
AcDbEntity
  8
DRAW
  6
CONTINUOUS
100
AcDbLine
 10
135.254364
 20
134.27877
 30
0.0
 11
101.750001
 21
134.571156
 31
0.0
  0
LINE
  5
63A
100
AcDbEntity
  8
DRAW
  6
CONTINUOUS
100
AcDbLine
 10
135.254364
 20
134.337346
 30
0.0
 11
101.750001
 21
134.629733
 31
0.0
  0
LINE
  5
63B
100
AcDbEntity
  8
DRAW
  6
CONTINUOUS
100
AcDbLine
 10
136.054366
 20
104.13658
 30
0.0
 11
101.750003
 21
104.012576
 31
0.0
  0
LINE
  5
63C
100
AcDbEntity
  8
DRAW
  6
CONTINUOUS
100
AcDbLine
 10
136.054366
 20
103.995164
 30
0.0
 11
101.750003
 21
103.87116
 31
0.0
  0
LINE
  5
63D
100
AcDbEntity
  8
DRAW
  6
CONTINUOUS
100
AcDbLine
 10
136.054366
 20
102.385674
 30
0.0
 11
101.750003
 21
102.086303
 31
0.0
  0
LINE
  5
63E
100
AcDbEntity
  8
DRAW
  6
CONTINUOUS
100
AcDbLine
 10
136.054366
 20
102.44425
 30
0.0
 11
101.750003
 21
102.144879
 31
0.0
  0
LINE
  5
63F
100
AcDbEntity
  8
DRAW
  6
CONTINUOUS
100
AcDbLine
 10
47.1942
 20
195.310572
 30
0.0
 11
44.6942
 21
195.310572
 31
0.0
  0
LINE
  5
640
100
AcDbEntity
  8
DRAW
  6
CONTINUOUS
100
AcDbLine
 10
45.023978
 20
193.997231
 30
0.0
 11
46.864422
 21
193.997231
 31
0.0
  0
LINE
  5
641
100
AcDbEntity
  8
DRAW
  6
CONTINUOUS
100
AcDbLine
 10
45.023978
 20
193.797231
 30
0.0
 11
46.864422
 21
193.797231
 31
0.0
  0
LINE
  5
642
100
AcDbEntity
  8
DRAW
  6
CONTINUOUS
100
AcDbLine
 10
47.387669
 20
194.299329
 30
0.0
 11
44.50073
 21
194.299329
 31
0.0
  0
LINE
  5
643
100
AcDbEntity
  8
DRAW
  6
CONTINUOUS
100
AcDbLine
 10
47.387669
 20
194.499207
 30
0.0
 11
44.50073
 21
194.499207
 31
0.0
  0
LINE
  5
644
100
AcDbEntity
  8
DRAW
  6
CONTINUOUS
100
AcDbLine
 10
44.694199
 20
194.579768
 30
0.0
 11
47.194199
 21
194.579768
 31
0.0
  0
LINE
  5
645
100
AcDbEntity
  8
DRAW
  6
CONTINUOUS
100
AcDbLine
 10
48.766572
 20
189.997231
 30
0.0
 11
39.794204
 21
189.997232
 31
0.0
  0
LINE
  5
646
100
AcDbEntity
  8
DRAW
  6
CONTINUOUS
100
AcDbLine
 10
39.994205
 20
189.297232
 30
0.0
 11
48.766572
 21
189.297232
 31
0.0
  0
LINE
  5
647
100
AcDbEntity
  8
DRAW
  6
CONTINUOUS
100
AcDbLine
 10
39.994205
 20
188.797232
 30
0.0
 11
49.473678
 21
188.797232
 31
0.0
  0
LINE
  5
648
100
AcDbEntity
  8
DRAW
  6
CONTINUOUS
100
AcDbLine
 10
47.1942
 20
196.176598
 30
0.0
 11
44.6942
 21
196.176598
 31
0.0
  0
LINE
  5
649
100
AcDbEntity
  8
DRAW
  6
CONTINUOUS
100
AcDbLine
 10
20.377914
 20
160.524887
 30
0.0
 11
50.234229
 21
160.524887
 31
0.0
  0
LINE
  5
64A
100
AcDbEntity
  8
DRAW
  6
CONTINUOUS
100
AcDbLine
 10
20.200774
 20
160.097233
 30
0.0
 11
50.411369
 21
160.097233
 31
0.0
  0
LINE
  5
64B
100
AcDbEntity
  8
DRAW
  6
CONTINUOUS
100
AcDbLine
 10
50.411365
 20
196.597233
 30
0.0
 11
20.177046
 21
196.597233
 31
0.0
  0
LINE
  5
64C
100
AcDbEntity
  8
DRAW
  6
CONTINUOUS
100
AcDbLine
 10
20.502173
 20
161.024868
 30
0.0
 11
50.109969
 21
161.024868
 31
0.0
  0
LINE
  5
64D
100
AcDbEntity
  8
DRAW
  6
CONTINUOUS
100
AcDbLine
 10
45.944205
 20
167.607233
 30
0.0
 11
44.344205
 21
167.607233
 31
0.0
  0
LINE
  5
64E
100
AcDbEntity
  8
DRAW
  6
CONTINUOUS
100
AcDbLine
 10
45.944205
 20
165.407232
 30
0.0
 11
44.344205
 21
165.407232
 31
0.0
  0
LINE
  5
64F
100
AcDbEntity
  8
DRAW
  6
CONTINUOUS
100
AcDbLine
 10
21.444206
 20
161.847232
 30
0.0
 11
49.144206
 21
161.847232
 31
0.0
  0
LINE
  5
650
100
AcDbEntity
  8
DRAW
  6
CONTINUOUS
100
AcDbLine
 10
48.442224
 20
192.206054
 30
0.0
 11
42.172387
 21
192.206054
 31
0.0
  0
LINE
  5
651
100
AcDbEntity
  8
DRAW
  6
CONTINUOUS
100
AcDbLine
 10
42.172386
 20
191.588408
 30
0.0
 11
48.442224
 21
191.588408
 31
0.0
  0
LINE
  5
652
100
AcDbEntity
  8
DRAW
  6
CONTINUOUS
100
AcDbLine
 10
48.562833
 20
192.49723
 30
0.0
 11
41.881211
 21
192.49723
 31
0.0
  0
LINE
  5
653
100
AcDbEntity
  8
DRAW
  6
CONTINUOUS
100
AcDbLine
 10
41.88121
 20
191.297231
 30
0.0
 11
48.562833
 21
191.297232
 31
0.0
  0
LINE
  5
654
100
AcDbEntity
  8
DRAW
  6
CONTINUOUS
100
AcDbLine
 10
48.894205
 20
190.497231
 30
0.0
 11
41.078728
 21
190.497232
 31
0.0
  0
LINE
  5
655
100
AcDbEntity
  8
DRAW
  6
CONTINUOUS
100
AcDbLine
 10
41.078727
 20
193.297232
 30
0.0
 11
48.894203
 21
193.297232
 31
0.0
  0
LINE
  5
656
100
AcDbEntity
  8
DRAW
  6
CONTINUOUS
100
AcDbLine
 10
36.694205
 20
196.169578
 30
0.0
 11
21.072766
 21
196.169578
 31
0.0
  0
LINE
  5
657
100
AcDbEntity
  8
DRAW
  6
CONTINUOUS
100
AcDbLine
 10
36.694205
 20
195.669597
 30
0.0
 11
21.197026
 21
195.669597
 31
0.0
  0
LINE
  5
658
100
AcDbEntity
  8
DRAW
  6
CONTINUOUS
100
AcDbLine
 10
36.694206
 20
194.847232
 30
0.0
 11
21.444206
 21
194.847232
 31
0.0
  0
LINE
  5
659
100
AcDbEntity
  8
DRAW
  6
CONTINUOUS
100
AcDbLine
 10
19.32186
 20
194.418671
 30
0.0
 11
19.32186
 21
161.580941
 31
0.0
  0
LINE
  5
65A
100
AcDbEntity
  8
DRAW
  6
CONTINUOUS
100
AcDbLine
 10
18.894205
 20
195.314391
 30
0.0
 11
18.894205
 21
161.403801
 31
0.0
  0
LINE
  5
65B
100
AcDbEntity
  8
DRAW
  6
CONTINUOUS
100
AcDbLine
 10
19.821841
 20
194.294412
 30
0.0
 11
19.821841
 21
161.705201
 31
0.0
  0
LINE
  5
65C
100
AcDbEntity
  8
DRAW
  6
CONTINUOUS
100
AcDbLine
 10
20.544206
 20
193.947232
 30
0.0
 11
20.544206
 21
162.747232
 31
0.0
  0
LINE
  5
65D
100
AcDbEntity
  8
DRAW
  6
CONTINUOUS
100
AcDbLine
 10
20.236498
 20
160.583464
 30
0.0
 11
19.380436
 21
161.439525
 31
0.0
  0
LINE
  5
65E
100
AcDbEntity
  8
DRAW
  6
CONTINUOUS
100
AcDbLine
 10
20.502173
 20
161.024868
 30
0.0
 11
20.236498
 21
160.583464
 31
0.0
  0
LINE
  5
65F
100
AcDbEntity
  8
DRAW
  6
CONTINUOUS
100
AcDbLine
 10
20.502173
 20
161.024868
 30
0.0
 11
20.377914
 21
160.524887
 31
0.0
  0
LINE
  5
660
100
AcDbEntity
  8
DRAW
  6
CONTINUOUS
100
AcDbLine
 10
20.059358
 20
160.155809
 30
0.0
 11
18.952781
 21
161.262385
 31
0.0
  0
LINE
  5
661
100
AcDbEntity
  8
DRAW
  6
CONTINUOUS
100
AcDbLine
 10
20.200774
 20
160.097233
 30
0.0
 11
20.377914
 21
160.524887
 31
0.0
  0
ARC
  5
662
100
AcDbEntity
  8
DRAW
  6
CONTINUOUS
100
AcDbCircle
 10
20.377921
 20
160.724895
 30
0.0
 40
0.200008
100
AcDbArc
 50
225.001884
 51
269.998118
  0
LINE
  5
663
100
AcDbEntity
  8
DRAW
  6
CONTINUOUS
100
AcDbLine
 10
20.059358
 20
160.155809
 30
0.0
 11
20.236498
 21
160.583464
 31
0.0
  0
ARC
  5
664
100
AcDbEntity
  8
DRAW
  6
CONTINUOUS
100
AcDbCircle
 10
20.200773
 20
160.297224
 30
0.0
 40
0.199992
100
AcDbArc
 50
224.999928
 51
270.000074
  0
LINE
  5
665
100
AcDbEntity
  8
DRAW
  6
CONTINUOUS
100
AcDbLine
 10
20.544206
 20
162.747232
 30
0.0
 11
21.444206
 21
161.847232
 31
0.0
  0
LINE
  5
666
100
AcDbEntity
  8
DRAW
  6
CONTINUOUS
100
AcDbLine
 10
19.380436
 20
161.439525
 30
0.0
 11
18.952781
 21
161.262385
 31
0.0
  0
LINE
  5
667
100
AcDbEntity
  8
DRAW
  6
CONTINUOUS
100
AcDbLine
 10
19.32186
 20
161.580941
 30
0.0
 11
18.894205
 21
161.403801
 31
0.0
  0
ARC
  5
668
100
AcDbEntity
  8
DRAW
  6
CONTINUOUS
100
AcDbCircle
 10
19.094197
 20
161.403801
 30
0.0
 40
0.199992
100
AcDbArc
 50
179.999926
 51
225.000077
  0
LINE
  5
669
100
AcDbEntity
  8
DRAW
  6
CONTINUOUS
100
AcDbLine
 10
19.32186
 20
161.580941
 30
0.0
 11
19.821841
 21
161.705201
 31
0.0
  0
LINE
  5
66A
100
AcDbEntity
  8
DRAW
  6
CONTINUOUS
100
AcDbLine
 10
19.380436
 20
161.439525
 30
0.0
 11
19.821841
 21
161.705201
 31
0.0
  0
ARC
  5
66B
100
AcDbEntity
  8
DRAW
  6
CONTINUOUS
100
AcDbCircle
 10
19.521868
 20
161.580948
 30
0.0
 40
0.200008
100
AcDbArc
 50
180.001882
 51
224.998121
  0
LINE
  5
66C
100
AcDbEntity
  8
DRAW
  6
CONTINUOUS
100
AcDbLine
 10
20.502173
 20
161.024868
 30
0.0
 11
19.821841
 21
161.705201
 31
0.0
  0
LINE
  5
66D
100
AcDbEntity
  8
DRAW
  6
CONTINUOUS
100
AcDbLine
 10
18.925622
 20
181.847231
 30
0.0
 11
18.925622
 21
174.847231
 31
0.0
  0
LINE
  5
66E
100
AcDbEntity
  8
DRAW
  6
CONTINUOUS
100
AcDbLine
 10
18.951802
 20
181.847231
 30
0.0
 11
18.951802
 21
174.847231
 31
0.0
  0
LINE
  5
66F
100
AcDbEntity
  8
DRAW
  6
CONTINUOUS
100
AcDbLine
 10
18.951802
 20
174.847231
 30
0.0
 11
18.925622
 21
174.847231
 31
0.0
  0
LINE
  5
670
100
AcDbEntity
  8
DRAW
  6
CONTINUOUS
100
AcDbLine
 10
18.925622
 20
181.847231
 30
0.0
 11
18.951802
 21
181.847231
 31
0.0
  0
LINE
  5
671
100
AcDbEntity
  8
DRAW
  6
CONTINUOUS
100
AcDbLine
 10
19.380436
 20
194.560087
 30
0.0
 11
20.93135
 21
196.111002
 31
0.0
  0
LINE
  5
672
100
AcDbEntity
  8
DRAW
  6
CONTINUOUS
100
AcDbLine
 10
20.230184
 20
196.468948
 30
0.0
 11
20.948763
 21
196.468948
 31
0.0
  0
LINE
  5
673
100
AcDbEntity
  8
DRAW
  6
CONTINUOUS
100
AcDbLine
 10
19.081066
 20
194.68409
 30
0.0
 11
20.807347
 21
196.410371
 31
0.0
  0
LINE
  5
674
100
AcDbEntity
  8
DRAW
  6
CONTINUOUS
100
AcDbLine
 10
19.821841
 20
194.294412
 30
0.0
 11
21.197026
 21
195.669597
 31
0.0
  0
LINE
  5
675
100
AcDbEntity
  8
DRAW
  6
CONTINUOUS
100
AcDbLine
 10
21.444206
 20
194.847232
 30
0.0
 11
20.544206
 21
193.947232
 31
0.0
  0
LINE
  5
676
100
AcDbEntity
  8
DRAW
  6
CONTINUOUS
100
AcDbLine
 10
19.02249
 20
195.261254
 30
0.0
 11
19.02249
 21
194.542674
 31
0.0
  0
LINE
  5
677
100
AcDbEntity
  8
DRAW
  6
CONTINUOUS
100
AcDbLine
 10
19.32186
 20
194.418671
 30
0.0
 11
19.02249
 21
194.542674
 31
0.0
  0
LINE
  5
678
100
AcDbEntity
  8
DRAW
  6
CONTINUOUS
100
AcDbLine
 10
19.380436
 20
194.560087
 30
0.0
 11
19.081066
 21
194.68409
 31
0.0
  0
ARC
  5
679
100
AcDbEntity
  8
DRAW
  6
CONTINUOUS
100
AcDbCircle
 10
19.222482
 20
194.542674
 30
0.0
 40
0.199992
100
AcDbArc
 50
134.999927
 51
180.000074
  0
LINE
  5
67A
100
AcDbEntity
  8
DRAW
  6
CONTINUOUS
100
AcDbLine
 10
19.821841
 20
194.294412
 30
0.0
 11
19.380436
 21
194.560087
 31
0.0
  0
LINE
  5
67B
100
AcDbEntity
  8
DRAW
  6
CONTINUOUS
100
AcDbLine
 10
19.821841
 20
194.294412
 30
0.0
 11
19.32186
 21
194.418671
 31
0.0
  0
ARC
  5
67C
100
AcDbEntity
  8
DRAW
  6
CONTINUOUS
100
AcDbCircle
 10
19.521868
 20
194.418665
 30
0.0
 40
0.200008
100
AcDbArc
 50
135.001883
 51
179.998118
  0
LINE
  5
67D
100
AcDbEntity
  8
DRAW
  6
CONTINUOUS
100
AcDbLine
 10
19.081066
 20
195.40267
 30
0.0
 11
20.088768
 21
196.410371
 31
0.0
  0
LINE
  5
67E
100
AcDbEntity
  8
DRAW
  6
CONTINUOUS
100
AcDbLine
 10
18.952781
 20
195.455807
 30
0.0
 11
20.03563
 21
196.538656
 31
0.0
  0
LINE
  5
67F
100
AcDbEntity
  8
DRAW
  6
CONTINUOUS
100
AcDbLine
 10
18.952781
 20
195.455807
 30
0.0
 11
19.081066
 21
195.40267
 31
0.0
  0
ARC
  5
680
100
AcDbEntity
  8
DRAW
  6
CONTINUOUS
100
AcDbCircle
 10
19.222482
 20
195.261254
 30
0.0
 40
0.199992
100
AcDbArc
 50
134.999923
 51
180.000074
  0
LINE
  5
681
100
AcDbEntity
  8
DRAW
  6
CONTINUOUS
100
AcDbLine
 10
18.894205
 20
195.314391
 30
0.0
 11
19.02249
 21
195.261254
 31
0.0
  0
ARC
  5
682
100
AcDbEntity
  8
DRAW
  6
CONTINUOUS
100
AcDbCircle
 10
19.094197
 20
195.314392
 30
0.0
 40
0.199992
100
AcDbArc
 50
134.999923
 51
180.000074
  0
LINE
  5
683
100
AcDbEntity
  8
DRAW
  6
CONTINUOUS
100
AcDbLine
 10
19.91094
 20
195.117134
 30
0.0
 11
20.374306
 21
195.580498
 31
0.0
  0
LINE
  5
684
100
AcDbEntity
  8
DRAW
  6
CONTINUOUS
100
AcDbLine
 10
20.046657
 20
195.444781
 30
0.0
 11
20.374306
 21
195.580498
 31
0.0
  0
LINE
  5
685
100
AcDbEntity
  8
DRAW
  6
CONTINUOUS
100
AcDbLine
 10
20.374306
 20
195.580498
 30
0.0
 11
20.388451
 21
195.580498
 31
0.0
  0
LINE
  5
686
100
AcDbEntity
  8
DRAW
  6
CONTINUOUS
100
AcDbLine
 10
19.91094
 20
195.102987
 30
0.0
 11
19.91094
 21
195.117134
 31
0.0
  0
LINE
  5
687
100
AcDbEntity
  8
DRAW
  6
CONTINUOUS
100
AcDbLine
 10
20.046657
 20
195.444781
 30
0.0
 11
19.91094
 21
195.117134
 31
0.0
  0
LINE
  5
688
100
AcDbEntity
  8
DRAW
  6
CONTINUOUS
100
AcDbLine
 10
19.91094
 20
195.102987
 30
0.0
 11
20.388451
 21
195.580498
 31
0.0
  0
LINE
  5
689
100
AcDbEntity
  8
DRAW
  6
CONTINUOUS
100
AcDbLine
 10
20.03563
 20
196.538656
 30
0.0
 11
20.088768
 21
196.410371
 31
0.0
  0
LINE
  5
68A
100
AcDbEntity
  8
DRAW
  6
CONTINUOUS
100
AcDbLine
 10
20.177046
 20
196.597233
 30
0.0
 11
20.230184
 21
196.468948
 31
0.0
  0
ARC
  5
68B
100
AcDbEntity
  8
DRAW
  6
CONTINUOUS
100
AcDbCircle
 10
20.230183
 20
196.268956
 30
0.0
 40
0.199992
100
AcDbArc
 50
89.999926
 51
135.000072
  0
ARC
  5
68C
100
AcDbEntity
  8
DRAW
  6
CONTINUOUS
100
AcDbCircle
 10
20.177046
 20
196.397241
 30
0.0
 40
0.199992
100
AcDbArc
 50
89.999926
 51
135.000072
  0
LINE
  5
68D
100
AcDbEntity
  8
DRAW
  6
CONTINUOUS
100
AcDbLine
 10
21.197026
 20
195.669597
 30
0.0
 11
21.072766
 21
196.169578
 31
0.0
  0
LINE
  5
68E
100
AcDbEntity
  8
DRAW
  6
CONTINUOUS
100
AcDbLine
 10
21.197026
 20
195.669597
 30
0.0
 11
20.93135
 21
196.111002
 31
0.0
  0
LINE
  5
68F
100
AcDbEntity
  8
DRAW
  6
CONTINUOUS
100
AcDbLine
 10
21.072766
 20
196.169578
 30
0.0
 11
20.948763
 21
196.468948
 31
0.0
  0
ARC
  5
690
100
AcDbEntity
  8
DRAW
  6
CONTINUOUS
100
AcDbCircle
 10
21.072773
 20
195.96957
 30
0.0
 40
0.200008
100
AcDbArc
 50
90.001882
 51
134.998119
  0
LINE
  5
691
100
AcDbEntity
  8
DRAW
  6
CONTINUOUS
100
AcDbLine
 10
20.93135
 20
196.111002
 30
0.0
 11
20.807347
 21
196.410371
 31
0.0
  0
ARC
  5
692
100
AcDbEntity
  8
DRAW
  6
CONTINUOUS
100
AcDbCircle
 10
20.948763
 20
196.268956
 30
0.0
 40
0.199992
100
AcDbArc
 50
89.999926
 51
135.000075
  0
LINE
  5
693
100
AcDbEntity
  8
DRAW
  6
CONTINUOUS
100
AcDbLine
 10
28.241811
 20
163.994897
 30
0.0
 11
32.041811
 21
163.994897
 31
0.0
  0
LINE
  5
694
100
AcDbEntity
  8
DRAW
  6
CONTINUOUS
100
AcDbLine
 10
32.041811
 20
167.794897
 30
0.0
 11
28.241811
 21
167.794897
 31
0.0
  0
LINE
  5
695
100
AcDbEntity
  8
DRAW
  6
CONTINUOUS
100
AcDbLine
 10
28.241811
 20
167.794897
 30
0.0
 11
28.241811
 21
163.994897
 31
0.0
  0
ARC
  5
696
100
AcDbEntity
  8
DRAW
  6
CONTINUOUS
100
AcDbCircle
 10
28.441811
 20
164.194897
 30
0.0
 40
0.2
100
AcDbArc
 50
180.0
 51
270.0
  0
ARC
  5
697
100
AcDbEntity
  8
DRAW
  6
CONTINUOUS
100
AcDbCircle
 10
28.441811
 20
167.594897
 30
0.0
 40
0.2
100
AcDbArc
 50
90.0
 51
180.0
  0
LINE
  5
698
100
AcDbEntity
  8
DRAW
  6
CONTINUOUS
100
AcDbLine
 10
32.041811
 20
167.794897
 30
0.0
 11
32.041811
 21
163.994897
 31
0.0
  0
ARC
  5
699
100
AcDbEntity
  8
DRAW
  6
CONTINUOUS
100
AcDbCircle
 10
31.841811
 20
164.194897
 30
0.0
 40
0.2
100
AcDbArc
 50
270.0
 51
0.0
  0
ARC
  5
69A
100
AcDbEntity
  8
DRAW
  6
CONTINUOUS
100
AcDbCircle
 10
31.841811
 20
167.594897
 30
0.0
 40
0.2
100
AcDbArc
 50
0.0
 51
90.0
  0
LINE
  5
69B
100
AcDbEntity
  8
DRAW
  6
CONTINUOUS
100
AcDbLine
 10
38.144205
 20
165.407232
 30
0.0
 11
38.144205
 21
167.607233
 31
0.0
  0
LINE
  5
69C
100
AcDbEntity
  8
DRAW
  6
CONTINUOUS
100
AcDbLine
 10
39.744205
 20
167.607233
 30
0.0
 11
39.744205
 21
165.407232
 31
0.0
  0
LINE
  5
69D
100
AcDbEntity
  8
DRAW
  6
CONTINUOUS
100
AcDbLine
 10
39.744205
 20
165.407232
 30
0.0
 11
38.144205
 21
165.407232
 31
0.0
  0
LINE
  5
69E
100
AcDbEntity
  8
DRAW
  6
CONTINUOUS
100
AcDbLine
 10
39.744205
 20
167.607233
 30
0.0
 11
38.144205
 21
167.607233
 31
0.0
  0
LINE
  5
69F
100
AcDbEntity
  8
DRAW
  6
CONTINUOUS
100
AcDbLine
 10
44.344205
 20
165.407232
 30
0.0
 11
44.344205
 21
167.607233
 31
0.0
  0
LINE
  5
6A0
100
AcDbEntity
  8
DRAW
  6
CONTINUOUS
100
AcDbLine
 10
41.244205
 20
165.407232
 30
0.0
 11
41.244205
 21
167.607233
 31
0.0
  0
LINE
  5
6A1
100
AcDbEntity
  8
DRAW
  6
CONTINUOUS
100
AcDbLine
 10
42.844205
 20
167.607233
 30
0.0
 11
42.844205
 21
165.407232
 31
0.0
  0
LINE
  5
6A2
100
AcDbEntity
  8
DRAW
  6
CONTINUOUS
100
AcDbLine
 10
42.844205
 20
165.407232
 30
0.0
 11
41.244205
 21
165.407232
 31
0.0
  0
LINE
  5
6A3
100
AcDbEntity
  8
DRAW
  6
CONTINUOUS
100
AcDbLine
 10
42.844205
 20
167.607233
 30
0.0
 11
41.244205
 21
167.607233
 31
0.0
  0
LINE
  5
6A4
100
AcDbEntity
  8
DRAW
  6
CONTINUOUS
100
AcDbLine
 10
31.794207
 20
190.797231
 30
0.0
 11
24.794208
 21
190.797231
 31
0.0
  0
LINE
  5
6A5
100
AcDbEntity
  8
DRAW
  6
CONTINUOUS
100
AcDbLine
 10
31.794207
 20
189.997231
 30
0.0
 11
24.794208
 21
189.997231
 31
0.0
  0
LINE
  5
6A6
100
AcDbEntity
  8
DRAW
  6
CONTINUOUS
100
AcDbLine
 10
31.794207
 20
193.19723
 30
0.0
 11
24.794208
 21
193.197231
 31
0.0
  0
LINE
  5
6A7
100
AcDbEntity
  8
DRAW
  6
CONTINUOUS
100
AcDbLine
 10
31.794207
 20
192.39723
 30
0.0
 11
24.794208
 21
192.397231
 31
0.0
  0
LINE
  5
6A8
100
AcDbEntity
  8
DRAW
  6
CONTINUOUS
100
AcDbLine
 10
24.794208
 20
193.197231
 30
0.0
 11
24.794208
 21
189.997231
 31
0.0
  0
LINE
  5
6A9
100
AcDbEntity
  8
DRAW
  6
CONTINUOUS
100
AcDbLine
 10
31.794207
 20
189.997231
 30
0.0
 11
31.794207
 21
193.19723
 31
0.0
  0
LINE
  5
6AA
100
AcDbEntity
  8
DRAW
  6
CONTINUOUS
100
AcDbLine
 10
44.6942
 20
196.176597
 30
0.0
 11
40.053404
 21
196.176598
 31
0.0
  0
LINE
  5
6AB
100
AcDbEntity
  8
DRAW
  6
CONTINUOUS
100
AcDbLine
 10
40.919463
 20
195.676578
 30
0.0
 11
37.894204
 21
195.676578
 31
0.0
  0
LINE
  5
6AC
100
AcDbEntity
  8
DRAW
  6
CONTINUOUS
100
AcDbLine
 10
40.919463
 20
195.676578
 30
0.0
 11
40.05347
 21
196.176559
 31
0.0
  0
LINE
  5
6AD
100
AcDbEntity
  8
DRAW
  6
CONTINUOUS
100
AcDbLine
 10
40.169205
 20
191.52223
 30
0.0
 11
41.044205
 21
191.598783
 31
0.0
  0
LINE
  5
6AE
100
AcDbEntity
  8
DRAW
  6
CONTINUOUS
100
AcDbLine
 10
41.044205
 20
192.195682
 30
0.0
 11
40.169205
 21
192.272234
 31
0.0
  0
ARC
  5
6AF
100
AcDbEntity
  8
DRAW
  6
CONTINUOUS
100
AcDbCircle
 10
39.794205
 20
191.897232
 30
0.0
 40
1.9
100
AcDbArc
 50
269.999991
 51
312.536904
  0
ARC
  5
6B0
100
AcDbEntity
  8
DRAW
  6
CONTINUOUS
100
AcDbCircle
 10
39.794205
 20
191.897232
 30
0.0
 40
1.9
100
AcDbArc
 50
47.463134
 51
90.000019
  0
LINE
  5
6B1
100
AcDbEntity
  8
DRAW
  6
CONTINUOUS
100
AcDbLine
 10
39.794204
 20
193.797232
 30
0.0
 11
45.023905
 21
193.797231
 31
0.0
  0
ARC
  5
6B2
100
AcDbEntity
  8
DRAW
  6
CONTINUOUS
100
AcDbCircle
 10
39.994205
 20
192.097233
 30
0.0
 40
3.3
100
AcDbArc
 50
180.0
 51
270.0
  0
ARC
  5
6B3
100
AcDbEntity
  8
DRAW
  6
CONTINUOUS
100
AcDbCircle
 10
39.994205
 20
192.097233
 30
0.0
 40
2.8
100
AcDbArc
 50
180.0
 51
270.0
  0
LINE
  5
6B4
100
AcDbEntity
  8
DRAW
  6
CONTINUOUS
100
AcDbLine
 10
37.894204
 20
191.897232
 30
0.0
 11
37.894204
 21
193.669594
 31
0.0
  0
LINE
  5
6B5
100
AcDbEntity
  8
DRAW
  6
CONTINUOUS
100
AcDbLine
 10
36.694206
 20
192.097233
 30
0.0
 11
36.694206
 21
191.897231
 31
0.0
  0
LINE
  5
6B6
100
AcDbEntity
  8
DRAW
  6
CONTINUOUS
100
AcDbLine
 10
38.946128
 20
192.230839
 30
0.0
 11
38.946128
 21
191.56362
 31
0.0
  0
LINE
  5
6B7
100
AcDbEntity
  8
DRAW
  6
CONTINUOUS
100
AcDbLine
 10
38.544205
 20
192.195675
 30
0.0
 11
38.544205
 21
191.598784
 31
0.0
  0
ARC
  5
6B8
100
AcDbEntity
  8
DRAW
  6
CONTINUOUS
100
AcDbCircle
 10
39.794205
 20
191.897232
 30
0.0
 40
1.9
100
AcDbArc
 50
89.999998
 51
179.999995
  0
ARC
  5
6B9
100
AcDbEntity
  8
DRAW
  6
CONTINUOUS
100
AcDbCircle
 10
39.794206
 20
191.897231
 30
0.0
 40
3.1
100
AcDbArc
 50
180.0
 51
270.0
  0
LINE
  5
6BA
100
AcDbEntity
  8
DRAW
  6
CONTINUOUS
100
AcDbLine
 10
39.994205
 20
189.297233
 30
0.0
 11
39.994205
 21
188.797233
 31
0.0
  0
LINE
  5
6BB
100
AcDbEntity
  8
DRAW
  6
CONTINUOUS
100
AcDbLine
 10
39.994205
 20
188.797231
 30
0.0
 11
39.794206
 21
188.797231
 31
0.0
  0
ARC
  5
6BC
100
AcDbEntity
  8
DRAW
  6
CONTINUOUS
100
AcDbCircle
 10
39.794204
 20
191.897232
 30
0.0
 40
1.9
100
AcDbArc
 50
208.273718
 51
270.0
  0
LINE
  5
6BD
100
AcDbEntity
  8
DRAW
  6
CONTINUOUS
100
AcDbLine
 10
38.544205
 20
191.598784
 30
0.0
 11
39.419205
 21
191.522232
 31
0.0
  0
ARC
  5
6BE
100
AcDbEntity
  8
DRAW
  6
CONTINUOUS
100
AcDbCircle
 10
39.794204
 20
191.897232
 30
0.0
 40
1.9
100
AcDbArc
 50
180.0
 51
208.273718
  0
LINE
  5
6BF
100
AcDbEntity
  8
DRAW
  6
CONTINUOUS
100
AcDbLine
 10
39.460594
 20
191.049155
 30
0.0
 11
40.127816
 21
191.049155
 31
0.0
  0
LINE
  5
6C0
100
AcDbEntity
  8
DRAW
  6
CONTINUOUS
100
AcDbLine
 10
39.495757
 20
190.647232
 30
0.0
 11
40.092652
 21
190.647232
 31
0.0
  0
LINE
  5
6C1
100
AcDbEntity
  8
DRAW
  6
CONTINUOUS
100
AcDbLine
 10
40.092652
 20
190.647232
 30
0.0
 11
40.169205
 21
191.52223
 31
0.0
  0
LINE
  5
6C2
100
AcDbEntity
  8
DRAW
  6
CONTINUOUS
100
AcDbLine
 10
39.419205
 20
191.522232
 30
0.0
 11
39.495757
 21
190.647232
 31
0.0
  0
LINE
  5
6C3
100
AcDbEntity
  8
DRAW
  6
CONTINUOUS
100
AcDbLine
 10
36.840651
 20
194.023147
 30
0.0
 11
37.894204
 21
194.023147
 31
0.0
  0
LINE
  5
6C4
100
AcDbEntity
  8
DRAW
  6
CONTINUOUS
100
AcDbLine
 10
37.194205
 20
193.669594
 30
0.0
 11
37.894204
 21
193.669594
 31
0.0
  0
LINE
  5
6C5
100
AcDbEntity
  8
DRAW
  6
CONTINUOUS
100
AcDbLine
 10
36.694205
 20
196.169578
 30
0.0
 11
37.894204
 21
196.169578
 31
0.0
  0
LINE
  5
6C6
100
AcDbEntity
  8
DRAW
  6
CONTINUOUS
100
AcDbLine
 10
36.694205
 20
196.02315
 30
0.0
 11
37.894204
 21
196.02315
 31
0.0
  0
LINE
  5
6C7
100
AcDbEntity
  8
DRAW
  6
CONTINUOUS
100
AcDbLine
 10
36.694205
 20
196.02315
 30
0.0
 11
36.694205
 21
194.3767
 31
0.0
  0
ARC
  5
6C8
100
AcDbEntity
  8
DRAW
  6
CONTINUOUS
100
AcDbCircle
 10
37.194205
 20
194.3767
 30
0.0
 40
0.5
100
AcDbArc
 50
180.000001
 51
225.000001
  0
LINE
  5
6C9
100
AcDbEntity
  8
DRAW
  6
CONTINUOUS
100
AcDbLine
 10
36.694205
 20
194.3767
 30
0.0
 11
36.694205
 21
192.097233
 31
0.0
  0
LINE
  5
6CA
100
AcDbEntity
  8
DRAW
  6
CONTINUOUS
100
AcDbLine
 10
37.194205
 20
192.097233
 30
0.0
 11
36.694205
 21
192.097233
 31
0.0
  0
LINE
  5
6CB
100
AcDbEntity
  8
DRAW
  6
CONTINUOUS
100
AcDbLine
 10
37.194205
 20
193.669594
 30
0.0
 11
37.194205
 21
192.097233
 31
0.0
  0
LINE
  5
6CC
100
AcDbEntity
  8
DRAW
  6
CONTINUOUS
100
AcDbLine
 10
36.840651
 20
194.023147
 30
0.0
 11
37.194205
 21
193.669594
 31
0.0
  0
LINE
  5
6CD
100
AcDbEntity
  8
DRAW
  6
CONTINUOUS
100
AcDbLine
 10
36.694205
 20
196.023152
 30
0.0
 11
36.694205
 21
196.169578
 31
0.0
  0
LINE
  5
6CE
100
AcDbEntity
  8
DRAW
  6
CONTINUOUS
100
AcDbLine
 10
37.894204
 20
194.023147
 30
0.0
 11
37.894204
 21
196.02315
 31
0.0
  0
LINE
  5
6CF
100
AcDbEntity
  8
DRAW
  6
CONTINUOUS
100
AcDbLine
 10
39.419205
 20
192.272228
 30
0.0
 11
38.544205
 21
192.195675
 31
0.0
  0
LINE
  5
6D0
100
AcDbEntity
  8
DRAW
  6
CONTINUOUS
100
AcDbLine
 10
37.894204
 20
193.669594
 30
0.0
 11
37.894204
 21
194.023147
 31
0.0
  0
LINE
  5
6D1
100
AcDbEntity
  8
DRAW
  6
CONTINUOUS
100
AcDbLine
 10
40.127816
 20
192.745308
 30
0.0
 11
39.460594
 21
192.745308
 31
0.0
  0
LINE
  5
6D2
100
AcDbEntity
  8
DRAW
  6
CONTINUOUS
100
AcDbLine
 10
40.169205
 20
192.272234
 30
0.0
 11
40.092652
 21
193.147232
 31
0.0
  0
LINE
  5
6D3
100
AcDbEntity
  8
DRAW
  6
CONTINUOUS
100
AcDbLine
 10
40.092652
 20
193.147232
 30
0.0
 11
39.495757
 21
193.147232
 31
0.0
  0
LINE
  5
6D4
100
AcDbEntity
  8
DRAW
  6
CONTINUOUS
100
AcDbLine
 10
39.495757
 20
193.147232
 30
0.0
 11
39.419205
 21
192.272228
 31
0.0
  0
LINE
  5
6D5
100
AcDbEntity
  8
DRAW
  6
CONTINUOUS
100
AcDbLine
 10
40.05347
 20
196.176559
 30
0.0
 11
37.894204
 21
196.176559
 31
0.0
  0
LINE
  5
6D6
100
AcDbEntity
  8
DRAW
  6
CONTINUOUS
100
AcDbLine
 10
37.894204
 20
196.169578
 30
0.0
 11
37.894204
 21
196.176559
 31
0.0
  0
LINE
  5
6D7
100
AcDbEntity
  8
DRAW
  6
CONTINUOUS
100
AcDbLine
 10
37.894204
 20
196.169578
 30
0.0
 11
37.894204
 21
196.02315
 31
0.0
  0
LINE
  5
6D8
100
AcDbEntity
  8
DRAW
  6
CONTINUOUS
100
AcDbLine
 10
40.642281
 20
191.563619
 30
0.0
 11
40.642281
 21
192.230845
 31
0.0
  0
LINE
  5
6D9
100
AcDbEntity
  8
DRAW
  6
CONTINUOUS
100
AcDbLine
 10
41.044205
 20
191.598783
 30
0.0
 11
41.044205
 21
192.195682
 31
0.0
  0
LINE
  5
6DA
100
AcDbEntity
  8
DRAW
  6
CONTINUOUS
100
AcDbLine
 10
41.881211
 20
192.49723
 30
0.0
 11
42.48121
 21
191.897231
 31
0.0
  0
LINE
  5
6DB
100
AcDbEntity
  8
DRAW
  6
CONTINUOUS
100
AcDbLine
 10
42.48121
 20
191.897231
 30
0.0
 11
41.88121
 21
191.297231
 31
0.0
  0
LINE
  5
6DC
100
AcDbEntity
  8
DRAW
  6
CONTINUOUS
100
AcDbLine
 10
40.919463
 20
195.676578
 30
0.0
 11
44.174587
 21
193.797231
 31
0.0
  0
LINE
  5
6DD
100
AcDbEntity
  8
DRAW
  6
CONTINUOUS
100
AcDbLine
 10
44.6942
 20
195.310572
 30
0.0
 11
44.694199
 21
194.579768
 31
0.0
  0
LINE
  5
6DE
100
AcDbEntity
  8
DRAW
  6
CONTINUOUS
100
AcDbLine
 10
44.034968
 20
194.224251
 30
0.0
 11
44.727995
 21
193.824132
 31
0.0
  0
LINE
  5
6DF
100
AcDbEntity
  8
DRAW
  6
CONTINUOUS
100
AcDbLine
 10
44.034968
 20
194.224251
 30
0.0
 11
44.400791
 21
194.126229
 31
0.0
  0
POLYLINE
  5
6E0
100
AcDbEntity
  8
DRAW
  6
CONTINUOUS
100
AcDb2dPolyline
 66
     1
 10
0.0
 20
0.0
 30
0.0
  0
VERTEX
  5
6E1
100
AcDbEntity
  8
DRAW
  6
CONTINUOUS
100
AcDbVertex
100
AcDb2dVertex
 10
44.50073
 20
194.499207
 30
0.0
  0
VERTEX
  5
6E2
100
AcDbEntity
  8
DRAW
  6
CONTINUOUS
100
AcDbVertex
100
AcDb2dVertex
 10
44.487781
 20
194.498721
 30
0.0
  0
VERTEX
  5
6E3
100
AcDbEntity
  8
DRAW
  6
CONTINUOUS
100
AcDbVertex
100
AcDb2dVertex
 10
44.474888
 20
194.497385
 30
0.0
  0
VERTEX
  5
6E4
100
AcDbEntity
  8
DRAW
  6
CONTINUOUS
100
AcDbVertex
100
AcDb2dVertex
 10
44.462105
 20
194.495204
 30
0.0
  0
VERTEX
  5
6E5
100
AcDbEntity
  8
DRAW
  6
CONTINUOUS
100
AcDbVertex
100
AcDb2dVertex
 10
44.449487
 20
194.492187
 30
0.0
  0
VERTEX
  5
6E6
100
AcDbEntity
  8
DRAW
  6
CONTINUOUS
100
AcDbVertex
100
AcDb2dVertex
 10
44.437087
 20
194.488346
 30
0.0
  0
VERTEX
  5
6E7
100
AcDbEntity
  8
DRAW
  6
CONTINUOUS
100
AcDbVertex
100
AcDb2dVertex
 10
44.424959
 20
194.483699
 30
0.0
  0
VERTEX
  5
6E8
100
AcDbEntity
  8
DRAW
  6
CONTINUOUS
100
AcDbVertex
100
AcDb2dVertex
 10
44.413154
 20
194.478266
 30
0.0
  0
VERTEX
  5
6E9
100
AcDbEntity
  8
DRAW
  6
CONTINUOUS
100
AcDbVertex
100
AcDb2dVertex
 10
44.401723
 20
194.472069
 30
0.0
  0
VERTEX
  5
6EA
100
AcDbEntity
  8
DRAW
  6
CONTINUOUS
100
AcDbVertex
100
AcDb2dVertex
 10
44.390715
 20
194.465134
 30
0.0
  0
VERTEX
  5
6EB
100
AcDbEntity
  8
DRAW
  6
CONTINUOUS
100
AcDbVertex
100
AcDb2dVertex
 10
44.380176
 20
194.457492
 30
0.0
  0
VERTEX
  5
6EC
100
AcDbEntity
  8
DRAW
  6
CONTINUOUS
100
AcDbVertex
100
AcDb2dVertex
 10
44.370151
 20
194.449175
 30
0.0
  0
VERTEX
  5
6ED
100
AcDbEntity
  8
DRAW
  6
CONTINUOUS
100
AcDbVertex
100
AcDb2dVertex
 10
44.360684
 20
194.440219
 30
0.0
  0
VERTEX
  5
6EE
100
AcDbEntity
  8
DRAW
  6
CONTINUOUS
100
AcDbVertex
100
AcDb2dVertex
 10
44.351814
 20
194.430662
 30
0.0
  0
VERTEX
  5
6EF
100
AcDbEntity
  8
DRAW
  6
CONTINUOUS
100
AcDbVertex
100
AcDb2dVertex
 10
44.34358
 20
194.420544
 30
0.0
  0
VERTEX
  5
6F0
100
AcDbEntity
  8
DRAW
  6
CONTINUOUS
100
AcDbVertex
100
AcDb2dVertex
 10
44.336016
 20
194.409908
 30
0.0
  0
VERTEX
  5
6F1
100
AcDbEntity
  8
DRAW
  6
CONTINUOUS
100
AcDbVertex
100
AcDb2dVertex
 10
44.329156
 20
194.398801
 30
0.0
  0
VERTEX
  5
6F2
100
AcDbEntity
  8
DRAW
  6
CONTINUOUS
100
AcDbVertex
100
AcDb2dVertex
 10
44.323027
 20
194.38727
 30
0.0
  0
VERTEX
  5
6F3
100
AcDbEntity
  8
DRAW
  6
CONTINUOUS
100
AcDbVertex
100
AcDb2dVertex
 10
44.317657
 20
194.375363
 30
0.0
  0
VERTEX
  5
6F4
100
AcDbEntity
  8
DRAW
  6
CONTINUOUS
100
AcDbVertex
100
AcDb2dVertex
 10
44.313068
 20
194.363131
 30
0.0
  0
VERTEX
  5
6F5
100
AcDbEntity
  8
DRAW
  6
CONTINUOUS
100
AcDbVertex
100
AcDb2dVertex
 10
44.30928
 20
194.350628
 30
0.0
  0
VERTEX
  5
6F6
100
AcDbEntity
  8
DRAW
  6
CONTINUOUS
100
AcDbVertex
100
AcDb2dVertex
 10
44.306309
 20
194.337905
 30
0.0
  0
VERTEX
  5
6F7
100
AcDbEntity
  8
DRAW
  6
CONTINUOUS
100
AcDbVertex
100
AcDb2dVertex
 10
44.304167
 20
194.325018
 30
0.0
  0
VERTEX
  5
6F8
100
AcDbEntity
  8
DRAW
  6
CONTINUOUS
100
AcDbVertex
100
AcDb2dVertex
 10
44.302864
 20
194.312021
 30
0.0
  0
VERTEX
  5
6F9
100
AcDbEntity
  8
DRAW
  6
CONTINUOUS
100
AcDbVertex
100
AcDb2dVertex
 10
44.302406
 20
194.29897
 30
0.0
  0
VERTEX
  5
6FA
100
AcDbEntity
  8
DRAW
  6
CONTINUOUS
100
AcDbVertex
100
AcDb2dVertex
 10
44.302794
 20
194.285921
 30
0.0
  0
VERTEX
  5
6FB
100
AcDbEntity
  8
DRAW
  6
CONTINUOUS
100
AcDbVertex
100
AcDb2dVertex
 10
44.304027
 20
194.272929
 30
0.0
  0
VERTEX
  5
6FC
100
AcDbEntity
  8
DRAW
  6
CONTINUOUS
100
AcDbVertex
100
AcDb2dVertex
 10
44.306099
 20
194.260049
 30
0.0
  0
VERTEX
  5
6FD
100
AcDbEntity
  8
DRAW
  6
CONTINUOUS
100
AcDbVertex
100
AcDb2dVertex
 10
44.309001
 20
194.247337
 30
0.0
  0
VERTEX
  5
6FE
100
AcDbEntity
  8
DRAW
  6
CONTINUOUS
100
AcDbVertex
100
AcDb2dVertex
 10
44.312722
 20
194.234847
 30
0.0
  0
VERTEX
  5
6FF
100
AcDbEntity
  8
DRAW
  6
CONTINUOUS
100
AcDbVertex
100
AcDb2dVertex
 10
44.317245
 20
194.222632
 30
0.0
  0
VERTEX
  5
700
100
AcDbEntity
  8
DRAW
  6
CONTINUOUS
100
AcDbVertex
100
AcDb2dVertex
 10
44.322551
 20
194.210744
 30
0.0
  0
VERTEX
  5
701
100
AcDbEntity
  8
DRAW
  6
CONTINUOUS
100
AcDbVertex
100
AcDb2dVertex
 10
44.328618
 20
194.199235
 30
0.0
  0
VERTEX
  5
702
100
AcDbEntity
  8
DRAW
  6
CONTINUOUS
100
AcDbVertex
100
AcDb2dVertex
 10
44.335419
 20
194.188152
 30
0.0
  0
VERTEX
  5
703
100
AcDbEntity
  8
DRAW
  6
CONTINUOUS
100
AcDbVertex
100
AcDb2dVertex
 10
44.342925
 20
194.177544
 30
0.0
  0
VERTEX
  5
704
100
AcDbEntity
  8
DRAW
  6
CONTINUOUS
100
AcDbVertex
100
AcDb2dVertex
 10
44.351105
 20
194.167456
 30
0.0
  0
VERTEX
  5
705
100
AcDbEntity
  8
DRAW
  6
CONTINUOUS
100
AcDbVertex
100
AcDb2dVertex
 10
44.359923
 20
194.157931
 30
0.0
  0
VERTEX
  5
706
100
AcDbEntity
  8
DRAW
  6
CONTINUOUS
100
AcDbVertex
100
AcDb2dVertex
 10
44.369342
 20
194.149008
 30
0.0
  0
VERTEX
  5
707
100
AcDbEntity
  8
DRAW
  6
CONTINUOUS
100
AcDbVertex
100
AcDb2dVertex
 10
44.379322
 20
194.140728
 30
0.0
  0
VERTEX
  5
708
100
AcDbEntity
  8
DRAW
  6
CONTINUOUS
100
AcDbVertex
100
AcDb2dVertex
 10
44.38982
 20
194.133124
 30
0.0
  0
VERTEX
  5
709
100
AcDbEntity
  8
DRAW
  6
CONTINUOUS
100
AcDbVertex
100
AcDb2dVertex
 10
44.400791
 20
194.126229
 30
0.0
  0
SEQEND
  5
70A
100
AcDbEntity
  8
DRAW
  0
LINE
  5
70B
100
AcDbEntity
  8
DRAW
  6
CONTINUOUS
100
AcDbLine
 10
44.134907
 20
194.597229
 30
0.0
 11
44.50073
 21
194.499207
 31
0.0
  0
LINE
  5
70C
100
AcDbEntity
  8
DRAW
  6
CONTINUOUS
100
AcDbLine
 10
44.694199
 20
194.597229
 30
0.0
 11
44.134907
 21
194.597229
 31
0.0
  0
POLYLINE
  5
70D
100
AcDbEntity
  8
DRAW
  6
CONTINUOUS
100
AcDb2dPolyline
 66
     1
 10
0.0
 20
0.0
 30
0.0
  0
VERTEX
  5
70E
100
AcDbEntity
  8
DRAW
  6
CONTINUOUS
100
AcDbVertex
100
AcDb2dVertex
 10
44.134907
 20
194.597229
 30
0.0
  0
VERTEX
  5
70F
100
AcDbEntity
  8
DRAW
  6
CONTINUOUS
100
AcDbVertex
100
AcDb2dVertex
 10
44.121741
 20
194.596802
 30
0.0
  0
VERTEX
  5
710
100
AcDbEntity
  8
DRAW
  6
CONTINUOUS
100
AcDbVertex
100
AcDb2dVertex
 10
44.108635
 20
194.595523
 30
0.0
  0
VERTEX
  5
711
100
AcDbEntity
  8
DRAW
  6
CONTINUOUS
100
AcDbVertex
100
AcDb2dVertex
 10
44.095644
 20
194.593397
 30
0.0
  0
VERTEX
  5
712
100
AcDbEntity
  8
DRAW
  6
CONTINUOUS
100
AcDbVertex
100
AcDb2dVertex
 10
44.082826
 20
194.590433
 30
0.0
  0
VERTEX
  5
713
100
AcDbEntity
  8
DRAW
  6
CONTINUOUS
100
AcDbVertex
100
AcDb2dVertex
 10
44.070233
 20
194.586645
 30
0.0
  0
VERTEX
  5
714
100
AcDbEntity
  8
DRAW
  6
CONTINUOUS
100
AcDbVertex
100
AcDb2dVertex
 10
44.05792
 20
194.582047
 30
0.0
  0
VERTEX
  5
715
100
AcDbEntity
  8
DRAW
  6
CONTINUOUS
100
AcDbVertex
100
AcDb2dVertex
 10
44.045939
 20
194.576661
 30
0.0
  0
VERTEX
  5
716
100
AcDbEntity
  8
DRAW
  6
CONTINUOUS
100
AcDbVertex
100
AcDb2dVertex
 10
44.034342
 20
194.570508
 30
0.0
  0
VERTEX
  5
717
100
AcDbEntity
  8
DRAW
  6
CONTINUOUS
100
AcDbVertex
100
AcDb2dVertex
 10
44.023179
 20
194.563615
 30
0.0
  0
VERTEX
  5
718
100
AcDbEntity
  8
DRAW
  6
CONTINUOUS
100
AcDbVertex
100
AcDb2dVertex
 10
44.012495
 20
194.556012
 30
0.0
  0
VERTEX
  5
719
100
AcDbEntity
  8
DRAW
  6
CONTINUOUS
100
AcDbVertex
100
AcDb2dVertex
 10
44.002338
 20
194.547731
 30
0.0
  0
VERTEX
  5
71A
100
AcDbEntity
  8
DRAW
  6
CONTINUOUS
100
AcDbVertex
100
AcDb2dVertex
 10
43.992751
 20
194.538806
 30
0.0
  0
VERTEX
  5
71B
100
AcDbEntity
  8
DRAW
  6
CONTINUOUS
100
AcDbVertex
100
AcDb2dVertex
 10
43.983774
 20
194.529278
 30
0.0
  0
VERTEX
  5
71C
100
AcDbEntity
  8
DRAW
  6
CONTINUOUS
100
AcDbVertex
100
AcDb2dVertex
 10
43.975446
 20
194.519185
 30
0.0
  0
VERTEX
  5
71D
100
AcDbEntity
  8
DRAW
  6
CONTINUOUS
100
AcDbVertex
100
AcDb2dVertex
 10
43.967802
 20
194.508571
 30
0.0
  0
VERTEX
  5
71E
100
AcDbEntity
  8
DRAW
  6
CONTINUOUS
100
AcDbVertex
100
AcDb2dVertex
 10
43.960876
 20
194.497481
 30
0.0
  0
VERTEX
  5
71F
100
AcDbEntity
  8
DRAW
  6
CONTINUOUS
100
AcDbVertex
100
AcDb2dVertex
 10
43.954696
 20
194.485964
 30
0.0
  0
VERTEX
  5
720
100
AcDbEntity
  8
DRAW
  6
CONTINUOUS
100
AcDbVertex
100
AcDb2dVertex
 10
43.949288
 20
194.474067
 30
0.0
  0
VERTEX
  5
721
100
AcDbEntity
  8
DRAW
  6
CONTINUOUS
100
AcDbVertex
100
AcDb2dVertex
 10
43.944677
 20
194.461841
 30
0.0
  0
VERTEX
  5
722
100
AcDbEntity
  8
DRAW
  6
CONTINUOUS
100
AcDbVertex
100
AcDb2dVertex
 10
43.940881
 20
194.44934
 30
0.0
  0
VERTEX
  5
723
100
AcDbEntity
  8
DRAW
  6
CONTINUOUS
100
AcDbVertex
100
AcDb2dVertex
 10
43.937918
 20
194.436615
 30
0.0
  0
VERTEX
  5
724
100
AcDbEntity
  8
DRAW
  6
CONTINUOUS
100
AcDbVertex
100
AcDb2dVertex
 10
43.935799
 20
194.423722
 30
0.0
  0
VERTEX
  5
725
100
AcDbEntity
  8
DRAW
  6
CONTINUOUS
100
AcDbVertex
100
AcDb2dVertex
 10
43.934533
 20
194.410715
 30
0.0
  0
VERTEX
  5
726
100
AcDbEntity
  8
DRAW
  6
CONTINUOUS
100
AcDbVertex
100
AcDb2dVertex
 10
43.934126
 20
194.39765
 30
0.0
  0
VERTEX
  5
727
100
AcDbEntity
  8
DRAW
  6
CONTINUOUS
100
AcDbVertex
100
AcDb2dVertex
 10
43.93458
 20
194.384583
 30
0.0
  0
VERTEX
  5
728
100
AcDbEntity
  8
DRAW
  6
CONTINUOUS
100
AcDbVertex
100
AcDb2dVertex
 10
43.935893
 20
194.37157
 30
0.0
  0
VERTEX
  5
729
100
AcDbEntity
  8
DRAW
  6
CONTINUOUS
100
AcDbVertex
100
AcDb2dVertex
 10
43.938059
 20
194.358665
 30
0.0
  0
VERTEX
  5
72A
100
AcDbEntity
  8
DRAW
  6
CONTINUOUS
100
AcDbVertex
100
AcDb2dVertex
 10
43.941068
 20
194.345924
 30
0.0
  0
VERTEX
  5
72B
100
AcDbEntity
  8
DRAW
  6
CONTINUOUS
100
AcDbVertex
100
AcDb2dVertex
 10
43.944909
 20
194.333402
 30
0.0
  0
VERTEX
  5
72C
100
AcDbEntity
  8
DRAW
  6
CONTINUOUS
100
AcDbVertex
100
AcDb2dVertex
 10
43.949565
 20
194.321152
 30
0.0
  0
VERTEX
  5
72D
100
AcDbEntity
  8
DRAW
  6
CONTINUOUS
100
AcDbVertex
100
AcDb2dVertex
 10
43.955015
 20
194.309226
 30
0.0
  0
VERTEX
  5
72E
100
AcDbEntity
  8
DRAW
  6
CONTINUOUS
100
AcDbVertex
100
AcDb2dVertex
 10
43.961237
 20
194.297674
 30
0.0
  0
VERTEX
  5
72F
100
AcDbEntity
  8
DRAW
  6
CONTINUOUS
100
AcDbVertex
100
AcDb2dVertex
 10
43.968204
 20
194.286547
 30
0.0
  0
VERTEX
  5
730
100
AcDbEntity
  8
DRAW
  6
CONTINUOUS
100
AcDbVertex
100
AcDb2dVertex
 10
43.975886
 20
194.275892
 30
0.0
  0
VERTEX
  5
731
100
AcDbEntity
  8
DRAW
  6
CONTINUOUS
100
AcDbVertex
100
AcDb2dVertex
 10
43.98425
 20
194.265754
 30
0.0
  0
VERTEX
  5
732
100
AcDbEntity
  8
DRAW
  6
CONTINUOUS
100
AcDbVertex
100
AcDb2dVertex
 10
43.993262
 20
194.256177
 30
0.0
  0
VERTEX
  5
733
100
AcDbEntity
  8
DRAW
  6
CONTINUOUS
100
AcDbVertex
100
AcDb2dVertex
 10
44.002882
 20
194.247201
 30
0.0
  0
VERTEX
  5
734
100
AcDbEntity
  8
DRAW
  6
CONTINUOUS
100
AcDbVertex
100
AcDb2dVertex
 10
44.013069
 20
194.238865
 30
0.0
  0
VERTEX
  5
735
100
AcDbEntity
  8
DRAW
  6
CONTINUOUS
100
AcDbVertex
100
AcDb2dVertex
 10
44.023779
 20
194.231204
 30
0.0
  0
VERTEX
  5
736
100
AcDbEntity
  8
DRAW
  6
CONTINUOUS
100
AcDbVertex
100
AcDb2dVertex
 10
44.034968
 20
194.224251
 30
0.0
  0
SEQEND
  5
737
100
AcDbEntity
  8
DRAW
  0
LINE
  5
738
100
AcDbEntity
  8
DRAW
  6
CONTINUOUS
100
AcDbLine
 10
45.023978
 20
193.997231
 30
0.0
 11
45.023978
 21
193.797231
 31
0.0
  0
LINE
  5
739
100
AcDbEntity
  8
DRAW
  6
CONTINUOUS
100
AcDbLine
 10
45.023978
 20
193.997231
 30
0.0
 11
44.924039
 21
193.824132
 31
0.0
  0
LINE
  5
73A
100
AcDbEntity
  8
DRAW
  6
CONTINUOUS
100
AcDbLine
 10
44.400791
 20
194.126229
 30
0.0
 11
44.924039
 21
193.824132
 31
0.0
  0
LINE
  5
73B
100
AcDbEntity
  8
DRAW
  6
CONTINUOUS
100
AcDbLine
 10
44.50073
 20
194.299329
 30
0.0
 11
45.023978
 21
193.997231
 31
0.0
  0
POLYLINE
  5
73C
100
AcDbEntity
  8
DRAW
  6
CONTINUOUS
100
AcDb2dPolyline
 66
     1
 10
0.0
 20
0.0
 30
0.0
  0
VERTEX
  5
73D
100
AcDbEntity
  8
DRAW
  6
CONTINUOUS
100
AcDbVertex
100
AcDb2dVertex
 10
44.924039
 20
193.824132
 30
0.0
  0
VERTEX
  5
73E
100
AcDbEntity
  8
DRAW
  6
CONTINUOUS
100
AcDbVertex
100
AcDb2dVertex
 10
44.93557
 20
193.817939
 30
0.0
  0
VERTEX
  5
73F
100
AcDbEntity
  8
DRAW
  6
CONTINUOUS
100
AcDbVertex
100
AcDb2dVertex
 10
44.947481
 20
193.812516
 30
0.0
  0
VERTEX
  5
740
100
AcDbEntity
  8
DRAW
  6
CONTINUOUS
100
AcDbVertex
100
AcDb2dVertex
 10
44.959722
 20
193.807888
 30
0.0
  0
VERTEX
  5
741
100
AcDbEntity
  8
DRAW
  6
CONTINUOUS
100
AcDbVertex
100
AcDb2dVertex
 10
44.972238
 20
193.804074
 30
0.0
  0
VERTEX
  5
742
100
AcDbEntity
  8
DRAW
  6
CONTINUOUS
100
AcDbVertex
100
AcDb2dVertex
 10
44.984977
 20
193.80109
 30
0.0
  0
VERTEX
  5
743
100
AcDbEntity
  8
DRAW
  6
CONTINUOUS
100
AcDbVertex
100
AcDb2dVertex
 10
44.997884
 20
193.798949
 30
0.0
  0
VERTEX
  5
744
100
AcDbEntity
  8
DRAW
  6
CONTINUOUS
100
AcDbVertex
100
AcDb2dVertex
 10
45.010903
 20
193.797661
 30
0.0
  0
VERTEX
  5
745
100
AcDbEntity
  8
DRAW
  6
CONTINUOUS
100
AcDbVertex
100
AcDb2dVertex
 10
45.023978
 20
193.797231
 30
0.0
  0
SEQEND
  5
746
100
AcDbEntity
  8
DRAW
  0
LINE
  5
747
100
AcDbEntity
  8
DRAW
  6
CONTINUOUS
100
AcDbLine
 10
44.727995
 20
193.824132
 30
0.0
 11
44.924039
 21
193.824132
 31
0.0
  0
POLYLINE
  5
748
100
AcDbEntity
  8
DRAW
  6
CONTINUOUS
100
AcDb2dPolyline
 66
     1
 10
0.0
 20
0.0
 30
0.0
  0
VERTEX
  5
749
100
AcDbEntity
  8
DRAW
  6
CONTINUOUS
100
AcDbVertex
100
AcDb2dVertex
 10
44.727995
 20
193.824132
 30
0.0
  0
VERTEX
  5
74A
100
AcDbEntity
  8
DRAW
  6
CONTINUOUS
100
AcDbVertex
100
AcDb2dVertex
 10
44.739583
 20
193.817939
 30
0.0
  0
VERTEX
  5
74B
100
AcDbEntity
  8
DRAW
  6
CONTINUOUS
100
AcDbVertex
100
AcDb2dVertex
 10
44.751552
 20
193.812516
 30
0.0
  0
VERTEX
  5
74C
100
AcDbEntity
  8
DRAW
  6
CONTINUOUS
100
AcDbVertex
100
AcDb2dVertex
 10
44.763852
 20
193.807888
 30
0.0
  0
VERTEX
  5
74D
100
AcDbEntity
  8
DRAW
  6
CONTINUOUS
100
AcDbVertex
100
AcDb2dVertex
 10
44.77643
 20
193.804074
 30
0.0
  0
VERTEX
  5
74E
100
AcDbEntity
  8
DRAW
  6
CONTINUOUS
100
AcDbVertex
100
AcDb2dVertex
 10
44.789231
 20
193.80109
 30
0.0
  0
VERTEX
  5
74F
100
AcDbEntity
  8
DRAW
  6
CONTINUOUS
100
AcDbVertex
100
AcDb2dVertex
 10
44.8022
 20
193.798949
 30
0.0
  0
VERTEX
  5
750
100
AcDbEntity
  8
DRAW
  6
CONTINUOUS
100
AcDbVertex
100
AcDb2dVertex
 10
44.815283
 20
193.797661
 30
0.0
  0
VERTEX
  5
751
100
AcDbEntity
  8
DRAW
  6
CONTINUOUS
100
AcDbVertex
100
AcDb2dVertex
 10
44.828422
 20
193.797231
 30
0.0
  0
SEQEND
  5
752
100
AcDbEntity
  8
DRAW
  0
LINE
  5
753
100
AcDbEntity
  8
DRAW
  6
CONTINUOUS
100
AcDbLine
 10
44.50073
 20
194.499207
 30
0.0
 11
44.50073
 21
194.299329
 31
0.0
  0
LINE
  5
754
100
AcDbEntity
  8
DRAW
  6
CONTINUOUS
100
AcDbLine
 10
44.50073
 20
194.299329
 30
0.0
 11
44.400791
 21
194.126229
 31
0.0
  0
LINE
  5
755
100
AcDbEntity
  8
DRAW
  6
CONTINUOUS
100
AcDbLine
 10
44.6942
 20
196.176597
 30
0.0
 11
44.6942
 21
195.310572
 31
0.0
  0
LINE
  5
757
100
AcDbEntity
  8
DRAW
  6
CONTINUOUS
100
AcDbLine
 10
87.050001
 20
133.475177
 30
0.0
 11
87.050003
 21
103.240858
 31
0.0
  0
LINE
  5
758
100
AcDbEntity
  8
DRAW
  6
CONTINUOUS
100
AcDbLine
 10
87.050001
 20
103.413611
 30
0.0
 11
84.350001
 21
103.555112
 31
0.0
  0
LINE
  5
759
100
AcDbEntity
  8
DRAW
  6
CONTINUOUS
100
AcDbLine
 10
72.295637
 20
114.531326
 30
0.0
 11
74.436303
 21
114.512645
 31
0.0
  0
LINE
  5
75A
100
AcDbEntity
  8
DRAW
  6
CONTINUOUS
100
AcDbLine
 10
74.436249
 20
122.209942
 30
0.0
 11
72.295637
 21
122.191261
 31
0.0
  0
LINE
  5
75B
100
AcDbEntity
  8
DRAW
  6
CONTINUOUS
100
AcDbLine
 10
72.295637
 20
122.191261
 30
0.0
 11
72.295637
 21
114.531367
 31
0.0
  0
LINE
  5
75C
100
AcDbEntity
  8
DRAW
  6
CONTINUOUS
100
AcDbLine
 10
71.8
 20
121.69128
 30
0.0
 11
71.8
 21
115.031329
 31
0.0
  0
ARC
  5
75D
100
AcDbEntity
  8
DRAW
  6
CONTINUOUS
100
AcDbCircle
 10
72.299998
 20
115.031344
 30
0.0
 40
0.499997
100
AcDbArc
 50
180.001825
 51
269.500301
  0
LINE
  5
75E
100
AcDbEntity
  8
DRAW
  6
CONTINUOUS
100
AcDbLine
 10
71.8
 20
121.691202
 30
0.0
 11
71.802454
 21
121.740759
 31
0.0
  0
ARC
  5
75F
100
AcDbEntity
  8
DRAW
  6
CONTINUOUS
100
AcDbCircle
 10
72.3
 20
121.69128
 30
0.0
 40
0.5
100
AcDbArc
 50
90.500003
 51
180.000003
  0
LINE
  5
789
100
AcDbEntity
  8
DRAW
  6
CONTINUOUS
100
AcDbLine
 10
87.050003
 20
103.099442
 30
0.0
 11
101.750003
 21
103.15258
 31
0.0
  0
LINE
  5
78A
100
AcDbEntity
  8
DRAW
  6
CONTINUOUS
100
AcDbLine
 10
87.050003
 20
103.240858
 30
0.0
 11
101.750003
 21
103.293996
 31
0.0
  0
LINE
  5
78B
100
AcDbEntity
  8
DRAW
  6
CONTINUOUS
100
AcDbLine
 10
87.050003
 20
102.016593
 30
0.0
 11
101.750003
 21
102.144879
 31
0.0
  0
LINE
  5
78C
100
AcDbEntity
  8
DRAW
  6
CONTINUOUS
100
AcDbLine
 10
87.050003
 20
101.958017
 30
0.0
 11
101.750003
 21
102.086303
 31
0.0
  0
LINE
  5
78D
100
AcDbEntity
  8
DRAW
  6
CONTINUOUS
100
AcDbLine
 10
87.050003
 20
102.016593
 30
0.0
 11
87.050003
 21
101.958017
 31
0.0
  0
LINE
  5
78E
100
AcDbEntity
  8
DRAW
  6
CONTINUOUS
100
AcDbLine
 10
87.050003
 20
102.016593
 30
0.0
 11
87.050003
 21
103.099442
 31
0.0
  0
LINE
  5
78F
100
AcDbEntity
  8
DRAW
  6
CONTINUOUS
100
AcDbLine
 10
87.050003
 20
103.099442
 30
0.0
 11
87.050003
 21
103.240858
 31
0.0
  0
LINE
  5
790
100
AcDbEntity
  8
DRAW
  6
CONTINUOUS
100
AcDbLine
 10
101.750003
 20
103.293996
 30
0.0
 11
101.750003
 21
104.012576
 31
0.0
  0
LINE
  5
791
100
AcDbEntity
  8
DRAW
  6
CONTINUOUS
100
AcDbLine
 10
101.750003
 20
102.144879
 30
0.0
 11
101.750003
 21
103.15258
 31
0.0
  0
LINE
  5
792
100
AcDbEntity
  8
DRAW
  6
CONTINUOUS
100
AcDbLine
 10
101.750003
 20
103.15258
 30
0.0
 11
101.750003
 21
103.293996
 31
0.0
  0
LINE
  5
793
100
AcDbEntity
  8
DRAW
  6
CONTINUOUS
100
AcDbLine
 10
101.750003
 20
102.144879
 30
0.0
 11
101.750003
 21
102.086303
 31
0.0
  0
LINE
  5
794
100
AcDbEntity
  8
DRAW
  6
CONTINUOUS
100
AcDbLine
 10
87.049999
 20
193.289776
 30
0.0
 11
84.349999
 21
193.148275
 31
0.0
  0
LINE
  5
795
100
AcDbEntity
  8
DRAW
  6
CONTINUOUS
100
AcDbLine
 10
87.049999
 20
163.406773
 30
0.0
 11
84.349999
 21
163.548274
 31
0.0
  0
LINE
  5
796
100
AcDbEntity
  8
DRAW
  6
CONTINUOUS
100
AcDbLine
 10
87.049999
 20
133.296613
 30
0.0
 11
84.349999
 21
133.155112
 31
0.0
  0
LINE
  5
79A
100
AcDbEntity
  8
DRAW
  6
CONTINUOUS
100
AcDbLine
 10
84.349999
 20
178.348144
 30
0.0
 11
84.349999
 21
163.548312
 31
0.0
  0
LINE
  5
79B
100
AcDbEntity
  8
DRAW
  6
CONTINUOUS
100
AcDbLine
 10
51.26655
 20
161.557209
 30
0.0
 11
51.26655
 21
188.797232
 31
0.0
  0
LINE
  5
79C
100
AcDbEntity
  8
DRAW
  6
CONTINUOUS
100
AcDbLine
 10
51.694205
 20
161.380068
 30
0.0
 11
51.694205
 21
195.314393
 31
0.0
  0
LINE
  5
79D
100
AcDbEntity
  8
DRAW
  6
CONTINUOUS
100
AcDbLine
 10
50.766569
 20
161.681468
 30
0.0
 11
50.766569
 21
188.797232
 31
0.0
  0
LINE
  5
79E
100
AcDbEntity
  8
DRAW
  6
CONTINUOUS
100
AcDbLine
 10
50.044206
 20
162.747232
 30
0.0
 11
50.044206
 21
188.797231
 31
0.0
  0
LINE
  5
79F
100
AcDbEntity
  8
DRAW
  6
CONTINUOUS
100
AcDbLine
 10
50.109969
 20
161.024868
 30
0.0
 11
50.234229
 21
160.524887
 31
0.0
  0
LINE
  5
7A0
100
AcDbEntity
  8
DRAW
  6
CONTINUOUS
100
AcDbLine
 10
50.109969
 20
161.024868
 30
0.0
 11
50.375645
 21
160.583464
 31
0.0
  0
LINE
  5
7A1
100
AcDbEntity
  8
DRAW
  6
CONTINUOUS
100
AcDbLine
 10
50.375645
 20
160.583464
 30
0.0
 11
51.207974
 21
161.415793
 31
0.0
  0
LINE
  5
7A2
100
AcDbEntity
  8
DRAW
  6
CONTINUOUS
100
AcDbLine
 10
50.552785
 20
160.155809
 30
0.0
 11
51.635629
 21
161.238652
 31
0.0
  0
LINE
  5
7A3
100
AcDbEntity
  8
DRAW
  6
CONTINUOUS
100
AcDbLine
 10
50.552785
 20
160.155809
 30
0.0
 11
50.375645
 21
160.583464
 31
0.0
  0
ARC
  5
7A4
100
AcDbEntity
  8
DRAW
  6
CONTINUOUS
100
AcDbCircle
 10
50.234222
 20
160.724895
 30
0.0
 40
0.200008
100
AcDbArc
 50
270.001882
 51
314.998118
  0
LINE
  5
7A5
100
AcDbEntity
  8
DRAW
  6
CONTINUOUS
100
AcDbLine
 10
50.411369
 20
160.097233
 30
0.0
 11
50.234229
 21
160.524887
 31
0.0
  0
ARC
  5
7A6
100
AcDbEntity
  8
DRAW
  6
CONTINUOUS
100
AcDbCircle
 10
50.411369
 20
160.297224
 30
0.0
 40
0.199992
100
AcDbArc
 50
269.999926
 51
315.000074
  0
LINE
  5
7A7
100
AcDbEntity
  8
DRAW
  6
CONTINUOUS
100
AcDbLine
 10
51.635629
 20
161.238652
 30
0.0
 11
51.207974
 21
161.415793
 31
0.0
  0
LINE
  5
7A8
100
AcDbEntity
  8
DRAW
  6
CONTINUOUS
100
AcDbLine
 10
51.694205
 20
161.380068
 30
0.0
 11
51.26655
 21
161.557209
 31
0.0
  0
LINE
  5
7A9
100
AcDbEntity
  8
DRAW
  6
CONTINUOUS
100
AcDbLine
 10
47.444205
 20
165.407232
 30
0.0
 11
47.444205
 21
167.607233
 31
0.0
  0
LINE
  5
7AA
100
AcDbEntity
  8
DRAW
  6
CONTINUOUS
100
AcDbLine
 10
49.044205
 20
167.607233
 30
0.0
 11
49.044205
 21
165.407232
 31
0.0
  0
LINE
  5
7AB
100
AcDbEntity
  8
DRAW
  6
CONTINUOUS
100
AcDbLine
 10
45.944205
 20
167.607233
 30
0.0
 11
45.944205
 21
165.407232
 31
0.0
  0
LINE
  5
7AC
100
AcDbEntity
  8
DRAW
  6
CONTINUOUS
100
AcDbLine
 10
49.044205
 20
165.407232
 30
0.0
 11
47.444205
 21
165.407232
 31
0.0
  0
LINE
  5
7AD
100
AcDbEntity
  8
DRAW
  6
CONTINUOUS
100
AcDbLine
 10
50.044206
 20
162.747232
 30
0.0
 11
49.144206
 21
161.847232
 31
0.0
  0
LINE
  5
7AE
100
AcDbEntity
  8
DRAW
  6
CONTINUOUS
100
AcDbLine
 10
50.766569
 20
161.681468
 30
0.0
 11
51.207974
 21
161.415793
 31
0.0
  0
LINE
  5
7AF
100
AcDbEntity
  8
DRAW
  6
CONTINUOUS
100
AcDbLine
 10
50.766569
 20
161.681468
 30
0.0
 11
51.26655
 21
161.557209
 31
0.0
  0
ARC
  5
7B0
100
AcDbEntity
  8
DRAW
  6
CONTINUOUS
100
AcDbCircle
 10
51.066542
 20
161.557215
 30
0.0
 40
0.200008
100
AcDbArc
 50
315.001882
 51
359.998118
  0
LINE
  5
7B1
100
AcDbEntity
  8
DRAW
  6
CONTINUOUS
100
AcDbLine
 10
50.109969
 20
161.024868
 30
0.0
 11
50.766569
 21
161.681468
 31
0.0
  0
LINE
  5
7B2
100
AcDbEntity
  8
DRAW
  6
CONTINUOUS
100
AcDbLine
 10
49.044205
 20
167.607233
 30
0.0
 11
47.444205
 21
167.607233
 31
0.0
  0
ARC
  5
7B3
100
AcDbEntity
  8
DRAW
  6
CONTINUOUS
100
AcDbCircle
 10
51.494213
 20
161.380068
 30
0.0
 40
0.199992
100
AcDbArc
 50
314.999926
 51
0.000074
  0
LINE
  5
7C5
100
AcDbEntity
  8
DRAW
  6
CONTINUOUS
100
AcDbLine
 10
84.349999
 20
173.312826
 30
0.0
 11
73.845636
 21
173.404496
 31
0.0
  0
LINE
  5
7C6
100
AcDbEntity
  8
DRAW
  6
CONTINUOUS
100
AcDbLine
 10
72.295635
 20
182.177958
 30
0.0
 11
74.436544
 21
182.196642
 31
0.0
  0
LINE
  5
7C7
100
AcDbEntity
  8
DRAW
  6
CONTINUOUS
100
AcDbLine
 10
74.43631
 20
174.44798
 30
0.0
 11
73.845636
 21
174.44798
 31
0.0
  0
LINE
  5
7C8
100
AcDbEntity
  8
DRAW
  6
CONTINUOUS
100
AcDbLine
 10
74.43628
 20
174.644985
 30
0.0
 11
73.845636
 21
174.648851
 31
0.0
  0
LINE
  5
7CB
100
AcDbEntity
  8
DRAW
  6
CONTINUOUS
100
AcDbLine
 10
51.636608
 20
181.847231
 30
0.0
 11
51.636608
 21
174.847231
 31
0.0
  0
LINE
  5
7CC
100
AcDbEntity
  8
DRAW
  6
CONTINUOUS
100
AcDbLine
 10
51.662788
 20
181.847231
 30
0.0
 11
51.662788
 21
174.847231
 31
0.0
  0
LINE
  5
7CD
100
AcDbEntity
  8
DRAW
  6
CONTINUOUS
100
AcDbLine
 10
51.636608
 20
174.847231
 30
0.0
 11
51.662788
 21
174.847231
 31
0.0
  0
LINE
  5
7CE
100
AcDbEntity
  8
DRAW
  6
CONTINUOUS
100
AcDbLine
 10
72.295635
 20
174.518023
 30
0.0
 11
73.349999
 21
174.508822
 31
0.0
  0
ARC
  5
7CF
100
AcDbEntity
  8
DRAW
  6
CONTINUOUS
100
AcDbCircle
 10
72.300083
 20
175.018149
 30
0.0
 40
0.500084
100
AcDbArc
 50
179.991641
 51
269.490419
  0
LINE
  5
7D0
100
AcDbEntity
  8
DRAW
  6
CONTINUOUS
100
AcDbLine
 10
71.800002
 20
175.019862
 30
0.0
 11
71.799999
 21
175.018222
 31
0.0
  0
SPLINE
  5
7D2
100
AcDbEntity
  8
DRAW
  6
CONTINUOUS
100
AcDbSpline
210
0.0
220
0.0
230
-1.0
 70
     8
 71
     3
 72
     8
 73
     4
 74
     2
 42
0.0000001
 43
0.0000001
 44
0.000001
 12
0.0000633624175004
 22
-0.9999999979926021
 32
0.0
 13
0.0000000000005889
 23
1.0
 33
0.0
 40
0.0
 40
0.0
 40
0.0
 40
0.0
 40
0.5434998894256187
 40
0.5434998894256187
 40
0.5434998894256187
 40
0.5434998894256187
 10
73.34999884290354
 20
173.9044848147841
 30
0.0
 10
73.35001032205918
 20
173.7233181853392
 30
0.0
 10
73.34999886666119
 20
174.2668180744012
 30
0.0
 10
73.34999886666131
 20
174.4479847042097
 30
0.0
 11
73.34999884290354
 21
173.9044848147841
 31
0.0
 11
73.34999886666131
 21
174.4479847042097
 31
0.0
  0
ARC
  5
7D3
100
AcDbEntity
  8
DRAW
  6
CONTINUOUS
100
AcDbCircle
 10
73.850007
 20
173.90449
 30
0.0
 40
0.500008
100
AcDbArc
 50
180.000601
 51
269.499111
  0
SPLINE
  5
7D4
100
AcDbEntity
  8
DRAW
  6
CONTINUOUS
100
AcDbSpline
210
-0.9999999974233713
220
0.0000717861947375
230
0.0
 70
    24
 71
     3
 72
    11
 73
     7
 74
     5
 42
0.0000001
 43
0.0000001
 44
0.000001
 12
-0.0001564399688296
 22
-0.999999987763268
 32
0.0
 13
0.000074770198827
 23
0.9999999972047087
 33
0.0
 40
0.0
 40
0.0
 40
0.0
 40
0.0
 40
0.002307816787428
 40
0.0040297936336447
 40
0.0057670087838125
 40
0.0074528806957112
 40
0.0074528806957112
 40
0.0074528806957112
 40
0.0074528806957112
 10
73.34999884926773
 20
173.9045628338897
 30
0.0
 10
73.3499987289228
 20
173.9037935616367
 30
0.0
 10
73.34999838642801
 20
173.9010069775982
 30
0.0
 10
73.34999851776
 20
173.9042325461815
 30
0.0
 10
73.34999870545548
 20
173.9056275323556
 30
0.0
 10
73.34999880334692
 20
173.9068381237225
 30
0.0
 10
73.34999884536458
 20
173.9074000810249
 30
0.0
 11
73.34999884926773
 21
173.9045628338897
 31
0.0
 11
73.34999847893906
 21
173.902254017132
 31
0.0
 11
73.34999852901714
 21
173.9039759939775
 31
0.0
 11
73.34999870026774
 21
173.9057132091192
 31
0.0
 11
73.34999884536458
 21
173.9074000810249
 31
0.0
  0
LINE
  5
7D5
100
AcDbEntity
  8
DRAW
  6
CONTINUOUS
100
AcDbLine
 10
73.845636
 20
174.44798
 30
0.0
 11
73.845636
 21
174.648851
 31
0.0
  0
LINE
  5
7D6
100
AcDbEntity
  8
DRAW
  6
CONTINUOUS
100
AcDbLine
 10
73.845636
 20
174.447985
 30
0.0
 11
73.349999
 21
174.447985
 31
0.0
  0
LINE
  5
7D7
100
AcDbEntity
  8
DRAW
  6
CONTINUOUS
100
AcDbLine
 10
73.349999
 20
174.447984
 30
0.0
 11
73.349999
 21
174.547487
 31
0.0
  0
SPLINE
  5
7D8
100
AcDbEntity
  8
DRAW
  6
CONTINUOUS
100
AcDbSpline
210
0.0
220
0.0
230
-1.0
 70
     8
 71
     3
 72
    14
 73
    10
 74
     8
 42
0.0000001
 43
0.0000001
 44
0.000001
 12
-0.9999781827731663
 22
0.0066056019919704
 32
0.0
 13
-0.0000003056714554
 23
-0.9999999999999532
 33
0.0
 40
0.0
 40
0.0
 40
0.0
 40
0.0
 40
0.1115147564031139
 40
0.2173939967783752
 40
0.3123684426083607
 40
0.3922353636044908
 40
0.4538442165637223
 40
0.4950212723183304
 40
0.5162791686061437
 40
0.5162791686061437
 40
0.5162791686061437
 40
0.5162791686061437
 10
73.84563562068049
 20
174.6488507526088
 30
0.0
 10
73.8084648461937
 20
174.6490962933078
 30
0.0
 10
73.7359571194404
 20
174.6472881630695
 30
0.0
 10
73.63220180779172
 20
174.6381659557017
 30
0.0
 10
73.53955249721647
 20
174.62376896962
 30
0.0
 10
73.46290538961847
 20
174.6066361613044
 30
0.0
 10
73.40410452653597
 20
174.5871664912828
 30
0.0
 10
73.36811188236234
 20
174.5710032179983
 30
0.0
 10
73.34999886882734
 20
174.5545717391406
 30
0.0
 10
73.34999886666136
 20
174.5474857737113
 30
0.0
 11
73.84563562068049
 21
174.6488507526088
 31
0.0
 11
73.73415514344745
 21
174.6460467265103
 31
0.0
 11
73.6286970812371
 21
174.6366156894398
 31
0.0
 11
73.5348702622874
 21
174.6219028064665
 31
0.0
 11
73.45708811394129
 21
174.6037749089952
 31
0.0
 11
73.3987006950947
 21
174.5841138141488
 31
0.0
 11
73.36233400496306
 21
174.5648000704473
 31
0.0
 11
73.34999886666136
 21
174.5474857737113
 31
0.0
  0
LINE
  5
7D9
100
AcDbEntity
  8
DRAW
  6
CONTINUOUS
100
AcDbLine
 10
51.662788
 20
181.847231
 30
0.0
 11
51.636608
 21
181.847231
 31
0.0
  0
ARC
  5
7DA
100
AcDbEntity
  8
DRAW
  6
CONTINUOUS
100
AcDbCircle
 10
72.300007
 20
181.677877
 30
0.0
 40
0.500008
100
AcDbArc
 50
90.500894
 51
179.999407
  0
LINE
  5
7DB
100
AcDbEntity
  8
DRAW
  6
CONTINUOUS
100
AcDbLine
 10
71.800001
 20
181.676242
 30
0.0
 11
71.799999
 21
181.677883
 31
0.0
  0
LINE
  5
7DC
100
AcDbEntity
  8
DRAW
  6
CONTINUOUS
100
AcDbLine
 10
49.781064
 20
196.410371
 30
0.0
 11
51.507344
 21
194.684092
 31
0.0
  0
LINE
  5
7DD
100
AcDbEntity
  8
DRAW
  6
CONTINUOUS
100
AcDbLine
 10
51.507344
 20
195.402671
 30
0.0
 11
50.499644
 21
196.410371
 31
0.0
  0
LINE
  5
7DE
100
AcDbEntity
  8
DRAW
  6
CONTINUOUS
100
AcDbLine
 10
51.214955
 20
194.562981
 30
0.0
 11
51.507344
 21
194.684092
 31
0.0
  0
LINE
  5
7DF
100
AcDbEntity
  8
DRAW
  6
CONTINUOUS
100
AcDbLine
 10
51.273532
 20
194.421565
 30
0.0
 11
51.56592
 21
194.542676
 31
0.0
  0
LINE
  5
7E0
100
AcDbEntity
  8
DRAW
  6
CONTINUOUS
100
AcDbLine
 10
51.635629
 20
195.455809
 30
0.0
 11
50.552781
 21
196.538656
 31
0.0
  0
LINE
  5
7E1
100
AcDbEntity
  8
DRAW
  6
CONTINUOUS
100
AcDbLine
 10
50.773551
 20
194.297305
 30
0.0
 11
50.773551
 21
189.997231
 31
0.0
  0
LINE
  5
7E2
100
AcDbEntity
  8
DRAW
  6
CONTINUOUS
100
AcDbLine
 10
51.273532
 20
194.421565
 30
0.0
 11
51.273532
 21
189.997231
 31
0.0
  0
LINE
  5
7E3
100
AcDbEntity
  8
DRAW
  6
CONTINUOUS
100
AcDbLine
 10
48.751047
 20
191.897231
 30
0.0
 11
48.442224
 21
192.206054
 31
0.0
  0
LINE
  5
7E4
100
AcDbEntity
  8
DRAW
  6
CONTINUOUS
100
AcDbLine
 10
49.162833
 20
191.897231
 30
0.0
 11
48.562833
 21
192.49723
 31
0.0
  0
LINE
  5
7E5
100
AcDbEntity
  8
DRAW
  6
CONTINUOUS
100
AcDbLine
 10
50.294204
 20
191.897231
 30
0.0
 11
48.894203
 21
193.297232
 31
0.0
  0
LINE
  5
7E6
100
AcDbEntity
  8
DRAW
  6
CONTINUOUS
100
AcDbLine
 10
48.442224
 20
191.588408
 30
0.0
 11
48.751047
 21
191.897231
 31
0.0
  0
LINE
  5
7E7
100
AcDbEntity
  8
DRAW
  6
CONTINUOUS
100
AcDbLine
 10
48.562833
 20
191.297232
 30
0.0
 11
49.162833
 21
191.897231
 31
0.0
  0
LINE
  5
7E8
100
AcDbEntity
  8
DRAW
  6
CONTINUOUS
100
AcDbLine
 10
48.394205
 20
189.997231
 30
0.0
 11
48.894205
 21
190.497231
 31
0.0
  0
LINE
  5
7E9
100
AcDbEntity
  8
DRAW
  6
CONTINUOUS
100
AcDbLine
 10
48.562833
 20
191.297232
 30
0.0
 11
48.442224
 21
191.588408
 31
0.0
  0
ARC
  5
7EA
100
AcDbEntity
  8
DRAW
  6
CONTINUOUS
100
AcDbCircle
 10
49.473678
 20
189.297233
 30
0.0
 40
0.5
100
AcDbArc
 50
225.000002
 51
270.000001
  0
LINE
  5
7EB
100
AcDbEntity
  8
DRAW
  6
CONTINUOUS
100
AcDbLine
 10
51.120125
 20
188.797232
 30
0.0
 11
51.120125
 21
189.997231
 31
0.0
  0
LINE
  5
7EC
100
AcDbEntity
  8
DRAW
  6
CONTINUOUS
100
AcDbLine
 10
51.266552
 20
188.797232
 30
0.0
 11
51.266552
 21
189.997231
 31
0.0
  0
LINE
  5
7ED
100
AcDbEntity
  8
DRAW
  6
CONTINUOUS
100
AcDbLine
 10
49.473678
 20
188.797232
 30
0.0
 11
51.120125
 21
188.797232
 31
0.0
  0
LINE
  5
7EE
100
AcDbEntity
  8
DRAW
  6
CONTINUOUS
100
AcDbLine
 10
51.120123
 20
188.797232
 30
0.0
 11
51.26655
 21
188.797232
 31
0.0
  0
LINE
  5
7EF
100
AcDbEntity
  8
DRAW
  6
CONTINUOUS
100
AcDbLine
 10
49.120125
 20
189.997231
 30
0.0
 11
51.120125
 21
189.997231
 31
0.0
  0
LINE
  5
7F0
100
AcDbEntity
  8
DRAW
  6
CONTINUOUS
100
AcDbLine
 10
48.894205
 20
190.497231
 30
0.0
 11
50.294204
 21
191.897231
 31
0.0
  0
LINE
  5
7F1
100
AcDbEntity
  8
DRAW
  6
CONTINUOUS
100
AcDbLine
 10
48.766572
 20
189.297232
 30
0.0
 11
48.766572
 21
189.997231
 31
0.0
  0
LINE
  5
7F2
100
AcDbEntity
  8
DRAW
  6
CONTINUOUS
100
AcDbLine
 10
48.766572
 20
189.997231
 30
0.0
 11
49.120125
 21
189.997231
 31
0.0
  0
LINE
  5
7F3
100
AcDbEntity
  8
DRAW
  6
CONTINUOUS
100
AcDbLine
 10
49.120125
 20
188.943679
 30
0.0
 11
49.120125
 21
189.997231
 31
0.0
  0
LINE
  5
7F4
100
AcDbEntity
  8
DRAW
  6
CONTINUOUS
100
AcDbLine
 10
48.766572
 20
189.297232
 30
0.0
 11
49.120125
 21
188.943679
 31
0.0
  0
LINE
  5
7F5
100
AcDbEntity
  8
DRAW
  6
CONTINUOUS
100
AcDbLine
 10
49.162833
 20
191.897231
 30
0.0
 11
48.751047
 21
191.897231
 31
0.0
  0
LINE
  5
7F6
100
AcDbEntity
  8
DRAW
  6
CONTINUOUS
100
AcDbLine
 10
51.26655
 20
189.997231
 30
0.0
 11
51.273532
 21
189.997231
 31
0.0
  0
LINE
  5
7F7
100
AcDbEntity
  8
DRAW
  6
CONTINUOUS
100
AcDbLine
 10
51.266552
 20
189.997231
 30
0.0
 11
51.120125
 21
189.997231
 31
0.0
  0
LINE
  5
7F8
100
AcDbEntity
  8
DRAW
  6
CONTINUOUS
100
AcDbLine
 10
49.518695
 20
196.176597
 30
0.0
 11
47.1942
 21
196.176598
 31
0.0
  0
LINE
  5
7F9
100
AcDbEntity
  8
DRAW
  6
CONTINUOUS
100
AcDbLine
 10
47.713815
 20
193.797231
 30
0.0
 11
49.970644
 21
195.100212
 31
0.0
  0
LINE
  5
7FA
100
AcDbEntity
  8
DRAW
  6
CONTINUOUS
100
AcDbLine
 10
48.394204
 20
193.797231
 30
0.0
 11
48.894203
 21
193.297232
 31
0.0
  0
LINE
  5
7FB
100
AcDbEntity
  8
DRAW
  6
CONTINUOUS
100
AcDbLine
 10
47.194199
 20
194.579768
 30
0.0
 11
47.1942
 21
195.310572
 31
0.0
  0
LINE
  5
7FC
100
AcDbEntity
  8
DRAW
  6
CONTINUOUS
100
AcDbLine
 10
46.864422
 20
193.997231
 30
0.0
 11
47.387669
 21
194.299329
 31
0.0
  0
LINE
  5
7FD
100
AcDbEntity
  8
DRAW
  6
CONTINUOUS
100
AcDbLine
 10
46.964361
 20
193.824132
 30
0.0
 11
47.487608
 21
194.126229
 31
0.0
  0
LINE
  5
7FE
100
AcDbEntity
  8
DRAW
  6
CONTINUOUS
100
AcDbLine
 10
47.160404
 20
193.824132
 30
0.0
 11
47.853431
 21
194.224251
 31
0.0
  0
LINE
  5
7FF
100
AcDbEntity
  8
DRAW
  6
CONTINUOUS
100
AcDbLine
 10
46.864422
 20
193.797231
 30
0.0
 11
48.394204
 21
193.797231
 31
0.0
  0
LINE
  5
800
100
AcDbEntity
  8
DRAW
  6
CONTINUOUS
100
AcDbLine
 10
46.864422
 20
193.997231
 30
0.0
 11
46.864422
 21
193.797231
 31
0.0
  0
LINE
  5
801
100
AcDbEntity
  8
DRAW
  6
CONTINUOUS
100
AcDbLine
 10
46.864422
 20
193.997231
 30
0.0
 11
46.964361
 21
193.824132
 31
0.0
  0
POLYLINE
  5
802
100
AcDbEntity
  8
DRAW
  6
CONTINUOUS
100
AcDb2dPolyline
 66
     1
 10
0.0
 20
0.0
 30
0.0
  0
VERTEX
  5
803
100
AcDbEntity
  8
DRAW
  6
CONTINUOUS
100
AcDbVertex
100
AcDb2dVertex
 10
46.864422
 20
193.797231
 30
0.0
  0
VERTEX
  5
804
100
AcDbEntity
  8
DRAW
  6
CONTINUOUS
100
AcDbVertex
100
AcDb2dVertex
 10
46.877497
 20
193.797661
 30
0.0
  0
VERTEX
  5
805
100
AcDbEntity
  8
DRAW
  6
CONTINUOUS
100
AcDbVertex
100
AcDb2dVertex
 10
46.890516
 20
193.798949
 30
0.0
  0
VERTEX
  5
806
100
AcDbEntity
  8
DRAW
  6
CONTINUOUS
100
AcDbVertex
100
AcDb2dVertex
 10
46.903422
 20
193.80109
 30
0.0
  0
VERTEX
  5
807
100
AcDbEntity
  8
DRAW
  6
CONTINUOUS
100
AcDbVertex
100
AcDb2dVertex
 10
46.916161
 20
193.804074
 30
0.0
  0
VERTEX
  5
808
100
AcDbEntity
  8
DRAW
  6
CONTINUOUS
100
AcDbVertex
100
AcDb2dVertex
 10
46.928678
 20
193.807888
 30
0.0
  0
VERTEX
  5
809
100
AcDbEntity
  8
DRAW
  6
CONTINUOUS
100
AcDbVertex
100
AcDb2dVertex
 10
46.940918
 20
193.812516
 30
0.0
  0
VERTEX
  5
80A
100
AcDbEntity
  8
DRAW
  6
CONTINUOUS
100
AcDbVertex
100
AcDb2dVertex
 10
46.952829
 20
193.817939
 30
0.0
  0
VERTEX
  5
80B
100
AcDbEntity
  8
DRAW
  6
CONTINUOUS
100
AcDbVertex
100
AcDb2dVertex
 10
46.964361
 20
193.824132
 30
0.0
  0
SEQEND
  5
80C
100
AcDbEntity
  8
DRAW
  0
LINE
  5
80D
100
AcDbEntity
  8
DRAW
  6
CONTINUOUS
100
AcDbLine
 10
47.160404
 20
193.824132
 30
0.0
 11
46.964361
 21
193.824132
 31
0.0
  0
POLYLINE
  5
80E
100
AcDbEntity
  8
DRAW
  6
CONTINUOUS
100
AcDb2dPolyline
 66
     1
 10
0.0
 20
0.0
 30
0.0
  0
VERTEX
  5
80F
100
AcDbEntity
  8
DRAW
  6
CONTINUOUS
100
AcDbVertex
100
AcDb2dVertex
 10
47.060115
 20
193.797231
 30
0.0
  0
VERTEX
  5
810
100
AcDbEntity
  8
DRAW
  6
CONTINUOUS
100
AcDbVertex
100
AcDb2dVertex
 10
47.073236
 20
193.797669
 30
0.0
  0
VERTEX
  5
811
100
AcDbEntity
  8
DRAW
  6
CONTINUOUS
100
AcDbVertex
100
AcDb2dVertex
 10
47.086301
 20
193.798963
 30
0.0
  0
VERTEX
  5
812
100
AcDbEntity
  8
DRAW
  6
CONTINUOUS
100
AcDbVertex
100
AcDb2dVertex
 10
47.099253
 20
193.801106
 30
0.0
  0
VERTEX
  5
813
100
AcDbEntity
  8
DRAW
  6
CONTINUOUS
100
AcDbVertex
100
AcDb2dVertex
 10
47.112036
 20
193.804091
 30
0.0
  0
VERTEX
  5
814
100
AcDbEntity
  8
DRAW
  6
CONTINUOUS
100
AcDbVertex
100
AcDb2dVertex
 10
47.124596
 20
193.807904
 30
0.0
  0
VERTEX
  5
815
100
AcDbEntity
  8
DRAW
  6
CONTINUOUS
100
AcDbVertex
100
AcDb2dVertex
 10
47.136879
 20
193.812529
 30
0.0
  0
VERTEX
  5
816
100
AcDbEntity
  8
DRAW
  6
CONTINUOUS
100
AcDbVertex
100
AcDb2dVertex
 10
47.148832
 20
193.817946
 30
0.0
  0
VERTEX
  5
817
100
AcDbEntity
  8
DRAW
  6
CONTINUOUS
100
AcDbVertex
100
AcDb2dVertex
 10
47.160404
 20
193.824132
 30
0.0
  0
SEQEND
  5
818
100
AcDbEntity
  8
DRAW
  0
LINE
  5
819
100
AcDbEntity
  8
DRAW
  6
CONTINUOUS
100
AcDbLine
 10
47.487608
 20
194.126229
 30
0.0
 11
47.387669
 21
194.299329
 31
0.0
  0
LINE
  5
81A
100
AcDbEntity
  8
DRAW
  6
CONTINUOUS
100
AcDbLine
 10
47.387669
 20
194.299329
 30
0.0
 11
47.387669
 21
194.499207
 31
0.0
  0
LINE
  5
81B
100
AcDbEntity
  8
DRAW
  6
CONTINUOUS
100
AcDbLine
 10
47.753492
 20
194.597229
 30
0.0
 11
47.194199
 21
194.597229
 31
0.0
  0
LINE
  5
81C
100
AcDbEntity
  8
DRAW
  6
CONTINUOUS
100
AcDbLine
 10
47.853431
 20
194.224251
 30
0.0
 11
47.487608
 21
194.126229
 31
0.0
  0
POLYLINE
  5
81D
100
AcDbEntity
  8
DRAW
  6
CONTINUOUS
100
AcDb2dPolyline
 66
     1
 10
0.0
 20
0.0
 30
0.0
  0
VERTEX
  5
81E
100
AcDbEntity
  8
DRAW
  6
CONTINUOUS
100
AcDbVertex
100
AcDb2dVertex
 10
47.487608
 20
194.126229
 30
0.0
  0
VERTEX
  5
81F
100
AcDbEntity
  8
DRAW
  6
CONTINUOUS
100
AcDbVertex
100
AcDb2dVertex
 10
47.49858
 20
194.133124
 30
0.0
  0
VERTEX
  5
820
100
AcDbEntity
  8
DRAW
  6
CONTINUOUS
100
AcDbVertex
100
AcDb2dVertex
 10
47.509078
 20
194.140728
 30
0.0
  0
VERTEX
  5
821
100
AcDbEntity
  8
DRAW
  6
CONTINUOUS
100
AcDbVertex
100
AcDb2dVertex
 10
47.519057
 20
194.149008
 30
0.0
  0
VERTEX
  5
822
100
AcDbEntity
  8
DRAW
  6
CONTINUOUS
100
AcDbVertex
100
AcDb2dVertex
 10
47.528476
 20
194.157931
 30
0.0
  0
VERTEX
  5
823
100
AcDbEntity
  8
DRAW
  6
CONTINUOUS
100
AcDbVertex
100
AcDb2dVertex
 10
47.537295
 20
194.167456
 30
0.0
  0
VERTEX
  5
824
100
AcDbEntity
  8
DRAW
  6
CONTINUOUS
100
AcDbVertex
100
AcDb2dVertex
 10
47.545474
 20
194.177544
 30
0.0
  0
VERTEX
  5
825
100
AcDbEntity
  8
DRAW
  6
CONTINUOUS
100
AcDbVertex
100
AcDb2dVertex
 10
47.552981
 20
194.188152
 30
0.0
  0
VERTEX
  5
826
100
AcDbEntity
  8
DRAW
  6
CONTINUOUS
100
AcDbVertex
100
AcDb2dVertex
 10
47.559782
 20
194.199235
 30
0.0
  0
VERTEX
  5
827
100
AcDbEntity
  8
DRAW
  6
CONTINUOUS
100
AcDbVertex
100
AcDb2dVertex
 10
47.565848
 20
194.210744
 30
0.0
  0
VERTEX
  5
828
100
AcDbEntity
  8
DRAW
  6
CONTINUOUS
100
AcDbVertex
100
AcDb2dVertex
 10
47.571154
 20
194.222632
 30
0.0
  0
VERTEX
  5
829
100
AcDbEntity
  8
DRAW
  6
CONTINUOUS
100
AcDbVertex
100
AcDb2dVertex
 10
47.575677
 20
194.234847
 30
0.0
  0
VERTEX
  5
82A
100
AcDbEntity
  8
DRAW
  6
CONTINUOUS
100
AcDbVertex
100
AcDb2dVertex
 10
47.579398
 20
194.247337
 30
0.0
  0
VERTEX
  5
82B
100
AcDbEntity
  8
DRAW
  6
CONTINUOUS
100
AcDbVertex
100
AcDb2dVertex
 10
47.582301
 20
194.260049
 30
0.0
  0
VERTEX
  5
82C
100
AcDbEntity
  8
DRAW
  6
CONTINUOUS
100
AcDbVertex
100
AcDb2dVertex
 10
47.584373
 20
194.272929
 30
0.0
  0
VERTEX
  5
82D
100
AcDbEntity
  8
DRAW
  6
CONTINUOUS
100
AcDbVertex
100
AcDb2dVertex
 10
47.585605
 20
194.285921
 30
0.0
  0
VERTEX
  5
82E
100
AcDbEntity
  8
DRAW
  6
CONTINUOUS
100
AcDbVertex
100
AcDb2dVertex
 10
47.585993
 20
194.29897
 30
0.0
  0
VERTEX
  5
82F
100
AcDbEntity
  8
DRAW
  6
CONTINUOUS
100
AcDbVertex
100
AcDb2dVertex
 10
47.585535
 20
194.312021
 30
0.0
  0
VERTEX
  5
830
100
AcDbEntity
  8
DRAW
  6
CONTINUOUS
100
AcDbVertex
100
AcDb2dVertex
 10
47.584232
 20
194.325018
 30
0.0
  0
VERTEX
  5
831
100
AcDbEntity
  8
DRAW
  6
CONTINUOUS
100
AcDbVertex
100
AcDb2dVertex
 10
47.582091
 20
194.337905
 30
0.0
  0
VERTEX
  5
832
100
AcDbEntity
  8
DRAW
  6
CONTINUOUS
100
AcDbVertex
100
AcDb2dVertex
 10
47.57912
 20
194.350628
 30
0.0
  0
VERTEX
  5
833
100
AcDbEntity
  8
DRAW
  6
CONTINUOUS
100
AcDbVertex
100
AcDb2dVertex
 10
47.575332
 20
194.363131
 30
0.0
  0
VERTEX
  5
834
100
AcDbEntity
  8
DRAW
  6
CONTINUOUS
100
AcDbVertex
100
AcDb2dVertex
 10
47.570743
 20
194.375363
 30
0.0
  0
VERTEX
  5
835
100
AcDbEntity
  8
DRAW
  6
CONTINUOUS
100
AcDbVertex
100
AcDb2dVertex
 10
47.565372
 20
194.38727
 30
0.0
  0
VERTEX
  5
836
100
AcDbEntity
  8
DRAW
  6
CONTINUOUS
100
AcDbVertex
100
AcDb2dVertex
 10
47.559244
 20
194.398801
 30
0.0
  0
VERTEX
  5
837
100
AcDbEntity
  8
DRAW
  6
CONTINUOUS
100
AcDbVertex
100
AcDb2dVertex
 10
47.552383
 20
194.409908
 30
0.0
  0
VERTEX
  5
838
100
AcDbEntity
  8
DRAW
  6
CONTINUOUS
100
AcDbVertex
100
AcDb2dVertex
 10
47.544819
 20
194.420544
 30
0.0
  0
VERTEX
  5
839
100
AcDbEntity
  8
DRAW
  6
CONTINUOUS
100
AcDbVertex
100
AcDb2dVertex
 10
47.536585
 20
194.430662
 30
0.0
  0
VERTEX
  5
83A
100
AcDbEntity
  8
DRAW
  6
CONTINUOUS
100
AcDbVertex
100
AcDb2dVertex
 10
47.527716
 20
194.440219
 30
0.0
  0
VERTEX
  5
83B
100
AcDbEntity
  8
DRAW
  6
CONTINUOUS
100
AcDbVertex
100
AcDb2dVertex
 10
47.518248
 20
194.449175
 30
0.0
  0
VERTEX
  5
83C
100
AcDbEntity
  8
DRAW
  6
CONTINUOUS
100
AcDbVertex
100
AcDb2dVertex
 10
47.508224
 20
194.457492
 30
0.0
  0
VERTEX
  5
83D
100
AcDbEntity
  8
DRAW
  6
CONTINUOUS
100
AcDbVertex
100
AcDb2dVertex
 10
47.497685
 20
194.465134
 30
0.0
  0
VERTEX
  5
83E
100
AcDbEntity
  8
DRAW
  6
CONTINUOUS
100
AcDbVertex
100
AcDb2dVertex
 10
47.486676
 20
194.472069
 30
0.0
  0
VERTEX
  5
83F
100
AcDbEntity
  8
DRAW
  6
CONTINUOUS
100
AcDbVertex
100
AcDb2dVertex
 10
47.475245
 20
194.478266
 30
0.0
  0
VERTEX
  5
840
100
AcDbEntity
  8
DRAW
  6
CONTINUOUS
100
AcDbVertex
100
AcDb2dVertex
 10
47.46344
 20
194.483699
 30
0.0
  0
VERTEX
  5
841
100
AcDbEntity
  8
DRAW
  6
CONTINUOUS
100
AcDbVertex
100
AcDb2dVertex
 10
47.451312
 20
194.488346
 30
0.0
  0
VERTEX
  5
842
100
AcDbEntity
  8
DRAW
  6
CONTINUOUS
100
AcDbVertex
100
AcDb2dVertex
 10
47.438913
 20
194.492187
 30
0.0
  0
VERTEX
  5
843
100
AcDbEntity
  8
DRAW
  6
CONTINUOUS
100
AcDbVertex
100
AcDb2dVertex
 10
47.426295
 20
194.495204
 30
0.0
  0
VERTEX
  5
844
100
AcDbEntity
  8
DRAW
  6
CONTINUOUS
100
AcDbVertex
100
AcDb2dVertex
 10
47.413511
 20
194.497385
 30
0.0
  0
VERTEX
  5
845
100
AcDbEntity
  8
DRAW
  6
CONTINUOUS
100
AcDbVertex
100
AcDb2dVertex
 10
47.400618
 20
194.498721
 30
0.0
  0
VERTEX
  5
846
100
AcDbEntity
  8
DRAW
  6
CONTINUOUS
100
AcDbVertex
100
AcDb2dVertex
 10
47.387669
 20
194.499207
 30
0.0
  0
SEQEND
  5
847
100
AcDbEntity
  8
DRAW
  0
LINE
  5
848
100
AcDbEntity
  8
DRAW
  6
CONTINUOUS
100
AcDbLine
 10
47.753492
 20
194.597229
 30
0.0
 11
47.387669
 21
194.499207
 31
0.0
  0
POLYLINE
  5
849
100
AcDbEntity
  8
DRAW
  6
CONTINUOUS
100
AcDb2dPolyline
 66
     1
 10
0.0
 20
0.0
 30
0.0
  0
VERTEX
  5
84A
100
AcDbEntity
  8
DRAW
  6
CONTINUOUS
100
AcDbVertex
100
AcDb2dVertex
 10
47.853431
 20
194.224251
 30
0.0
  0
VERTEX
  5
84B
100
AcDbEntity
  8
DRAW
  6
CONTINUOUS
100
AcDbVertex
100
AcDb2dVertex
 10
47.86462
 20
194.231204
 30
0.0
  0
VERTEX
  5
84C
100
AcDbEntity
  8
DRAW
  6
CONTINUOUS
100
AcDbVertex
100
AcDb2dVertex
 10
47.875331
 20
194.238865
 30
0.0
  0
VERTEX
  5
84D
100
AcDbEntity
  8
DRAW
  6
CONTINUOUS
100
AcDbVertex
100
AcDb2dVertex
 10
47.885518
 20
194.247201
 30
0.0
  0
VERTEX
  5
84E
100
AcDbEntity
  8
DRAW
  6
CONTINUOUS
100
AcDbVertex
100
AcDb2dVertex
 10
47.895138
 20
194.256177
 30
0.0
  0
VERTEX
  5
84F
100
AcDbEntity
  8
DRAW
  6
CONTINUOUS
100
AcDbVertex
100
AcDb2dVertex
 10
47.904149
 20
194.265754
 30
0.0
  0
VERTEX
  5
850
100
AcDbEntity
  8
DRAW
  6
CONTINUOUS
100
AcDbVertex
100
AcDb2dVertex
 10
47.912514
 20
194.275892
 30
0.0
  0
VERTEX
  5
851
100
AcDbEntity
  8
DRAW
  6
CONTINUOUS
100
AcDbVertex
100
AcDb2dVertex
 10
47.920196
 20
194.286547
 30
0.0
  0
VERTEX
  5
852
100
AcDbEntity
  8
DRAW
  6
CONTINUOUS
100
AcDbVertex
100
AcDb2dVertex
 10
47.927163
 20
194.297674
 30
0.0
  0
VERTEX
  5
853
100
AcDbEntity
  8
DRAW
  6
CONTINUOUS
100
AcDbVertex
100
AcDb2dVertex
 10
47.933384
 20
194.309226
 30
0.0
  0
VERTEX
  5
854
100
AcDbEntity
  8
DRAW
  6
CONTINUOUS
100
AcDbVertex
100
AcDb2dVertex
 10
47.938835
 20
194.321152
 30
0.0
  0
VERTEX
  5
855
100
AcDbEntity
  8
DRAW
  6
CONTINUOUS
100
AcDbVertex
100
AcDb2dVertex
 10
47.94349
 20
194.333402
 30
0.0
  0
VERTEX
  5
856
100
AcDbEntity
  8
DRAW
  6
CONTINUOUS
100
AcDbVertex
100
AcDb2dVertex
 10
47.947331
 20
194.345924
 30
0.0
  0
VERTEX
  5
857
100
AcDbEntity
  8
DRAW
  6
CONTINUOUS
100
AcDbVertex
100
AcDb2dVertex
 10
47.950341
 20
194.358665
 30
0.0
  0
VERTEX
  5
858
100
AcDbEntity
  8
DRAW
  6
CONTINUOUS
100
AcDbVertex
100
AcDb2dVertex
 10
47.952507
 20
194.37157
 30
0.0
  0
VERTEX
  5
859
100
AcDbEntity
  8
DRAW
  6
CONTINUOUS
100
AcDbVertex
100
AcDb2dVertex
 10
47.953819
 20
194.384583
 30
0.0
  0
VERTEX
  5
85A
100
AcDbEntity
  8
DRAW
  6
CONTINUOUS
100
AcDbVertex
100
AcDb2dVertex
 10
47.954273
 20
194.39765
 30
0.0
  0
VERTEX
  5
85B
100
AcDbEntity
  8
DRAW
  6
CONTINUOUS
100
AcDbVertex
100
AcDb2dVertex
 10
47.953867
 20
194.410715
 30
0.0
  0
VERTEX
  5
85C
100
AcDbEntity
  8
DRAW
  6
CONTINUOUS
100
AcDbVertex
100
AcDb2dVertex
 10
47.952601
 20
194.423722
 30
0.0
  0
VERTEX
  5
85D
100
AcDbEntity
  8
DRAW
  6
CONTINUOUS
100
AcDbVertex
100
AcDb2dVertex
 10
47.950482
 20
194.436615
 30
0.0
  0
VERTEX
  5
85E
100
AcDbEntity
  8
DRAW
  6
CONTINUOUS
100
AcDbVertex
100
AcDb2dVertex
 10
47.947518
 20
194.44934
 30
0.0
  0
VERTEX
  5
85F
100
AcDbEntity
  8
DRAW
  6
CONTINUOUS
100
AcDbVertex
100
AcDb2dVertex
 10
47.943722
 20
194.461841
 30
0.0
  0
VERTEX
  5
860
100
AcDbEntity
  8
DRAW
  6
CONTINUOUS
100
AcDbVertex
100
AcDb2dVertex
 10
47.939111
 20
194.474067
 30
0.0
  0
VERTEX
  5
861
100
AcDbEntity
  8
DRAW
  6
CONTINUOUS
100
AcDbVertex
100
AcDb2dVertex
 10
47.933704
 20
194.485964
 30
0.0
  0
VERTEX
  5
862
100
AcDbEntity
  8
DRAW
  6
CONTINUOUS
100
AcDbVertex
100
AcDb2dVertex
 10
47.927524
 20
194.497481
 30
0.0
  0
VERTEX
  5
863
100
AcDbEntity
  8
DRAW
  6
CONTINUOUS
100
AcDbVertex
100
AcDb2dVertex
 10
47.920597
 20
194.508571
 30
0.0
  0
VERTEX
  5
864
100
AcDbEntity
  8
DRAW
  6
CONTINUOUS
100
AcDbVertex
100
AcDb2dVertex
 10
47.912953
 20
194.519185
 30
0.0
  0
VERTEX
  5
865
100
AcDbEntity
  8
DRAW
  6
CONTINUOUS
100
AcDbVertex
100
AcDb2dVertex
 10
47.904625
 20
194.529278
 30
0.0
  0
VERTEX
  5
866
100
AcDbEntity
  8
DRAW
  6
CONTINUOUS
100
AcDbVertex
100
AcDb2dVertex
 10
47.895648
 20
194.538806
 30
0.0
  0
VERTEX
  5
867
100
AcDbEntity
  8
DRAW
  6
CONTINUOUS
100
AcDbVertex
100
AcDb2dVertex
 10
47.886061
 20
194.547731
 30
0.0
  0
VERTEX
  5
868
100
AcDbEntity
  8
DRAW
  6
CONTINUOUS
100
AcDbVertex
100
AcDb2dVertex
 10
47.875904
 20
194.556012
 30
0.0
  0
VERTEX
  5
869
100
AcDbEntity
  8
DRAW
  6
CONTINUOUS
100
AcDbVertex
100
AcDb2dVertex
 10
47.865221
 20
194.563615
 30
0.0
  0
VERTEX
  5
86A
100
AcDbEntity
  8
DRAW
  6
CONTINUOUS
100
AcDbVertex
100
AcDb2dVertex
 10
47.854057
 20
194.570508
 30
0.0
  0
VERTEX
  5
86B
100
AcDbEntity
  8
DRAW
  6
CONTINUOUS
100
AcDbVertex
100
AcDb2dVertex
 10
47.84246
 20
194.576661
 30
0.0
  0
VERTEX
  5
86C
100
AcDbEntity
  8
DRAW
  6
CONTINUOUS
100
AcDbVertex
100
AcDb2dVertex
 10
47.83048
 20
194.582047
 30
0.0
  0
VERTEX
  5
86D
100
AcDbEntity
  8
DRAW
  6
CONTINUOUS
100
AcDbVertex
100
AcDb2dVertex
 10
47.818167
 20
194.586645
 30
0.0
  0
VERTEX
  5
86E
100
AcDbEntity
  8
DRAW
  6
CONTINUOUS
100
AcDbVertex
100
AcDb2dVertex
 10
47.805574
 20
194.590433
 30
0.0
  0
VERTEX
  5
86F
100
AcDbEntity
  8
DRAW
  6
CONTINUOUS
100
AcDbVertex
100
AcDb2dVertex
 10
47.792755
 20
194.593397
 30
0.0
  0
VERTEX
  5
870
100
AcDbEntity
  8
DRAW
  6
CONTINUOUS
100
AcDbVertex
100
AcDb2dVertex
 10
47.779765
 20
194.595523
 30
0.0
  0
VERTEX
  5
871
100
AcDbEntity
  8
DRAW
  6
CONTINUOUS
100
AcDbVertex
100
AcDb2dVertex
 10
47.766658
 20
194.596802
 30
0.0
  0
VERTEX
  5
872
100
AcDbEntity
  8
DRAW
  6
CONTINUOUS
100
AcDbVertex
100
AcDb2dVertex
 10
47.753492
 20
194.597229
 30
0.0
  0
SEQEND
  5
873
100
AcDbEntity
  8
DRAW
  0
LINE
  5
874
100
AcDbEntity
  8
DRAW
  6
CONTINUOUS
100
AcDbLine
 10
48.562833
 20
192.49723
 30
0.0
 11
48.442224
 21
192.206054
 31
0.0
  0
LINE
  5
875
100
AcDbEntity
  8
DRAW
  6
CONTINUOUS
100
AcDbLine
 10
47.1942
 20
196.176597
 30
0.0
 11
47.1942
 21
195.310572
 31
0.0
  0
LINE
  5
876
100
AcDbEntity
  8
DRAW
  6
CONTINUOUS
100
AcDbLine
 10
50.773551
 20
194.297305
 30
0.0
 11
49.970644
 21
195.100212
 31
0.0
  0
LINE
  5
877
100
AcDbEntity
  8
DRAW
  6
CONTINUOUS
100
AcDbLine
 10
51.214955
 20
194.562981
 30
0.0
 11
50.418915
 21
195.359022
 31
0.0
  0
LINE
  5
878
100
AcDbEntity
  8
DRAW
  6
CONTINUOUS
100
AcDbLine
 10
50.773551
 20
194.297305
 30
0.0
 11
51.273532
 21
194.421565
 31
0.0
  0
LINE
  5
879
100
AcDbEntity
  8
DRAW
  6
CONTINUOUS
100
AcDbLine
 10
50.773551
 20
194.297305
 30
0.0
 11
51.214955
 21
194.562981
 31
0.0
  0
ARC
  5
87A
100
AcDbEntity
  8
DRAW
  6
CONTINUOUS
100
AcDbCircle
 10
51.073524
 20
194.421558
 30
0.0
 40
0.200008
100
AcDbArc
 50
0.001882
 51
44.998121
  0
LINE
  5
87B
100
AcDbEntity
  8
DRAW
  6
CONTINUOUS
100
AcDbLine
 10
49.659969
 20
196.118021
 30
0.0
 11
50.418949
 21
195.359041
 31
0.0
  0
LINE
  5
87C
100
AcDbEntity
  8
DRAW
  6
CONTINUOUS
100
AcDbLine
 10
50.358228
 20
196.468948
 30
0.0
 11
49.639648
 21
196.468948
 31
0.0
  0
LINE
  5
87D
100
AcDbEntity
  8
DRAW
  6
CONTINUOUS
100
AcDbLine
 10
50.418915
 20
195.359022
 30
0.0
 11
49.970644
 21
195.100212
 31
0.0
  0
LINE
  5
87E
100
AcDbEntity
  8
DRAW
  6
CONTINUOUS
100
AcDbLine
 10
49.659969
 20
196.118021
 30
0.0
 11
49.781064
 21
196.410371
 31
0.0
  0
ARC
  5
87F
100
AcDbEntity
  8
DRAW
  6
CONTINUOUS
100
AcDbCircle
 10
49.518553
 20
195.976606
 30
0.0
 40
0.199992
100
AcDbArc
 50
44.999928
 51
90.000074
  0
LINE
  5
880
100
AcDbEntity
  8
DRAW
  6
CONTINUOUS
100
AcDbLine
 10
49.518553
 20
196.176598
 30
0.0
 11
49.639648
 21
196.468948
 31
0.0
  0
ARC
  5
881
100
AcDbEntity
  8
DRAW
  6
CONTINUOUS
100
AcDbCircle
 10
49.639649
 20
196.268956
 30
0.0
 40
0.199992
100
AcDbArc
 50
44.999928
 51
90.000074
  0
LINE
  5
882
100
AcDbEntity
  8
DRAW
  6
CONTINUOUS
100
AcDbLine
 10
50.552781
 20
196.538656
 30
0.0
 11
50.499644
 21
196.410371
 31
0.0
  0
LINE
  5
883
100
AcDbEntity
  8
DRAW
  6
CONTINUOUS
100
AcDbLine
 10
50.411365
 20
196.597233
 30
0.0
 11
50.358228
 21
196.468948
 31
0.0
  0
ARC
  5
884
100
AcDbEntity
  8
DRAW
  6
CONTINUOUS
100
AcDbCircle
 10
50.358228
 20
196.268956
 30
0.0
 40
0.199992
100
AcDbArc
 50
44.999926
 51
90.000074
  0
ARC
  5
885
100
AcDbEntity
  8
DRAW
  6
CONTINUOUS
100
AcDbCircle
 10
50.411366
 20
196.397241
 30
0.0
 40
0.199992
100
AcDbArc
 50
44.999926
 51
90.000074
  0
LINE
  5
886
100
AcDbEntity
  8
DRAW
  6
CONTINUOUS
100
AcDbLine
 10
51.56592
 20
195.261255
 30
0.0
 11
51.56592
 21
194.542676
 31
0.0
  0
ARC
  5
887
100
AcDbEntity
  8
DRAW
  6
CONTINUOUS
100
AcDbCircle
 10
51.365928
 20
194.542676
 30
0.0
 40
0.199992
100
AcDbArc
 50
359.999926
 51
45.000077
  0
LINE
  5
888
100
AcDbEntity
  8
DRAW
  6
CONTINUOUS
100
AcDbLine
 10
51.635629
 20
195.455809
 30
0.0
 11
51.507344
 21
195.402671
 31
0.0
  0
LINE
  5
889
100
AcDbEntity
  8
DRAW
  6
CONTINUOUS
100
AcDbLine
 10
51.694205
 20
195.314393
 30
0.0
 11
51.56592
 21
195.261255
 31
0.0
  0
ARC
  5
88A
100
AcDbEntity
  8
DRAW
  6
CONTINUOUS
100
AcDbCircle
 10
51.365928
 20
195.261256
 30
0.0
 40
0.199992
100
AcDbArc
 50
359.999926
 51
45.000074
  0
ARC
  5
88B
100
AcDbEntity
  8
DRAW
  6
CONTINUOUS
100
AcDbCircle
 10
51.494213
 20
195.314393
 30
0.0
 40
0.199992
100
AcDbArc
 50
359.999926
 51
45.000074
  0
SPLINE
  5
88E
100
AcDbEntity
  8
DRAW
  6
CONTINUOUS
100
AcDbSpline
210
0.0
220
0.0
230
-1.0
 70
     8
 71
     3
 72
    14
 73
    10
 74
     8
 42
0.0000001
 43
0.0000001
 44
0.000001
 12
0.0037428044936976
 22
0.9999929956827308
 32
0.0
 13
-0.0000000000003981
 23
-1.0
 33
0.0
 40
0.0
 40
0.0
 40
0.0
 40
0.0
 40
0.3710944421125357
 40
1.465698430587544
 40
3.228938281139319
 40
5.572501529731866
 40
8.378619285213133
 40
11.50678858991115
 40
14.80009383157799
 40
14.80009383157799
 40
14.80009383157799
 40
14.80009383157799
 10
84.34999860476287
 20
193.1482374217962
 30
0.0
 10
84.35046158274472
 20
193.271934702746
 30
0.0
 10
84.34934566378066
 20
192.1868920199089
 30
0.0
 10
84.3504007949169
 20
191.6744525242515
 30
0.0
 10
84.3498249336754
 20
189.6328110630788
 30
0.0
 10
84.35006245763792
 20
187.4554017452533
 30
0.0
 10
84.34997856662008
 20
184.6512420687361
 30
0.0
 10
84.35000575543387
 20
181.5898850610065
 30
0.0
 10
84.34999925168581
 20
179.4459120041072
 30
0.0
 10
84.34999925168538
 20
178.3481435902182
 30
0.0
 11
84.34999860476287
 21
193.1482374217962
 31
0.0
 11
84.34999874871758
 21
192.7771419796837
 31
0.0
 11
84.34999888545352
 21
191.6825379912087
 31
0.0
 11
84.34999900811503
 21
189.9192981406569
 31
0.0
 11
84.34999911054601
 21
187.5757348920644
 31
0.0
 11
84.3499991876204
 21
184.7696191365831
 31
0.0
 11
84.34999923546659
 21
181.6414498318851
 31
0.0
 11
84.34999925168538
 21
178.3481435902182
 31
0.0
  0
LINE
  5
891
100
AcDbEntity
  8
DRAW
  6
CONTINUOUS
100
AcDbLine
 10
75.130369
 20
188.302121
 30
0.0
 11
84.349999
 21
188.306152
 31
0.0
  0
LINE
  5
892
100
AcDbEntity
  8
DRAW
  6
CONTINUOUS
100
AcDbLine
 10
75.131396
 20
185.951993
 30
0.0
 11
84.349999
 21
185.956024
 31
0.0
  0
LINE
  5
897
100
AcDbEntity
  8
DRAW
  6
CONTINUOUS
100
AcDbLine
 10
75.131062
 20
185.951993
 30
0.0
 11
75.130704
 21
188.302121
 31
0.0
  0
LINE
  5
898
100
AcDbEntity
  8
DRAW
  6
CONTINUOUS
100
AcDbLine
 10
74.436418
 20
186.220747
 30
0.0
 11
74.436142
 21
188.03276
 31
0.0
  0
ARC
  5
899
100
AcDbEntity
  8
DRAW
  6
CONTINUOUS
100
AcDbCircle
 10
75.252313
 20
187.296853
 30
0.0
 40
1.350284
100
AcDbArc
 50
232.839611
 51
264.862338
  0
ARC
  5
89A
100
AcDbEntity
  8
DRAW
  6
CONTINUOUS
100
AcDbCircle
 10
75.252461
 20
186.957368
 30
0.0
 40
1.350284
100
AcDbArc
 50
95.187764
 51
127.210491
  0
LINE
  5
8A7
100
AcDbEntity
  8
DRAW
  6
CONTINUOUS
100
AcDbLine
 10
87.050001
 20
195.317467
 30
0.0
 11
87.050001
 21
161.406876
 31
0.0
  0
LINE
  5
8A8
100
AcDbEntity
  8
DRAW
  6
CONTINUOUS
100
AcDbLine
 10
87.050001
 20
134.699441
 30
0.0
 11
101.750001
 21
134.571156
 31
0.0
  0
LINE
  5
8A9
100
AcDbEntity
  8
DRAW
  6
CONTINUOUS
100
AcDbLine
 10
87.050001
 20
134.758017
 30
0.0
 11
101.750001
 21
134.629733
 31
0.0
  0
LINE
  5
8AA
100
AcDbEntity
  8
DRAW
  6
CONTINUOUS
100
AcDbLine
 10
87.050001
 20
133.616593
 30
0.0
 11
101.750001
 21
133.563456
 31
0.0
  0
LINE
  5
8AB
100
AcDbEntity
  8
DRAW
  6
CONTINUOUS
100
AcDbLine
 10
87.050001
 20
133.475177
 30
0.0
 11
101.750001
 21
133.42204
 31
0.0
  0
LINE
  5
8AC
100
AcDbEntity
  8
DRAW
  6
CONTINUOUS
100
AcDbLine
 10
87.050001
 20
160.158884
 30
0.0
 11
87.050001
 21
161.26546
 31
0.0
  0
LINE
  5
8AD
100
AcDbEntity
  8
DRAW
  6
CONTINUOUS
100
AcDbLine
 10
87.050001
 20
134.699441
 30
0.0
 11
87.050001
 21
134.758017
 31
0.0
  0
LINE
  5
8AE
100
AcDbEntity
  8
DRAW
  6
CONTINUOUS
100
AcDbLine
 10
87.050001
 20
133.616593
 30
0.0
 11
87.050001
 21
133.475177
 31
0.0
  0
LINE
  5
8AF
100
AcDbEntity
  8
DRAW
  6
CONTINUOUS
100
AcDbLine
 10
87.050001
 20
134.699441
 30
0.0
 11
87.050001
 21
133.616593
 31
0.0
  0
LINE
  5
8B0
100
AcDbEntity
  8
DRAW
  6
CONTINUOUS
100
AcDbLine
 10
87.050001
 20
160.100308
 30
0.0
 11
87.050001
 21
160.158884
 31
0.0
  0
LINE
  5
8B1
100
AcDbEntity
  8
DRAW
  6
CONTINUOUS
100
AcDbLine
 10
87.050001
 20
161.406876
 30
0.0
 11
87.050001
 21
161.26546
 31
0.0
  0
LINE
  5
8B2
100
AcDbEntity
  8
DRAW
  6
CONTINUOUS
100
AcDbLine
 10
101.750001
 20
133.42204
 30
0.0
 11
101.750001
 21
132.703461
 31
0.0
  0
LINE
  5
8B3
100
AcDbEntity
  8
DRAW
  6
CONTINUOUS
100
AcDbLine
 10
101.750001
 20
133.563456
 30
0.0
 11
101.750001
 21
133.42204
 31
0.0
  0
LINE
  5
8B4
100
AcDbEntity
  8
DRAW
  6
CONTINUOUS
100
AcDbLine
 10
101.750001
 20
134.571156
 30
0.0
 11
101.750001
 21
133.563456
 31
0.0
  0
LINE
  5
8B5
100
AcDbEntity
  8
DRAW
  6
CONTINUOUS
100
AcDbLine
 10
101.750001
 20
134.571156
 30
0.0
 11
101.750001
 21
134.629733
 31
0.0
  0
LINE
  5
8B6
100
AcDbEntity
  8
DRAW
  6
CONTINUOUS
100
AcDbLine
 10
87.050001
 20
196.541731
 30
0.0
 11
101.750001
 21
196.413446
 31
0.0
  0
LINE
  5
8B7
100
AcDbEntity
  8
DRAW
  6
CONTINUOUS
100
AcDbLine
 10
87.050001
 20
196.600308
 30
0.0
 11
101.750001
 21
196.472023
 31
0.0
  0
LINE
  5
8B8
100
AcDbEntity
  8
DRAW
  6
CONTINUOUS
100
AcDbLine
 10
87.050001
 20
195.458883
 30
0.0
 11
101.750001
 21
195.405745
 31
0.0
  0
LINE
  5
8B9
100
AcDbEntity
  8
DRAW
  6
CONTINUOUS
100
AcDbLine
 10
87.050001
 20
195.317467
 30
0.0
 11
101.750001
 21
195.264329
 31
0.0
  0
LINE
  5
8BA
100
AcDbEntity
  8
DRAW
  6
CONTINUOUS
100
AcDbLine
 10
90.649999
 20
181.342418
 30
0.0
 11
91.695925
 21
181.305894
 31
0.0
  0
LINE
  5
8BB
100
AcDbEntity
  8
DRAW
  6
CONTINUOUS
100
AcDbLine
 10
90.649999
 20
175.353846
 30
0.0
 11
91.695925
 21
175.39037
 31
0.0
  0
LINE
  5
8BC
100
AcDbEntity
  8
DRAW
  6
CONTINUOUS
100
AcDbLine
 10
93.650002
 20
174.850306
 30
0.0
 11
90.650002
 21
174.850306
 31
0.0
  0
LINE
  5
8BD
100
AcDbEntity
  8
DRAW
  6
CONTINUOUS
100
AcDbLine
 10
90.650002
 20
181.850306
 30
0.0
 11
93.650002
 21
181.850306
 31
0.0
  0
LINE
  5
8BE
100
AcDbEntity
  8
DRAW
  6
CONTINUOUS
100
AcDbLine
 10
90.650002
 20
181.850306
 30
0.0
 11
90.650002
 21
174.850306
 31
0.0
  0
LINE
  5
8BF
100
AcDbEntity
  8
DRAW
  6
CONTINUOUS
100
AcDbLine
 10
93.349999
 20
175.44814
 30
0.0
 11
93.349999
 21
181.248141
 31
0.0
  0
LINE
  5
8C0
100
AcDbEntity
  8
DRAW
  6
CONTINUOUS
100
AcDbLine
 10
91.695925
 20
175.39037
 30
0.0
 11
91.695925
 21
181.305894
 31
0.0
  0
LINE
  5
8C1
100
AcDbEntity
  8
DRAW
  6
CONTINUOUS
100
AcDbLine
 10
93.650002
 20
181.850306
 30
0.0
 11
93.650002
 21
174.850306
 31
0.0
  0
LINE
  5
8C2
100
AcDbEntity
  8
DRAW
  6
CONTINUOUS
100
AcDbLine
 10
93.349999
 20
175.44814
 30
0.0
 11
91.695925
 21
175.39037
 31
0.0
  0
LINE
  5
8C3
100
AcDbEntity
  8
DRAW
  6
CONTINUOUS
100
AcDbLine
 10
92.852164
 20
174.850306
 30
0.0
 11
93.650002
 21
175.648144
 31
0.0
  0
LINE
  5
8C4
100
AcDbEntity
  8
DRAW
  6
CONTINUOUS
100
AcDbLine
 10
92.752164
 20
174.850306
 30
0.0
 11
93.349999
 21
175.448141
 31
0.0
  0
LINE
  5
8C5
100
AcDbEntity
  8
DRAW
  6
CONTINUOUS
100
AcDbLine
 10
93.349999
 20
181.248141
 30
0.0
 11
91.695925
 21
181.305894
 31
0.0
  0
LINE
  5
8C6
100
AcDbEntity
  8
DRAW
  6
CONTINUOUS
100
AcDbLine
 10
92.847839
 20
181.850306
 30
0.0
 11
93.650002
 21
181.048143
 31
0.0
  0
LINE
  5
8C7
100
AcDbEntity
  8
DRAW
  6
CONTINUOUS
100
AcDbLine
 10
92.747834
 20
181.850306
 30
0.0
 11
93.349999
 21
181.248141
 31
0.0
  0
LINE
  5
8C8
100
AcDbEntity
  8
DRAW
  6
CONTINUOUS
100
AcDbLine
 10
92.748084
 20
181.850306
 30
0.0
 11
93.349998
 21
181.248394
 31
0.0
  0
LINE
  5
8C9
100
AcDbEntity
  8
DRAW
  6
CONTINUOUS
100
AcDbLine
 10
87.050001
 20
195.458883
 30
0.0
 11
87.050001
 21
195.317467
 31
0.0
  0
LINE
  5
8CA
100
AcDbEntity
  8
DRAW
  6
CONTINUOUS
100
AcDbLine
 10
87.050001
 20
195.458883
 30
0.0
 11
87.050001
 21
196.541731
 31
0.0
  0
LINE
  5
8CB
100
AcDbEntity
  8
DRAW
  6
CONTINUOUS
100
AcDbLine
 10
87.050001
 20
196.541731
 30
0.0
 11
87.050001
 21
196.600308
 31
0.0
  0
LINE
  5
8CC
100
AcDbEntity
  8
DRAW
  6
CONTINUOUS
100
AcDbLine
 10
101.750001
 20
195.264329
 30
0.0
 11
101.750001
 21
194.545749
 31
0.0
  0
LINE
  5
8CD
100
AcDbEntity
  8
DRAW
  6
CONTINUOUS
100
AcDbLine
 10
101.750001
 20
195.405745
 30
0.0
 11
101.750001
 21
196.413446
 31
0.0
  0
LINE
  5
8CE
100
AcDbEntity
  8
DRAW
  6
CONTINUOUS
100
AcDbLine
 10
101.750001
 20
196.413446
 30
0.0
 11
101.750001
 21
196.472023
 31
0.0
  0
LINE
  5
8CF
100
AcDbEntity
  8
DRAW
  6
CONTINUOUS
100
AcDbLine
 10
101.750001
 20
195.405745
 30
0.0
 11
101.750001
 21
195.264329
 31
0.0
  0
LINE
  5
8E7
100
AcDbEntity
  8
DRAW
  6
CONTINUOUS
100
AcDbLine
 10
137.750006
 20
133.358019
 30
0.0
 11
137.750006
 21
131.958017
 31
0.0
  0
ARC
  5
8E8
100
AcDbEntity
  8
DRAW
  6
CONTINUOUS
100
AcDbCircle
 10
138.050001
 20
131.830386
 30
0.0
 40
0.5
100
AcDbArc
 50
0.000003
 51
44.999994
  0
LINE
  5
8E9
100
AcDbEntity
  8
DRAW
  6
CONTINUOUS
100
AcDbLine
 10
135.250001
 20
132.582509
 30
0.0
 11
135.250001
 21
130.258014
 31
0.0
  0
LINE
  5
8EA
100
AcDbEntity
  8
DRAW
  6
CONTINUOUS
100
AcDbLine
 10
135.750001
 20
130.952925
 30
0.0
 11
135.750001
 21
133.034458
 31
0.0
  0
LINE
  5
8EB
100
AcDbEntity
  8
DRAW
  6
CONTINUOUS
100
AcDbLine
 10
136.054365
 20
119.758019
 30
0.0
 11
136.054366
 21
104.13658
 31
0.0
  0
LINE
  5
8EC
100
AcDbEntity
  8
DRAW
  6
CONTINUOUS
100
AcDbLine
 10
136.550002
 20
119.758019
 30
0.0
 11
136.550003
 21
104.26084
 31
0.0
  0
LINE
  5
8ED
100
AcDbEntity
  8
DRAW
  6
CONTINUOUS
100
AcDbLine
 10
135.050003
 20
103.43812
 30
0.0
 11
135.050003
 21
103.452265
 31
0.0
  0
LINE
  5
8EE
100
AcDbEntity
  8
DRAW
  6
CONTINUOUS
100
AcDbLine
 10
136.054366
 20
102.44425
 30
0.0
 11
136.054366
 21
103.995164
 31
0.0
  0
LINE
  5
8EF
100
AcDbEntity
  8
DRAW
  6
CONTINUOUS
100
AcDbLine
 10
136.550003
 20
102.885655
 30
0.0
 11
136.550003
 21
104.26084
 31
0.0
  0
SPLINE
  5
8F0
100
AcDbEntity
  8
DRAW
  6
CONTINUOUS
100
AcDbSpline
210
0.0
220
0.0
230
1.0
 70
     8
 71
     3
 72
    10
 73
     6
 74
     4
 42
0.0000001
 43
0.0000001
 44
0.000001
 12
0.0000000437113508
 22
-0.9999999999999991
 32
0.0
 13
-0.9999703216952228
 23
-0.0077042669185705
 33
0.0
 40
0.0
 40
0.0
 40
0.0
 40
0.0
 40
0.2218523907007151
 40
0.4636310607382346
 40
0.7272835399823883
 40
0.7272835399823883
 40
0.7272835399823883
 40
0.7272835399823883
 10
136.5500025838108
 20
102.885654740402
 30
0.0
 10
136.5500025870433
 20
102.8117039435018
 30
0.0
 10
136.5019254719121
 20
102.6546774704385
 30
0.0
 10
136.3136781065003
 20
102.4861535677696
 30
0.0
 10
136.1422474223495
 20
102.4449272403733
 30
0.0
 10
136.0543658708543
 20
102.4442501573487
 30
0.0
 11
136.5500025838108
 21
102.885654740402
 31
0.0
 11
136.487522753626
 21
102.6727813058754
 31
0.0
 11
136.310048663411
 21
102.5085875781484
 31
0.0
 11
136.0543658708543
 21
102.4442501573487
 31
0.0
  0
ARC
  5
8F1
100
AcDbEntity
  8
DRAW
  6
CONTINUOUS
100
AcDbCircle
 10
136.050052
 20
102.885605
 30
0.0
 40
0.49995
100
AcDbArc
 50
270.494343
 51
0.005662
  0
LINE
  5
8F2
100
AcDbEntity
  8
DRAW
  6
CONTINUOUS
100
AcDbLine
 10
136.054366
 20
102.44425
 30
0.0
 11
136.055089
 21
102.385683
 31
0.0
  0
SPLINE
  5
8F3
100
AcDbEntity
  8
DRAW
  6
CONTINUOUS
100
AcDbSpline
210
0.0
220
0.0
230
1.0
 70
     8
 71
     3
 72
    14
 73
    10
 74
     8
 42
0.0000001
 43
0.0000001
 44
0.000001
 12
0.0000000437107921
 22
-0.9999999999999991
 32
0.0
 13
-0.9999976479092948
 23
-0.0021689112194612
 33
0.0
 40
0.0
 40
0.0
 40
0.0
 40
0.0
 40
0.028809361275534
 40
0.0716552084021732
 40
0.132429180552712
 40
0.2115874517328016
 40
0.3071478034260599
 40
0.4154220787469804
 40
0.5301902109942964
 40
0.5301902109942964
 40
0.5301902109942964
 40
0.5301902109942964
 10
136.5500025236995
 20
104.2608398404341
 30
0.0
 10
136.5500025241193
 20
104.2512367200089
 30
0.0
 10
136.5369036698596
 20
104.2284183570227
 30
0.0
 10
136.4992319881572
 20
104.2048790680959
 30
0.0
 10
136.4424153373363
 20
104.1821601614851
 30
0.0
 10
136.3660610299621
 20
104.1632872022942
 30
0.0
 10
136.2728337626206
 20
104.1483969072162
 30
0.0
 10
136.1669798517912
 20
104.1389709765016
 30
0.0
 10
136.092621750981
 20
104.1366634320331
 30
0.0
 10
136.0543657968803
 20
104.1365804580699
 30
0.0
 11
136.5500025236995
 21
104.2608398404341
 31
0.0
 11
136.5382917562132
 21
104.2345169540068
 31
0.0
 11
136.5038640908616
 21
104.209011867184
 31
0.0
 11
136.4477764867549
 21
104.1856098426888
 31
0.0
 11
136.3711924940382
 21
104.1655878644442
 31
0.0
 11
136.2768969209127
 21
104.1500969951684
 31
0.0
 11
136.1690786247597
 21
104.1401741403003
 31
0.0
 11
136.0543657968803
 21
104.1365804580699
 31
0.0
  0
SPLINE
  5
8F4
100
AcDbEntity
  8
DRAW
  6
CONTINUOUS
100
AcDbSpline
210
0.0
220
0.0
230
1.0
 70
     8
 71
     3
 72
    14
 73
    10
 74
     8
 42
0.0000001
 43
0.0000001
 44
0.000001
 12
0.0000000437111225
 22
-0.9999999999999991
 32
0.0
 13
-0.9999892481420864
 23
-0.0046371974536895
 33
0.0
 40
0.0
 40
0.0
 40
0.0
 40
0.0
 40
0.0574846991396594
 40
0.1219747948088637
 40
0.1971369951093841
 40
0.2848736286075476
 40
0.3848171510437212
 40
0.4947032096872307
 40
0.6096721219433342
 40
0.6096721219433342
 40
0.6096721219433342
 40
0.6096721219433342
 10
136.5500025236995
 20
104.2608398404341
 30
0.0
 10
136.5500025245371
 20
104.2416782740542
 30
0.0
 10
136.5407897494524
 20
104.2007615062587
 30
0.0
 10
136.5038725255775
 20
104.1451764349092
 30
0.0
 10
136.4459656649526
 20
104.0951365268877
 30
0.0
 10
136.3684833780661
 20
104.0531352366691
 30
0.0
 10
136.2743096469371
 20
104.0208163659003
 30
0.0
 10
136.1676957032584
 20
104.0003330032725
 30
0.0
 10
136.0926883617707
 20
103.9953421959765
 30
0.0
 10
136.0543658030618
 20
103.9951644847941
 30
0.0
 11
136.5500025236995
 21
104.2608398404341
 31
0.0
 11
136.5382917575227
 21
104.2045596412522
 31
0.0
 11
136.5038640934399
 21
104.150027956808
 31
0.0
 11
136.4477764904973
 21
104.0999927699878
 31
0.0
 11
136.3711924987767
 21
104.0571843630103
 31
0.0
 11
136.2768969264217
 21
104.0240637895391
 31
0.0
 11
136.1690786307625
 21
104.0028480268009
 31
0.0
 11
136.0543658030618
 21
103.9951644847941
 31
0.0
  0
POLYLINE
  5
8F5
100
AcDbEntity
  8
DRAW
  6
CONTINUOUS
100
AcDb2dPolyline
 66
     1
 10
0.0
 20
0.0
 30
0.0
  0
VERTEX
  5
8F6
100
AcDbEntity
  8
DRAW
  6
CONTINUOUS
100
AcDbVertex
100
AcDb2dVertex
 10
136.054366
 20
103.995164
 30
0.0
  0
VERTEX
  5
8F7
100
AcDbEntity
  8
DRAW
  6
CONTINUOUS
100
AcDbVertex
100
AcDb2dVertex
 10
136.054473
 20
104.025471
 30
0.0
  0
VERTEX
  5
8F8
100
AcDbEntity
  8
DRAW
  6
CONTINUOUS
100
AcDbVertex
100
AcDb2dVertex
 10
136.05451
 20
104.060047
 30
0.0
  0
VERTEX
  5
8F9
100
AcDbEntity
  8
DRAW
  6
CONTINUOUS
100
AcDbVertex
100
AcDb2dVertex
 10
136.054473
 20
104.097564
 30
0.0
  0
VERTEX
  5
8FA
100
AcDbEntity
  8
DRAW
  6
CONTINUOUS
100
AcDbVertex
100
AcDb2dVertex
 10
136.054366
 20
104.13658
 30
0.0
  0
SEQEND
  5
8FB
100
AcDbEntity
  8
DRAW
  0
LINE
  5
8FC
100
AcDbEntity
  8
DRAW
  6
CONTINUOUS
100
AcDbLine
 10
135.750006
 20
122.858019
 30
0.0
 11
136.950006
 21
122.858019
 31
0.0
  0
LINE
  5
8FD
100
AcDbEntity
  8
DRAW
  6
CONTINUOUS
100
AcDbLine
 10
135.750006
 20
131.458018
 30
0.0
 11
136.950006
 21
131.458018
 31
0.0
  0
LINE
  5
8FE
100
AcDbEntity
  8
DRAW
  6
CONTINUOUS
100
AcDbLine
 10
135.250002
 20
126.99794
 30
0.0
 11
138.075848
 21
127.366222
 31
0.0
  0
LINE
  5
8FF
100
AcDbEntity
  8
DRAW
  6
CONTINUOUS
100
AcDbLine
 10
135.250001
 20
131.018088
 30
0.0
 11
138.075848
 21
130.649806
 31
0.0
  0
LINE
  5
900
100
AcDbEntity
  8
DRAW
  6
CONTINUOUS
100
AcDbLine
 10
135.250002
 20
127.198722
 30
0.0
 11
138.056981
 21
127.564544
 31
0.0
  0
LINE
  5
901
100
AcDbEntity
  8
DRAW
  6
CONTINUOUS
100
AcDbLine
 10
135.250001
 20
130.817306
 30
0.0
 11
138.056981
 21
130.451484
 31
0.0
  0
LINE
  5
902
100
AcDbEntity
  8
DRAW
  6
CONTINUOUS
100
AcDbLine
 10
136.054362
 20
120.958018
 30
0.0
 11
135.254365
 21
120.958018
 31
0.0
  0
LINE
  5
903
100
AcDbEntity
  8
DRAW
  6
CONTINUOUS
100
AcDbLine
 10
135.250001
 20
127.758014
 30
0.0
 11
135.250002
 21
123.117218
 31
0.0
  0
LINE
  5
904
100
AcDbEntity
  8
DRAW
  6
CONTINUOUS
100
AcDbLine
 10
135.750002
 20
123.983277
 30
0.0
 11
135.750002
 21
127.063103
 31
0.0
  0
LINE
  5
905
100
AcDbEntity
  8
DRAW
  6
CONTINUOUS
100
AcDbLine
 10
135.750002
 20
123.983277
 30
0.0
 11
135.750002
 21
120.958018
 31
0.0
  0
LINE
  5
906
100
AcDbEntity
  8
DRAW
  6
CONTINUOUS
100
AcDbLine
 10
135.254365
 20
123.117284
 30
0.0
 11
135.254365
 21
120.958018
 31
0.0
  0
LINE
  5
907
100
AcDbEntity
  8
DRAW
  6
CONTINUOUS
100
AcDbLine
 10
135.254365
 20
123.117284
 30
0.0
 11
135.250002
 21
123.117218
 31
0.0
  0
SPLINE
  5
908
100
AcDbEntity
  8
DRAW
  6
CONTINUOUS
100
AcDbSpline
210
0.0
220
0.0
230
1.0
 70
     8
 71
     3
 72
    14
 73
    10
 74
     8
 42
0.0000001
 43
0.0000001
 44
0.000001
 12
0.0000000437114672
 22
-0.9999999999999991
 32
0.0
 13
-0.999885781586541
 23
-0.0151136951495143
 33
0.0
 40
0.0
 40
0.0
 40
0.0
 40
0.0
 40
0.1920556654997121
 40
0.3778439299898861
 40
0.551752675347354
 40
0.7095617935308148
 40
0.8493543865524639
 40
0.9726809085431536
 40
1.085617310599095
 40
1.085617310599095
 40
1.085617310599095
 40
1.085617310599095
 10
135.7500016616044
 20
123.9832765904705
 30
0.0
 10
135.7500016644027
 20
123.9192580353039
 30
0.0
 10
135.7419824269866
 20
123.7931521101629
 30
0.0
 10
135.7062755368913
 20
123.6121755506489
 30
0.0
 10
135.6486159805017
 20
123.4488530374598
 30
0.0
 10
135.5715557084569
 20
123.3108194820351
 30
0.0
 10
135.4780134298791
 20
123.2044283598331
 30
0.0
 10
135.371112111249
 20
123.1352304313261
 30
0.0
 10
135.2920061347537
 20
123.1178531323482
 30
0.0
 10
135.2543649672073
 20
123.1172841702309
 30
0.0
 11
135.7500016616044
 21
123.9832765904705
 31
0.0
 11
135.7376039516271
 21
123.7916205378692
 31
0.0
 11
135.7010256182062
 21
123.6094688752286
 31
0.0
 11
135.6420806128443
 21
123.445854662594
 31
0.0
 11
135.563692069841
 21
123.3088916716738
 31
0.0
 11
135.46974734551
 21
123.2053720168137
 31
0.0
 11
135.3649052407839
 21
123.1404293281145
 31
0.0
 11
135.2543649672073
 21
123.1172841702309
 31
0.0
  0
LINE
  5
909
100
AcDbEntity
  8
DRAW
  6
CONTINUOUS
100
AcDbLine
 10
135.750001
 20
130.258014
 30
0.0
 11
135.750001
 21
127.758014
 31
0.0
  0
LINE
  5
90A
100
AcDbEntity
  8
DRAW
  6
CONTINUOUS
100
AcDbLine
 10
135.250001
 20
130.258014
 30
0.0
 11
135.250001
 21
127.758014
 31
0.0
  0
LINE
  5
90B
100
AcDbEntity
  8
DRAW
  6
CONTINUOUS
100
AcDbLine
 10
135.250001
 20
127.758014
 30
0.0
 11
135.750001
 21
127.758014
 31
0.0
  0
LINE
  5
90C
100
AcDbEntity
  8
DRAW
  6
CONTINUOUS
100
AcDbLine
 10
135.250001
 20
130.258014
 30
0.0
 11
135.750001
 21
130.258014
 31
0.0
  0
LINE
  5
90D
100
AcDbEntity
  8
DRAW
  6
CONTINUOUS
100
AcDbLine
 10
137.750006
 20
124.142541
 30
0.0
 11
137.750006
 21
127.323756
 31
0.0
  0
LINE
  5
90E
100
AcDbEntity
  8
DRAW
  6
CONTINUOUS
100
AcDbLine
 10
136.950006
 20
122.858018
 30
0.0
 11
136.950006
 21
127.219495
 31
0.0
  0
LINE
  5
90F
100
AcDbEntity
  8
DRAW
  6
CONTINUOUS
100
AcDbLine
 10
138.550001
 20
131.830386
 30
0.0
 11
138.550002
 21
122.858018
 31
0.0
  0
ARC
  5
910
100
AcDbEntity
  8
DRAW
  6
CONTINUOUS
100
AcDbCircle
 10
138.050234
 20
120.257923
 30
0.0
 40
0.499768
100
AcDbArc
 50
314.988967
 51
0.011035
  0
LINE
  5
911
100
AcDbEntity
  8
DRAW
  6
CONTINUOUS
100
AcDbLine
 10
137.750006
 20
120.958019
 30
0.0
 11
137.750006
 21
122.858019
 31
0.0
  0
LINE
  5
912
100
AcDbEntity
  8
DRAW
  6
CONTINUOUS
100
AcDbLine
 10
138.550002
 20
121.184698
 30
0.0
 11
138.550002
 21
122.858018
 31
0.0
  0
LINE
  5
913
100
AcDbEntity
  8
DRAW
  6
CONTINUOUS
100
AcDbLine
 10
136.403552
 20
119.758019
 30
0.0
 11
138.050002
 21
119.758019
 31
0.0
  0
LINE
  5
914
100
AcDbEntity
  8
DRAW
  6
CONTINUOUS
100
AcDbLine
 10
138.403555
 20
120.958018
 30
0.0
 11
136.403552
 21
120.958018
 31
0.0
  0
LINE
  5
915
100
AcDbEntity
  8
DRAW
  6
CONTINUOUS
100
AcDbLine
 10
136.054362
 20
119.758019
 30
0.0
 11
136.054362
 21
120.958018
 31
0.0
  0
LINE
  5
916
100
AcDbEntity
  8
DRAW
  6
CONTINUOUS
100
AcDbLine
 10
136.403552
 20
120.958018
 30
0.0
 11
136.054362
 21
120.958018
 31
0.0
  0
LINE
  5
917
100
AcDbEntity
  8
DRAW
  6
CONTINUOUS
100
AcDbLine
 10
136.403552
 20
119.758019
 30
0.0
 11
136.403552
 21
120.958018
 31
0.0
  0
LINE
  5
918
100
AcDbEntity
  8
DRAW
  6
CONTINUOUS
100
AcDbLine
 10
136.054365
 20
119.758019
 30
0.0
 11
136.403554
 21
119.758019
 31
0.0
  0
ARC
  5
919
100
AcDbEntity
  8
DRAW
  6
CONTINUOUS
100
AcDbCircle
 10
138.050002
 20
120.258019
 30
0.0
 40
0.5
100
AcDbArc
 50
270.000005
 51
314.999999
  0
LINE
  5
91A
100
AcDbEntity
  8
DRAW
  6
CONTINUOUS
100
AcDbLine
 10
138.403555
 20
119.904466
 30
0.0
 11
138.403555
 21
120.958018
 31
0.0
  0
LINE
  5
91B
100
AcDbEntity
  8
DRAW
  6
CONTINUOUS
100
AcDbLine
 10
138.403555
 20
120.958018
 30
0.0
 11
138.550002
 21
120.958018
 31
0.0
  0
LINE
  5
91C
100
AcDbEntity
  8
DRAW
  6
CONTINUOUS
100
AcDbLine
 10
138.550002
 20
120.258019
 30
0.0
 11
138.550002
 21
120.958018
 31
0.0
  0
LINE
  5
91D
100
AcDbEntity
  8
DRAW
  6
CONTINUOUS
100
AcDbLine
 10
138.550002
 20
120.958018
 30
0.0
 11
138.550002
 21
121.184698
 31
0.0
  0
LINE
  5
91E
100
AcDbEntity
  8
DRAW
  6
CONTINUOUS
100
AcDbLine
 10
137.750006
 20
124.142541
 30
0.0
 11
136.950006
 21
124.142541
 31
0.0
  0
LINE
  5
91F
100
AcDbEntity
  8
DRAW
  6
CONTINUOUS
100
AcDbLine
 10
136.950006
 20
122.858019
 30
0.0
 11
137.750006
 21
122.858019
 31
0.0
  0
LINE
  5
920
100
AcDbEntity
  8
DRAW
  6
CONTINUOUS
100
AcDbLine
 10
137.750006
 20
124.142541
 30
0.0
 11
137.750006
 21
122.858018
 31
0.0
  0
LINE
  5
921
100
AcDbEntity
  8
DRAW
  6
CONTINUOUS
100
AcDbLine
 10
137.750006
 20
122.858018
 30
0.0
 11
138.550002
 21
122.858018
 31
0.0
  0
LINE
  5
922
100
AcDbEntity
  8
DRAW
  6
CONTINUOUS
100
AcDbLine
 10
138.250001
 20
130.451484
 30
0.0
 11
138.250002
 21
127.564544
 31
0.0
  0
LINE
  5
923
100
AcDbEntity
  8
DRAW
  6
CONTINUOUS
100
AcDbLine
 10
138.056981
 20
130.451484
 30
0.0
 11
138.056981
 21
127.564544
 31
0.0
  0
ARC
  5
924
100
AcDbEntity
  8
DRAW
  6
CONTINUOUS
100
AcDbCircle
 10
138.050112
 20
127.564447
 30
0.0
 40
0.199889
100
AcDbArc
 50
277.397461
 51
0.027828
  0
LINE
  5
925
100
AcDbEntity
  8
DRAW
  6
CONTINUOUS
100
AcDbLine
 10
138.056981
 20
127.564544
 30
0.0
 11
138.250002
 21
127.564544
 31
0.0
  0
POLYLINE
  5
926
100
AcDbEntity
  8
DRAW
  6
CONTINUOUS
100
AcDb2dPolyline
 66
     1
 10
0.0
 20
0.0
 30
0.0
  0
VERTEX
  5
927
100
AcDbEntity
  8
DRAW
  6
CONTINUOUS
100
AcDbVertex
100
AcDb2dVertex
 10
138.075848
 20
127.366222
 30
0.0
  0
VERTEX
  5
928
100
AcDbEntity
  8
DRAW
  6
CONTINUOUS
100
AcDbVertex
100
AcDb2dVertex
 10
138.075914
 20
127.36624
 30
0.0
  0
VERTEX
  5
929
100
AcDbEntity
  8
DRAW
  6
CONTINUOUS
100
AcDbVertex
100
AcDb2dVertex
 10
138.075978
 20
127.366277
 30
0.0
  0
VERTEX
  5
92A
100
AcDbEntity
  8
DRAW
  6
CONTINUOUS
100
AcDbVertex
100
AcDb2dVertex
 10
138.076039
 20
127.366333
 30
0.0
  0
VERTEX
  5
92B
100
AcDbEntity
  8
DRAW
  6
CONTINUOUS
100
AcDbVertex
100
AcDb2dVertex
 10
138.076097
 20
127.366409
 30
0.0
  0
VERTEX
  5
92C
100
AcDbEntity
  8
DRAW
  6
CONTINUOUS
100
AcDbVertex
100
AcDb2dVertex
 10
138.076153
 20
127.366503
 30
0.0
  0
VERTEX
  5
92D
100
AcDbEntity
  8
DRAW
  6
CONTINUOUS
100
AcDbVertex
100
AcDb2dVertex
 10
138.076206
 20
127.366616
 30
0.0
  0
VERTEX
  5
92E
100
AcDbEntity
  8
DRAW
  6
CONTINUOUS
100
AcDbVertex
100
AcDb2dVertex
 10
138.076257
 20
127.366748
 30
0.0
  0
VERTEX
  5
92F
100
AcDbEntity
  8
DRAW
  6
CONTINUOUS
100
AcDbVertex
100
AcDb2dVertex
 10
138.076352
 20
127.367069
 30
0.0
  0
VERTEX
  5
930
100
AcDbEntity
  8
DRAW
  6
CONTINUOUS
100
AcDbVertex
100
AcDb2dVertex
 10
138.07651
 20
127.367939
 30
0.0
  0
VERTEX
  5
931
100
AcDbEntity
  8
DRAW
  6
CONTINUOUS
100
AcDbVertex
100
AcDb2dVertex
 10
138.076705
 20
127.37058
 30
0.0
  0
VERTEX
  5
932
100
AcDbEntity
  8
DRAW
  6
CONTINUOUS
100
AcDbVertex
100
AcDb2dVertex
 10
138.075234
 20
127.401046
 30
0.0
  0
VERTEX
  5
933
100
AcDbEntity
  8
DRAW
  6
CONTINUOUS
100
AcDbVertex
100
AcDb2dVertex
 10
138.069944
 20
127.456261
 30
0.0
  0
VERTEX
  5
934
100
AcDbEntity
  8
DRAW
  6
CONTINUOUS
100
AcDbVertex
100
AcDb2dVertex
 10
138.061635
 20
127.527869
 30
0.0
  0
VERTEX
  5
935
100
AcDbEntity
  8
DRAW
  6
CONTINUOUS
100
AcDbVertex
100
AcDb2dVertex
 10
138.056981
 20
127.564544
 30
0.0
  0
SEQEND
  5
936
100
AcDbEntity
  8
DRAW
  0
LINE
  5
937
100
AcDbEntity
  8
DRAW
  6
CONTINUOUS
100
AcDbLine
 10
137.750006
 20
131.958017
 30
0.0
 11
136.950006
 21
131.958017
 31
0.0
  0
LINE
  5
938
100
AcDbEntity
  8
DRAW
  6
CONTINUOUS
100
AcDbLine
 10
136.950006
 20
130.796533
 30
0.0
 11
136.950006
 21
131.458018
 31
0.0
  0
LINE
  5
939
100
AcDbEntity
  8
DRAW
  6
CONTINUOUS
100
AcDbLine
 10
136.950006
 20
131.458018
 30
0.0
 11
136.950006
 21
131.958017
 31
0.0
  0
LINE
  5
93A
100
AcDbEntity
  8
DRAW
  6
CONTINUOUS
100
AcDbLine
 10
137.750006
 20
130.692272
 30
0.0
 11
137.750006
 21
131.958017
 31
0.0
  0
ARC
  5
93B
100
AcDbEntity
  8
DRAW
  6
CONTINUOUS
100
AcDbCircle
 10
138.050112
 20
130.451581
 30
0.0
 40
0.199889
100
AcDbArc
 50
359.972177
 51
82.602545
  0
LINE
  5
93C
100
AcDbEntity
  8
DRAW
  6
CONTINUOUS
100
AcDbLine
 10
138.056981
 20
130.451484
 30
0.0
 11
138.250001
 21
130.451484
 31
0.0
  0
POLYLINE
  5
93D
100
AcDbEntity
  8
DRAW
  6
CONTINUOUS
100
AcDb2dPolyline
 66
     1
 10
0.0
 20
0.0
 30
0.0
  0
VERTEX
  5
93E
100
AcDbEntity
  8
DRAW
  6
CONTINUOUS
100
AcDbVertex
100
AcDb2dVertex
 10
138.056981
 20
130.451484
 30
0.0
  0
VERTEX
  5
93F
100
AcDbEntity
  8
DRAW
  6
CONTINUOUS
100
AcDbVertex
100
AcDb2dVertex
 10
138.066305
 20
130.527173
 30
0.0
  0
VERTEX
  5
940
100
AcDbEntity
  8
DRAW
  6
CONTINUOUS
100
AcDbVertex
100
AcDb2dVertex
 10
138.073161
 20
130.591404
 30
0.0
  0
VERTEX
  5
941
100
AcDbEntity
  8
DRAW
  6
CONTINUOUS
100
AcDbVertex
100
AcDb2dVertex
 10
138.076511
 20
130.634454
 30
0.0
  0
VERTEX
  5
942
100
AcDbEntity
  8
DRAW
  6
CONTINUOUS
100
AcDbVertex
100
AcDb2dVertex
 10
138.076689
 20
130.645843
 30
0.0
  0
VERTEX
  5
943
100
AcDbEntity
  8
DRAW
  6
CONTINUOUS
100
AcDbVertex
100
AcDb2dVertex
 10
138.076574
 20
130.647541
 30
0.0
  0
VERTEX
  5
944
100
AcDbEntity
  8
DRAW
  6
CONTINUOUS
100
AcDbVertex
100
AcDb2dVertex
 10
138.076395
 20
130.648769
 30
0.0
  0
VERTEX
  5
945
100
AcDbEntity
  8
DRAW
  6
CONTINUOUS
100
AcDbVertex
100
AcDb2dVertex
 10
138.076282
 20
130.649206
 30
0.0
  0
VERTEX
  5
946
100
AcDbEntity
  8
DRAW
  6
CONTINUOUS
100
AcDbVertex
100
AcDb2dVertex
 10
138.076219
 20
130.649381
 30
0.0
  0
VERTEX
  5
947
100
AcDbEntity
  8
DRAW
  6
CONTINUOUS
100
AcDbVertex
100
AcDb2dVertex
 10
138.076153
 20
130.649525
 30
0.0
  0
VERTEX
  5
948
100
AcDbEntity
  8
DRAW
  6
CONTINUOUS
100
AcDbVertex
100
AcDb2dVertex
 10
138.076082
 20
130.64964
 30
0.0
  0
VERTEX
  5
949
100
AcDbEntity
  8
DRAW
  6
CONTINUOUS
100
AcDbVertex
100
AcDb2dVertex
 10
138.076008
 20
130.649725
 30
0.0
  0
VERTEX
  5
94A
100
AcDbEntity
  8
DRAW
  6
CONTINUOUS
100
AcDbVertex
100
AcDb2dVertex
 10
138.07593
 20
130.649781
 30
0.0
  0
VERTEX
  5
94B
100
AcDbEntity
  8
DRAW
  6
CONTINUOUS
100
AcDbVertex
100
AcDb2dVertex
 10
138.075848
 20
130.649806
 30
0.0
  0
SEQEND
  5
94C
100
AcDbEntity
  8
DRAW
  0
LINE
  5
94D
100
AcDbEntity
  8
DRAW
  6
CONTINUOUS
100
AcDbLine
 10
119.02368
 20
195.443713
 30
0.0
 11
119.498446
 21
195.447856
 31
0.0
  0
LINE
  5
953
100
AcDbEntity
  8
DRAW
  6
CONTINUOUS
100
AcDbLine
 10
136.054365
 20
194.421746
 30
0.0
 11
136.054365
 21
161.584016
 31
0.0
  0
LINE
  5
954
100
AcDbEntity
  8
DRAW
  6
CONTINUOUS
100
AcDbLine
 10
136.550001
 20
194.297487
 30
0.0
 11
136.550001
 21
161.708276
 31
0.0
  0
LINE
  5
955
100
AcDbEntity
  8
DRAW
  6
CONTINUOUS
100
AcDbLine
 10
136.054364
 20
160.586539
 30
0.0
 11
136.054365
 21
161.4426
 31
0.0
  0
SPLINE
  5
956
100
AcDbEntity
  8
DRAW
  6
CONTINUOUS
100
AcDbSpline
210
0.0
220
0.0
230
1.0
 70
     8
 71
     3
 72
    10
 73
     6
 74
     4
 42
0.0000001
 43
0.0000001
 44
0.000001
 12
0.0000000263091413
 22
-0.9999999999999998
 32
0.0
 13
-0.9999703220330466
 23
-0.007704223070839
 33
0.0
 40
0.0
 40
0.0
 40
0.0
 40
0.0
 40
0.2218594573485667
 40
0.4636360101295109
 40
0.7272922793039771
 40
0.7272922793039771
 40
0.7272922793039771
 40
0.7272922793039771
 10
136.5500012062423
 20
161.0279431579417
 30
0.0
 10
136.5500012081879
 20
160.9539900054922
 30
0.0
 10
136.5019465492876
 20
160.7969525472997
 30
0.0
 10
136.3136731347647
 20
160.6284454642055
 30
0.0
 10
136.142247300402
 20
160.5872156934301
 30
0.0
 10
136.0543644856045
 20
160.5865386045261
 30
0.0
 11
136.5500012062423
 21
161.0279431579417
 31
0.0
 11
136.4875322867739
 21
160.8150591567428
 31
0.0
 11
136.3100511519925
 21
160.650876161445
 31
0.0
 11
136.0543644856045
 21
160.5865386045261
 31
0.0
  0
ARC
  5
957
100
AcDbEntity
  8
DRAW
  6
CONTINUOUS
100
AcDbCircle
 10
136.05006
 20
161.027885
 30
0.0
 40
0.499942
100
AcDbArc
 50
270.493357
 51
0.006644
  0
LINE
  5
958
100
AcDbEntity
  8
DRAW
  6
CONTINUOUS
100
AcDbLine
 10
135.750006
 20
133.358019
 30
0.0
 11
137.750006
 21
133.358019
 31
0.0
  0
LINE
  5
959
100
AcDbEntity
  8
DRAW
  6
CONTINUOUS
100
AcDbLine
 10
136.054365
 20
134.330365
 30
0.0
 11
135.254364
 21
134.337346
 31
0.0
  0
ARC
  5
95A
100
AcDbEntity
  8
DRAW
  6
CONTINUOUS
100
AcDbCircle
 10
135.25006
 20
133.837423
 30
0.0
 40
0.499941
100
AcDbArc
 50
359.993307
 51
89.506698
  0
LINE
  5
95B
100
AcDbEntity
  8
DRAW
  6
CONTINUOUS
100
AcDbLine
 10
135.250001
 20
132.723783
 30
0.0
 11
135.250001
 21
133.482763
 31
0.0
  0
LINE
  5
95C
100
AcDbEntity
  8
DRAW
  6
CONTINUOUS
100
AcDbLine
 10
135.750001
 20
133.837365
 30
0.0
 11
135.750001
 21
133.034458
 31
0.0
  0
SPLINE
  5
95D
100
AcDbEntity
  8
DRAW
  6
CONTINUOUS
100
AcDbSpline
210
0.0
220
0.0
230
-1.0
 70
     8
 71
     3
 72
    10
 73
     6
 74
     4
 42
0.0000001
 43
0.0000001
 44
0.000001
 12
-0.0000000437114202
 22
0.9999999999999992
 32
0.0
 13
-0.999970322373046
 23
0.0077041789404507
 33
0.0
 40
0.0
 40
0.0
 40
0.0
 40
0.0
 40
0.2218598331231822
 40
0.4636362602855578
 40
0.7272927476452665
 40
0.7272927476452665
 40
0.7272927476452665
 40
0.7272927476452665
 10
135.7500012308685
 20
133.8373650776588
 30
0.0
 10
135.750001227636
 20
133.9113183553666
 30
0.0
 10
135.7019477835513
 20
134.0683564022213
 30
0.0
 10
135.5136729400305
 20
134.2368625537634
 30
0.0
 10
135.342247366877
 20
134.2780924998349
 30
0.0
 10
135.2543644793234
 20
134.2787695854207
 30
0.0
 11
135.7500012308685
 21
133.8373650776588
 31
0.0
 11
135.6875328938379
 21
134.0502496413859
 31
0.0
 11
135.510051371869
 21
134.2144320331537
 31
0.0
 11
135.2543644793234
 21
134.2787695854207
 31
0.0
  0
LINE
  5
95E
100
AcDbEntity
  8
DRAW
  6
CONTINUOUS
100
AcDbLine
 10
135.254364
 20
134.27877
 30
0.0
 11
135.254365
 21
133.482729
 31
0.0
  0
LINE
  5
95F
100
AcDbEntity
  8
DRAW
  6
CONTINUOUS
100
AcDbLine
 10
135.250001
 20
132.582367
 30
0.0
 11
135.250001
 21
132.723783
 31
0.0
  0
LINE
  5
960
100
AcDbEntity
  8
DRAW
  6
CONTINUOUS
100
AcDbLine
 10
135.253342
 20
134.278775
 30
0.0
 11
135.253642
 21
134.33735
 31
0.0
  0
LINE
  5
961
100
AcDbEntity
  8
DRAW
  6
CONTINUOUS
100
AcDbLine
 10
135.254365
 20
133.482729
 30
0.0
 11
135.250001
 21
133.482763
 31
0.0
  0
SPLINE
  5
962
100
AcDbEntity
  8
DRAW
  6
CONTINUOUS
100
AcDbSpline
210
0.0
220
0.0
230
-1.0
 70
     8
 71
     3
 72
    10
 73
     6
 74
     4
 42
0.0000001
 43
0.0000001
 44
0.000001
 12
0.9999693919492338
 22
-0.0078240120577397
 32
0.0
 13
0.0000000437114716
 23
-0.9999999999999992
 33
0.0
 40
0.0
 40
0.0
 40
0.0
 40
0.0
 40
0.2556228239923779
 40
0.4999725264540145
 40
0.7326210888980948
 40
0.7326210888980948
 40
0.7326210888980948
 40
0.7326210888980948
 10
135.2543645141193
 20
133.4827286548245
 30
0.0
 10
135.339569514078
 20
133.4820619894721
 30
0.0
 10
135.5087202126688
 20
133.4416051448049
 30
0.0
 10
135.7004184907246
 20
133.2740358044503
 30
0.0
 10
135.7500012625749
 20
133.1120075508755
 30
0.0
 10
135.7500012659647
 20
133.0344580300608
 30
0.0
 11
135.2543645141193
 21
133.4827286548245
 31
0.0
 11
135.5025161698393
 21
133.4213759905773
 31
0.0
 11
135.683739345617
 21
133.257471627301
 31
0.0
 11
135.7500012659647
 21
133.0344580300608
 31
0.0
  0
LINE
  5
963
100
AcDbEntity
  8
DRAW
  6
CONTINUOUS
100
AcDbLine
 10
137.229476
 20
133.358019
 30
0.0
 11
136.403556
 21
134.183939
 31
0.0
  0
ARC
  5
964
100
AcDbEntity
  8
DRAW
  6
CONTINUOUS
100
AcDbCircle
 10
136.050002
 20
133.830386
 30
0.0
 40
0.5
100
AcDbArc
 50
44.999994
 51
89.499998
  0
LINE
  5
965
100
AcDbEntity
  8
DRAW
  6
CONTINUOUS
100
AcDbLine
 10
138.403555
 20
132.183939
 30
0.0
 11
137.750006
 21
132.837488
 31
0.0
  0
LINE
  5
966
100
AcDbEntity
  8
DRAW
  6
CONTINUOUS
100
AcDbLine
 10
136.053853
 20
160.586534
 30
0.0
 11
136.054364
 21
160.527962
 31
0.0
  0
SPLINE
  5
967
100
AcDbEntity
  8
DRAW
  6
CONTINUOUS
100
AcDbSpline
210
0.0
220
0.0
230
1.0
 70
     8
 71
     3
 72
    14
 73
    10
 74
     8
 42
0.0000001
 43
0.0000001
 44
0.000001
 12
0.9999976480047546
 22
0.0021688672063445
 32
0.0
 13
-0.0000001758815473
 23
0.9999999999999847
 33
0.0
 40
0.0
 40
0.0
 40
0.0
 40
0.0
 40
0.1147581976473942
 40
0.223045718039665
 40
0.31860388221221
 40
0.3977690444534732
 40
0.45854355751849
 40
0.501384672092375
 40
0.5301953128506863
 40
0.5301953128506863
 40
0.5301953128506863
 40
0.5301953128506863
 10
136.0543645255847
 20
161.5840164430681
 30
0.0
 10
136.0926171681636
 20
161.5840994081653
 30
0.0
 10
136.1669761992113
 20
161.5864097010452
 30
0.0
 10
136.2728309744232
 20
161.5958310742753
 30
0.0
 10
136.3660636156704
 20
161.6107250643668
 30
0.0
 10
136.442420730025
 20
161.6295941817095
 30
0.0
 10
136.4992392203491
 20
161.6523094306864
 30
0.0
 10
136.5369103608283
 20
161.6758520959163
 30
0.0
 10
136.5500012376697
 20
161.6986722395167
 30
0.0
 10
136.5500012359806
 20
161.7082757864361
 30
0.0
 11
136.0543645255847
 21
161.5840164430681
 31
0.0
 11
136.1690673890682
 21
161.5876109210477
 31
0.0
 11
136.276899050712
 21
161.5975330755937
 31
0.0
 11
136.3711924226706
 21
161.6130238497584
 31
0.0
 11
136.4477839870302
 21
161.63304411033
 31
0.0
 11
136.5038728880369
 21
161.656444431324
 31
0.0
 11
136.5382945356567
 21
161.6819496906619
 31
0.0
 11
136.5500012359806
 21
161.7082757864361
 31
0.0
  0
SPLINE
  5
968
100
AcDbEntity
  8
DRAW
  6
CONTINUOUS
100
AcDbSpline
210
0.0
220
0.0
230
1.0
 70
     8
 71
     3
 72
    14
 73
    10
 74
     8
 42
0.0000001
 43
0.0000001
 44
0.000001
 12
0.9999892483456779
 22
0.0046371535499518
 32
0.0
 13
-0.0000000726239113
 23
0.9999999999999973
 33
0.0
 40
0.0
 40
0.0
 40
0.0
 40
0.0
 40
0.1149590845315682
 40
0.2248579702999315
 40
0.3247993521807211
 40
0.4125408083681841
 40
0.4877015582215308
 40
0.5521887603786158
 40
0.6096793554736071
 40
0.6096793554736071
 40
0.6096793554736071
 40
0.6096793554736071
 10
136.0543645230242
 20
161.4426004635916
 30
0.0
 10
136.0926838058679
 20
161.4427781579006
 30
0.0
 10
136.1676914238018
 20
161.4477746855428
 30
0.0
 10
136.2743076483976
 20
161.468248709842
 30
0.0
 10
136.3684843439051
 20
161.500574714089
 30
0.0
 10
136.4459710726927
 20
161.5425672460945
 30
0.0
 10
136.5038826035104
 20
161.5926033116267
 30
0.0
 10
136.5407948704676
 20
161.6481937410646
 30
0.0
 10
136.5500012373723
 20
161.6891122547378
 30
0.0
 10
136.5500012359806
 20
161.7082757864361
 30
0.0
 11
136.0543645230242
 21
161.4426004635916
 31
0.0
 11
136.1690673865818
 21
161.4502857134232
 31
0.0
 11
136.2768990484302
 21
161.4714999862567
 31
0.0
 11
136.3711924207078
 21
161.5046203642963
 31
0.0
 11
136.44778398548
 21
161.5474251067537
 31
0.0
 11
136.5038728869688
 21
161.5974566590399
 31
0.0
 11
136.5382945351143
 21
161.6519887193676
 31
0.0
 11
136.5500012359806
 21
161.7082757864361
 31
0.0
  0
POLYLINE
  5
969
100
AcDbEntity
  8
DRAW
  6
CONTINUOUS
100
AcDb2dPolyline
 66
     1
 10
0.0
 20
0.0
 30
0.0
  0
VERTEX
  5
96A
100
AcDbEntity
  8
DRAW
  6
CONTINUOUS
100
AcDbVertex
100
AcDb2dVertex
 10
136.054365
 20
161.4426
 30
0.0
  0
VERTEX
  5
96B
100
AcDbEntity
  8
DRAW
  6
CONTINUOUS
100
AcDbVertex
100
AcDb2dVertex
 10
136.054472
 20
161.472907
 30
0.0
  0
VERTEX
  5
96C
100
AcDbEntity
  8
DRAW
  6
CONTINUOUS
100
AcDbVertex
100
AcDb2dVertex
 10
136.054508
 20
161.507483
 30
0.0
  0
VERTEX
  5
96D
100
AcDbEntity
  8
DRAW
  6
CONTINUOUS
100
AcDbVertex
100
AcDb2dVertex
 10
136.054472
 20
161.545
 30
0.0
  0
VERTEX
  5
96E
100
AcDbEntity
  8
DRAW
  6
CONTINUOUS
100
AcDbVertex
100
AcDb2dVertex
 10
136.054365
 20
161.584016
 30
0.0
  0
SEQEND
  5
96F
100
AcDbEntity
  8
DRAW
  0
LINE
  5
970
100
AcDbEntity
  8
DRAW
  6
CONTINUOUS
100
AcDbLine
 10
136.550001
 20
161.027943
 30
0.0
 11
136.550001
 21
161.708276
 31
0.0
  0
LINE
  5
977
100
AcDbEntity
  8
DRAW
  6
CONTINUOUS
100
AcDbLine
 10
135.050001
 20
195.106062
 30
0.0
 11
135.050001
 21
195.120209
 31
0.0
  0
LINE
  5
978
100
AcDbEntity
  8
DRAW
  6
CONTINUOUS
100
AcDbLine
 10
138.05
 20
188.800308
 30
0.0
 11
138.05
 21
192.100308
 31
0.0
  0
LINE
  5
979
100
AcDbEntity
  8
DRAW
  6
CONTINUOUS
100
AcDbLine
 10
138.55
 20
189.300308
 30
0.0
 11
138.55
 21
192.100308
 31
0.0
  0
ARC
  5
97A
100
AcDbEntity
  8
DRAW
  6
CONTINUOUS
100
AcDbCircle
 10
138.05
 20
189.300308
 30
0.0
 40
0.5
100
AcDbArc
 50
270.0
 51
0.0
  0
LINE
  5
97B
100
AcDbEntity
  8
DRAW
  6
CONTINUOUS
100
AcDbLine
 10
136.55
 20
188.800308
 30
0.0
 11
138.05
 21
188.800308
 31
0.0
  0
ARC
  5
97C
100
AcDbEntity
  8
DRAW
  6
CONTINUOUS
100
AcDbCircle
 10
138.050233
 20
193.672765
 30
0.0
 40
0.499768
100
AcDbArc
 50
359.988965
 51
45.011036
  0
LINE
  5
97D
100
AcDbEntity
  8
DRAW
  6
CONTINUOUS
100
AcDbLine
 10
136.407585
 20
196.02219
 30
0.0
 11
138.05
 21
194.379775
 31
0.0
  0
LINE
  5
97E
100
AcDbEntity
  8
DRAW
  6
CONTINUOUS
100
AcDbLine
 10
136.054365
 20
194.563162
 30
0.0
 11
136.054364
 21
196.114077
 31
0.0
  0
LINE
  5
97F
100
AcDbEntity
  8
DRAW
  6
CONTINUOUS
100
AcDbLine
 10
136.550001
 20
194.297487
 30
0.0
 11
136.550001
 21
195.672672
 31
0.0
  0
LINE
  5
980
100
AcDbEntity
  8
DRAW
  6
CONTINUOUS
100
AcDbLine
 10
136.55
 20
192.100308
 30
0.0
 11
138.05
 21
192.100308
 31
0.0
  0
SPLINE
  5
981
100
AcDbEntity
  8
DRAW
  6
CONTINUOUS
100
AcDbSpline
210
0.0
220
0.0
230
-1.0
 70
     8
 71
     3
 72
    14
 73
    10
 74
     8
 42
0.0000001
 43
0.0000001
 44
0.000001
 12
0.0000000726239534
 22
0.9999999999999973
 32
0.0
 13
-0.9999892483472041
 23
0.0046371532208212
 33
0.0
 40
0.0
 40
0.0
 40
0.0
 40
0.0
 40
0.0574846922574981
 40
0.1219747808189701
 40
0.1971369748514869
 40
0.2848736033912658
 40
0.3848171222649736
 40
0.4947031786868795
 40
0.6096720899201902
 40
0.6096720899201902
 40
0.6096720899201902
 40
0.6096720899201902
 10
136.5500012359806
 20
194.2974868295616
 30
0.0
 10
136.5500012373722
 20
194.3166483936474
 30
0.0
 10
136.5407884633226
 20
194.3575651571011
 30
0.0
 10
136.5038712402565
 20
194.4131502210619
 30
0.0
 10
136.4459643805828
 20
194.4631901208379
 30
0.0
 10
136.3684820947709
 20
194.5051914026254
 30
0.0
 10
136.2743083647158
 20
194.537510265318
 30
0.0
 10
136.1676944220147
 20
194.55799362072
 30
0.0
 10
136.0926870814
 20
194.5629844240658
 30
0.0
 10
136.0543645230242
 20
194.5631621335514
 30
0.0
 11
136.5500012359806
 21
194.2974868295616
 31
0.0
 11
136.5382904713493
 21
194.3537670220355
 31
0.0
 11
136.5038628086519
 21
194.4082986989487
 31
0.0
 11
136.4477752069363
 21
194.4583338777287
 31
0.0
 11
136.3711912162976
 21
194.5011422764794
 31
0.0
 11
136.2768956449148
 21
194.5342628419685
 31
0.0
 11
136.1690773500972
 21
194.5554785974769
 31
0.0
 11
136.0543645230242
 21
194.5631621335514
 31
0.0
  0
SPLINE
  5
982
100
AcDbEntity
  8
DRAW
  6
CONTINUOUS
100
AcDbSpline
210
0.0
220
0.0
230
-1.0
 70
     8
 71
     3
 72
    14
 73
    10
 74
     8
 42
0.0000001
 43
0.0000001
 44
0.000001
 12
0.0000001758805247
 22
0.9999999999999847
 32
0.0
 13
-0.9999976480051502
 23
0.0021688670239387
 33
0.0
 40
0.0
 40
0.0
 40
0.0
 40
0.0
 40
0.0288093541169714
 40
0.0716551944344006
 40
0.1324291609850819
 40
0.2115874277711126
 40
0.3071477761910925
 40
0.415422049338233
 40
0.5301901805225285
 40
0.5301901805225285
 40
0.5301901805225285
 40
0.5301901805225285
 10
136.5500012359806
 20
194.2974868295616
 30
0.0
 10
136.5500012376696
 20
194.3070899476006
 30
0.0
 10
136.5369023850456
 20
194.3299083069844
 30
0.0
 10
136.4992307059932
 20
194.3534475877048
 30
0.0
 10
136.4424140583409
 20
194.3761664868586
 30
0.0
 10
136.3660597535654
 20
194.3950394381103
 30
0.0
 10
136.2728324884018
 20
194.4099297257026
 30
0.0
 10
136.16697857916
 20
194.419355649552
 30
0.0
 10
136.0926204793347
 20
194.4216631902106
 30
0.0
 10
136.0543645255847
 20
194.4217461624823
 30
0.0
 11
136.5500012359806
 21
194.2974868295616
 31
0.0
 11
136.5382904718917
 21
194.3238097096654
 31
0.0
 11
136.5038628097199
 21
194.3493147893416
 31
0.0
 11
136.4477752084866
 21
194.372716806181
 31
0.0
 11
136.3711912182604
 21
194.3927387765797
 31
0.0
 11
136.2768956471967
 21
194.4082296382136
 31
0.0
 11
136.1690773525836
 21
194.4181524860933
 31
0.0
 11
136.0543645255847
 21
194.4217461624823
 31
0.0
  0
POLYLINE
  5
983
100
AcDbEntity
  8
DRAW
  6
CONTINUOUS
100
AcDb2dPolyline
 66
     1
 10
0.0
 20
0.0
 30
0.0
  0
VERTEX
  5
984
100
AcDbEntity
  8
DRAW
  6
CONTINUOUS
100
AcDbVertex
100
AcDb2dVertex
 10
136.054365
 20
194.421746
 30
0.0
  0
VERTEX
  5
985
100
AcDbEntity
  8
DRAW
  6
CONTINUOUS
100
AcDbVertex
100
AcDb2dVertex
 10
136.054472
 20
194.460762
 30
0.0
  0
VERTEX
  5
986
100
AcDbEntity
  8
DRAW
  6
CONTINUOUS
100
AcDbVertex
100
AcDb2dVertex
 10
136.054508
 20
194.498279
 30
0.0
  0
VERTEX
  5
987
100
AcDbEntity
  8
DRAW
  6
CONTINUOUS
100
AcDbVertex
100
AcDb2dVertex
 10
136.054472
 20
194.532856
 30
0.0
  0
VERTEX
  5
988
100
AcDbEntity
  8
DRAW
  6
CONTINUOUS
100
AcDbVertex
100
AcDb2dVertex
 10
136.054365
 20
194.563162
 30
0.0
  0
SEQEND
  5
989
100
AcDbEntity
  8
DRAW
  0
LINE
  5
98A
100
AcDbEntity
  8
DRAW
  6
CONTINUOUS
100
AcDbLine
 10
138.25
 20
194.302404
 30
0.0
 11
138.25
 21
194.179776
 31
0.0
  0
ARC
  5
98B
100
AcDbEntity
  8
DRAW
  6
CONTINUOUS
100
AcDbCircle
 10
138.05
 20
194.302404
 30
0.0
 40
0.2
100
AcDbArc
 50
0.0
 51
88.0
  0
POLYLINE
  5
98C
100
AcDbEntity
  8
DRAW
  6
CONTINUOUS
100
AcDb2dPolyline
 66
     1
 10
0.0
 20
0.0
 30
0.0
  0
VERTEX
  5
98D
100
AcDbEntity
  8
DRAW
  6
CONTINUOUS
100
AcDbVertex
100
AcDb2dVertex
 10
138.21942
 20
194.210356
 30
0.0
  0
VERTEX
  5
98E
100
AcDbEntity
  8
DRAW
  6
CONTINUOUS
100
AcDbVertex
100
AcDb2dVertex
 10
138.225106
 20
194.218717
 30
0.0
  0
VERTEX
  5
98F
100
AcDbEntity
  8
DRAW
  6
CONTINUOUS
100
AcDbVertex
100
AcDb2dVertex
 10
138.230243
 20
194.227341
 30
0.0
  0
VERTEX
  5
990
100
AcDbEntity
  8
DRAW
  6
CONTINUOUS
100
AcDbVertex
100
AcDb2dVertex
 10
138.234814
 20
194.2362
 30
0.0
  0
VERTEX
  5
991
100
AcDbEntity
  8
DRAW
  6
CONTINUOUS
100
AcDbVertex
100
AcDb2dVertex
 10
138.238805
 20
194.245267
 30
0.0
  0
VERTEX
  5
992
100
AcDbEntity
  8
DRAW
  6
CONTINUOUS
100
AcDbVertex
100
AcDb2dVertex
 10
138.242203
 20
194.254513
 30
0.0
  0
VERTEX
  5
993
100
AcDbEntity
  8
DRAW
  6
CONTINUOUS
100
AcDbVertex
100
AcDb2dVertex
 10
138.244998
 20
194.263909
 30
0.0
  0
VERTEX
  5
994
100
AcDbEntity
  8
DRAW
  6
CONTINUOUS
100
AcDbVertex
100
AcDb2dVertex
 10
138.247181
 20
194.273427
 30
0.0
  0
VERTEX
  5
995
100
AcDbEntity
  8
DRAW
  6
CONTINUOUS
100
AcDbVertex
100
AcDb2dVertex
 10
138.248746
 20
194.283035
 30
0.0
  0
VERTEX
  5
996
100
AcDbEntity
  8
DRAW
  6
CONTINUOUS
100
AcDbVertex
100
AcDb2dVertex
 10
138.249686
 20
194.292704
 30
0.0
  0
VERTEX
  5
997
100
AcDbEntity
  8
DRAW
  6
CONTINUOUS
100
AcDbVertex
100
AcDb2dVertex
 10
138.25
 20
194.302404
 30
0.0
  0
SEQEND
  5
998
100
AcDbEntity
  8
DRAW
  0
POLYLINE
  5
999
100
AcDbEntity
  8
DRAW
  6
CONTINUOUS
100
AcDb2dPolyline
 66
     1
 10
0.0
 20
0.0
 30
0.0
  0
VERTEX
  5
99A
100
AcDbEntity
  8
DRAW
  6
CONTINUOUS
100
AcDbVertex
100
AcDb2dVertex
 10
138.076742
 20
194.353034
 30
0.0
  0
VERTEX
  5
99B
100
AcDbEntity
  8
DRAW
  6
CONTINUOUS
100
AcDbVertex
100
AcDb2dVertex
 10
138.07535
 20
194.412551
 30
0.0
  0
VERTEX
  5
99C
100
AcDbEntity
  8
DRAW
  6
CONTINUOUS
100
AcDbVertex
100
AcDb2dVertex
 10
138.071263
 20
194.460356
 30
0.0
  0
VERTEX
  5
99D
100
AcDbEntity
  8
DRAW
  6
CONTINUOUS
100
AcDbVertex
100
AcDb2dVertex
 10
138.068334
 20
194.478213
 30
0.0
  0
VERTEX
  5
99E
100
AcDbEntity
  8
DRAW
  6
CONTINUOUS
100
AcDbVertex
100
AcDb2dVertex
 10
138.06668
 20
194.485402
 30
0.0
  0
VERTEX
  5
99F
100
AcDbEntity
  8
DRAW
  6
CONTINUOUS
100
AcDbVertex
100
AcDb2dVertex
 10
138.064914
 20
194.491365
 30
0.0
  0
VERTEX
  5
9A0
100
AcDbEntity
  8
DRAW
  6
CONTINUOUS
100
AcDbVertex
100
AcDb2dVertex
 10
138.063993
 20
194.493874
 30
0.0
  0
VERTEX
  5
9A1
100
AcDbEntity
  8
DRAW
  6
CONTINUOUS
100
AcDbVertex
100
AcDb2dVertex
 10
138.063049
 20
194.496062
 30
0.0
  0
VERTEX
  5
9A2
100
AcDbEntity
  8
DRAW
  6
CONTINUOUS
100
AcDbVertex
100
AcDb2dVertex
 10
138.062082
 20
194.497925
 30
0.0
  0
VERTEX
  5
9A3
100
AcDbEntity
  8
DRAW
  6
CONTINUOUS
100
AcDbVertex
100
AcDb2dVertex
 10
138.061096
 20
194.49946
 30
0.0
  0
VERTEX
  5
9A4
100
AcDbEntity
  8
DRAW
  6
CONTINUOUS
100
AcDbVertex
100
AcDb2dVertex
 10
138.060595
 20
194.500104
 30
0.0
  0
VERTEX
  5
9A5
100
AcDbEntity
  8
DRAW
  6
CONTINUOUS
100
AcDbVertex
100
AcDb2dVertex
 10
138.06009
 20
194.500666
 30
0.0
  0
VERTEX
  5
9A6
100
AcDbEntity
  8
DRAW
  6
CONTINUOUS
100
AcDbVertex
100
AcDb2dVertex
 10
138.059581
 20
194.501144
 30
0.0
  0
VERTEX
  5
9A7
100
AcDbEntity
  8
DRAW
  6
CONTINUOUS
100
AcDbVertex
100
AcDb2dVertex
 10
138.059068
 20
194.501538
 30
0.0
  0
VERTEX
  5
9A8
100
AcDbEntity
  8
DRAW
  6
CONTINUOUS
100
AcDbVertex
100
AcDb2dVertex
 10
138.05881
 20
194.501704
 30
0.0
  0
VERTEX
  5
9A9
100
AcDbEntity
  8
DRAW
  6
CONTINUOUS
100
AcDbVertex
100
AcDb2dVertex
 10
138.058551
 20
194.50185
 30
0.0
  0
VERTEX
  5
9AA
100
AcDbEntity
  8
DRAW
  6
CONTINUOUS
100
AcDbVertex
100
AcDb2dVertex
 10
138.058292
 20
194.501974
 30
0.0
  0
VERTEX
  5
9AB
100
AcDbEntity
  8
DRAW
  6
CONTINUOUS
100
AcDbVertex
100
AcDb2dVertex
 10
138.058031
 20
194.502077
 30
0.0
  0
VERTEX
  5
9AC
100
AcDbEntity
  8
DRAW
  6
CONTINUOUS
100
AcDbVertex
100
AcDb2dVertex
 10
138.057769
 20
194.50216
 30
0.0
  0
VERTEX
  5
9AD
100
AcDbEntity
  8
DRAW
  6
CONTINUOUS
100
AcDbVertex
100
AcDb2dVertex
 10
138.057507
 20
194.502222
 30
0.0
  0
VERTEX
  5
9AE
100
AcDbEntity
  8
DRAW
  6
CONTINUOUS
100
AcDbVertex
100
AcDb2dVertex
 10
138.057244
 20
194.502262
 30
0.0
  0
VERTEX
  5
9AF
100
AcDbEntity
  8
DRAW
  6
CONTINUOUS
100
AcDbVertex
100
AcDb2dVertex
 10
138.05698
 20
194.502282
 30
0.0
  0
SEQEND
  5
9B0
100
AcDbEntity
  8
DRAW
  0
LINE
  5
9B1
100
AcDbEntity
  8
DRAW
  6
CONTINUOUS
100
AcDbLine
 10
137.922809
 20
194.506967
 30
0.0
 11
138.05698
 21
194.502282
 31
0.0
  0
LINE
  5
9B2
100
AcDbEntity
  8
DRAW
  6
CONTINUOUS
100
AcDbLine
 10
138.05
 20
194.379775
 30
0.0
 11
138.403554
 21
194.026222
 31
0.0
  0
LINE
  5
9B3
100
AcDbEntity
  8
DRAW
  6
CONTINUOUS
100
AcDbLine
 10
138.05
 20
194.379775
 30
0.0
 11
138.05
 21
192.100308
 31
0.0
  0
LINE
  5
9B4
100
AcDbEntity
  8
DRAW
  6
CONTINUOUS
100
AcDbLine
 10
138.05
 20
192.100308
 30
0.0
 11
138.55
 21
192.100308
 31
0.0
  0
LINE
  5
9B5
100
AcDbEntity
  8
DRAW
  6
CONTINUOUS
100
AcDbLine
 10
138.55
 20
193.672669
 30
0.0
 11
138.55
 21
192.100308
 31
0.0
  0
ARC
  5
9B6
100
AcDbEntity
  8
DRAW
  6
CONTINUOUS
100
AcDbCircle
 10
136.048483
 20
195.673155
 30
0.0
 40
0.500715
100
AcDbArc
 50
20.498944
 51
47.680484
  0
ARC
  5
9B7
100
AcDbEntity
  8
DRAW
  6
CONTINUOUS
100
AcDbCircle
 10
136.050051
 20
195.672721
 30
0.0
 40
0.49995
100
AcDbArc
 50
359.99434
 51
89.50566
  0
SPLINE
  5
9B8
100
AcDbEntity
  8
DRAW
  6
CONTINUOUS
100
AcDbSpline
210
0.0
220
0.0
230
-1.0
 70
     8
 71
     3
 72
    10
 73
     6
 74
     4
 42
0.0000001
 43
0.0000001
 44
0.000001
 12
0.0000000263092122
 22
0.9999999999999998
 32
0.0
 13
-0.9999703220341771
 23
0.0077042229240881
 33
0.0
 40
0.0
 40
0.0
 40
0.0
 40
0.0
 40
0.2218523809457129
 40
0.4636310435528993
 40
0.7272835213012603
 40
0.7272835213012603
 40
0.7272835213012603
 40
0.7272835213012603
 10
136.5500011758694
 20
195.6726720360617
 30
0.0
 10
136.550001177815
 20
195.7466228297102
 30
0.0
 10
136.5019240596498
 20
195.9036492963823
 30
0.0
 10
136.3136766893084
 20
196.0721731847567
 30
0.0
 10
136.1422460062579
 20
196.1133995019156
 30
0.0
 10
136.0543644552316
 20
196.1140765810699
 30
0.0
 11
136.5500011758694
 21
195.6726720360617
 31
0.0
 11
136.487521342327
 21
195.8855454594363
 31
0.0
 11
136.3100472495678
 21
196.049739173472
 31
0.0
 11
136.0543644552316
 21
196.1140765810699
 31
0.0
  0
LINE
  5
9B9
100
AcDbEntity
  8
DRAW
  6
CONTINUOUS
100
AcDbLine
 10
136.053342
 20
196.114082
 30
0.0
 11
136.053641
 21
196.172657
 31
0.0
  0
CIRCLE
  5
A20
100
AcDbEntity
  8
DRAW
  6
CONTINUOUS
100
AcDbCircle
 10
179.694206
 20
178.347232
 30
0.0
 40
3.329987
  0
POLYLINE
  5
AE6
100
AcDbEntity
  8
DRAW
  6
CONTINUOUS
100
AcDb2dPolyline
 66
     1
 10
0.0
 20
0.0
 30
0.0
 70
   129
  0
VERTEX
  5
103C
100
AcDbEntity
  8
DRAW
  6
CONTINUOUS
100
AcDbVertex
100
AcDb2dVertex
 10
194.932329
 20
160.158125
 30
0.0
 42
-0.198913
  0
VERTEX
  5
103D
100
AcDbEntity
  8
DRAW
  6
CONTINUOUS
100
AcDbVertex
100
AcDb2dVertex
 10
194.790913
 20
160.099549
 30
0.0
  0
VERTEX
  5
103E
100
AcDbEntity
  8
DRAW
  6
CONTINUOUS
100
AcDbVertex
100
AcDb2dVertex
 10
164.580318
 20
160.099549
 30
0.0
 42
-0.198913
  0
VERTEX
  5
103F
100
AcDbEntity
  8
DRAW
  6
CONTINUOUS
100
AcDbVertex
100
AcDb2dVertex
 10
164.438902
 20
160.158125
 30
0.0
  0
VERTEX
  5
1040
100
AcDbEntity
  8
DRAW
  6
CONTINUOUS
100
AcDbVertex
100
AcDb2dVertex
 10
163.356058
 20
161.240969
 30
0.0
 42
-0.198913
  0
VERTEX
  5
1041
100
AcDbEntity
  8
DRAW
  6
CONTINUOUS
100
AcDbVertex
100
AcDb2dVertex
 10
163.297482
 20
161.382385
 30
0.0
  0
VERTEX
  5
1042
100
AcDbEntity
  8
DRAW
  6
CONTINUOUS
100
AcDbVertex
100
AcDb2dVertex
 10
163.297482
 20
195.316709
 30
0.0
 42
-0.198913
  0
VERTEX
  5
1043
100
AcDbEntity
  8
DRAW
  6
CONTINUOUS
100
AcDbVertex
100
AcDb2dVertex
 10
163.356058
 20
195.458125
 30
0.0
  0
VERTEX
  5
1044
100
AcDbEntity
  8
DRAW
  6
CONTINUOUS
100
AcDbVertex
100
AcDb2dVertex
 10
164.438905
 20
196.540973
 30
0.0
 42
-0.198913
  0
VERTEX
  5
1045
100
AcDbEntity
  8
DRAW
  6
CONTINUOUS
100
AcDbVertex
100
AcDb2dVertex
 10
164.580321
 20
196.599549
 30
0.0
  0
VERTEX
  5
1046
100
AcDbEntity
  8
DRAW
  6
CONTINUOUS
100
AcDbVertex
100
AcDb2dVertex
 10
194.81464
 20
196.599549
 30
0.0
 42
-0.198913
  0
VERTEX
  5
1047
100
AcDbEntity
  8
DRAW
  6
CONTINUOUS
100
AcDbVertex
100
AcDb2dVertex
 10
194.956056
 20
196.540973
 30
0.0
  0
VERTEX
  5
1048
100
AcDbEntity
  8
DRAW
  6
CONTINUOUS
100
AcDbVertex
100
AcDb2dVertex
 10
196.038905
 20
195.458124
 30
0.0
 42
-0.198913
  0
VERTEX
  5
1049
100
AcDbEntity
  8
DRAW
  6
CONTINUOUS
100
AcDbVertex
100
AcDb2dVertex
 10
196.097482
 20
195.316708
 30
0.0
  0
VERTEX
  5
104A
100
AcDbEntity
  8
DRAW
  6
CONTINUOUS
100
AcDbVertex
100
AcDb2dVertex
 10
196.097482
 20
161.406117
 30
0.0
 42
-0.198913
  0
VERTEX
  5
104B
100
AcDbEntity
  8
DRAW
  6
CONTINUOUS
100
AcDbVertex
100
AcDb2dVertex
 10
196.038905
 20
161.264701
 30
0.0
  0
SEQEND
  5
104C
100
AcDbEntity
  8
DRAW
  6
CONTINUOUS
  0
POLYLINE
  5
AE7
100
AcDbEntity
  8
DRAW
  6
CONTINUOUS
100
AcDb2dPolyline
 66
     1
 10
0.0
 20
0.0
 30
0.0
 70
   129
  0
VERTEX
  5
104D
100
AcDbEntity
  8
DRAW
  6
CONTINUOUS
100
AcDbVertex
100
AcDb2dVertex
 10
164.700229
 20
161.297648
 30
0.0
 42
-0.414223
  0
VERTEX
  5
104E
100
AcDbEntity
  8
DRAW
  6
CONTINUOUS
100
AcDbVertex
100
AcDb2dVertex
 10
164.500238
 20
161.497642
 30
0.0
  0
VERTEX
  5
104F
100
AcDbEntity
  8
DRAW
  6
CONTINUOUS
100
AcDbVertex
100
AcDb2dVertex
 10
164.500536
 20
195.197658
 30
0.0
 42
-0.414223
  0
VERTEX
  5
1050
100
AcDbEntity
  8
DRAW
  6
CONTINUOUS
100
AcDbVertex
100
AcDb2dVertex
 10
164.70053
 20
195.397648
 30
0.0
  0
VERTEX
  5
1051
100
AcDbEntity
  8
DRAW
  6
CONTINUOUS
100
AcDbVertex
100
AcDb2dVertex
 10
194.700545
 20
195.397383
 30
0.0
 42
-0.414223
  0
VERTEX
  5
1052
100
AcDbEntity
  8
DRAW
  6
CONTINUOUS
100
AcDbVertex
100
AcDb2dVertex
 10
194.900536
 20
195.197389
 30
0.0
  0
VERTEX
  5
1053
100
AcDbEntity
  8
DRAW
  6
CONTINUOUS
100
AcDbVertex
100
AcDb2dVertex
 10
194.900238
 20
161.497374
 30
0.0
 42
-0.414223
  0
VERTEX
  5
1054
100
AcDbEntity
  8
DRAW
  6
CONTINUOUS
100
AcDbVertex
100
AcDb2dVertex
 10
194.700244
 20
161.297383
 30
0.0
  0
SEQEND
  5
1055
100
AcDbEntity
  8
DRAW
  6
CONTINUOUS
  0
LINE
  5
B57
100
AcDbEntity
  8
DRAW
  6
CONTINUOUS
100
AcDbLine
 10
84.349999
 20
133.155112
 30
0.0
 11
84.350001
 21
103.555112
 31
0.0
  0
LINE
  5
B59
100
AcDbEntity
  8
DRAW
  6
CONTINUOUS
100
AcDbLine
 10
72.295635
 20
174.518084
 30
0.0
 11
72.295635
 21
182.177866
 31
0.0
  0
LINE
  5
B5A
100
AcDbEntity
  8
DRAW
  6
CONTINUOUS
100
AcDbLine
 10
71.799999
 20
175.018222
 30
0.0
 11
71.800001
 21
181.676242
 31
0.0
  0
LINE
  5
B5B
100
AcDbEntity
  8
DRAW
  6
CONTINUOUS
100
AcDbLine
 10
73.845636
 20
174.44798
 30
0.0
 11
73.845636
 21
173.404501
 31
0.0
  0
CIRCLE
  5
B97
100
AcDbEntity
  8
DRAW
  6
CONTINUOUS
100
AcDbCircle
 10
179.694206
 20
178.347232
 30
0.0
 40
14.8
  0
CIRCLE
  5
B98
100
AcDbEntity
  8
DRAW
  6
CONTINUOUS
100
AcDbCircle
 10
179.694206
 20
178.347232
 30
0.0
 40
14.941501
  0
LINE
  5
B99
100
AcDbEntity
  8
DRAW
  6
CONTINUOUS
100
AcDbLine
 10
180.198809
 20
164.556404
 30
0.0
 11
180.198887
 21
173.430443
 31
0.0
  0
LINE
  5
B9A
100
AcDbEntity
  8
DRAW
  6
CONTINUOUS
100
AcDbLine
 10
179.177074
 20
173.435527
 30
0.0
 11
179.176995
 21
164.556413
 31
0.0
  0
LINE
  5
B9B
100
AcDbEntity
  8
DRAW
  6
CONTINUOUS
100
AcDbLine
 10
180.287904
 20
164.860038
 30
0.0
 11
180.28798
 21
173.463604
 31
0.0
  0
LINE
  5
B9C
100
AcDbEntity
  8
DRAW
  6
CONTINUOUS
100
AcDbLine
 10
179.087981
 20
173.469973
 30
0.0
 11
179.087905
 21
164.860049
 31
0.0
  0
LINE
  5
B9F
100
AcDbEntity
  8
DRAW
  6
CONTINUOUS
100
AcDbLine
 10
179.176995
 20
164.556413
 30
0.0
 11
179.087905
 21
164.860049
 31
0.0
  0
LINE
  5
BA0
100
AcDbEntity
  8
DRAW
  6
CONTINUOUS
100
AcDbLine
 10
180.287904
 20
164.860038
 30
0.0
 11
180.198809
 21
164.556404
 31
0.0
  0
CIRCLE
  5
C23
100
AcDbEntity
  8
DRAW
  6
CONTINUOUS
100
AcDbCircle
 10
179.694206
 20
178.347232
 30
0.0
 40
3.935165
  0
CIRCLE
  5
C24
100
AcDbEntity
  8
DRAW
  6
CONTINUOUS
100
AcDbCircle
 10
179.694206
 20
178.347232
 30
0.0
 40
3.829968
  0
ARC
  5
C28
100
AcDbEntity
  8
DRAW
  6
CONTINUOUS
100
AcDbCircle
 10
179.694206
 20
178.347232
 30
0.0
 40
13.800056
100
AcDbArc
 50
272.0955
 51
312.852114
  0
ARC
  5
C29
100
AcDbEntity
  8
DRAW
  6
CONTINUOUS
100
AcDbCircle
 10
179.694206
 20
178.347232
 30
0.0
 40
13.500254
100
AcDbArc
 50
272.520499
 51
312.425959
  0
LINE
  5
C2D
100
AcDbEntity
  8
DRAW
  6
CONTINUOUS
100
AcDbLine
 10
189.802602
 20
168.952452
 30
0.0
 11
182.810678
 21
175.944499
 31
0.0
  0
LINE
  5
C2E
100
AcDbEntity
  8
DRAW
  6
CONTINUOUS
100
AcDbLine
 10
189.6509
 20
169.230154
 30
0.0
 11
182.864796
 21
176.016378
 31
0.0
  0
LINE
  5
C2F
100
AcDbEntity
  8
DRAW
  6
CONTINUOUS
100
AcDbLine
 10
182.086996
 20
175.22312
 30
0.0
 11
189.080064
 21
168.229927
 31
0.0
  0
LINE
  5
C30
100
AcDbEntity
  8
DRAW
  6
CONTINUOUS
100
AcDbLine
 10
182.014912
 20
175.169207
 30
0.0
 11
188.802365
 21
168.381634
 31
0.0
  0
LINE
  5
C31
100
AcDbEntity
  8
DRAW
  6
CONTINUOUS
100
AcDbLine
 10
189.080064
 20
168.229927
 30
0.0
 11
188.802365
 21
168.381634
 31
0.0
  0
LINE
  5
C32
100
AcDbEntity
  8
DRAW
  6
CONTINUOUS
100
AcDbLine
 10
189.6509
 20
169.230154
 30
0.0
 11
189.802602
 21
168.952452
 31
0.0
  0
LINE
  5
C33
100
AcDbEntity
  8
DRAW
  6
CONTINUOUS
100
AcDbLine
 10
193.485034
 20
178.851834
 30
0.0
 11
183.596873
 21
178.851922
 31
0.0
  0
LINE
  5
C34
100
AcDbEntity
  8
DRAW
  6
CONTINUOUS
100
AcDbLine
 10
193.1814
 20
178.94093
 30
0.0
 11
183.584315
 21
178.941015
 31
0.0
  0
LINE
  5
C35
100
AcDbEntity
  8
DRAW
  6
CONTINUOUS
100
AcDbLine
 10
183.595245
 20
177.830108
 30
0.0
 11
193.485025
 21
177.830021
 31
0.0
  0
LINE
  5
C36
100
AcDbEntity
  8
DRAW
  6
CONTINUOUS
100
AcDbLine
 10
183.582396
 20
177.741015
 30
0.0
 11
193.181389
 21
177.74093
 31
0.0
  0
LINE
  5
C37
100
AcDbEntity
  8
DRAW
  6
CONTINUOUS
100
AcDbLine
 10
193.485025
 20
177.830021
 30
0.0
 11
193.181389
 21
177.74093
 31
0.0
  0
LINE
  5
C38
100
AcDbEntity
  8
DRAW
  6
CONTINUOUS
100
AcDbLine
 10
193.1814
 20
178.94093
 30
0.0
 11
193.485034
 21
178.851834
 31
0.0
  0
LINE
  5
C39
100
AcDbEntity
  8
DRAW
  6
CONTINUOUS
100
AcDbLine
 10
189.088987
 20
188.455627
 30
0.0
 11
182.096939
 21
181.463704
 31
0.0
  0
LINE
  5
C3A
100
AcDbEntity
  8
DRAW
  6
CONTINUOUS
100
AcDbLine
 10
188.811285
 20
188.303926
 30
0.0
 11
182.02506
 21
181.517822
 31
0.0
  0
LINE
  5
C3B
100
AcDbEntity
  8
DRAW
  6
CONTINUOUS
100
AcDbLine
 10
182.818319
 20
180.740021
 30
0.0
 11
189.811511
 21
187.73309
 31
0.0
  0
LINE
  5
C3C
100
AcDbEntity
  8
DRAW
  6
CONTINUOUS
100
AcDbLine
 10
182.872232
 20
180.667938
 30
0.0
 11
189.659805
 21
187.455391
 31
0.0
  0
LINE
  5
C3D
100
AcDbEntity
  8
DRAW
  6
CONTINUOUS
100
AcDbLine
 10
189.811511
 20
187.73309
 30
0.0
 11
189.659805
 21
187.455391
 31
0.0
  0
LINE
  5
C3E
100
AcDbEntity
  8
DRAW
  6
CONTINUOUS
100
AcDbLine
 10
188.811285
 20
188.303926
 30
0.0
 11
189.088987
 21
188.455627
 31
0.0
  0
LINE
  5
C3F
100
AcDbEntity
  8
DRAW
  6
CONTINUOUS
100
AcDbLine
 10
179.189604
 20
192.13806
 30
0.0
 11
179.189517
 21
182.249899
 31
0.0
  0
LINE
  5
C40
100
AcDbEntity
  8
DRAW
  6
CONTINUOUS
100
AcDbLine
 10
179.100508
 20
191.834426
 30
0.0
 11
179.100424
 21
182.23734
 31
0.0
  0
LINE
  5
C41
100
AcDbEntity
  8
DRAW
  6
CONTINUOUS
100
AcDbLine
 10
180.21133
 20
182.248271
 30
0.0
 11
180.211417
 21
192.138051
 31
0.0
  0
LINE
  5
C42
100
AcDbEntity
  8
DRAW
  6
CONTINUOUS
100
AcDbLine
 10
180.300423
 20
182.235422
 30
0.0
 11
180.300508
 21
191.834415
 31
0.0
  0
LINE
  5
C43
100
AcDbEntity
  8
DRAW
  6
CONTINUOUS
100
AcDbLine
 10
180.211417
 20
192.138051
 30
0.0
 11
180.300508
 21
191.834415
 31
0.0
  0
LINE
  5
C44
100
AcDbEntity
  8
DRAW
  6
CONTINUOUS
100
AcDbLine
 10
179.100508
 20
191.834426
 30
0.0
 11
179.189604
 21
192.13806
 31
0.0
  0
LINE
  5
C45
100
AcDbEntity
  8
DRAW
  6
CONTINUOUS
100
AcDbLine
 10
169.585811
 20
187.742012
 30
0.0
 11
176.577735
 21
180.749965
 31
0.0
  0
LINE
  5
C46
100
AcDbEntity
  8
DRAW
  6
CONTINUOUS
100
AcDbLine
 10
169.737512
 20
187.46431
 30
0.0
 11
176.523617
 21
180.678086
 31
0.0
  0
LINE
  5
C47
100
AcDbEntity
  8
DRAW
  6
CONTINUOUS
100
AcDbLine
 10
177.301417
 20
181.471345
 30
0.0
 11
170.308348
 21
188.464537
 31
0.0
  0
LINE
  5
C48
100
AcDbEntity
  8
DRAW
  6
CONTINUOUS
100
AcDbLine
 10
177.373501
 20
181.525258
 30
0.0
 11
170.586048
 21
188.312831
 31
0.0
  0
LINE
  5
C49
100
AcDbEntity
  8
DRAW
  6
CONTINUOUS
100
AcDbLine
 10
170.308348
 20
188.464537
 30
0.0
 11
170.586048
 21
188.312831
 31
0.0
  0
LINE
  5
C4A
100
AcDbEntity
  8
DRAW
  6
CONTINUOUS
100
AcDbLine
 10
169.737512
 20
187.46431
 30
0.0
 11
169.585811
 21
187.742012
 31
0.0
  0
LINE
  5
C4B
100
AcDbEntity
  8
DRAW
  6
CONTINUOUS
100
AcDbLine
 10
165.903379
 20
177.84263
 30
0.0
 11
175.79154
 21
177.842542
 31
0.0
  0
LINE
  5
C4C
100
AcDbEntity
  8
DRAW
  6
CONTINUOUS
100
AcDbLine
 10
166.207013
 20
177.753534
 30
0.0
 11
175.804098
 21
177.753449
 31
0.0
  0
LINE
  5
C4D
100
AcDbEntity
  8
DRAW
  6
CONTINUOUS
100
AcDbLine
 10
175.793168
 20
178.864356
 30
0.0
 11
165.903388
 21
178.864443
 31
0.0
  0
LINE
  5
C4E
100
AcDbEntity
  8
DRAW
  6
CONTINUOUS
100
AcDbLine
 10
175.806016
 20
178.953449
 30
0.0
 11
166.207023
 21
178.953534
 31
0.0
  0
LINE
  5
C4F
100
AcDbEntity
  8
DRAW
  6
CONTINUOUS
100
AcDbLine
 10
165.903388
 20
178.864443
 30
0.0
 11
166.207023
 21
178.953534
 31
0.0
  0
LINE
  5
C50
100
AcDbEntity
  8
DRAW
  6
CONTINUOUS
100
AcDbLine
 10
166.207013
 20
177.753534
 30
0.0
 11
165.903379
 21
177.84263
 31
0.0
  0
LINE
  5
C51
100
AcDbEntity
  8
DRAW
  6
CONTINUOUS
100
AcDbLine
 10
170.299426
 20
168.238837
 30
0.0
 11
177.291474
 21
175.23076
 31
0.0
  0
LINE
  5
C52
100
AcDbEntity
  8
DRAW
  6
CONTINUOUS
100
AcDbLine
 10
170.577128
 20
168.390538
 30
0.0
 11
177.363352
 21
175.176642
 31
0.0
  0
LINE
  5
C53
100
AcDbEntity
  8
DRAW
  6
CONTINUOUS
100
AcDbLine
 10
176.570094
 20
175.954443
 30
0.0
 11
169.576902
 21
168.961374
 31
0.0
  0
LINE
  5
C54
100
AcDbEntity
  8
DRAW
  6
CONTINUOUS
100
AcDbLine
 10
176.516181
 20
176.026527
 30
0.0
 11
169.728608
 21
169.239074
 31
0.0
  0
LINE
  5
C55
100
AcDbEntity
  8
DRAW
  6
CONTINUOUS
100
AcDbLine
 10
169.576902
 20
168.961374
 30
0.0
 11
169.728608
 21
169.239074
 31
0.0
  0
LINE
  5
C56
100
AcDbEntity
  8
DRAW
  6
CONTINUOUS
100
AcDbLine
 10
170.577128
 20
168.390538
 30
0.0
 11
170.299426
 21
168.238837
 31
0.0
  0
ARC
  5
C57
100
AcDbEntity
  8
DRAW
  6
CONTINUOUS
100
AcDbCircle
 10
179.694206
 20
178.347232
 30
0.0
 40
13.800056
100
AcDbArc
 50
227.0955
 51
267.852114
  0
ARC
  5
C58
100
AcDbEntity
  8
DRAW
  6
CONTINUOUS
100
AcDbCircle
 10
179.694206
 20
178.347232
 30
0.0
 40
13.800056
100
AcDbArc
 50
182.0955
 51
222.852114
  0
ARC
  5
C59
100
AcDbEntity
  8
DRAW
  6
CONTINUOUS
100
AcDbCircle
 10
179.694206
 20
178.347232
 30
0.0
 40
13.800056
100
AcDbArc
 50
137.0955
 51
177.852114
  0
ARC
  5
C5B
100
AcDbEntity
  8
DRAW
  6
CONTINUOUS
100
AcDbCircle
 10
179.694206
 20
178.347232
 30
0.0
 40
13.800056
100
AcDbArc
 50
92.0955
 51
132.852114
  0
ARC
  5
C5C
100
AcDbEntity
  8
DRAW
  6
CONTINUOUS
100
AcDbCircle
 10
179.694206
 20
178.347232
 30
0.0
 40
13.500254
100
AcDbArc
 50
92.520497
 51
132.425958
  0
ARC
  5
C5E
100
AcDbEntity
  8
DRAW
  6
CONTINUOUS
100
AcDbCircle
 10
179.694206
 20
178.347232
 30
0.0
 40
13.800056
100
AcDbArc
 50
47.0955
 51
87.852114
  0
ARC
  5
C5F
100
AcDbEntity
  8
DRAW
  6
CONTINUOUS
100
AcDbCircle
 10
179.694206
 20
178.347232
 30
0.0
 40
13.500254
100
AcDbArc
 50
47.520497
 51
87.425958
  0
ARC
  5
C60
100
AcDbEntity
  8
DRAW
  6
CONTINUOUS
100
AcDbCircle
 10
179.694206
 20
178.347232
 30
0.0
 40
13.800056
100
AcDbArc
 50
2.0955
 51
42.852114
  0
ARC
  5
C61
100
AcDbEntity
  8
DRAW
  6
CONTINUOUS
100
AcDbCircle
 10
179.694206
 20
178.347232
 30
0.0
 40
13.500254
100
AcDbArc
 50
2.520498
 51
42.425958
  0
ARC
  5
C62
100
AcDbEntity
  8
DRAW
  6
CONTINUOUS
100
AcDbCircle
 10
179.694206
 20
178.347232
 30
0.0
 40
13.800056
100
AcDbArc
 50
317.0955
 51
357.852114
  0
ARC
  5
C63
100
AcDbEntity
  8
DRAW
  6
CONTINUOUS
100
AcDbCircle
 10
179.694206
 20
178.347232
 30
0.0
 40
13.500254
100
AcDbArc
 50
317.520499
 51
357.425959
  0
ARC
  5
C65
100
AcDbEntity
  8
DRAW
  6
CONTINUOUS
100
AcDbCircle
 10
179.827895
 20
178.317993
 30
0.0
 40
13.618772
100
AcDbArc
 50
137.809608
 51
177.325233
  0
ARC
  5
C66
100
AcDbEntity
  8
DRAW
  6
CONTINUOUS
100
AcDbCircle
 10
179.694206
 20
178.347232
 30
0.0
 40
13.48406
100
AcDbArc
 50
182.523528
 51
222.422866
  0
ARC
  5
C67
100
AcDbEntity
  8
DRAW
  6
CONTINUOUS
100
AcDbCircle
 10
179.802795
 20
178.606899
 30
0.0
 40
13.765426
100
AcDbArc
 50
227.917061
 51
267.023077
  0
ARC
  5
C69
100
AcDbEntity
  8
DRAW
  6
CONTINUOUS
100
AcDbCircle
 10
179.694206
 20
178.347232
 30
0.0
 40
4.74283
100
AcDbArc
 50
142.19198
 51
172.656418
  0
ARC
  5
C6A
100
AcDbEntity
  8
DRAW
  6
CONTINUOUS
100
AcDbCircle
 10
179.694206
 20
178.347232
 30
0.0
 40
4.74283
100
AcDbArc
 50
97.19198
 51
127.656418
  0
ARC
  5
C6B
100
AcDbEntity
  8
DRAW
  6
CONTINUOUS
100
AcDbCircle
 10
179.694206
 20
178.347232
 30
0.0
 40
4.74283
100
AcDbArc
 50
52.19198
 51
82.656417
  0
ARC
  5
C6C
100
AcDbEntity
  8
DRAW
  6
CONTINUOUS
100
AcDbCircle
 10
179.694206
 20
178.347232
 30
0.0
 40
4.74283
100
AcDbArc
 50
7.19198
 51
37.656418
  0
ARC
  5
C6D
100
AcDbEntity
  8
DRAW
  6
CONTINUOUS
100
AcDbCircle
 10
179.694206
 20
178.347232
 30
0.0
 40
4.74283
100
AcDbArc
 50
322.19198
 51
352.656418
  0
ARC
  5
C6E
100
AcDbEntity
  8
DRAW
  6
CONTINUOUS
100
AcDbCircle
 10
179.694206
 20
178.347232
 30
0.0
 40
4.74283
100
AcDbArc
 50
280.437
 51
307.656418
  0
ARC
  5
C6F
100
AcDbEntity
  8
DRAW
  6
CONTINUOUS
100
AcDbCircle
 10
179.694206
 20
178.347232
 30
0.0
 40
4.74283
100
AcDbArc
 50
232.19198
 51
259.56195
  0
ARC
  5
C70
100
AcDbEntity
  8
DRAW
  6
CONTINUOUS
100
AcDbCircle
 10
179.694206
 20
178.347232
 30
0.0
 40
4.74283
100
AcDbArc
 50
187.19198
 51
217.656418
  0
LINE
  5
C71
100
AcDbEntity
  8
DRAW
  6
CONTINUOUS
100
AcDbLine
 10
180.737666
 20
174.447221
 30
0.0
 11
180.237685
 21
174.447226
 31
0.0
  0
ARC
  5
C72
100
AcDbEntity
  8
DRAW
  6
CONTINUOUS
100
AcDbCircle
 10
179.341859
 20
179.567644
 30
0.0
 40
5.100207
100
AcDbArc
 50
280.116202
 51
285.840286
  0
ARC
  5
C73
100
AcDbEntity
  8
DRAW
  6
CONTINUOUS
100
AcDbCircle
 10
179.694171
 20
174.447231
 30
0.0
 40
1.15
100
AcDbArc
 50
301.448452
 51
318.326841
  0
ARC
  5
C74
100
AcDbEntity
  8
DRAW
  6
CONTINUOUS
100
AcDbCircle
 10
179.694172
 20
174.447236
 30
0.0
 40
1.043494
100
AcDbArc
 50
179.999755
 51
359.999173
  0
ARC
  5
C75
100
AcDbEntity
  8
DRAW
  6
CONTINUOUS
100
AcDbCircle
 10
179.694171
 20
174.447268
 30
0.0
 40
1.135197
100
AcDbArc
 50
243.251953
 51
296.746991
  0
ARC
  5
C76
100
AcDbEntity
  8
DRAW
  6
CONTINUOUS
100
AcDbCircle
 10
179.694172
 20
174.447239
 30
0.0
 40
0.543513
100
AcDbArc
 50
180.000295
 51
359.998633
  0
ARC
  5
C77
100
AcDbEntity
  8
DRAW
  6
CONTINUOUS
100
AcDbCircle
 10
179.694171
 20
174.447231
 30
0.0
 40
1.15
100
AcDbArc
 50
221.672446
 51
238.550491
  0
ARC
  5
C78
100
AcDbEntity
  8
DRAW
  6
CONTINUOUS
100
AcDbCircle
 10
179.512994
 20
174.472058
 30
0.0
 40
1.089605
100
AcDbArc
 50
247.394192
 51
252.384824
  0
LINE
  5
C79
100
AcDbEntity
  8
DRAW
  6
CONTINUOUS
100
AcDbLine
 10
179.15066
 20
174.54674
 30
0.0
 11
179.150659
 21
174.447237
 31
0.0
  0
ARC
  5
C7A
100
AcDbEntity
  8
DRAW
  6
CONTINUOUS
100
AcDbCircle
 10
179.875349
 20
174.472049
 30
0.0
 40
1.089599
100
AcDbArc
 50
287.614173
 51
292.604815
  0
LINE
  5
C7B
100
AcDbEntity
  8
DRAW
  6
CONTINUOUS
100
AcDbLine
 10
180.237685
 20
174.447226
 30
0.0
 11
180.237685
 21
174.546728
 31
0.0
  0
LINE
  5
C7C
100
AcDbEntity
  8
DRAW
  6
CONTINUOUS
100
AcDbLine
 10
178.547446
 20
174.447242
 30
0.0
 11
178.650678
 21
174.447241
 31
0.0
  0
LINE
  5
C7D
100
AcDbEntity
  8
DRAW
  6
CONTINUOUS
100
AcDbLine
 10
178.65068
 20
174.648111
 30
0.0
 11
178.650678
 21
174.447241
 31
0.0
  0
LINE
  5
C7E
100
AcDbEntity
  8
DRAW
  6
CONTINUOUS
100
AcDbLine
 10
178.65068
 20
174.648111
 30
0.0
 11
178.559257
 21
174.579361
 31
0.0
  0
ARC
  5
C7F
100
AcDbEntity
  8
DRAW
  6
CONTINUOUS
100
AcDbCircle
 10
180.672597
 20
174.334646
 30
0.0
 40
2.127762
100
AcDbArc
 50
173.395322
 51
176.966543
  0
LINE
  5
C80
100
AcDbEntity
  8
DRAW
  6
CONTINUOUS
100
AcDbLine
 10
179.150659
 20
174.447236
 30
0.0
 11
178.650678
 21
174.447241
 31
0.0
  0
ARC
  5
C81
100
AcDbEntity
  8
DRAW
  6
CONTINUOUS
100
AcDbCircle
 10
179.679188
 20
174.436674
 30
0.0
 40
1.131792
100
AcDbArc
 50
179.465025
 51
221.777533
  0
ARC
  5
C82
100
AcDbEntity
  8
DRAW
  6
CONTINUOUS
100
AcDbCircle
 10
178.710323
 20
174.345486
 30
0.0
 40
2.13263
100
AcDbArc
 50
2.73436
 51
6.301444
  0
LINE
  5
C83
100
AcDbEntity
  8
DRAW
  6
CONTINUOUS
100
AcDbLine
 10
180.737666
 20
174.447221
 30
0.0
 11
180.733995
 21
174.661111
 31
0.0
  0
LINE
  5
C84
100
AcDbEntity
  8
DRAW
  6
CONTINUOUS
100
AcDbLine
 10
180.840895
 20
174.44722
 30
0.0
 11
180.737666
 21
174.447221
 31
0.0
  0
LINE
  5
C85
100
AcDbEntity
  8
DRAW
  6
CONTINUOUS
100
AcDbLine
 10
180.829767
 20
174.579545
 30
0.0
 11
180.733995
 21
174.661111
 31
0.0
  0
ARC
  5
C86
100
AcDbEntity
  8
DRAW
  6
CONTINUOUS
100
AcDbCircle
 10
179.709079
 20
174.436702
 30
0.0
 40
1.131865
100
AcDbArc
 50
318.223194
 51
0.53246
  0
ARC
  5
C87
100
AcDbEntity
  8
DRAW
  6
CONTINUOUS
100
AcDbCircle
 10
179.694212
 20
178.346906
 30
0.0
 40
3.838843
100
AcDbArc
 50
261.859979
 51
278.138835
  0
ARC
  5
C88
100
AcDbEntity
  8
DRAW
  6
CONTINUOUS
100
AcDbCircle
 10
179.916143
 20
179.605822
 30
0.0
 40
5.116669
100
AcDbArc
 50
255.680918
 51
261.395915
  0
CIRCLE
  5
C91
100
AcDbEntity
  8
DRAW
  6
CONTINUOUS
100
AcDbCircle
 10
183.335603
 20
187.121954
 30
0.0
 40
1.601738
  0
CIRCLE
  5
C92
100
AcDbEntity
  8
DRAW
  6
CONTINUOUS
100
AcDbCircle
 10
183.335603
 20
187.121954
 30
0.0
 40
1.269731
  0
CIRCLE
  5
C93
100
AcDbEntity
  8
DRAW
  6
CONTINUOUS
100
AcDbCircle
 10
183.335603
 20
187.121954
 30
0.0
 40
1.175135
  0
CIRCLE
  5
C94
100
AcDbEntity
  8
DRAW
  6
CONTINUOUS
100
AcDbCircle
 10
183.335603
 20
187.121954
 30
0.0
 40
0.905969
  0
CIRCLE
  5
C95
100
AcDbEntity
  8
DRAW
  6
CONTINUOUS
100
AcDbCircle
 10
183.335603
 20
187.121954
 30
0.0
 40
0.650033
  0
TEXT
  5
C96
100
AcDbEntity
  8
DRAW-TEXT
100
AcDbText
 10
183.304841
 20
189.048542
 30
0.0
 40
1.8
  1
5
 50
337.5
  7
FINDER
 72
     4
 11
184.286408
 21
189.586214
 31
0.0
100
AcDbText
  0
CIRCLE
  5
C97
100
AcDbEntity
  8
DRAW
  6
CONTINUOUS
100
AcDbCircle
 10
176.064397
 20
187.126754
 30
0.0
 40
1.175135
  0
CIRCLE
  5
C98
100
AcDbEntity
  8
DRAW
  6
CONTINUOUS
100
AcDbCircle
 10
176.064397
 20
187.126754
 30
0.0
 40
1.269731
  0
CIRCLE
  5
C99
100
AcDbEntity
  8
DRAW
  6
CONTINUOUS
100
AcDbCircle
 10
176.064397
 20
187.126754
 30
0.0
 40
1.601738
  0
TEXT
  5
C9A
100
AcDbEntity
  8
DRAW-TEXT
100
AcDbText
 10
174.734019
 20
188.459637
 30
0.0
 40
1.8
  1
4
 50
22.5
  7
FINDER
 72
     4
 11
174.994222
 21
189.541569
 31
0.0
100
AcDbText
  0
CIRCLE
  5
C9B
100
AcDbEntity
  8
DRAW
  6
CONTINUOUS
100
AcDbCircle
 10
176.064397
 20
187.126754
 30
0.0
 40
0.650033
  0
CIRCLE
  5
C9C
100
AcDbEntity
  8
DRAW
  6
CONTINUOUS
100
AcDbCircle
 10
176.064397
 20
187.126754
 30
0.0
 40
0.905969
  0
CIRCLE
  5
C9D
100
AcDbEntity
  8
DRAW
  6
CONTINUOUS
100
AcDbCircle
 10
170.919485
 20
181.988629
 30
0.0
 40
1.175135
  0
CIRCLE
  5
C9E
100
AcDbEntity
  8
DRAW
  6
CONTINUOUS
100
AcDbCircle
 10
170.919485
 20
181.988629
 30
0.0
 40
1.269731
  0
CIRCLE
  5
C9F
100
AcDbEntity
  8
DRAW
  6
CONTINUOUS
100
AcDbCircle
 10
170.919485
 20
181.988629
 30
0.0
 40
1.601738
  0
TEXT
  5
CA0
100
AcDbEntity
  8
DRAW-TEXT
100
AcDbText
 10
169.009425
 20
181.957665
 30
0.0
 40
1.8
  1
3
 50
67.5
  7
FINDER
 72
     4
 11
168.455224
 21
182.939433
 31
0.0
100
AcDbText
  0
CIRCLE
  5
CA1
100
AcDbEntity
  8
DRAW
  6
CONTINUOUS
100
AcDbCircle
 10
170.919485
 20
181.988629
 30
0.0
 40
0.650033
  0
CIRCLE
  5
CA2
100
AcDbEntity
  8
DRAW
  6
CONTINUOUS
100
AcDbCircle
 10
170.919485
 20
181.988629
 30
0.0
 40
0.905969
  0
CIRCLE
  5
CA3
100
AcDbEntity
  8
DRAW
  6
CONTINUOUS
100
AcDbCircle
 10
170.914685
 20
174.717423
 30
0.0
 40
1.175135
  0
CIRCLE
  5
CA4
100
AcDbEntity
  8
DRAW
  6
CONTINUOUS
100
AcDbCircle
 10
170.914685
 20
174.717423
 30
0.0
 40
1.269731
  0
CIRCLE
  5
CA5
100
AcDbEntity
  8
DRAW
  6
CONTINUOUS
100
AcDbCircle
 10
170.914685
 20
174.717423
 30
0.0
 40
1.601738
  0
TEXT
  5
CA6
100
AcDbEntity
  8
DRAW-TEXT
100
AcDbText
 10
169.591078
 20
173.374275
 30
0.0
 40
1.8
  1
2
 50
112.5
  7
FINDER
 72
     4
 11
168.499869
 21
173.647248
 31
0.0
100
AcDbText
  0
CIRCLE
  5
CA7
100
AcDbEntity
  8
DRAW
  6
CONTINUOUS
100
AcDbCircle
 10
170.914685
 20
174.717423
 30
0.0
 40
0.650033
  0
CIRCLE
  5
CA8
100
AcDbEntity
  8
DRAW
  6
CONTINUOUS
100
AcDbCircle
 10
170.914685
 20
174.717423
 30
0.0
 40
0.905969
  0
CIRCLE
  5
CA9
100
AcDbEntity
  8
DRAW
  6
CONTINUOUS
100
AcDbCircle
 10
176.05281
 20
169.57251
 30
0.0
 40
1.175135
  0
CIRCLE
  5
CAA
100
AcDbEntity
  8
DRAW
  6
CONTINUOUS
100
AcDbCircle
 10
176.05281
 20
169.57251
 30
0.0
 40
1.269731
  0
CIRCLE
  5
CAB
100
AcDbEntity
  8
DRAW
  6
CONTINUOUS
100
AcDbCircle
 10
176.05281
 20
169.57251
 30
0.0
 40
1.601738
  0
TEXT
  5
CAC
100
AcDbEntity
  8
DRAW-TEXT
100
AcDbText
 10
176.007073
 20
167.711498
 30
0.0
 40
1.8
  1
1
 50
157.5
  7
FINDER
 72
     4
 11
175.102005
 21
167.10825
 31
0.0
100
AcDbText
  0
CIRCLE
  5
CAD
100
AcDbEntity
  8
DRAW
  6
CONTINUOUS
100
AcDbCircle
 10
176.05281
 20
169.57251
 30
0.0
 40
0.650033
  0
CIRCLE
  5
CAE
100
AcDbEntity
  8
DRAW
  6
CONTINUOUS
100
AcDbCircle
 10
176.05281
 20
169.57251
 30
0.0
 40
0.905969
  0
CIRCLE
  5
CAF
100
AcDbEntity
  8
DRAW
  6
CONTINUOUS
100
AcDbCircle
 10
183.324016
 20
169.567711
 30
0.0
 40
1.175135
  0
CIRCLE
  5
CB0
100
AcDbEntity
  8
DRAW
  6
CONTINUOUS
100
AcDbCircle
 10
183.324016
 20
169.567711
 30
0.0
 40
1.269731
  0
CIRCLE
  5
CB1
100
AcDbEntity
  8
DRAW
  6
CONTINUOUS
100
AcDbCircle
 10
183.324016
 20
169.567711
 30
0.0
 40
1.601738
  0
TEXT
  5
CB2
100
AcDbEntity
  8
DRAW-TEXT
100
AcDbText
 10
184.696291
 20
168.239557
 30
0.0
 40
1.8
  1
8
 50
202.5
  7
FINDER
 72
     4
 11
184.39419
 21
167.152895
 31
0.0
100
AcDbText
  0
CIRCLE
  5
CB3
100
AcDbEntity
  8
DRAW
  6
CONTINUOUS
100
AcDbCircle
 10
183.324016
 20
169.567711
 30
0.0
 40
0.650033
  0
CIRCLE
  5
CB4
100
AcDbEntity
  8
DRAW
  6
CONTINUOUS
100
AcDbCircle
 10
183.324016
 20
169.567711
 30
0.0
 40
0.905969
  0
CIRCLE
  5
CB5
100
AcDbEntity
  8
DRAW
  6
CONTINUOUS
100
AcDbCircle
 10
188.468928
 20
174.705836
 30
0.0
 40
1.175135
  0
CIRCLE
  5
CB6
100
AcDbEntity
  8
DRAW
  6
CONTINUOUS
100
AcDbCircle
 10
188.468928
 20
174.705836
 30
0.0
 40
1.269731
  0
CIRCLE
  5
CB7
100
AcDbEntity
  8
DRAW
  6
CONTINUOUS
100
AcDbCircle
 10
188.468928
 20
174.705836
 30
0.0
 40
1.601738
  0
TEXT
  5
CB8
100
AcDbEntity
  8
DRAW-TEXT
100
AcDbText
 10
190.381005
 20
174.743273
 30
0.0
 40
1.8
  1
7
 50
247.5
  7
FINDER
 72
     4
 11
190.933189
 21
173.755031
 31
0.0
100
AcDbText
  0
CIRCLE
  5
CB9
100
AcDbEntity
  8
DRAW
  6
CONTINUOUS
100
AcDbCircle
 10
188.468928
 20
174.705836
 30
0.0
 40
0.650033
  0
CIRCLE
  5
CBA
100
AcDbEntity
  8
DRAW
  6
CONTINUOUS
100
AcDbCircle
 10
188.468928
 20
174.705836
 30
0.0
 40
0.905969
  0
CIRCLE
  5
CBB
100
AcDbEntity
  8
DRAW
  6
CONTINUOUS
100
AcDbCircle
 10
188.473728
 20
181.977041
 30
0.0
 40
1.175135
  0
CIRCLE
  5
CBC
100
AcDbEntity
  8
DRAW
  6
CONTINUOUS
100
AcDbCircle
 10
188.473728
 20
181.977041
 30
0.0
 40
1.269731
  0
CIRCLE
  5
CBD
100
AcDbEntity
  8
DRAW
  6
CONTINUOUS
100
AcDbCircle
 10
188.473728
 20
181.977041
 30
0.0
 40
1.601738
  0
TEXT
  5
CBE
100
AcDbEntity
  8
DRAW-TEXT
100
AcDbText
 10
189.804231
 20
183.343645
 30
0.0
 40
1.8
  1
6
 50
292.5
  7
FINDER
 72
     4
 11
190.888544
 21
183.047216
 31
0.0
100
AcDbText
  0
CIRCLE
  5
CBF
100
AcDbEntity
  8
DRAW
  6
CONTINUOUS
100
AcDbCircle
 10
188.473728
 20
181.977041
 30
0.0
 40
0.650033
  0
CIRCLE
  5
CC0
100
AcDbEntity
  8
DRAW
  6
CONTINUOUS
100
AcDbCircle
 10
188.473728
 20
181.977041
 30
0.0
 40
0.905969
  0
LINE
  5
CC7
100
AcDbEntity
  8
DRAW
  6
CONTINUOUS
100
AcDbLine
 10
75.130369
 20
183.163996
 30
0.0
 11
84.349999
 21
183.168027
 31
0.0
  0
LINE
  5
CC8
100
AcDbEntity
  8
DRAW
  6
CONTINUOUS
100
AcDbLine
 10
75.131396
 20
180.813868
 30
0.0
 11
84.349999
 21
180.817899
 31
0.0
  0
ARC
  5
CC9
100
AcDbEntity
  8
DRAW
  6
CONTINUOUS
100
AcDbCircle
 10
75.252461
 20
181.819243
 30
0.0
 40
1.350284
100
AcDbArc
 50
95.187764
 51
127.210491
  0
ARC
  5
CCA
100
AcDbEntity
  8
DRAW
  6
CONTINUOUS
100
AcDbCircle
 10
75.252313
 20
182.158728
 30
0.0
 40
1.350284
100
AcDbArc
 50
232.839611
 51
264.862338
  0
LINE
  5
CCB
100
AcDbEntity
  8
DRAW
  6
CONTINUOUS
100
AcDbLine
 10
75.131062
 20
180.813868
 30
0.0
 11
75.130704
 21
183.163996
 31
0.0
  0
LINE
  5
CCC
100
AcDbEntity
  8
DRAW
  6
CONTINUOUS
100
AcDbLine
 10
74.436418
 20
181.082622
 30
0.0
 11
74.436142
 21
182.894635
 31
0.0
  0
LINE
  5
CCD
100
AcDbEntity
  8
DRAW
  6
CONTINUOUS
100
AcDbLine
 10
75.130369
 20
175.820352
 30
0.0
 11
84.349999
 21
175.824383
 31
0.0
  0
LINE
  5
CCE
100
AcDbEntity
  8
DRAW
  6
CONTINUOUS
100
AcDbLine
 10
75.131396
 20
173.470225
 30
0.0
 11
84.349999
 21
173.474256
 31
0.0
  0
ARC
  5
CCF
100
AcDbEntity
  8
DRAW
  6
CONTINUOUS
100
AcDbCircle
 10
75.252461
 20
174.475599
 30
0.0
 40
1.350284
100
AcDbArc
 50
95.187764
 51
127.210491
  0
ARC
  5
CD0
100
AcDbEntity
  8
DRAW
  6
CONTINUOUS
100
AcDbCircle
 10
75.252313
 20
174.815084
 30
0.0
 40
1.350284
100
AcDbArc
 50
232.839611
 51
264.862338
  0
LINE
  5
CD1
100
AcDbEntity
  8
DRAW
  6
CONTINUOUS
100
AcDbLine
 10
75.131062
 20
173.470225
 30
0.0
 11
75.130704
 21
175.820353
 31
0.0
  0
LINE
  5
CD2
100
AcDbEntity
  8
DRAW
  6
CONTINUOUS
100
AcDbLine
 10
74.436418
 20
173.738978
 30
0.0
 11
74.436142
 21
175.550992
 31
0.0
  0
LINE
  5
CD3
100
AcDbEntity
  8
DRAW
  6
CONTINUOUS
100
AcDbLine
 10
75.130369
 20
170.747878
 30
0.0
 11
84.349999
 21
170.751909
 31
0.0
  0
LINE
  5
CD4
100
AcDbEntity
  8
DRAW
  6
CONTINUOUS
100
AcDbLine
 10
75.131396
 20
168.39775
 30
0.0
 11
84.349999
 21
168.401781
 31
0.0
  0
ARC
  5
CD5
100
AcDbEntity
  8
DRAW
  6
CONTINUOUS
100
AcDbCircle
 10
75.252461
 20
169.403125
 30
0.0
 40
1.350284
100
AcDbArc
 50
95.187764
 51
127.210491
  0
ARC
  5
CD6
100
AcDbEntity
  8
DRAW
  6
CONTINUOUS
100
AcDbCircle
 10
75.252313
 20
169.74261
 30
0.0
 40
1.350284
100
AcDbArc
 50
232.839611
 51
264.862338
  0
LINE
  5
CD7
100
AcDbEntity
  8
DRAW
  6
CONTINUOUS
100
AcDbLine
 10
75.131062
 20
168.39775
 30
0.0
 11
75.130704
 21
170.747878
 31
0.0
  0
LINE
  5
CD8
100
AcDbEntity
  8
DRAW
  6
CONTINUOUS
100
AcDbLine
 10
74.436418
 20
168.666504
 30
0.0
 11
74.436142
 21
170.478517
 31
0.0
  0
LINE
  5
CDA
100
AcDbEntity
  8
DRAW
  6
CONTINUOUS
100
AcDbLine
 10
75.130369
 20
128.316193
 30
0.0
 11
84.349999
 21
128.320224
 31
0.0
  0
LINE
  5
CDB
100
AcDbEntity
  8
DRAW
  6
CONTINUOUS
100
AcDbLine
 10
75.131396
 20
125.966066
 30
0.0
 11
84.349999
 21
125.970096
 31
0.0
  0
ARC
  5
CDC
100
AcDbEntity
  8
DRAW
  6
CONTINUOUS
100
AcDbCircle
 10
75.252461
 20
126.97144
 30
0.0
 40
1.350284
100
AcDbArc
 50
95.187764
 51
127.210491
  0
ARC
  5
CDD
100
AcDbEntity
  8
DRAW
  6
CONTINUOUS
100
AcDbCircle
 10
75.252313
 20
127.310925
 30
0.0
 40
1.350284
100
AcDbArc
 50
232.839611
 51
264.862338
  0
LINE
  5
CDE
100
AcDbEntity
  8
DRAW
  6
CONTINUOUS
100
AcDbLine
 10
75.131062
 20
125.966066
 30
0.0
 11
75.130704
 21
128.316193
 31
0.0
  0
LINE
  5
CDF
100
AcDbEntity
  8
DRAW
  6
CONTINUOUS
100
AcDbLine
 10
74.436418
 20
126.234819
 30
0.0
 11
74.436142
 21
128.046833
 31
0.0
  0
LINE
  5
CE0
100
AcDbEntity
  8
DRAW
  6
CONTINUOUS
100
AcDbLine
 10
75.131396
 20
120.827941
 30
0.0
 11
84.349999
 21
120.831971
 31
0.0
  0
LINE
  5
CE1
100
AcDbEntity
  8
DRAW
  6
CONTINUOUS
100
AcDbLine
 10
75.130369
 20
123.178068
 30
0.0
 11
84.349999
 21
123.182099
 31
0.0
  0
LINE
  5
CE2
100
AcDbEntity
  8
DRAW
  6
CONTINUOUS
100
AcDbLine
 10
74.436418
 20
121.096694
 30
0.0
 11
74.436142
 21
122.908708
 31
0.0
  0
LINE
  5
CE3
100
AcDbEntity
  8
DRAW
  6
CONTINUOUS
100
AcDbLine
 10
75.131062
 20
120.827941
 30
0.0
 11
75.130704
 21
123.178068
 31
0.0
  0
ARC
  5
CE4
100
AcDbEntity
  8
DRAW
  6
CONTINUOUS
100
AcDbCircle
 10
75.252313
 20
122.1728
 30
0.0
 40
1.350284
100
AcDbArc
 50
232.839611
 51
264.862338
  0
ARC
  5
CE5
100
AcDbEntity
  8
DRAW
  6
CONTINUOUS
100
AcDbCircle
 10
75.252461
 20
121.833315
 30
0.0
 40
1.350284
100
AcDbArc
 50
95.187764
 51
127.210491
  0
LINE
  5
CE6
100
AcDbEntity
  8
DRAW
  6
CONTINUOUS
100
AcDbLine
 10
75.131396
 20
108.411823
 30
0.0
 11
84.349999
 21
108.415853
 31
0.0
  0
LINE
  5
CE7
100
AcDbEntity
  8
DRAW
  6
CONTINUOUS
100
AcDbLine
 10
75.130369
 20
110.76195
 30
0.0
 11
84.349999
 21
110.765981
 31
0.0
  0
LINE
  5
CE8
100
AcDbEntity
  8
DRAW
  6
CONTINUOUS
100
AcDbLine
 10
74.436418
 20
108.680576
 30
0.0
 11
74.436142
 21
110.492589
 31
0.0
  0
LINE
  5
CE9
100
AcDbEntity
  8
DRAW
  6
CONTINUOUS
100
AcDbLine
 10
75.131062
 20
108.411823
 30
0.0
 11
75.130704
 21
110.76195
 31
0.0
  0
ARC
  5
CEA
100
AcDbEntity
  8
DRAW
  6
CONTINUOUS
100
AcDbCircle
 10
75.252313
 20
109.756682
 30
0.0
 40
1.350284
100
AcDbArc
 50
232.839611
 51
264.862338
  0
ARC
  5
CEB
100
AcDbEntity
  8
DRAW
  6
CONTINUOUS
100
AcDbCircle
 10
75.252461
 20
109.417197
 30
0.0
 40
1.350284
100
AcDbArc
 50
95.187764
 51
127.210491
  0
LINE
  5
CEC
100
AcDbEntity
  8
DRAW
  6
CONTINUOUS
100
AcDbLine
 10
75.131396
 20
113.484297
 30
0.0
 11
84.349999
 21
113.488328
 31
0.0
  0
LINE
  5
CED
100
AcDbEntity
  8
DRAW
  6
CONTINUOUS
100
AcDbLine
 10
75.130369
 20
115.834425
 30
0.0
 11
84.349999
 21
115.838456
 31
0.0
  0
LINE
  5
CEE
100
AcDbEntity
  8
DRAW
  6
CONTINUOUS
100
AcDbLine
 10
74.436418
 20
113.753051
 30
0.0
 11
74.436142
 21
115.565064
 31
0.0
  0
LINE
  5
CEF
100
AcDbEntity
  8
DRAW
  6
CONTINUOUS
100
AcDbLine
 10
75.131062
 20
113.484297
 30
0.0
 11
75.130704
 21
115.834425
 31
0.0
  0
ARC
  5
CF0
100
AcDbEntity
  8
DRAW
  6
CONTINUOUS
100
AcDbCircle
 10
75.252313
 20
114.829157
 30
0.0
 40
1.350284
100
AcDbArc
 50
232.839611
 51
264.862338
  0
ARC
  5
CF1
100
AcDbEntity
  8
DRAW
  6
CONTINUOUS
100
AcDbCircle
 10
75.252461
 20
114.489672
 30
0.0
 40
1.350284
100
AcDbArc
 50
95.187764
 51
127.210491
  0
ENDSEC
  0
SECTION
  2
OBJECTS
  0
DICTIONARY
  5
1A
100
AcDbDictionary
  3
ACAD_GROUP
350
18
  3
ACAD_MLINESTYLE
350
19
  0
DICTIONARY
  5
18
102
{ACAD_REACTORS
330
1A
102
}
100
AcDbDictionary
  0
DICTIONARY
  5
19
102
{ACAD_REACTORS
330
1A
102
}
100
AcDbDictionary
  3
STANDARD
350
1C
  0
MLINESTYLE
  5
1C
102
{ACAD_REACTORS
330
19
102
}
100
AcDbMlineStyle
  2
STANDARD
 70
     0
  3

 62
     0
 51
90.0
 52
90.0
 71
     2
 49
0.5
 62
   256
  6
BYLAYER
 49
-0.5
 62
   256
  6
BYLAYER
  0
ENDSEC
  0
EOF
