  0
SECTION
  2
HEADER
  9
$ACADVER
  1
AC1014
  9
$ACADMAINTVER
 70
     9
  9
$DWGCODEPAGE
  3
ANSI_1252
  9
$INSBASE
 10
0.0
 20
0.0
 30
0.0
  9
$EXTMIN
 10
1.000000E+20
 20
1.000000E+20
 30
1.000000E+20
  9
$EXTMAX
 10
-1.000000E+20
 20
-1.000000E+20
 30
-1.000000E+20
  9
$LIMMIN
 10
0.0
 20
0.0
  9
$LIMMAX
 10
420.0
 20
297.0
  9
$ORTHOMODE
 70
     0
  9
$REGENMODE
 70
     1
  9
$FILLMODE
 70
     1
  9
$QTEXTMODE
 70
     0
  9
$MIRRTEXT
 70
     1
  9
$DRAGMODE
 70
     2
  9
$LTSCALE
 40
1.0
  9
$OSMODE
 70
    37
  9
$ATTMODE
 70
     1
  9
$TEXTSIZE
 40
2.5
  9
$TRACEWID
 40
1.0
  9
$TEXTSTYLE
  7
STANDARD
  9
$CLAYER
  8
0
  9
$CELTYPE
  6
BYLAYER
  9
$CECOLOR
 62
   256
  9
$CELTSCALE
 40
1.0
  9
$DELOBJ
 70
     1
  9
$DISPSILH
 70
     0
  9
$DIMSCALE
 40
1.0
  9
$DIMASZ
 40
2.5
  9
$DIMEXO
 40
0.625
  9
$DIMDLI
 40
3.75
  9
$DIMRND
 40
0.0
  9
$DIMDLE
 40
0.0
  9
$DIMEXE
 40
1.25
  9
$DIMTP
 40
0.0
  9
$DIMTM
 40
0.0
  9
$DIMTXT
 40
2.5
  9
$DIMCEN
 40
2.5
  9
$DIMTSZ
 40
0.0
  9
$DIMTOL
 70
     0
  9
$DIMLIM
 70
     0
  9
$DIMTIH
 70
     0
  9
$DIMTOH
 70
     0
  9
$DIMSE1
 70
     0
  9
$DIMSE2
 70
     0
  9
$DIMTAD
 70
     1
  9
$DIMZIN
 70
     8
  9
$DIMBLK
  1

  9
$DIMASO
 70
     1
  9
$DIMSHO
 70
     1
  9
$DIMPOST
  1

  9
$DIMAPOST
  1

  9
$DIMALT
 70
     0
  9
$DIMALTD
 70
     3
  9
$DIMALTF
 40
0.03937
  9
$DIMLFAC
 40
1.0
  9
$DIMTOFL
 70
     1
  9
$DIMTVP
 40
0.0
  9
$DIMTIX
 70
     0
  9
$DIMSOXD
 70
     0
  9
$DIMSAH
 70
     0
  9
$DIMBLK1
  1

  9
$DIMBLK2
  1

  9
$DIMSTYLE
  2
ISO-25
  9
$DIMCLRD
 70
     0
  9
$DIMCLRE
 70
     0
  9
$DIMCLRT
 70
     0
  9
$DIMTFAC
 40
1.0
  9
$DIMGAP
 40
0.625
  9
$DIMJUST
 70
     0
  9
$DIMSD1
 70
     0
  9
$DIMSD2
 70
     0
  9
$DIMTOLJ
 70
     0
  9
$DIMTZIN
 70
     8
  9
$DIMALTZ
 70
     0
  9
$DIMALTTZ
 70
     0
  9
$DIMFIT
 70
     3
  9
$DIMUPT
 70
     0
  9
$DIMUNIT
 70
     2
  9
$DIMDEC
 70
     2
  9
$DIMTDEC
 70
     2
  9
$DIMALTU
 70
     2
  9
$DIMALTTD
 70
     3
  9
$DIMTXSTY
  7
STANDARD
  9
$DIMAUNIT
 70
     0
  9
$LUNITS
 70
     2
  9
$LUPREC
 70
     4
  9
$SKETCHINC
 40
1.0
  9
$FILLETRAD
 40
10.0
  9
$AUNITS
 70
     0
  9
$AUPREC
 70
     0
  9
$MENU
  1
.
  9
$ELEVATION
 40
0.0
  9
$PELEVATION
 40
0.0
  9
$THICKNESS
 40
0.0
  9
$LIMCHECK
 70
     0
  9
$CHAMFERA
 40
10.0
  9
$CHAMFERB
 40
10.0
  9
$CHAMFERC
 40
20.0
  9
$CHAMFERD
 40
0.0
  9
$SKPOLY
 70
     0
  9
$TDCREATE
 40
2455902.684041597
  9
$TDUPDATE
 40
2455902.684041609
  9
$TDINDWG
 40
0.0000000116
  9
$TDUSRTIMER
 40
0.0000000116
  9
$USRTIMER
 70
     1
  9
$ANGBASE
 50
0.0
  9
$ANGDIR
 70
     0
  9
$PDMODE
 70
     0
  9
$PDSIZE
 40
0.0
  9
$PLINEWID
 40
0.0
  9
$COORDS
 70
     1
  9
$SPLFRAME
 70
     0
  9
$SPLINETYPE
 70
     6
  9
$SPLINESEGS
 70
     8
  9
$ATTDIA
 70
     0
  9
$ATTREQ
 70
     1
  9
$HANDLING
 70
     1
  9
$HANDSEED
  5
46D
  9
$SURFTAB1
 70
     6
  9
$SURFTAB2
 70
     6
  9
$SURFTYPE
 70
     6
  9
$SURFU
 70
     6
  9
$SURFV
 70
     6
  9
$UCSNAME
  2

  9
$UCSORG
 10
0.0
 20
0.0
 30
0.0
  9
$UCSXDIR
 10
1.0
 20
0.0
 30
0.0
  9
$UCSYDIR
 10
0.0
 20
1.0
 30
0.0
  9
$PUCSNAME
  2

  9
$PUCSORG
 10
0.0
 20
0.0
 30
0.0
  9
$PUCSXDIR
 10
1.0
 20
0.0
 30
0.0
  9
$PUCSYDIR
 10
0.0
 20
1.0
 30
0.0
  9
$USERI1
 70
     0
  9
$USERI2
 70
     0
  9
$USERI3
 70
     0
  9
$USERI4
 70
     0
  9
$USERI5
 70
     0
  9
$USERR1
 40
0.0
  9
$USERR2
 40
0.0
  9
$USERR3
 40
0.0
  9
$USERR4
 40
0.0
  9
$USERR5
 40
0.0
  9
$WORLDVIEW
 70
     1
  9
$SHADEDGE
 70
     3
  9
$SHADEDIF
 70
    70
  9
$TILEMODE
 70
     1
  9
$MAXACTVP
 70
    64
  9
$PINSBASE
 10
0.0
 20
0.0
 30
0.0
  9
$PLIMCHECK
 70
     0
  9
$PEXTMIN
 10
1.000000E+20
 20
1.000000E+20
 30
1.000000E+20
  9
$PEXTMAX
 10
-1.000000E+20
 20
-1.000000E+20
 30
-1.000000E+20
  9
$PLIMMIN
 10
0.0
 20
0.0
  9
$PLIMMAX
 10
420.0
 20
297.0
  9
$UNITMODE
 70
     0
  9
$VISRETAIN
 70
     1
  9
$PLINEGEN
 70
     0
  9
$PSLTSCALE
 70
     1
  9
$TREEDEPTH
 70
  3020
  9
$PICKSTYLE
 70
     1
  9
$CMLSTYLE
  2
STANDARD
  9
$CMLJUST
 70
     0
  9
$CMLSCALE
 40
20.0
  9
$PROXYGRAPHICS
 70
     1
  9
$MEASUREMENT
 70
     1
  0
ENDSEC
  0
SECTION
  2
CLASSES
  0
CLASS
  1
ACDBDICTIONARYWDFLT
  2
AcDbDictionaryWithDefault
  3
ObjectDBX Classes
 90
        0
280
     0
281
     0
  0
CLASS
  1
VISUALSTYLE
  2
AcDbVisualStyle
  3
ObjectDBX Classes
 90
     4095
280
     0
281
     0
  0
CLASS
  1
DICTIONARYVAR
  2
AcDbDictionaryVar
  3
ObjectDBX Classes
 90
        0
280
     0
281
     0
  0
CLASS
  1
XRECORD
  2
AcDbXrecord
  3
AutoCAD 2000
 90
        0
280
     0
281
     0
  0
CLASS
  1
LWPOLYLINE
  2
AcDbPolyline
  3
AutoCAD 2000
 90
        0
280
     0
281
     1
  0
CLASS
  1
HATCH
  2
AcDbHatch
  3
AutoCAD 2000
 90
        0
280
     0
281
     1
  0
CLASS
  1
ACDBPLACEHOLDER
  2
AcDbPlaceHolder
  3
ObjectDBX Classes
 90
        0
280
     0
281
     0
  0
CLASS
  1
LAYOUT
  2
AcDbLayout
  3
ObjectDBX Classes
 90
        0
280
     0
281
     0
  0
ENDSEC
  0
SECTION
  2
TABLES
  0
TABLE
  2
VPORT
  5
8
330
0
100
AcDbSymbolTable
 70
     1
  0
VPORT
  5
29
330
8
100
AcDbSymbolTableRecord
100
AcDbViewportTableRecord
  2
*ACTIVE
 70
     0
 10
0.0
 20
0.0
 11
1.0
 21
1.0
 12
344.186916
 22
148.5
 13
0.0
 23
0.0
 14
10.0
 24
10.0
 15
10.0
 25
10.0
 16
0.0
 26
0.0
 36
1.0
 17
0.0
 27
0.0
 37
0.0
 40
297.0
 41
1.972973
 42
50.0
 43
0.0
 44
0.0
 50
0.0
 51
0.0
 71
     0
 72
   100
 73
     1
 74
     3
 75
     0
 76
     0
 77
     0
 78
     0
  0
ENDTAB
  0
TABLE
  2
LTYPE
  5
5
330
0
100
AcDbSymbolTable
 70
     1
  0
LTYPE
  5
14
330
5
100
AcDbSymbolTableRecord
100
AcDbLinetypeTableRecord
  2
BYBLOCK
 70
     0
  3

 72
    65
 73
     0
 40
0.0
  0
LTYPE
  5
15
330
5
100
AcDbSymbolTableRecord
100
AcDbLinetypeTableRecord
  2
BYLAYER
 70
     0
  3

 72
    65
 73
     0
 40
0.0
  0
LTYPE
  5
16
330
5
100
AcDbSymbolTableRecord
100
AcDbLinetypeTableRecord
  2
CONTINUOUS
 70
     0
  3
Solid line
 72
    65
 73
     0
 40
0.0
  0
ENDTAB
  0
TABLE
  2
LAYER
  5
2
330
0
100
AcDbSymbolTable
 70
     6
  0
LAYER
  5
10
330
2
100
AcDbSymbolTableRecord
100
AcDbLayerTableRecord
  2
0
 70
     0
 62
     7
  6
CONTINUOUS
  0
LAYER
  5
3B
330
2
100
AcDbSymbolTableRecord
100
AcDbLayerTableRecord
  2
DIM
 70
     0
 62
     7
  6
CONTINUOUS
  0
LAYER
  5
3C
330
2
100
AcDbSymbolTableRecord
100
AcDbLayerTableRecord
  2
DRAW
 70
     0
 62
     7
  6
CONTINUOUS
  0
LAYER
  5
3D
330
2
100
AcDbSymbolTableRecord
100
AcDbLayerTableRecord
  2
CARTOUCHE
 70
     0
 62
     7
  6
CONTINUOUS
  0
LAYER
  5
3E
330
2
100
AcDbSymbolTableRecord
100
AcDbLayerTableRecord
  2
DRAW-TEXT
 70
     0
 62
     7
  6
CONTINUOUS
  0
LAYER
  5
3F
330
2
100
AcDbSymbolTableRecord
100
AcDbLayerTableRecord
  2
DEFPOINTS
 70
     0
 62
     7
  6
CONTINUOUS
  0
ENDTAB
  0
TABLE
  2
STYLE
  5
3
330
0
100
AcDbSymbolTable
 70
    17
  0
STYLE
  5
11
330
3
100
AcDbSymbolTableRecord
100
AcDbTextStyleTableRecord
  2
STANDARD
 70
     0
 40
0.0
 41
1.0
 50
0.0
 71
     0
 42
2.5
  3
txt
  4

1001
ACAD
1000
txt
1071
        0
  0
STYLE
  5
40
330
3
100
AcDbSymbolTableRecord
100
AcDbTextStyleTableRecord
  2
DEFAULT
 70
     0
 40
0.0
 41
1.0
 50
0.0
 71
     0
 42
0.2
  3

  4

1001
ACAD
1000
txt
1071
        0
  0
STYLE
  5
41
330
3
100
AcDbSymbolTableRecord
100
AcDbTextStyleTableRecord
  2
FINDER
 70
     0
 40
0.0
 41
1.0
 50
0.0
 71
     0
 42
0.2
  3
ARIAL.TTF
  4

1001
ACAD
1000
Arial
1071
        0
  0
STYLE
  5
42
330
3
100
AcDbSymbolTableRecord
100
AcDbTextStyleTableRecord
  2
ISO_FINDER
 70
     0
 40
0.0
 41
1.0
 50
0.0
 71
     0
 42
0.2
  3

  4

1001
ACAD
1000
Arial
1071
        0
  0
STYLE
  5
43
330
3
100
AcDbSymbolTableRecord
100
AcDbTextStyleTableRecord
  2
TSTYLE1
 70
     0
 40
0.0
 41
1.0
 50
0.0
 71
     0
 42
0.2
  3

  4

1001
ACAD
1000
Arial
1071
        0
  0
STYLE
  5
44
330
3
100
AcDbSymbolTableRecord
100
AcDbTextStyleTableRecord
  2
TSTYLE2
 70
     0
 40
0.0
 41
1.0
 50
0.0
 71
     0
 42
0.2
  3

  4

1001
ACAD
1000
Arial
1071
        0
  0
STYLE
  5
45
330
3
100
AcDbSymbolTableRecord
100
AcDbTextStyleTableRecord
  2
TSTYLE3
 70
     0
 40
0.0
 41
1.0
 50
0.0
 71
     0
 42
0.2
  3

  4

1001
ACAD
1000
Arial
1071
        0
  0
STYLE
  5
46
330
3
100
AcDbSymbolTableRecord
100
AcDbTextStyleTableRecord
  2
TSTYLE4
 70
     0
 40
0.0
 41
1.0
 50
0.0
 71
     0
 42
0.2
  3

  4

1001
ACAD
1000
Arial
1071
        0
  0
STYLE
  5
47
330
3
100
AcDbSymbolTableRecord
100
AcDbTextStyleTableRecord
  2
TSTYLE5
 70
     0
 40
0.0
 41
1.0
 50
0.0
 71
     0
 42
0.2
  3

  4

1001
ACAD
1000
Arial
1071
        0
  0
STYLE
  5
48
330
3
100
AcDbSymbolTableRecord
100
AcDbTextStyleTableRecord
  2
TSTYLE11
 70
     0
 40
0.0
 41
1.0
 50
0.0
 71
     0
 42
0.2
  3

  4

1001
ACAD
1000
Arial
1071
        0
  0
STYLE
  5
49
330
3
100
AcDbSymbolTableRecord
100
AcDbTextStyleTableRecord
  2
TSTYLE23
 70
     0
 40
0.0
 41
1.0
 50
0.0
 71
     0
 42
0.2
  3

  4

1001
ACAD
1000
Arial
1071
        0
  0
STYLE
  5
4A
330
3
100
AcDbSymbolTableRecord
100
AcDbTextStyleTableRecord
  2
TSTYLE22
 70
     0
 40
0.0
 41
1.0
 50
0.0
 71
     0
 42
0.2
  3

  4

1001
ACAD
1000
Arial
1071
        0
  0
STYLE
  5
4B
330
3
100
AcDbSymbolTableRecord
100
AcDbTextStyleTableRecord
  2
ISO
 70
     0
 40
0.0
 41
1.0
 50
0.0
 71
     0
 42
0.2
  3

  4

1001
ACAD
1000
ISOCP
1071
        0
  0
STYLE
  5
4C
330
3
100
AcDbSymbolTableRecord
100
AcDbTextStyleTableRecord
  2
HELVETICAR
 70
     0
 40
0.0
 41
1.0
 50
0.0
 71
     0
 42
0.2
  3

  4

1001
ACAD
1000
Swis721 Cn BT
1071
        0
  0
STYLE
  5
4D
330
3
100
AcDbSymbolTableRecord
100
AcDbTextStyleTableRecord
  2
ROMANS
 70
     0
 40
0.0
 41
1.0
 50
0.0
 71
     0
 42
0.2
  3

  4

1001
ACAD
1000
romans
1071
        0
  0
STYLE
  5
4E
330
3
100
AcDbSymbolTableRecord
100
AcDbTextStyleTableRecord
  2
STD
 70
     0
 40
0.0
 41
1.0
 50
0.0
 71
     0
 42
0.2
  3

  4

1001
ACAD
1000
txt
1071
        0
  0
STYLE
  5
4F
330
3
100
AcDbSymbolTableRecord
100
AcDbTextStyleTableRecord
  2
STYLE1
 70
     0
 40
0.0
 41
1.0
 50
0.0
 71
     0
 42
0.2
  3

  4

1001
ACAD
1000
Arial Black
1071
        0
  0
ENDTAB
  0
TABLE
  2
VIEW
  5
6
330
0
100
AcDbSymbolTable
 70
     0
  0
ENDTAB
  0
TABLE
  2
UCS
  5
7
330
0
100
AcDbSymbolTable
 70
     0
  0
ENDTAB
  0
TABLE
  2
APPID
  5
9
330
0
100
AcDbSymbolTable
 70
     1
  0
APPID
  5
12
330
9
100
AcDbSymbolTableRecord
100
AcDbRegAppTableRecord
  2
ACAD
 70
     0
  0
ENDTAB
  0
TABLE
  2
DIMSTYLE
  5
A
330
0
100
AcDbSymbolTable
 70
    12
  0
DIMSTYLE
105
27
330
A
100
AcDbSymbolTableRecord
100
AcDbDimStyleTableRecord
  2
ISO-25
 70
     0
  3

  4

  5

  6

  7

 40
1.0
 41
2.5
 42
0.625
 43
3.75
 44
1.25
 45
0.0
 46
0.0
 47
0.0
 48
0.0
140
2.5
141
2.5
142
0.0
143
0.03937
144
1.0
145
0.0
146
1.0
147
0.625
 71
     0
 72
     0
 73
     0
 74
     0
 75
     0
 76
     0
 77
     1
 78
     8
170
     0
171
     3
172
     1
173
     0
174
     0
175
     0
176
     0
177
     0
178
     0
270
     2
271
     2
272
     2
273
     2
274
     3
340
11
275
     0
280
     0
281
     0
282
     0
283
     0
284
     8
285
     0
286
     0
287
     3
288
     0
  0
DIMSTYLE
105
50
330
A
100
AcDbSymbolTableRecord
100
AcDbDimStyleTableRecord
  2
DEFAULT
 70
     0
  3
<>
  4

  5
CLOSED
  6

  7

 40
1.0
 41
4.375
 42
1.05
 43
0.38
 44
2.1
 45
0.0
 46
0.0
 47
0.0
 48
0.0
140
3.5
141
0.09
142
0.0
143
25.4
144
1.0
145
0.0
146
0.4
147
1.75
 71
     0
 72
     0
 73
     0
 74
     0
 75
     0
 76
     0
 77
     1
 78
     8
170
     0
171
     2
172
     0
173
     0
174
     0
175
     0
176
     0
177
     0
178
     2
270
     2
271
     2
272
     3
273
     2
274
     2
340
40
275
     0
280
     0
281
     0
282
     0
283
     1
284
     8
285
     0
286
     0
287
     3
288
     0
  0
DIMSTYLE
105
58
330
A
100
AcDbSymbolTableRecord
100
AcDbDimStyleTableRecord
  2
DEFAULTDIMENSIONSTYLE
 70
     0
  3
<>
  4

  5

  6

  7

 40
1.0
 41
2.5
 42
0.875
 43
0.38
 44
1.75
 45
0.0
 46
0.0
 47
0.0
 48
0.0
140
3.5
141
0.09
142
0.0
143
25.4
144
1.0
145
0.0
146
1.0
147
1.75
 71
     0
 72
     0
 73
     0
 74
     0
 75
     0
 76
     0
 77
     1
 78
     8
170
     0
171
     2
172
     0
173
     0
174
     0
175
     0
176
     0
177
     0
178
     2
270
     2
271
     2
272
     2
273
     2
274
     2
340
11
275
     0
280
     0
281
     0
282
     0
283
     1
284
     8
285
     0
286
     0
287
     3
288
     0
  0
DIMSTYLE
105
59
102
{ACAD_REACTORS
330
1B0
330
1BD
330
1CA
330
1D7
330
1E4
330
3A0
330
3AD
102
}
330
A
100
AcDbSymbolTableRecord
100
AcDbDimStyleTableRecord
  2
FINDER
 70
     0
  3
<>
  4

  5

  6

  7

 40
1.0
 41
2.5
 42
3.888889
 43
0.38
 44
2.430556
 45
0.0
 46
0.0
 47
0.0
 48
0.0
140
3.5
141
0.09
142
0.0
143
25.4
144
1.0
145
0.0
146
1.0
147
2.430556
 71
     0
 72
     0
 73
     0
 74
     0
 75
     0
 76
     0
 77
     1
 78
     8
170
     0
171
     2
172
     0
173
     0
174
     0
175
     0
176
     0
177
     0
178
     2
270
     2
271
     2
272
     2
273
     2
274
     2
340
41
275
     0
280
     0
281
     0
282
     0
283
     1
284
     8
285
     0
286
     0
287
     3
288
     0
  0
DIMSTYLE
105
5A
330
A
100
AcDbSymbolTableRecord
100
AcDbDimStyleTableRecord
  2
ISO_FINDER
 70
     0
  3
<>
  4

  5
CLOSED
  6

  7

 40
1.0
 41
1.0
 42
1.05
 43
0.38
 44
1.75
 45
0.0
 46
0.0
 47
0.0
 48
0.0
140
3.5
141
0.09
142
0.0
143
25.4
144
1.0
145
0.0
146
0.6
147
3.5
 71
     0
 72
     0
 73
     0
 74
     0
 75
     0
 76
     0
 77
     1
 78
     8
170
     0
171
     2
172
     0
173
     0
174
     0
175
     0
176
     0
177
     0
178
     2
270
     2
271
     2
272
     3
273
     2
274
     2
340
42
275
     0
280
     0
281
     0
282
     0
283
     1
284
     8
285
     0
286
     0
287
     3
288
     0
  0
DIMSTYLE
105
5B
330
A
100
AcDbSymbolTableRecord
100
AcDbDimStyleTableRecord
  2
DSTYLE1
 70
     0
  3
<>
  4

  5

  6

  7

 40
1.0
 41
1.35
 42
0.35
 43
0.38
 44
1.166667
 45
0.0
 46
0.0
 47
0.0
 48
0.0
140
3.5
141
0.09
142
0.0
143
25.4
144
1.0
145
0.0
146
0.6
147
2.45
 71
     0
 72
     0
 73
     0
 74
     0
 75
     0
 76
     0
 77
     1
 78
     8
170
     0
171
     2
172
     0
173
     0
174
     0
175
     0
176
     0
177
     0
178
     2
270
     2
271
     2
272
     4
273
     2
274
     2
340
49
275
     0
280
     0
281
     0
282
     0
283
     1
284
     0
285
     0
286
     0
287
     3
288
     0
  0
DIMSTYLE
105
5C
330
A
100
AcDbSymbolTableRecord
100
AcDbDimStyleTableRecord
  2
DSTYLE2
 70
     0
  3
<>
  4

  5

  6

  7

 40
1.0
 41
1.35
 42
0.35
 43
0.38
 44
1.166667
 45
0.0
 46
0.0
 47
0.0
 48
0.0
140
3.5
141
0.09
142
0.0
143
25.4
144
1.0
145
0.0
146
0.6
147
2.45
 71
     0
 72
     0
 73
     0
 74
     0
 75
     0
 76
     0
 77
     1
 78
     8
170
     0
171
     2
172
     0
173
     0
174
     0
175
     0
176
     0
177
     0
178
     2
270
     2
271
     2
272
     4
273
     2
274
     2
340
49
275
     0
280
     0
281
     0
282
     0
283
     1
284
     0
285
     0
286
     0
287
     3
288
     0
  0
DIMSTYLE
105
5D
330
A
100
AcDbSymbolTableRecord
100
AcDbDimStyleTableRecord
  2
DSTYLE3
 70
     0
  3
<>
  4

  5

  6

  7

 40
1.0
 41
1.35
 42
0.233333
 43
0.38
 44
1.166667
 45
0.0
 46
0.0
 47
0.0
 48
0.0
140
3.5
141
0.09
142
0.0
143
25.4
144
1.0
145
0.0
146
0.6
147
2.45
 71
     0
 72
     0
 73
     0
 74
     0
 75
     0
 76
     0
 77
     1
 78
     8
170
     0
171
     2
172
     0
173
     0
174
     0
175
     0
176
     0
177
     0
178
     2
270
     2
271
     2
272
     4
273
     2
274
     2
340
49
275
     0
280
     0
281
     0
282
     0
283
     1
284
     0
285
     0
286
     0
287
     3
288
     0
  0
DIMSTYLE
105
5E
330
A
100
AcDbSymbolTableRecord
100
AcDbDimStyleTableRecord
  2
DSTYLE4
 70
     0
  3
<>
  4

  5

  6

  7

 40
1.0
 41
1.35
 42
0.233333
 43
0.38
 44
1.166667
 45
0.0
 46
0.0
 47
0.0
 48
0.0
140
3.5
141
0.09
142
0.0
143
25.4
144
1.0
145
0.0
146
0.6
147
2.45
 71
     0
 72
     0
 73
     0
 74
     0
 75
     0
 76
     0
 77
     1
 78
     8
170
     0
171
     2
172
     0
173
     0
174
     0
175
     0
176
     0
177
     0
178
     2
270
     2
271
     2
272
     4
273
     2
274
     2
340
49
275
     0
280
     0
281
     0
282
     0
283
     1
284
     0
285
     0
286
     0
287
     3
288
     0
  0
DIMSTYLE
105
5F
330
A
100
AcDbSymbolTableRecord
100
AcDbDimStyleTableRecord
  2
DSTYLE5
 70
     0
  3
<>
  4

  5

  6

  7

 40
1.0
 41
1.35
 42
0.000147
 43
0.38
 44
1.166667
 45
0.0
 46
0.0
 47
0.0
 48
0.0
140
3.5
141
0.09
142
0.0
143
25.4
144
1.0
145
0.0
146
0.6
147
2.45
 71
     0
 72
     0
 73
     0
 74
     0
 75
     0
 76
     0
 77
     1
 78
     8
170
     0
171
     2
172
     0
173
     0
174
     0
175
     0
176
     0
177
     0
178
     2
270
     2
271
     2
272
     4
273
     2
274
     2
340
49
275
     0
280
     0
281
     0
282
     0
283
     1
284
     0
285
     0
286
     0
287
     3
288
     0
  0
DIMSTYLE
105
60
330
A
100
AcDbSymbolTableRecord
100
AcDbDimStyleTableRecord
  2
ST0
 70
     0
  3
<>
  4

  5

  6

  7

 40
1.0
 41
1.4
 42
0.6125
 43
0.38
 44
0.6125
 45
0.0
 46
0.0
 47
0.0
 48
0.0
140
3.5
141
0.09
142
0.0
143
25.4
144
1.0
145
0.0
146
0.5
147
1.458333
 71
     0
 72
     0
 73
     0
 74
     0
 75
     0
 76
     0
 77
     1
 78
     8
170
     0
171
     2
172
     0
173
     0
174
     0
175
     0
176
     0
177
     0
178
     2
270
     2
271
     1
272
     2
273
     2
274
     2
340
4B
275
     0
280
     0
281
     0
282
     0
283
     1
284
     0
285
     0
286
     0
287
     3
288
     0
  0
DIMSTYLE
105
61
330
A
100
AcDbSymbolTableRecord
100
AcDbDimStyleTableRecord
  2
PUNTI
 70
     0
  3
<>
  4

  5
DOT
  6

  7

 40
1.0
 41
1.05
 42
0.6125
 43
0.38
 44
0.30625
 45
0.0
 46
0.0
 47
0.0
 48
0.0
140
3.5
141
0.09
142
0.0
143
25.4
144
1.0
145
0.0
146
0.5
147
0.8575
 71
     0
 72
     0
 73
     0
 74
     0
 75
     0
 76
     0
 77
     1
 78
     8
170
     0
171
     2
172
     0
173
     0
174
     0
175
     0
176
     0
177
     0
178
     2
270
     2
271
     4
272
     4
273
     2
274
     2
340
4B
275
     0
280
     0
281
     0
282
     0
283
     1
284
     0
285
     0
286
     0
287
     3
288
     0
  0
ENDTAB
  0
TABLE
  2
BLOCK_RECORD
  5
1
330
0
100
AcDbSymbolTable
 70
    11
  0
BLOCK_RECORD
  5
1F
330
1
100
AcDbSymbolTableRecord
100
AcDbBlockTableRecord
  2
*MODEL_SPACE
  0
BLOCK_RECORD
  5
1B
330
1
100
AcDbSymbolTableRecord
100
AcDbBlockTableRecord
  2
*PAPER_SPACE
  0
BLOCK_RECORD
  5
51
330
1
100
AcDbSymbolTableRecord
100
AcDbBlockTableRecord
  2
_CLOSED
  0
BLOCK_RECORD
  5
62
330
1
100
AcDbSymbolTableRecord
100
AcDbBlockTableRecord
  2
_DOT
  0
BLOCK_RECORD
  5
D3
330
1
100
AcDbSymbolTableRecord
100
AcDbBlockTableRecord
  2
LW_POLYLINE_1
  0
BLOCK_RECORD
  5
1B1
330
1
100
AcDbSymbolTableRecord
100
AcDbBlockTableRecord
  2
*D4
  0
BLOCK_RECORD
  5
1BE
330
1
100
AcDbSymbolTableRecord
100
AcDbBlockTableRecord
  2
*D5
  0
BLOCK_RECORD
  5
1CB
330
1
100
AcDbSymbolTableRecord
100
AcDbBlockTableRecord
  2
*D6
  0
BLOCK_RECORD
  5
1D8
330
1
100
AcDbSymbolTableRecord
100
AcDbBlockTableRecord
  2
*D7
  0
BLOCK_RECORD
  5
1E5
330
1
100
AcDbSymbolTableRecord
100
AcDbBlockTableRecord
  2
*D8
  0
BLOCK_RECORD
  5
3A1
330
1
100
AcDbSymbolTableRecord
100
AcDbBlockTableRecord
  2
*D9
  0
BLOCK_RECORD
  5
3AE
330
1
100
AcDbSymbolTableRecord
100
AcDbBlockTableRecord
  2
*D10
  0
ENDTAB
  0
ENDSEC
  0
SECTION
  2
BLOCKS
  0
BLOCK
  5
20
330
1F
100
AcDbEntity
  8
0
100
AcDbBlockBegin
  2
*MODEL_SPACE
 70
     0
 71
     0
 10
0.0
 20
0.0
 30
0.0
  3
*MODEL_SPACE
  1

  0
ENDBLK
  5
21
330
1F
100
AcDbEntity
  8
0
100
AcDbBlockEnd
  0
BLOCK
  5
1C
330
1B
100
AcDbEntity
 67
     1
  8
0
100
AcDbBlockBegin
  2
*PAPER_SPACE
 70
     0
 71
     0
 10
0.0
 20
0.0
 30
0.0
  3
*PAPER_SPACE
  1

  0
ENDBLK
  5
1D
330
1B
100
AcDbEntity
 67
     1
  8
0
100
AcDbBlockEnd
  0
BLOCK
  5
52
330
51
100
AcDbEntity
  8
0
100
AcDbBlockBegin
  2
_CLOSED
 70
     0
 71
     0
 10
0.0
 20
0.0
 30
0.0
  3
_CLOSED
  1

  0
LINE
  5
54
330
51
100
AcDbEntity
  8
0
  6
BYBLOCK
 62
     0
100
AcDbLine
 10
-1.0
 20
0.166667
 30
0.0
 11
0.0
 21
0.0
 31
0.0
  0
LINE
  5
55
330
51
100
AcDbEntity
  8
0
  6
BYBLOCK
 62
     0
100
AcDbLine
 10
0.0
 20
0.0
 30
0.0
 11
-1.0
 21
-0.166667
 31
0.0
  0
LINE
  5
56
330
51
100
AcDbEntity
  8
0
  6
BYBLOCK
 62
     0
100
AcDbLine
 10
-1.0
 20
0.166667
 30
0.0
 11
-1.0
 21
-0.166667
 31
0.0
  0
LINE
  5
57
330
51
100
AcDbEntity
  8
0
  6
BYBLOCK
 62
     0
100
AcDbLine
 10
0.0
 20
0.0
 30
0.0
 11
-1.0
 21
0.0
 31
0.0
  0
ENDBLK
  5
53
330
51
100
AcDbEntity
  8
0
100
AcDbBlockEnd
  0
BLOCK
  5
63
330
62
100
AcDbEntity
  8
0
100
AcDbBlockBegin
  2
_DOT
 70
     0
 71
     0
 10
0.0
 20
0.0
 30
0.0
  3
_DOT
  1

  0
POLYLINE
  5
65
330
62
100
AcDbEntity
  8
0
  6
BYBLOCK
 62
     0
100
AcDb2dPolyline
 66
     1
 10
0.0
 20
0.0
 30
0.0
 70
     1
 40
0.5
 41
0.5
  0
VERTEX
  5
68
330
65
100
AcDbEntity
  8
0
  6
BYBLOCK
 62
     0
100
AcDbVertex
100
AcDb2dVertex
 10
-0.25
 20
0.0
 30
0.0
 42
1.0
  0
VERTEX
  5
69
330
65
100
AcDbEntity
  8
0
  6
BYBLOCK
 62
     0
100
AcDbVertex
100
AcDb2dVertex
 10
0.25
 20
0.0
 30
0.0
 42
1.0
  0
SEQEND
  5
67
330
65
100
AcDbEntity
  8
0
  6
BYBLOCK
 62
     0
  0
LINE
  5
66
330
62
100
AcDbEntity
  8
0
  6
BYBLOCK
 62
     0
100
AcDbLine
 10
-0.5
 20
0.0
 30
0.0
 11
-1.0
 21
0.0
 31
0.0
  0
ENDBLK
  5
64
330
62
100
AcDbEntity
  8
0
100
AcDbBlockEnd
  0
BLOCK
  5
D9
330
D3
100
AcDbEntity
  8
0
100
AcDbBlockBegin
  2
LW_POLYLINE_1
 70
     0
 71
     0
 10
200.000031
 20
287.000183
 30
0.0
  3
LW_POLYLINE_1
  1

  0
LINE
  5
D4
330
D3
100
AcDbEntity
  8
CARTOUCHE
  6
CONTINUOUS
 62
     0
100
AcDbLine
 10
200.000031
 20
287.000183
 30
0.0
 11
200.000031
 21
0.000183
 31
0.0
  0
LINE
  5
D5
330
D3
100
AcDbEntity
  8
CARTOUCHE
  6
CONTINUOUS
 62
     0
100
AcDbLine
 10
200.000031
 20
0.000183
 30
0.0
 11
-0.000006
 21
0.0
 31
0.0
  0
LINE
  5
D6
330
D3
100
AcDbEntity
  8
CARTOUCHE
  6
CONTINUOUS
 62
     0
100
AcDbLine
 10
-0.000006
 20
0.0
 30
0.0
 11
-0.000006
 21
287.0
 31
0.0
  0
LINE
  5
D7
330
D3
100
AcDbEntity
  8
CARTOUCHE
  6
CONTINUOUS
 62
     0
100
AcDbLine
 10
-0.000006
 20
287.0
 30
0.0
 11
199.999768
 21
287.000183
 31
0.0
  0
LINE
  5
D8
330
D3
100
AcDbEntity
  8
CARTOUCHE
  6
CONTINUOUS
 62
     0
100
AcDbLine
 10
199.999768
 20
287.000183
 30
0.0
 11
200.000031
 21
287.000183
 31
0.0
  0
ENDBLK
  5
DA
330
D3
100
AcDbEntity
  8
0
100
AcDbBlockEnd
  0
BLOCK
  5
1BB
330
1B1
100
AcDbEntity
  8
0
100
AcDbBlockBegin
  2
*D4
 70
     1
 71
     0
 10
0.0
 20
0.0
 30
0.0
  3
*D4
  1

  0
LINE
  5
1B2
330
1B1
100
AcDbEntity
  8
DIM
  6
CONTINUOUS
 62
     3
100
AcDbLine
 10
88.938092
 20
112.749729
 30
0.0
 11
80.879326
 21
112.749729
 31
0.0
  0
LINE
  5
1B3
330
1B1
100
AcDbEntity
  8
DIM
  6
CONTINUOUS
 62
     3
100
AcDbLine
 10
92.138092
 20
143.299744
 30
0.0
 11
80.879326
 21
143.299744
 31
0.0
  0
LINE
  5
1B4
330
1B1
100
AcDbEntity
  8
DIM
  6
CONTINUOUS
 62
     3
100
AcDbLine
 10
82.629326
 20
113.949729
 30
0.0
 11
82.629326
 21
142.099744
 31
0.0
  0
INSERT
  5
1B5
330
1B1
100
AcDbEntity
  8
DIM
 62
     3
100
AcDbBlockReference
  2
_CLOSED
 10
82.629326
 20
112.749729
 30
0.0
 41
1.2
 42
1.2
 43
1.2
 50
270.0
  0
INSERT
  5
1B6
330
1B1
100
AcDbEntity
  8
DIM
 62
     3
100
AcDbBlockReference
  2
_CLOSED
 10
82.629326
 20
143.299744
 30
0.0
 41
1.2
 42
1.2
 43
1.2
 50
90.0
  0
MTEXT
  5
1B7
330
1B1
100
AcDbEntity
  8
DIM
 62
     2
100
AcDbMText
 10
78.41202
 20
128.024736
 30
0.0
 40
3.5
 41
0.0
 71
     5
 72
     1
  1
\A1;30.5
  7
FINDER
 11
-6.367816702053116E-9
 21
1.0
 31
0.0
  0
POINT
  5
1B8
330
1B1
100
AcDbEntity
  8
DEFPOINTS
 62
     0
100
AcDbPoint
 10
89.238092
 20
112.749729
 30
0.0
  0
POINT
  5
1B9
330
1B1
100
AcDbEntity
  8
DEFPOINTS
 62
     0
100
AcDbPoint
 10
92.438092
 20
143.299744
 30
0.0
  0
POINT
  5
1BA
330
1B1
100
AcDbEntity
  8
DEFPOINTS
 62
     0
100
AcDbPoint
 10
82.629326
 20
143.299744
 30
0.0
  0
ENDBLK
  5
1BC
330
1B1
100
AcDbEntity
  8
0
100
AcDbBlockEnd
  0
BLOCK
  5
1C8
330
1BE
100
AcDbEntity
  8
0
100
AcDbBlockBegin
  2
*D5
 70
     1
 71
     0
 10
0.0
 20
0.0
 30
0.0
  3
*D5
  1

  0
LINE
  5
1BF
330
1BE
100
AcDbEntity
  8
DIM
  6
CONTINUOUS
 62
     3
100
AcDbLine
 10
91.404118
 20
177.099742
 30
0.0
 11
80.879324
 21
177.099742
 31
0.0
  0
LINE
  5
1C0
330
1BE
100
AcDbEntity
  8
DIM
  6
CONTINUOUS
 62
     3
100
AcDbLine
 10
92.138092
 20
143.299744
 30
0.0
 11
80.879327
 21
143.299743
 31
0.0
  0
LINE
  5
1C1
330
1BE
100
AcDbEntity
  8
DIM
  6
CONTINUOUS
 62
     3
100
AcDbLine
 10
82.629324
 20
175.899742
 30
0.0
 11
82.629327
 21
144.499743
 31
0.0
  0
INSERT
  5
1C2
330
1BE
100
AcDbEntity
  8
DIM
 62
     3
100
AcDbBlockReference
  2
_CLOSED
 10
82.629324
 20
177.099742
 30
0.0
 41
1.2
 42
1.2
 43
1.2
 50
90.000004
  0
INSERT
  5
1C3
330
1BE
100
AcDbEntity
  8
DIM
 62
     3
100
AcDbBlockReference
  2
_CLOSED
 10
82.629327
 20
143.299743
 30
0.0
 41
1.2
 42
1.2
 43
1.2
 50
270.000004
  0
MTEXT
  5
1C4
330
1BE
100
AcDbEntity
  8
DIM
 62
     2
100
AcDbMText
 10
78.41202
 20
160.199742
 30
0.0
 40
3.5
 41
0.0
 71
     5
 72
     1
  1
\A1;33.8
  7
FINDER
 11
-7.782975267232890E-8
 21
0.9999999999999971
 31
0.0
  0
POINT
  5
1C5
330
1BE
100
AcDbEntity
  8
DEFPOINTS
 62
     0
100
AcDbPoint
 10
91.704118
 20
177.099742
 30
0.0
  0
POINT
  5
1C6
330
1BE
100
AcDbEntity
  8
DEFPOINTS
 62
     0
100
AcDbPoint
 10
92.438092
 20
143.299744
 30
0.0
  0
POINT
  5
1C7
330
1BE
100
AcDbEntity
  8
DEFPOINTS
 62
     0
100
AcDbPoint
 10
82.629327
 20
143.299743
 30
0.0
  0
ENDBLK
  5
1C9
330
1BE
100
AcDbEntity
  8
0
100
AcDbBlockEnd
  0
BLOCK
  5
1D5
330
1CB
100
AcDbEntity
  8
0
100
AcDbBlockBegin
  2
*D6
 70
     1
 71
     0
 10
0.0
 20
0.0
 30
0.0
  3
*D6
  1

  0
LINE
  5
1CC
330
1CB
100
AcDbEntity
  8
DIM
  6
CONTINUOUS
 62
     3
100
AcDbLine
 10
149.538092
 20
181.399742
 30
0.0
 11
149.538092
 21
208.702271
 31
0.0
  0
LINE
  5
1CD
330
1CB
100
AcDbEntity
  8
DIM
  6
CONTINUOUS
 62
     3
100
AcDbLine
 10
88.738092
 20
184.399742
 30
0.0
 11
88.738092
 21
208.702271
 31
0.0
  0
LINE
  5
1CE
330
1CB
100
AcDbEntity
  8
DIM
  6
CONTINUOUS
 62
     3
100
AcDbLine
 10
148.338092
 20
206.952271
 30
0.0
 11
89.938092
 21
206.952271
 31
0.0
  0
INSERT
  5
1CF
330
1CB
100
AcDbEntity
  8
DIM
 62
     3
100
AcDbBlockReference
  2
_CLOSED
 10
149.538092
 20
206.952271
 30
0.0
 41
1.2
 42
1.2
 43
1.2
  0
INSERT
  5
1D0
330
1CB
100
AcDbEntity
  8
DIM
 62
     3
100
AcDbBlockReference
  2
_CLOSED
 10
88.738092
 20
206.952271
 30
0.0
 41
1.2
 42
1.2
 43
1.2
 50
180.0
  0
MTEXT
  5
1D1
330
1CB
100
AcDbEntity
  8
DIM
 62
     2
100
AcDbMText
 10
118.655495
 20
211.169577
 30
0.0
 40
3.5
 41
0.0
 71
     5
 72
     1
  1
\A1;60.8
  7
FINDER
  0
POINT
  5
1D2
330
1CB
100
AcDbEntity
  8
DEFPOINTS
 62
     0
100
AcDbPoint
 10
149.538092
 20
181.099742
 30
0.0
  0
POINT
  5
1D3
330
1CB
100
AcDbEntity
  8
DEFPOINTS
 62
     0
100
AcDbPoint
 10
88.738092
 20
184.099742
 30
0.0
  0
POINT
  5
1D4
330
1CB
100
AcDbEntity
  8
DEFPOINTS
 62
     0
100
AcDbPoint
 10
88.738092
 20
206.952271
 30
0.0
  0
ENDBLK
  5
1D6
330
1CB
100
AcDbEntity
  8
0
100
AcDbBlockEnd
  0
BLOCK
  5
1E2
330
1D8
100
AcDbEntity
  8
0
100
AcDbBlockBegin
  2
*D7
 70
     1
 71
     0
 10
0.0
 20
0.0
 30
0.0
  3
*D7
  1

  0
LINE
  5
1D9
330
1D8
100
AcDbEntity
  8
DIM
  6
CONTINUOUS
 62
     3
100
AcDbLine
 10
147.838092
 20
182.099742
 30
0.0
 11
162.952301
 21
182.099742
 31
0.0
  0
LINE
  5
1DA
330
1D8
100
AcDbEntity
  8
DIM
  6
CONTINUOUS
 62
     3
100
AcDbLine
 10
147.838092
 20
137.099742
 30
0.0
 11
162.952301
 21
137.099742
 31
0.0
  0
LINE
  5
1DB
330
1D8
100
AcDbEntity
  8
DIM
  6
CONTINUOUS
 62
     3
100
AcDbLine
 10
161.202301
 20
180.899742
 30
0.0
 11
161.202301
 21
138.299742
 31
0.0
  0
INSERT
  5
1DC
330
1D8
100
AcDbEntity
  8
DIM
 62
     3
100
AcDbBlockReference
  2
_CLOSED
 10
161.202301
 20
182.099742
 30
0.0
 41
1.2
 42
1.2
 43
1.2
 50
90.0
  0
INSERT
  5
1DD
330
1D8
100
AcDbEntity
  8
DIM
 62
     3
100
AcDbBlockReference
  2
_CLOSED
 10
161.202301
 20
137.099742
 30
0.0
 41
1.2
 42
1.2
 43
1.2
 50
270.0
  0
MTEXT
  5
1DE
330
1D8
100
AcDbEntity
  8
DIM
 62
     2
100
AcDbMText
 10
156.991995
 20
159.599742
 30
0.0
 40
3.5
 41
0.0
 71
     5
 72
     1
  1
\A1;45
  7
FINDER
 11
0.0
 21
1.0
 31
0.0
  0
POINT
  5
1DF
330
1D8
100
AcDbEntity
  8
DEFPOINTS
 62
     0
100
AcDbPoint
 10
147.538092
 20
182.099742
 30
0.0
  0
POINT
  5
1E0
330
1D8
100
AcDbEntity
  8
DEFPOINTS
 62
     0
100
AcDbPoint
 10
147.538092
 20
137.099742
 30
0.0
  0
POINT
  5
1E1
330
1D8
100
AcDbEntity
  8
DEFPOINTS
 62
     0
100
AcDbPoint
 10
161.202301
 20
137.099742
 30
0.0
  0
ENDBLK
  5
1E3
330
1D8
100
AcDbEntity
  8
0
100
AcDbBlockEnd
  0
BLOCK
  5
1EF
330
1E5
100
AcDbEntity
  8
0
100
AcDbBlockBegin
  2
*D8
 70
     1
 71
     0
 10
0.0
 20
0.0
 30
0.0
  3
*D8
  1

  0
LINE
  5
1E6
330
1E5
100
AcDbEntity
  8
DIM
  6
CONTINUOUS
 62
     3
100
AcDbLine
 10
116.838092
 20
201.599742
 30
0.0
 11
172.291382
 21
201.599742
 31
0.0
  0
LINE
  5
1E7
330
1E5
100
AcDbEntity
  8
DIM
  6
CONTINUOUS
 62
     3
100
AcDbLine
 10
116.838092
 20
117.599742
 30
0.0
 11
172.291382
 21
117.599742
 31
0.0
  0
LINE
  5
1E8
330
1E5
100
AcDbEntity
  8
DIM
  6
CONTINUOUS
 62
     3
100
AcDbLine
 10
170.541382
 20
200.399742
 30
0.0
 11
170.541382
 21
118.799742
 31
0.0
  0
INSERT
  5
1E9
330
1E5
100
AcDbEntity
  8
DIM
 62
     3
100
AcDbBlockReference
  2
_CLOSED
 10
170.541382
 20
201.599742
 30
0.0
 41
1.2
 42
1.2
 43
1.2
 50
90.0
  0
INSERT
  5
1EA
330
1E5
100
AcDbEntity
  8
DIM
 62
     3
100
AcDbBlockReference
  2
_CLOSED
 10
170.541382
 20
117.599742
 30
0.0
 41
1.2
 42
1.2
 43
1.2
 50
270.0
  0
MTEXT
  5
1EB
330
1E5
100
AcDbEntity
  8
DIM
 62
     2
100
AcDbMText
 10
166.324076
 20
159.599742
 30
0.0
 40
3.5
 41
0.0
 71
     5
 72
     1
  1
\A1;84
  7
FINDER
 11
0.0
 21
1.0
 31
0.0
  0
POINT
  5
1EC
330
1E5
100
AcDbEntity
  8
DEFPOINTS
 62
     0
100
AcDbPoint
 10
116.538092
 20
201.599742
 30
0.0
  0
POINT
  5
1ED
330
1E5
100
AcDbEntity
  8
DEFPOINTS
 62
     0
100
AcDbPoint
 10
116.538092
 20
117.599742
 30
0.0
  0
POINT
  5
1EE
330
1E5
100
AcDbEntity
  8
DEFPOINTS
 62
     0
100
AcDbPoint
 10
170.541382
 20
117.599742
 30
0.0
  0
ENDBLK
  5
1F0
330
1E5
100
AcDbEntity
  8
0
100
AcDbBlockEnd
  0
BLOCK
  5
3AB
330
3A1
100
AcDbEntity
  8
0
100
AcDbBlockBegin
  2
*D9
 70
     1
 71
     0
 10
0.0
 20
0.0
 30
0.0
  3
*D9
  1

  0
LINE
  5
3A2
330
3A1
100
AcDbEntity
  8
DIM
  6
CONTINUOUS
 62
     3
100
AcDbLine
 10
50.121403
 20
199.89975
 30
0.0
 11
50.121403
 21
208.702271
 31
0.0
  0
LINE
  5
3A3
330
3A1
100
AcDbEntity
  8
DIM
  6
CONTINUOUS
 62
     3
100
AcDbLine
 10
67.621403
 20
199.89975
 30
0.0
 11
67.621403
 21
208.702271
 31
0.0
  0
LINE
  5
3A4
330
3A1
100
AcDbEntity
  8
DIM
  6
CONTINUOUS
 62
     3
100
AcDbLine
 10
51.321403
 20
206.952271
 30
0.0
 11
66.421403
 21
206.952271
 31
0.0
  0
INSERT
  5
3A5
330
3A1
100
AcDbEntity
  8
DIM
 62
     3
100
AcDbBlockReference
  2
_CLOSED
 10
50.121403
 20
206.952271
 30
0.0
 41
1.2
 42
1.2
 43
1.2
 50
180.0
  0
INSERT
  5
3A6
330
3A1
100
AcDbEntity
  8
DIM
 62
     3
100
AcDbBlockReference
  2
_CLOSED
 10
67.621403
 20
206.952271
 30
0.0
 41
1.2
 42
1.2
 43
1.2
  0
MTEXT
  5
3A7
330
3A1
100
AcDbEntity
  8
DIM
 62
     2
100
AcDbMText
 10
58.871403
 20
211.169577
 30
0.0
 40
3.5
 41
0.0
 71
     5
 72
     1
  1
\A1;17.5
  7
FINDER
  0
POINT
  5
3A8
330
3A1
100
AcDbEntity
  8
DEFPOINTS
 62
     0
100
AcDbPoint
 10
50.121403
 20
199.59975
 30
0.0
  0
POINT
  5
3A9
330
3A1
100
AcDbEntity
  8
DEFPOINTS
 62
     0
100
AcDbPoint
 10
67.621403
 20
199.59975
 30
0.0
  0
POINT
  5
3AA
330
3A1
100
AcDbEntity
  8
DEFPOINTS
 62
     0
100
AcDbPoint
 10
67.621403
 20
206.952271
 30
0.0
  0
ENDBLK
  5
3AC
330
3A1
100
AcDbEntity
  8
0
100
AcDbBlockEnd
  0
BLOCK
  5
3B8
330
3AE
100
AcDbEntity
  8
0
100
AcDbBlockBegin
  2
*D10
 70
     1
 71
     0
 10
0.0
 20
0.0
 30
0.0
  3
*D10
  1

  0
LINE
  5
3AF
330
3AE
100
AcDbEntity
  8
DIM
  6
CONTINUOUS
 62
     3
100
AcDbLine
 10
50.221402
 20
201.59975
 30
0.0
 11
40.978416
 21
201.59975
 31
0.0
  0
LINE
  5
3B0
330
3AE
100
AcDbEntity
  8
DIM
  6
CONTINUOUS
 62
     3
100
AcDbLine
 10
58.5621
 20
112.74975
 30
0.0
 11
40.978416
 21
112.74975
 31
0.0
  0
LINE
  5
3B1
330
3AE
100
AcDbEntity
  8
DIM
  6
CONTINUOUS
 62
     3
100
AcDbLine
 10
42.728416
 20
200.39975
 30
0.0
 11
42.728416
 21
113.94975
 31
0.0
  0
INSERT
  5
3B2
330
3AE
100
AcDbEntity
  8
DIM
 62
     3
100
AcDbBlockReference
  2
_CLOSED
 10
42.728416
 20
201.59975
 30
0.0
 41
1.2
 42
1.2
 43
1.2
 50
90.0
  0
INSERT
  5
3B3
330
3AE
100
AcDbEntity
  8
DIM
 62
     3
100
AcDbBlockReference
  2
_CLOSED
 10
42.728416
 20
112.74975
 30
0.0
 41
1.2
 42
1.2
 43
1.2
 50
270.0
  0
MTEXT
  5
3B4
330
3AE
100
AcDbEntity
  8
DIM
 62
     2
100
AcDbMText
 10
38.51111
 20
157.17475
 30
0.0
 40
3.5
 41
0.0
 71
     5
 72
     1
  1
\A1;88.8
  7
FINDER
 11
7.997104511727755E-17
 21
1.0
 31
0.0
  0
POINT
  5
3B5
330
3AE
100
AcDbEntity
  8
DEFPOINTS
 62
     0
100
AcDbPoint
 10
50.521402
 20
201.59975
 30
0.0
  0
POINT
  5
3B6
330
3AE
100
AcDbEntity
  8
DEFPOINTS
 62
     0
100
AcDbPoint
 10
58.8621
 20
112.74975
 30
0.0
  0
POINT
  5
3B7
330
3AE
100
AcDbEntity
  8
DEFPOINTS
 62
     0
100
AcDbPoint
 10
42.728416
 20
112.74975
 30
0.0
  0
ENDBLK
  5
3B9
330
3AE
100
AcDbEntity
  8
0
100
AcDbBlockEnd
  0
ENDSEC
  0
SECTION
  2
ENTITIES
  0
HATCH
  5
6A
330
1F
100
AcDbEntity
  8
CARTOUCHE
  6
CONTINUOUS
 62
     4
100
AcDbHatch
 10
0.0
 20
0.0
 30
0.0
210
0.0
220
0.0
230
1.0
  2
ANSI_31
 70
     0
 71
     0
 91
        1
 92
        1
 93
       16
 72
     1
 10
15.67905299999995
 20
19.93181348242183
 11
16.08752300000003
 21
19.93181348242183
 72
     1
 10
16.08752300000003
 20
19.93181348242183
 11
16.08752300000003
 21
20.83496348242187
 72
     1
 10
16.08752300000003
 20
20.83496348242187
 11
14.58025899999996
 21
20.83496348242187
 72
     2
 10
14.58025899999996
 20
19.92937048242186
 40
0.9056390000000064
 50
89.99998127603074
 51
180.0000198478416
 73
     1
 72
     1
 10
13.674623
 20
19.92937048242186
 11
13.674623
 21
19.50836348242183
 72
     1
 10
13.674623
 20
19.50836348242183
 11
13.13732300000004
 21
19.50836348242183
 72
     1
 10
13.13732300000004
 20
19.50836348242183
 11
13.13732300000004
 21
18.41081348242187
 72
     1
 10
13.13732300000004
 20
18.41081348242187
 11
13.674623
 21
18.41081348242187
 72
     1
 10
13.674623
 20
18.41081348242187
 11
13.674623
 21
15.63206348242187
 72
     1
 10
13.674623
 20
15.63206348242187
 11
15.47012299999994
 21
15.63206348242187
 72
     1
 10
15.47012299999994
 20
15.63206348242187
 11
15.47012299999994
 21
18.41081348242187
 72
     1
 10
15.47012299999994
 20
18.41081348242187
 11
16.08752300000003
 21
18.41081348242187
 72
     1
 10
16.08752300000003
 20
18.41081348242187
 11
16.08752300000003
 21
19.50836348242183
 72
     1
 10
16.08752300000003
 20
19.50836348242183
 11
15.41297299999997
 21
19.50836348242183
 72
     1
 10
15.41297299999997
 20
19.50836348242183
 11
15.46107900000004
 21
19.76859148242187
 72
     2
 10
15.70598800000004
 20
19.66868548242185
 40
0.2645029999999212
 50
202.1921825436276
 51
264.155333551653
 73
     0
 97
        0
 75
     0
 76
     2
 52
0.0
 41
0.062992
 77
     0
 78
     1
 53
44.99999999988837
 43
0.0
 44
0.0
 45
-3.592095212307267
 46
3.592095212321264
 79
     0
 98
        0
  0
HATCH
  5
6B
330
1F
100
AcDbEntity
  8
CARTOUCHE
  6
CONTINUOUS
 62
     4
100
AcDbHatch
 10
0.0
 20
0.0
 30
0.0
210
0.0
220
0.0
230
1.0
  2
ANSI_31
 70
     0
 71
     0
 91
        1
 92
        1
 93
        4
 72
     1
 10
659.2770281757812
 20
320.1824366269531
 11
659.2770281757812
 21
319.2905366269531
 72
     1
 10
659.2770281757812
 20
319.2905366269531
 11
661.0950281757813
 21
319.2905366269531
 72
     1
 10
661.0950281757813
 20
319.2905366269531
 11
661.0950281757813
 21
320.1824366269531
 72
     1
 10
661.0950281757813
 20
320.1824366269531
 11
659.2770281757812
 21
320.1824366269531
 97
        0
 75
     0
 76
     2
 52
0.0
 41
0.062992
 77
     0
 78
     1
 53
44.99999999988837
 43
0.0
 44
0.0
 45
-3.592095212307267
 46
3.592095212321264
 79
     0
 98
        0
  0
LINE
  5
6C
330
1F
100
AcDbEntity
  8
CARTOUCHE
  6
CONTINUOUS
 62
     7
100
AcDbLine
 10
200.000037
 20
5.000793
 30
0.0
 11
0.0
 21
5.001068
 31
0.0
  0
LINE
  5
6D
330
1F
100
AcDbEntity
  8
CARTOUCHE
  6
CONTINUOUS
 62
     7
100
AcDbLine
 10
45.000001
 20
31.845393
 30
0.0
 11
45.000001
 21
0.000041
 31
0.0
  0
TEXT
  5
6E
330
1F
100
AcDbEntity
  8
CARTOUCHE
  6
CONTINUOUS
 62
     7
100
AcDbText
 10
114.72242
 20
27.435966
 30
0.0
 40
1.8
  1
PRODUCT TYPE
 50
359.999908
 41
0.64
  7
FINDER
100
AcDbText
  0
TEXT
  5
6F
330
1F
100
AcDbEntity
  8
CARTOUCHE
  6
CONTINUOUS
 62
     2
100
AcDbText
 10
14.493931
 20
1.600975
 30
0.0
 40
1.8
  1
MOD. UT 902
 50
359.999908
 41
0.84
  7
FINDER
100
AcDbText
  0
LINE
  5
70
330
1F
100
AcDbEntity
  8
CARTOUCHE
  6
CONTINUOUS
 62
     7
100
AcDbLine
 10
200.000008
 20
15.002808
 30
0.0
 11
44.999973
 21
15.003045
 31
0.0
  0
TEXT
  5
71
330
1F
100
AcDbEntity
  8
CARTOUCHE
  6
CONTINUOUS
 62
     7
100
AcDbText
 10
68.494064
 20
11.624306
 30
0.0
 40
1.8
  1
REV.
 50
359.999908
 41
0.7
  7
FINDER
100
AcDbText
  0
TEXT
  5
72
330
1F
100
AcDbEntity
  8
CARTOUCHE
  6
CONTINUOUS
 62
     1
100
AcDbText
 10
70.188141
 20
6.776279
 30
0.0
 40
2.1
  1
0
 50
359.999908
  7
FINDER
100
AcDbText
  0
LINE
  5
73
330
1F
100
AcDbEntity
  8
CARTOUCHE
  6
CONTINUOUS
 62
     7
100
AcDbLine
 10
96.666651
 20
15.002966
 30
0.0
 11
96.666651
 21
5.001024
 31
0.0
  0
LINE
  5
74
330
1F
100
AcDbEntity
  8
CARTOUCHE
  6
CONTINUOUS
 62
     4
100
AcDbLine
 10
7.362923
 20
22.655485
 30
0.0
 11
7.362923
 21
16.810194
 31
0.0
  0
LINE
  5
75
330
1F
100
AcDbEntity
  8
CARTOUCHE
  6
CONTINUOUS
 62
     4
100
AcDbLine
 10
7.362923
 20
16.810194
 30
0.0
 11
5.887823
 21
18.410844
 31
0.0
  0
LINE
  5
76
330
1F
100
AcDbEntity
  8
CARTOUCHE
  6
CONTINUOUS
 62
     4
100
AcDbLine
 10
5.887823
 20
18.410844
 30
0.0
 11
6.116423
 21
18.410844
 31
0.0
  0
LINE
  5
77
330
1F
100
AcDbEntity
  8
CARTOUCHE
  6
CONTINUOUS
 62
     4
100
AcDbLine
 10
6.413873
 20
18.766514
 30
0.0
 11
6.413873
 21
22.652621
 31
0.0
  0
LINE
  5
78
330
1F
100
AcDbEntity
  8
CARTOUCHE
  6
CONTINUOUS
 62
     4
100
AcDbLine
 10
5.464823
 20
22.399506
 30
0.0
 11
5.464823
 21
19.428744
 31
0.0
  0
LINE
  5
79
330
1F
100
AcDbEntity
  8
CARTOUCHE
  6
CONTINUOUS
 62
     4
100
AcDbLine
 10
5.464823
 20
19.428744
 30
0.0
 11
3.174776
 21
19.428744
 31
0.0
  0
LINE
  5
7A
330
1F
100
AcDbEntity
  8
CARTOUCHE
  6
CONTINUOUS
 62
     4
100
AcDbLine
 10
3.176313
 20
18.410844
 30
0.0
 11
4.378523
 21
18.410844
 31
0.0
  0
LINE
  5
7B
330
1F
100
AcDbEntity
  8
CARTOUCHE
  6
CONTINUOUS
 62
     4
100
AcDbLine
 10
4.378523
 20
18.410844
 30
0.0
 11
7.173699
 21
15.668328
 31
0.0
  0
LINE
  5
7C
330
1F
100
AcDbEntity
  8
CARTOUCHE
  6
CONTINUOUS
 62
     4
100
AcDbLine
 10
8.323223
 20
16.169844
 30
0.0
 11
8.323223
 21
19.508394
 31
0.0
  0
LINE
  5
7D
330
1F
100
AcDbEntity
  8
CARTOUCHE
  6
CONTINUOUS
 62
     4
100
AcDbLine
 10
8.323223
 20
19.508394
 30
0.0
 11
9.455423
 21
19.508394
 31
0.0
  0
LINE
  5
7E
330
1F
100
AcDbEntity
  8
CARTOUCHE
  6
CONTINUOUS
 62
     4
100
AcDbLine
 10
9.353656
 20
20.503344
 30
0.0
 11
8.323223
 21
20.503344
 31
0.0
  0
LINE
  5
7F
330
1F
100
AcDbEntity
  8
CARTOUCHE
  6
CONTINUOUS
 62
     4
100
AcDbLine
 10
8.323223
 20
20.503344
 30
0.0
 11
8.323223
 21
22.404134
 31
0.0
  0
LINE
  5
80
330
1F
100
AcDbEntity
  8
CARTOUCHE
  6
CONTINUOUS
 62
     4
100
AcDbLine
 10
23.108423
 20
17.479034
 30
0.0
 11
23.108423
 21
15.632094
 31
0.0
  0
LINE
  5
81
330
1F
100
AcDbEntity
  8
CARTOUCHE
  6
CONTINUOUS
 62
     4
100
AcDbLine
 10
23.108423
 20
15.632094
 30
0.0
 11
24.892223
 21
15.632094
 31
0.0
  0
LINE
  5
82
330
1F
100
AcDbEntity
  8
CARTOUCHE
  6
CONTINUOUS
 62
     4
100
AcDbLine
 10
24.892223
 20
15.632094
 30
0.0
 11
24.892223
 21
18.324553
 31
0.0
  0
LINE
  5
83
330
1F
100
AcDbEntity
  8
CARTOUCHE
  6
CONTINUOUS
 62
     4
100
AcDbLine
 10
21.289973
 20
19.074144
 30
0.0
 11
21.289973
 21
19.508394
 31
0.0
  0
LINE
  5
84
330
1F
100
AcDbEntity
  8
CARTOUCHE
  6
CONTINUOUS
 62
     4
100
AcDbLine
 10
21.289973
 20
19.508394
 30
0.0
 11
19.494923
 21
19.508394
 31
0.0
  0
LINE
  5
85
330
1F
100
AcDbEntity
  8
CARTOUCHE
  6
CONTINUOUS
 62
     4
100
AcDbLine
 10
19.494923
 20
19.508394
 30
0.0
 11
19.494923
 21
15.632094
 31
0.0
  0
LINE
  5
86
330
1F
100
AcDbEntity
  8
CARTOUCHE
  6
CONTINUOUS
 62
     4
100
AcDbLine
 10
19.494923
 20
15.632094
 30
0.0
 11
21.289973
 21
15.632094
 31
0.0
  0
LINE
  5
87
330
1F
100
AcDbEntity
  8
CARTOUCHE
  6
CONTINUOUS
 62
     4
100
AcDbLine
 10
21.289973
 20
15.632094
 30
0.0
 11
21.289973
 21
17.433499
 31
0.0
  0
LINE
  5
88
330
1F
100
AcDbEntity
  8
CARTOUCHE
  6
CONTINUOUS
 62
     4
100
AcDbLine
 10
30.986573
 20
20.823744
 30
0.0
 11
30.986573
 21
15.620844
 31
0.0
  0
LINE
  5
89
330
1F
100
AcDbEntity
  8
CARTOUCHE
  6
CONTINUOUS
 62
     4
100
AcDbLine
 10
30.986573
 20
15.620844
 30
0.0
 11
29.191523
 21
15.620844
 31
0.0
  0
LINE
  5
8A
330
1F
100
AcDbEntity
  8
CARTOUCHE
  6
CONTINUOUS
 62
     4
100
AcDbLine
 10
29.191523
 20
19.319904
 30
0.0
 11
29.191523
 21
20.823744
 31
0.0
  0
LINE
  5
8B
330
1F
100
AcDbEntity
  8
CARTOUCHE
  6
CONTINUOUS
 62
     4
100
AcDbLine
 10
29.191523
 20
20.823744
 30
0.0
 11
30.986573
 21
20.823744
 31
0.0
  0
LINE
  5
8C
330
1F
100
AcDbEntity
  8
CARTOUCHE
  6
CONTINUOUS
 62
     4
100
AcDbLine
 10
37.732973
 20
19.508394
 30
0.0
 11
39.459623
 21
19.508394
 31
0.0
  0
LINE
  5
8D
330
1F
100
AcDbEntity
  8
CARTOUCHE
  6
CONTINUOUS
 62
     4
100
AcDbLine
 10
39.459623
 20
19.508394
 30
0.0
 11
39.459623
 21
19.165494
 31
0.0
  0
LINE
  5
8E
330
1F
100
AcDbEntity
  8
CARTOUCHE
  6
CONTINUOUS
 62
     4
100
AcDbLine
 10
42.283823
 20
17.587794
 30
0.0
 11
40.454573
 21
17.587794
 31
0.0
  0
LINE
  5
8F
330
1F
100
AcDbEntity
  8
CARTOUCHE
  6
CONTINUOUS
 62
     4
100
AcDbLine
 10
40.454573
 20
17.587794
 30
0.0
 11
40.454573
 21
17.827644
 31
0.0
  0
LINE
  5
90
330
1F
100
AcDbEntity
  8
CARTOUCHE
  6
CONTINUOUS
 62
     4
100
AcDbLine
 10
39.459623
 20
17.782194
 30
0.0
 11
39.459623
 21
15.632094
 31
0.0
  0
LINE
  5
91
330
1F
100
AcDbEntity
  8
CARTOUCHE
  6
CONTINUOUS
 62
     4
100
AcDbLine
 10
39.459623
 20
15.632094
 30
0.0
 11
37.732973
 21
15.632094
 31
0.0
  0
LINE
  5
92
330
1F
100
AcDbEntity
  8
CARTOUCHE
  6
CONTINUOUS
 62
     4
100
AcDbLine
 10
37.732973
 20
15.632094
 30
0.0
 11
37.732973
 21
19.508394
 31
0.0
  0
LINE
  5
93
330
1F
100
AcDbEntity
  8
CARTOUCHE
  6
CONTINUOUS
 62
     4
100
AcDbLine
 10
34.154123
 20
17.244444
 30
0.0
 11
34.051073
 21
17.244444
 31
0.0
  0
LINE
  5
94
330
1F
100
AcDbEntity
  8
CARTOUCHE
  6
CONTINUOUS
 62
     4
100
AcDbLine
 10
34.051073
 20
17.244444
 30
0.0
 11
33.364823
 21
17.244444
 31
0.0
  0
LINE
  5
95
330
1F
100
AcDbEntity
  8
CARTOUCHE
  6
CONTINUOUS
 62
     4
100
AcDbLine
 10
35.343023
 20
16.855644
 30
0.0
 11
37.103873
 21
16.855644
 31
0.0
  0
LINE
  5
96
330
1F
100
AcDbEntity
  8
CARTOUCHE
  6
CONTINUOUS
 62
     4
100
AcDbLine
 10
37.206923
 20
17.256144
 30
0.0
 11
34.154123
 21
17.244444
 31
0.0
  0
LINE
  5
97
330
1F
100
AcDbEntity
  8
CARTOUCHE
  6
CONTINUOUS
 62
     4
100
AcDbLine
 10
34.154123
 20
18.079194
 30
0.0
 11
35.343023
 21
18.079194
 31
0.0
  0
LINE
  5
98
330
1F
100
AcDbEntity
  8
CARTOUCHE
  6
CONTINUOUS
 62
     4
100
AcDbLine
 10
33.364823
 20
18.079194
 30
0.0
 11
34.154123
 21
18.079194
 31
0.0
  0
LINE
  5
99
330
1F
100
AcDbEntity
  8
CARTOUCHE
  6
CONTINUOUS
 62
     4
100
AcDbLine
 10
16.087523
 20
19.931844
 30
0.0
 11
16.087523
 21
20.834994
 31
0.0
  0
LINE
  5
9A
330
1F
100
AcDbEntity
  8
CARTOUCHE
  6
CONTINUOUS
 62
     4
100
AcDbLine
 10
16.087523
 20
20.834994
 30
0.0
 11
14.589473
 21
20.834994
 31
0.0
  0
LINE
  5
9B
330
1F
100
AcDbEntity
  8
CARTOUCHE
  6
CONTINUOUS
 62
     4
100
AcDbLine
 10
13.674623
 20
19.931844
 30
0.0
 11
13.674623
 21
19.508394
 31
0.0
  0
LINE
  5
9C
330
1F
100
AcDbEntity
  8
CARTOUCHE
  6
CONTINUOUS
 62
     4
100
AcDbLine
 10
13.674623
 20
19.508394
 30
0.0
 11
13.137323
 21
19.508394
 31
0.0
  0
LINE
  5
9D
330
1F
100
AcDbEntity
  8
CARTOUCHE
  6
CONTINUOUS
 62
     4
100
AcDbLine
 10
13.137323
 20
19.508394
 30
0.0
 11
13.137323
 21
18.410844
 31
0.0
  0
LINE
  5
9E
330
1F
100
AcDbEntity
  8
CARTOUCHE
  6
CONTINUOUS
 62
     4
100
AcDbLine
 10
13.137323
 20
18.410844
 30
0.0
 11
13.674623
 21
18.410844
 31
0.0
  0
LINE
  5
9F
330
1F
100
AcDbEntity
  8
CARTOUCHE
  6
CONTINUOUS
 62
     4
100
AcDbLine
 10
13.674623
 20
18.410844
 30
0.0
 11
13.674623
 21
15.632094
 31
0.0
  0
LINE
  5
A0
330
1F
100
AcDbEntity
  8
CARTOUCHE
  6
CONTINUOUS
 62
     4
100
AcDbLine
 10
13.674623
 20
15.632094
 30
0.0
 11
15.470123
 21
15.632094
 31
0.0
  0
LINE
  5
A1
330
1F
100
AcDbEntity
  8
CARTOUCHE
  6
CONTINUOUS
 62
     4
100
AcDbLine
 10
15.470123
 20
15.632094
 30
0.0
 11
15.470123
 21
18.410844
 31
0.0
  0
LINE
  5
A2
330
1F
100
AcDbEntity
  8
CARTOUCHE
  6
CONTINUOUS
 62
     4
100
AcDbLine
 10
15.470123
 20
18.410844
 30
0.0
 11
16.087523
 21
18.410844
 31
0.0
  0
LINE
  5
A3
330
1F
100
AcDbEntity
  8
CARTOUCHE
  6
CONTINUOUS
 62
     4
100
AcDbLine
 10
16.087523
 20
18.410844
 30
0.0
 11
16.087523
 21
19.508394
 31
0.0
  0
LINE
  5
A4
330
1F
100
AcDbEntity
  8
CARTOUCHE
  6
CONTINUOUS
 62
     4
100
AcDbLine
 10
16.087523
 20
19.508394
 30
0.0
 11
15.412973
 21
19.508394
 31
0.0
  0
LINE
  5
A5
330
1F
100
AcDbEntity
  8
CARTOUCHE
  6
CONTINUOUS
 62
     4
100
AcDbLine
 10
15.412973
 20
19.508394
 30
0.0
 11
15.461079
 21
19.768622
 31
0.0
  0
LINE
  5
A6
330
1F
100
AcDbEntity
  8
CARTOUCHE
  6
CONTINUOUS
 62
     4
100
AcDbLine
 10
15.679053
 20
19.931844
 30
0.0
 11
16.087523
 21
19.931844
 31
0.0
  0
LINE
  5
A7
330
1F
100
AcDbEntity
  8
CARTOUCHE
  6
CONTINUOUS
 62
     4
100
AcDbLine
 10
16.807973
 20
15.632094
 30
0.0
 11
16.807973
 21
19.508394
 31
0.0
  0
LINE
  5
A8
330
1F
100
AcDbEntity
  8
CARTOUCHE
  6
CONTINUOUS
 62
     4
100
AcDbLine
 10
16.807973
 20
19.508394
 30
0.0
 11
18.625973
 21
19.508394
 31
0.0
  0
LINE
  5
A9
330
1F
100
AcDbEntity
  8
CARTOUCHE
  6
CONTINUOUS
 62
     4
100
AcDbLine
 10
18.625973
 20
19.508394
 30
0.0
 11
18.625973
 21
15.632094
 31
0.0
  0
LINE
  5
AA
330
1F
100
AcDbEntity
  8
CARTOUCHE
  6
CONTINUOUS
 62
     4
100
AcDbLine
 10
18.625973
 20
15.632094
 30
0.0
 11
16.807973
 21
15.632094
 31
0.0
  0
LINE
  5
AB
330
1F
100
AcDbEntity
  8
CARTOUCHE
  6
CONTINUOUS
 62
     4
100
AcDbLine
 10
16.807973
 20
19.943094
 30
0.0
 11
16.807973
 21
20.834994
 31
0.0
  0
LINE
  5
AC
330
1F
100
AcDbEntity
  8
CARTOUCHE
  6
CONTINUOUS
 62
     4
100
AcDbLine
 10
16.807973
 20
20.834994
 30
0.0
 11
18.625973
 21
20.834994
 31
0.0
  0
LINE
  5
AD
330
1F
100
AcDbEntity
  8
CARTOUCHE
  6
CONTINUOUS
 62
     4
100
AcDbLine
 10
18.625973
 20
20.834994
 30
0.0
 11
18.625973
 21
19.943094
 31
0.0
  0
LINE
  5
AE
330
1F
100
AcDbEntity
  8
CARTOUCHE
  6
CONTINUOUS
 62
     4
100
AcDbLine
 10
18.625973
 20
19.943094
 30
0.0
 11
16.807973
 21
19.943094
 31
0.0
  0
ARC
  5
AF
330
1F
100
AcDbEntity
  8
CARTOUCHE
  6
CONTINUOUS
 62
     4
100
AcDbCircle
 10
14.580259
 20
19.929401
 30
0.0
 40
0.905639
100
AcDbArc
 50
90.0
 51
180.0
  0
ARC
  5
B0
330
1F
100
AcDbEntity
  8
CARTOUCHE
  6
CONTINUOUS
 62
     4
100
AcDbCircle
 10
15.705988
 20
19.668716
 30
0.0
 40
0.264503
100
AcDbArc
 50
95.844673
 51
157.807812
  0
ARC
  5
B1
330
1F
100
AcDbEntity
  8
CARTOUCHE
  6
CONTINUOUS
 62
     4
100
AcDbCircle
 10
23.675028
 20
18.264873
 30
0.0
 40
1.218658
100
AcDbArc
 50
2.806997
 51
66.545781
  0
ARC
  5
B2
330
1F
100
AcDbEntity
  8
CARTOUCHE
  6
CONTINUOUS
 62
     4
100
AcDbCircle
 10
23.067403
 20
16.045261
 30
0.0
 40
3.511892
100
AcDbArc
 50
71.872392
 51
120.405557
  0
ARC
  5
B3
330
1F
100
AcDbEntity
  8
CARTOUCHE
  6
CONTINUOUS
 62
     4
100
AcDbCircle
 10
22.457324
 20
17.479034
 30
0.0
 40
0.651124
100
AcDbArc
 50
0.0
 51
97.150683
  0
ARC
  5
B4
330
1F
100
AcDbEntity
  8
CARTOUCHE
  6
CONTINUOUS
 62
     4
100
AcDbCircle
 10
22.44381
 20
16.820079
 30
0.0
 40
1.306761
100
AcDbArc
 50
92.962513
 51
152.003324
  0
CIRCLE
  5
B5
330
1F
100
AcDbEntity
  8
CARTOUCHE
  6
CONTINUOUS
 62
     4
100
AcDbCircle
 10
6.899646
 20
18.925422
 30
0.0
 40
4.756723
  0
ARC
  5
B6
330
1F
100
AcDbEntity
  8
CARTOUCHE
  6
CONTINUOUS
 62
     4
100
AcDbCircle
 10
6.899651
 20
18.925417
 30
0.0
 40
3.758727
100
AcDbArc
 50
112.441032
 51
172.30447
  0
ARC
  5
B7
330
1F
100
AcDbEntity
  8
CARTOUCHE
  6
CONTINUOUS
 62
     4
100
AcDbCircle
 10
6.899651
 20
18.925417
 30
0.0
 40
3.758727
100
AcDbArc
 50
82.920154
 51
97.425676
  0
ARC
  5
B8
330
1F
100
AcDbEntity
  8
CARTOUCHE
  6
CONTINUOUS
 62
     4
100
AcDbCircle
 10
6.899651
 20
18.925417
 30
0.0
 40
3.758727
100
AcDbArc
 50
187.868554
 51
67.744476
  0
SPLINE
  5
B9
330
1F
100
AcDbEntity
  8
CARTOUCHE
  6
CONTINUOUS
 62
     4
100
AcDbSpline
210
0.0
220
0.0
230
1.0
 70
     8
 71
     3
 72
    36
 73
    32
 74
     0
 42
0.0
 43
0.0
 40
0.0
 40
0.0
 40
0.0
 40
0.0
 40
0.1780767830136681
 40
0.3550421473332519
 40
0.5343453484092107
 40
0.7146565399102437
 40
1.070969665796742
 40
1.425797276482804
 40
1.782601621641158
 40
2.138604507529012
 40
2.494665694350761
 40
2.851054992366518
 40
3.206893612592711
 40
3.563376496270243
 40
3.919394399374822
 40
4.275489906300407
 40
4.631810709934304
 40
4.987969559364683
 40
5.34408211860129
 40
5.700399378588028
 40
6.056403899471826
 40
6.412686420078558
 40
6.768554714070927
 40
7.124994803535126
 40
7.480919478161396
 40
7.837065786048822
 40
8.193227339653797
 40
8.54915435091597
 40
8.90592851958123
 40
9.261828936493906
 40
9.970559377486843
 40
9.970559377486843
 40
9.970559377486843
 40
9.970559377486843
 10
29.19152297621247
 20
19.3199041971318
 30
0.0
 10
29.1470811456694
 20
19.35925398737596
 30
0.0
 10
29.05217101571805
 20
19.4317355662181
 30
0.0
 10
28.88702486192653
 20
19.50226756380449
 30
0.0
 10
28.71305131556232
 20
19.54495666942723
 30
0.0
 10
28.47834845644468
 20
19.58798269645786
 30
0.0
 10
28.18518117017913
 20
19.63800719542321
 30
0.0
 10
27.82899646784813
 20
19.6593691414496
 30
0.0
 10
27.47326672482029
 20
19.64621384628078
 30
0.0
 10
27.11757491729929
 20
19.61242874303617
 30
0.0
 10
26.77299200399079
 20
19.51557094953319
 30
0.0
 10
26.44749864205448
 20
19.36660662833783
 30
0.0
 10
26.15775694326908
 20
19.15567807341922
 30
0.0
 10
25.90609476451141
 20
18.90204678516807
 30
0.0
 10
25.69450118247778
 20
18.613468363682
 30
0.0
 10
25.53862581202111
 20
18.29089603326816
 30
0.0
 10
25.44277681566371
 20
17.94623295105323
 30
0.0
 10
25.4051588730083
 20
17.58968055220073
 30
0.0
 10
25.44352328414163
 20
17.23351806607327
 30
0.0
 10
25.5330884282904
 20
16.88748872605868
 30
0.0
 10
25.68157849234228
 20
16.56148488761745
 30
0.0
 10
25.88917684075068
 20
16.26919453242289
 30
0.0
 10
26.1522127749239
 20
16.02575896079475
 30
0.0
 10
26.45092519319712
 20
15.82973462570551
 30
0.0
 10
26.77615878588608
 20
15.68002644669816
 30
0.0
 10
27.12459823011875
 20
15.59680869955606
 30
0.0
 10
27.48036210823477
 20
15.56921438733918
 30
0.0
 10
27.83671943981153
 20
15.56880338564122
 30
0.0
 10
28.19288691357406
 20
15.58096011441621
 30
0.0
 10
28.6641908177113
 20
15.63797081704082
 30
0.0
 10
28.99993188968324
 20
15.78862697439315
 30
0.0
 10
29.19152297621247
 20
15.92684360711667
 30
0.0
  0
SPLINE
  5
BA
330
1F
100
AcDbEntity
  8
CARTOUCHE
  6
CONTINUOUS
 62
     4
100
AcDbSpline
210
0.0
220
0.0
230
1.0
 70
     8
 71
     3
 72
    32
 73
    28
 74
     0
 42
0.0
 43
0.0
 40
0.0
 40
0.0
 40
0.0
 40
0.0
 40
0.1932877580521157
 40
0.3866798787325882
 40
0.5800722507134989
 40
0.772333729456475
 40
0.9658523902015594
 40
1.159368918637214
 40
1.351212480188305
 40
1.544294116240269
 40
1.738458877748041
 40
1.931765051105018
 40
2.315248221342022
 40
2.698534908932237
 40
2.891497325006418
 40
3.086240061673468
 40
3.27934698460621
 40
3.47149554917474
 40
3.665362297658928
 40
3.858867169137039
 40
4.051425425593018
 40
4.244517993884934
 40
4.629048396203631
 40
4.822527042047698
 40
5.015999172173861
 40
5.208857197714148
 40
5.402321103694232
 40
5.402321103694232
 40
5.402321103694232
 40
5.402321103694232
 10
29.19152297621247
 20
17.75924360711668
 30
0.0
 10
29.18288243399775
 20
17.8230908437966
 30
0.0
 10
29.14698925229231
 20
17.94923099492491
 30
0.0
 10
29.03863033600135
 20
18.11295896718003
 30
0.0
 10
28.88808593421186
 20
18.23750555169801
 30
0.0
 10
28.71390236835975
 20
18.32349619385565
 30
0.0
 10
28.52952277004852
 20
18.38166686509658
 30
0.0
 10
28.34290479514243
 20
18.43125946356719
 30
0.0
 10
28.15005836734326
 20
18.45345660720097
 30
0.0
 10
27.9567652835641
 20
18.43192422737054
 30
0.0
 10
27.77055996307331
 20
18.37588631632259
 30
0.0
 10
27.54005543090193
 20
18.25927888814989
 30
0.0
 10
27.30431979796026
 20
18.02895633252871
 30
0.0
 10
27.19918224735056
 20
17.70410852264934
 30
0.0
 10
27.2556090006949
 20
17.44863354719076
 30
0.0
 10
27.34552826919219
 20
17.27538536050071
 30
0.0
 10
27.47312092641039
 20
17.12730558305737
 30
0.0
 10
27.63483015622103
 20
17.01829625364088
 30
0.0
 10
27.81425994030428
 20
16.94472673420569
 30
0.0
 10
28.00144289742559
 20
16.89441464262615
 30
0.0
 10
28.19428201703386
 20
16.87304307862474
 30
0.0
 10
28.45148699611309
 20
16.88934789940681
 30
0.0
 10
28.70119669040025
 20
16.97262918726353
 30
0.0
 10
28.91655264301392
 20
17.114560902169
 30
0.0
 10
29.05836036639801
 20
17.24858543450058
 30
0.0
 10
29.15639747778994
 20
17.41858950885382
 30
0.0
 10
29.18558227182314
 20
17.54607985365801
 30
0.0
 10
29.19152297621247
 20
17.61029360711667
 30
0.0
  0
LINE
  5
BB
330
1F
100
AcDbEntity
  8
CARTOUCHE
  6
CONTINUOUS
 62
     4
100
AcDbLine
 10
29.191523
 20
17.610294
 30
0.0
 11
29.191523
 21
17.759244
 31
0.0
  0
LINE
  5
BC
330
1F
100
AcDbEntity
  8
CARTOUCHE
  6
CONTINUOUS
 62
     4
100
AcDbLine
 10
29.191523
 20
15.620844
 30
0.0
 11
29.191523
 21
15.926844
 31
0.0
  0
SPLINE
  5
BD
330
1F
100
AcDbEntity
  8
CARTOUCHE
  6
CONTINUOUS
 62
     4
100
AcDbSpline
210
0.0
220
0.0
230
1.0
 70
     8
 71
     3
 72
    46
 73
    42
 74
     0
 42
0.0
 43
0.0
 40
0.0
 40
0.0
 40
0.0
 40
0.0
 40
0.2811760796502946
 40
0.5640898973250563
 40
0.8489971748537003
 40
1.131205009177211
 40
1.693847543907712
 40
2.256883126992217
 40
2.539006962714906
 40
2.820697028678528
 40
3.102988717666822
 40
3.385255369055035
 40
3.948537474972731
 40
4.512595302147443
 40
5.076291358232317
 40
5.639939427570669
 40
6.203885740903807
 40
6.766738495431309
 40
7.329351108981916
 40
7.892323841237688
 40
8.45514866590555
 40
8.737355288896866
 40
9.018966908742904
 40
9.581781624582574
 40
9.86403908982524
 40
10.14660944492419
 40
10.42765695915669
 40
10.7104453671154
 40
11.27439772862129
 40
11.83782241902082
 40
12.40155022911231
 40
12.96488140450844
 40
13.53013698036286
 40
13.81230410617875
 40
14.09372936703951
 40
14.37575719238146
 40
14.65757020519361
 40
14.93943603583764
 40
15.22120144973326
 40
15.50299703910228
 40
15.78483944550847
 40
15.78483944550847
 40
15.78483944550847
 40
15.78483944550847
 10
37.20692297621247
 20
17.25614360711672
 30
0.0
 10
37.23203420692107
 20
17.34644238439291
 30
0.0
 10
37.26336484409046
 20
17.53399353514693
 30
0.0
 10
37.24149612352574
 20
17.81801411254953
 30
0.0
 10
37.17836723535868
 20
18.09483488905608
 30
0.0
 10
37.05825107130295
 20
18.45212671536388
 30
0.0
 10
36.82306595169769
 20
18.86725058477686
 30
0.0
 10
36.46781589545185
 20
19.18453429852833
 30
0.0
 10
36.14761072222359
 20
19.38196329151135
 30
0.0
 10
35.88897462899058
 20
19.49665832798303
 30
0.0
 10
35.61969295726612
 20
19.58173403519249
 30
0.0
 10
35.2543140411176
 20
19.67112584450371
 30
0.0
 10
34.78716946498412
 20
19.73491758839328
 30
0.0
 10
34.22286115907593
 20
19.74314626209986
 30
0.0
 10
33.65911994648309
 20
19.70776759135033
 30
0.0
 10
33.10430878015268
 20
19.60055504764404
 30
0.0
 10
32.56703323781767
 20
19.41975332166317
 30
0.0
 10
32.09128315197597
 20
19.10132458254379
 30
0.0
 10
31.74193800490184
 20
18.64941378404786
 30
0.0
 10
31.52262068232574
 20
18.12465110892419
 30
0.0
 10
31.46286140999609
 20
17.65237452681703
 30
0.0
 10
31.49897098284839
 20
17.27677370178464
 30
0.0
 10
31.60138451349223
 20
16.91447857233738
 30
0.0
 10
31.76185376327498
 20
16.56953956862208
 30
0.0
 10
31.99184431742594
 20
16.27135451108104
 30
0.0
 10
32.18412083772114
 20
16.06372980713054
 30
0.0
 10
32.41499014005785
 20
15.8981099703803
 30
0.0
 10
32.7523317509042
 20
15.73108000815063
 30
0.0
 10
33.19505414301852
 20
15.56630096045468
 30
0.0
 10
33.75227372266897
 20
15.46845437614093
 30
0.0
 10
34.31516350933748
 20
15.42686252978587
 30
0.0
 10
34.8797846612523
 20
15.45310416565457
 30
0.0
 10
35.34636121692427
 20
15.51793254831694
 30
0.0
 10
35.71316921960886
 20
15.60361847371957
 30
0.0
 10
35.98020693492333
 20
15.69575649055219
 30
0.0
 10
36.23634011737818
 20
15.8133707081824
 30
0.0
 10
36.48756104735048
 20
15.94257867459994
 30
0.0
 10
36.71131096251793
 20
16.11779577915576
 30
0.0
 10
36.89210320202199
 20
16.33577430529642
 30
0.0
 10
37.03705328185708
 20
16.57968837892793
 30
0.0
 10
37.08874532982247
 20
16.76292208205906
 30
0.0
 10
37.10387297621253
 20
16.8556436071167
 30
0.0
  0
SPLINE
  5
BE
330
1F
100
AcDbEntity
  8
CARTOUCHE
  6
CONTINUOUS
 62
     4
100
AcDbSpline
210
0.0
220
0.0
230
1.0
 70
     8
 71
     3
 72
    15
 73
    11
 74
     0
 42
0.0
 43
0.0
 40
0.0
 40
0.0
 40
0.0
 40
0.0
 40
0.3371530624456519
 40
0.6743134103473634
 40
1.011742195803972
 40
1.348774234605689
 40
1.687275239821948
 40
1.856093664733062
 40
2.024672439731733
 40
2.36171424272068
 40
2.36171424272068
 40
2.36171424272068
 40
2.36171424272068
 10
33.36482297621251
 20
17.2444436071167
 30
0.0
 10
33.3858778215025
 20
17.13404914825572
 30
0.0
 10
33.47908858652352
 20
16.91720193038532
 30
0.0
 10
33.75430938453144
 20
16.706449264183
 30
0.0
 10
34.06998675418981
 20
16.58180999970012
 30
0.0
 10
34.40539517918739
 20
16.52556263807151
 30
0.0
 10
34.68949469675783
 20
16.54062536220022
 30
0.0
 10
34.90812694138117
 20
16.59887374482219
 30
0.0
 10
35.11328271453908
 20
16.69222545658818
 30
0.0
 10
35.25572769673465
 20
16.78492272807649
 30
0.0
 10
35.34302297621252
 20
16.8556436071167
 30
0.0
  0
SPLINE
  5
BF
330
1F
100
AcDbEntity
  8
CARTOUCHE
  6
CONTINUOUS
 62
     4
100
AcDbSpline
210
0.0
220
0.0
230
1.0
 70
     8
 71
     3
 72
    21
 73
    17
 74
     0
 42
0.0
 43
0.0
 40
0.0
 40
0.0
 40
0.0
 40
0.0
 40
0.1868562426648683
 40
0.3735753311188897
 40
0.561385244331366
 40
0.7484499710535985
 40
0.9355894656463413
 40
1.123113048870195
 40
1.311429068188788
 40
1.500242837337345
 40
1.686444243009907
 40
1.873057665252352
 40
2.059520356870873
 40
2.246467921108978
 40
2.434628805645711
 40
2.621194974095634
 40
2.621194974095634
 40
2.621194974095634
 40
2.621194974095634
 10
35.34302297621252
 20
18.07919360711669
 30
0.0
 10
35.33827402300517
 20
18.14129771542037
 30
0.0
 10
35.31098590801867
 20
18.26532167893516
 30
0.0
 10
35.21176932408082
 20
18.4274393651603
 30
0.0
 10
35.07410472232061
 20
18.55667707405826
 30
0.0
 10
34.91380074337155
 20
18.65566347451574
 30
0.0
 10
34.73873424931833
 20
18.72452207485077
 30
0.0
 10
34.55489940604025
 20
18.76544162614523
 30
0.0
 10
34.36639704794266
 20
18.77885835001855
 30
0.0
 10
34.17902209853401
 20
18.76782273359755
 30
0.0
 10
33.99274798283
 20
18.72746022546608
 30
0.0
 10
33.83748785500461
 20
18.62068130925582
 30
0.0
 10
33.66640581764318
 20
18.54392880021908
 30
0.0
 10
33.52524874688265
 20
18.41621721231662
 30
0.0
 10
33.42100493506643
 20
18.25892401888792
 30
0.0
 10
33.37822029988172
 20
18.13992209272329
 30
0.0
 10
33.36482297621251
 20
18.07919360711669
 30
0.0
  0
SPLINE
  5
C0
330
1F
100
AcDbEntity
  8
CARTOUCHE
  6
CONTINUOUS
 62
     4
100
AcDbSpline
210
0.0
220
0.0
230
1.0
 70
     8
 71
     3
 72
    14
 73
    10
 74
     0
 42
0.0
 43
0.0
 40
0.0
 40
0.0
 40
0.0
 40
0.0
 40
0.2162148910594536
 40
0.4333935378504982
 40
0.6499506618299267
 40
0.8697440506435969
 40
1.087238867261143
 40
1.304828920110255
 40
1.52231799513657
 40
1.52231799513657
 40
1.52231799513657
 40
1.52231799513657
 10
40.45457297621249
 20
17.82764360711668
 30
0.0
 10
40.4585708245022
 20
17.89960427075187
 30
0.0
 10
40.42640871477511
 20
18.04880797988182
 30
0.0
 10
40.27439512155047
 20
18.2158057830136
 30
0.0
 10
40.06187418874424
 20
18.29256657103895
 30
0.0
 10
39.83996012736452
 20
18.27349259239089
 30
0.0
 10
39.63539374842924
 20
18.17927908713461
 30
0.0
 10
39.50069166663809
 20
17.99888001181956
 30
0.0
 10
39.46300588566658
 20
17.8546109938169
 30
0.0
 10
39.45962297621247
 20
17.78219360711672
 30
0.0
  0
SPLINE
  5
C1
330
1F
100
AcDbEntity
  8
CARTOUCHE
  6
CONTINUOUS
 62
     4
100
AcDbSpline
210
0.0
220
0.0
230
1.0
 70
     8
 71
     3
 72
    20
 73
    16
 74
     0
 42
0.0
 43
0.0
 40
0.0
 40
0.0
 40
0.0
 40
0.0
 40
0.3099173987996669
 40
0.6201169005603266
 40
0.9308839291328165
 40
1.240783325707781
 40
1.55095939565128
 40
1.86184239372724
 40
2.170990040564945
 40
2.482795387658576
 40
2.792567816778102
 40
3.102413185111548
 40
3.413424630920254
 40
3.723772126664227
 40
4.34241605336301
 40
4.34241605336301
 40
4.34241605336301
 40
4.34241605336301
 10
42.28382297621249
 20
17.58779360711669
 30
0.0
 10
42.29785819041342
 20
17.69014154795241
 30
0.0
 10
42.31442439810405
 20
17.89677002490993
 30
0.0
 10
42.30093033884827
 20
18.20747684710313
 30
0.0
 10
42.25565509292562
 20
18.51474506996465
 30
0.0
 10
42.17620497908092
 20
18.81641720416798
 30
0.0
 10
42.02732884775901
 20
19.09240930675498
 30
0.0
 10
41.81020925681196
 20
19.32073989851239
 30
0.0
 10
41.53096645435983
 20
19.46673633765892
 30
0.0
 10
41.2307622884091
 20
19.54812226604333
 30
0.0
 10
40.92302870824335
 20
19.59724701034367
 30
0.0
 10
40.61155045095131
 20
19.58971136447537
 30
0.0
 10
40.30365712496848
 20
19.54593387513314
 30
0.0
 10
39.90384924168495
 20
19.43649512043618
 30
0.0
 10
39.62714716375797
 20
19.28574386806645
 30
0.0
 10
39.45962297621247
 20
19.16549360711668
 30
0.0
  0
ARC
  5
C2
330
1F
100
AcDbEntity
  8
CARTOUCHE
  6
CONTINUOUS
 62
     4
100
AcDbCircle
 10
5.950954
 20
18.851493
 30
0.0
 40
0.470607
100
AcDbArc
 50
290.581791
 51
349.597912
  0
SPLINE
  5
C3
330
1F
100
AcDbEntity
  8
CARTOUCHE
  6
CONTINUOUS
 62
     4
100
AcDbSpline
210
0.0
220
0.0
230
1.0
 70
     8
 71
     3
 72
    14
 73
    10
 74
     0
 42
0.0
 43
0.0
 40
0.0
 40
0.0
 40
0.0
 40
0.0
 40
0.218061519141428
 40
0.4363611552766655
 40
0.6537290224029619
 40
0.8729556978994847
 40
1.089089148588595
 40
1.305404600578318
 40
1.523281343816881
 40
1.523281343816881
 40
1.523281343816881
 40
1.523281343816881
 10
8.323222976212492
 20
16.16984360711673
 30
0.0
 10
8.318288214417635
 20
16.09732413902976
 30
0.0
 10
8.284441201709
 20
15.95301240567483
 30
0.0
 10
8.169483084717058
 20
15.76307331566506
 30
0.0
 10
7.996385400748409
 20
15.62406236269835
 30
0.0
 10
7.795574627707992
 20
15.53567944687769
 30
0.0
 10
7.57604694575457
 20
15.50360567386355
 30
0.0
 10
7.361945471922013
 20
15.55796082330824
 30
0.0
 10
7.233255854035747
 20
15.62676542598343
 30
0.0
 10
7.173698979108963
 20
15.66832807359032
 30
0.0
  0
ARC
  5
C4
330
1F
100
AcDbEntity
  8
CARTOUCHE
  6
CONTINUOUS
 62
     4
100
AcDbCircle
 10
9.404539
 20
20.005869
 30
0.0
 40
0.500071
100
AcDbArc
 50
275.840125
 51
95.840125
  0
HATCH
  5
C5
330
1F
100
AcDbEntity
  8
CARTOUCHE
  6
CONTINUOUS
 62
     4
100
AcDbHatch
 10
0.0
 20
0.0
 30
0.0
210
0.0
220
0.0
230
1.0
  2
ANSI_31
 70
     0
 71
     0
 91
        4
 92
        1
 93
        3
 72
     1
 10
5.464823000000024
 20
22.39950599999997
 11
5.464823000000024
 21
19.42874399999999
 72
     1
 10
5.464823000000024
 20
19.42874399999999
 11
3.174775999999952
 21
19.42874399999999
 72
     2
 10
6.899650999999957
 20
18.92541699999997
 40
3.75872700000001
 50
187.6955481858979
 51
247.5589807620792
 73
     0
 97
        0
 92
        0
 93
        6
 72
     1
 10
6.413872999999967
 20
22.65262100000001
 11
6.413872999999967
 21
18.76651400000003
 72
     2
 10
5.950954000000016
 20
18.85149300000001
 40
0.4706070000000082
 50
10.40206637069416
 51
69.41820895943546
 73
     0
 72
     1
 10
6.116423000000054
 20
18.410844
 11
5.887823000000026
 21
18.410844
 72
     1
 10
5.887823000000026
 20
18.410844
 11
7.362923000000023
 21
16.81019400000002
 72
     1
 10
7.362923000000023
 20
16.81019400000002
 11
7.362923000000023
 21
22.655485
 72
     2
 10
6.899650999999941
 20
18.92541699999988
 40
3.758727000000102
 50
82.92017098471821
 51
97.42568618826536
 73
     1
 97
        0
 92
        0
 93
       40
 72
     1
 10
9.353656
 20
20.50334399999997
 11
8.323222999999984
 21
20.50334399999997
 72
     1
 10
8.323222999999984
 20
20.50334399999997
 11
8.323222999999984
 21
22.404134
 72
     2
 10
6.899650999999948
 20
18.92541699999998
 40
3.758727000000001
 50
292.2555505518878
 51
532.1314361600666
 73
     0
 72
     1
 10
3.17631300000005
 20
18.410844
 11
4.378522999999973
 21
18.410844
 72
     1
 10
4.378522999999973
 20
18.410844
 11
7.173698999999942
 21
15.66832799999997
 72
     1
 10
7.173698999999942
 20
15.66832799999997
 11
7.228616999999986
 21
15.63285300000001
 72
     1
 10
7.228616999999986
 20
15.63285300000001
 11
7.286013000000025
 21
15.60136299999999
 72
     1
 10
7.286013000000025
 20
15.60136299999999
 11
7.36599799999999
 21
15.565901
 72
     1
 10
7.36599799999999
 20
15.565901
 11
7.407007000000021
 21
15.55122899999998
 72
     1
 10
7.407007000000021
 20
15.55122899999998
 11
7.448736000000054
 21
15.53879699999999
 72
     1
 10
7.448736000000054
 20
15.53879699999999
 11
7.491052999999965
 21
15.528907
 72
     1
 10
7.491052999999965
 20
15.528907
 11
7.533828999999969
 21
15.52186
 72
     1
 10
7.533828999999969
 20
15.52186
 11
7.576934000000051
 21
15.51796000000002
 72
     1
 10
7.576934000000051
 20
15.51796000000002
 11
7.620190999999977
 21
15.51741600000003
 72
     1
 10
7.620190999999977
 20
15.51741600000003
 11
7.663455999999996
 21
15.52006999999998
 72
     1
 10
7.663455999999996
 20
15.52006999999998
 11
7.706539000000021
 21
15.52567799999997
 72
     1
 10
7.706539000000021
 20
15.52567799999997
 11
7.749248999999963
 21
15.53399400000001
 72
     1
 10
7.749248999999963
 20
15.53399400000001
 11
7.791397999999958
 21
15.54477500000002
 72
     1
 10
7.791397999999958
 20
15.54477500000002
 11
7.833399999999983
 21
15.55801000000002
 72
     1
 10
7.833399999999983
 20
15.55801000000002
 11
7.874554999999987
 21
15.57347900000002
 72
     1
 10
7.874554999999987
 20
15.57347900000002
 11
7.914787000000047
 21
15.59112900000002
 72
     1
 10
7.914787000000047
 20
15.59112900000002
 11
7.992186999999944
 21
15.63277499999998
 72
     1
 10
7.992186999999944
 20
15.63277499999998
 11
8.028870999999981
 21
15.65646700000002
 72
     1
 10
8.028870999999981
 20
15.65646700000002
 11
8.064194000000043
 21
15.682164
 72
     1
 10
8.064194000000043
 20
15.682164
 11
8.097920000000045
 21
15.70987400000001
 72
     1
 10
8.097920000000045
 20
15.70987400000001
 11
8.129815000000008
 21
15.73960499999998
 72
     1
 10
8.129815000000008
 20
15.73960499999998
 11
8.15964299999996
 21
15.771365
 72
     1
 10
8.15964299999996
 20
15.771365
 11
8.18731200000002
 21
15.80527799999999
 72
     1
 10
8.18731200000002
 20
15.80527799999999
 11
8.212608000000046
 21
15.84104500000001
 72
     1
 10
8.212608000000046
 20
15.84104500000001
 11
8.235480000000052
 21
15.878466
 72
     1
 10
8.235480000000052
 20
15.878466
 11
8.255877000000055
 21
15.91734000000002
 72
     1
 10
8.255877000000055
 20
15.91734000000002
 11
8.27374999999995
 21
15.95746800000001
 72
     1
 10
8.27374999999995
 20
15.95746800000001
 11
8.289029000000028
 21
15.998605
 72
     1
 10
8.289029000000028
 20
15.998605
 11
8.30167700000004
 21
16.04060199999998
 72
     1
 10
8.30167700000004
 20
16.04060199999998
 11
8.311632000000031
 21
16.08326799999998
 72
     1
 10
8.311632000000031
 20
16.08326799999998
 11
8.318835000000036
 21
16.12641200000002
 72
     1
 10
8.318835000000036
 20
16.12641200000002
 11
8.323222999999984
 21
16.16984400000001
 72
     1
 10
8.323222999999984
 20
16.16984400000001
 11
8.323222999999984
 21
19.50839400000001
 72
     1
 10
8.323222999999984
 20
19.50839400000001
 11
9.455422999999996
 21
19.50839400000001
 72
     2
 10
9.404538999999998
 20
20.00586900000002
 40
0.5000710000000018
 50
275.8401026338636
 51
455.8401224817062
 73
     1
 97
        0
 92
        0
 93
        1
 72
     2
 10
6.899645999999962
 20
18.92542200383101
 40
4.756723
 50
359.999999953855
 51
719.9999823537612
 73
     1
 97
        0
 75
     0
 76
     2
 52
0.0
 41
0.062992
 77
     0
 78
     1
 53
44.99999999988837
 43
0.0
 44
0.0
 45
-3.592095212307267
 46
3.592095212321264
 79
     0
 98
        0
  0
HATCH
  5
C6
330
1F
100
AcDbEntity
  8
CARTOUCHE
  6
CONTINUOUS
 62
     4
100
AcDbHatch
 10
0.0
 20
0.0
 30
0.0
210
0.0
220
0.0
230
1.0
  2
ANSI_31
 70
     0
 71
     0
 91
        1
 92
        1
 93
       16
 72
     1
 10
15.67905299999995
 20
19.93184400000001
 11
16.08752300000003
 21
19.93184400000001
 72
     1
 10
16.08752300000003
 20
19.93184400000001
 11
16.08752300000003
 21
20.83499399999999
 72
     1
 10
16.08752300000003
 20
20.83499399999999
 11
14.58025899999996
 21
20.83499399999999
 72
     2
 10
14.58025899999995
 20
19.929401
 40
0.9056389999999922
 50
89.99998127603119
 51
180.0000198478434
 73
     1
 72
     1
 10
13.674623
 20
19.92940099999998
 11
13.674623
 21
19.50839400000001
 72
     1
 10
13.674623
 20
19.50839400000001
 11
13.13732300000004
 21
19.50839400000001
 72
     1
 10
13.13732300000004
 20
19.50839400000001
 11
13.13732300000004
 21
18.410844
 72
     1
 10
13.13732300000004
 20
18.410844
 11
13.674623
 21
18.410844
 72
     1
 10
13.674623
 20
18.410844
 11
13.674623
 21
15.632094
 72
     1
 10
13.674623
 20
15.632094
 11
15.47012300000006
 21
15.632094
 72
     1
 10
15.47012300000006
 20
15.632094
 11
15.47012300000006
 21
18.410844
 72
     1
 10
15.47012300000006
 20
18.410844
 11
16.08752300000003
 21
18.410844
 72
     1
 10
16.08752300000003
 20
18.410844
 11
16.08752300000003
 21
19.50839400000001
 72
     1
 10
16.08752300000003
 20
19.50839400000001
 11
15.41297299999997
 21
19.50839400000001
 72
     1
 10
15.41297299999997
 20
19.50839400000001
 11
15.46107900000004
 21
19.76862199999999
 72
     2
 10
15.70598800000005
 20
19.668716
 40
0.2645030000000105
 50
202.192182543623
 51
264.1553335516175
 73
     0
 97
        0
 75
     0
 76
     2
 52
0.0
 41
0.062992
 77
     0
 78
     1
 53
44.99999999988837
 43
0.0
 44
0.0
 45
-3.592095212307267
 46
3.592095212321264
 79
     0
 98
        0
  0
HATCH
  5
C7
330
1F
100
AcDbEntity
  8
CARTOUCHE
  6
CONTINUOUS
 62
     4
100
AcDbHatch
 10
0.0
 20
0.0
 30
0.0
210
0.0
220
0.0
230
1.0
  2
ANSI_31
 70
     0
 71
     0
 91
        1
 92
        1
 93
        4
 72
     1
 10
16.80797299999995
 20
20.83499399999999
 11
16.80797299999995
 21
19.94309399999997
 72
     1
 10
16.80797299999995
 20
19.94309399999997
 11
18.62597300000004
 21
19.94309399999997
 72
     1
 10
18.62597300000004
 20
19.94309399999997
 11
18.62597300000004
 21
20.83499399999999
 72
     1
 10
18.62597300000004
 20
20.83499399999999
 11
16.80797299999995
 21
20.83499399999999
 97
        0
 75
     0
 76
     2
 52
0.0
 41
0.062992
 77
     0
 78
     1
 53
44.99999999988837
 43
0.0
 44
0.0
 45
-3.592095212307267
 46
3.592095212321264
 79
     0
 98
        0
  0
HATCH
  5
C8
330
1F
100
AcDbEntity
  8
CARTOUCHE
  6
CONTINUOUS
 62
     4
100
AcDbHatch
 10
0.0
 20
0.0
 30
0.0
210
0.0
220
0.0
230
1.0
  2
ANSI_31
 70
     0
 71
     0
 91
        1
 92
        1
 93
        4
 72
     1
 10
16.80797299999995
 20
19.50839400000001
 11
16.80797299999995
 21
15.632094
 72
     1
 10
16.80797299999995
 20
15.632094
 11
18.62597300000004
 21
15.632094
 72
     1
 10
18.62597300000004
 20
15.632094
 11
18.62597300000004
 21
19.50839400000001
 72
     1
 10
18.62597300000004
 20
19.50839400000001
 11
16.80797299999995
 21
19.50839400000001
 97
        0
 75
     0
 76
     2
 52
0.0
 41
0.062992
 77
     0
 78
     1
 53
44.99999999988837
 43
0.0
 44
0.0
 45
-3.592095212307267
 46
3.592095212321264
 79
     0
 98
        0
  0
HATCH
  5
C9
330
1F
100
AcDbEntity
  8
CARTOUCHE
  6
CONTINUOUS
 62
     4
100
AcDbHatch
 10
0.0
 20
0.0
 30
0.0
210
0.0
220
0.0
230
1.0
  2
ANSI_31
 70
     0
 71
     0
 91
        1
 92
        1
 93
       12
 72
     2
 10
22.45732399999997
 20
17.47903400000001
 40
0.6511239999999975
 50
262.8493335533972
 51
360.0000000000003
 73
     0
 72
     1
 10
23.10842300000002
 20
17.47903400000001
 11
23.10842300000002
 21
15.632094
 72
     1
 10
23.10842300000002
 20
15.632094
 11
24.89222300000006
 21
15.632094
 72
     1
 10
24.89222300000006
 20
15.632094
 11
24.89222300000006
 21
18.32455299999998
 72
     2
 10
23.67502799999999
 20
18.26487300000003
 40
1.218658000000002
 50
2.806977534125219
 51
66.54578204501267
 73
     1
 72
     2
 10
23.06740300000001
 20
16.04526099999998
 40
3.51189200000001
 50
71.87239877900569
 51
120.4055336606956
 73
     1
 72
     1
 10
21.28997300000003
 20
19.07414399999999
 11
21.28997300000003
 21
19.50839400000001
 72
     1
 10
21.28997300000003
 20
19.50839400000001
 11
19.49492299999997
 21
19.50839400000001
 72
     1
 10
19.49492299999997
 20
19.50839400000001
 11
19.49492299999997
 21
15.632094
 72
     1
 10
19.49492299999997
 20
15.632094
 11
21.28997300000003
 21
15.632094
 72
     1
 10
21.28997300000003
 20
15.632094
 11
21.28997300000003
 21
17.43349899999998
 72
     2
 10
22.44380999999998
 20
16.82007900000004
 40
1.306760999999987
 50
207.9967033745319
 51
267.0374831484652
 73
     0
 97
        0
 75
     0
 76
     2
 52
0.0
 41
0.062992
 77
     0
 78
     1
 53
44.99999999988837
 43
0.0
 44
0.0
 45
-3.592095212307267
 46
3.592095212321264
 79
     0
 98
        0
  0
HATCH
  5
CA
330
1F
100
AcDbEntity
  8
CARTOUCHE
  6
CONTINUOUS
 62
     4
100
AcDbHatch
 10
0.0
 20
0.0
 30
0.0
210
0.0
220
0.0
230
1.0
  2
ANSI_31
 70
     0
 71
     0
 91
        2
 92
        1
 93
       68
 72
     1
 10
29.19152299999996
 20
19.31990400000001
 11
29.13663900000006
 21
19.36546499999997
 72
     1
 10
29.13663900000006
 20
19.36546499999997
 11
29.09335299999998
 21
19.396952
 72
     1
 10
29.09335299999998
 20
19.396952
 11
29.04814599999997
 21
19.42551800000001
 72
     1
 10
29.04814599999997
 20
19.42551800000001
 11
28.98531500000001
 21
19.45824299999998
 72
     1
 10
28.98531500000001
 20
19.45824299999998
 11
28.93641500000001
 21
19.47918299999998
 72
     1
 10
28.93641500000001
 20
19.47918299999998
 11
28.88641400000006
 21
19.49734899999999
 72
     1
 10
28.88641400000006
 20
19.49734899999999
 11
28.80036900000005
 21
19.52267000000001
 72
     1
 10
28.80036900000005
 20
19.52267000000001
 11
28.71305600000005
 21
19.543137
 72
     1
 10
28.71305600000005
 20
19.543137
 11
28.53598499999998
 21
19.57716399999998
 72
     1
 10
28.53598499999998
 20
19.57716399999998
 11
28.18386099999998
 21
19.631643
 72
     1
 10
28.18386099999998
 20
19.631643
 11
27.82971399999997
 21
19.65361100000001
 72
     1
 10
27.82971399999997
 20
19.65361100000001
 11
27.47307499999999
 21
19.64275900000001
 72
     1
 10
27.47307499999999
 20
19.64275900000001
 11
27.29553499999997
 21
19.627567
 72
     1
 10
27.29553499999997
 20
19.627567
 11
27.11942199999999
 21
19.601922
 72
     1
 10
27.11942199999999
 20
19.601922
 11
26.98039300000005
 21
19.570874
 72
     1
 10
26.98039300000005
 20
19.570874
 11
26.77626899999996
 21
19.50691899999998
 72
     1
 10
26.77626899999996
 20
19.50691899999998
 11
26.64385700000003
 21
19.453442
 72
     1
 10
26.64385700000003
 20
19.453442
 11
26.54719899999998
 21
19.40747800000003
 72
     1
 10
26.54719899999998
 20
19.40747800000003
 11
26.45331799999997
 21
19.3562
 72
     1
 10
26.45331799999997
 20
19.3562
 11
26.33327599999996
 21
19.27954099999999
 72
     1
 10
26.33327599999996
 20
19.27954099999999
 11
26.16425100000004
 21
19.14868799999999
 72
     1
 10
26.16425100000004
 20
19.14868799999999
 11
26.05893800000001
 21
19.05235800000003
 72
     1
 10
26.05893800000001
 20
19.05235800000003
 11
25.91268300000002
 21
18.89611400000001
 72
     1
 10
25.91268300000002
 20
18.89611400000001
 11
25.82344499999999
 21
18.78493100000003
 72
     1
 10
25.82344499999999
 20
18.78493100000003
 11
25.70379300000002
 21
18.60781900000001
 72
     1
 10
25.70379300000002
 20
18.60781900000001
 11
25.634816
 21
18.48302000000001
 72
     1
 10
25.634816
 20
18.48302000000001
 11
25.58909600000004
 21
18.38630999999998
 72
     1
 10
25.58909600000004
 20
18.38630999999998
 11
25.54866100000004
 21
18.28729199999998
 72
     1
 10
25.54866100000004
 20
18.28729199999998
 11
25.50307699999996
 21
18.15213199999999
 72
     1
 10
25.50307699999996
 20
18.15213199999999
 11
25.45247300000005
 21
17.94419900000003
 72
     1
 10
25.45247300000005
 20
17.94419900000003
 11
25.43063199999995
 21
17.80315000000002
 72
     1
 10
25.43063199999995
 20
17.80315000000002
 11
25.42104700000004
 21
17.69658800000002
 72
     1
 10
25.42104700000004
 20
17.69658800000002
 11
25.41782000000001
 21
17.58972999999997
 72
     1
 10
25.41782000000001
 20
17.58972999999997
 11
25.42378299999996
 21
17.44735500000002
 72
     1
 10
25.42378299999996
 20
17.44735500000002
 11
25.45204699999999
 21
17.23526600000002
 72
     1
 10
25.45204699999999
 20
17.23526600000002
 11
25.48182299999996
 21
17.09568300000001
 72
     1
 10
25.48182299999996
 20
17.09568300000001
 11
25.54294100000004
 21
16.890737
 72
     1
 10
25.54294100000004
 20
16.890737
 11
25.59524499999998
 21
16.75814400000002
 72
     1
 10
25.59524499999998
 20
16.75814400000002
 11
25.64066300000002
 21
16.66132599999997
 72
     1
 10
25.64066300000002
 20
16.66132599999997
 11
25.69139600000005
 21
16.56716299999999
 72
     1
 10
25.69139600000005
 20
16.56716299999999
 11
25.76734099999999
 21
16.446302
 72
     1
 10
25.76734099999999
 20
16.446302
 11
25.83037100000001
 21
16.35977800000001
 72
     1
 10
25.83037100000001
 20
16.35977800000001
 11
25.89849000000004
 21
16.27724999999998
 72
     1
 10
25.89849000000004
 20
16.27724999999998
 11
25.99676699999998
 21
16.17408
 72
     1
 10
25.99676699999998
 20
16.17408
 11
26.15802499999995
 21
16.03376700000001
 72
     1
 10
26.15802499999995
 20
16.03376700000001
 11
26.27323200000001
 21
15.94957699999998
 72
     1
 10
26.27323200000001
 20
15.94957699999998
 11
26.45548299999996
 21
15.837379
 72
     1
 10
26.45548299999996
 20
15.837379
 11
26.58228499999996
 21
15.77219600000001
 72
     1
 10
26.58228499999996
 20
15.77219600000001
 11
26.68003799999997
 21
15.72894300000002
 72
     1
 10
26.68003799999997
 20
15.72894300000002
 11
26.77997000000005
 21
15.691125
 72
     1
 10
26.77997000000005
 20
15.691125
 11
26.91640600000005
 21
15.64973700000002
 72
     1
 10
26.91640600000005
 20
15.64973700000002
 11
27.12581399999999
 21
15.60608200000001
 72
     1
 10
27.12581399999999
 20
15.60608200000001
 11
27.30267700000002
 21
15.58473400000003
 72
     1
 10
27.30267700000002
 20
15.58473400000003
 11
27.480504
 21
15.57374099999998
 72
     1
 10
27.480504
 20
15.57374099999998
 11
27.83641999999998
 21
15.57089400000001
 72
     1
 10
27.83641999999998
 20
15.57089400000001
 11
28.19286999999997
 21
15.58610199999998
 72
     1
 10
28.19286999999997
 20
15.58610199999998
 11
28.33459700000003
 21
15.60000000000002
 72
     1
 10
28.33459700000003
 20
15.60000000000002
 11
28.54527099999996
 21
15.63588399999998
 72
     1
 10
28.54527099999996
 20
15.63588399999998
 11
28.68285300000002
 21
15.67301600000002
 72
     1
 10
28.68285300000002
 20
15.67301600000002
 11
28.81743300000005
 21
15.72115400000001
 72
     1
 10
28.81743300000005
 20
15.72115400000001
 11
28.94784800000002
 21
15.77982200000002
 72
     1
 10
28.94784800000002
 20
15.77982200000002
 11
29.07293300000003
 21
15.848544
 72
     1
 10
29.07293300000003
 20
15.848544
 11
29.19152299999996
 21
15.92684400000002
 72
     1
 10
29.19152299999996
 20
15.92684400000002
 11
29.19152299999996
 21
15.62084399999998
 72
     1
 10
29.19152299999996
 20
15.62084399999998
 11
30.98657300000002
 21
15.62084399999998
 72
     1
 10
30.98657300000002
 20
15.62084399999998
 11
30.98657300000002
 21
20.82374399999998
 72
     1
 10
30.98657300000002
 20
20.82374399999998
 11
29.19152299999996
 21
20.82374399999998
 72
     1
 10
29.19152299999996
 20
20.82374399999998
 11
29.19152299999996
 21
19.31990400000001
 97
        0
 92
        0
 93
       86
 72
     1
 10
29.19152299999996
 20
17.75924400000002
 11
29.18522399999995
 21
17.79742900000002
 72
     1
 10
29.18522399999995
 20
17.79742900000002
 11
29.17670399999997
 21
17.83525800000001
 72
     1
 10
29.17670399999997
 20
17.83525800000001
 11
29.16597200000001
 21
17.87256500000001
 72
     1
 10
29.16597200000001
 20
17.87256500000001
 11
29.15304100000003
 21
17.90918399999998
 72
     1
 10
29.15304100000003
 20
17.90918399999998
 11
29.13791900000001
 21
17.94495000000001
 72
     1
 10
29.13791900000001
 20
17.94495000000001
 11
29.12062200000003
 21
17.97972399999998
 72
     1
 10
29.12062200000003
 20
17.97972399999998
 11
29.10124099999996
 21
18.01337000000001
 72
     1
 10
29.10124099999996
 20
18.01337000000001
 11
29.07987100000003
 21
18.04578099999998
 72
     1
 10
29.07987100000003
 20
18.04578099999998
 11
29.05660999999998
 21
18.07684799999998
 72
     1
 10
29.05660999999998
 20
18.07684799999998
 11
29.03155400000003
 21
18.10646400000002
 72
     1
 10
29.03155400000003
 20
18.10646400000002
 11
29.00480800000003
 21
18.13454000000002
 72
     1
 10
29.00480800000003
 20
18.13454000000002
 11
28.97651299999995
 21
18.16105900000002
 72
     1
 10
28.97651299999995
 20
18.16105900000002
 11
28.93149700000004
 21
18.19792000000001
 72
     1
 10
28.93149700000004
 20
18.19792000000001
 11
28.88383899999997
 21
18.23128800000001
 72
     1
 10
28.88383899999997
 20
18.23128800000001
 11
28.817408
 21
18.27025400000002
 72
     1
 10
28.817408
 20
18.27025400000002
 11
28.71259999999995
 21
18.31870500000002
 72
     1
 10
28.71259999999995
 20
18.31870500000002
 11
28.52912600000002
 21
18.38024000000001
 72
     1
 10
28.52912600000002
 20
18.38024000000001
 11
28.34129499999995
 21
18.426807
 72
     1
 10
28.34129499999995
 20
18.426807
 11
28.26536699999997
 21
18.43871999999999
 72
     1
 10
28.26536699999997
 20
18.43871999999999
 11
28.20799199999999
 21
18.44418400000001
 72
     1
 10
28.20799199999999
 20
18.44418400000001
 11
28.15043300000002
 21
18.44618500000001
 72
     1
 10
28.15043300000002
 20
18.44618500000001
 11
28.07320600000003
 21
18.44294100000002
 72
     1
 10
28.07320600000003
 20
18.44294100000002
 11
28.01556000000005
 21
18.43626899999998
 72
     1
 10
28.01556000000005
 20
18.43626899999998
 11
27.95838300000003
 21
18.42625199999998
 72
     1
 10
27.95838300000003
 20
18.42625199999998
 11
27.882791
 21
18.40795000000003
 72
     1
 10
27.882791
 20
18.40795000000003
 11
27.82709299999999
 21
18.39068900000001
 72
     1
 10
27.82709299999999
 20
18.39068900000001
 11
27.77240099999995
 21
18.37047899999999
 72
     1
 10
27.77240099999995
 20
18.37047899999999
 11
27.70162300000004
 21
18.33916399999998
 72
     1
 10
27.70162300000004
 20
18.33916399999998
 11
27.65017599999999
 21
18.31224500000002
 72
     1
 10
27.65017599999999
 20
18.31224500000002
 11
27.60037799999998
 21
18.28230000000002
 72
     1
 10
27.60037799999998
 20
18.28230000000002
 11
27.53744099999994
 21
18.23797999999999
 72
     1
 10
27.53744099999994
 20
18.23797999999999
 11
27.47837200000004
 21
18.18841300000003
 72
     1
 10
27.47837200000004
 20
18.18841300000003
 11
27.42376899999999
 21
18.13377600000001
 72
     1
 10
27.42376899999999
 20
18.13377600000001
 11
27.37423000000001
 21
18.07424700000001
 72
     1
 10
27.37423000000001
 20
18.07424700000001
 11
27.33035300000006
 21
18.01000299999998
 72
     1
 10
27.33035300000006
 20
18.01000299999998
 11
27.29281800000001
 21
17.941394
 72
     1
 10
27.29281800000001
 20
17.941394
 11
27.26252099999999
 21
17.86924599999998
 72
     1
 10
27.26252099999999
 20
17.86924599999998
 11
27.25039600000002
 21
17.832155
 72
     1
 10
27.25039600000002
 20
17.832155
 11
27.24044900000001
 21
17.79455200000001
 72
     1
 10
27.24044900000001
 20
17.79455200000001
 11
27.23280499999998
 21
17.75656099999998
 72
     1
 10
27.23280499999998
 20
17.75656099999998
 11
27.22758599999997
 21
17.71830599999998
 72
     1
 10
27.22758599999997
 20
17.71830599999998
 11
27.224917
 21
17.679912
 72
     1
 10
27.224917
 20
17.679912
 11
27.224919
 21
17.641503
 72
     1
 10
27.224919
 20
17.641503
 11
27.22769300000004
 21
17.60293999999999
 72
     1
 10
27.22769300000004
 20
17.60293999999999
 11
27.23311100000001
 21
17.564618
 72
     1
 10
27.23311100000001
 20
17.564618
 11
27.24098100000003
 21
17.52666699999997
 72
     1
 10
27.24098100000003
 20
17.52666699999997
 11
27.25111400000003
 21
17.489217
 72
     1
 10
27.25111400000003
 20
17.489217
 11
27.26331800000003
 21
17.45240000000001
 72
     1
 10
27.26331800000003
 20
17.45240000000001
 11
27.29364499999997
 21
17.380425
 72
     1
 10
27.29364499999997
 20
17.380425
 11
27.32104800000002
 21
17.32870600000001
 72
     1
 10
27.32104800000002
 20
17.32870600000001
 11
27.35215400000004
 21
17.27909999999997
 72
     1
 10
27.35215400000004
 20
17.27909999999997
 11
27.39858600000002
 21
17.21711299999998
 72
     1
 10
27.39858600000002
 20
17.21711299999998
 11
27.43723499999999
 21
17.17377199999999
 72
     1
 10
27.43723499999999
 20
17.17377199999999
 11
27.47906599999999
 21
17.133554
 72
     1
 10
27.47906599999999
 20
17.133554
 11
27.53918599999997
 21
17.085487
 72
     1
 10
27.53918599999997
 20
17.085487
 11
27.58721200000002
 21
17.05335500000001
 72
     1
 10
27.58721200000002
 20
17.05335500000001
 11
27.63725699999998
 21
17.02448099999998
 72
     1
 10
27.63725699999998
 20
17.02448099999998
 11
27.70704799999999
 21
16.99051900000001
 72
     1
 10
27.70704799999999
 20
16.99051900000001
 11
27.81564800000001
 21
16.94858099999999
 72
     1
 10
27.81564800000001
 20
16.94858099999999
 11
27.88966300000004
 21
16.92569900000001
 72
     1
 10
27.88966300000004
 20
16.92569900000001
 11
28.00273800000002
 21
16.89916799999997
 72
     1
 10
28.00273800000002
 20
16.89916799999997
 11
28.07891399999994
 21
16.88724500000001
 72
     1
 10
28.07891399999994
 20
16.88724500000001
 11
28.19419900000003
 21
16.878646
 72
     1
 10
28.19419900000003
 20
16.878646
 11
28.27146300000004
 21
16.87950899999998
 72
     1
 10
28.27146300000004
 20
16.87950899999998
 11
28.38690199999996
 21
16.89089999999999
 72
     1
 10
28.38690199999996
 20
16.89089999999999
 11
28.46279000000004
 21
16.90512699999999
 72
     1
 10
28.46279000000004
 20
16.90512699999999
 11
28.53763100000003
 21
16.924554
 72
     1
 10
28.53763100000003
 20
16.924554
 11
28.61100199999998
 21
16.94904700000001
 72
     1
 10
28.61100199999998
 20
16.94904700000001
 11
28.68247699999995
 21
16.97847300000001
 72
     1
 10
28.68247699999995
 20
16.97847300000001
 11
28.75163399999997
 21
17.012698
 72
     1
 10
28.75163399999997
 20
17.012698
 11
28.81849899999997
 21
17.05184600000001
 72
     1
 10
28.81849899999997
 20
17.05184600000001
 11
28.91321000000005
 21
17.11912599999999
 72
     1
 10
28.91321000000005
 20
17.11912599999999
 11
28.97214599999995
 21
17.16959900000001
 72
     1
 10
28.97214599999995
 20
17.16959900000001
 11
29.01332500000001
 21
17.21066400000001
 72
     1
 10
29.01332500000001
 20
17.21066400000001
 11
29.051197
 21
17.25474100000002
 72
     1
 10
29.051197
 20
17.25474100000002
 11
29.07423700000004
 21
17.28578199999998
 72
     1
 10
29.07423700000004
 20
17.28578199999998
 11
29.09545000000003
 21
17.31814100000003
 72
     1
 10
29.09545000000003
 20
17.31814100000003
 11
29.11475199999995
 21
17.35170099999999
 72
     1
 10
29.11475199999995
 20
17.35170099999999
 11
29.13206000000002
 21
17.38634400000001
 72
     1
 10
29.13206000000002
 20
17.38634400000001
 11
29.147289
 21
17.42195400000003
 72
     1
 10
29.147289
 20
17.42195400000003
 11
29.16041099999995
 21
17.45852500000001
 72
     1
 10
29.16041099999995
 20
17.45852500000001
 11
29.17137700000001
 21
17.49579699999998
 72
     1
 10
29.17137700000001
 20
17.49579699999998
 11
29.180205
 21
17.53361899999999
 72
     1
 10
29.180205
 20
17.53361899999999
 11
29.186914
 21
17.57183500000002
 72
     1
 10
29.186914
 20
17.57183500000002
 11
29.19152299999996
 21
17.61029400000001
 72
     1
 10
29.19152299999996
 20
17.61029400000001
 11
29.19152299999996
 21
17.75924400000002
 97
        0
 75
     0
 76
     2
 52
0.0
 41
0.062992
 77
     0
 78
     1
 53
44.99999999988837
 43
0.0
 44
0.0
 45
-3.592095212307267
 46
3.592095212321264
 79
     0
 98
        0
  0
HATCH
  5
CB
330
1F
100
AcDbEntity
  8
CARTOUCHE
  6
CONTINUOUS
 62
     4
100
AcDbHatch
 10
0.0
 20
0.0
 30
0.0
210
0.0
220
0.0
230
1.0
  2
ANSI_31
 70
     0
 71
     0
 91
        2
 92
        1
 93
      122
 72
     1
 10
34.05107299999997
 20
17.24444399999999
 11
34.15412300000003
 21
17.24444399999999
 72
     1
 10
34.15412300000003
 20
17.24444399999999
 11
37.20692299999996
 21
17.25614400000001
 72
     1
 10
37.20692299999996
 20
17.25614400000001
 11
37.23237800000004
 21
17.36584699999997
 72
     1
 10
37.23237800000004
 20
17.36584699999997
 11
37.245048
 21
17.44946199999998
 72
     1
 10
37.245048
 20
17.44946199999998
 11
37.25187400000004
 21
17.533703
 72
     1
 10
37.25187400000004
 20
17.533703
 11
37.25173500000005
 21
17.64696900000001
 72
     1
 10
37.25173500000005
 20
17.64696900000001
 11
37.23470999999995
 21
17.81609600000002
 72
     1
 10
37.23470999999995
 20
17.81609600000002
 11
37.20846500000005
 21
17.95621299999999
 72
     1
 10
37.20846500000005
 20
17.95621299999999
 11
37.17357900000002
 21
18.09436799999997
 72
     1
 10
37.17357900000002
 20
18.09436799999997
 11
37.13179500000001
 21
18.22914600000001
 72
     1
 10
37.13179500000001
 20
18.22914600000001
 11
37.08234200000004
 21
18.36142100000001
 72
     1
 10
37.08234200000004
 20
18.36142100000001
 11
37.03686200000004
 21
18.46471600000001
 72
     1
 10
37.03686200000004
 20
18.46471600000001
 11
36.985861
 21
18.56553500000001
 72
     1
 10
36.985861
 20
18.56553500000001
 11
36.92927999999995
 21
18.66332299999999
 72
     1
 10
36.92927999999995
 20
18.66332299999999
 11
36.86706100000004
 21
18.75752699999998
 72
     1
 10
36.86706100000004
 20
18.75752699999998
 11
36.79914499999995
 21
18.84759500000001
 72
     1
 10
36.79914499999995
 20
18.84759500000001
 11
36.72552399999995
 21
18.93313000000001
 72
     1
 10
36.72552399999995
 20
18.93313000000001
 11
36.64671899999996
 21
19.014004
 72
     1
 10
36.64671899999996
 20
19.014004
 11
36.563309
 21
19.09025500000001
 72
     1
 10
36.563309
 20
19.09025500000001
 11
36.384996
 21
19.22902599999998
 72
     1
 10
36.384996
 20
19.22902599999998
 11
36.26698599999997
 21
19.30660499999999
 72
     1
 10
36.26698599999997
 20
19.30660499999999
 11
36.14445000000001
 21
19.376442
 72
     1
 10
36.14445000000001
 20
19.376442
 11
36.01771899999994
 21
19.43798600000002
 72
     1
 10
36.01771899999994
 20
19.43798600000002
 11
35.88739599999997
 21
19.491649
 72
     1
 10
35.88739599999997
 20
19.491649
 11
35.61887200000001
 21
19.578734
 72
     1
 10
35.61887200000001
 20
19.578734
 11
35.344652
 21
19.64564899999999
 72
     1
 10
35.344652
 20
19.64564899999999
 11
35.06700499999999
 21
19.69362999999998
 72
     1
 10
35.06700499999999
 20
19.69362999999998
 11
34.78677800000003
 21
19.72351500000002
 72
     1
 10
34.78677800000003
 20
19.72351500000002
 11
34.22285499999998
 21
19.73587400000002
 72
     1
 10
34.22285499999998
 20
19.73587400000002
 11
33.66058599999997
 21
19.69579499999998
 72
     1
 10
33.66058599999997
 20
19.69579499999998
 11
33.38229999999999
 21
19.651139
 72
     1
 10
33.38229999999999
 20
19.651139
 11
33.10728300000005
 21
19.5883
 72
     1
 10
33.10728300000005
 20
19.5883
 11
32.89059299999997
 21
19.52408000000003
 72
     1
 10
32.89059299999997
 20
19.52408000000003
 11
32.73158599999999
 21
19.46569699999998
 72
     1
 10
32.73158599999999
 20
19.46569699999998
 11
32.57691
 21
19.39662499999997
 72
     1
 10
32.57691
 20
19.39662499999997
 11
32.47700599999996
 21
19.34397899999999
 72
     1
 10
32.47700599999996
 20
19.34397899999999
 11
32.38006700000005
 21
19.28586300000001
 72
     1
 10
32.38006700000005
 20
19.28586300000001
 11
32.28661299999999
 21
19.222306
 72
     1
 10
32.28661299999999
 20
19.222306
 11
32.19716500000004
 21
19.15334000000001
 72
     1
 10
32.19716500000004
 20
19.15334000000001
 11
32.11224300000003
 21
19.07899500000002
 72
     1
 10
32.11224300000003
 20
19.07899500000002
 11
32.03232000000003
 21
18.999414
 72
     1
 10
32.03232000000003
 20
18.999414
 11
31.95746899999995
 21
18.91497400000003
 72
     1
 10
31.95746899999995
 20
18.91497400000003
 11
31.88772300000005
 21
18.82616400000001
 72
     1
 10
31.88772300000005
 20
18.82616400000001
 11
31.82311300000003
 21
18.73346900000001
 72
     1
 10
31.82311300000003
 20
18.73346900000001
 11
31.76366900000005
 21
18.63737500000002
 72
     1
 10
31.76366900000005
 20
18.63737500000002
 11
31.66049099999998
 21
18.43648899999999
 72
     1
 10
31.66049099999998
 20
18.43648899999999
 11
31.61706100000004
 21
18.33229899999998
 72
     1
 10
31.61706100000004
 20
18.33229899999998
 11
31.57925699999998
 21
18.22594300000003
 72
     1
 10
31.57925699999998
 20
18.22594300000003
 11
31.54722200000003
 21
18.11767400000002
 72
     1
 10
31.54722200000003
 20
18.11767400000002
 11
31.52110400000004
 21
18.00779
 72
     1
 10
31.52110400000004
 20
18.00779
 11
31.50105099999996
 21
17.896613
 72
     1
 10
31.50105099999996
 20
17.896613
 11
31.48722299999997
 21
17.78451200000001
 72
     1
 10
31.48722299999997
 20
17.78451200000001
 11
31.47977800000001
 21
17.67185599999999
 72
     1
 10
31.47977800000001
 20
17.67185599999999
 11
31.47887600000001
 21
17.55901399999999
 72
     1
 10
31.47887600000001
 20
17.55901399999999
 11
31.48475800000006
 21
17.44607200000002
 72
     1
 10
31.48475800000006
 20
17.44607200000002
 11
31.50730299999998
 21
17.27824299999997
 72
     1
 10
31.50730299999998
 20
17.27824299999997
 11
31.53184199999998
 21
17.168363
 72
     1
 10
31.53184199999998
 20
17.168363
 11
31.58066099999996
 21
17.00635399999999
 72
     1
 10
31.58066099999996
 20
17.00635399999999
 11
31.66317600000002
 21
16.79605099999998
 72
     1
 10
31.66317600000002
 20
16.79605099999998
 11
31.73810200000003
 21
16.64424300000002
 72
     1
 10
31.73810200000003
 20
16.64424300000002
 11
31.82487600000002
 21
16.49928499999999
 72
     1
 10
31.82487600000002
 20
16.49928499999999
 11
31.906565
 21
16.38422000000003
 72
     1
 10
31.906565
 20
16.38422000000003
 11
31.99507500000004
 21
16.274114
 72
     1
 10
31.99507500000004
 20
16.274114
 11
32.069976
 21
16.189232
 72
     1
 10
32.069976
 20
16.189232
 11
32.19090600000004
 21
16.07040799999999
 72
     1
 10
32.19090600000004
 20
16.07040799999999
 11
32.27814000000001
 21
15.99937299999999
 72
     1
 10
32.27814000000001
 20
15.99937299999999
 11
32.41820700000005
 21
15.90511500000002
 72
     1
 10
32.41820700000005
 20
15.90511500000002
 11
32.54199200000005
 21
15.83675699999998
 72
     1
 10
32.54199200000005
 20
15.83675699999998
 11
32.66963099999998
 21
15.77567299999998
 72
     1
 10
32.66963099999998
 20
15.77567299999998
 11
32.87800800000002
 21
15.68845699999997
 72
     1
 10
32.87800800000002
 20
15.68845699999997
 11
33.19960600000002
 21
15.58288099999999
 72
     1
 10
33.19960600000002
 20
15.58288099999999
 11
33.41901499999994
 21
15.53133800000001
 72
     1
 10
33.41901499999994
 20
15.53133800000001
 11
33.753153
 21
15.47783800000002
 72
     1
 10
33.753153
 20
15.47783800000002
 11
34.03387999999995
 21
15.450243
 72
     1
 10
34.03387999999995
 20
15.450243
 11
34.31548199999997
 21
15.43816199999998
 72
     1
 10
34.31548199999997
 20
15.43816199999998
 11
34.87832400000002
 21
15.461635
 72
     1
 10
34.87832400000002
 20
15.461635
 11
35.15919199999996
 21
15.49446799999998
 72
     1
 10
35.15919199999996
 20
15.49446799999998
 11
35.43780400000003
 21
15.54223500000001
 72
     1
 10
35.43780400000003
 20
15.54223500000001
 11
35.71211800000003
 21
15.60834399999999
 72
     1
 10
35.71211800000003
 20
15.60834399999999
 11
35.97822199999996
 21
15.69993399999998
 72
     1
 10
35.97822199999996
 20
15.69993399999998
 11
36.23556399999995
 21
15.81532399999998
 72
     1
 10
36.23556399999995
 20
15.81532399999998
 11
36.36129900000003
 21
15.879186
 72
     1
 10
36.36129900000003
 20
15.879186
 11
36.48298
 21
15.950245
 72
     1
 10
36.48298
 20
15.950245
 11
36.57561799999996
 21
16.01478200000003
 72
     1
 10
36.57561799999996
 20
16.01478200000003
 11
36.64162099999999
 21
16.06789500000002
 72
     1
 10
36.64162099999999
 20
16.06789500000002
 11
36.70417599999996
 21
16.12494700000002
 72
     1
 10
36.70417599999996
 20
16.12494700000002
 11
36.78170999999998
 21
16.20681500000001
 72
     1
 10
36.78170999999998
 20
16.20681500000001
 11
36.88612499999999
 21
16.34008899999998
 72
     1
 10
36.88612499999999
 20
16.34008899999998
 11
36.94806800000003
 21
16.43459300000001
 72
     1
 10
36.94806800000003
 20
16.43459300000001
 11
36.98954600000002
 21
16.50838599999997
 72
     1
 10
36.98954600000002
 20
16.50838599999997
 11
37.02580999999998
 21
16.58482800000002
 72
     1
 10
37.02580999999998
 20
16.58482800000002
 11
37.06495300000006
 21
16.69080600000001
 72
     1
 10
37.06495300000006
 20
16.69080600000001
 11
37.08735000000001
 21
16.77260000000001
 72
     1
 10
37.08735000000001
 20
16.77260000000001
 11
37.10387300000002
 21
16.85564399999998
 72
     1
 10
37.10387300000002
 20
16.85564399999998
 11
35.34302300000002
 21
16.85564399999998
 72
     1
 10
35.34302300000002
 20
16.85564399999998
 11
35.23476000000005
 21
16.77513900000002
 72
     1
 10
35.23476000000005
 20
16.77513900000002
 11
35.14934200000005
 21
16.72065500000002
 72
     1
 10
35.14934200000005
 20
16.72065500000002
 11
35.06077600000003
 21
16.67143299999998
 72
     1
 10
35.06077600000003
 20
16.67143299999998
 11
34.98475800000006
 21
16.634773
 72
     1
 10
34.98475800000006
 20
16.634773
 11
34.90657599999997
 21
16.60330699999997
 72
     1
 10
34.90657599999997
 20
16.60330699999997
 11
34.84227699999997
 21
16.58263499999998
 72
     1
 10
34.84227699999997
 20
16.58263499999998
 11
34.743651
 21
16.55908799999997
 72
     1
 10
34.743651
 20
16.55908799999997
 11
34.60933699999998
 21
16.54053599999997
 72
     1
 10
34.60933699999998
 20
16.54053599999997
 11
34.50763900000004
 21
16.53565600000002
 72
     1
 10
34.50763900000004
 20
16.53565600000002
 11
34.40580899999998
 21
16.537981
 72
     1
 10
34.40580899999998
 20
16.537981
 11
34.27139199999999
 21
16.55149599999999
 72
     1
 10
34.27139199999999
 20
16.55149599999999
 11
34.17168100000004
 21
16.569188
 72
     1
 10
34.17168100000004
 20
16.569188
 11
34.07332900000006
 21
16.593186
 72
     1
 10
34.07332900000006
 20
16.593186
 11
33.944884
 21
16.63503700000001
 72
     1
 10
33.944884
 20
16.63503700000001
 11
33.85139500000002
 21
16.67430100000001
 72
     1
 10
33.85139500000002
 20
16.67430100000001
 11
33.76098100000002
 21
16.72084599999999
 72
     1
 10
33.76098100000002
 20
16.72084599999999
 11
33.70284000000004
 21
16.75614000000002
 72
     1
 10
33.70284000000004
 20
16.75614000000002
 11
33.64707699999997
 21
16.79510399999998
 72
     1
 10
33.64707699999997
 20
16.79510399999998
 11
33.59445000000005
 21
16.83796699999999
 72
     1
 10
33.59445000000005
 20
16.83796699999999
 11
33.54571899999996
 21
16.88495599999999
 72
     1
 10
33.54571899999996
 20
16.88495599999999
 11
33.50164199999995
 21
16.93630000000002
 72
     1
 10
33.50164199999995
 20
16.93630000000002
 11
33.46287700000005
 21
16.99205000000001
 72
     1
 10
33.46287700000005
 20
16.99205000000001
 11
33.42966899999999
 21
17.05156199999999
 72
     1
 10
33.42966899999999
 20
17.05156199999999
 11
33.40216099999998
 21
17.114013
 72
     1
 10
33.40216099999998
 20
17.114013
 11
33.38049799999999
 21
17.17858100000001
 72
     1
 10
33.38049799999999
 20
17.17858100000001
 11
33.364823
 21
17.24444399999999
 72
     1
 10
33.364823
 20
17.24444399999999
 11
34.05107299999997
 21
17.24444399999999
 97
        0
 92
        0
 93
       43
 72
     1
 10
33.364823
 20
18.07919400000003
 11
34.15412300000003
 21
18.07919400000003
 72
     1
 10
34.15412300000003
 20
18.07919400000003
 11
35.34302300000002
 21
18.07919400000003
 72
     1
 10
35.34302300000002
 20
18.07919400000003
 11
35.33909900000003
 21
18.11641600000002
 72
     1
 10
35.33909900000003
 20
18.11641600000002
 11
35.33300199999996
 21
18.15343100000001
 72
     1
 10
35.33300199999996
 20
18.15343100000001
 11
35.32469200000003
 21
18.19004899999999
 72
     1
 10
35.32469200000003
 20
18.19004899999999
 11
35.31413199999997
 21
18.22607800000003
 72
     1
 10
35.31413199999997
 20
18.22607800000003
 11
35.30128500000001
 21
18.26132899999999
 72
     1
 10
35.30128500000001
 20
18.26132899999999
 11
35.28615600000001
 21
18.29560600000002
 72
     1
 10
35.28615600000001
 20
18.29560600000002
 11
35.26886400000001
 21
18.328846
 72
     1
 10
35.26886400000001
 20
18.328846
 11
35.24956699999996
 21
18.36098199999998
 72
     1
 10
35.24956699999996
 20
18.36098199999998
 11
35.22842500000002
 21
18.39194400000002
 72
     1
 10
35.22842500000002
 20
18.39194400000002
 11
35.20559500000002
 21
18.42166400000002
 72
     1
 10
35.20559500000002
 20
18.42166400000002
 11
35.15515800000003
 21
18.47753399999999
 72
     1
 10
35.15515800000003
 20
18.47753399999999
 11
35.11388799999997
 21
18.51605899999998
 72
     1
 10
35.11388799999997
 20
18.51605899999998
 11
35.07014900000001
 21
18.55176799999998
 72
     1
 10
35.07014900000001
 20
18.55176799999998
 11
35.00889700000005
 21
18.59493600000002
 72
     1
 10
35.00889700000005
 20
18.59493600000002
 11
34.96089400000005
 21
18.624144
 72
     1
 10
34.96089400000005
 20
18.624144
 11
34.91135099999997
 21
18.650643
 72
     1
 10
34.91135099999997
 20
18.650643
 11
34.84321299999999
 21
18.681802
 72
     1
 10
34.84321299999999
 20
18.681802
 11
34.73746300000005
 21
18.71981099999999
 72
     1
 10
34.73746300000005
 20
18.71981099999999
 11
34.66503399999999
 21
18.73954600000002
 72
     1
 10
34.66503399999999
 20
18.73954600000002
 11
34.55447500000002
 21
18.760807
 72
     1
 10
34.55447500000002
 20
18.760807
 11
34.47958200000005
 21
18.76953400000002
 72
     1
 10
34.47958200000005
 20
18.76953400000002
 11
34.36667799999998
 21
18.77476999999999
 72
     1
 10
34.36667799999998
 20
18.77476999999999
 11
34.29122900000004
 21
18.77322600000002
 72
     1
 10
34.29122900000004
 20
18.77322600000002
 11
34.17824399999995
 21
18.76280200000002
 72
     1
 10
34.17824399999995
 20
18.76280200000002
 11
34.10438799999997
 21
18.74982399999999
 72
     1
 10
34.10438799999997
 20
18.74982399999999
 11
34.068085
 21
18.74084699999997
 72
     1
 10
34.068085
 20
18.74084699999997
 11
34.03251399999999
 21
18.72981099999998
 72
     1
 10
34.03251399999999
 20
18.72981099999998
 11
33.99791200000004
 21
18.71641799999998
 72
     1
 10
33.99791200000004
 20
18.71641799999998
 11
33.96434399999998
 21
18.70050800000001
 72
     1
 10
33.96434399999998
 20
18.70050800000001
 11
33.83484299999998
 21
18.62568099999999
 72
     1
 10
33.83484299999998
 20
18.62568099999999
 11
33.67159400000003
 21
18.53558099999998
 72
     1
 10
33.67159400000003
 20
18.53558099999998
 11
33.64097600000002
 21
18.51416
 72
     1
 10
33.64097600000002
 20
18.51416
 11
33.611625
 21
18.49088
 72
     1
 10
33.611625
 20
18.49088
 11
33.58359099999996
 21
18.46591100000001
 72
     1
 10
33.58359099999996
 20
18.46591100000001
 11
33.53168100000005
 21
18.41158999999999
 72
     1
 10
33.53168100000005
 20
18.41158999999999
 11
33.48534099999995
 21
18.35202500000003
 72
     1
 10
33.48534099999995
 20
18.35202500000003
 11
33.45462099999997
 21
18.304551
 72
     1
 10
33.45462099999997
 20
18.304551
 11
33.427457
 21
18.254932
 72
     1
 10
33.427457
 20
18.254932
 11
33.3972
 21
18.18647299999998
 72
     1
 10
33.3972
 20
18.18647299999998
 11
33.37897999999996
 21
18.13339500000001
 72
     1
 10
33.37897999999996
 20
18.13339500000001
 11
33.364823
 21
18.07919400000003
 97
        0
 75
     0
 76
     2
 52
0.0
 41
0.062992
 77
     0
 78
     1
 53
44.99999999988837
 43
0.0
 44
0.0
 45
-3.592095212307267
 46
3.592095212321264
 79
     0
 98
        0
  0
HATCH
  5
CC
330
1F
100
AcDbEntity
  8
CARTOUCHE
  6
CONTINUOUS
 62
     4
100
AcDbHatch
 10
0.0
 20
0.0
 30
0.0
210
0.0
220
0.0
230
1.0
  2
ANSI_31
 70
     0
 71
     0
 91
        1
 92
        1
 93
       78
 72
     1
 10
37.73297300000002
 20
19.50839400000001
 11
37.73297300000002
 21
15.632094
 72
     1
 10
37.73297300000002
 20
15.632094
 11
39.45962299999997
 21
15.632094
 72
     1
 10
39.45962299999997
 20
15.632094
 11
39.45962299999997
 21
17.782194
 72
     1
 10
39.45962299999997
 20
17.782194
 11
39.46348799999998
 21
17.82556299999999
 72
     1
 10
39.46348799999998
 20
17.82556299999999
 11
39.47094600000003
 21
17.86858599999999
 72
     1
 10
39.47094600000003
 20
17.86858599999999
 11
39.48187900000005
 21
17.91099100000002
 72
     1
 10
39.48187900000005
 20
17.91099100000002
 11
39.496172
 21
17.95250399999998
 72
     1
 10
39.496172
 20
17.95250399999998
 11
39.51370699999995
 21
17.99285099999997
 72
     1
 10
39.51370699999995
 20
17.99285099999997
 11
39.53438600000004
 21
18.03175499999998
 72
     1
 10
39.53438600000004
 20
18.03175499999998
 11
39.55812200000003
 21
18.06881399999997
 72
     1
 10
39.55812200000003
 20
18.06881399999997
 11
39.58484099999998
 21
18.10362400000002
 72
     1
 10
39.58484099999998
 20
18.10362400000002
 11
39.61447299999998
 21
18.13578000000001
 72
     1
 10
39.61447299999998
 20
18.13578000000001
 11
39.64694299999996
 21
18.16487799999999
 72
     1
 10
39.64694299999996
 20
18.16487799999999
 11
39.68210899999997
 21
18.19058699999999
 72
     1
 10
39.68210899999997
 20
18.19058699999999
 11
39.71962599999995
 21
18.21293300000002
 72
     1
 10
39.71962599999995
 20
18.21293300000002
 11
39.75908300000003
 21
18.232012
 72
     1
 10
39.75908300000003
 20
18.232012
 11
39.80006700000001
 21
18.24792000000002
 72
     1
 10
39.80006700000001
 20
18.24792000000002
 11
39.84216600000002
 21
18.26075500000002
 72
     1
 10
39.84216600000002
 20
18.26075500000002
 11
39.88545499999998
 21
18.27065499999998
 72
     1
 10
39.88545499999998
 20
18.27065499999998
 11
39.92924100000005
 21
18.27734399999997
 72
     1
 10
39.92924100000005
 20
18.27734399999997
 11
39.97330699999998
 21
18.28064899999998
 72
     1
 10
39.97330699999998
 20
18.28064899999998
 11
40.01743299999998
 21
18.28040099999998
 72
     1
 10
40.01743299999998
 20
18.28040099999998
 11
40.06139900000005
 21
18.27642800000001
 72
     1
 10
40.06139900000005
 20
18.27642800000001
 11
40.10431900000003
 21
18.26873599999999
 72
     1
 10
40.10431900000003
 20
18.26873599999999
 11
40.14647100000002
 21
18.257294
 72
     1
 10
40.14647100000002
 20
18.257294
 11
40.187456
 21
18.24213600000002
 72
     1
 10
40.187456
 20
18.24213600000002
 11
40.22687299999996
 21
18.22329300000001
 72
     1
 10
40.22687299999996
 20
18.22329300000001
 11
40.264321
 21
18.20079700000002
 72
     1
 10
40.264321
 20
18.20079700000002
 11
40.29950399999996
 21
18.17464200000001
 72
     1
 10
40.29950399999996
 20
18.17464200000001
 11
40.33194700000001
 21
18.14511900000002
 72
     1
 10
40.33194700000001
 20
18.14511900000002
 11
40.36129100000005
 21
18.11249900000001
 72
     1
 10
40.36129100000005
 20
18.11249900000001
 11
40.38718100000006
 21
18.07705399999998
 72
     1
 10
40.38718100000006
 20
18.07705399999998
 11
40.40925700000003
 21
18.03905600000002
 72
     1
 10
40.40925700000003
 20
18.03905600000002
 11
40.42712900000004
 21
17.999011
 72
     1
 10
40.42712900000004
 20
17.999011
 11
40.44073200000003
 21
17.95727699999998
 72
     1
 10
40.44073200000003
 20
17.95727699999998
 11
40.44992999999999
 21
17.914423
 72
     1
 10
40.44992999999999
 20
17.914423
 11
40.45458899999994
 21
17.87102199999998
 72
     1
 10
40.45458899999994
 20
17.87102199999998
 11
40.45517399999994
 21
17.84929399999999
 72
     1
 10
40.45517399999994
 20
17.84929399999999
 11
40.45457299999998
 21
17.82764400000002
 72
     1
 10
40.45457299999998
 20
17.82764400000002
 11
40.45457299999998
 21
17.58779399999997
 72
     1
 10
40.45457299999998
 20
17.58779399999997
 11
42.28382299999998
 21
17.58779399999997
 72
     1
 10
42.28382299999998
 20
17.58779399999997
 11
42.30047999999999
 21
17.74190099999998
 72
     1
 10
42.30047999999999
 20
17.74190099999998
 11
42.30803400000002
 21
17.89676400000002
 72
     1
 10
42.30803400000002
 20
17.89676400000002
 11
42.30622300000005
 21
18.05192099999999
 72
     1
 10
42.30622300000005
 20
18.05192099999999
 11
42.29564800000003
 21
18.20671600000003
 72
     1
 10
42.29564800000003
 20
18.20671600000003
 11
42.27690800000005
 21
18.360972
 72
     1
 10
42.27690800000005
 20
18.360972
 11
42.24990000000003
 21
18.51409699999999
 72
     1
 10
42.24990000000003
 20
18.51409699999999
 11
42.22187399999996
 21
18.63507199999998
 72
     1
 10
42.22187399999996
 20
18.63507199999998
 11
42.19592
 21
18.724445
 72
     1
 10
42.19592
 20
18.724445
 11
42.16467999999998
 21
18.812049
 72
     1
 10
42.16467999999998
 20
18.812049
 11
42.11349900000005
 21
18.92525000000001
 72
     1
 10
42.11349900000005
 20
18.92525000000001
 11
42.06786699999998
 21
19.00661500000001
 72
     1
 10
42.06786699999998
 20
19.00661500000001
 11
42.01605700000005
 21
19.08429999999998
 72
     1
 10
42.01605700000005
 20
19.08429999999998
 11
41.97801800000002
 21
19.133848
 72
     1
 10
41.97801800000002
 20
19.133848
 11
41.93728699999997
 21
19.18120800000003
 72
     1
 10
41.93728699999997
 20
19.18120800000003
 11
41.89391699999999
 21
19.22609699999998
 72
     1
 10
41.89391699999999
 20
19.22609699999998
 11
41.84796300000005
 21
19.26823000000002
 72
     1
 10
41.84796300000005
 20
19.26823000000002
 11
41.79947600000003
 21
19.30732599999999
 72
     1
 10
41.79947600000003
 20
19.30732599999999
 11
41.74884699999996
 21
19.34298100000001
 72
     1
 10
41.74884699999996
 20
19.34298100000001
 11
41.69608700000003
 21
19.375497
 72
     1
 10
41.69608700000003
 20
19.375497
 11
41.61365699999999
 21
19.41870299999999
 72
     1
 10
41.61365699999999
 20
19.41870299999999
 11
41.52824199999998
 21
19.45566400000001
 72
     1
 10
41.52824199999998
 20
19.45566400000001
 11
41.41028500000004
 21
19.496534
 72
     1
 10
41.41028500000004
 20
19.496534
 11
41.22888
 21
19.54287199999999
 72
     1
 10
41.22888
 20
19.54287199999999
 11
41.10697100000004
 21
19.56607500000001
 72
     1
 10
41.10697100000004
 20
19.56607500000001
 11
40.92238599999996
 21
19.58782100000002
 72
     1
 10
40.92238599999996
 20
19.58782100000002
 11
40.79850399999998
 21
19.59181599999999
 72
     1
 10
40.79850399999998
 20
19.59181599999999
 11
40.61256800000001
 21
19.58370300000001
 72
     1
 10
40.61256800000001
 20
19.58370300000001
 11
40.45792600000004
 21
19.56627400000002
 72
     1
 10
40.45792600000004
 20
19.56627400000002
 11
40.30471599999998
 21
19.53948200000002
 72
     1
 10
40.30471599999998
 20
19.53948200000002
 11
40.18380500000001
 21
19.51113500000002
 72
     1
 10
40.18380500000001
 20
19.51113500000002
 11
40.00579900000002
 21
19.45603
 72
     1
 10
40.00579900000002
 20
19.45603
 11
39.89043400000003
 21
19.41051800000002
 72
     1
 10
39.89043400000003
 20
19.41051800000002
 11
39.77781700000003
 21
19.35819800000002
 72
     1
 10
39.77781700000003
 20
19.35819800000002
 11
39.66826400000002
 21
19.29957999999999
 72
     1
 10
39.66826400000002
 20
19.29957999999999
 11
39.45962299999997
 21
19.16549400000002
 72
     1
 10
39.45962299999997
 20
19.16549400000002
 11
39.45962299999997
 21
19.50839400000001
 72
     1
 10
39.45962299999997
 20
19.50839400000001
 11
37.73297300000002
 21
19.50839400000001
 97
        0
 75
     0
 76
     2
 52
0.0
 41
0.062992
 77
     0
 78
     1
 53
44.99999999988837
 43
0.0
 44
0.0
 45
-3.592095212307267
 46
3.592095212321264
 79
     0
 98
        0
  0
LINE
  5
CD
330
1F
100
AcDbEntity
  8
CARTOUCHE
  6
CONTINUOUS
 62
     7
100
AcDbLine
 10
200.000037
 20
31.845156
 30
0.0
 11
0.0
 21
31.845462
 31
0.0
  0
LINE
  5
CE
330
1F
100
AcDbEntity
  8
CARTOUCHE
  6
CONTINUOUS
 62
     7
100
AcDbLine
 10
148.33333
 20
15.002887
 30
0.0
 11
148.33333
 21
5.000945
 31
0.0
  0
TEXT
  5
CF
330
1F
100
AcDbEntity
  8
CARTOUCHE
  6
CONTINUOUS
 62
     2
100
AcDbText
 10
11.190943
 20
9.308782
 30
0.0
 40
1.8
  1
www.findernet.com
 50
359.999908
 41
0.83
  7
FINDER
100
AcDbText
  0
TEXT
  5
D0
330
1F
100
AcDbEntity
  8
CARTOUCHE
  6
CONTINUOUS
 62
     7
100
AcDbText
 10
119.919563
 20
11.624226
 30
0.0
 40
1.8
  1
DATE
 50
359.999908
 41
0.66
  7
FINDER
100
AcDbText
  0
TEXT
  5
D1
330
1F
100
AcDbEntity
  8
CARTOUCHE
  6
CONTINUOUS
 62
     7
100
AcDbText
 10
170.877045
 20
11.624147
 30
0.0
 40
1.8
  1
SCALE
 50
359.999908
 41
0.65
  7
FINDER
100
AcDbText
  0
TEXT
  5
D2
330
1F
100
AcDbEntity
  8
CARTOUCHE
  6
CONTINUOUS
 62
     1
100
AcDbText
 10
172.623032
 20
6.776122
 30
0.0
 40
2.1
  1
1:1
 50
359.999908
  7
FINDER
100
AcDbText
  0
INSERT
  5
DB
330
1F
100
AcDbEntity
  8
CARTOUCHE
  6
CONTINUOUS
 62
     7
100
AcDbBlockReference
  2
LW_POLYLINE_1
 10
200.000031
 20
287.000183
 30
0.0
  0
TEXT
  5
DC
330
1F
100
AcDbEntity
  8
CARTOUCHE
  6
CONTINUOUS
 62
     1
100
AcDbText
 10
118.146898
 20
6.776208
 30
0.0
 40
2.1
  1
07/12/11
 50
359.999908
 41
0.74
  7
FINDER
100
AcDbText
  0
TEXT
  5
DD
330
1F
100
AcDbEntity
  8
CARTOUCHE
  6
CONTINUOUS
 62
     1
100
AcDbText
 10
118.798486
 20
17.435961
 30
0.0
 40
3.0
  1
70.11
 50
359.999908
 41
0.77
  7
FINDER
100
AcDbText
  0
LINE
  5
DE
330
1F
100
AcDbEntity
  8
DRAW
  6
CONTINUOUS
 62
     4
100
AcDbLine
 10
50.321402
 20
181.099746
 30
0.0
 11
50.321402
 21
180.099746
 31
0.0
  0
LINE
  5
DF
330
1F
100
AcDbEntity
  8
DRAW
  6
CONTINUOUS
 62
     4
100
AcDbLine
 10
67.421403
 20
181.099746
 30
0.0
 11
67.421403
 21
180.099746
 31
0.0
  0
LINE
  5
E0
330
1F
100
AcDbEntity
  8
DRAW
  6
CONTINUOUS
 62
     4
100
AcDbLine
 10
50.321402
 20
139.099746
 30
0.0
 11
50.321402
 21
138.099746
 31
0.0
  0
LINE
  5
E1
330
1F
100
AcDbEntity
  8
DRAW
  6
CONTINUOUS
 62
     4
100
AcDbLine
 10
67.421403
 20
139.099746
 30
0.0
 11
67.421403
 21
138.099746
 31
0.0
  0
LINE
  5
E2
330
1F
100
AcDbEntity
  8
DRAW
  6
CONTINUOUS
 62
     5
100
AcDbLine
 10
91.838122
 20
177.599747
 30
0.0
 11
91.704147
 21
177.099747
 31
0.0
  0
LINE
  5
E3
330
1F
100
AcDbEntity
  8
DRAW
  6
CONTINUOUS
 62
     5
100
AcDbLine
 10
93.038122
 20
177.599747
 30
0.0
 11
93.038122
 21
177.099747
 31
0.0
  0
LINE
  5
E4
330
1F
100
AcDbEntity
  8
DRAW
  6
CONTINUOUS
 62
     4
100
AcDbLine
 10
93.038122
 20
177.099747
 30
0.0
 11
93.038122
 21
176.599747
 31
0.0
  0
LINE
  5
E5
330
1F
100
AcDbEntity
  8
DRAW
  6
CONTINUOUS
 62
     5
100
AcDbLine
 10
93.038122
 20
176.599747
 30
0.0
 11
93.038122
 21
172.599747
 31
0.0
  0
LINE
  5
E6
330
1F
100
AcDbEntity
  8
DRAW
  6
CONTINUOUS
 62
     4
100
AcDbLine
 10
88.738122
 20
141.599747
 30
0.0
 11
89.238122
 21
141.599747
 31
0.0
  0
LINE
  5
E7
330
1F
100
AcDbEntity
  8
DRAW
  6
CONTINUOUS
 62
     4
100
AcDbLine
 10
93.038122
 20
172.599747
 30
0.0
 11
93.038122
 21
143.299749
 31
0.0
  0
LINE
  5
E8
330
1F
100
AcDbEntity
  8
DRAW
  6
CONTINUOUS
 62
     6
100
AcDbLine
 10
95.538092
 20
192.599747
 30
0.0
 11
95.538092
 21
197.599747
 31
0.0
  0
LINE
  5
E9
330
1F
100
AcDbEntity
  8
DRAW
  6
CONTINUOUS
 62
     6
100
AcDbLine
 10
95.538092
 20
197.599747
 30
0.0
 11
93.038092
 21
197.599747
 31
0.0
  0
LINE
  5
EA
330
1F
100
AcDbEntity
  8
DRAW
  6
CONTINUOUS
 62
     6
100
AcDbLine
 10
93.038092
 20
192.599747
 30
0.0
 11
95.538092
 21
192.599747
 31
0.0
  0
LINE
  5
EB
330
1F
100
AcDbEntity
  8
DRAW
  6
CONTINUOUS
 62
     6
100
AcDbLine
 10
95.038092
 20
157.099746
 30
0.0
 11
96.538088
 21
157.099746
 31
0.0
  0
LINE
  5
EC
330
1F
100
AcDbEntity
  8
DRAW
  6
CONTINUOUS
 62
     6
100
AcDbLine
 10
96.538088
 20
157.099746
 30
0.0
 11
96.538088
 21
162.099746
 31
0.0
  0
LINE
  5
ED
330
1F
100
AcDbEntity
  8
DRAW
  6
CONTINUOUS
 62
     6
100
AcDbLine
 10
96.538088
 20
162.099746
 30
0.0
 11
95.038092
 21
162.099746
 31
0.0
  0
LINE
  5
EE
330
1F
100
AcDbEntity
  8
DRAW
  6
CONTINUOUS
 62
     6
100
AcDbLine
 10
95.538092
 20
121.599746
 30
0.0
 11
95.538092
 21
126.599746
 31
0.0
  0
LINE
  5
EF
330
1F
100
AcDbEntity
  8
DRAW
  6
CONTINUOUS
 62
     6
100
AcDbLine
 10
95.538092
 20
126.599746
 30
0.0
 11
93.038092
 21
126.599746
 31
0.0
  0
LINE
  5
F0
330
1F
100
AcDbEntity
  8
DRAW
  6
CONTINUOUS
 62
     6
100
AcDbLine
 10
93.038092
 20
121.599746
 30
0.0
 11
95.538092
 21
121.599746
 31
0.0
  0
LINE
  5
F1
330
1F
100
AcDbEntity
  8
DRAW
  6
CONTINUOUS
 62
     6
100
AcDbLine
 10
147.538092
 20
180.099746
 30
0.0
 11
147.538092
 21
139.099746
 31
0.0
  0
LINE
  5
F2
330
1F
100
AcDbEntity
  8
DRAW
  6
CONTINUOUS
 62
     5
100
AcDbLine
 10
90.738092
 20
128.599746
 30
0.0
 11
90.738092
 21
119.599746
 31
0.0
  0
LINE
  5
F3
330
1F
100
AcDbEntity
  8
DRAW
  6
CONTINUOUS
 62
     5
100
AcDbLine
 10
90.738092
 20
137.099746
 30
0.0
 11
90.738092
 21
130.599746
 31
0.0
  0
LINE
  5
F4
330
1F
100
AcDbEntity
  8
DRAW
  6
CONTINUOUS
 62
     5
100
AcDbLine
 10
90.738092
 20
188.599746
 30
0.0
 11
90.738092
 21
182.099746
 31
0.0
  0
LINE
  5
F5
330
1F
100
AcDbEntity
  8
DRAW
  6
CONTINUOUS
 62
     5
100
AcDbLine
 10
147.538092
 20
180.099746
 30
0.0
 11
95.038092
 21
180.099746
 31
0.0
  0
LINE
  5
F6
330
1F
100
AcDbEntity
  8
DRAW
  6
CONTINUOUS
 62
     5
100
AcDbLine
 10
95.038092
 20
139.099746
 30
0.0
 11
147.538092
 21
139.099746
 31
0.0
  0
LINE
  5
F7
330
1F
100
AcDbEntity
  8
DRAW
  6
CONTINUOUS
 62
     5
100
AcDbLine
 10
92.532215
 20
199.599746
 30
0.0
 11
90.945272
 21
190.599746
 31
0.0
  0
LINE
  5
F8
330
1F
100
AcDbEntity
  8
DRAW
  6
CONTINUOUS
 62
     5
100
AcDbLine
 10
95.038092
 20
180.099746
 30
0.0
 11
95.038092
 21
162.099746
 31
0.0
  0
LINE
  5
F9
330
1F
100
AcDbEntity
  8
DRAW
  6
CONTINUOUS
 62
     5
100
AcDbLine
 10
95.038092
 20
157.099746
 30
0.0
 11
95.038092
 21
139.099746
 31
0.0
  0
CIRCLE
  5
FA
330
1F
100
AcDbEntity
  8
DRAW
  6
CONTINUOUS
 62
     5
100
AcDbCircle
 10
99.197861
 20
195.181748
 30
0.0
 40
2.283226896594909
  0
ARC
  5
FB
330
1F
100
AcDbEntity
  8
DRAW
  6
CONTINUOUS
 62
     5
100
AcDbCircle
 10
-99.197863
 20
195.181746
 30
0.0
 40
1.804188967953312
210
0.0
220
0.0
230
-1.0
100
AcDbArc
 50
7.69553
 51
67.558968
  0
LINE
  5
FC
330
1F
100
AcDbEntity
  8
DRAW
  6
CONTINUOUS
 62
     5
100
AcDbLine
 10
98.509146
 20
196.849308
 30
0.0
 11
98.509146
 21
195.423342
 31
0.0
  0
LINE
  5
FD
330
1F
100
AcDbEntity
  8
DRAW
  6
CONTINUOUS
 62
     5
100
AcDbLine
 10
98.509146
 20
195.423342
 30
0.0
 11
97.409923
 21
195.423342
 31
0.0
  0
LINE
  5
FE
330
1F
100
AcDbEntity
  8
DRAW
  6
CONTINUOUS
 62
     5
100
AcDbLine
 10
99.420234
 20
194.166438
 30
0.0
 11
98.712186
 21
194.93475
 31
0.0
  0
LINE
  5
FF
330
1F
100
AcDbEntity
  8
DRAW
  6
CONTINUOUS
 62
     5
100
AcDbLine
 10
98.712186
 20
194.93475
 30
0.0
 11
98.821914
 21
194.93475
 31
0.0
  0
ARC
  5
100
330
1F
100
AcDbEntity
  8
DRAW
  6
CONTINUOUS
 62
     5
100
AcDbCircle
 10
98.742555
 20
195.146182
 30
0.0
 40
0.2258343473795832
100
AcDbArc
 50
290.573117
 51
349.614785
  0
LINE
  5
101
330
1F
100
AcDbEntity
  8
DRAW
  6
CONTINUOUS
 62
     5
100
AcDbLine
 10
98.96469
 20
195.105472
 30
0.0
 11
98.96469
 21
196.970803
 31
0.0
  0
ARC
  5
102
330
1F
100
AcDbEntity
  8
DRAW
  6
CONTINUOUS
 62
     5
100
AcDbCircle
 10
-99.197863
 20
195.181746
 30
0.0
 40
1.804188967958859
210
0.0
220
0.0
230
-1.0
100
AcDbArc
 50
82.574324
 51
97.079846
  0
LINE
  5
103
330
1F
100
AcDbEntity
  8
DRAW
  6
CONTINUOUS
 62
     5
100
AcDbLine
 10
99.420234
 20
196.972178
 30
0.0
 11
99.420234
 21
194.166438
 31
0.0
  0
LINE
  5
104
330
1F
100
AcDbEntity
  8
DRAW
  6
CONTINUOUS
 62
     5
100
AcDbLine
 10
99.881178
 20
195.93915
 30
0.0
 11
99.881178
 21
196.85153
 31
0.0
  0
ARC
  5
105
330
1F
100
AcDbEntity
  8
DRAW
  6
CONTINUOUS
 62
     5
100
AcDbCircle
 10
-99.197863
 20
195.181746
 30
0.0
 40
1.804188967953139
210
0.0
220
0.0
230
-1.0
100
AcDbArc
 50
112.255524
 51
352.131446
  0
LINE
  5
106
330
1F
100
AcDbEntity
  8
DRAW
  6
CONTINUOUS
 62
     5
100
AcDbLine
 10
97.410661
 20
194.93475
 30
0.0
 11
97.987722
 21
194.93475
 31
0.0
  0
LINE
  5
107
330
1F
100
AcDbEntity
  8
DRAW
  6
CONTINUOUS
 62
     5
100
AcDbLine
 10
97.987722
 20
194.93475
 30
0.0
 11
99.329406
 21
193.618343
 31
0.0
  0
SPLINE
  5
108
330
1F
100
AcDbEntity
  8
DRAW
  6
CONTINUOUS
 62
     5
100
AcDbSpline
210
0.0
220
0.0
230
1.0
 70
     8
 71
     3
 72
    12
 73
     8
 74
     0
 42
0.0
 43
0.0
 40
0.0
 40
0.0
 40
0.0
 40
0.0
 40
0.3637905269759911
 40
0.9684673001366666
 40
1.640575178382409
 40
2.495589798140456
 40
3.36356733241194
 40
3.36356733241194
 40
3.36356733241194
 40
3.36356733241194
 10
99.32940606630464
 20
193.6183429702791
 30
0.0
 10
99.35099760035544
 20
193.6032749983254
 30
0.0
 10
99.41246962029757
 20
193.568403270318
 30
0.0
 10
99.52887057825379
 20
193.5340324774089
 30
0.0
 10
99.68366298952813
 20
193.5685856947253
 30
0.0
 10
99.83117532347003
 20
193.6713509562396
 30
0.0
 10
99.87693481582497
 20
193.7967202319017
 30
0.0
 10
99.88117758491435
 20
193.8590704263718
 30
0.0
  0
LINE
  5
109
330
1F
100
AcDbEntity
  8
DRAW
  6
CONTINUOUS
 62
     5
100
AcDbLine
 10
99.881178
 20
193.85907
 30
0.0
 11
99.881178
 21
195.461574
 31
0.0
  0
LINE
  5
10A
330
1F
100
AcDbEntity
  8
DRAW
  6
CONTINUOUS
 62
     5
100
AcDbLine
 10
99.881178
 20
195.461574
 30
0.0
 11
100.424634
 21
195.461574
 31
0.0
  0
ARC
  5
10B
330
1F
100
AcDbEntity
  8
DRAW
  6
CONTINUOUS
 62
     5
100
AcDbCircle
 10
100.400209
 20
195.700362
 30
0.0
 40
0.2400338493353888
100
AcDbArc
 50
275.840125
 51
95.840125
  0
LINE
  5
10C
330
1F
100
AcDbEntity
  8
DRAW
  6
CONTINUOUS
 62
     5
100
AcDbLine
 10
100.375785
 20
195.93915
 30
0.0
 11
99.881178
 21
195.93915
 31
0.0
  0
SPLINE
  5
10D
330
1F
100
AcDbEntity
  8
DRAW
  6
CONTINUOUS
 62
     5
100
AcDbSpline
210
0.0
220
0.0
230
1.0
 70
     8
 71
     3
 72
    31
 73
    27
 74
     0
 42
0.0
 43
0.0
 40
0.0
 40
0.0
 40
0.0
 40
0.0
 40
0.4099510339074079
 40
1.446824218052893
 40
2.704343203993066
 40
3.847343203993066
 40
4.767900643808748
 40
5.668462690532898
 40
6.555363474160922
 40
7.475459664784491
 40
8.376376975085499
 40
9.253185392015896
 40
10.161423246325
 40
11.08109710155848
 40
12.00176479405126
 40
12.87837017847461
 40
13.7422526936351
 40
14.60793277311018
 40
15.47665885191753
 40
16.34054136707802
 40
17.21714675150136
 40
18.13682060673484
 40
19.30582060673484
 40
20.53241304108294
 40
21.52898767451488
 40
22.1535931499952
 40
22.1535931499952
 40
22.1535931499952
 40
22.1535931499952
 10
109.8979615849144
 20
195.371099509579
 30
0.0
 10
109.8758626992569
 20
195.3906663569528
 30
0.0
 10
109.791622747247
 20
195.4543794866054
 30
0.0
 10
109.5955383155187
 20
195.4936231655478
 30
0.0
 10
109.3527055850898
 20
195.53470974706
 30
0.0
 10
109.1124139196802
 20
195.5309278737307
 30
0.0
 10
108.8992704584195
 20
195.5124761871673
 30
0.0
 10
108.7111125226808
 20
195.4565504750572
 30
0.0
 10
108.5359614520984
 20
195.3678496925243
 30
0.0
 10
108.3857993479424
 20
195.2413477394757
 30
0.0
 10
108.2583517608437
 20
195.0936522036083
 30
0.0
 10
108.1620365848768
 20
194.9243100430518
 30
0.0
 10
108.1023144605737
 20
194.7377263276981
 30
0.0
 10
108.0784760927967
 20
194.5395607965768
 30
0.0
 10
108.1028019481712
 20
194.3439949790287
 30
0.0
 10
108.1572175000413
 20
194.1593462027046
 30
0.0
 10
108.2459492148993
 20
193.9924378934724
 30
0.0
 10
108.3675651971771
 20
193.8481782209836
 30
0.0
 10
108.5175343292164
 20
193.7346297445741
 30
0.0
 10
108.6831078202091
 20
193.6440157946145
 30
0.0
 10
108.8680764191727
 20
193.5885882304613
 30
0.0
 10
109.081523863734
 20
193.5688418310261
 30
0.0
 10
109.3199740253691
 20
193.5714588999002
 30
0.0
 10
109.5652985151949
 20
193.5866539885819
 30
0.0
 10
109.761337764175
 20
193.6552342945203
 30
0.0
 10
109.861490074292
 20
193.7161193412379
 30
0.0
 10
109.8979615849143
 20
193.7424304263718
 30
0.0
  0
LINE
  5
10E
330
1F
100
AcDbEntity
  8
DRAW
  6
CONTINUOUS
 62
     5
100
AcDbLine
 10
109.897962
 20
193.74243
 30
0.0
 11
109.897962
 21
193.59555
 31
0.0
  0
LINE
  5
10F
330
1F
100
AcDbEntity
  8
DRAW
  6
CONTINUOUS
 62
     5
100
AcDbLine
 10
109.897962
 20
193.59555
 30
0.0
 11
110.759586
 21
193.59555
 31
0.0
  0
LINE
  5
110
330
1F
100
AcDbEntity
  8
DRAW
  6
CONTINUOUS
 62
     5
100
AcDbLine
 10
110.759586
 20
193.59555
 30
0.0
 11
110.759586
 21
196.092942
 31
0.0
  0
LINE
  5
111
330
1F
100
AcDbEntity
  8
DRAW
  6
CONTINUOUS
 62
     5
100
AcDbLine
 10
110.759586
 20
196.092942
 30
0.0
 11
109.897962
 21
196.092942
 31
0.0
  0
LINE
  5
112
330
1F
100
AcDbEntity
  8
DRAW
  6
CONTINUOUS
 62
     5
100
AcDbLine
 10
109.897962
 20
196.092942
 30
0.0
 11
109.897962
 21
195.3711
 31
0.0
  0
LINE
  5
113
330
1F
100
AcDbEntity
  8
DRAW
  6
CONTINUOUS
 62
     5
100
AcDbLine
 10
109.897962
 20
194.621982
 30
0.0
 11
109.897962
 21
194.550486
 31
0.0
  0
SPLINE
  5
114
330
1F
100
AcDbEntity
  8
DRAW
  6
CONTINUOUS
 62
     5
100
AcDbSpline
210
0.0
220
0.0
230
1.0
 70
     8
 71
     3
 72
    23
 73
    19
 74
     0
 42
0.0
 43
0.0
 40
0.0
 40
0.0
 40
0.0
 40
0.0
 40
0.6669640170203994
 40
1.367241105036289
 40
2.140113668917293
 40
2.988671268612208
 40
3.841507712486409
 40
4.61392016707269
 40
5.335952022325626
 40
6.020499317988973
 40
6.729216468903221
 40
7.451248324156158
 40
8.23595017836577
 40
9.084507778060683
 40
9.795872057201187
 40
10.65924169220739
 40
11.32417627545601
 40
11.97574438394506
 40
11.97574438394506
 40
11.97574438394506
 40
11.97574438394506
 10
109.8979615849144
 20
194.5504864263718
 30
0.0
 10
109.8935377985478
 20
194.5026692133812
 30
0.0
 10
109.8631547877721
 20
194.4043200664766
 30
0.0
 10
109.749835943973
 20
194.2938555571484
 30
0.0
 10
109.5997409657215
 20
194.215835495748
 30
0.0
 10
109.4194711432218
 20
194.1885921496011
 30
0.0
 10
109.2427577810742
 20
194.2234963793279
 30
0.0
 10
109.0863532610216
 20
194.2969360306607
 30
0.0
 10
108.9847681154922
 20
194.4223441326238
 30
0.0
 10
108.9389611837647
 20
194.573997394095
 30
0.0
 10
108.9833481809727
 20
194.7272472209416
 30
0.0
 10
109.087925805865
 20
194.8524876736059
 30
0.0
 10
109.240070413163
 20
194.9345352477024
 30
0.0
 10
109.4115265160532
 20
194.962874903127
 30
0.0
 10
109.5825746265013
 20
194.921992192114
 30
0.0
 10
109.7371954024646
 20
194.8700736242731
 30
0.0
 10
109.8576303193417
 20
194.7613534412694
 30
0.0
 10
109.8916701426128
 20
194.6684715465803
 30
0.0
 10
109.8979615849143
 20
194.6219824263718
 30
0.0
  0
ARC
  5
115
330
1F
100
AcDbEntity
  8
DRAW
  6
CONTINUOUS
 62
     5
100
AcDbCircle
 10
106.958384
 20
193.799271
 30
0.0
 40
1.68570809506187
100
AcDbArc
 50
71.872392
 51
120.405557
  0
LINE
  5
116
330
1F
100
AcDbEntity
  8
DRAW
  6
CONTINUOUS
 62
     5
100
AcDbLine
 10
106.105218
 20
195.253134
 30
0.0
 11
106.105218
 21
195.461574
 31
0.0
  0
LINE
  5
117
330
1F
100
AcDbEntity
  8
DRAW
  6
CONTINUOUS
 62
     5
100
AcDbLine
 10
106.105218
 20
195.461574
 30
0.0
 11
105.243594
 21
195.461574
 31
0.0
  0
LINE
  5
118
330
1F
100
AcDbEntity
  8
DRAW
  6
CONTINUOUS
 62
     5
100
AcDbLine
 10
105.243594
 20
195.461574
 30
0.0
 11
105.243594
 21
193.60095
 31
0.0
  0
LINE
  5
119
330
1F
100
AcDbEntity
  8
DRAW
  6
CONTINUOUS
 62
     5
100
AcDbLine
 10
105.243594
 20
193.60095
 30
0.0
 11
106.105218
 21
193.60095
 31
0.0
  0
LINE
  5
11A
330
1F
100
AcDbEntity
  8
DRAW
  6
CONTINUOUS
 62
     5
100
AcDbLine
 10
106.105218
 20
193.60095
 30
0.0
 11
106.105218
 21
194.465625
 31
0.0
  0
ARC
  5
11B
330
1F
100
AcDbEntity
  8
DRAW
  6
CONTINUOUS
 62
     5
100
AcDbCircle
 10
-106.659059
 20
194.171184
 30
0.0
 40
0.6272451125247973
210
0.0
220
0.0
230
-1.0
100
AcDbArc
 50
27.996676
 51
87.037487
  0
ARC
  5
11C
330
1F
100
AcDbEntity
  8
DRAW
  6
CONTINUOUS
 62
     5
100
AcDbCircle
 10
-106.665546
 20
194.487482
 30
0.0
 40
0.3125393542352186
210
0.0
220
0.0
230
-1.0
100
AcDbArc
 50
82.849317
 51
180.0
  0
LINE
  5
11D
330
1F
100
AcDbEntity
  8
DRAW
  6
CONTINUOUS
 62
     5
100
AcDbLine
 10
106.978086
 20
194.487482
 30
0.0
 11
106.978074
 21
193.60095
 31
0.0
  0
LINE
  5
11E
330
1F
100
AcDbEntity
  8
DRAW
  6
CONTINUOUS
 62
     5
100
AcDbLine
 10
106.978074
 20
193.60095
 30
0.0
 11
107.834298
 21
193.60095
 31
0.0
  0
LINE
  5
11F
330
1F
100
AcDbEntity
  8
DRAW
  6
CONTINUOUS
 62
     5
100
AcDbLine
 10
107.834298
 20
193.60095
 30
0.0
 11
107.834298
 21
194.893331
 31
0.0
  0
ARC
  5
120
330
1F
100
AcDbEntity
  8
DRAW
  6
CONTINUOUS
 62
     5
100
AcDbCircle
 10
107.250044
 20
194.864685
 30
0.0
 40
0.5849556750928668
100
AcDbArc
 50
2.806997
 51
66.545781
  0
LINE
  5
121
330
1F
100
AcDbEntity
  8
DRAW
  6
CONTINUOUS
 62
     5
100
AcDbLine
 10
104.826498
 20
193.60095
 30
0.0
 11
104.826498
 21
195.461574
 31
0.0
  0
LINE
  5
122
330
1F
100
AcDbEntity
  8
DRAW
  6
CONTINUOUS
 62
     5
100
AcDbLine
 10
104.826498
 20
195.461574
 30
0.0
 11
103.953858
 21
195.461574
 31
0.0
  0
LINE
  5
123
330
1F
100
AcDbEntity
  8
DRAW
  6
CONTINUOUS
 62
     5
100
AcDbLine
 10
103.953858
 20
195.461574
 30
0.0
 11
103.953858
 21
193.60095
 31
0.0
  0
LINE
  5
124
330
1F
100
AcDbEntity
  8
DRAW
  6
CONTINUOUS
 62
     5
100
AcDbLine
 10
103.953858
 20
193.60095
 30
0.0
 11
104.826498
 21
193.60095
 31
0.0
  0
LINE
  5
125
330
1F
100
AcDbEntity
  8
DRAW
  6
CONTINUOUS
 62
     5
100
AcDbLine
 10
103.953858
 20
196.098342
 30
0.0
 11
103.953858
 21
195.67023
 31
0.0
  0
LINE
  5
126
330
1F
100
AcDbEntity
  8
DRAW
  6
CONTINUOUS
 62
     5
100
AcDbLine
 10
103.953858
 20
195.67023
 30
0.0
 11
104.826498
 21
195.67023
 31
0.0
  0
LINE
  5
127
330
1F
100
AcDbEntity
  8
DRAW
  6
CONTINUOUS
 62
     5
100
AcDbLine
 10
104.826498
 20
195.67023
 30
0.0
 11
104.826498
 21
196.098342
 31
0.0
  0
LINE
  5
128
330
1F
100
AcDbEntity
  8
DRAW
  6
CONTINUOUS
 62
     5
100
AcDbLine
 10
104.826498
 20
196.098342
 30
0.0
 11
103.953858
 21
196.098342
 31
0.0
  0
LINE
  5
129
330
1F
100
AcDbEntity
  8
DRAW
  6
CONTINUOUS
 62
     5
100
AcDbLine
 10
103.608042
 20
195.66483
 30
0.0
 11
103.608042
 21
196.098342
 31
0.0
  0
LINE
  5
12A
330
1F
100
AcDbEntity
  8
DRAW
  6
CONTINUOUS
 62
     5
100
AcDbLine
 10
103.608042
 20
196.098342
 30
0.0
 11
102.888978
 21
196.098342
 31
0.0
  0
ARC
  5
12B
330
1F
100
AcDbEntity
  8
DRAW
  6
CONTINUOUS
 62
     5
100
AcDbCircle
 10
102.884555
 20
195.663658
 30
0.0
 40
0.4347067697199856
100
AcDbArc
 50
89.417049
 51
180.0
  0
LINE
  5
12C
330
1F
100
AcDbEntity
  8
DRAW
  6
CONTINUOUS
 62
     5
100
AcDbLine
 10
102.449848
 20
195.663658
 30
0.0
 11
102.44985
 21
195.461574
 31
0.0
  0
LINE
  5
12D
330
1F
100
AcDbEntity
  8
DRAW
  6
CONTINUOUS
 62
     5
100
AcDbLine
 10
102.44985
 20
195.461574
 30
0.0
 11
102.191946
 21
195.461574
 31
0.0
  0
LINE
  5
12E
330
1F
100
AcDbEntity
  8
DRAW
  6
CONTINUOUS
 62
     5
100
AcDbLine
 10
102.191946
 20
195.461574
 30
0.0
 11
102.191946
 21
194.93475
 31
0.0
  0
LINE
  5
12F
330
1F
100
AcDbEntity
  8
DRAW
  6
CONTINUOUS
 62
     5
100
AcDbLine
 10
102.191946
 20
194.93475
 30
0.0
 11
102.44985
 21
194.93475
 31
0.0
  0
LINE
  5
130
330
1F
100
AcDbEntity
  8
DRAW
  6
CONTINUOUS
 62
     5
100
AcDbLine
 10
102.44985
 20
194.93475
 30
0.0
 11
102.44985
 21
193.60095
 31
0.0
  0
LINE
  5
131
330
1F
100
AcDbEntity
  8
DRAW
  6
CONTINUOUS
 62
     5
100
AcDbLine
 10
102.44985
 20
193.60095
 30
0.0
 11
103.31169
 21
193.60095
 31
0.0
  0
LINE
  5
132
330
1F
100
AcDbEntity
  8
DRAW
  6
CONTINUOUS
 62
     5
100
AcDbLine
 10
103.31169
 20
193.60095
 30
0.0
 11
103.31169
 21
194.93475
 31
0.0
  0
LINE
  5
133
330
1F
100
AcDbEntity
  8
DRAW
  6
CONTINUOUS
 62
     5
100
AcDbLine
 10
103.31169
 20
194.93475
 30
0.0
 11
103.608042
 21
194.93475
 31
0.0
  0
LINE
  5
134
330
1F
100
AcDbEntity
  8
DRAW
  6
CONTINUOUS
 62
     5
100
AcDbLine
 10
103.608042
 20
194.93475
 30
0.0
 11
103.608042
 21
195.461574
 31
0.0
  0
LINE
  5
135
330
1F
100
AcDbEntity
  8
DRAW
  6
CONTINUOUS
 62
     5
100
AcDbLine
 10
103.608042
 20
195.461574
 30
0.0
 11
103.284258
 21
195.461574
 31
0.0
  0
LINE
  5
136
330
1F
100
AcDbEntity
  8
DRAW
  6
CONTINUOUS
 62
     5
100
AcDbLine
 10
103.284258
 20
195.461574
 30
0.0
 11
103.307349
 21
195.586484
 31
0.0
  0
ARC
  5
137
330
1F
100
AcDbEntity
  8
DRAW
  6
CONTINUOUS
 62
     5
100
AcDbCircle
 10
-103.424905
 20
195.538529
 30
0.0
 40
0.1269612610610667
210
0.0
220
0.0
230
-1.0
100
AcDbArc
 50
22.192188
 51
84.155327
  0
LINE
  5
138
330
1F
100
AcDbEntity
  8
DRAW
  6
CONTINUOUS
 62
     5
100
AcDbLine
 10
103.411976
 20
195.66483
 30
0.0
 11
103.608042
 21
195.66483
 31
0.0
  0
SPLINE
  5
139
330
1F
100
AcDbEntity
  8
DRAW
  6
CONTINUOUS
 62
     5
100
AcDbSpline
210
0.0
220
0.0
230
1.0
 70
     8
 71
     3
 72
    14
 73
    10
 74
     0
 42
0.0
 43
0.0
 40
0.0
 40
0.0
 40
0.0
 40
0.0
 40
0.4984505993576489
 40
0.9864936302473448
 40
1.590581372218658
 40
2.176804026165091
 40
2.634709038149013
 40
3.022672953996877
 40
3.382307490714356
 40
3.382307490714356
 40
3.382307490714356
 40
3.382307490714356
 10
114.8266495849143
 20
194.6329984263718
 30
0.0
 10
114.8283242532207
 20
194.6688477755718
 30
0.0
 10
114.847193822164
 20
194.7395840694592
 30
0.0
 10
114.9198605626965
 20
194.8333010421994
 30
0.0
 10
115.0381134126738
 20
194.8778797144617
 30
0.0
 10
115.16141162766
 20
194.8706712249602
 30
0.0
 10
115.2504368196376
 20
194.8110825982752
 30
0.0
 10
115.2979523754192
 20
194.7357213777751
 30
0.0
 10
115.3056619202706
 20
194.6806682452143
 30
0.0
 10
115.3042255849143
 20
194.6548144263718
 30
0.0
  0
LINE
  5
13A
330
1F
100
AcDbEntity
  8
DRAW
  6
CONTINUOUS
 62
     5
100
AcDbLine
 10
115.304226
 20
194.654814
 30
0.0
 11
115.304226
 21
194.539686
 31
0.0
  0
LINE
  5
13B
330
1F
100
AcDbEntity
  8
DRAW
  6
CONTINUOUS
 62
     5
100
AcDbLine
 10
115.304226
 20
194.539686
 30
0.0
 11
116.182266
 21
194.539686
 31
0.0
  0
SPLINE
  5
13C
330
1F
100
AcDbEntity
  8
DRAW
  6
CONTINUOUS
 62
     5
100
AcDbSpline
210
0.0
220
0.0
230
1.0
 70
     8
 71
     3
 72
    18
 73
    14
 74
     0
 42
0.0
 43
0.0
 40
0.0
 40
0.0
 40
0.0
 40
0.0
 40
0.5862226539464359
 40
1.937079048978856
 40
2.725655614697113
 40
3.510357468906729
 40
4.33775157089199
 40
5.29538250188785
 40
6.222921719387574
 40
7.036306007408925
 40
8.367711655586822
 40
9.276897005226814
 40
9.643276589810892
 40
9.643276589810892
 40
9.643276589810892
 40
9.643276589810892
 10
116.1822655849143
 20
194.5396864263718
 30
0.0
 10
116.1880000040811
 20
194.5815031015722
 30
0.0
 10
116.2003732376084
 20
194.7206954621682
 30
0.0
 10
116.183868419215
 20
194.9177680223738
 30
0.0
 10
116.1345733632767
 20
195.1235687624715
 30
0.0
 10
116.0509405909632
 20
195.2775442396747
 30
0.0
 10
115.9121560794216
 20
195.4070043691045
 30
0.0
 10
115.7243212286153
 20
195.4718790814218
 30
0.0
 10
115.5323756555985
 20
195.5064167867654
 30
0.0
 10
115.3102731550003
 20
195.4969011415318
 30
0.0
 10
115.0929826718965
 20
195.448997217491
 30
0.0
 10
114.9246179944733
 20
195.3631853160658
 30
0.0
 10
114.8480795657997
 20
195.3123650456303
 30
0.0
 10
114.8266495849143
 20
195.2969824263718
 30
0.0
  0
LINE
  5
13D
330
1F
100
AcDbEntity
  8
DRAW
  6
CONTINUOUS
 62
     5
100
AcDbLine
 10
114.82665
 20
195.296982
 30
0.0
 11
114.82665
 21
195.461574
 31
0.0
  0
LINE
  5
13E
330
1F
100
AcDbEntity
  8
DRAW
  6
CONTINUOUS
 62
     5
100
AcDbLine
 10
114.82665
 20
195.461574
 30
0.0
 11
113.997858
 21
195.461574
 31
0.0
  0
LINE
  5
13F
330
1F
100
AcDbEntity
  8
DRAW
  6
CONTINUOUS
 62
     5
100
AcDbLine
 10
113.997858
 20
195.461574
 30
0.0
 11
113.997858
 21
193.60095
 31
0.0
  0
LINE
  5
140
330
1F
100
AcDbEntity
  8
DRAW
  6
CONTINUOUS
 62
     5
100
AcDbLine
 10
113.997858
 20
193.60095
 30
0.0
 11
114.82665
 21
193.60095
 31
0.0
  0
LINE
  5
141
330
1F
100
AcDbEntity
  8
DRAW
  6
CONTINUOUS
 62
     5
100
AcDbLine
 10
114.82665
 20
193.60095
 30
0.0
 11
114.82665
 21
194.632998
 31
0.0
  0
SPLINE
  5
142
330
1F
100
AcDbEntity
  8
DRAW
  6
CONTINUOUS
 62
     5
100
AcDbSpline
210
0.0
220
0.0
230
1.0
 70
     8
 71
     3
 72
    14
 73
    10
 74
     0
 42
0.0
 43
0.0
 40
0.0
 40
0.0
 40
0.0
 40
0.0
 40
0.5849692299600031
 40
1.118602999506121
 40
2.096488473373078
 40
2.890934821467145
 40
3.734969180957322
 40
4.493595571218039
 40
5.244342532583844
 40
5.244342532583844
 40
5.244342532583844
 40
5.244342532583844
 10
112.8506815849144
 20
194.1882544263718
 30
0.0
 10
112.8179555217854
 20
194.1617419280345
 30
0.0
 10
112.7509340098057
 20
194.1165404657461
 30
0.0
 10
112.6150103032216
 20
194.0490144762119
 30
0.0
 10
112.4462723780041
 20
194.0259901958017
 30
0.0
 10
112.2583913717241
 20
194.0508790263829
 30
0.0
 10
112.0951249951559
 20
194.1115622218979
 30
0.0
 10
111.95642406561
 20
194.2169363639025
 30
0.0
 10
111.9112723860115
 20
194.3217817300194
 30
0.0
 10
111.9011455849143
 20
194.3748784263718
 30
0.0
  0
LINE
  5
143
330
1F
100
AcDbEntity
  8
DRAW
  6
CONTINUOUS
 62
     5
100
AcDbLine
 10
111.901146
 20
194.374878
 30
0.0
 11
112.230546
 21
194.374878
 31
0.0
  0
LINE
  5
144
330
1F
100
AcDbEntity
  8
DRAW
  6
CONTINUOUS
 62
     5
100
AcDbLine
 10
112.230546
 20
194.374878
 30
0.0
 11
112.28001
 21
194.374878
 31
0.0
  0
LINE
  5
145
330
1F
100
AcDbEntity
  8
DRAW
  6
CONTINUOUS
 62
     5
100
AcDbLine
 10
112.28001
 20
194.374878
 30
0.0
 11
113.745354
 21
194.380494
 31
0.0
  0
SPLINE
  5
146
330
1F
100
AcDbEntity
  8
DRAW
  6
CONTINUOUS
 62
     5
100
AcDbSpline
210
0.0
220
0.0
230
1.0
 70
     8
 71
     3
 72
    41
 73
    37
 74
     0
 42
0.0
 43
0.0
 40
0.0
 40
0.0
 40
0.0
 40
0.0
 40
0.3630440744592747
 40
1.791700086240979
 40
2.820865281921449
 40
3.849931363375884
 40
4.856790340591665
 40
5.83759868068671
 40
6.970581469611588
 40
8.29123736726245
 40
9.767247191077999
 40
11.3455465923324
 40
12.80086580130341
 40
14.00866255572859
 40
15.04597687646266
 40
15.94689418676366
 40
16.84554205995983
 40
17.75377991426894
 40
18.72405101040651
 40
19.59393433591632
 40
20.2929722326603
 40
21.13632971514732
 40
21.79231523328016
 40
22.79782107612743
 40
23.68135899268789
 40
25.22006762332594
 40
26.40656246107282
 40
27.65394131290573
 40
29.43754020279101
 40
31.10758122025136
 40
31.88123876723194
 40
32.57478040260793
 40
33.22571281077332
 40
33.82134105053366
 40
34.4354371342209
 40
35.07059774383078
 40
35.07059774383078
 40
35.07059774383078
 40
35.07059774383078
 10
113.7453535849143
 20
194.3804944263717
 30
0.0
 10
113.7523568849136
 20
194.4056779561704
 30
0.0
 10
113.7803955780609
 20
194.5321987884621
 30
0.0
 10
113.7497634027815
 20
194.7399754646319
 30
0.0
 10
113.6653429837958
 20
194.9764097215505
 30
0.0
 10
113.5453733511501
 20
195.1650762643824
 30
0.0
 10
113.3832727582675
 20
195.3123672736177
 30
0.0
 10
113.1901877659375
 20
195.4302184677759
 30
0.0
 10
112.9542495296789
 20
195.5090170904095
 30
0.0
 10
112.6759047128221
 20
195.5639584947577
 30
0.0
 10
112.3602707524616
 20
195.5767213938445
 30
0.0
 10
112.0352698127602
 20
195.5588690132549
 30
0.0
 10
111.7352737869286
 20
195.4961295076764
 30
0.0
 10
111.484574285047
 20
195.4001595133757
 30
0.0
 10
111.298671620407
 20
195.2660643063105
 30
0.0
 10
111.1658560102532
 20
195.1087822561628
 30
0.0
 10
111.0722945290974
 20
194.9364549379793
 30
0.0
 10
111.0095409625888
 20
194.7453301734872
 30
0.0
 10
110.9884132590892
 20
194.5469664121376
 30
0.0
 10
111.0087585144055
 20
194.3635300608778
 30
0.0
 10
111.0649093212873
 20
194.1986380639805
 30
0.0
 10
111.1324717062628
 20
194.0544773919112
 30
0.0
 10
111.2391249388216
 20
193.9087225919521
 30
0.0
 10
111.3661867292232
 20
193.773301843656
 30
0.0
 10
111.5850035832046
 20
193.6547157791996
 30
0.0
 10
111.8304911941782
 20
193.5653023724546
 30
0.0
 10
112.1137463406939
 20
193.5196543024171
 30
0.0
 10
112.4173533477398
 20
193.4997496644538
 30
0.0
 10
112.7554913799915
 20
193.5266292351224
 30
0.0
 10
113.0564627206502
 20
193.5875506714635
 30
0.0
 10
113.2631096448225
 20
193.6798044052263
 30
0.0
 10
113.399465766326
 20
193.74885103429
 30
0.0
 10
113.5098755865746
 20
193.8365104829329
 30
0.0
 10
113.5951964911388
 20
193.9405339932087
 30
0.0
 10
113.6636138985203
 20
194.0554075240727
 30
0.0
 10
113.6885257789892
 20
194.143119624962
 30
0.0
 10
113.6958895849143
 20
194.1882544263718
 30
0.0
  0
LINE
  5
147
330
1F
100
AcDbEntity
  8
DRAW
  6
CONTINUOUS
 62
     5
100
AcDbLine
 10
113.69589
 20
194.188254
 30
0.0
 11
112.850682
 21
194.188254
 31
0.0
  0
SPLINE
  5
148
330
1F
100
AcDbEntity
  8
DRAW
  6
CONTINUOUS
 62
     5
100
AcDbSpline
210
0.0
220
0.0
230
1.0
 70
     8
 71
     3
 72
    16
 73
    12
 74
     0
 42
0.0
 43
0.0
 40
0.0
 40
0.0
 40
0.0
 40
0.0
 40
0.5474303608679332
 40
1.248433213929174
 40
1.669148378856708
 40
2.089863543784241
 40
2.533741905500601
 40
3.889403367665844
 40
4.652346353740162
 40
5.302653973255724
 40
5.802071634136879
 40
5.802071634136879
 40
5.802071634136879
 40
5.802071634136879
 10
111.9011455849143
 20
194.7755584263718
 30
0.0
 10
111.9096367598526
 20
194.8140479193298
 30
0.0
 10
111.943813751655
 20
194.8987092039453
 30
0.0
 10
112.0284478526812
 20
194.9909819573624
 30
0.0
 10
112.1301120695988
 20
195.0366532402875
 30
0.0
 10
112.207530366647
 20
195.0895292563845
 30
0.0
 10
112.3670579158374
 20
195.1195931167117
 30
0.0
 10
112.557732742294
 20
195.1007307014437
 30
0.0
 10
112.734850665161
 20
195.0022822665866
 30
0.0
 10
112.8270035843405
 20
194.8940477003782
 30
0.0
 10
112.8479399607072
 20
194.8114118280055
 30
0.0
 10
112.8506815849144
 20
194.7755584263718
 30
0.0
  0
LINE
  5
149
330
1F
100
AcDbEntity
  8
DRAW
  6
CONTINUOUS
 62
     5
100
AcDbLine
 10
112.850682
 20
194.775558
 30
0.0
 11
112.28001
 21
194.775558
 31
0.0
  0
LINE
  5
14A
330
1F
100
AcDbEntity
  8
DRAW
  6
CONTINUOUS
 62
     5
100
AcDbLine
 10
112.28001
 20
194.775558
 30
0.0
 11
111.901146
 21
194.775558
 31
0.0
  0
LINE
  5
14B
330
1F
100
AcDbEntity
  8
DRAW
  6
CONTINUOUS
 62
     5
100
AcDbLine
 10
104.216506
 20
121.551892
 30
0.0
 11
104.216506
 21
122.30731
 31
0.0
  0
ARC
  5
14C
330
1F
100
AcDbEntity
  8
DRAW
  6
CONTINUOUS
 62
     5
100
AcDbCircle
 10
-103.966506
 20
124.039361
 30
0.0
 40
1.749999999999972
210
0.0
220
0.0
230
-1.0
100
AcDbArc
 50
261.786789
 51
98.213211
  0
LINE
  5
14D
330
1F
100
AcDbEntity
  8
DRAW
  6
CONTINUOUS
 62
     5
100
AcDbLine
 10
104.216506
 20
125.771412
 30
0.0
 11
104.216505
 21
126.526829
 31
0.0
  0
ARC
  5
14E
330
1F
100
AcDbEntity
  8
DRAW
  6
CONTINUOUS
 62
     5
100
AcDbCircle
 10
103.966506
 20
124.039361
 30
0.0
 40
2.499999999999982
100
AcDbArc
 50
84.260838
 51
275.73917
  0
LINE
  5
14F
330
1F
100
AcDbEntity
  8
DRAW
  6
CONTINUOUS
 62
     5
100
AcDbLine
 10
108.466506
 20
121.551892
 30
0.0
 11
108.466506
 21
122.30731
 31
0.0
  0
ARC
  5
150
330
1F
100
AcDbEntity
  8
DRAW
  6
CONTINUOUS
 62
     5
100
AcDbCircle
 10
-108.216506
 20
124.039361
 30
0.0
 40
1.750000000000005
210
0.0
220
0.0
230
-1.0
100
AcDbArc
 50
261.786787
 51
347.626375
  0
LINE
  5
151
330
1F
100
AcDbEntity
  8
DRAW
  6
CONTINUOUS
 62
     5
100
AcDbLine
 10
106.507156
 20
123.664361
 30
0.0
 11
107.966506
 21
123.664361
 31
0.0
  0
LINE
  5
152
330
1F
100
AcDbEntity
  8
DRAW
  6
CONTINUOUS
 62
     5
100
AcDbLine
 10
107.966506
 20
123.664361
 30
0.0
 11
107.966506
 21
124.414361
 31
0.0
  0
LINE
  5
153
330
1F
100
AcDbEntity
  8
DRAW
  6
CONTINUOUS
 62
     5
100
AcDbLine
 10
107.966506
 20
124.414361
 30
0.0
 11
106.507156
 21
124.414361
 31
0.0
  0
ARC
  5
154
330
1F
100
AcDbEntity
  8
DRAW
  6
CONTINUOUS
 62
     5
100
AcDbCircle
 10
-108.216506
 20
124.039361
 30
0.0
 40
1.749999999999989
210
0.0
220
0.0
230
-1.0
100
AcDbArc
 50
12.373619
 51
98.213211
  0
LINE
  5
155
330
1F
100
AcDbEntity
  8
DRAW
  6
CONTINUOUS
 62
     5
100
AcDbLine
 10
108.466506
 20
125.771412
 30
0.0
 11
108.466506
 21
126.526829
 31
0.0
  0
ARC
  5
156
330
1F
100
AcDbEntity
  8
DRAW
  6
CONTINUOUS
 62
     5
100
AcDbCircle
 10
108.216506
 20
124.039361
 30
0.0
 40
2.499999999999953
100
AcDbArc
 50
84.26083
 51
275.73917
  0
LINE
  5
157
330
1F
100
AcDbEntity
  8
DRAW
  6
CONTINUOUS
 62
     4
100
AcDbLine
 10
118.038092
 20
119.599746
 30
0.0
 11
118.038092
 21
119.099746
 31
0.0
  0
ARC
  5
158
330
1F
100
AcDbEntity
  8
DRAW
  6
CONTINUOUS
 62
     4
100
AcDbCircle
 10
116.538092
 20
119.099746
 30
0.0
 40
1.5
100
AcDbArc
 50
270.0
 51
360.0
  0
LINE
  5
159
330
1F
100
AcDbEntity
  8
DRAW
  6
CONTINUOUS
 62
     4
100
AcDbLine
 10
116.538092
 20
117.599746
 30
0.0
 11
88.738092
 21
117.599746
 31
0.0
  0
LINE
  5
15A
330
1F
100
AcDbEntity
  8
DRAW
  6
CONTINUOUS
 62
     4
100
AcDbLine
 10
88.738092
 20
141.599746
 30
0.0
 11
88.738092
 21
117.599746
 31
0.0
  0
LINE
  5
15B
330
1F
100
AcDbEntity
  8
DRAW
  6
CONTINUOUS
 62
     5
100
AcDbLine
 10
89.238092
 20
141.599746
 30
0.0
 11
93.038092
 21
141.599746
 31
0.0
  0
LINE
  5
15C
330
1F
100
AcDbEntity
  8
DRAW
  6
CONTINUOUS
 62
     5
100
AcDbLine
 10
93.038092
 20
143.299748
 30
0.0
 11
93.038092
 21
141.599746
 31
0.0
  0
LINE
  5
15D
330
1F
100
AcDbEntity
  8
DRAW
  6
CONTINUOUS
 62
     4
100
AcDbLine
 10
90.854016
 20
201.599746
 30
0.0
 11
88.738092
 21
189.599746
 31
0.0
  0
LINE
  5
15E
330
1F
100
AcDbEntity
  8
DRAW
  6
CONTINUOUS
 62
     4
100
AcDbLine
 10
90.854016
 20
201.599746
 30
0.0
 11
116.538092
 21
201.599746
 31
0.0
  0
ARC
  5
15F
330
1F
100
AcDbEntity
  8
DRAW
  6
CONTINUOUS
 62
     4
100
AcDbCircle
 10
116.538092
 20
200.099746
 30
0.0
 40
1.5
100
AcDbArc
 50
0.0
 51
90.0
  0
LINE
  5
160
330
1F
100
AcDbEntity
  8
DRAW
  6
CONTINUOUS
 62
     4
100
AcDbLine
 10
118.038092
 20
200.099746
 30
0.0
 11
118.038092
 21
199.599746
 31
0.0
  0
LINE
  5
161
330
1F
100
AcDbEntity
  8
DRAW
  6
CONTINUOUS
 62
     4
100
AcDbLine
 10
118.038092
 20
199.599746
 30
0.0
 11
118.038092
 21
190.599746
 31
0.0
  0
LINE
  5
162
330
1F
100
AcDbEntity
  8
DRAW
  6
CONTINUOUS
 62
     5
100
AcDbLine
 10
117.838092
 20
199.599746
 30
0.0
 11
92.532215
 21
199.599746
 31
0.0
  0
LINE
  5
163
330
1F
100
AcDbEntity
  8
DRAW
  6
CONTINUOUS
 62
     5
100
AcDbLine
 10
90.945272
 20
190.599746
 30
0.0
 11
117.838092
 21
190.599746
 31
0.0
  0
LINE
  5
164
330
1F
100
AcDbEntity
  8
DRAW
  6
CONTINUOUS
 62
     5
100
AcDbLine
 10
117.838092
 20
199.599746
 30
0.0
 11
118.038092
 21
199.599746
 31
0.0
  0
LINE
  5
165
330
1F
100
AcDbEntity
  8
DRAW
  6
CONTINUOUS
 62
     5
100
AcDbLine
 10
117.838092
 20
190.599746
 30
0.0
 11
118.038092
 21
190.599746
 31
0.0
  0
LINE
  5
166
330
1F
100
AcDbEntity
  8
DRAW
  6
CONTINUOUS
 62
     4
100
AcDbLine
 10
118.038092
 20
190.599746
 30
0.0
 11
135.038092
 21
190.599746
 31
0.0
  0
ARC
  5
167
330
1F
100
AcDbEntity
  8
DRAW
  6
CONTINUOUS
 62
     4
100
AcDbCircle
 10
135.038092
 20
189.099746
 30
0.0
 40
1.5
100
AcDbArc
 50
0.0
 51
90.0
  0
LINE
  5
168
330
1F
100
AcDbEntity
  8
DRAW
  6
CONTINUOUS
 62
     4
100
AcDbLine
 10
136.538092
 20
189.099746
 30
0.0
 11
136.538092
 21
188.599746
 31
0.0
  0
LINE
  5
169
330
1F
100
AcDbEntity
  8
DRAW
  6
CONTINUOUS
 62
     4
100
AcDbLine
 10
136.538092
 20
188.599746
 30
0.0
 11
136.538092
 21
182.099746
 31
0.0
  0
LINE
  5
16A
330
1F
100
AcDbEntity
  8
DRAW
  6
CONTINUOUS
 62
     4
100
AcDbLine
 10
136.538092
 20
182.099746
 30
0.0
 11
147.538092
 21
182.099746
 31
0.0
  0
LINE
  5
16B
330
1F
100
AcDbEntity
  8
DRAW
  6
CONTINUOUS
 62
     5
100
AcDbLine
 10
136.338092
 20
188.599746
 30
0.0
 11
90.738092
 21
188.599746
 31
0.0
  0
LINE
  5
16C
330
1F
100
AcDbEntity
  8
DRAW
  6
CONTINUOUS
 62
     5
100
AcDbLine
 10
90.738092
 20
182.099746
 30
0.0
 11
136.338092
 21
182.099746
 31
0.0
  0
LINE
  5
16D
330
1F
100
AcDbEntity
  8
DRAW
  6
CONTINUOUS
 62
     5
100
AcDbLine
 10
136.338092
 20
188.599746
 30
0.0
 11
136.538092
 21
188.599746
 31
0.0
  0
LINE
  5
16E
330
1F
100
AcDbEntity
  8
DRAW
  6
CONTINUOUS
 62
     5
100
AcDbLine
 10
136.338092
 20
182.099746
 30
0.0
 11
136.538092
 21
182.099746
 31
0.0
  0
LINE
  5
16F
330
1F
100
AcDbEntity
  8
DRAW
  6
CONTINUOUS
 62
     6
100
AcDbLine
 10
147.538092
 20
181.899746
 30
0.0
 11
147.538092
 21
182.099746
 31
0.0
  0
LINE
  5
170
330
1F
100
AcDbEntity
  8
DRAW
  6
CONTINUOUS
 62
     4
100
AcDbLine
 10
118.038092
 20
128.599746
 30
0.0
 11
118.038092
 21
119.599746
 31
0.0
  0
LINE
  5
171
330
1F
100
AcDbEntity
  8
DRAW
  6
CONTINUOUS
 62
     5
100
AcDbLine
 10
117.838092
 20
128.599746
 30
0.0
 11
90.738092
 21
128.599746
 31
0.0
  0
LINE
  5
172
330
1F
100
AcDbEntity
  8
DRAW
  6
CONTINUOUS
 62
     5
100
AcDbLine
 10
90.738092
 20
119.599746
 30
0.0
 11
117.838092
 21
119.599746
 31
0.0
  0
LINE
  5
173
330
1F
100
AcDbEntity
  8
DRAW
  6
CONTINUOUS
 62
     5
100
AcDbLine
 10
117.838092
 20
128.599746
 30
0.0
 11
118.038092
 21
128.599746
 31
0.0
  0
LINE
  5
174
330
1F
100
AcDbEntity
  8
DRAW
  6
CONTINUOUS
 62
     5
100
AcDbLine
 10
117.838092
 20
119.599746
 30
0.0
 11
118.038092
 21
119.599746
 31
0.0
  0
LINE
  5
175
330
1F
100
AcDbEntity
  8
DRAW
  6
CONTINUOUS
 62
     4
100
AcDbLine
 10
135.038092
 20
128.599746
 30
0.0
 11
118.038092
 21
128.599746
 31
0.0
  0
ARC
  5
176
330
1F
100
AcDbEntity
  8
DRAW
  6
CONTINUOUS
 62
     4
100
AcDbCircle
 10
-135.038092
 20
130.099746
 30
0.0
 40
1.5
210
0.0
220
0.0
230
-1.0
100
AcDbArc
 50
180.0
 51
270.0
  0
LINE
  5
177
330
1F
100
AcDbEntity
  8
DRAW
  6
CONTINUOUS
 62
     4
100
AcDbLine
 10
136.538092
 20
130.599746
 30
0.0
 11
136.538092
 21
130.099746
 31
0.0
  0
LINE
  5
178
330
1F
100
AcDbEntity
  8
DRAW
  6
CONTINUOUS
 62
     4
100
AcDbLine
 10
136.538092
 20
137.099746
 30
0.0
 11
136.538092
 21
130.599746
 31
0.0
  0
LINE
  5
179
330
1F
100
AcDbEntity
  8
DRAW
  6
CONTINUOUS
 62
     5
100
AcDbLine
 10
136.338092
 20
137.099746
 30
0.0
 11
90.738092
 21
137.099746
 31
0.0
  0
LINE
  5
17A
330
1F
100
AcDbEntity
  8
DRAW
  6
CONTINUOUS
 62
     5
100
AcDbLine
 10
90.738092
 20
130.599746
 30
0.0
 11
136.338092
 21
130.599746
 31
0.0
  0
LINE
  5
17B
330
1F
100
AcDbEntity
  8
DRAW
  6
CONTINUOUS
 62
     5
100
AcDbLine
 10
136.338092
 20
137.099746
 30
0.0
 11
136.538092
 21
137.099746
 31
0.0
  0
LINE
  5
17C
330
1F
100
AcDbEntity
  8
DRAW
  6
CONTINUOUS
 62
     5
100
AcDbLine
 10
136.338092
 20
130.599746
 30
0.0
 11
136.538092
 21
130.599746
 31
0.0
  0
LINE
  5
17D
330
1F
100
AcDbEntity
  8
DRAW
  6
CONTINUOUS
 62
     4
100
AcDbLine
 10
147.538092
 20
137.099746
 30
0.0
 11
136.538092
 21
137.099746
 31
0.0
  0
LINE
  5
17E
330
1F
100
AcDbEntity
  8
DRAW
  6
CONTINUOUS
 62
     6
100
AcDbLine
 10
147.538092
 20
137.299746
 30
0.0
 11
147.538092
 21
137.099746
 31
0.0
  0
LINE
  5
17F
330
1F
100
AcDbEntity
  8
DRAW
  6
CONTINUOUS
 62
     4
100
AcDbLine
 10
88.738092
 20
189.599746
 30
0.0
 11
88.738092
 21
178.599746
 31
0.0
  0
LINE
  5
180
330
1F
100
AcDbEntity
  8
DRAW
  6
CONTINUOUS
 62
     5
100
AcDbLine
 10
91.838092
 20
177.599746
 30
0.0
 11
93.038092
 21
177.599746
 31
0.0
  0
LINE
  5
181
330
1F
100
AcDbEntity
  8
DRAW
  6
CONTINUOUS
 62
     4
100
AcDbLine
 10
88.738092
 20
177.599746
 30
0.0
 11
88.738092
 21
178.599746
 31
0.0
  0
LINE
  5
182
330
1F
100
AcDbEntity
  8
DRAW
  6
CONTINUOUS
 62
     4
100
AcDbLine
 10
89.892793
 20
175.599746
 30
0.0
 11
88.738092
 21
177.599746
 31
0.0
  0
LINE
  5
183
330
1F
100
AcDbEntity
  8
DRAW
  6
CONTINUOUS
 62
     4
100
AcDbLine
 10
91.302194
 20
175.599746
 30
0.0
 11
89.892793
 21
175.599746
 31
0.0
  0
LINE
  5
184
330
1F
100
AcDbEntity
  8
DRAW
  6
CONTINUOUS
 62
     4
100
AcDbLine
 10
91.704118
 20
177.099746
 30
0.0
 11
91.302194
 21
175.599746
 31
0.0
  0
LINE
  5
185
330
1F
100
AcDbEntity
  8
DRAW
  6
CONTINUOUS
 62
     6
100
AcDbLine
 10
93.038092
 20
121.599746
 30
0.0
 11
93.038092
 21
126.599746
 31
0.0
  0
LINE
  5
186
330
1F
100
AcDbEntity
  8
DRAW
  6
CONTINUOUS
 62
     6
100
AcDbLine
 10
93.038092
 20
197.599747
 30
0.0
 11
93.038092
 21
192.599747
 31
0.0
  0
LINE
  5
187
330
1F
100
AcDbEntity
  8
DRAW
  6
CONTINUOUS
 62
     6
100
AcDbLine
 10
95.038092
 20
157.099746
 30
0.0
 11
95.038092
 21
162.099746
 31
0.0
  0
LINE
  5
188
330
1F
100
AcDbEntity
  8
DRAW
  6
CONTINUOUS
 62
     4
100
AcDbLine
 10
93.038092
 20
176.599746
 30
0.0
 11
92.588092
 21
174.599746
 31
0.0
  0
LINE
  5
189
330
1F
100
AcDbEntity
  8
DRAW
  6
CONTINUOUS
 62
     4
100
AcDbLine
 10
93.038092
 20
172.599746
 30
0.0
 11
92.588092
 21
174.599746
 31
0.0
  0
LINE
  5
18A
330
1F
100
AcDbEntity
  8
DRAW
  6
CONTINUOUS
 62
     5
100
AcDbLine
 10
93.538093
 20
121.687911
 30
0.0
 11
95.538095
 21
122.040565
 31
0.0
  0
LINE
  5
18B
330
1F
100
AcDbEntity
  8
DRAW
  6
CONTINUOUS
 62
     5
100
AcDbLine
 10
93.538093
 20
121.687911
 30
0.0
 11
93.038092
 21
121.599747
 31
0.0
  0
LINE
  5
18C
330
1F
100
AcDbEntity
  8
DRAW
  6
CONTINUOUS
 62
     5
100
AcDbLine
 10
93.538092
 20
126.511582
 30
0.0
 11
95.538094
 21
126.158927
 31
0.0
  0
LINE
  5
18D
330
1F
100
AcDbEntity
  8
DRAW
  6
CONTINUOUS
 62
     5
100
AcDbLine
 10
93.538092
 20
126.511582
 30
0.0
 11
93.538093
 21
121.687911
 31
0.0
  0
LINE
  5
18E
330
1F
100
AcDbEntity
  8
DRAW
  6
CONTINUOUS
 62
     5
100
AcDbLine
 10
93.038092
 20
126.599745
 30
0.0
 11
93.538092
 21
126.511582
 31
0.0
  0
LINE
  5
18F
330
1F
100
AcDbEntity
  8
DRAW
  6
CONTINUOUS
 62
     5
100
AcDbLine
 10
93.538093
 20
197.511584
 30
0.0
 11
95.538095
 21
197.158929
 31
0.0
  0
LINE
  5
190
330
1F
100
AcDbEntity
  8
DRAW
  6
CONTINUOUS
 62
     5
100
AcDbLine
 10
93.538093
 20
197.511584
 30
0.0
 11
93.038092
 21
197.599747
 31
0.0
  0
LINE
  5
191
330
1F
100
AcDbEntity
  8
DRAW
  6
CONTINUOUS
 62
     5
100
AcDbLine
 10
93.538092
 20
192.687911
 30
0.0
 11
95.538094
 21
193.040565
 31
0.0
  0
LINE
  5
192
330
1F
100
AcDbEntity
  8
DRAW
  6
CONTINUOUS
 62
     5
100
AcDbLine
 10
93.538092
 20
192.687911
 30
0.0
 11
93.538093
 21
197.511584
 31
0.0
  0
LINE
  5
193
330
1F
100
AcDbEntity
  8
DRAW
  6
CONTINUOUS
 62
     5
100
AcDbLine
 10
93.038092
 20
192.599747
 30
0.0
 11
93.538092
 21
192.687911
 31
0.0
  0
LINE
  5
194
330
1F
100
AcDbEntity
  8
DRAW
  6
CONTINUOUS
 62
     5
100
AcDbLine
 10
95.538089
 20
157.187909
 30
0.0
 11
96.538089
 21
157.364236
 31
0.0
  0
LINE
  5
195
330
1F
100
AcDbEntity
  8
DRAW
  6
CONTINUOUS
 62
     5
100
AcDbLine
 10
95.538089
 20
157.187909
 30
0.0
 11
95.038092
 21
157.099746
 31
0.0
  0
LINE
  5
196
330
1F
100
AcDbEntity
  8
DRAW
  6
CONTINUOUS
 62
     5
100
AcDbLine
 10
95.538088
 20
162.011583
 30
0.0
 11
96.538089
 21
161.835256
 31
0.0
  0
LINE
  5
197
330
1F
100
AcDbEntity
  8
DRAW
  6
CONTINUOUS
 62
     5
100
AcDbLine
 10
95.538088
 20
162.011583
 30
0.0
 11
95.538089
 21
157.187909
 31
0.0
  0
LINE
  5
198
330
1F
100
AcDbEntity
  8
DRAW
  6
CONTINUOUS
 62
     5
100
AcDbLine
 10
95.038092
 20
162.099746
 30
0.0
 11
95.538088
 21
162.011583
 31
0.0
  0
LINE
  5
199
330
1F
100
AcDbEntity
  8
DRAW
  6
CONTINUOUS
 62
     4
100
AcDbLine
 10
91.704118
 20
177.099746
 30
0.0
 11
93.038092
 21
177.099746
 31
0.0
  0
LINE
  5
19A
330
1F
100
AcDbEntity
  8
DRAW
  6
CONTINUOUS
 62
     4
100
AcDbLine
 10
147.538092
 20
182.099746
 30
0.0
 11
148.538092
 21
182.099746
 31
0.0
  0
ARC
  5
19B
330
1F
100
AcDbEntity
  8
DRAW
  6
CONTINUOUS
 62
     4
100
AcDbCircle
 10
-148.538092
 20
181.099746
 30
0.0
 40
1.0
210
0.0
220
0.0
230
-1.0
100
AcDbArc
 50
90.0
 51
180.0
  0
LINE
  5
19C
330
1F
100
AcDbEntity
  8
DRAW
  6
CONTINUOUS
 62
     4
100
AcDbLine
 10
149.538092
 20
138.099746
 30
0.0
 11
149.538092
 21
181.099746
 31
0.0
  0
ARC
  5
19D
330
1F
100
AcDbEntity
  8
DRAW
  6
CONTINUOUS
 62
     4
100
AcDbCircle
 10
148.538092
 20
138.099746
 30
0.0
 40
1.0
100
AcDbArc
 50
270.0
 51
360.0
  0
LINE
  5
19E
330
1F
100
AcDbEntity
  8
DRAW
  6
CONTINUOUS
 62
     4
100
AcDbLine
 10
147.538092
 20
137.099746
 30
0.0
 11
148.538092
 21
137.099746
 31
0.0
  0
LINE
  5
19F
330
1F
100
AcDbEntity
  8
DRAW
  6
CONTINUOUS
 62
     6
100
AcDbLine
 10
147.538092
 20
181.899746
 30
0.0
 11
147.538092
 21
180.099746
 31
0.0
  0
LINE
  5
1A0
330
1F
100
AcDbEntity
  8
DRAW
  6
CONTINUOUS
 62
     6
100
AcDbLine
 10
147.538092
 20
137.299746
 30
0.0
 11
147.538092
 21
139.099746
 31
0.0
  0
LINE
  5
1A1
330
1F
100
AcDbEntity
  8
DRAW
  6
CONTINUOUS
 62
     5
100
AcDbLine
 10
90.938092
 20
141.599746
 30
0.0
 11
90.938092
 21
142.37471
 31
0.0
  0
LINE
  5
1A2
330
1F
100
AcDbEntity
  8
DRAW
  6
CONTINUOUS
 62
     5
100
AcDbLine
 10
93.038092
 20
142.37471
 30
0.0
 11
90.938092
 21
142.37471
 31
0.0
  0
LINE
  5
1A3
330
1F
100
AcDbEntity
  8
DRAW
  6
CONTINUOUS
 62
     4
100
AcDbLine
 10
93.038092
 20
112.749733
 30
0.0
 11
93.038092
 21
113.174486
 31
0.0
  0
LINE
  5
1A4
330
1F
100
AcDbEntity
  8
DRAW
  6
CONTINUOUS
 62
     4
100
AcDbLine
 10
93.038092
 20
113.174486
 30
0.0
 11
93.038092
 21
114.249733
 31
0.0
  0
LINE
  5
1A5
330
1F
100
AcDbEntity
  8
DRAW
  6
CONTINUOUS
 62
     4
100
AcDbLine
 10
93.038092
 20
114.249733
 30
0.0
 11
93.038092
 21
115.049733
 31
0.0
  0
LINE
  5
1A6
330
1F
100
AcDbEntity
  8
DRAW
  6
CONTINUOUS
 62
     4
100
AcDbLine
 10
89.238092
 20
112.749733
 30
0.0
 11
89.238092
 21
113.174486
 31
0.0
  0
LINE
  5
1A7
330
1F
100
AcDbEntity
  8
DRAW
  6
CONTINUOUS
 62
     4
100
AcDbLine
 10
89.238092
 20
113.174486
 30
0.0
 11
89.238092
 21
114.249733
 31
0.0
  0
LINE
  5
1A8
330
1F
100
AcDbEntity
  8
DRAW
  6
CONTINUOUS
 62
     5
100
AcDbLine
 10
93.038092
 20
114.249733
 30
0.0
 11
89.238092
 21
114.249733
 31
0.0
  0
LINE
  5
1A9
330
1F
100
AcDbEntity
  8
DRAW
  6
CONTINUOUS
 62
     4
100
AcDbLine
 10
89.238092
 20
114.249733
 30
0.0
 11
89.238092
 21
115.049733
 31
0.0
  0
LINE
  5
1AA
330
1F
100
AcDbEntity
  8
DRAW
  6
CONTINUOUS
 62
     4
100
AcDbLine
 10
89.238092
 20
115.049733
 30
0.0
 11
89.238092
 21
117.599746
 31
0.0
  0
LINE
  5
1AB
330
1F
100
AcDbEntity
  8
DRAW
  6
CONTINUOUS
 62
     4
100
AcDbLine
 10
93.038092
 20
117.599746
 30
0.0
 11
93.038092
 21
115.049733
 31
0.0
  0
LINE
  5
1AC
330
1F
100
AcDbEntity
  8
DRAW
  6
CONTINUOUS
 62
     4
100
AcDbLine
 10
91.436168
 20
144.799748
 30
0.0
 11
91.838092
 21
143.299748
 31
0.0
  0
LINE
  5
1AD
330
1F
100
AcDbEntity
  8
DRAW
  6
CONTINUOUS
 62
     4
100
AcDbLine
 10
93.038092
 20
143.299748
 30
0.0
 11
91.838092
 21
143.299748
 31
0.0
  0
LINE
  5
1AE
330
1F
100
AcDbEntity
  8
DRAW
  6
CONTINUOUS
 62
     4
100
AcDbLine
 10
89.238092
 20
141.599746
 30
0.0
 11
91.436168
 21
144.799748
 31
0.0
  0
LINE
  5
1AF
330
1F
100
AcDbEntity
  8
DRAW
  6
CONTINUOUS
 62
     4
100
AcDbLine
 10
93.038092
 20
112.749733
 30
0.0
 11
89.238092
 21
112.749733
 31
0.0
  0
DIMENSION
  5
1B0
330
1F
100
AcDbEntity
  8
DIM
  6
CONTINUOUS
 62
     6
100
AcDbDimension
  2
*D4
 10
82.629326
 20
143.299744
 30
0.0
 11
78.41202
 21
128.024736
 31
0.0
 70
    32
  1
30.5
  3
FINDER
100
AcDbAlignedDimension
 13
89.238092
 23
112.749729
 33
0.0
 14
92.438092
 24
143.299744
 34
0.0
 50
90.0
100
AcDbRotatedDimension
1001
ACAD
1000
DSTYLE
1002
{
1070
     5
1000
CLOSED
1070
    41
1040
1.2
1070
   176
1070
     3
1070
   177
1070
     3
1070
   271
1070
     1
1070
    44
1040
1.75
1070
    42
1040
0.3
1002
}
  0
DIMENSION
  5
1BD
330
1F
100
AcDbEntity
  8
DIM
  6
CONTINUOUS
 62
     6
100
AcDbDimension
  2
*D5
 10
82.629327
 20
143.299743
 30
0.0
 11
78.41202
 21
160.199742
 31
0.0
 70
    32
  1
<>
  3
FINDER
100
AcDbAlignedDimension
 13
91.704118
 23
177.099742
 33
0.0
 14
92.438092
 24
143.299744
 34
0.0
 50
90.000004
100
AcDbRotatedDimension
1001
ACAD
1000
DSTYLE
1002
{
1070
     7
1000

1070
     6
1000

1070
     5
1000
CLOSED
1070
   280
1070
     0
1070
    76
1070
     0
1070
    75
1070
     0
1070
    41
1040
1.2
1070
   176
1070
     3
1070
   177
1070
     3
1070
    44
1040
1.75
1070
    42
1040
0.3
1002
}
  0
DIMENSION
  5
1CA
330
1F
100
AcDbEntity
  8
DIM
  6
CONTINUOUS
 62
     6
100
AcDbDimension
  2
*D6
 10
88.738092
 20
206.952271
 30
0.0
 11
118.655495
 21
206.952271
 31
0.0
 70
   160
  1
<>
  3
FINDER
100
AcDbAlignedDimension
 13
149.538092
 23
181.099742
 33
0.0
 14
88.738092
 24
184.099742
 34
0.0
100
AcDbRotatedDimension
1001
ACAD
1000
DSTYLE
1002
{
1070
   287
1070
     3
1070
     7
1000

1070
     6
1000

1070
     5
1000
CLOSED
1070
   280
1070
     0
1070
    76
1070
     0
1070
    75
1070
     0
1070
   279
1070
     0
1070
    41
1040
1.2
1070
   176
1070
     3
1070
   177
1070
     3
1070
    44
1040
1.75
1070
    42
1040
0.3
1002
}
  0
DIMENSION
  5
1D7
330
1F
100
AcDbEntity
  8
DIM
  6
CONTINUOUS
 62
     6
100
AcDbDimension
  2
*D7
 10
161.202301
 20
137.099742
 30
0.0
 11
156.991995
 21
159.599742
 31
0.0
 70
    33
  1
<>
  3
FINDER
100
AcDbAlignedDimension
 13
147.538092
 23
182.099742
 33
0.0
 14
147.538092
 24
137.099742
 34
0.0
1001
ACAD
1000
DSTYLE
1002
{
1070
     7
1000

1070
     6
1000

1070
     5
1000
CLOSED
1070
   280
1070
     0
1070
    76
1070
     0
1070
    75
1070
     0
1070
    41
1040
1.2
1070
   176
1070
     3
1070
   177
1070
     3
1070
    44
1040
1.75
1070
    42
1040
0.3
1002
}
  0
DIMENSION
  5
1E4
330
1F
100
AcDbEntity
  8
DIM
  6
CONTINUOUS
 62
     6
100
AcDbDimension
  2
*D8
 10
170.541382
 20
117.599742
 30
0.0
 11
166.324076
 21
159.599742
 31
0.0
 70
    33
  1
<>
  3
FINDER
100
AcDbAlignedDimension
 13
116.538092
 23
201.599742
 33
0.0
 14
116.538092
 24
117.599742
 34
0.0
1001
ACAD
1000
DSTYLE
1002
{
1070
     7
1000

1070
     6
1000

1070
     5
1000
CLOSED
1070
   280
1070
     0
1070
    76
1070
     0
1070
    75
1070
     0
1070
    41
1040
1.2
1070
   176
1070
     3
1070
   177
1070
     3
1070
    44
1040
1.75
1070
    42
1040
0.3
1002
}
  0
CIRCLE
  5
1F1
330
1F
100
AcDbEntity
  8
DRAW
  6
CONTINUOUS
 62
     6
100
AcDbCircle
 10
63.246403
 20
195.799746
 30
0.0
 40
2.5
  0
CIRCLE
  5
1F2
330
1F
100
AcDbEntity
  8
DRAW
  6
CONTINUOUS
 62
     6
100
AcDbCircle
 10
54.496403
 20
195.799746
 30
0.0
 40
2.5
  0
CIRCLE
  5
1F3
330
1F
100
AcDbEntity
  8
DRAW
  6
CONTINUOUS
 62
     6
100
AcDbCircle
 10
63.246403
 20
123.399746
 30
0.0
 40
2.5
  0
CIRCLE
  5
1F4
330
1F
100
AcDbEntity
  8
DRAW
  6
CONTINUOUS
 62
     6
100
AcDbCircle
 10
54.496403
 20
134.399746
 30
0.0
 40
2.5
  0
LINE
  5
1F5
330
1F
100
AcDbEntity
  8
DRAW
  6
CONTINUOUS
 62
     4
100
AcDbLine
 10
67.621403
 20
180.099746
 30
0.0
 11
67.421403
 21
180.099746
 31
0.0
  0
LINE
  5
1F6
330
1F
100
AcDbEntity
  8
DRAW
  6
CONTINUOUS
 62
     4
100
AcDbLine
 10
67.621403
 20
139.099746
 30
0.0
 11
67.421403
 21
139.099746
 31
0.0
  0
LINE
  5
1F7
330
1F
100
AcDbEntity
  8
DRAW
  6
CONTINUOUS
 62
     4
100
AcDbLine
 10
67.621403
 20
139.099746
 30
0.0
 11
67.621403
 21
180.099746
 31
0.0
  0
LINE
  5
1F8
330
1F
100
AcDbEntity
  8
DRAW
  6
CONTINUOUS
 62
     4
100
AcDbLine
 10
50.121402
 20
180.099746
 30
0.0
 11
50.321402
 21
180.099746
 31
0.0
  0
LINE
  5
1F9
330
1F
100
AcDbEntity
  8
DRAW
  6
CONTINUOUS
 62
     4
100
AcDbLine
 10
50.121402
 20
139.099746
 30
0.0
 11
50.321402
 21
139.099746
 31
0.0
  0
LINE
  5
1FA
330
1F
100
AcDbEntity
  8
DRAW
  6
CONTINUOUS
 62
     4
100
AcDbLine
 10
50.121403
 20
180.099746
 30
0.0
 11
50.121403
 21
139.099746
 31
0.0
  0
LINE
  5
1FB
330
1F
100
AcDbEntity
  8
DRAW
  6
CONTINUOUS
 62
     4
100
AcDbLine
 10
67.421403
 20
200.099746
 30
0.0
 11
67.421403
 21
201.399746
 31
0.0
  0
LINE
  5
1FC
330
1F
100
AcDbEntity
  8
DRAW
  6
CONTINUOUS
 62
     4
100
AcDbLine
 10
67.421403
 20
200.099746
 30
0.0
 11
67.421403
 21
199.599746
 31
0.0
  0
LINE
  5
1FD
330
1F
100
AcDbEntity
  8
DRAW
  6
CONTINUOUS
 62
     4
100
AcDbLine
 10
67.621403
 20
199.599746
 30
0.0
 11
67.621403
 21
190.599746
 31
0.0
  0
LINE
  5
1FE
330
1F
100
AcDbEntity
  8
DRAW
  6
CONTINUOUS
 62
     4
100
AcDbLine
 10
67.421403
 20
119.599746
 30
0.0
 11
67.421403
 21
119.099746
 31
0.0
  0
LINE
  5
1FF
330
1F
100
AcDbEntity
  8
DRAW
  6
CONTINUOUS
 62
     4
100
AcDbLine
 10
67.421403
 20
119.099746
 30
0.0
 11
67.421403
 21
117.799746
 31
0.0
  0
LINE
  5
200
330
1F
100
AcDbEntity
  8
DRAW
  6
CONTINUOUS
 62
     4
100
AcDbLine
 10
67.621403
 20
128.599746
 30
0.0
 11
67.621403
 21
119.599746
 31
0.0
  0
ARC
  5
201
330
1F
100
AcDbEntity
  8
DRAW
  6
CONTINUOUS
 62
     4
100
AcDbCircle
 10
-67.221403
 20
201.399746
 30
0.0
 40
0.2000000029802322
210
0.0
220
0.0
230
-1.0
100
AcDbArc
 50
90.0
 51
180.0
  0
ARC
  5
202
330
1F
100
AcDbEntity
  8
DRAW
  6
CONTINUOUS
 62
     4
100
AcDbCircle
 10
-67.221403
 20
117.799746
 30
0.0
 40
0.2000000029802322
210
0.0
220
0.0
230
-1.0
100
AcDbArc
 50
180.0
 51
270.0
  0
LINE
  5
203
330
1F
100
AcDbEntity
  8
DRAW
  6
CONTINUOUS
 62
     4
100
AcDbLine
 10
67.421403
 20
199.599746
 30
0.0
 11
67.621403
 21
199.599746
 31
0.0
  0
LINE
  5
204
330
1F
100
AcDbEntity
  8
DRAW
  6
CONTINUOUS
 62
     4
100
AcDbLine
 10
67.421403
 20
190.599746
 30
0.0
 11
67.621403
 21
190.599746
 31
0.0
  0
LINE
  5
205
330
1F
100
AcDbEntity
  8
DRAW
  6
CONTINUOUS
 62
     4
100
AcDbLine
 10
67.421403
 20
128.599746
 30
0.0
 11
67.621403
 21
128.599746
 31
0.0
  0
LINE
  5
206
330
1F
100
AcDbEntity
  8
DRAW
  6
CONTINUOUS
 62
     4
100
AcDbLine
 10
67.421403
 20
119.599746
 30
0.0
 11
67.621403
 21
119.599746
 31
0.0
  0
LINE
  5
207
330
1F
100
AcDbEntity
  8
DRAW
  6
CONTINUOUS
 62
     4
100
AcDbLine
 10
50.321402
 20
119.599746
 30
0.0
 11
50.321402
 21
119.099746
 31
0.0
  0
LINE
  5
208
330
1F
100
AcDbEntity
  8
DRAW
  6
CONTINUOUS
 62
     4
100
AcDbLine
 10
50.321402
 20
119.099746
 30
0.0
 11
50.321402
 21
117.799746
 31
0.0
  0
LINE
  5
209
330
1F
100
AcDbEntity
  8
DRAW
  6
CONTINUOUS
 62
     4
100
AcDbLine
 10
50.321402
 20
200.099746
 30
0.0
 11
50.321402
 21
201.399746
 31
0.0
  0
LINE
  5
20A
330
1F
100
AcDbEntity
  8
DRAW
  6
CONTINUOUS
 62
     4
100
AcDbLine
 10
50.321402
 20
200.099746
 30
0.0
 11
50.321402
 21
199.599746
 31
0.0
  0
LINE
  5
20B
330
1F
100
AcDbEntity
  8
DRAW
  6
CONTINUOUS
 62
     4
100
AcDbLine
 10
50.121403
 20
199.599746
 30
0.0
 11
50.121403
 21
190.599746
 31
0.0
  0
LINE
  5
20C
330
1F
100
AcDbEntity
  8
DRAW
  6
CONTINUOUS
 62
     4
100
AcDbLine
 10
67.221403
 20
117.599746
 30
0.0
 11
50.521402
 21
117.599746
 31
0.0
  0
ARC
  5
20D
330
1F
100
AcDbEntity
  8
DRAW
  6
CONTINUOUS
 62
     4
100
AcDbCircle
 10
50.521402
 20
117.799746
 30
0.0
 40
0.2000000029802322
100
AcDbArc
 50
180.0
 51
270.0
  0
LINE
  5
20E
330
1F
100
AcDbEntity
  8
DRAW
  6
CONTINUOUS
 62
     4
100
AcDbLine
 10
67.221403
 20
201.599746
 30
0.0
 11
50.521402
 21
201.599746
 31
0.0
  0
ARC
  5
20F
330
1F
100
AcDbEntity
  8
DRAW
  6
CONTINUOUS
 62
     4
100
AcDbCircle
 10
50.521402
 20
201.399746
 30
0.0
 40
0.2000000029802322
100
AcDbArc
 50
90.0
 51
180.0
  0
LINE
  5
210
330
1F
100
AcDbEntity
  8
DRAW
  6
CONTINUOUS
 62
     4
100
AcDbLine
 10
50.321403
 20
199.599746
 30
0.0
 11
50.121403
 21
199.599746
 31
0.0
  0
LINE
  5
211
330
1F
100
AcDbEntity
  8
DRAW
  6
CONTINUOUS
 62
     4
100
AcDbLine
 10
50.321403
 20
190.599746
 30
0.0
 11
50.121403
 21
190.599746
 31
0.0
  0
LINE
  5
212
330
1F
100
AcDbEntity
  8
DRAW
  6
CONTINUOUS
 62
     4
100
AcDbLine
 10
50.321402
 20
189.099746
 30
0.0
 11
50.321402
 21
190.399746
 31
0.0
  0
LINE
  5
213
330
1F
100
AcDbEntity
  8
DRAW
  6
CONTINUOUS
 62
     4
100
AcDbLine
 10
50.321402
 20
189.099746
 30
0.0
 11
50.321402
 21
188.599746
 31
0.0
  0
LINE
  5
214
330
1F
100
AcDbEntity
  8
DRAW
  6
CONTINUOUS
 62
     4
100
AcDbLine
 10
50.121403
 20
188.599746
 30
0.0
 11
50.121403
 21
182.099746
 31
0.0
  0
ARC
  5
215
330
1F
100
AcDbEntity
  8
DRAW
  6
CONTINUOUS
 62
     6
100
AcDbCircle
 10
-50.521402
 20
190.399746
 30
0.0
 40
0.2000000029802322
210
0.0
220
0.0
230
-1.0
100
AcDbArc
 50
0.0
 51
90.0
  0
LINE
  5
216
330
1F
100
AcDbEntity
  8
DRAW
  6
CONTINUOUS
 62
     4
100
AcDbLine
 10
50.321402
 20
190.599746
 30
0.0
 11
50.321402
 21
190.399746
 31
0.0
  0
LINE
  5
217
330
1F
100
AcDbEntity
  8
DRAW
  6
CONTINUOUS
 62
     4
100
AcDbLine
 10
50.321403
 20
188.599746
 30
0.0
 11
50.121403
 21
188.599746
 31
0.0
  0
LINE
  5
218
330
1F
100
AcDbEntity
  8
DRAW
  6
CONTINUOUS
 62
     4
100
AcDbLine
 10
50.321403
 20
182.099746
 30
0.0
 11
50.121403
 21
182.099746
 31
0.0
  0
LINE
  5
219
330
1F
100
AcDbEntity
  8
DRAW
  6
CONTINUOUS
 62
     4
100
AcDbLine
 10
50.321402
 20
182.099746
 30
0.0
 11
50.321402
 21
181.899746
 31
0.0
  0
LINE
  5
21A
330
1F
100
AcDbEntity
  8
DRAW
  6
CONTINUOUS
 62
     4
100
AcDbLine
 10
67.421403
 20
189.099746
 30
0.0
 11
67.421403
 21
190.399746
 31
0.0
  0
LINE
  5
21B
330
1F
100
AcDbEntity
  8
DRAW
  6
CONTINUOUS
 62
     4
100
AcDbLine
 10
67.421403
 20
189.099746
 30
0.0
 11
67.421403
 21
188.599746
 31
0.0
  0
LINE
  5
21C
330
1F
100
AcDbEntity
  8
DRAW
  6
CONTINUOUS
 62
     6
100
AcDbLine
 10
67.221403
 20
190.599746
 30
0.0
 11
50.521402
 21
190.599746
 31
0.0
  0
ARC
  5
21D
330
1F
100
AcDbEntity
  8
DRAW
  6
CONTINUOUS
 62
     6
100
AcDbCircle
 10
-67.221403
 20
190.399746
 30
0.0
 40
0.2000000029802322
210
0.0
220
0.0
230
-1.0
100
AcDbArc
 50
90.0
 51
180.0
  0
LINE
  5
21E
330
1F
100
AcDbEntity
  8
DRAW
  6
CONTINUOUS
 62
     4
100
AcDbLine
 10
67.421403
 20
190.599746
 30
0.0
 11
67.421403
 21
190.399746
 31
0.0
  0
LINE
  5
21F
330
1F
100
AcDbEntity
  8
DRAW
  6
CONTINUOUS
 62
     4
100
AcDbLine
 10
67.621403
 20
188.599746
 30
0.0
 11
67.621403
 21
182.099746
 31
0.0
  0
LINE
  5
220
330
1F
100
AcDbEntity
  8
DRAW
  6
CONTINUOUS
 62
     4
100
AcDbLine
 10
67.421403
 20
188.599746
 30
0.0
 11
67.621403
 21
188.599746
 31
0.0
  0
LINE
  5
221
330
1F
100
AcDbEntity
  8
DRAW
  6
CONTINUOUS
 62
     4
100
AcDbLine
 10
67.421403
 20
182.099746
 30
0.0
 11
67.621403
 21
182.099746
 31
0.0
  0
LINE
  5
222
330
1F
100
AcDbEntity
  8
DRAW
  6
CONTINUOUS
 62
     4
100
AcDbLine
 10
67.421403
 20
182.099746
 30
0.0
 11
67.421403
 21
181.899746
 31
0.0
  0
LINE
  5
223
330
1F
100
AcDbEntity
  8
DRAW
  6
CONTINUOUS
 62
     4
100
AcDbLine
 10
67.421403
 20
137.099746
 30
0.0
 11
67.421403
 21
137.299746
 31
0.0
  0
LINE
  5
224
330
1F
100
AcDbEntity
  8
DRAW
  6
CONTINUOUS
 62
     4
100
AcDbLine
 10
67.621403
 20
137.099746
 30
0.0
 11
67.621403
 21
130.599746
 31
0.0
  0
LINE
  5
225
330
1F
100
AcDbEntity
  8
DRAW
  6
CONTINUOUS
 62
     4
100
AcDbLine
 10
67.421403
 20
137.099746
 30
0.0
 11
67.621403
 21
137.099746
 31
0.0
  0
LINE
  5
226
330
1F
100
AcDbEntity
  8
DRAW
  6
CONTINUOUS
 62
     4
100
AcDbLine
 10
67.421403
 20
130.599746
 30
0.0
 11
67.621403
 21
130.599746
 31
0.0
  0
LINE
  5
227
330
1F
100
AcDbEntity
  8
DRAW
  6
CONTINUOUS
 62
     4
100
AcDbLine
 10
67.421403
 20
130.599746
 30
0.0
 11
67.421403
 21
130.099746
 31
0.0
  0
LINE
  5
228
330
1F
100
AcDbEntity
  8
DRAW
  6
CONTINUOUS
 62
     4
100
AcDbLine
 10
67.421403
 20
130.099746
 30
0.0
 11
67.421403
 21
128.799746
 31
0.0
  0
ARC
  5
229
330
1F
100
AcDbEntity
  8
DRAW
  6
CONTINUOUS
 62
     6
100
AcDbCircle
 10
67.221403
 20
128.799746
 30
0.0
 40
0.2000000029802322
100
AcDbArc
 50
270.0
 51
360.0
  0
LINE
  5
22A
330
1F
100
AcDbEntity
  8
DRAW
  6
CONTINUOUS
 62
     4
100
AcDbLine
 10
67.421403
 20
128.599746
 30
0.0
 11
67.421403
 21
128.799746
 31
0.0
  0
LINE
  5
22B
330
1F
100
AcDbEntity
  8
DRAW
  6
CONTINUOUS
 62
     4
100
AcDbLine
 10
50.121403
 20
128.599746
 30
0.0
 11
50.121403
 21
119.599746
 31
0.0
  0
LINE
  5
22C
330
1F
100
AcDbEntity
  8
DRAW
  6
CONTINUOUS
 62
     4
100
AcDbLine
 10
50.321403
 20
128.599746
 30
0.0
 11
50.121403
 21
128.599746
 31
0.0
  0
LINE
  5
22D
330
1F
100
AcDbEntity
  8
DRAW
  6
CONTINUOUS
 62
     4
100
AcDbLine
 10
50.321403
 20
119.599746
 30
0.0
 11
50.121403
 21
119.599746
 31
0.0
  0
LINE
  5
22E
330
1F
100
AcDbEntity
  8
DRAW
  6
CONTINUOUS
 62
     4
100
AcDbLine
 10
50.321402
 20
130.099746
 30
0.0
 11
50.321402
 21
128.799746
 31
0.0
  0
LINE
  5
22F
330
1F
100
AcDbEntity
  8
DRAW
  6
CONTINUOUS
 62
     4
100
AcDbLine
 10
50.321402
 20
130.599746
 30
0.0
 11
50.321402
 21
130.099746
 31
0.0
  0
LINE
  5
230
330
1F
100
AcDbEntity
  8
DRAW
  6
CONTINUOUS
 62
     6
100
AcDbLine
 10
67.221403
 20
128.599746
 30
0.0
 11
50.521402
 21
128.599746
 31
0.0
  0
ARC
  5
231
330
1F
100
AcDbEntity
  8
DRAW
  6
CONTINUOUS
 62
     6
100
AcDbCircle
 10
50.521402
 20
128.799746
 30
0.0
 40
0.2000000029802322
100
AcDbArc
 50
180.0
 51
270.0
  0
LINE
  5
232
330
1F
100
AcDbEntity
  8
DRAW
  6
CONTINUOUS
 62
     4
100
AcDbLine
 10
50.321402
 20
128.599746
 30
0.0
 11
50.321402
 21
128.799746
 31
0.0
  0
LINE
  5
233
330
1F
100
AcDbEntity
  8
DRAW
  6
CONTINUOUS
 62
     4
100
AcDbLine
 10
50.121403
 20
137.099746
 30
0.0
 11
50.121403
 21
130.599746
 31
0.0
  0
LINE
  5
234
330
1F
100
AcDbEntity
  8
DRAW
  6
CONTINUOUS
 62
     4
100
AcDbLine
 10
50.321403
 20
137.099746
 30
0.0
 11
50.121403
 21
137.099746
 31
0.0
  0
LINE
  5
235
330
1F
100
AcDbEntity
  8
DRAW
  6
CONTINUOUS
 62
     4
100
AcDbLine
 10
50.321403
 20
130.599746
 30
0.0
 11
50.121403
 21
130.599746
 31
0.0
  0
LINE
  5
236
330
1F
100
AcDbEntity
  8
DRAW
  6
CONTINUOUS
 62
     4
100
AcDbLine
 10
50.321402
 20
137.099746
 30
0.0
 11
50.321402
 21
137.299746
 31
0.0
  0
ARC
  5
237
330
1F
100
AcDbEntity
  8
DRAW
  6
CONTINUOUS
 62
     6
100
AcDbCircle
 10
60.871403
 20
174.599749
 30
0.0
 40
2.5
100
AcDbArc
 50
64.999999
 51
114.999999
  0
LINE
  5
238
330
1F
100
AcDbEntity
  8
DRAW
  6
CONTINUOUS
 62
     5
100
AcDbLine
 10
60.471403
 20
176.099749
 30
0.0
 11
60.382907
 21
175.088245
 31
0.0
  0
LINE
  5
239
330
1F
100
AcDbEntity
  8
DRAW
  6
CONTINUOUS
 62
     5
100
AcDbLine
 10
60.382907
 20
175.088245
 30
0.0
 11
59.371403
 21
174.999749
 31
0.0
  0
LINE
  5
23A
330
1F
100
AcDbEntity
  8
DRAW
  6
CONTINUOUS
 62
     5
100
AcDbLine
 10
59.371403
 20
174.999749
 30
0.0
 11
59.371403
 21
174.199749
 31
0.0
  0
LINE
  5
23B
330
1F
100
AcDbEntity
  8
DRAW
  6
CONTINUOUS
 62
     5
100
AcDbLine
 10
59.371403
 20
174.199749
 30
0.0
 11
60.382907
 21
174.111254
 31
0.0
  0
LINE
  5
23C
330
1F
100
AcDbEntity
  8
DRAW
  6
CONTINUOUS
 62
     5
100
AcDbLine
 10
60.382907
 20
174.111254
 30
0.0
 11
60.471403
 21
173.099749
 31
0.0
  0
LINE
  5
23D
330
1F
100
AcDbEntity
  8
DRAW
  6
CONTINUOUS
 62
     5
100
AcDbLine
 10
61.271403
 20
173.099749
 30
0.0
 11
61.359898
 21
174.111254
 31
0.0
  0
LINE
  5
23E
330
1F
100
AcDbEntity
  8
DRAW
  6
CONTINUOUS
 62
     5
100
AcDbLine
 10
61.359898
 20
174.111254
 30
0.0
 11
62.371403
 21
174.199749
 31
0.0
  0
LINE
  5
23F
330
1F
100
AcDbEntity
  8
DRAW
  6
CONTINUOUS
 62
     5
100
AcDbLine
 10
62.371403
 20
174.199749
 30
0.0
 11
62.371403
 21
174.999749
 31
0.0
  0
LINE
  5
240
330
1F
100
AcDbEntity
  8
DRAW
  6
CONTINUOUS
 62
     5
100
AcDbLine
 10
62.371403
 20
174.999749
 30
0.0
 11
61.359898
 21
175.088245
 31
0.0
  0
LINE
  5
241
330
1F
100
AcDbEntity
  8
DRAW
  6
CONTINUOUS
 62
     5
100
AcDbLine
 10
61.359898
 20
175.088245
 30
0.0
 11
61.271403
 21
176.099749
 31
0.0
  0
LINE
  5
242
330
1F
100
AcDbEntity
  8
DRAW
  6
CONTINUOUS
 62
     5
100
AcDbLine
 10
60.445928
 20
173.390926
 30
0.0
 11
61.296877
 21
173.390926
 31
0.0
  0
LINE
  5
243
330
1F
100
AcDbEntity
  8
DRAW
  6
CONTINUOUS
 62
     5
100
AcDbLine
 10
60.445928
 20
175.808573
 30
0.0
 11
61.296877
 21
175.808573
 31
0.0
  0
LINE
  5
244
330
1F
100
AcDbEntity
  8
DRAW
  6
CONTINUOUS
 62
     5
100
AcDbLine
 10
61.319167
 20
175.553794
 30
0.0
 11
60.423638
 21
175.553794
 31
0.0
  0
LINE
  5
245
330
1F
100
AcDbEntity
  8
DRAW
  6
CONTINUOUS
 62
     5
100
AcDbLine
 10
59.917358
 20
175.047514
 30
0.0
 11
59.917358
 21
174.151984
 31
0.0
  0
LINE
  5
246
330
1F
100
AcDbEntity
  8
DRAW
  6
CONTINUOUS
 62
     5
100
AcDbLine
 10
60.423638
 20
173.645705
 30
0.0
 11
61.319167
 21
173.645705
 31
0.0
  0
LINE
  5
247
330
1F
100
AcDbEntity
  8
DRAW
  6
CONTINUOUS
 62
     5
100
AcDbLine
 10
61.825447
 20
174.151984
 30
0.0
 11
61.825447
 21
175.047514
 31
0.0
  0
ARC
  5
248
330
1F
100
AcDbEntity
  8
DRAW
  6
CONTINUOUS
 62
     5
100
AcDbCircle
 10
60.871403
 20
174.599749
 30
0.0
 40
2.400186730528518
100
AcDbArc
 50
99.593315
 51
180.0
  0
LINE
  5
249
330
1F
100
AcDbEntity
  8
DRAW
  6
CONTINUOUS
 62
     5
100
AcDbLine
 10
60.471403
 20
177.047317
 30
0.0
 11
60.471403
 21
176.966371
 31
0.0
  0
ARC
  5
24A
330
1F
100
AcDbEntity
  8
DRAW
  6
CONTINUOUS
 62
     5
100
AcDbCircle
 10
60.871403
 20
174.599749
 30
0.0
 40
2.480037346105703
100
AcDbArc
 50
80.718342
 51
99.281658
  0
LINE
  5
24B
330
1F
100
AcDbEntity
  8
DRAW
  6
CONTINUOUS
 62
     5
100
AcDbLine
 10
61.271403
 20
177.047317
 30
0.0
 11
61.271403
 21
176.966371
 31
0.0
  0
ARC
  5
24C
330
1F
100
AcDbEntity
  8
DRAW
  6
CONTINUOUS
 62
     5
100
AcDbCircle
 10
60.871403
 20
174.599749
 30
0.0
 40
2.400186730528518
100
AcDbArc
 50
279.593315
 51
80.406685
  0
LINE
  5
24D
330
1F
100
AcDbEntity
  8
DRAW
  6
CONTINUOUS
 62
     5
100
AcDbLine
 10
61.271403
 20
172.152182
 30
0.0
 11
61.271403
 21
172.233128
 31
0.0
  0
ARC
  5
24E
330
1F
100
AcDbEntity
  8
DRAW
  6
CONTINUOUS
 62
     5
100
AcDbCircle
 10
60.871403
 20
174.599749
 30
0.0
 40
2.480037346105703
100
AcDbArc
 50
260.718342
 51
279.281658
  0
LINE
  5
24F
330
1F
100
AcDbEntity
  8
DRAW
  6
CONTINUOUS
 62
     5
100
AcDbLine
 10
60.471403
 20
172.152182
 30
0.0
 11
60.471403
 21
172.233128
 31
0.0
  0
ARC
  5
250
330
1F
100
AcDbEntity
  8
DRAW
  6
CONTINUOUS
 62
     5
100
AcDbCircle
 10
60.871403
 20
174.599749
 30
0.0
 40
2.400186730528518
100
AcDbArc
 50
180.0
 51
260.406685
  0
LINE
  5
251
330
1F
100
AcDbEntity
  8
DRAW
  6
CONTINUOUS
 62
     5
100
AcDbLine
 10
60.471403
 20
173.099749
 30
0.0
 11
60.471403
 21
172.233128
 31
0.0
  0
LINE
  5
252
330
1F
100
AcDbEntity
  8
DRAW
  6
CONTINUOUS
 62
     5
100
AcDbLine
 10
60.471403
 20
176.966371
 30
0.0
 11
60.471403
 21
176.099749
 31
0.0
  0
LINE
  5
253
330
1F
100
AcDbEntity
  8
DRAW
  6
CONTINUOUS
 62
     5
100
AcDbLine
 10
61.271403
 20
176.099749
 30
0.0
 11
61.271403
 21
176.966371
 31
0.0
  0
LINE
  5
254
330
1F
100
AcDbEntity
  8
DRAW
  6
CONTINUOUS
 62
     5
100
AcDbLine
 10
61.271403
 20
172.233128
 30
0.0
 11
61.271403
 21
173.099749
 31
0.0
  0
LINE
  5
255
330
1F
100
AcDbEntity
  8
DRAW
  6
CONTINUOUS
 62
     5
100
AcDbLine
 10
59.871368
 20
163.999747
 30
0.0
 11
59.871368
 21
164.799747
 31
0.0
  0
LINE
  5
256
330
1F
100
AcDbEntity
  8
DRAW
  6
CONTINUOUS
 62
     5
100
AcDbLine
 10
56.871368
 20
164.799747
 30
0.0
 11
56.871368
 21
163.999747
 31
0.0
  0
ARC
  5
257
330
1F
100
AcDbEntity
  8
DRAW
  6
CONTINUOUS
 62
     5
100
AcDbCircle
 10
-54.489625
 20
167.062601
 30
0.0
 40
3.0
210
0.0
220
0.0
230
-1.0
100
AcDbArc
 50
188.511659
 51
240.388145
  0
ARC
  5
258
330
1F
100
AcDbEntity
  8
DRAW
  6
CONTINUOUS
 62
     5
100
AcDbCircle
 10
58.371368
 20
164.399747
 30
0.0
 40
2.399999999999999
100
AcDbArc
 50
178.694613
 51
260.405932
  0
ARC
  5
259
330
1F
100
AcDbEntity
  8
DRAW
  6
CONTINUOUS
 62
     5
100
AcDbCircle
 10
58.371368
 20
164.399747
 30
0.0
 40
2.399999999999999
100
AcDbArc
 50
99.594068
 51
112.405583
  0
ARC
  5
25A
330
1F
100
AcDbEntity
  8
DRAW
  6
CONTINUOUS
 62
     5
100
AcDbCircle
 10
62.25311
 20
167.062601
 30
0.0
 40
3.0
100
AcDbArc
 50
188.511659
 51
240.388145
  0
ARC
  5
25B
330
1F
100
AcDbEntity
  8
DRAW
  6
CONTINUOUS
 62
     5
100
AcDbCircle
 10
58.371368
 20
164.399747
 30
0.0
 40
2.399999999999999
100
AcDbArc
 50
67.594417
 51
80.405932
  0
ARC
  5
25C
330
1F
100
AcDbEntity
  8
DRAW
  6
CONTINUOUS
 62
     5
100
AcDbCircle
 10
58.371368
 20
164.399747
 30
0.0
 40
2.399999999999999
100
AcDbArc
 50
279.594068
 51
1.305387
  0
LINE
  5
25D
330
1F
100
AcDbEntity
  8
DRAW
  6
CONTINUOUS
 62
     5
100
AcDbLine
 10
57.971368
 20
162.033315
 30
0.0
 11
57.971368
 21
161.952218
 31
0.0
  0
LINE
  5
25E
330
1F
100
AcDbEntity
  8
DRAW
  6
CONTINUOUS
 62
     5
100
AcDbLine
 10
57.971368
 20
166.847277
 30
0.0
 11
57.971368
 21
166.766179
 31
0.0
  0
LINE
  5
25F
330
1F
100
AcDbEntity
  8
DRAW
  6
CONTINUOUS
 62
     5
100
AcDbLine
 10
58.771368
 20
166.766179
 30
0.0
 11
58.771368
 21
166.847277
 31
0.0
  0
LINE
  5
260
330
1F
100
AcDbEntity
  8
DRAW
  6
CONTINUOUS
 62
     5
100
AcDbLine
 10
58.771368
 20
161.952218
 30
0.0
 11
58.771368
 21
162.033315
 31
0.0
  0
ARC
  5
261
330
1F
100
AcDbEntity
  8
DRAW
  6
CONTINUOUS
 62
     5
100
AcDbCircle
 10
58.371368
 20
164.399747
 30
0.0
 40
2.48
100
AcDbArc
 50
260.718201
 51
279.281799
  0
ARC
  5
262
330
1F
100
AcDbEntity
  8
DRAW
  6
CONTINUOUS
 62
     5
100
AcDbCircle
 10
58.371368
 20
164.399747
 30
0.0
 40
2.48
100
AcDbArc
 50
80.793104
 51
99.281799
  0
ARC
  5
263
330
1F
100
AcDbEntity
  8
DRAW
  6
CONTINUOUS
 62
     5
100
AcDbCircle
 10
58.371368
 20
164.399747
 30
0.0
 40
2.48
100
AcDbArc
 50
80.718201
 51
80.793104
  0
LINE
  5
264
330
1F
100
AcDbEntity
  8
DRAW
  6
CONTINUOUS
 62
     5
100
AcDbLine
 10
59.273942
 20
166.709673
 30
0.0
 11
59.286153
 21
166.618569
 31
0.0
  0
LINE
  5
265
330
1F
100
AcDbEntity
  8
DRAW
  6
CONTINUOUS
 62
     5
100
AcDbLine
 10
60.770745
 20
164.454422
 30
0.0
 11
60.851345
 21
164.410233
 31
0.0
  0
ARC
  5
266
330
1F
100
AcDbEntity
  8
DRAW
  6
CONTINUOUS
 62
     5
100
AcDbCircle
 10
58.371368
 20
164.399747
 30
0.0
 40
2.48
100
AcDbArc
 50
0.242245
 51
68.657559
  0
LINE
  5
267
330
1F
100
AcDbEntity
  8
DRAW
  6
CONTINUOUS
 62
     5
100
AcDbLine
 10
57.468793
 20
166.709673
 30
0.0
 11
57.456582
 21
166.618569
 31
0.0
  0
LINE
  5
268
330
1F
100
AcDbEntity
  8
DRAW
  6
CONTINUOUS
 62
     5
100
AcDbLine
 10
55.97199
 20
164.454422
 30
0.0
 11
55.89139
 21
164.410233
 31
0.0
  0
ARC
  5
269
330
1F
100
AcDbEntity
  8
DRAW
  6
CONTINUOUS
 62
     5
100
AcDbCircle
 10
58.371368
 20
164.399747
 30
0.0
 40
2.48
100
AcDbArc
 50
111.342441
 51
179.757755
  0
LINE
  5
26A
330
1F
100
AcDbEntity
  8
DRAW
  6
CONTINUOUS
 62
     5
100
AcDbLine
 10
57.417323
 20
164.847512
 30
0.0
 11
57.417323
 21
163.951982
 31
0.0
  0
LINE
  5
26B
330
1F
100
AcDbEntity
  8
DRAW
  6
CONTINUOUS
 62
     5
100
AcDbLine
 10
59.325412
 20
163.951982
 30
0.0
 11
59.325412
 21
164.847512
 31
0.0
  0
LINE
  5
26C
330
1F
100
AcDbEntity
  8
DRAW
  6
CONTINUOUS
 62
     5
100
AcDbLine
 10
57.971368
 20
166.766179
 30
0.0
 11
57.971368
 21
165.899747
 31
0.0
  0
LINE
  5
26D
330
1F
100
AcDbEntity
  8
DRAW
  6
CONTINUOUS
 62
     5
100
AcDbLine
 10
57.971368
 20
162.899747
 30
0.0
 11
57.971368
 21
162.033315
 31
0.0
  0
LINE
  5
26E
330
1F
100
AcDbEntity
  8
DRAW
  6
CONTINUOUS
 62
     5
100
AcDbLine
 10
58.771368
 20
162.033315
 30
0.0
 11
58.771368
 21
162.899747
 31
0.0
  0
LINE
  5
26F
330
1F
100
AcDbEntity
  8
DRAW
  6
CONTINUOUS
 62
     5
100
AcDbLine
 10
58.771368
 20
165.899747
 30
0.0
 11
58.771368
 21
166.766179
 31
0.0
  0
LINE
  5
270
330
1F
100
AcDbEntity
  8
DRAW
  6
CONTINUOUS
 62
     5
100
AcDbLine
 10
57.882872
 20
164.888242
 30
0.0
 11
56.871368
 21
164.799747
 31
0.0
  0
LINE
  5
271
330
1F
100
AcDbEntity
  8
DRAW
  6
CONTINUOUS
 62
     5
100
AcDbLine
 10
57.971368
 20
165.899747
 30
0.0
 11
57.882872
 21
164.888242
 31
0.0
  0
LINE
  5
272
330
1F
100
AcDbEntity
  8
DRAW
  6
CONTINUOUS
 62
     5
100
AcDbLine
 10
56.871368
 20
163.999747
 30
0.0
 11
57.882872
 21
163.911252
 31
0.0
  0
LINE
  5
273
330
1F
100
AcDbEntity
  8
DRAW
  6
CONTINUOUS
 62
     5
100
AcDbLine
 10
57.882872
 20
163.911252
 30
0.0
 11
57.971368
 21
162.899747
 31
0.0
  0
LINE
  5
274
330
1F
100
AcDbEntity
  8
DRAW
  6
CONTINUOUS
 62
     5
100
AcDbLine
 10
58.859863
 20
163.911252
 30
0.0
 11
59.871368
 21
163.999747
 31
0.0
  0
LINE
  5
275
330
1F
100
AcDbEntity
  8
DRAW
  6
CONTINUOUS
 62
     5
100
AcDbLine
 10
58.771368
 20
162.899747
 30
0.0
 11
58.859863
 21
163.911252
 31
0.0
  0
LINE
  5
276
330
1F
100
AcDbEntity
  8
DRAW
  6
CONTINUOUS
 62
     5
100
AcDbLine
 10
59.871368
 20
164.799747
 30
0.0
 11
58.859863
 21
164.888242
 31
0.0
  0
LINE
  5
277
330
1F
100
AcDbEntity
  8
DRAW
  6
CONTINUOUS
 62
     5
100
AcDbLine
 10
58.859863
 20
164.888242
 30
0.0
 11
58.771368
 21
165.899747
 31
0.0
  0
LINE
  5
278
330
1F
100
AcDbEntity
  8
DRAW
  6
CONTINUOUS
 62
     5
100
AcDbLine
 10
57.945893
 20
165.608571
 30
0.0
 11
58.796842
 21
165.608571
 31
0.0
  0
LINE
  5
279
330
1F
100
AcDbEntity
  8
DRAW
  6
CONTINUOUS
 62
     5
100
AcDbLine
 10
58.819132
 20
165.353792
 30
0.0
 11
57.923603
 21
165.353792
 31
0.0
  0
LINE
  5
27A
330
1F
100
AcDbEntity
  8
DRAW
  6
CONTINUOUS
 62
     5
100
AcDbLine
 10
57.945893
 20
163.190923
 30
0.0
 11
58.796842
 21
163.190923
 31
0.0
  0
LINE
  5
27B
330
1F
100
AcDbEntity
  8
DRAW
  6
CONTINUOUS
 62
     5
100
AcDbLine
 10
57.923603
 20
163.445703
 30
0.0
 11
58.819132
 21
163.445703
 31
0.0
  0
LINE
  5
27C
330
1F
100
AcDbEntity
  8
DRAW
  6
CONTINUOUS
 62
     6
100
AcDbLine
 10
53.32137
 20
160.749764
 30
0.0
 11
53.32137
 21
158.749764
 31
0.0
  0
LINE
  5
27D
330
1F
100
AcDbEntity
  8
DRAW
  6
CONTINUOUS
 62
     6
100
AcDbLine
 10
53.32137
 20
158.749764
 30
0.0
 11
55.32137
 21
158.749764
 31
0.0
  0
LINE
  5
27E
330
1F
100
AcDbEntity
  8
DRAW
  6
CONTINUOUS
 62
     6
100
AcDbLine
 10
55.32137
 20
158.749764
 30
0.0
 11
55.32137
 21
160.749764
 31
0.0
  0
LINE
  5
27F
330
1F
100
AcDbEntity
  8
DRAW
  6
CONTINUOUS
 62
     6
100
AcDbLine
 10
55.32137
 20
160.749764
 30
0.0
 11
53.32137
 21
160.749764
 31
0.0
  0
CIRCLE
  5
280
330
1F
100
AcDbEntity
  8
DRAW
  6
CONTINUOUS
 62
     6
100
AcDbCircle
 10
58.371368
 20
164.399747
 30
0.0
 40
2.5
  0
LINE
  5
281
330
1F
100
AcDbEntity
  8
DRAW
  6
CONTINUOUS
 62
     6
100
AcDbLine
 10
58.605633
 20
175.656295
 30
0.0
 11
55.88671
 21
176.92415
 31
0.0
  0
ARC
  5
282
330
1F
100
AcDbEntity
  8
DRAW
  6
CONTINUOUS
 62
     6
100
AcDbCircle
 10
60.871403
 20
174.599749
 30
0.0
 40
5.499999999999996
100
AcDbArc
 50
155.0
 51
205.0
  0
LINE
  5
283
330
1F
100
AcDbEntity
  8
DRAW
  6
CONTINUOUS
 62
     6
100
AcDbLine
 10
58.605633
 20
173.543204
 30
0.0
 11
55.88671
 21
172.275349
 31
0.0
  0
LINE
  5
284
330
1F
100
AcDbEntity
  8
DRAW
  6
CONTINUOUS
 62
     6
100
AcDbLine
 10
59.217409
 20
172.725101
 30
0.0
 11
55.473152
 21
170.979126
 31
0.0
  0
ARC
  5
285
330
1F
100
AcDbEntity
  8
DRAW
  6
CONTINUOUS
 62
     6
100
AcDbCircle
 10
60.871403
 20
174.599749
 30
0.0
 40
6.499999999999993
100
AcDbArc
 50
146.150125
 51
213.849861
  0
LINE
  5
286
330
1F
100
AcDbEntity
  8
DRAW
  6
CONTINUOUS
 62
     6
100
AcDbLine
 10
59.217409
 20
176.474397
 30
0.0
 11
55.473148
 21
178.220375
 31
0.0
  0
ARC
  5
287
330
1F
100
AcDbEntity
  8
DRAW
  6
CONTINUOUS
 62
     6
100
AcDbCircle
 10
-60.871403
 20
174.599749
 30
0.0
 40
2.5
210
0.0
220
0.0
230
-1.0
100
AcDbArc
 50
138.578178
 51
41.421822
  0
SPLINE
  5
288
330
1F
100
AcDbEntity
  8
DRAW
  6
CONTINUOUS
 62
     6
100
AcDbSpline
210
0.0
220
0.0
230
1.0
 70
     8
 71
     3
 72
     8
 73
     4
 74
     0
 42
0.0
 43
0.0
 40
5.334550772807427
 40
5.334550772807427
 40
5.334550772807427
 40
5.334550772807427
 40
7.023464731746934
 40
7.023464731746934
 40
7.023464731746934
 40
7.023464731746934
 10
55.88671003234425
 20
176.9241496802897
 30
0.0
 10
55.72949513644999
 20
177.3560969109128
 30
0.0
 10
55.59348082343532
 20
177.7885068907421
 30
0.0
 10
55.47314824549806
 20
178.2203746275789
 30
0.0
  0
ARC
  5
289
330
1F
100
AcDbEntity
  8
DRAW
  6
CONTINUOUS
 62
     6
100
AcDbCircle
 10
60.871403
 20
174.599749
 30
0.0
 40
2.500000000000291
100
AcDbArc
 50
41.421822
 51
65.0
  0
SPLINE
  5
28A
330
1F
100
AcDbEntity
  8
DRAW
  6
CONTINUOUS
 62
     6
100
AcDbSpline
210
0.0
220
0.0
230
1.0
 70
     8
 71
     3
 72
     9
 73
     5
 74
     0
 42
0.0
 43
0.0
 40
5.334547238873231
 40
5.334547238873231
 40
5.334547238873231
 40
5.334547238873231
 40
6.228763703637887
 40
7.023457954116811
 40
7.023457954116811
 40
7.023457954116811
 40
7.023457954116811
 10
55.88668170863262
 20
172.2753591393798
 30
0.0
 10
55.80342989774818
 20
172.0466679884069
 30
0.0
 10
55.6576048446035
 20
171.6144101727309
 30
0.0
 10
55.52978734755692
 20
171.1823292163212
 30
0.0
 10
55.47315055296023
 20
170.9791275234159
 30
0.0
  0
ARC
  5
28B
330
1F
100
AcDbEntity
  8
DRAW
  6
CONTINUOUS
 62
     6
100
AcDbCircle
 10
-60.871403
 20
174.599749
 30
0.0
 40
2.499999999999843
210
0.0
220
0.0
230
-1.0
100
AcDbArc
 50
41.421822
 51
65.0
  0
LINE
  5
28C
330
1F
100
AcDbEntity
  8
DRAW
  6
CONTINUOUS
 62
     6
100
AcDbLine
 10
55.021407
 20
138.999745
 30
0.0
 11
55.021407
 21
141.199745
 31
0.0
  0
LINE
  5
28D
330
1F
100
AcDbEntity
  8
DRAW
  6
CONTINUOUS
 62
     6
100
AcDbLine
 10
55.021407
 20
141.199745
 30
0.0
 11
53.421407
 21
141.199745
 31
0.0
  0
LINE
  5
28E
330
1F
100
AcDbEntity
  8
DRAW
  6
CONTINUOUS
 62
     6
100
AcDbLine
 10
53.421407
 20
141.199745
 30
0.0
 11
53.421407
 21
138.999745
 31
0.0
  0
LINE
  5
28F
330
1F
100
AcDbEntity
  8
DRAW
  6
CONTINUOUS
 62
     6
100
AcDbLine
 10
53.421407
 20
138.999745
 30
0.0
 11
55.021407
 21
138.999745
 31
0.0
  0
LINE
  5
290
330
1F
100
AcDbEntity
  8
DRAW
  6
CONTINUOUS
 62
     6
100
AcDbLine
 10
61.221407
 20
138.999745
 30
0.0
 11
61.221407
 21
141.199745
 31
0.0
  0
LINE
  5
291
330
1F
100
AcDbEntity
  8
DRAW
  6
CONTINUOUS
 62
     6
100
AcDbLine
 10
61.221407
 20
141.199745
 30
0.0
 11
59.621407
 21
141.199745
 31
0.0
  0
LINE
  5
292
330
1F
100
AcDbEntity
  8
DRAW
  6
CONTINUOUS
 62
     6
100
AcDbLine
 10
59.621407
 20
141.199745
 30
0.0
 11
59.621407
 21
138.999745
 31
0.0
  0
LINE
  5
293
330
1F
100
AcDbEntity
  8
DRAW
  6
CONTINUOUS
 62
     6
100
AcDbLine
 10
59.621407
 20
138.999745
 30
0.0
 11
61.221407
 21
138.999745
 31
0.0
  0
LINE
  5
294
330
1F
100
AcDbEntity
  8
DRAW
  6
CONTINUOUS
 62
     6
100
AcDbLine
 10
58.121407
 20
138.999745
 30
0.0
 11
58.121407
 21
141.199745
 31
0.0
  0
LINE
  5
295
330
1F
100
AcDbEntity
  8
DRAW
  6
CONTINUOUS
 62
     6
100
AcDbLine
 10
58.121407
 20
141.199745
 30
0.0
 11
56.521407
 21
141.199745
 31
0.0
  0
LINE
  5
296
330
1F
100
AcDbEntity
  8
DRAW
  6
CONTINUOUS
 62
     6
100
AcDbLine
 10
56.521407
 20
141.199745
 30
0.0
 11
56.521407
 21
138.999745
 31
0.0
  0
LINE
  5
297
330
1F
100
AcDbEntity
  8
DRAW
  6
CONTINUOUS
 62
     6
100
AcDbLine
 10
56.521407
 20
138.999745
 30
0.0
 11
58.121407
 21
138.999745
 31
0.0
  0
LINE
  5
298
330
1F
100
AcDbEntity
  8
DRAW
  6
CONTINUOUS
 62
     6
100
AcDbLine
 10
64.321407
 20
138.999745
 30
0.0
 11
64.321407
 21
141.199745
 31
0.0
  0
LINE
  5
299
330
1F
100
AcDbEntity
  8
DRAW
  6
CONTINUOUS
 62
     6
100
AcDbLine
 10
64.321407
 20
141.199745
 30
0.0
 11
62.721407
 21
141.199745
 31
0.0
  0
LINE
  5
29A
330
1F
100
AcDbEntity
  8
DRAW
  6
CONTINUOUS
 62
     6
100
AcDbLine
 10
62.721407
 20
141.199745
 30
0.0
 11
62.721407
 21
138.999745
 31
0.0
  0
LINE
  5
29B
330
1F
100
AcDbEntity
  8
DRAW
  6
CONTINUOUS
 62
     6
100
AcDbLine
 10
62.721407
 20
138.999745
 30
0.0
 11
64.321407
 21
138.999745
 31
0.0
  0
LINE
  5
29C
330
1F
100
AcDbEntity
  8
DRAW
  6
CONTINUOUS
 62
     4
100
AcDbLine
 10
67.421403
 20
138.099746
 30
0.0
 11
67.421403
 21
137.299746
 31
0.0
  0
LINE
  5
29D
330
1F
100
AcDbEntity
  8
DRAW
  6
CONTINUOUS
 62
     4
100
AcDbLine
 10
67.421403
 20
181.099746
 30
0.0
 11
67.421403
 21
181.899746
 31
0.0
  0
ARC
  5
29E
330
1F
100
AcDbEntity
  8
DRAW
  6
CONTINUOUS
 62
     6
100
AcDbCircle
 10
-67.221403
 20
137.299746
 30
0.0
 40
0.2000000029802322
210
0.0
220
0.0
230
-1.0
100
AcDbArc
 50
180.0
 51
270.0
  0
ARC
  5
29F
330
1F
100
AcDbEntity
  8
DRAW
  6
CONTINUOUS
 62
     6
100
AcDbCircle
 10
67.221403
 20
181.899746
 30
0.0
 40
0.2000000029802322
100
AcDbArc
 50
0.0
 51
90.0
  0
LINE
  5
2A0
330
1F
100
AcDbEntity
  8
DRAW
  6
CONTINUOUS
 62
     4
100
AcDbLine
 10
50.321402
 20
181.099746
 30
0.0
 11
50.321402
 21
181.899746
 31
0.0
  0
LINE
  5
2A1
330
1F
100
AcDbEntity
  8
DRAW
  6
CONTINUOUS
 62
     4
100
AcDbLine
 10
50.321402
 20
138.099746
 30
0.0
 11
50.321402
 21
137.299746
 31
0.0
  0
LINE
  5
2A2
330
1F
100
AcDbEntity
  8
DRAW
  6
CONTINUOUS
 62
     6
100
AcDbLine
 10
67.221403
 20
182.099746
 30
0.0
 11
50.521402
 21
182.099746
 31
0.0
  0
ARC
  5
2A3
330
1F
100
AcDbEntity
  8
DRAW
  6
CONTINUOUS
 62
     6
100
AcDbCircle
 10
50.521402
 20
181.899746
 30
0.0
 40
0.2000000029802322
100
AcDbArc
 50
90.0
 51
180.0
  0
LINE
  5
2A4
330
1F
100
AcDbEntity
  8
DRAW
  6
CONTINUOUS
 62
     6
100
AcDbLine
 10
50.521402
 20
137.099746
 30
0.0
 11
67.221403
 21
137.099746
 31
0.0
  0
ARC
  5
2A5
330
1F
100
AcDbEntity
  8
DRAW
  6
CONTINUOUS
 62
     6
100
AcDbCircle
 10
-50.521402
 20
137.299746
 30
0.0
 40
0.2000000029802322
210
0.0
220
0.0
230
-1.0
100
AcDbArc
 50
270.0
 51
0.0
  0
ARC
  5
2A6
330
1F
100
AcDbEntity
  8
DRAW
  6
CONTINUOUS
 62
     4
100
AcDbCircle
 10
-63.621419
 20
115.049733
 30
0.0
 40
0.7999999849599999
210
0.0
220
0.0
230
-1.0
100
AcDbArc
 50
180.0
 51
270.0
  0
LINE
  5
2A7
330
1F
100
AcDbEntity
  8
DRAW
  6
CONTINUOUS
 62
     4
100
AcDbLine
 10
63.621419
 20
114.249733
 30
0.0
 11
62.394513
 21
114.249733
 31
0.0
  0
LINE
  5
2A8
330
1F
100
AcDbEntity
  8
DRAW
  6
CONTINUOUS
 62
     4
100
AcDbLine
 10
62.394513
 20
114.249733
 30
0.0
 11
60.461578
 21
113.16532
 31
0.0
  0
ARC
  5
2A9
330
1F
100
AcDbEntity
  8
DRAW
  6
CONTINUOUS
 62
     4
100
AcDbCircle
 10
-58.871419
 20
115.999733
 30
0.0
 40
3.249999938900002
210
0.0
220
0.0
230
-1.0
100
AcDbArc
 50
240.706755
 51
299.621837
  0
LINE
  5
2AA
330
1F
100
AcDbEntity
  8
DRAW
  6
CONTINUOUS
 62
     4
100
AcDbLine
 10
57.265031
 20
113.174486
 30
0.0
 11
55.373934
 21
114.249733
 31
0.0
  0
LINE
  5
2AB
330
1F
100
AcDbEntity
  8
DRAW
  6
CONTINUOUS
 62
     4
100
AcDbLine
 10
55.373934
 20
114.249733
 30
0.0
 11
54.121419
 21
114.249733
 31
0.0
  0
ARC
  5
2AC
330
1F
100
AcDbEntity
  8
DRAW
  6
CONTINUOUS
 62
     4
100
AcDbCircle
 10
-54.121419
 20
115.049733
 30
0.0
 40
0.7999999849600017
210
0.0
220
0.0
230
-1.0
100
AcDbArc
 50
270.0
 51
360.0
  0
LINE
  5
2AD
330
1F
100
AcDbEntity
  8
DRAW
  6
CONTINUOUS
 62
     6
100
AcDbLine
 10
62.371419
 20
116.749733
 30
0.0
 11
60.99274
 21
116.749733
 31
0.0
  0
ARC
  5
2AE
330
1F
100
AcDbEntity
  8
DRAW
  6
CONTINUOUS
 62
     6
100
AcDbCircle
 10
58.87142
 20
115.999733
 30
0.0
 40
2.249999957700001
100
AcDbArc
 50
134.674143
 51
160.528779
  0
ARC
  5
2AF
330
1F
100
AcDbEntity
  8
DRAW
  6
CONTINUOUS
 62
     6
100
AcDbCircle
 10
58.87142
 20
115.999733
 30
0.0
 40
2.249999957700001
100
AcDbArc
 50
19.471215
 51
45.325857
  0
LINE
  5
2B0
330
1F
100
AcDbEntity
  8
DRAW
  6
CONTINUOUS
 62
     6
100
AcDbLine
 10
56.750099
 20
116.749733
 30
0.0
 11
55.371419
 21
116.749733
 31
0.0
  0
LINE
  5
2B1
330
1F
100
AcDbEntity
  8
DRAW
  6
CONTINUOUS
 62
     6
100
AcDbLine
 10
55.371419
 20
116.749733
 30
0.0
 11
55.371419
 21
115.249733
 31
0.0
  0
LINE
  5
2B2
330
1F
100
AcDbEntity
  8
DRAW
  6
CONTINUOUS
 62
     6
100
AcDbLine
 10
55.371419
 20
115.249733
 30
0.0
 11
56.750099
 21
115.249733
 31
0.0
  0
ARC
  5
2B3
330
1F
100
AcDbEntity
  8
DRAW
  6
CONTINUOUS
 62
     6
100
AcDbCircle
 10
58.871419
 20
115.999733
 30
0.0
 40
2.249999957700001
100
AcDbArc
 50
199.471224
 51
340.528779
  0
LINE
  5
2B4
330
1F
100
AcDbEntity
  8
DRAW
  6
CONTINUOUS
 62
     6
100
AcDbLine
 10
60.992739
 20
115.249733
 30
0.0
 11
62.371419
 21
115.249733
 31
0.0
  0
LINE
  5
2B5
330
1F
100
AcDbEntity
  8
DRAW
  6
CONTINUOUS
 62
     6
100
AcDbLine
 10
62.371419
 20
115.249733
 30
0.0
 11
62.371419
 21
116.749733
 31
0.0
  0
LINE
  5
2B6
330
1F
100
AcDbEntity
  8
DRAW
  6
CONTINUOUS
 62
     4
100
AcDbLine
 10
64.421419
 20
117.599746
 30
0.0
 11
64.421419
 21
115.049733
 31
0.0
  0
LINE
  5
2B7
330
1F
100
AcDbEntity
  8
DRAW
  6
CONTINUOUS
 62
     4
100
AcDbLine
 10
53.321419
 20
117.599746
 30
0.0
 11
53.321419
 21
115.049733
 31
0.0
  0
LINE
  5
2B8
330
1F
100
AcDbEntity
  8
DRAW
  6
CONTINUOUS
 62
     5
100
AcDbLine
 10
53.967186
 20
195.15032
 30
0.0
 11
54.111741
 21
194.311414
 31
0.0
  0
LINE
  5
2B9
330
1F
100
AcDbEntity
  8
DRAW
  6
CONTINUOUS
 62
     5
100
AcDbLine
 10
54.111741
 20
194.311414
 30
0.0
 11
55.390359
 21
194.531738
 31
0.0
  0
LINE
  5
2BA
330
1F
100
AcDbEntity
  8
DRAW
  6
CONTINUOUS
 62
     5
100
AcDbLine
 10
55.390359
 20
194.531738
 30
0.0
 11
55.245804
 21
195.370644
 31
0.0
  0
LINE
  5
2BB
330
1F
100
AcDbEntity
  8
DRAW
  6
CONTINUOUS
 62
     5
100
AcDbLine
 10
55.245804
 20
195.370644
 30
0.0
 11
56.08471
 21
195.515199
 31
0.0
  0
LINE
  5
2BC
330
1F
100
AcDbEntity
  8
DRAW
  6
CONTINUOUS
 62
     5
100
AcDbLine
 10
55.864386
 20
196.793817
 30
0.0
 11
55.02548
 21
196.649262
 31
0.0
  0
LINE
  5
2BD
330
1F
100
AcDbEntity
  8
DRAW
  6
CONTINUOUS
 62
     5
100
AcDbLine
 10
55.02548
 20
196.649262
 30
0.0
 11
54.880924
 21
197.488168
 31
0.0
  0
LINE
  5
2BE
330
1F
100
AcDbEntity
  8
DRAW
  6
CONTINUOUS
 62
     5
100
AcDbLine
 10
54.880924
 20
197.488168
 30
0.0
 11
53.602307
 21
197.267844
 31
0.0
  0
LINE
  5
2BF
330
1F
100
AcDbEntity
  8
DRAW
  6
CONTINUOUS
 62
     5
100
AcDbLine
 10
53.602307
 20
197.267844
 30
0.0
 11
53.746862
 21
196.428938
 31
0.0
  0
LINE
  5
2C0
330
1F
100
AcDbEntity
  8
DRAW
  6
CONTINUOUS
 62
     5
100
AcDbLine
 10
53.746862
 20
196.428938
 30
0.0
 11
52.907956
 21
196.284382
 31
0.0
  0
LINE
  5
2C1
330
1F
100
AcDbEntity
  8
DRAW
  6
CONTINUOUS
 62
     5
100
AcDbLine
 10
53.12828
 20
195.005765
 30
0.0
 11
53.967186
 21
195.15032
 31
0.0
  0
LINE
  5
2C2
330
1F
100
AcDbEntity
  8
DRAW
  6
CONTINUOUS
 62
     5
100
AcDbLine
 10
53.967186
 20
195.15032
 30
0.0
 11
54.0885
 21
195.322147
 31
0.0
  0
LINE
  5
2C3
330
1F
100
AcDbEntity
  8
DRAW
  6
CONTINUOUS
 62
     5
100
AcDbLine
 10
53.884234
 20
195.286949
 30
0.0
 11
54.0885
 21
195.322147
 31
0.0
  0
LINE
  5
2C4
330
1F
100
AcDbEntity
  8
DRAW
  6
CONTINUOUS
 62
     5
100
AcDbLine
 10
53.12828
 20
195.005765
 30
0.0
 11
53.884234
 21
195.286949
 31
0.0
  0
LINE
  5
2C5
330
1F
100
AcDbEntity
  8
DRAW
  6
CONTINUOUS
 62
     5
100
AcDbLine
 10
54.111741
 20
194.311414
 30
0.0
 11
54.123698
 21
195.11788
 31
0.0
  0
LINE
  5
2C6
330
1F
100
AcDbEntity
  8
DRAW
  6
CONTINUOUS
 62
     5
100
AcDbLine
 10
54.0885
 20
195.322147
 30
0.0
 11
54.123698
 21
195.11788
 31
0.0
  0
LINE
  5
2C7
330
1F
100
AcDbEntity
  8
DRAW
  6
CONTINUOUS
 62
     5
100
AcDbLine
 10
55.390359
 20
194.531738
 30
0.0
 11
55.109175
 21
195.287692
 31
0.0
  0
LINE
  5
2C8
330
1F
100
AcDbEntity
  8
DRAW
  6
CONTINUOUS
 62
     5
100
AcDbLine
 10
54.123698
 20
195.11788
 30
0.0
 11
55.109175
 21
195.287692
 31
0.0
  0
LINE
  5
2C9
330
1F
100
AcDbEntity
  8
DRAW
  6
CONTINUOUS
 62
     5
100
AcDbLine
 10
55.245804
 20
195.370644
 30
0.0
 11
55.073977
 21
195.491958
 31
0.0
  0
LINE
  5
2CA
330
1F
100
AcDbEntity
  8
DRAW
  6
CONTINUOUS
 62
     5
100
AcDbLine
 10
55.109175
 20
195.287692
 30
0.0
 11
55.073977
 21
195.491958
 31
0.0
  0
LINE
  5
2CB
330
1F
100
AcDbEntity
  8
DRAW
  6
CONTINUOUS
 62
     5
100
AcDbLine
 10
56.08471
 20
195.515199
 30
0.0
 11
55.278243
 21
195.527156
 31
0.0
  0
LINE
  5
2CC
330
1F
100
AcDbEntity
  8
DRAW
  6
CONTINUOUS
 62
     5
100
AcDbLine
 10
55.073977
 20
195.491958
 30
0.0
 11
55.278243
 21
195.527156
 31
0.0
  0
LINE
  5
2CD
330
1F
100
AcDbEntity
  8
DRAW
  6
CONTINUOUS
 62
     5
100
AcDbLine
 10
55.864386
 20
196.793817
 30
0.0
 11
55.108432
 21
196.512633
 31
0.0
  0
LINE
  5
2CE
330
1F
100
AcDbEntity
  8
DRAW
  6
CONTINUOUS
 62
     5
100
AcDbLine
 10
55.278243
 20
195.527156
 30
0.0
 11
55.108432
 21
196.512633
 31
0.0
  0
LINE
  5
2CF
330
1F
100
AcDbEntity
  8
DRAW
  6
CONTINUOUS
 62
     5
100
AcDbLine
 10
55.02548
 20
196.649262
 30
0.0
 11
54.904165
 21
196.477435
 31
0.0
  0
LINE
  5
2D0
330
1F
100
AcDbEntity
  8
DRAW
  6
CONTINUOUS
 62
     5
100
AcDbLine
 10
55.108432
 20
196.512633
 30
0.0
 11
54.904165
 21
196.477435
 31
0.0
  0
LINE
  5
2D1
330
1F
100
AcDbEntity
  8
DRAW
  6
CONTINUOUS
 62
     5
100
AcDbLine
 10
54.880924
 20
197.488168
 30
0.0
 11
54.868967
 21
196.681702
 31
0.0
  0
LINE
  5
2D2
330
1F
100
AcDbEntity
  8
DRAW
  6
CONTINUOUS
 62
     5
100
AcDbLine
 10
54.904165
 20
196.477435
 30
0.0
 11
54.868967
 21
196.681702
 31
0.0
  0
LINE
  5
2D3
330
1F
100
AcDbEntity
  8
DRAW
  6
CONTINUOUS
 62
     5
100
AcDbLine
 10
53.602307
 20
197.267844
 30
0.0
 11
53.883491
 21
196.51189
 31
0.0
  0
LINE
  5
2D4
330
1F
100
AcDbEntity
  8
DRAW
  6
CONTINUOUS
 62
     5
100
AcDbLine
 10
54.868967
 20
196.681702
 30
0.0
 11
53.883491
 21
196.51189
 31
0.0
  0
LINE
  5
2D5
330
1F
100
AcDbEntity
  8
DRAW
  6
CONTINUOUS
 62
     5
100
AcDbLine
 10
53.746862
 20
196.428938
 30
0.0
 11
53.918689
 21
196.307623
 31
0.0
  0
LINE
  5
2D6
330
1F
100
AcDbEntity
  8
DRAW
  6
CONTINUOUS
 62
     5
100
AcDbLine
 10
53.883491
 20
196.51189
 30
0.0
 11
53.918689
 21
196.307623
 31
0.0
  0
LINE
  5
2D7
330
1F
100
AcDbEntity
  8
DRAW
  6
CONTINUOUS
 62
     5
100
AcDbLine
 10
52.907956
 20
196.284382
 30
0.0
 11
53.714422
 21
196.272425
 31
0.0
  0
LINE
  5
2D8
330
1F
100
AcDbEntity
  8
DRAW
  6
CONTINUOUS
 62
     5
100
AcDbLine
 10
53.918689
 20
196.307623
 30
0.0
 11
53.714422
 21
196.272425
 31
0.0
  0
LINE
  5
2D9
330
1F
100
AcDbEntity
  8
DRAW
  6
CONTINUOUS
 62
     5
100
AcDbLine
 10
53.714422
 20
196.272425
 30
0.0
 11
53.884234
 21
195.286949
 31
0.0
  0
LINE
  5
2DA
330
1F
100
AcDbEntity
  8
DRAW
  6
CONTINUOUS
 62
     5
100
AcDbLine
 10
55.906633
 20
196.548644
 30
0.0
 11
55.864386
 21
196.793817
 31
0.0
  0
LINE
  5
2DB
330
1F
100
AcDbEntity
  8
DRAW
  6
CONTINUOUS
 62
     5
100
AcDbLine
 10
56.08471
 20
195.515199
 30
0.0
 11
56.042482
 21
195.760262
 31
0.0
  0
LINE
  5
2DC
330
1F
100
AcDbEntity
  8
DRAW
  6
CONTINUOUS
 62
     5
100
AcDbLine
 10
52.907956
 20
196.284382
 30
0.0
 11
52.950203
 21
196.039209
 31
0.0
  0
LINE
  5
2DD
330
1F
100
AcDbEntity
  8
DRAW
  6
CONTINUOUS
 62
     5
100
AcDbLine
 10
53.086052
 20
195.250828
 30
0.0
 11
53.12828
 21
195.005765
 31
0.0
  0
LINE
  5
2DE
330
1F
100
AcDbEntity
  8
DRAW
  6
CONTINUOUS
 62
     5
100
AcDbLine
 10
55.906633
 20
196.548644
 30
0.0
 11
55.539004
 21
196.485296
 31
0.0
  0
LINE
  5
2DF
330
1F
100
AcDbEntity
  8
DRAW
  6
CONTINUOUS
 62
     5
100
AcDbLine
 10
56.042482
 20
195.760262
 30
0.0
 11
55.674854
 21
195.696915
 31
0.0
  0
LINE
  5
2E0
330
1F
100
AcDbEntity
  8
DRAW
  6
CONTINUOUS
 62
     5
100
AcDbLine
 10
55.539004
 20
196.485296
 30
0.0
 11
55.674854
 21
195.696915
 31
0.0
  0
LINE
  5
2E1
330
1F
100
AcDbEntity
  8
DRAW
  6
CONTINUOUS
 62
     5
100
AcDbLine
 10
52.950203
 20
196.039209
 30
0.0
 11
53.317831
 21
196.102556
 31
0.0
  0
LINE
  5
2E2
330
1F
100
AcDbEntity
  8
DRAW
  6
CONTINUOUS
 62
     5
100
AcDbLine
 10
53.086052
 20
195.250828
 30
0.0
 11
53.45368
 21
195.314175
 31
0.0
  0
LINE
  5
2E3
330
1F
100
AcDbEntity
  8
DRAW
  6
CONTINUOUS
 62
     5
100
AcDbLine
 10
53.317831
 20
196.102556
 30
0.0
 11
53.45368
 21
195.314175
 31
0.0
  0
ARC
  5
2E4
330
1F
100
AcDbEntity
  8
DRAW
  6
CONTINUOUS
 62
     5
100
AcDbCircle
 10
-54.496403
 20
195.899746
 30
0.0
 40
2.3
210
0.0
220
0.0
230
-1.0
100
AcDbArc
 50
160.207726
 51
170.22313
  0
ARC
  5
2E5
330
1F
100
AcDbEntity
  8
DRAW
  6
CONTINUOUS
 62
     5
100
AcDbCircle
 10
-54.496403
 20
195.899746
 30
0.0
 40
2.3
210
0.0
220
0.0
230
-1.0
100
AcDbArc
 50
350.223145
 51
0.238546
  0
ARC
  5
2E6
330
1F
100
AcDbEntity
  8
DRAW
  6
CONTINUOUS
 62
     5
100
AcDbCircle
 10
54.496403
 20
195.899746
 30
0.0
 40
2.3
100
AcDbArc
 50
359.761454
 51
9.77687
  0
ARC
  5
2E7
330
1F
100
AcDbEntity
  8
DRAW
  6
CONTINUOUS
 62
     5
100
AcDbCircle
 10
54.496403
 20
195.899746
 30
0.0
 40
2.3
100
AcDbArc
 50
189.776855
 51
199.792274
  0
ARC
  5
2E8
330
1F
100
AcDbEntity
  8
DRAW
  6
CONTINUOUS
 62
     5
100
AcDbCircle
 10
54.496403
 20
195.899746
 30
0.0
 40
2.3
100
AcDbArc
 50
199.792274
 51
359.761454
  0
LINE
  5
2E9
330
1F
100
AcDbEntity
  8
DRAW
  6
CONTINUOUS
 62
     5
100
AcDbLine
 10
52.633196
 20
195.172794
 30
0.0
 11
53.086052
 21
195.250828
 31
0.0
  0
LINE
  5
2EA
330
1F
100
AcDbEntity
  8
DRAW
  6
CONTINUOUS
 62
     5
100
AcDbLine
 10
56.042482
 20
195.760262
 30
0.0
 11
56.49546
 21
195.838317
 31
0.0
  0
ARC
  5
2EB
330
1F
100
AcDbEntity
  8
DRAW
  6
CONTINUOUS
 62
     5
100
AcDbCircle
 10
-54.496403
 20
195.899746
 30
0.0
 40
2.3
210
0.0
220
0.0
230
-1.0
100
AcDbArc
 50
0.238546
 51
160.207726
  0
LINE
  5
2EC
330
1F
100
AcDbEntity
  8
DRAW
  6
CONTINUOUS
 62
     5
100
AcDbLine
 10
52.950203
 20
196.039209
 30
0.0
 11
52.497347
 21
195.961175
 31
0.0
  0
LINE
  5
2ED
330
1F
100
AcDbEntity
  8
DRAW
  6
CONTINUOUS
 62
     5
100
AcDbLine
 10
56.359611
 20
196.626698
 30
0.0
 11
55.906633
 21
196.548644
 31
0.0
  0
LINE
  5
2EE
330
1F
100
AcDbEntity
  8
DRAW
  6
CONTINUOUS
 62
     5
100
AcDbLine
 10
52.633196
 20
195.172794
 30
0.0
 11
52.332273
 21
195.120941
 31
0.0
  0
LINE
  5
2EF
330
1F
100
AcDbEntity
  8
DRAW
  6
CONTINUOUS
 62
     5
100
AcDbLine
 10
56.49546
 20
195.838317
 30
0.0
 11
56.796384
 21
195.89017
 31
0.0
  0
LINE
  5
2F0
330
1F
100
AcDbEntity
  8
DRAW
  6
CONTINUOUS
 62
     5
100
AcDbLine
 10
52.497347
 20
195.961175
 30
0.0
 11
52.196423
 21
195.909322
 31
0.0
  0
LINE
  5
2F1
330
1F
100
AcDbEntity
  8
DRAW
  6
CONTINUOUS
 62
     5
100
AcDbLine
 10
56.660534
 20
196.678552
 30
0.0
 11
56.359611
 21
196.626698
 31
0.0
  0
LINE
  5
2F2
330
1F
100
AcDbEntity
  8
DRAW
  6
CONTINUOUS
 62
     5
100
AcDbLine
 10
62.717187
 20
195.15032
 30
0.0
 11
62.861742
 21
194.311414
 31
0.0
  0
LINE
  5
2F3
330
1F
100
AcDbEntity
  8
DRAW
  6
CONTINUOUS
 62
     5
100
AcDbLine
 10
62.861742
 20
194.311414
 30
0.0
 11
64.14036
 21
194.531738
 31
0.0
  0
LINE
  5
2F4
330
1F
100
AcDbEntity
  8
DRAW
  6
CONTINUOUS
 62
     5
100
AcDbLine
 10
64.14036
 20
194.531738
 30
0.0
 11
63.995805
 21
195.370644
 31
0.0
  0
LINE
  5
2F5
330
1F
100
AcDbEntity
  8
DRAW
  6
CONTINUOUS
 62
     5
100
AcDbLine
 10
63.995805
 20
195.370644
 30
0.0
 11
64.834711
 21
195.515199
 31
0.0
  0
LINE
  5
2F6
330
1F
100
AcDbEntity
  8
DRAW
  6
CONTINUOUS
 62
     5
100
AcDbLine
 10
64.614387
 20
196.793817
 30
0.0
 11
63.775481
 21
196.649262
 31
0.0
  0
LINE
  5
2F7
330
1F
100
AcDbEntity
  8
DRAW
  6
CONTINUOUS
 62
     5
100
AcDbLine
 10
63.775481
 20
196.649262
 30
0.0
 11
63.630925
 21
197.488168
 31
0.0
  0
LINE
  5
2F8
330
1F
100
AcDbEntity
  8
DRAW
  6
CONTINUOUS
 62
     5
100
AcDbLine
 10
63.630925
 20
197.488168
 30
0.0
 11
62.352307
 21
197.267844
 31
0.0
  0
LINE
  5
2F9
330
1F
100
AcDbEntity
  8
DRAW
  6
CONTINUOUS
 62
     5
100
AcDbLine
 10
62.352307
 20
197.267844
 30
0.0
 11
62.496863
 21
196.428938
 31
0.0
  0
LINE
  5
2FA
330
1F
100
AcDbEntity
  8
DRAW
  6
CONTINUOUS
 62
     5
100
AcDbLine
 10
62.496863
 20
196.428938
 30
0.0
 11
61.657957
 21
196.284382
 31
0.0
  0
LINE
  5
2FB
330
1F
100
AcDbEntity
  8
DRAW
  6
CONTINUOUS
 62
     5
100
AcDbLine
 10
61.878281
 20
195.005765
 30
0.0
 11
62.717187
 21
195.15032
 31
0.0
  0
LINE
  5
2FC
330
1F
100
AcDbEntity
  8
DRAW
  6
CONTINUOUS
 62
     5
100
AcDbLine
 10
62.717187
 20
195.15032
 30
0.0
 11
62.838501
 21
195.322147
 31
0.0
  0
LINE
  5
2FD
330
1F
100
AcDbEntity
  8
DRAW
  6
CONTINUOUS
 62
     5
100
AcDbLine
 10
62.634235
 20
195.286949
 30
0.0
 11
62.838501
 21
195.322147
 31
0.0
  0
LINE
  5
2FE
330
1F
100
AcDbEntity
  8
DRAW
  6
CONTINUOUS
 62
     5
100
AcDbLine
 10
61.878281
 20
195.005765
 30
0.0
 11
62.634235
 21
195.286949
 31
0.0
  0
LINE
  5
2FF
330
1F
100
AcDbEntity
  8
DRAW
  6
CONTINUOUS
 62
     5
100
AcDbLine
 10
62.861742
 20
194.311414
 30
0.0
 11
62.873699
 21
195.11788
 31
0.0
  0
LINE
  5
300
330
1F
100
AcDbEntity
  8
DRAW
  6
CONTINUOUS
 62
     5
100
AcDbLine
 10
62.838501
 20
195.322147
 30
0.0
 11
62.873699
 21
195.11788
 31
0.0
  0
LINE
  5
301
330
1F
100
AcDbEntity
  8
DRAW
  6
CONTINUOUS
 62
     5
100
AcDbLine
 10
64.14036
 20
194.531738
 30
0.0
 11
63.859176
 21
195.287692
 31
0.0
  0
LINE
  5
302
330
1F
100
AcDbEntity
  8
DRAW
  6
CONTINUOUS
 62
     5
100
AcDbLine
 10
62.873699
 20
195.11788
 30
0.0
 11
63.859176
 21
195.287692
 31
0.0
  0
LINE
  5
303
330
1F
100
AcDbEntity
  8
DRAW
  6
CONTINUOUS
 62
     5
100
AcDbLine
 10
63.995805
 20
195.370644
 30
0.0
 11
63.823978
 21
195.491958
 31
0.0
  0
LINE
  5
304
330
1F
100
AcDbEntity
  8
DRAW
  6
CONTINUOUS
 62
     5
100
AcDbLine
 10
63.859176
 20
195.287692
 30
0.0
 11
63.823978
 21
195.491958
 31
0.0
  0
LINE
  5
305
330
1F
100
AcDbEntity
  8
DRAW
  6
CONTINUOUS
 62
     5
100
AcDbLine
 10
64.834711
 20
195.515199
 30
0.0
 11
64.028244
 21
195.527156
 31
0.0
  0
LINE
  5
306
330
1F
100
AcDbEntity
  8
DRAW
  6
CONTINUOUS
 62
     5
100
AcDbLine
 10
63.823978
 20
195.491958
 30
0.0
 11
64.028244
 21
195.527156
 31
0.0
  0
LINE
  5
307
330
1F
100
AcDbEntity
  8
DRAW
  6
CONTINUOUS
 62
     5
100
AcDbLine
 10
64.614387
 20
196.793817
 30
0.0
 11
63.858433
 21
196.512633
 31
0.0
  0
LINE
  5
308
330
1F
100
AcDbEntity
  8
DRAW
  6
CONTINUOUS
 62
     5
100
AcDbLine
 10
64.028244
 20
195.527156
 30
0.0
 11
63.858433
 21
196.512633
 31
0.0
  0
LINE
  5
309
330
1F
100
AcDbEntity
  8
DRAW
  6
CONTINUOUS
 62
     5
100
AcDbLine
 10
63.775481
 20
196.649262
 30
0.0
 11
63.654166
 21
196.477435
 31
0.0
  0
LINE
  5
30A
330
1F
100
AcDbEntity
  8
DRAW
  6
CONTINUOUS
 62
     5
100
AcDbLine
 10
63.858433
 20
196.512633
 30
0.0
 11
63.654166
 21
196.477435
 31
0.0
  0
LINE
  5
30B
330
1F
100
AcDbEntity
  8
DRAW
  6
CONTINUOUS
 62
     5
100
AcDbLine
 10
63.630925
 20
197.488168
 30
0.0
 11
63.618968
 21
196.681702
 31
0.0
  0
LINE
  5
30C
330
1F
100
AcDbEntity
  8
DRAW
  6
CONTINUOUS
 62
     5
100
AcDbLine
 10
63.654166
 20
196.477435
 30
0.0
 11
63.618968
 21
196.681702
 31
0.0
  0
LINE
  5
30D
330
1F
100
AcDbEntity
  8
DRAW
  6
CONTINUOUS
 62
     5
100
AcDbLine
 10
62.352307
 20
197.267844
 30
0.0
 11
62.633492
 21
196.51189
 31
0.0
  0
LINE
  5
30E
330
1F
100
AcDbEntity
  8
DRAW
  6
CONTINUOUS
 62
     5
100
AcDbLine
 10
63.618968
 20
196.681702
 30
0.0
 11
62.633492
 21
196.51189
 31
0.0
  0
LINE
  5
30F
330
1F
100
AcDbEntity
  8
DRAW
  6
CONTINUOUS
 62
     5
100
AcDbLine
 10
62.496863
 20
196.428938
 30
0.0
 11
62.66869
 21
196.307623
 31
0.0
  0
LINE
  5
310
330
1F
100
AcDbEntity
  8
DRAW
  6
CONTINUOUS
 62
     5
100
AcDbLine
 10
62.633492
 20
196.51189
 30
0.0
 11
62.66869
 21
196.307623
 31
0.0
  0
LINE
  5
311
330
1F
100
AcDbEntity
  8
DRAW
  6
CONTINUOUS
 62
     5
100
AcDbLine
 10
61.657957
 20
196.284382
 30
0.0
 11
62.464423
 21
196.272425
 31
0.0
  0
LINE
  5
312
330
1F
100
AcDbEntity
  8
DRAW
  6
CONTINUOUS
 62
     5
100
AcDbLine
 10
62.66869
 20
196.307623
 30
0.0
 11
62.464423
 21
196.272425
 31
0.0
  0
LINE
  5
313
330
1F
100
AcDbEntity
  8
DRAW
  6
CONTINUOUS
 62
     5
100
AcDbLine
 10
62.464423
 20
196.272425
 30
0.0
 11
62.634235
 21
195.286949
 31
0.0
  0
LINE
  5
314
330
1F
100
AcDbEntity
  8
DRAW
  6
CONTINUOUS
 62
     5
100
AcDbLine
 10
64.656633
 20
196.548644
 30
0.0
 11
64.614387
 21
196.793817
 31
0.0
  0
LINE
  5
315
330
1F
100
AcDbEntity
  8
DRAW
  6
CONTINUOUS
 62
     5
100
AcDbLine
 10
64.834711
 20
195.515199
 30
0.0
 11
64.792483
 21
195.760262
 31
0.0
  0
LINE
  5
316
330
1F
100
AcDbEntity
  8
DRAW
  6
CONTINUOUS
 62
     5
100
AcDbLine
 10
61.657957
 20
196.284382
 30
0.0
 11
61.700204
 21
196.039209
 31
0.0
  0
LINE
  5
317
330
1F
100
AcDbEntity
  8
DRAW
  6
CONTINUOUS
 62
     5
100
AcDbLine
 10
61.836053
 20
195.250828
 30
0.0
 11
61.878281
 21
195.005765
 31
0.0
  0
LINE
  5
318
330
1F
100
AcDbEntity
  8
DRAW
  6
CONTINUOUS
 62
     5
100
AcDbLine
 10
64.656633
 20
196.548644
 30
0.0
 11
64.289005
 21
196.485296
 31
0.0
  0
LINE
  5
319
330
1F
100
AcDbEntity
  8
DRAW
  6
CONTINUOUS
 62
     5
100
AcDbLine
 10
64.792483
 20
195.760262
 30
0.0
 11
64.424855
 21
195.696915
 31
0.0
  0
LINE
  5
31A
330
1F
100
AcDbEntity
  8
DRAW
  6
CONTINUOUS
 62
     5
100
AcDbLine
 10
64.289005
 20
196.485296
 30
0.0
 11
64.424855
 21
195.696915
 31
0.0
  0
LINE
  5
31B
330
1F
100
AcDbEntity
  8
DRAW
  6
CONTINUOUS
 62
     5
100
AcDbLine
 10
61.700204
 20
196.039209
 30
0.0
 11
62.067832
 21
196.102556
 31
0.0
  0
LINE
  5
31C
330
1F
100
AcDbEntity
  8
DRAW
  6
CONTINUOUS
 62
     5
100
AcDbLine
 10
61.836053
 20
195.250828
 30
0.0
 11
62.203681
 21
195.314175
 31
0.0
  0
LINE
  5
31D
330
1F
100
AcDbEntity
  8
DRAW
  6
CONTINUOUS
 62
     5
100
AcDbLine
 10
62.067832
 20
196.102556
 30
0.0
 11
62.203681
 21
195.314175
 31
0.0
  0
ARC
  5
31E
330
1F
100
AcDbEntity
  8
DRAW
  6
CONTINUOUS
 62
     5
100
AcDbCircle
 10
-63.246404
 20
195.899746
 30
0.0
 40
2.3
210
0.0
220
0.0
230
-1.0
100
AcDbArc
 50
160.207726
 51
170.22313
  0
ARC
  5
31F
330
1F
100
AcDbEntity
  8
DRAW
  6
CONTINUOUS
 62
     5
100
AcDbCircle
 10
-63.246404
 20
195.899746
 30
0.0
 40
2.3
210
0.0
220
0.0
230
-1.0
100
AcDbArc
 50
350.223145
 51
0.238546
  0
ARC
  5
320
330
1F
100
AcDbEntity
  8
DRAW
  6
CONTINUOUS
 62
     5
100
AcDbCircle
 10
63.246404
 20
195.899746
 30
0.0
 40
2.3
100
AcDbArc
 50
359.761454
 51
9.77687
  0
ARC
  5
321
330
1F
100
AcDbEntity
  8
DRAW
  6
CONTINUOUS
 62
     5
100
AcDbCircle
 10
63.246404
 20
195.899746
 30
0.0
 40
2.3
100
AcDbArc
 50
189.776855
 51
199.792274
  0
ARC
  5
322
330
1F
100
AcDbEntity
  8
DRAW
  6
CONTINUOUS
 62
     5
100
AcDbCircle
 10
63.246404
 20
195.899746
 30
0.0
 40
2.3
100
AcDbArc
 50
199.792274
 51
359.761454
  0
LINE
  5
323
330
1F
100
AcDbEntity
  8
DRAW
  6
CONTINUOUS
 62
     5
100
AcDbLine
 10
61.383197
 20
195.172794
 30
0.0
 11
61.836053
 21
195.250828
 31
0.0
  0
LINE
  5
324
330
1F
100
AcDbEntity
  8
DRAW
  6
CONTINUOUS
 62
     5
100
AcDbLine
 10
64.792483
 20
195.760262
 30
0.0
 11
65.245461
 21
195.838317
 31
0.0
  0
ARC
  5
325
330
1F
100
AcDbEntity
  8
DRAW
  6
CONTINUOUS
 62
     5
100
AcDbCircle
 10
-63.246404
 20
195.899746
 30
0.0
 40
2.3
210
0.0
220
0.0
230
-1.0
100
AcDbArc
 50
0.238546
 51
160.207726
  0
LINE
  5
326
330
1F
100
AcDbEntity
  8
DRAW
  6
CONTINUOUS
 62
     5
100
AcDbLine
 10
61.700204
 20
196.039209
 30
0.0
 11
61.247348
 21
195.961175
 31
0.0
  0
LINE
  5
327
330
1F
100
AcDbEntity
  8
DRAW
  6
CONTINUOUS
 62
     5
100
AcDbLine
 10
65.109612
 20
196.626698
 30
0.0
 11
64.656633
 21
196.548644
 31
0.0
  0
LINE
  5
328
330
1F
100
AcDbEntity
  8
DRAW
  6
CONTINUOUS
 62
     5
100
AcDbLine
 10
61.383197
 20
195.172794
 30
0.0
 11
61.082274
 21
195.120941
 31
0.0
  0
LINE
  5
329
330
1F
100
AcDbEntity
  8
DRAW
  6
CONTINUOUS
 62
     5
100
AcDbLine
 10
65.245461
 20
195.838317
 30
0.0
 11
65.546384
 21
195.89017
 31
0.0
  0
LINE
  5
32A
330
1F
100
AcDbEntity
  8
DRAW
  6
CONTINUOUS
 62
     5
100
AcDbLine
 10
61.247348
 20
195.961175
 30
0.0
 11
60.946424
 21
195.909322
 31
0.0
  0
LINE
  5
32B
330
1F
100
AcDbEntity
  8
DRAW
  6
CONTINUOUS
 62
     5
100
AcDbLine
 10
65.410535
 20
196.678552
 30
0.0
 11
65.109612
 21
196.626698
 31
0.0
  0
LINE
  5
32C
330
1F
100
AcDbEntity
  8
DRAW
  6
CONTINUOUS
 62
     5
100
AcDbLine
 10
55.02562
 20
135.049173
 30
0.0
 11
54.881065
 21
135.888079
 31
0.0
  0
LINE
  5
32D
330
1F
100
AcDbEntity
  8
DRAW
  6
CONTINUOUS
 62
     5
100
AcDbLine
 10
54.881065
 20
135.888079
 30
0.0
 11
53.602447
 21
135.667755
 31
0.0
  0
LINE
  5
32E
330
1F
100
AcDbEntity
  8
DRAW
  6
CONTINUOUS
 62
     5
100
AcDbLine
 10
53.602447
 20
135.667755
 30
0.0
 11
53.747002
 21
134.828849
 31
0.0
  0
LINE
  5
32F
330
1F
100
AcDbEntity
  8
DRAW
  6
CONTINUOUS
 62
     5
100
AcDbLine
 10
53.747002
 20
134.828849
 30
0.0
 11
52.908096
 21
134.684294
 31
0.0
  0
LINE
  5
330
330
1F
100
AcDbEntity
  8
DRAW
  6
CONTINUOUS
 62
     5
100
AcDbLine
 10
53.12842
 20
133.405676
 30
0.0
 11
53.967326
 21
133.550232
 31
0.0
  0
LINE
  5
331
330
1F
100
AcDbEntity
  8
DRAW
  6
CONTINUOUS
 62
     5
100
AcDbLine
 10
53.967326
 20
133.550232
 30
0.0
 11
54.111882
 21
132.711326
 31
0.0
  0
LINE
  5
332
330
1F
100
AcDbEntity
  8
DRAW
  6
CONTINUOUS
 62
     5
100
AcDbLine
 10
54.111882
 20
132.711326
 30
0.0
 11
55.390499
 21
132.93165
 31
0.0
  0
LINE
  5
333
330
1F
100
AcDbEntity
  8
DRAW
  6
CONTINUOUS
 62
     5
100
AcDbLine
 10
55.390499
 20
132.93165
 30
0.0
 11
55.245944
 21
133.770556
 31
0.0
  0
LINE
  5
334
330
1F
100
AcDbEntity
  8
DRAW
  6
CONTINUOUS
 62
     5
100
AcDbLine
 10
55.245944
 20
133.770556
 30
0.0
 11
56.08485
 21
133.915111
 31
0.0
  0
LINE
  5
335
330
1F
100
AcDbEntity
  8
DRAW
  6
CONTINUOUS
 62
     5
100
AcDbLine
 10
55.864526
 20
135.193729
 30
0.0
 11
55.02562
 21
135.049173
 31
0.0
  0
LINE
  5
336
330
1F
100
AcDbEntity
  8
DRAW
  6
CONTINUOUS
 62
     5
100
AcDbLine
 10
55.02562
 20
135.049173
 30
0.0
 11
54.904306
 21
134.877347
 31
0.0
  0
LINE
  5
337
330
1F
100
AcDbEntity
  8
DRAW
  6
CONTINUOUS
 62
     5
100
AcDbLine
 10
55.108572
 20
134.912545
 30
0.0
 11
54.904306
 21
134.877347
 31
0.0
  0
LINE
  5
338
330
1F
100
AcDbEntity
  8
DRAW
  6
CONTINUOUS
 62
     5
100
AcDbLine
 10
55.864526
 20
135.193729
 30
0.0
 11
55.108572
 21
134.912545
 31
0.0
  0
LINE
  5
339
330
1F
100
AcDbEntity
  8
DRAW
  6
CONTINUOUS
 62
     5
100
AcDbLine
 10
54.881065
 20
135.888079
 30
0.0
 11
54.869108
 21
135.081613
 31
0.0
  0
LINE
  5
33A
330
1F
100
AcDbEntity
  8
DRAW
  6
CONTINUOUS
 62
     5
100
AcDbLine
 10
54.904306
 20
134.877347
 30
0.0
 11
54.869108
 21
135.081613
 31
0.0
  0
LINE
  5
33B
330
1F
100
AcDbEntity
  8
DRAW
  6
CONTINUOUS
 62
     5
100
AcDbLine
 10
53.602447
 20
135.667755
 30
0.0
 11
53.883631
 21
134.911802
 31
0.0
  0
LINE
  5
33C
330
1F
100
AcDbEntity
  8
DRAW
  6
CONTINUOUS
 62
     5
100
AcDbLine
 10
54.869108
 20
135.081613
 30
0.0
 11
53.883631
 21
134.911802
 31
0.0
  0
LINE
  5
33D
330
1F
100
AcDbEntity
  8
DRAW
  6
CONTINUOUS
 62
     5
100
AcDbLine
 10
53.747002
 20
134.828849
 30
0.0
 11
53.918829
 21
134.707535
 31
0.0
  0
LINE
  5
33E
330
1F
100
AcDbEntity
  8
DRAW
  6
CONTINUOUS
 62
     5
100
AcDbLine
 10
53.883631
 20
134.911802
 30
0.0
 11
53.918829
 21
134.707535
 31
0.0
  0
LINE
  5
33F
330
1F
100
AcDbEntity
  8
DRAW
  6
CONTINUOUS
 62
     5
100
AcDbLine
 10
52.908096
 20
134.684294
 30
0.0
 11
53.714562
 21
134.672337
 31
0.0
  0
LINE
  5
340
330
1F
100
AcDbEntity
  8
DRAW
  6
CONTINUOUS
 62
     5
100
AcDbLine
 10
53.918829
 20
134.707535
 30
0.0
 11
53.714562
 21
134.672337
 31
0.0
  0
LINE
  5
341
330
1F
100
AcDbEntity
  8
DRAW
  6
CONTINUOUS
 62
     5
100
AcDbLine
 10
53.12842
 20
133.405676
 30
0.0
 11
53.884374
 21
133.68686
 31
0.0
  0
LINE
  5
342
330
1F
100
AcDbEntity
  8
DRAW
  6
CONTINUOUS
 62
     5
100
AcDbLine
 10
53.714562
 20
134.672337
 30
0.0
 11
53.884374
 21
133.68686
 31
0.0
  0
LINE
  5
343
330
1F
100
AcDbEntity
  8
DRAW
  6
CONTINUOUS
 62
     5
100
AcDbLine
 10
53.967326
 20
133.550232
 30
0.0
 11
54.088641
 21
133.722058
 31
0.0
  0
LINE
  5
344
330
1F
100
AcDbEntity
  8
DRAW
  6
CONTINUOUS
 62
     5
100
AcDbLine
 10
53.884374
 20
133.68686
 30
0.0
 11
54.088641
 21
133.722058
 31
0.0
  0
LINE
  5
345
330
1F
100
AcDbEntity
  8
DRAW
  6
CONTINUOUS
 62
     5
100
AcDbLine
 10
54.111882
 20
132.711326
 30
0.0
 11
54.123839
 21
133.517792
 31
0.0
  0
LINE
  5
346
330
1F
100
AcDbEntity
  8
DRAW
  6
CONTINUOUS
 62
     5
100
AcDbLine
 10
54.088641
 20
133.722058
 30
0.0
 11
54.123839
 21
133.517792
 31
0.0
  0
LINE
  5
347
330
1F
100
AcDbEntity
  8
DRAW
  6
CONTINUOUS
 62
     5
100
AcDbLine
 10
55.390499
 20
132.93165
 30
0.0
 11
55.109315
 21
133.687603
 31
0.0
  0
LINE
  5
348
330
1F
100
AcDbEntity
  8
DRAW
  6
CONTINUOUS
 62
     5
100
AcDbLine
 10
54.123839
 20
133.517792
 30
0.0
 11
55.109315
 21
133.687603
 31
0.0
  0
LINE
  5
349
330
1F
100
AcDbEntity
  8
DRAW
  6
CONTINUOUS
 62
     5
100
AcDbLine
 10
55.245944
 20
133.770556
 30
0.0
 11
55.074117
 21
133.89187
 31
0.0
  0
LINE
  5
34A
330
1F
100
AcDbEntity
  8
DRAW
  6
CONTINUOUS
 62
     5
100
AcDbLine
 10
55.109315
 20
133.687603
 30
0.0
 11
55.074117
 21
133.89187
 31
0.0
  0
LINE
  5
34B
330
1F
100
AcDbEntity
  8
DRAW
  6
CONTINUOUS
 62
     5
100
AcDbLine
 10
56.08485
 20
133.915111
 30
0.0
 11
55.278384
 21
133.927068
 31
0.0
  0
LINE
  5
34C
330
1F
100
AcDbEntity
  8
DRAW
  6
CONTINUOUS
 62
     5
100
AcDbLine
 10
55.074117
 20
133.89187
 30
0.0
 11
55.278384
 21
133.927068
 31
0.0
  0
LINE
  5
34D
330
1F
100
AcDbEntity
  8
DRAW
  6
CONTINUOUS
 62
     5
100
AcDbLine
 10
55.278384
 20
133.927068
 30
0.0
 11
55.108572
 21
134.912545
 31
0.0
  0
LINE
  5
34E
330
1F
100
AcDbEntity
  8
DRAW
  6
CONTINUOUS
 62
     5
100
AcDbLine
 10
53.086173
 20
133.65085
 30
0.0
 11
53.12842
 21
133.405676
 31
0.0
  0
LINE
  5
34F
330
1F
100
AcDbEntity
  8
DRAW
  6
CONTINUOUS
 62
     5
100
AcDbLine
 10
52.908096
 20
134.684294
 30
0.0
 11
52.950324
 21
134.439231
 31
0.0
  0
LINE
  5
350
330
1F
100
AcDbEntity
  8
DRAW
  6
CONTINUOUS
 62
     5
100
AcDbLine
 10
56.08485
 20
133.915111
 30
0.0
 11
56.042603
 21
134.160284
 31
0.0
  0
LINE
  5
351
330
1F
100
AcDbEntity
  8
DRAW
  6
CONTINUOUS
 62
     5
100
AcDbLine
 10
55.906754
 20
134.948666
 30
0.0
 11
55.864526
 21
135.193729
 31
0.0
  0
LINE
  5
352
330
1F
100
AcDbEntity
  8
DRAW
  6
CONTINUOUS
 62
     5
100
AcDbLine
 10
53.086173
 20
133.65085
 30
0.0
 11
53.453802
 21
133.714197
 31
0.0
  0
LINE
  5
353
330
1F
100
AcDbEntity
  8
DRAW
  6
CONTINUOUS
 62
     5
100
AcDbLine
 10
52.950324
 20
134.439231
 30
0.0
 11
53.317952
 21
134.502578
 31
0.0
  0
LINE
  5
354
330
1F
100
AcDbEntity
  8
DRAW
  6
CONTINUOUS
 62
     5
100
AcDbLine
 10
53.453802
 20
133.714197
 30
0.0
 11
53.317952
 21
134.502578
 31
0.0
  0
LINE
  5
355
330
1F
100
AcDbEntity
  8
DRAW
  6
CONTINUOUS
 62
     5
100
AcDbLine
 10
56.042603
 20
134.160284
 30
0.0
 11
55.674975
 21
134.096937
 31
0.0
  0
LINE
  5
356
330
1F
100
AcDbEntity
  8
DRAW
  6
CONTINUOUS
 62
     5
100
AcDbLine
 10
55.906754
 20
134.948666
 30
0.0
 11
55.539126
 21
134.885318
 31
0.0
  0
LINE
  5
357
330
1F
100
AcDbEntity
  8
DRAW
  6
CONTINUOUS
 62
     5
100
AcDbLine
 10
55.674975
 20
134.096937
 30
0.0
 11
55.539126
 21
134.885318
 31
0.0
  0
ARC
  5
358
330
1F
100
AcDbEntity
  8
DRAW
  6
CONTINUOUS
 62
     5
100
AcDbCircle
 10
-54.496402
 20
134.299747
 30
0.0
 40
2.3
210
0.0
220
0.0
230
-1.0
100
AcDbArc
 50
340.207726
 51
350.22313
  0
ARC
  5
359
330
1F
100
AcDbEntity
  8
DRAW
  6
CONTINUOUS
 62
     5
100
AcDbCircle
 10
-54.496402
 20
134.299747
 30
0.0
 40
2.3
210
0.0
220
0.0
230
-1.0
100
AcDbArc
 50
170.223145
 51
180.238546
  0
ARC
  5
35A
330
1F
100
AcDbEntity
  8
DRAW
  6
CONTINUOUS
 62
     5
100
AcDbCircle
 10
54.496402
 20
134.299747
 30
0.0
 40
2.3
100
AcDbArc
 50
179.761454
 51
189.77687
  0
ARC
  5
35B
330
1F
100
AcDbEntity
  8
DRAW
  6
CONTINUOUS
 62
     5
100
AcDbCircle
 10
54.496402
 20
134.299747
 30
0.0
 40
2.3
100
AcDbArc
 50
9.776855
 51
19.792274
  0
ARC
  5
35C
330
1F
100
AcDbEntity
  8
DRAW
  6
CONTINUOUS
 62
     5
100
AcDbCircle
 10
54.496402
 20
134.299747
 30
0.0
 40
2.3
100
AcDbArc
 50
19.792274
 51
179.761454
  0
LINE
  5
35D
330
1F
100
AcDbEntity
  8
DRAW
  6
CONTINUOUS
 62
     5
100
AcDbLine
 10
56.35961
 20
135.026699
 30
0.0
 11
55.906754
 21
134.948666
 31
0.0
  0
LINE
  5
35E
330
1F
100
AcDbEntity
  8
DRAW
  6
CONTINUOUS
 62
     5
100
AcDbLine
 10
52.950324
 20
134.439231
 30
0.0
 11
52.497346
 21
134.361176
 31
0.0
  0
ARC
  5
35F
330
1F
100
AcDbEntity
  8
DRAW
  6
CONTINUOUS
 62
     5
100
AcDbCircle
 10
-54.496402
 20
134.299747
 30
0.0
 40
2.3
210
0.0
220
0.0
230
-1.0
100
AcDbArc
 50
180.238546
 51
340.207726
  0
LINE
  5
360
330
1F
100
AcDbEntity
  8
DRAW
  6
CONTINUOUS
 62
     5
100
AcDbLine
 10
56.042603
 20
134.160284
 30
0.0
 11
56.495459
 21
134.238318
 31
0.0
  0
LINE
  5
361
330
1F
100
AcDbEntity
  8
DRAW
  6
CONTINUOUS
 62
     5
100
AcDbLine
 10
52.633195
 20
133.572795
 30
0.0
 11
53.086173
 21
133.65085
 31
0.0
  0
LINE
  5
362
330
1F
100
AcDbEntity
  8
DRAW
  6
CONTINUOUS
 62
     5
100
AcDbLine
 10
56.35961
 20
135.026699
 30
0.0
 11
56.660533
 21
135.078553
 31
0.0
  0
LINE
  5
363
330
1F
100
AcDbEntity
  8
DRAW
  6
CONTINUOUS
 62
     5
100
AcDbLine
 10
52.497346
 20
134.361176
 30
0.0
 11
52.196422
 21
134.309323
 31
0.0
  0
LINE
  5
364
330
1F
100
AcDbEntity
  8
DRAW
  6
CONTINUOUS
 62
     5
100
AcDbLine
 10
56.495459
 20
134.238318
 30
0.0
 11
56.796382
 21
134.290171
 31
0.0
  0
LINE
  5
365
330
1F
100
AcDbEntity
  8
DRAW
  6
CONTINUOUS
 62
     5
100
AcDbLine
 10
52.332272
 20
133.520942
 30
0.0
 11
52.633195
 21
133.572795
 31
0.0
  0
LINE
  5
366
330
1F
100
AcDbEntity
  8
DRAW
  6
CONTINUOUS
 62
     5
100
AcDbLine
 10
63.77562
 20
124.049173
 30
0.0
 11
63.631065
 21
124.888079
 31
0.0
  0
LINE
  5
367
330
1F
100
AcDbEntity
  8
DRAW
  6
CONTINUOUS
 62
     5
100
AcDbLine
 10
63.631065
 20
124.888079
 30
0.0
 11
62.352447
 21
124.667755
 31
0.0
  0
LINE
  5
368
330
1F
100
AcDbEntity
  8
DRAW
  6
CONTINUOUS
 62
     5
100
AcDbLine
 10
62.352447
 20
124.667755
 30
0.0
 11
62.497002
 21
123.828849
 31
0.0
  0
LINE
  5
369
330
1F
100
AcDbEntity
  8
DRAW
  6
CONTINUOUS
 62
     5
100
AcDbLine
 10
62.497002
 20
123.828849
 30
0.0
 11
61.658096
 21
123.684294
 31
0.0
  0
LINE
  5
36A
330
1F
100
AcDbEntity
  8
DRAW
  6
CONTINUOUS
 62
     5
100
AcDbLine
 10
61.87842
 20
122.405676
 30
0.0
 11
62.717326
 21
122.550232
 31
0.0
  0
LINE
  5
36B
330
1F
100
AcDbEntity
  8
DRAW
  6
CONTINUOUS
 62
     5
100
AcDbLine
 10
62.717326
 20
122.550232
 30
0.0
 11
62.861882
 21
121.711326
 31
0.0
  0
LINE
  5
36C
330
1F
100
AcDbEntity
  8
DRAW
  6
CONTINUOUS
 62
     5
100
AcDbLine
 10
62.861882
 20
121.711326
 30
0.0
 11
64.140499
 21
121.93165
 31
0.0
  0
LINE
  5
36D
330
1F
100
AcDbEntity
  8
DRAW
  6
CONTINUOUS
 62
     5
100
AcDbLine
 10
64.140499
 20
121.93165
 30
0.0
 11
63.995944
 21
122.770556
 31
0.0
  0
LINE
  5
36E
330
1F
100
AcDbEntity
  8
DRAW
  6
CONTINUOUS
 62
     5
100
AcDbLine
 10
63.995944
 20
122.770556
 30
0.0
 11
64.83485
 21
122.915111
 31
0.0
  0
LINE
  5
36F
330
1F
100
AcDbEntity
  8
DRAW
  6
CONTINUOUS
 62
     5
100
AcDbLine
 10
64.614526
 20
124.193729
 30
0.0
 11
63.77562
 21
124.049173
 31
0.0
  0
LINE
  5
370
330
1F
100
AcDbEntity
  8
DRAW
  6
CONTINUOUS
 62
     5
100
AcDbLine
 10
63.77562
 20
124.049173
 30
0.0
 11
63.654306
 21
123.877347
 31
0.0
  0
LINE
  5
371
330
1F
100
AcDbEntity
  8
DRAW
  6
CONTINUOUS
 62
     5
100
AcDbLine
 10
63.858572
 20
123.912545
 30
0.0
 11
63.654306
 21
123.877347
 31
0.0
  0
LINE
  5
372
330
1F
100
AcDbEntity
  8
DRAW
  6
CONTINUOUS
 62
     5
100
AcDbLine
 10
64.614526
 20
124.193729
 30
0.0
 11
63.858572
 21
123.912545
 31
0.0
  0
LINE
  5
373
330
1F
100
AcDbEntity
  8
DRAW
  6
CONTINUOUS
 62
     5
100
AcDbLine
 10
63.631065
 20
124.888079
 30
0.0
 11
63.619108
 21
124.081613
 31
0.0
  0
LINE
  5
374
330
1F
100
AcDbEntity
  8
DRAW
  6
CONTINUOUS
 62
     5
100
AcDbLine
 10
63.654306
 20
123.877347
 30
0.0
 11
63.619108
 21
124.081613
 31
0.0
  0
LINE
  5
375
330
1F
100
AcDbEntity
  8
DRAW
  6
CONTINUOUS
 62
     5
100
AcDbLine
 10
62.352447
 20
124.667755
 30
0.0
 11
62.633631
 21
123.911802
 31
0.0
  0
LINE
  5
376
330
1F
100
AcDbEntity
  8
DRAW
  6
CONTINUOUS
 62
     5
100
AcDbLine
 10
63.619108
 20
124.081613
 30
0.0
 11
62.633631
 21
123.911802
 31
0.0
  0
LINE
  5
377
330
1F
100
AcDbEntity
  8
DRAW
  6
CONTINUOUS
 62
     5
100
AcDbLine
 10
62.497002
 20
123.828849
 30
0.0
 11
62.668829
 21
123.707535
 31
0.0
  0
LINE
  5
378
330
1F
100
AcDbEntity
  8
DRAW
  6
CONTINUOUS
 62
     5
100
AcDbLine
 10
62.633631
 20
123.911802
 30
0.0
 11
62.668829
 21
123.707535
 31
0.0
  0
LINE
  5
379
330
1F
100
AcDbEntity
  8
DRAW
  6
CONTINUOUS
 62
     5
100
AcDbLine
 10
61.658096
 20
123.684294
 30
0.0
 11
62.464562
 21
123.672337
 31
0.0
  0
LINE
  5
37A
330
1F
100
AcDbEntity
  8
DRAW
  6
CONTINUOUS
 62
     5
100
AcDbLine
 10
62.668829
 20
123.707535
 30
0.0
 11
62.464562
 21
123.672337
 31
0.0
  0
LINE
  5
37B
330
1F
100
AcDbEntity
  8
DRAW
  6
CONTINUOUS
 62
     5
100
AcDbLine
 10
61.87842
 20
122.405676
 30
0.0
 11
62.634374
 21
122.68686
 31
0.0
  0
LINE
  5
37C
330
1F
100
AcDbEntity
  8
DRAW
  6
CONTINUOUS
 62
     5
100
AcDbLine
 10
62.464562
 20
123.672337
 30
0.0
 11
62.634374
 21
122.68686
 31
0.0
  0
LINE
  5
37D
330
1F
100
AcDbEntity
  8
DRAW
  6
CONTINUOUS
 62
     5
100
AcDbLine
 10
62.717326
 20
122.550232
 30
0.0
 11
62.838641
 21
122.722058
 31
0.0
  0
LINE
  5
37E
330
1F
100
AcDbEntity
  8
DRAW
  6
CONTINUOUS
 62
     5
100
AcDbLine
 10
62.634374
 20
122.68686
 30
0.0
 11
62.838641
 21
122.722058
 31
0.0
  0
LINE
  5
37F
330
1F
100
AcDbEntity
  8
DRAW
  6
CONTINUOUS
 62
     5
100
AcDbLine
 10
62.861882
 20
121.711326
 30
0.0
 11
62.873839
 21
122.517792
 31
0.0
  0
LINE
  5
380
330
1F
100
AcDbEntity
  8
DRAW
  6
CONTINUOUS
 62
     5
100
AcDbLine
 10
62.838641
 20
122.722058
 30
0.0
 11
62.873839
 21
122.517792
 31
0.0
  0
LINE
  5
381
330
1F
100
AcDbEntity
  8
DRAW
  6
CONTINUOUS
 62
     5
100
AcDbLine
 10
64.140499
 20
121.93165
 30
0.0
 11
63.859315
 21
122.687603
 31
0.0
  0
LINE
  5
382
330
1F
100
AcDbEntity
  8
DRAW
  6
CONTINUOUS
 62
     5
100
AcDbLine
 10
62.873839
 20
122.517792
 30
0.0
 11
63.859315
 21
122.687603
 31
0.0
  0
LINE
  5
383
330
1F
100
AcDbEntity
  8
DRAW
  6
CONTINUOUS
 62
     5
100
AcDbLine
 10
63.995944
 20
122.770556
 30
0.0
 11
63.824117
 21
122.89187
 31
0.0
  0
LINE
  5
384
330
1F
100
AcDbEntity
  8
DRAW
  6
CONTINUOUS
 62
     5
100
AcDbLine
 10
63.859315
 20
122.687603
 30
0.0
 11
63.824117
 21
122.89187
 31
0.0
  0
LINE
  5
385
330
1F
100
AcDbEntity
  8
DRAW
  6
CONTINUOUS
 62
     5
100
AcDbLine
 10
64.83485
 20
122.915111
 30
0.0
 11
64.028384
 21
122.927068
 31
0.0
  0
LINE
  5
386
330
1F
100
AcDbEntity
  8
DRAW
  6
CONTINUOUS
 62
     5
100
AcDbLine
 10
63.824117
 20
122.89187
 30
0.0
 11
64.028384
 21
122.927068
 31
0.0
  0
LINE
  5
387
330
1F
100
AcDbEntity
  8
DRAW
  6
CONTINUOUS
 62
     5
100
AcDbLine
 10
64.028384
 20
122.927068
 30
0.0
 11
63.858572
 21
123.912545
 31
0.0
  0
LINE
  5
388
330
1F
100
AcDbEntity
  8
DRAW
  6
CONTINUOUS
 62
     5
100
AcDbLine
 10
61.836173
 20
122.65085
 30
0.0
 11
61.87842
 21
122.405676
 31
0.0
  0
LINE
  5
389
330
1F
100
AcDbEntity
  8
DRAW
  6
CONTINUOUS
 62
     5
100
AcDbLine
 10
61.658096
 20
123.684294
 30
0.0
 11
61.700324
 21
123.439231
 31
0.0
  0
LINE
  5
38A
330
1F
100
AcDbEntity
  8
DRAW
  6
CONTINUOUS
 62
     5
100
AcDbLine
 10
64.83485
 20
122.915111
 30
0.0
 11
64.792603
 21
123.160284
 31
0.0
  0
LINE
  5
38B
330
1F
100
AcDbEntity
  8
DRAW
  6
CONTINUOUS
 62
     5
100
AcDbLine
 10
64.656754
 20
123.948666
 30
0.0
 11
64.614526
 21
124.193729
 31
0.0
  0
LINE
  5
38C
330
1F
100
AcDbEntity
  8
DRAW
  6
CONTINUOUS
 62
     5
100
AcDbLine
 10
61.836173
 20
122.65085
 30
0.0
 11
62.203802
 21
122.714197
 31
0.0
  0
LINE
  5
38D
330
1F
100
AcDbEntity
  8
DRAW
  6
CONTINUOUS
 62
     5
100
AcDbLine
 10
61.700324
 20
123.439231
 30
0.0
 11
62.067952
 21
123.502578
 31
0.0
  0
LINE
  5
38E
330
1F
100
AcDbEntity
  8
DRAW
  6
CONTINUOUS
 62
     5
100
AcDbLine
 10
62.203802
 20
122.714197
 30
0.0
 11
62.067952
 21
123.502578
 31
0.0
  0
LINE
  5
38F
330
1F
100
AcDbEntity
  8
DRAW
  6
CONTINUOUS
 62
     5
100
AcDbLine
 10
64.792603
 20
123.160284
 30
0.0
 11
64.424975
 21
123.096937
 31
0.0
  0
LINE
  5
390
330
1F
100
AcDbEntity
  8
DRAW
  6
CONTINUOUS
 62
     5
100
AcDbLine
 10
64.656754
 20
123.948666
 30
0.0
 11
64.289126
 21
123.885318
 31
0.0
  0
LINE
  5
391
330
1F
100
AcDbEntity
  8
DRAW
  6
CONTINUOUS
 62
     5
100
AcDbLine
 10
64.424975
 20
123.096937
 30
0.0
 11
64.289126
 21
123.885318
 31
0.0
  0
ARC
  5
392
330
1F
100
AcDbEntity
  8
DRAW
  6
CONTINUOUS
 62
     5
100
AcDbCircle
 10
-63.246402
 20
123.299747
 30
0.0
 40
2.3
210
0.0
220
0.0
230
-1.0
100
AcDbArc
 50
340.207726
 51
350.22313
  0
ARC
  5
393
330
1F
100
AcDbEntity
  8
DRAW
  6
CONTINUOUS
 62
     5
100
AcDbCircle
 10
-63.246402
 20
123.299747
 30
0.0
 40
2.3
210
0.0
220
0.0
230
-1.0
100
AcDbArc
 50
170.223145
 51
180.238546
  0
ARC
  5
394
330
1F
100
AcDbEntity
  8
DRAW
  6
CONTINUOUS
 62
     5
100
AcDbCircle
 10
63.246402
 20
123.299747
 30
0.0
 40
2.3
100
AcDbArc
 50
179.761454
 51
189.77687
  0
ARC
  5
395
330
1F
100
AcDbEntity
  8
DRAW
  6
CONTINUOUS
 62
     5
100
AcDbCircle
 10
63.246402
 20
123.299747
 30
0.0
 40
2.3
100
AcDbArc
 50
9.776855
 51
19.792274
  0
ARC
  5
396
330
1F
100
AcDbEntity
  8
DRAW
  6
CONTINUOUS
 62
     5
100
AcDbCircle
 10
63.246402
 20
123.299747
 30
0.0
 40
2.3
100
AcDbArc
 50
19.792274
 51
179.761454
  0
LINE
  5
397
330
1F
100
AcDbEntity
  8
DRAW
  6
CONTINUOUS
 62
     5
100
AcDbLine
 10
65.10961
 20
124.026699
 30
0.0
 11
64.656754
 21
123.948666
 31
0.0
  0
LINE
  5
398
330
1F
100
AcDbEntity
  8
DRAW
  6
CONTINUOUS
 62
     5
100
AcDbLine
 10
61.700324
 20
123.439231
 30
0.0
 11
61.247346
 21
123.361176
 31
0.0
  0
ARC
  5
399
330
1F
100
AcDbEntity
  8
DRAW
  6
CONTINUOUS
 62
     5
100
AcDbCircle
 10
-63.246402
 20
123.299747
 30
0.0
 40
2.3
210
0.0
220
0.0
230
-1.0
100
AcDbArc
 50
180.238546
 51
340.207726
  0
LINE
  5
39A
330
1F
100
AcDbEntity
  8
DRAW
  6
CONTINUOUS
 62
     5
100
AcDbLine
 10
64.792603
 20
123.160284
 30
0.0
 11
65.245459
 21
123.238318
 31
0.0
  0
LINE
  5
39B
330
1F
100
AcDbEntity
  8
DRAW
  6
CONTINUOUS
 62
     5
100
AcDbLine
 10
61.383195
 20
122.572795
 30
0.0
 11
61.836173
 21
122.65085
 31
0.0
  0
LINE
  5
39C
330
1F
100
AcDbEntity
  8
DRAW
  6
CONTINUOUS
 62
     5
100
AcDbLine
 10
65.10961
 20
124.026699
 30
0.0
 11
65.410533
 21
124.078553
 31
0.0
  0
LINE
  5
39D
330
1F
100
AcDbEntity
  8
DRAW
  6
CONTINUOUS
 62
     5
100
AcDbLine
 10
61.247346
 20
123.361176
 30
0.0
 11
60.946422
 21
123.309323
 31
0.0
  0
LINE
  5
39E
330
1F
100
AcDbEntity
  8
DRAW
  6
CONTINUOUS
 62
     5
100
AcDbLine
 10
65.245459
 20
123.238318
 30
0.0
 11
65.546382
 21
123.290171
 31
0.0
  0
LINE
  5
39F
330
1F
100
AcDbEntity
  8
DRAW
  6
CONTINUOUS
 62
     5
100
AcDbLine
 10
61.082272
 20
122.520942
 30
0.0
 11
61.383195
 21
122.572795
 31
0.0
  0
DIMENSION
  5
3A0
330
1F
100
AcDbEntity
  8
DIM
  6
CONTINUOUS
 62
     6
100
AcDbDimension
  2
*D9
 10
67.621403
 20
206.952271
 30
0.0
 11
58.871403
 21
211.169577
 31
0.0
 70
    33
  1
<>
  3
FINDER
100
AcDbAlignedDimension
 13
50.121403
 23
199.59975
 33
0.0
 14
67.621403
 24
199.59975
 34
0.0
1001
ACAD
1000
DSTYLE
1002
{
1070
     5
1000
CLOSED
1070
    41
1040
1.2
1070
   176
1070
     3
1070
   177
1070
     3
1070
    44
1040
1.75
1070
    42
1040
0.3
1002
}
  0
DIMENSION
  5
3AD
330
1F
100
AcDbEntity
  8
DIM
  6
CONTINUOUS
 62
     6
100
AcDbDimension
  2
*D10
 10
42.728416
 20
112.74975
 30
0.0
 11
38.51111
 21
157.17475
 31
0.0
 70
    32
  1
88.8
  3
FINDER
100
AcDbAlignedDimension
 13
50.521402
 23
201.59975
 33
0.0
 14
58.8621
 24
112.74975
 34
0.0
 50
90.0
100
AcDbRotatedDimension
1001
ACAD
1000
DSTYLE
1002
{
1070
     7
1000

1070
     6
1000

1070
     5
1000
CLOSED
1070
   280
1070
     0
1070
    76
1070
     0
1070
    75
1070
     0
1070
    41
1040
1.2
1070
   176
1070
     3
1070
   177
1070
     3
1070
   271
1070
     1
1070
    44
1040
1.75
1070
    42
1040
0.3
1002
}
  0
CIRCLE
  5
3BA
330
1F
100
AcDbEntity
  8
DRAW
  6
CONTINUOUS
 62
     6
100
AcDbCircle
 10
54.496403
 20
123.399746
 30
0.0
 40
2.5
  0
LINE
  5
3BB
330
1F
100
AcDbEntity
  8
DRAW
  6
CONTINUOUS
 62
     5
100
AcDbLine
 10
55.02562
 20
124.049173
 30
0.0
 11
54.881065
 21
124.888079
 31
0.0
  0
LINE
  5
3BC
330
1F
100
AcDbEntity
  8
DRAW
  6
CONTINUOUS
 62
     5
100
AcDbLine
 10
54.881065
 20
124.888079
 30
0.0
 11
53.602447
 21
124.667755
 31
0.0
  0
LINE
  5
3BD
330
1F
100
AcDbEntity
  8
DRAW
  6
CONTINUOUS
 62
     5
100
AcDbLine
 10
53.602447
 20
124.667755
 30
0.0
 11
53.747002
 21
123.828849
 31
0.0
  0
LINE
  5
3BE
330
1F
100
AcDbEntity
  8
DRAW
  6
CONTINUOUS
 62
     5
100
AcDbLine
 10
53.747002
 20
123.828849
 30
0.0
 11
52.908096
 21
123.684294
 31
0.0
  0
LINE
  5
3BF
330
1F
100
AcDbEntity
  8
DRAW
  6
CONTINUOUS
 62
     5
100
AcDbLine
 10
53.12842
 20
122.405676
 30
0.0
 11
53.967326
 21
122.550232
 31
0.0
  0
LINE
  5
3C0
330
1F
100
AcDbEntity
  8
DRAW
  6
CONTINUOUS
 62
     5
100
AcDbLine
 10
53.967326
 20
122.550232
 30
0.0
 11
54.111882
 21
121.711326
 31
0.0
  0
LINE
  5
3C1
330
1F
100
AcDbEntity
  8
DRAW
  6
CONTINUOUS
 62
     5
100
AcDbLine
 10
54.111882
 20
121.711326
 30
0.0
 11
55.390499
 21
121.93165
 31
0.0
  0
LINE
  5
3C2
330
1F
100
AcDbEntity
  8
DRAW
  6
CONTINUOUS
 62
     5
100
AcDbLine
 10
55.390499
 20
121.93165
 30
0.0
 11
55.245944
 21
122.770556
 31
0.0
  0
LINE
  5
3C3
330
1F
100
AcDbEntity
  8
DRAW
  6
CONTINUOUS
 62
     5
100
AcDbLine
 10
55.245944
 20
122.770556
 30
0.0
 11
56.08485
 21
122.915111
 31
0.0
  0
LINE
  5
3C4
330
1F
100
AcDbEntity
  8
DRAW
  6
CONTINUOUS
 62
     5
100
AcDbLine
 10
55.864526
 20
124.193729
 30
0.0
 11
55.02562
 21
124.049173
 31
0.0
  0
LINE
  5
3C5
330
1F
100
AcDbEntity
  8
DRAW
  6
CONTINUOUS
 62
     5
100
AcDbLine
 10
55.02562
 20
124.049173
 30
0.0
 11
54.904306
 21
123.877347
 31
0.0
  0
LINE
  5
3C6
330
1F
100
AcDbEntity
  8
DRAW
  6
CONTINUOUS
 62
     5
100
AcDbLine
 10
55.108572
 20
123.912545
 30
0.0
 11
54.904306
 21
123.877347
 31
0.0
  0
LINE
  5
3C7
330
1F
100
AcDbEntity
  8
DRAW
  6
CONTINUOUS
 62
     5
100
AcDbLine
 10
55.864526
 20
124.193729
 30
0.0
 11
55.108572
 21
123.912545
 31
0.0
  0
LINE
  5
3C8
330
1F
100
AcDbEntity
  8
DRAW
  6
CONTINUOUS
 62
     5
100
AcDbLine
 10
54.881065
 20
124.888079
 30
0.0
 11
54.869108
 21
124.081613
 31
0.0
  0
LINE
  5
3C9
330
1F
100
AcDbEntity
  8
DRAW
  6
CONTINUOUS
 62
     5
100
AcDbLine
 10
54.904306
 20
123.877347
 30
0.0
 11
54.869108
 21
124.081613
 31
0.0
  0
LINE
  5
3CA
330
1F
100
AcDbEntity
  8
DRAW
  6
CONTINUOUS
 62
     5
100
AcDbLine
 10
53.602447
 20
124.667755
 30
0.0
 11
53.883631
 21
123.911802
 31
0.0
  0
LINE
  5
3CB
330
1F
100
AcDbEntity
  8
DRAW
  6
CONTINUOUS
 62
     5
100
AcDbLine
 10
54.869108
 20
124.081613
 30
0.0
 11
53.883631
 21
123.911802
 31
0.0
  0
LINE
  5
3CC
330
1F
100
AcDbEntity
  8
DRAW
  6
CONTINUOUS
 62
     5
100
AcDbLine
 10
53.747002
 20
123.828849
 30
0.0
 11
53.918829
 21
123.707535
 31
0.0
  0
LINE
  5
3CD
330
1F
100
AcDbEntity
  8
DRAW
  6
CONTINUOUS
 62
     5
100
AcDbLine
 10
53.883631
 20
123.911802
 30
0.0
 11
53.918829
 21
123.707535
 31
0.0
  0
LINE
  5
3CE
330
1F
100
AcDbEntity
  8
DRAW
  6
CONTINUOUS
 62
     5
100
AcDbLine
 10
52.908096
 20
123.684294
 30
0.0
 11
53.714562
 21
123.672337
 31
0.0
  0
LINE
  5
3CF
330
1F
100
AcDbEntity
  8
DRAW
  6
CONTINUOUS
 62
     5
100
AcDbLine
 10
53.918829
 20
123.707535
 30
0.0
 11
53.714562
 21
123.672337
 31
0.0
  0
LINE
  5
3D0
330
1F
100
AcDbEntity
  8
DRAW
  6
CONTINUOUS
 62
     5
100
AcDbLine
 10
53.12842
 20
122.405676
 30
0.0
 11
53.884374
 21
122.68686
 31
0.0
  0
LINE
  5
3D1
330
1F
100
AcDbEntity
  8
DRAW
  6
CONTINUOUS
 62
     5
100
AcDbLine
 10
53.714562
 20
123.672337
 30
0.0
 11
53.884374
 21
122.68686
 31
0.0
  0
LINE
  5
3D2
330
1F
100
AcDbEntity
  8
DRAW
  6
CONTINUOUS
 62
     5
100
AcDbLine
 10
53.967326
 20
122.550232
 30
0.0
 11
54.088641
 21
122.722058
 31
0.0
  0
LINE
  5
3D3
330
1F
100
AcDbEntity
  8
DRAW
  6
CONTINUOUS
 62
     5
100
AcDbLine
 10
53.884374
 20
122.68686
 30
0.0
 11
54.088641
 21
122.722058
 31
0.0
  0
LINE
  5
3D4
330
1F
100
AcDbEntity
  8
DRAW
  6
CONTINUOUS
 62
     5
100
AcDbLine
 10
54.111882
 20
121.711326
 30
0.0
 11
54.123839
 21
122.517792
 31
0.0
  0
LINE
  5
3D5
330
1F
100
AcDbEntity
  8
DRAW
  6
CONTINUOUS
 62
     5
100
AcDbLine
 10
54.088641
 20
122.722058
 30
0.0
 11
54.123839
 21
122.517792
 31
0.0
  0
LINE
  5
3D6
330
1F
100
AcDbEntity
  8
DRAW
  6
CONTINUOUS
 62
     5
100
AcDbLine
 10
55.390499
 20
121.93165
 30
0.0
 11
55.109315
 21
122.687603
 31
0.0
  0
LINE
  5
3D7
330
1F
100
AcDbEntity
  8
DRAW
  6
CONTINUOUS
 62
     5
100
AcDbLine
 10
54.123839
 20
122.517792
 30
0.0
 11
55.109315
 21
122.687603
 31
0.0
  0
LINE
  5
3D8
330
1F
100
AcDbEntity
  8
DRAW
  6
CONTINUOUS
 62
     5
100
AcDbLine
 10
55.245944
 20
122.770556
 30
0.0
 11
55.074117
 21
122.89187
 31
0.0
  0
LINE
  5
3D9
330
1F
100
AcDbEntity
  8
DRAW
  6
CONTINUOUS
 62
     5
100
AcDbLine
 10
55.109315
 20
122.687603
 30
0.0
 11
55.074117
 21
122.89187
 31
0.0
  0
LINE
  5
3DA
330
1F
100
AcDbEntity
  8
DRAW
  6
CONTINUOUS
 62
     5
100
AcDbLine
 10
56.08485
 20
122.915111
 30
0.0
 11
55.278384
 21
122.927068
 31
0.0
  0
LINE
  5
3DB
330
1F
100
AcDbEntity
  8
DRAW
  6
CONTINUOUS
 62
     5
100
AcDbLine
 10
55.074117
 20
122.89187
 30
0.0
 11
55.278384
 21
122.927068
 31
0.0
  0
LINE
  5
3DC
330
1F
100
AcDbEntity
  8
DRAW
  6
CONTINUOUS
 62
     5
100
AcDbLine
 10
55.278384
 20
122.927068
 30
0.0
 11
55.108572
 21
123.912545
 31
0.0
  0
LINE
  5
3DD
330
1F
100
AcDbEntity
  8
DRAW
  6
CONTINUOUS
 62
     5
100
AcDbLine
 10
53.086173
 20
122.65085
 30
0.0
 11
53.12842
 21
122.405676
 31
0.0
  0
LINE
  5
3DE
330
1F
100
AcDbEntity
  8
DRAW
  6
CONTINUOUS
 62
     5
100
AcDbLine
 10
52.908096
 20
123.684294
 30
0.0
 11
52.950324
 21
123.439231
 31
0.0
  0
LINE
  5
3DF
330
1F
100
AcDbEntity
  8
DRAW
  6
CONTINUOUS
 62
     5
100
AcDbLine
 10
56.08485
 20
122.915111
 30
0.0
 11
56.042603
 21
123.160284
 31
0.0
  0
LINE
  5
3E0
330
1F
100
AcDbEntity
  8
DRAW
  6
CONTINUOUS
 62
     5
100
AcDbLine
 10
55.906754
 20
123.948666
 30
0.0
 11
55.864526
 21
124.193729
 31
0.0
  0
LINE
  5
3E1
330
1F
100
AcDbEntity
  8
DRAW
  6
CONTINUOUS
 62
     5
100
AcDbLine
 10
53.086173
 20
122.65085
 30
0.0
 11
53.453802
 21
122.714197
 31
0.0
  0
LINE
  5
3E2
330
1F
100
AcDbEntity
  8
DRAW
  6
CONTINUOUS
 62
     5
100
AcDbLine
 10
52.950324
 20
123.439231
 30
0.0
 11
53.317952
 21
123.502578
 31
0.0
  0
LINE
  5
3E3
330
1F
100
AcDbEntity
  8
DRAW
  6
CONTINUOUS
 62
     5
100
AcDbLine
 10
53.453802
 20
122.714197
 30
0.0
 11
53.317952
 21
123.502578
 31
0.0
  0
LINE
  5
3E4
330
1F
100
AcDbEntity
  8
DRAW
  6
CONTINUOUS
 62
     5
100
AcDbLine
 10
56.042603
 20
123.160284
 30
0.0
 11
55.674975
 21
123.096937
 31
0.0
  0
LINE
  5
3E5
330
1F
100
AcDbEntity
  8
DRAW
  6
CONTINUOUS
 62
     5
100
AcDbLine
 10
55.906754
 20
123.948666
 30
0.0
 11
55.539126
 21
123.885318
 31
0.0
  0
LINE
  5
3E6
330
1F
100
AcDbEntity
  8
DRAW
  6
CONTINUOUS
 62
     5
100
AcDbLine
 10
55.674975
 20
123.096937
 30
0.0
 11
55.539126
 21
123.885318
 31
0.0
  0
ARC
  5
3E7
330
1F
100
AcDbEntity
  8
DRAW
  6
CONTINUOUS
 62
     5
100
AcDbCircle
 10
-54.496402
 20
123.299747
 30
0.0
 40
2.3
210
0.0
220
0.0
230
-1.0
100
AcDbArc
 50
340.207726
 51
350.22313
  0
ARC
  5
3E8
330
1F
100
AcDbEntity
  8
DRAW
  6
CONTINUOUS
 62
     5
100
AcDbCircle
 10
-54.496402
 20
123.299747
 30
0.0
 40
2.3
210
0.0
220
0.0
230
-1.0
100
AcDbArc
 50
170.223145
 51
180.238546
  0
ARC
  5
3E9
330
1F
100
AcDbEntity
  8
DRAW
  6
CONTINUOUS
 62
     5
100
AcDbCircle
 10
54.496402
 20
123.299747
 30
0.0
 40
2.3
100
AcDbArc
 50
179.761454
 51
189.77687
  0
ARC
  5
3EA
330
1F
100
AcDbEntity
  8
DRAW
  6
CONTINUOUS
 62
     5
100
AcDbCircle
 10
54.496402
 20
123.299747
 30
0.0
 40
2.3
100
AcDbArc
 50
9.776855
 51
19.792274
  0
ARC
  5
3EB
330
1F
100
AcDbEntity
  8
DRAW
  6
CONTINUOUS
 62
     5
100
AcDbCircle
 10
54.496402
 20
123.299747
 30
0.0
 40
2.3
100
AcDbArc
 50
19.792274
 51
179.761454
  0
LINE
  5
3EC
330
1F
100
AcDbEntity
  8
DRAW
  6
CONTINUOUS
 62
     5
100
AcDbLine
 10
56.35961
 20
124.026699
 30
0.0
 11
55.906754
 21
123.948666
 31
0.0
  0
LINE
  5
3ED
330
1F
100
AcDbEntity
  8
DRAW
  6
CONTINUOUS
 62
     5
100
AcDbLine
 10
52.950324
 20
123.439231
 30
0.0
 11
52.497346
 21
123.361176
 31
0.0
  0
ARC
  5
3EE
330
1F
100
AcDbEntity
  8
DRAW
  6
CONTINUOUS
 62
     5
100
AcDbCircle
 10
-54.496402
 20
123.299747
 30
0.0
 40
2.3
210
0.0
220
0.0
230
-1.0
100
AcDbArc
 50
180.238546
 51
340.207726
  0
LINE
  5
3EF
330
1F
100
AcDbEntity
  8
DRAW
  6
CONTINUOUS
 62
     5
100
AcDbLine
 10
56.042603
 20
123.160284
 30
0.0
 11
56.495459
 21
123.238318
 31
0.0
  0
LINE
  5
3F0
330
1F
100
AcDbEntity
  8
DRAW
  6
CONTINUOUS
 62
     5
100
AcDbLine
 10
52.633195
 20
122.572795
 30
0.0
 11
53.086173
 21
122.65085
 31
0.0
  0
LINE
  5
3F1
330
1F
100
AcDbEntity
  8
DRAW
  6
CONTINUOUS
 62
     5
100
AcDbLine
 10
56.35961
 20
124.026699
 30
0.0
 11
56.660533
 21
124.078553
 31
0.0
  0
LINE
  5
3F2
330
1F
100
AcDbEntity
  8
DRAW
  6
CONTINUOUS
 62
     5
100
AcDbLine
 10
52.497346
 20
123.361176
 30
0.0
 11
52.196422
 21
123.309323
 31
0.0
  0
LINE
  5
3F3
330
1F
100
AcDbEntity
  8
DRAW
  6
CONTINUOUS
 62
     5
100
AcDbLine
 10
56.495459
 20
123.238318
 30
0.0
 11
56.796382
 21
123.290171
 31
0.0
  0
LINE
  5
3F4
330
1F
100
AcDbEntity
  8
DRAW
  6
CONTINUOUS
 62
     5
100
AcDbLine
 10
52.332272
 20
122.520942
 30
0.0
 11
52.633195
 21
122.572795
 31
0.0
  0
LINE
  5
3F5
330
1F
100
AcDbEntity
  8
DRAW
  6
CONTINUOUS
 62
     6
100
AcDbLine
 10
53.32137
 20
170.049751
 30
0.0
 11
53.32137
 21
168.049751
 31
0.0
  0
LINE
  5
3F6
330
1F
100
AcDbEntity
  8
DRAW
  6
CONTINUOUS
 62
     6
100
AcDbLine
 10
53.32137
 20
168.049751
 30
0.0
 11
55.32137
 21
168.049751
 31
0.0
  0
LINE
  5
3F7
330
1F
100
AcDbEntity
  8
DRAW
  6
CONTINUOUS
 62
     6
100
AcDbLine
 10
55.32137
 20
168.049751
 30
0.0
 11
55.32137
 21
170.049751
 31
0.0
  0
LINE
  5
3F8
330
1F
100
AcDbEntity
  8
DRAW
  6
CONTINUOUS
 62
     6
100
AcDbLine
 10
55.32137
 20
170.049751
 30
0.0
 11
53.32137
 21
170.049751
 31
0.0
  0
LINE
  5
3F9
330
1F
100
AcDbEntity
  8
DRAW
  6
CONTINUOUS
 62
     5
100
AcDbLine
 10
59.871389
 20
154.699769
 30
0.0
 11
59.871389
 21
155.499769
 31
0.0
  0
LINE
  5
3FA
330
1F
100
AcDbEntity
  8
DRAW
  6
CONTINUOUS
 62
     5
100
AcDbLine
 10
56.871389
 20
155.499769
 30
0.0
 11
56.871389
 21
154.699769
 31
0.0
  0
ARC
  5
3FB
330
1F
100
AcDbEntity
  8
DRAW
  6
CONTINUOUS
 62
     5
100
AcDbCircle
 10
-54.489646
 20
157.762623
 30
0.0
 40
3.0
210
0.0
220
0.0
230
-1.0
100
AcDbArc
 50
188.511659
 51
240.388145
  0
ARC
  5
3FC
330
1F
100
AcDbEntity
  8
DRAW
  6
CONTINUOUS
 62
     5
100
AcDbCircle
 10
58.371389
 20
155.099769
 30
0.0
 40
2.399999999999999
100
AcDbArc
 50
178.694613
 51
260.405932
  0
ARC
  5
3FD
330
1F
100
AcDbEntity
  8
DRAW
  6
CONTINUOUS
 62
     5
100
AcDbCircle
 10
58.371389
 20
155.099769
 30
0.0
 40
2.399999999999999
100
AcDbArc
 50
99.594068
 51
112.405583
  0
ARC
  5
3FE
330
1F
100
AcDbEntity
  8
DRAW
  6
CONTINUOUS
 62
     5
100
AcDbCircle
 10
62.253131
 20
157.762623
 30
0.0
 40
3.0
100
AcDbArc
 50
188.511659
 51
240.388145
  0
ARC
  5
3FF
330
1F
100
AcDbEntity
  8
DRAW
  6
CONTINUOUS
 62
     5
100
AcDbCircle
 10
58.371389
 20
155.099769
 30
0.0
 40
2.399999999999999
100
AcDbArc
 50
67.594417
 51
80.405932
  0
ARC
  5
400
330
1F
100
AcDbEntity
  8
DRAW
  6
CONTINUOUS
 62
     5
100
AcDbCircle
 10
58.371389
 20
155.099769
 30
0.0
 40
2.399999999999999
100
AcDbArc
 50
279.594068
 51
1.305387
  0
LINE
  5
401
330
1F
100
AcDbEntity
  8
DRAW
  6
CONTINUOUS
 62
     5
100
AcDbLine
 10
57.971389
 20
152.733337
 30
0.0
 11
57.971389
 21
152.65224
 31
0.0
  0
LINE
  5
402
330
1F
100
AcDbEntity
  8
DRAW
  6
CONTINUOUS
 62
     5
100
AcDbLine
 10
57.971389
 20
157.547299
 30
0.0
 11
57.971389
 21
157.466201
 31
0.0
  0
LINE
  5
403
330
1F
100
AcDbEntity
  8
DRAW
  6
CONTINUOUS
 62
     5
100
AcDbLine
 10
58.771389
 20
157.466201
 30
0.0
 11
58.771389
 21
157.547299
 31
0.0
  0
LINE
  5
404
330
1F
100
AcDbEntity
  8
DRAW
  6
CONTINUOUS
 62
     5
100
AcDbLine
 10
58.771389
 20
152.65224
 30
0.0
 11
58.771389
 21
152.733337
 31
0.0
  0
ARC
  5
405
330
1F
100
AcDbEntity
  8
DRAW
  6
CONTINUOUS
 62
     5
100
AcDbCircle
 10
58.371389
 20
155.099769
 30
0.0
 40
2.48
100
AcDbArc
 50
260.718201
 51
279.281799
  0
ARC
  5
406
330
1F
100
AcDbEntity
  8
DRAW
  6
CONTINUOUS
 62
     5
100
AcDbCircle
 10
58.371389
 20
155.099769
 30
0.0
 40
2.48
100
AcDbArc
 50
80.793104
 51
99.281799
  0
ARC
  5
407
330
1F
100
AcDbEntity
  8
DRAW
  6
CONTINUOUS
 62
     5
100
AcDbCircle
 10
58.371389
 20
155.099769
 30
0.0
 40
2.48
100
AcDbArc
 50
80.718201
 51
80.793104
  0
LINE
  5
408
330
1F
100
AcDbEntity
  8
DRAW
  6
CONTINUOUS
 62
     5
100
AcDbLine
 10
59.273963
 20
157.409696
 30
0.0
 11
59.286174
 21
157.318591
 31
0.0
  0
LINE
  5
409
330
1F
100
AcDbEntity
  8
DRAW
  6
CONTINUOUS
 62
     5
100
AcDbLine
 10
60.770766
 20
155.154445
 30
0.0
 11
60.851366
 21
155.110255
 31
0.0
  0
ARC
  5
40A
330
1F
100
AcDbEntity
  8
DRAW
  6
CONTINUOUS
 62
     5
100
AcDbCircle
 10
58.371389
 20
155.099769
 30
0.0
 40
2.48
100
AcDbArc
 50
0.242245
 51
68.657559
  0
LINE
  5
40B
330
1F
100
AcDbEntity
  8
DRAW
  6
CONTINUOUS
 62
     5
100
AcDbLine
 10
57.468814
 20
157.409696
 30
0.0
 11
57.456604
 21
157.318591
 31
0.0
  0
LINE
  5
40C
330
1F
100
AcDbEntity
  8
DRAW
  6
CONTINUOUS
 62
     5
100
AcDbLine
 10
55.972011
 20
155.154445
 30
0.0
 11
55.891411
 21
155.110255
 31
0.0
  0
ARC
  5
40D
330
1F
100
AcDbEntity
  8
DRAW
  6
CONTINUOUS
 62
     5
100
AcDbCircle
 10
58.371389
 20
155.099769
 30
0.0
 40
2.48
100
AcDbArc
 50
111.342441
 51
179.757755
  0
LINE
  5
40E
330
1F
100
AcDbEntity
  8
DRAW
  6
CONTINUOUS
 62
     5
100
AcDbLine
 10
57.417344
 20
155.547534
 30
0.0
 11
57.417344
 21
154.652004
 31
0.0
  0
LINE
  5
40F
330
1F
100
AcDbEntity
  8
DRAW
  6
CONTINUOUS
 62
     5
100
AcDbLine
 10
59.325433
 20
154.652004
 30
0.0
 11
59.325433
 21
155.547534
 31
0.0
  0
LINE
  5
410
330
1F
100
AcDbEntity
  8
DRAW
  6
CONTINUOUS
 62
     5
100
AcDbLine
 10
57.971389
 20
157.466201
 30
0.0
 11
57.971389
 21
156.599769
 31
0.0
  0
LINE
  5
411
330
1F
100
AcDbEntity
  8
DRAW
  6
CONTINUOUS
 62
     5
100
AcDbLine
 10
57.971389
 20
153.599769
 30
0.0
 11
57.971389
 21
152.733337
 31
0.0
  0
LINE
  5
412
330
1F
100
AcDbEntity
  8
DRAW
  6
CONTINUOUS
 62
     5
100
AcDbLine
 10
58.771389
 20
152.733337
 30
0.0
 11
58.771389
 21
153.599769
 31
0.0
  0
LINE
  5
413
330
1F
100
AcDbEntity
  8
DRAW
  6
CONTINUOUS
 62
     5
100
AcDbLine
 10
58.771389
 20
156.599769
 30
0.0
 11
58.771389
 21
157.466201
 31
0.0
  0
LINE
  5
414
330
1F
100
AcDbEntity
  8
DRAW
  6
CONTINUOUS
 62
     5
100
AcDbLine
 10
57.882893
 20
155.588265
 30
0.0
 11
56.871389
 21
155.499769
 31
0.0
  0
LINE
  5
415
330
1F
100
AcDbEntity
  8
DRAW
  6
CONTINUOUS
 62
     5
100
AcDbLine
 10
57.971389
 20
156.599769
 30
0.0
 11
57.882893
 21
155.588265
 31
0.0
  0
LINE
  5
416
330
1F
100
AcDbEntity
  8
DRAW
  6
CONTINUOUS
 62
     5
100
AcDbLine
 10
56.871389
 20
154.699769
 30
0.0
 11
57.882893
 21
154.611274
 31
0.0
  0
LINE
  5
417
330
1F
100
AcDbEntity
  8
DRAW
  6
CONTINUOUS
 62
     5
100
AcDbLine
 10
57.882893
 20
154.611274
 30
0.0
 11
57.971389
 21
153.599769
 31
0.0
  0
LINE
  5
418
330
1F
100
AcDbEntity
  8
DRAW
  6
CONTINUOUS
 62
     5
100
AcDbLine
 10
58.859884
 20
154.611274
 30
0.0
 11
59.871389
 21
154.699769
 31
0.0
  0
LINE
  5
419
330
1F
100
AcDbEntity
  8
DRAW
  6
CONTINUOUS
 62
     5
100
AcDbLine
 10
58.771389
 20
153.599769
 30
0.0
 11
58.859884
 21
154.611274
 31
0.0
  0
LINE
  5
41A
330
1F
100
AcDbEntity
  8
DRAW
  6
CONTINUOUS
 62
     5
100
AcDbLine
 10
59.871389
 20
155.499769
 30
0.0
 11
58.859884
 21
155.588265
 31
0.0
  0
LINE
  5
41B
330
1F
100
AcDbEntity
  8
DRAW
  6
CONTINUOUS
 62
     5
100
AcDbLine
 10
58.859884
 20
155.588265
 30
0.0
 11
58.771389
 21
156.599769
 31
0.0
  0
LINE
  5
41C
330
1F
100
AcDbEntity
  8
DRAW
  6
CONTINUOUS
 62
     5
100
AcDbLine
 10
57.945914
 20
156.308593
 30
0.0
 11
58.796863
 21
156.308593
 31
0.0
  0
LINE
  5
41D
330
1F
100
AcDbEntity
  8
DRAW
  6
CONTINUOUS
 62
     5
100
AcDbLine
 10
58.819154
 20
156.053814
 30
0.0
 11
57.923624
 21
156.053814
 31
0.0
  0
LINE
  5
41E
330
1F
100
AcDbEntity
  8
DRAW
  6
CONTINUOUS
 62
     5
100
AcDbLine
 10
57.945914
 20
153.890946
 30
0.0
 11
58.796863
 21
153.890946
 31
0.0
  0
LINE
  5
41F
330
1F
100
AcDbEntity
  8
DRAW
  6
CONTINUOUS
 62
     5
100
AcDbLine
 10
57.923624
 20
154.145725
 30
0.0
 11
58.819154
 21
154.145725
 31
0.0
  0
CIRCLE
  5
420
330
1F
100
AcDbEntity
  8
DRAW
  6
CONTINUOUS
 62
     6
100
AcDbCircle
 10
58.371389
 20
155.099769
 30
0.0
 40
2.5
  0
LINE
  5
421
330
1F
100
AcDbEntity
  8
DRAW
  6
CONTINUOUS
 62
     5
100
AcDbLine
 10
59.871389
 20
145.399782
 30
0.0
 11
59.871389
 21
146.199782
 31
0.0
  0
LINE
  5
422
330
1F
100
AcDbEntity
  8
DRAW
  6
CONTINUOUS
 62
     5
100
AcDbLine
 10
56.871389
 20
146.199782
 30
0.0
 11
56.871389
 21
145.399782
 31
0.0
  0
ARC
  5
423
330
1F
100
AcDbEntity
  8
DRAW
  6
CONTINUOUS
 62
     5
100
AcDbCircle
 10
-54.489646
 20
148.462635
 30
0.0
 40
3.0
210
0.0
220
0.0
230
-1.0
100
AcDbArc
 50
188.511659
 51
240.388145
  0
ARC
  5
424
330
1F
100
AcDbEntity
  8
DRAW
  6
CONTINUOUS
 62
     5
100
AcDbCircle
 10
58.371389
 20
145.799782
 30
0.0
 40
2.399999999999999
100
AcDbArc
 50
178.694613
 51
260.405932
  0
ARC
  5
425
330
1F
100
AcDbEntity
  8
DRAW
  6
CONTINUOUS
 62
     5
100
AcDbCircle
 10
58.371389
 20
145.799782
 30
0.0
 40
2.399999999999999
100
AcDbArc
 50
99.594068
 51
112.405583
  0
ARC
  5
426
330
1F
100
AcDbEntity
  8
DRAW
  6
CONTINUOUS
 62
     5
100
AcDbCircle
 10
62.253131
 20
148.462635
 30
0.0
 40
3.0
100
AcDbArc
 50
188.511659
 51
240.388145
  0
ARC
  5
427
330
1F
100
AcDbEntity
  8
DRAW
  6
CONTINUOUS
 62
     5
100
AcDbCircle
 10
58.371389
 20
145.799782
 30
0.0
 40
2.399999999999999
100
AcDbArc
 50
67.594417
 51
80.405932
  0
ARC
  5
428
330
1F
100
AcDbEntity
  8
DRAW
  6
CONTINUOUS
 62
     5
100
AcDbCircle
 10
58.371389
 20
145.799782
 30
0.0
 40
2.399999999999999
100
AcDbArc
 50
279.594068
 51
1.305387
  0
LINE
  5
429
330
1F
100
AcDbEntity
  8
DRAW
  6
CONTINUOUS
 62
     5
100
AcDbLine
 10
57.971389
 20
143.43335
 30
0.0
 11
57.971389
 21
143.352252
 31
0.0
  0
LINE
  5
42A
330
1F
100
AcDbEntity
  8
DRAW
  6
CONTINUOUS
 62
     5
100
AcDbLine
 10
57.971389
 20
148.247311
 30
0.0
 11
57.971389
 21
148.166213
 31
0.0
  0
LINE
  5
42B
330
1F
100
AcDbEntity
  8
DRAW
  6
CONTINUOUS
 62
     5
100
AcDbLine
 10
58.771389
 20
148.166213
 30
0.0
 11
58.771389
 21
148.247311
 31
0.0
  0
LINE
  5
42C
330
1F
100
AcDbEntity
  8
DRAW
  6
CONTINUOUS
 62
     5
100
AcDbLine
 10
58.771389
 20
143.352252
 30
0.0
 11
58.771389
 21
143.43335
 31
0.0
  0
ARC
  5
42D
330
1F
100
AcDbEntity
  8
DRAW
  6
CONTINUOUS
 62
     5
100
AcDbCircle
 10
58.371389
 20
145.799782
 30
0.0
 40
2.48
100
AcDbArc
 50
260.718201
 51
279.281799
  0
ARC
  5
42E
330
1F
100
AcDbEntity
  8
DRAW
  6
CONTINUOUS
 62
     5
100
AcDbCircle
 10
58.371389
 20
145.799782
 30
0.0
 40
2.48
100
AcDbArc
 50
80.793104
 51
99.281799
  0
ARC
  5
42F
330
1F
100
AcDbEntity
  8
DRAW
  6
CONTINUOUS
 62
     5
100
AcDbCircle
 10
58.371389
 20
145.799782
 30
0.0
 40
2.48
100
AcDbArc
 50
80.718201
 51
80.793104
  0
LINE
  5
430
330
1F
100
AcDbEntity
  8
DRAW
  6
CONTINUOUS
 62
     5
100
AcDbLine
 10
59.273963
 20
148.109708
 30
0.0
 11
59.286174
 21
148.018603
 31
0.0
  0
LINE
  5
431
330
1F
100
AcDbEntity
  8
DRAW
  6
CONTINUOUS
 62
     5
100
AcDbLine
 10
60.770766
 20
145.854457
 30
0.0
 11
60.851366
 21
145.810267
 31
0.0
  0
ARC
  5
432
330
1F
100
AcDbEntity
  8
DRAW
  6
CONTINUOUS
 62
     5
100
AcDbCircle
 10
58.371389
 20
145.799782
 30
0.0
 40
2.48
100
AcDbArc
 50
0.242245
 51
68.657559
  0
LINE
  5
433
330
1F
100
AcDbEntity
  8
DRAW
  6
CONTINUOUS
 62
     5
100
AcDbLine
 10
57.468814
 20
148.109708
 30
0.0
 11
57.456604
 21
148.018603
 31
0.0
  0
LINE
  5
434
330
1F
100
AcDbEntity
  8
DRAW
  6
CONTINUOUS
 62
     5
100
AcDbLine
 10
55.972011
 20
145.854457
 30
0.0
 11
55.891411
 21
145.810267
 31
0.0
  0
ARC
  5
435
330
1F
100
AcDbEntity
  8
DRAW
  6
CONTINUOUS
 62
     5
100
AcDbCircle
 10
58.371389
 20
145.799782
 30
0.0
 40
2.48
100
AcDbArc
 50
111.342441
 51
179.757755
  0
LINE
  5
436
330
1F
100
AcDbEntity
  8
DRAW
  6
CONTINUOUS
 62
     5
100
AcDbLine
 10
57.417344
 20
146.247546
 30
0.0
 11
57.417344
 21
145.352017
 31
0.0
  0
LINE
  5
437
330
1F
100
AcDbEntity
  8
DRAW
  6
CONTINUOUS
 62
     5
100
AcDbLine
 10
59.325433
 20
145.352017
 30
0.0
 11
59.325433
 21
146.247546
 31
0.0
  0
LINE
  5
438
330
1F
100
AcDbEntity
  8
DRAW
  6
CONTINUOUS
 62
     5
100
AcDbLine
 10
57.971389
 20
148.166213
 30
0.0
 11
57.971389
 21
147.299782
 31
0.0
  0
LINE
  5
439
330
1F
100
AcDbEntity
  8
DRAW
  6
CONTINUOUS
 62
     5
100
AcDbLine
 10
57.971389
 20
144.299782
 30
0.0
 11
57.971389
 21
143.43335
 31
0.0
  0
LINE
  5
43A
330
1F
100
AcDbEntity
  8
DRAW
  6
CONTINUOUS
 62
     5
100
AcDbLine
 10
58.771389
 20
143.43335
 30
0.0
 11
58.771389
 21
144.299782
 31
0.0
  0
LINE
  5
43B
330
1F
100
AcDbEntity
  8
DRAW
  6
CONTINUOUS
 62
     5
100
AcDbLine
 10
58.771389
 20
147.299782
 30
0.0
 11
58.771389
 21
148.166213
 31
0.0
  0
LINE
  5
43C
330
1F
100
AcDbEntity
  8
DRAW
  6
CONTINUOUS
 62
     5
100
AcDbLine
 10
57.882893
 20
146.288277
 30
0.0
 11
56.871389
 21
146.199782
 31
0.0
  0
LINE
  5
43D
330
1F
100
AcDbEntity
  8
DRAW
  6
CONTINUOUS
 62
     5
100
AcDbLine
 10
57.971389
 20
147.299782
 30
0.0
 11
57.882893
 21
146.288277
 31
0.0
  0
LINE
  5
43E
330
1F
100
AcDbEntity
  8
DRAW
  6
CONTINUOUS
 62
     5
100
AcDbLine
 10
56.871389
 20
145.399782
 30
0.0
 11
57.882893
 21
145.311286
 31
0.0
  0
LINE
  5
43F
330
1F
100
AcDbEntity
  8
DRAW
  6
CONTINUOUS
 62
     5
100
AcDbLine
 10
57.882893
 20
145.311286
 30
0.0
 11
57.971389
 21
144.299782
 31
0.0
  0
LINE
  5
440
330
1F
100
AcDbEntity
  8
DRAW
  6
CONTINUOUS
 62
     5
100
AcDbLine
 10
58.859884
 20
145.311286
 30
0.0
 11
59.871389
 21
145.399782
 31
0.0
  0
LINE
  5
441
330
1F
100
AcDbEntity
  8
DRAW
  6
CONTINUOUS
 62
     5
100
AcDbLine
 10
58.771389
 20
144.299782
 30
0.0
 11
58.859884
 21
145.311286
 31
0.0
  0
LINE
  5
442
330
1F
100
AcDbEntity
  8
DRAW
  6
CONTINUOUS
 62
     5
100
AcDbLine
 10
59.871389
 20
146.199782
 30
0.0
 11
58.859884
 21
146.288277
 31
0.0
  0
LINE
  5
443
330
1F
100
AcDbEntity
  8
DRAW
  6
CONTINUOUS
 62
     5
100
AcDbLine
 10
58.859884
 20
146.288277
 30
0.0
 11
58.771389
 21
147.299782
 31
0.0
  0
LINE
  5
444
330
1F
100
AcDbEntity
  8
DRAW
  6
CONTINUOUS
 62
     5
100
AcDbLine
 10
57.945914
 20
147.008605
 30
0.0
 11
58.796863
 21
147.008605
 31
0.0
  0
LINE
  5
445
330
1F
100
AcDbEntity
  8
DRAW
  6
CONTINUOUS
 62
     5
100
AcDbLine
 10
58.819154
 20
146.753826
 30
0.0
 11
57.923624
 21
146.753826
 31
0.0
  0
LINE
  5
446
330
1F
100
AcDbEntity
  8
DRAW
  6
CONTINUOUS
 62
     5
100
AcDbLine
 10
57.945914
 20
144.590958
 30
0.0
 11
58.796863
 21
144.590958
 31
0.0
  0
LINE
  5
447
330
1F
100
AcDbEntity
  8
DRAW
  6
CONTINUOUS
 62
     5
100
AcDbLine
 10
57.923624
 20
144.845737
 30
0.0
 11
58.819154
 21
144.845737
 31
0.0
  0
CIRCLE
  5
448
330
1F
100
AcDbEntity
  8
DRAW
  6
CONTINUOUS
 62
     6
100
AcDbCircle
 10
58.371389
 20
145.799782
 30
0.0
 40
2.5
  0
ENDSEC
  0
SECTION
  2
OBJECTS
  0
DICTIONARY
  5
C
330
0
100
AcDbDictionary
  3
ACAD_GROUP
350
D
  3
ACAD_LAYOUT
350
1A
  3
ACAD_MLINESTYLE
350
17
  3
ACAD_PLOTSETTINGS
350
19
  3
ACAD_TABLESTYLE
350
469
  3
ACAD_VISUALSTYLE
350
2A
  3
ACDBHEADERROUNDTRIPXREC
350
449
  3
ACDBVARIABLEDICTIONARY
350
46A
  0
DICTIONARY
  5
D
102
{ACAD_REACTORS
330
C
102
}
330
C
100
AcDbDictionary
  0
DICTIONARY
  5
1A
102
{ACAD_REACTORS
330
C
102
}
330
C
100
AcDbDictionary
  0
DICTIONARY
  5
17
102
{ACAD_REACTORS
330
C
102
}
330
C
100
AcDbDictionary
  3
STANDARD
350
18
  0
DICTIONARY
  5
19
102
{ACAD_REACTORS
330
C
102
}
330
C
100
AcDbDictionary
  0
DICTIONARY
  5
469
102
{ACAD_REACTORS
330
C
102
}
330
C
100
AcDbDictionary
  0
DICTIONARY
  5
2A
102
{ACAD_REACTORS
330
C
102
}
330
C
100
AcDbDictionary
  3
2DWIREFRAME
350
2F
  3
3D_HIDDEN
350
31
  3
3DWIREFRAME
350
30
  3
BASIC
350
32
  3
BRIGHTEN
350
36
  3
COLORCHANGE
350
3A
  3
CONCEPTUAL
350
34
  3
DIM
350
35
  3
FACEPATTERN
350
39
  3
FLAT
350
2B
  3
FLATWITHEDGES
350
2C
  3
GOURAUD
350
2D
  3
GOURAUDWITHEDGES
350
2E
  3
LINEPATTERN
350
38
  3
REALISTIC
350
33
  3
THICKEN
350
37
  0
DICTIONARY
  5
449
102
{ACAD_REACTORS
330
C
102
}
330
C
100
AcDbDictionary
  3
CEPSNTYPE
350
452
  3
DIMSTYLEDATA
350
468
  3
FINGERPRINTGUID
350
453
  3
HYPERLINKBASE
350
44C
  3
INSUNITS
350
451
  3
LAYOUTDICT
350
44E
  3
LWETCUNION
350
450
  3
PLOTSETDICT
350
44F
  3
PSVPSCALE
350
455
  3
PUCSBASE
350
458
  3
PUCSORGBACK
350
45E
  3
PUCSORGBOTTOM
350
45A
  3
PUCSORGFRONT
350
45D
  3
PUCSORGLEFT
350
45B
  3
PUCSORGRIGHT
350
45C
  3
PUCSORGTOP
350
459
  3
PUCSORTHOREF
350
456
  3
PUCSORTHOVIEW
350
457
  3
STYLESHEET
350
44D
  3
TSTACKALIGN
350
44A
  3
TSTACKSIZE
350
44B
  3
UCSBASE
350
461
  3
UCSORGBACK
350
467
  3
UCSORGBOTTOM
350
463
  3
UCSORGFRONT
350
466
  3
UCSORGLEFT
350
464
  3
UCSORGRIGHT
350
465
  3
UCSORGTOP
350
462
  3
UCSORTHOREF
350
45F
  3
UCSORTHOVIEW
350
460
  3
VERSIONGUID
350
454
  0
DICTIONARY
  5
46A
102
{ACAD_REACTORS
330
C
102
}
330
C
100
AcDbDictionary
  3
PSOLHEIGHT
350
46C
  3
PSOLWIDTH
350
46B
  0
MLINESTYLE
  5
18
102
{ACAD_REACTORS
330
17
102
}
330
17
100
AcDbMlineStyle
  2
Standard
 70
     0
  3

 62
   256
 51
90.0
 52
90.0
 71
     2
 49
0.5
 62
   256
  6
BYLAYER
 49
-0.5
 62
   256
  6
BYLAYER
  0
VISUALSTYLE
  5
2F
102
{ACAD_REACTORS
330
2A
102
}
330
2A
100
AcDbVisualStyle
  2
2dWireframe
 70
     4
 71
     0
 72
     2
 73
     0
 90
        0
 40
-0.6
 41
-30.0
 62
     5
 63
     7
 74
     1
 91
        4
 64
     7
 65
   257
 75
     1
175
     1
 42
1.0
 92
        0
 66
   257
 43
1.0
 76
     1
 77
     6
 78
     2
 67
     7
 79
     5
170
     0
171
     0
290
     0
174
     0
 93
        1
 44
0.0
173
     0
291
     0
 45
0.0
1001
ACAD
1000
AcDbSavedByObjectVersion
1070
     0
  0
VISUALSTYLE
  5
31
102
{ACAD_REACTORS
330
2A
102
}
330
2A
100
AcDbVisualStyle
  2
3D Hidden
 70
     6
 71
     1
 72
     2
 73
     2
 90
        0
 40
-0.6
 41
-30.0
 62
     5
 63
     7
 74
     2
 91
        2
 64
     7
 65
   257
 75
     2
175
     1
 42
40.0
 92
        0
 66
   257
 43
1.0
 76
     1
 77
     6
 78
     2
 67
     7
 79
     3
170
     0
171
     0
290
     0
174
     0
 93
        1
 44
0.0
173
     0
291
     0
 45
0.0
1001
ACAD
1000
AcDbSavedByObjectVersion
1070
     0
  0
VISUALSTYLE
  5
30
102
{ACAD_REACTORS
330
2A
102
}
330
2A
100
AcDbVisualStyle
  2
3dWireframe
 70
     5
 71
     0
 72
     2
 73
     0
 90
        0
 40
-0.6
 41
-30.0
 62
     5
 63
     7
 74
     1
 91
        4
 64
     7
 65
   257
 75
     1
175
     1
 42
1.0
 92
        0
 66
   257
 43
1.0
 76
     1
 77
     6
 78
     2
 67
     7
 79
     5
170
     0
171
     0
290
     0
174
     0
 93
        1
 44
0.0
173
     0
291
     0
 45
0.0
1001
ACAD
1000
AcDbSavedByObjectVersion
1070
     0
  0
VISUALSTYLE
  5
32
102
{ACAD_REACTORS
330
2A
102
}
330
2A
100
AcDbVisualStyle
  2
Basic
 70
     7
 71
     1
 72
     0
 73
     1
 90
        0
 40
-0.6
 41
-30.0
 62
     5
 63
     7
 74
     0
 91
        4
 64
     7
 65
   257
 75
     1
175
     1
 42
1.0
 92
        8
 66
     7
 43
1.0
 76
     1
 77
     6
 78
     2
 67
     7
 79
     5
170
     0
171
     0
290
     0
174
     0
 93
        1
 44
0.0
173
     0
291
     1
 45
0.0
1001
ACAD
1000
AcDbSavedByObjectVersion
1070
     0
  0
VISUALSTYLE
  5
36
102
{ACAD_REACTORS
330
2A
102
}
330
2A
100
AcDbVisualStyle
  2
Brighten
 70
    12
 71
     2
 72
     2
 73
     0
 90
        0
 40
-0.6
 41
-30.0
 62
     5
 63
     7
 74
     1
 91
        4
 64
     7
 65
   257
 75
     1
175
     1
 42
1.0
 92
        8
 66
     7
 43
1.0
 76
     1
 77
     6
 78
     2
 67
     7
 79
     5
170
     0
171
     0
290
     0
174
     0
 93
        1
 44
50.0
173
     0
291
     1
 45
0.0
1001
ACAD
1000
AcDbSavedByObjectVersion
1070
     0
  0
VISUALSTYLE
  5
3A
102
{ACAD_REACTORS
330
2A
102
}
330
2A
100
AcDbVisualStyle
  2
ColorChange
 70
    16
 71
     2
 72
     2
 73
     3
 90
        0
 40
-0.6
 41
-30.0
 62
     5
 63
     8
 74
     1
 91
        4
 64
     7
 65
   257
 75
     1
175
     1
 42
1.0
 92
        8
 66
     8
 43
1.0
 76
     1
 77
     6
 78
     2
 67
     7
 79
     5
170
     0
171
     0
290
     0
174
     0
 93
        1
 44
0.0
173
     0
291
     1
 45
0.0
1001
ACAD
1000
AcDbSavedByObjectVersion
1070
     0
  0
VISUALSTYLE
  5
34
102
{ACAD_REACTORS
330
2A
102
}
330
2A
100
AcDbVisualStyle
  2
Conceptual
 70
     9
 71
     3
 72
     2
 73
     0
 90
        0
 40
-0.6
 41
-30.0
 62
     5
 63
     7
 74
     2
 91
        2
 64
     7
 65
   257
 75
     1
175
     1
 42
40.0
 92
        8
 66
     7
 43
1.0
 76
     1
 77
     6
 78
     2
 67
     7
 79
     3
170
     0
171
     0
290
     0
174
     0
 93
        1
 44
0.0
173
     0
291
     0
 45
0.0
1001
ACAD
1000
AcDbSavedByObjectVersion
1070
     0
  0
VISUALSTYLE
  5
35
102
{ACAD_REACTORS
330
2A
102
}
330
2A
100
AcDbVisualStyle
  2
Dim
 70
    11
 71
     2
 72
     2
 73
     0
 90
        0
 40
-0.6
 41
-30.0
 62
     5
 63
     7
 74
     1
 91
        4
 64
     7
 65
   257
 75
     1
175
     1
 42
1.0
 92
        8
 66
     7
 43
1.0
 76
     1
 77
     6
 78
     2
 67
     7
 79
     5
170
     0
171
     0
290
     0
174
     0
 93
        1
 44
-50.0
173
     0
291
     1
 45
0.0
1001
ACAD
1000
AcDbSavedByObjectVersion
1070
     0
  0
VISUALSTYLE
  5
39
102
{ACAD_REACTORS
330
2A
102
}
330
2A
100
AcDbVisualStyle
  2
Facepattern
 70
    15
 71
     2
 72
     2
 73
     0
 90
        0
 40
-0.6
 41
-30.0
 62
     5
 63
     7
 74
     1
 91
        4
 64
     7
 65
   257
 75
     1
175
     1
 42
1.0
 92
        8
 66
     7
 43
1.0
 76
     1
 77
     6
 78
     2
 67
     7
 79
     5
170
     0
171
     0
290
     0
174
     0
 93
        1
 44
0.0
173
     0
291
     1
 45
0.0
1001
ACAD
1000
AcDbSavedByObjectVersion
1070
     0
  0
VISUALSTYLE
  5
2B
102
{ACAD_REACTORS
330
2A
102
}
330
2A
100
AcDbVisualStyle
  2
Flat
 70
     0
 71
     2
 72
     1
 73
     1
 90
        2
 40
-0.6
 41
30.0
 62
     5
 63
     7
 74
     0
 91
        4
 64
     7
 65
   257
 75
     1
175
     1
 42
1.0
 92
        8
 66
     7
 43
1.0
 76
     1
 77
     6
 78
     2
 67
     7
 79
     5
170
     0
171
     0
290
     0
174
     0
 93
       13
 44
0.0
173
     0
291
     1
 45
0.0
1001
ACAD
1000
AcDbSavedByObjectVersion
1070
     0
  0
VISUALSTYLE
  5
2C
102
{ACAD_REACTORS
330
2A
102
}
330
2A
100
AcDbVisualStyle
  2
FlatWithEdges
 70
     1
 71
     2
 72
     1
 73
     1
 90
        2
 40
-0.6
 41
30.0
 62
     5
 63
     7
 74
     1
 91
        4
 64
     7
 65
   257
 75
     1
175
     1
 42
1.0
 92
        0
 66
   257
 43
1.0
 76
     1
 77
     6
 78
     2
 67
     7
 79
     5
170
     0
171
     0
290
     0
174
     0
 93
       13
 44
0.0
173
     0
291
     1
 45
0.0
1001
ACAD
1000
AcDbSavedByObjectVersion
1070
     0
  0
VISUALSTYLE
  5
2D
102
{ACAD_REACTORS
330
2A
102
}
330
2A
100
AcDbVisualStyle
  2
Gouraud
 70
     2
 71
     2
 72
     2
 73
     1
 90
        2
 40
-0.6
 41
30.0
 62
     5
 63
     7
 74
     0
 91
        4
 64
     7
 65
   257
 75
     1
175
     1
 42
1.0
 92
        0
 66
     7
 43
1.0
 76
     1
 77
     6
 78
     2
 67
     7
 79
     5
170
     0
171
     0
290
     0
174
     0
 93
       13
 44
0.0
173
     0
291
     1
 45
0.0
1001
ACAD
1000
AcDbSavedByObjectVersion
1070
     0
  0
VISUALSTYLE
  5
2E
102
{ACAD_REACTORS
330
2A
102
}
330
2A
100
AcDbVisualStyle
  2
GouraudWithEdges
 70
     3
 71
     2
 72
     2
 73
     1
 90
        2
 40
-0.6
 41
30.0
 62
     5
 63
     7
 74
     1
 91
        4
 64
     7
 65
   257
 75
     1
175
     1
 42
1.0
 92
        0
 66
   257
 43
1.0
 76
     1
 77
     6
 78
     2
 67
     7
 79
     5
170
     0
171
     0
290
     0
174
     0
 93
       13
 44
0.0
173
     0
291
     1
 45
0.0
1001
ACAD
1000
AcDbSavedByObjectVersion
1070
     0
  0
VISUALSTYLE
  5
38
102
{ACAD_REACTORS
330
2A
102
}
330
2A
100
AcDbVisualStyle
  2
Linepattern
 70
    14
 71
     2
 72
     2
 73
     0
 90
        0
 40
-0.6
 41
-30.0
 62
     5
 63
     7
 74
     1
 91
        4
 64
     7
 65
   257
 75
     7
175
     7
 42
1.0
 92
        8
 66
     7
 43
1.0
 76
     1
 77
     6
 78
     2
 67
     7
 79
     5
170
     0
171
     0
290
     0
174
     0
 93
        1
 44
0.0
173
     0
291
     1
 45
0.0
1001
ACAD
1000
AcDbSavedByObjectVersion
1070
     0
  0
VISUALSTYLE
  5
33
102
{ACAD_REACTORS
330
2A
102
}
330
2A
100
AcDbVisualStyle
  2
Realistic
 70
     8
 71
     2
 72
     2
 73
     0
 90
        0
 40
-0.6
 41
-30.0
 62
     5
 63
     7
 74
     1
 91
        0
 64
     7
 65
   257
 75
     1
175
     1
 42
1.0
 92
        8
 66
     8
 43
1.0
 76
     1
 77
     6
 78
     2
 67
     7
 79
     5
170
     0
171
     0
290
     0
174
     0
 93
       13
 44
0.0
173
     0
291
     0
 45
0.0
1001
ACAD
1000
AcDbSavedByObjectVersion
1070
     0
  0
VISUALSTYLE
  5
37
102
{ACAD_REACTORS
330
2A
102
}
330
2A
100
AcDbVisualStyle
  2
Thicken
 70
    13
 71
     2
 72
     2
 73
     0
 90
        0
 40
-0.6
 41
-30.0
 62
     5
 63
     7
 74
     1
 91
        4
 64
     7
 65
   257
 75
     1
175
     1
 42
1.0
 92
       12
 66
     7
 43
1.0
 76
     1
 77
     6
 78
     2
 67
     7
 79
     5
170
     0
171
     0
290
     0
174
     0
 93
        1
 44
0.0
173
     0
291
     1
 45
0.0
1001
ACAD
1000
AcDbSavedByObjectVersion
1070
     0
  0
XRECORD
  5
452
102
{ACAD_REACTORS
330
449
102
}
330
449
100
AcDbXrecord
 90
        0
  0
XRECORD
  5
468
102
{ACAD_REACTORS
330
449
102
}
330
449
100
AcDbXrecord
1000
DSTYLE
1002
{
1070
   340
340
11
1002
}
  0
XRECORD
  5
453
102
{ACAD_REACTORS
330
449
102
}
330
449
100
AcDbXrecord
  1
{B313428A-733F-4DFC-9E78-76FC5C19605F}
  0
XRECORD
  5
44C
102
{ACAD_REACTORS
330
449
102
}
330
449
100
AcDbXrecord
  1

  0
XRECORD
  5
451
102
{ACAD_REACTORS
330
449
102
}
330
449
100
AcDbXrecord
 90
        4
  0
XRECORD
  5
44E
102
{ACAD_REACTORS
330
449
102
}
330
449
100
AcDbXrecord
340
1A
  0
XRECORD
  5
450
102
{ACAD_REACTORS
330
449
102
}
330
449
100
AcDbXrecord
 90
    10781
  0
XRECORD
  5
44F
102
{ACAD_REACTORS
330
449
102
}
330
449
100
AcDbXrecord
340
19
  0
XRECORD
  5
455
102
{ACAD_REACTORS
330
449
102
}
330
449
100
AcDbXrecord
 40
0.0
  0
XRECORD
  5
458
102
{ACAD_REACTORS
330
449
102
}
330
449
100
AcDbXrecord
340
0
  0
XRECORD
  5
45E
102
{ACAD_REACTORS
330
449
102
}
330
449
100
AcDbXrecord
 10
0.0
 20
0.0
 30
0.0
  0
XRECORD
  5
45A
102
{ACAD_REACTORS
330
449
102
}
330
449
100
AcDbXrecord
 10
0.0
 20
0.0
 30
0.0
  0
XRECORD
  5
45D
102
{ACAD_REACTORS
330
449
102
}
330
449
100
AcDbXrecord
 10
0.0
 20
0.0
 30
0.0
  0
XRECORD
  5
45B
102
{ACAD_REACTORS
330
449
102
}
330
449
100
AcDbXrecord
 10
0.0
 20
0.0
 30
0.0
  0
XRECORD
  5
45C
102
{ACAD_REACTORS
330
449
102
}
330
449
100
AcDbXrecord
 10
0.0
 20
0.0
 30
0.0
  0
XRECORD
  5
459
102
{ACAD_REACTORS
330
449
102
}
330
449
100
AcDbXrecord
 10
0.0
 20
0.0
 30
0.0
  0
XRECORD
  5
456
102
{ACAD_REACTORS
330
449
102
}
330
449
100
AcDbXrecord
340
0
  0
XRECORD
  5
457
102
{ACAD_REACTORS
330
449
102
}
330
449
100
AcDbXrecord
 70
     0
  0
XRECORD
  5
44D
102
{ACAD_REACTORS
330
449
102
}
330
449
100
AcDbXrecord
  1

  0
XRECORD
  5
44A
102
{ACAD_REACTORS
330
449
102
}
330
449
100
AcDbXrecord
 90
        1
  0
XRECORD
  5
44B
102
{ACAD_REACTORS
330
449
102
}
330
449
100
AcDbXrecord
 90
       70
  0
XRECORD
  5
461
102
{ACAD_REACTORS
330
449
102
}
330
449
100
AcDbXrecord
340
0
  0
XRECORD
  5
467
102
{ACAD_REACTORS
330
449
102
}
330
449
100
AcDbXrecord
 10
0.0
 20
0.0
 30
0.0
  0
XRECORD
  5
463
102
{ACAD_REACTORS
330
449
102
}
330
449
100
AcDbXrecord
 10
0.0
 20
0.0
 30
0.0
  0
XRECORD
  5
466
102
{ACAD_REACTORS
330
449
102
}
330
449
100
AcDbXrecord
 10
0.0
 20
0.0
 30
0.0
  0
XRECORD
  5
464
102
{ACAD_REACTORS
330
449
102
}
330
449
100
AcDbXrecord
 10
0.0
 20
0.0
 30
0.0
  0
XRECORD
  5
465
102
{ACAD_REACTORS
330
449
102
}
330
449
100
AcDbXrecord
 10
0.0
 20
0.0
 30
0.0
  0
XRECORD
  5
462
102
{ACAD_REACTORS
330
449
102
}
330
449
100
AcDbXrecord
 10
0.0
 20
0.0
 30
0.0
  0
XRECORD
  5
45F
102
{ACAD_REACTORS
330
449
102
}
330
449
100
AcDbXrecord
340
0
  0
XRECORD
  5
460
102
{ACAD_REACTORS
330
449
102
}
330
449
100
AcDbXrecord
 70
     0
  0
XRECORD
  5
454
102
{ACAD_REACTORS
330
449
102
}
330
449
100
AcDbXrecord
  1
{FAEB1C32-E019-11D5-929B-00C0DF256EC4}
  0
DICTIONARYVAR
  5
46C
102
{ACAD_REACTORS
330
46A
102
}
330
46A
100
DictionaryVariables
280
     0
  1
80.000000
  0
DICTIONARYVAR
  5
46B
102
{ACAD_REACTORS
330
46A
102
}
330
46A
100
DictionaryVariables
280
     0
  1
5.000000
  0
ENDSEC
  0
EOF
