  0
SECTION
  2
HEADER
  9
$ACADVER
  1
AC1012
  9
$DWGCODEPAGE
  3
ANSI_1252
  9
$INSBASE
 10
0.0
 20
0.0
 30
0.0
  9
$EXTMIN
 10
4.992371100225
 20
4.981812218415825
 30
-0.0000000349181948
  9
$EXTMAX
 10
205.0076298776636
 20
292.0118415048484
 30
0.0000000814935746
  9
$LIMMIN
 10
0.0
 20
0.0
  9
$LIMMAX
 10
210.0
 20
296.0
  9
$ORTHOMODE
 70
     0
  9
$REGENMODE
 70
     1
  9
$FILLMODE
 70
     1
  9
$QTEXTMODE
 70
     0
  9
$MIRRTEXT
 70
     1
  9
$DRAGMODE
 70
     2
  9
$LTSCALE
 40
0.5
  9
$OSMODE
 70
   167
  9
$ATTMODE
 70
     1
  9
$TEXTSIZE
 40
0.2
  9
$TRACEWID
 40
0.05
  9
$TEXTSTYLE
  7
FINDER
  9
$CLAYER
  8
DIM
  9
$CELTYPE
  6
CONTINUOUS
  9
$CECOLOR
 62
   256
  9
$CELTSCALE
 40
1.0
  9
$DELOBJ
 70
     1
  9
$DISPSILH
 70
     0
  9
$DIMSCALE
 40
1.0
  9
$DIMASZ
 40
2.5
  9
$DIMEXO
 40
2.0
  9
$DIMDLI
 40
6.5
  9
$DIMRND
 40
0.0
  9
$DIMDLE
 40
0.0
  9
$DIMEXE
 40
1.25
  9
$DIMTP
 40
0.0
  9
$DIMTM
 40
0.0
  9
$DIMTXT
 40
3.5
  9
$DIMCEN
 40
2.5
  9
$DIMTSZ
 40
0.0
  9
$DIMTOL
 70
     0
  9
$DIMLIM
 70
     0
  9
$DIMTIH
 70
     0
  9
$DIMTOH
 70
     0
  9
$DIMSE1
 70
     0
  9
$DIMSE2
 70
     0
  9
$DIMTAD
 70
     1
  9
$DIMZIN
 70
     8
  9
$DIMBLK
  1

  9
$DIMASO
 70
     1
  9
$DIMSHO
 70
     1
  9
$DIMPOST
  1

  9
$DIMAPOST
  1

  9
$DIMALT
 70
     0
  9
$DIMALTD
 70
     3
  9
$DIMALTF
 40
0.0393701
  9
$DIMLFAC
 40
1.0
  9
$DIMTOFL
 70
     1
  9
$DIMTVP
 40
0.0
  9
$DIMTIX
 70
     0
  9
$DIMSOXD
 70
     0
  9
$DIMSAH
 70
     0
  9
$DIMBLK1
  1

  9
$DIMBLK2
  1

  9
$DIMSTYLE
  2
FINDER
  9
$DIMCLRD
 70
   256
  9
$DIMCLRE
 70
   256
  9
$DIMCLRT
 70
     2
  9
$DIMTFAC
 40
1.0
  9
$DIMGAP
 40
0.625
  9
$DIMJUST
 70
     0
  9
$DIMSD1
 70
     0
  9
$DIMSD2
 70
     0
  9
$DIMTOLJ
 70
     0
  9
$DIMTZIN
 70
     8
  9
$DIMALTZ
 70
     0
  9
$DIMALTTZ
 70
     0
  9
$DIMFIT
 70
     3
  9
$DIMUPT
 70
     0
  9
$DIMUNIT
 70
     2
  9
$DIMDEC
 70
     2
  9
$DIMTDEC
 70
     2
  9
$DIMALTU
 70
     2
  9
$DIMALTTD
 70
     3
  9
$DIMTXSTY
  7
FINDER
  9
$DIMAUNIT
 70
     0
  9
$LUNITS
 70
     2
  9
$LUPREC
 70
     4
  9
$SKETCHINC
 40
0.1
  9
$FILLETRAD
 40
0.25
  9
$AUNITS
 70
     0
  9
$AUPREC
 70
     3
  9
$MENU
  1
acad
  9
$ELEVATION
 40
0.0
  9
$PELEVATION
 40
0.0
  9
$THICKNESS
 40
0.0
  9
$LIMCHECK
 70
     0
  9
$BLIPMODE
 70
     0
  9
$CHAMFERA
 40
0.0
  9
$CHAMFERB
 40
0.0
  9
$CHAMFERC
 40
0.0
  9
$CHAMFERD
 40
0.0
  9
$SKPOLY
 70
     0
  9
$TDCREATE
 40
2451901.420981018
  9
$TDUPDATE
 40
2453031.423753263
  9
$TDINDWG
 40
0.2761384954
  9
$TDUSRTIMER
 40
0.2761384954
  9
$USRTIMER
 70
     1
  9
$ANGBASE
 50
0.0
  9
$ANGDIR
 70
     0
  9
$PDMODE
 70
     0
  9
$PDSIZE
 40
0.0
  9
$PLINEWID
 40
0.0
  9
$COORDS
 70
     0
  9
$SPLFRAME
 70
     0
  9
$SPLINETYPE
 70
     6
  9
$SPLINESEGS
 70
     8
  9
$ATTDIA
 70
     0
  9
$ATTREQ
 70
     1
  9
$HANDLING
 70
 22529
  9
$HANDSEED
  5
2C31
  9
$SURFTAB1
 70
     6
  9
$SURFTAB2
 70
     6
  9
$SURFTYPE
 70
     6
  9
$SURFU
 70
     6
  9
$SURFV
 70
     6
  9
$UCSNAME
  2

  9
$UCSORG
 10
0.0
 20
0.0
 30
0.0
  9
$UCSXDIR
 10
1.0
 20
0.0
 30
0.0
  9
$UCSYDIR
 10
0.0
 20
1.0
 30
0.0
  9
$PUCSNAME
  2

  9
$PUCSORG
 10
0.0
 20
0.0
 30
0.0
  9
$PUCSXDIR
 10
1.0
 20
0.0
 30
0.0
  9
$PUCSYDIR
 10
0.0
 20
1.0
 30
0.0
  9
$USERI1
 70
     0
  9
$USERI2
 70
     0
  9
$USERI3
 70
     0
  9
$USERI4
 70
     0
  9
$USERI5
 70
     0
  9
$USERR1
 40
0.0
  9
$USERR2
 40
0.0
  9
$USERR3
 40
0.0
  9
$USERR4
 40
0.0
  9
$USERR5
 40
0.0
  9
$WORLDVIEW
 70
     1
  9
$SHADEDGE
 70
     3
  9
$SHADEDIF
 70
    70
  9
$TILEMODE
 70
     1
  9
$MAXACTVP
 70
    16
  9
$PINSBASE
 10
0.0
 20
0.0
 30
0.0
  9
$PLIMCHECK
 70
     0
  9
$PEXTMIN
 10
1.000000000000000E+20
 20
1.000000000000000E+20
 30
1.000000000000000E+20
  9
$PEXTMAX
 10
-1.000000000000000E+20
 20
-1.000000000000000E+20
 30
-1.000000000000000E+20
  9
$PLIMMIN
 10
0.0
 20
0.0
  9
$PLIMMAX
 10
100.0
 20
100.0
  9
$UNITMODE
 70
     0
  9
$VISRETAIN
 70
     0
  9
$PLINEGEN
 70
     1
  9
$PSLTSCALE
 70
     0
  9
$TREEDEPTH
 70
  3020
  9
$PICKSTYLE
 70
     1
  9
$CMLSTYLE
  2
STANDARD
  9
$CMLJUST
 70
     0
  9
$CMLSCALE
 40
1.0
  9
$SAVEIMAGES
 70
     0
  0
ENDSEC
  0
SECTION
  2
CLASSES
  0
CLASS
  1
LWPOLYLINE
  2
AcDbPolyline
  3
AutoCAD 2000
 90
    32768
280
     0
281
     1
  0
CLASS
  1
IMAGE
  2
AcDbRasterImage
  3
ISM
 90
    32895
280
     0
281
     1
  0
CLASS
  1
OLE2FRAME
  2
AcDbOle2Frame
  3
AutoCAD 2000
 90
    32768
280
     0
281
     1
  0
CLASS
  1
HATCH
  2
AcDbHatch
  3
AutoCAD 2000
 90
    32768
280
     0
281
     1
  0
CLASS
  1
DICTIONARYVAR
  2
AcDbDictionaryVar
  3
AutoCAD 2000
 90
    32768
280
     0
281
     0
  0
CLASS
  1
RASTERVARIABLES
  2
AcDbRasterVariables
  3
ISM
 90
    32768
280
     0
281
     0
  0
CLASS
  1
IMAGEDEF
  2
AcDbRasterImageDef
  3
ISM
 90
    32768
280
     0
281
     0
  0
CLASS
  1
IMAGEDEF_REACTOR
  2
AcDbRasterImageDefReactor
  3
ISM
 90
    32769
280
     0
281
     0
  0
CLASS
  1
IDBUFFER
  2
AcDbIdBuffer
  3
AutoCAD 2000
 90
    32768
280
     0
281
     0
  0
CLASS
  1
SPATIAL_FILTER
  2
AcDbSpatialFilter
  3
AutoCAD 2000
 90
    32768
280
     0
281
     0
  0
CLASS
  1
XRECORD
  2
AcDbXrecord
  3
AutoCAD 2000
 90
    32768
280
     0
281
     0
  0
CLASS
  1
SORTENTSTABLE
  2
AcDbSortentsTable
  3
AutoCAD 2000
 90
    32768
280
     0
281
     0
  0
CLASS
  1
LAYER_INDEX
  2
AcDbLayerIndex
  3
AutoCAD 2000
 90
    32768
280
     0
281
     0
  0
CLASS
  1
SPATIAL_INDEX
  2
AcDbSpatialIndex
  3
AutoCAD 2000
 90
    32768
280
     0
281
     0
  0
CLASS
  1
OBJECT_PTR
  2
CAseDLPNTableRecord
  3
ASE-LPNTableRecord
 90
    32769
280
     0
281
     0
  0
CLASS
  1
LAYOUT
  2
AcDbLayout
  3
AutoCAD 2000
 90
    32768
280
     0
281
     0
  0
CLASS
  1
PLOTSETTINGS
  2
AcDbPlotSettings
  3
AutoCAD 2000
 90
    32768
280
     0
281
     0
  0
CLASS
  1
ACDBDICTIONARYWDFLT
  2
AcDbDictionaryWithDefault
  3
AutoCAD 2000
 90
    32768
280
     0
281
     0
  0
CLASS
  1
ACDBPLACEHOLDER
  2
AcDbPlaceHolder
  3
AutoCAD 2000
 90
    32768
280
     0
281
     0
  0
CLASS
  1
VBA_PROJECT
  2
AcDbVbaProject
  3
"acadvba"
 90
    32769
280
     0
281
     0
  0
CLASS
  1
WIPEOUT
  2
AcDbWipeout
  3
WipeOut|AutoCAD Express Tool|expresstools@autodesk.com
 90
    32895
280
     0
281
     1
  0
CLASS
  1
WIPEOUTVARIABLES
  2
AcDbWipeoutVariables
  3
WipeOut|AutoCAD Express Tool|expresstools@autodesk.com
 90
    32768
280
     0
281
     0
  0
CLASS
  1
RTEXT
  2
RText
  3
RText|AutoCAD Express Tool|expresstools@autodesk.com
 90
    32768
280
     0
281
     1
  0
CLASS
  1
ARCALIGNEDTEXT
  2
AcDbArcAlignedText
  3
ATEXT|AutoCAD Express Tool|expresstools@autodesk.com
 90
    32768
280
     0
281
     1
  0
CLASS
  1
LONG_TRANSACTION
  2
AcDbLongTransaction
  3
AutoCAD 2000
 90
    32768
280
     0
281
     0
  0
CLASS
  1
LWPOLYLINE
  2
AcDbPolyline
  3
AutoCAD 2000
 90
    32768
280
     0
281
     1
  0
CLASS
  1
HATCH
  2
AcDbHatch
  3
AutoCAD 2000
 90
    32768
280
     0
281
     1
  0
CLASS
  1
XRECORD
  2
AcDbXrecord
  3
AutoCAD 2000
 90
    32768
280
     0
281
     0
  0
CLASS
  1
LONG_TRANSACTION
  2
AcDbLongTransaction
  3
AutoCAD 2000
 90
    32768
280
     0
281
     0
  0
CLASS
  1
LWPOLYLINE
  2
AcDbPolyline
  3
AutoCAD 2000
 90
    32768
280
     0
281
     1
  0
CLASS
  1
HATCH
  2
AcDbHatch
  3
AutoCAD 2000
 90
    32768
280
     0
281
     1
  0
CLASS
  1
XRECORD
  2
AcDbXrecord
  3
AutoCAD 2000
 90
    32768
280
     0
281
     0
  0
ENDSEC
  0
SECTION
  2
TABLES
  0
TABLE
  2
VPORT
  5
7
330
0
100
AcDbSymbolTable
 70
     4
  0
VPORT
  5
2AA4
330
7
100
AcDbSymbolTableRecord
100
AcDbViewportTableRecord
  2
*ACTIVE
 70
     0
 10
0.0
 20
0.0
 11
1.0
 21
1.0
 12
104.9999999999999
 22
148.0
 13
0.0
 23
0.0
 14
1.0
 24
1.0
 15
2.0
 25
2.0
 16
0.0
 26
0.0
 36
1.0
 17
0.0
 27
0.0
 37
0.0
 40
299.5806451612903
 41
1.89090909090909
 42
50.0
 43
0.0
 44
0.0
 50
0.0
 51
0.0
 71
     0
 72
   100
 73
     1
 74
     1
 75
     0
 76
     0
 77
     0
 78
     0
  0
ENDTAB
  0
TABLE
  2
LTYPE
  5
4
330
0
100
AcDbSymbolTable
 70
     1
  0
LTYPE
  5
11
330
4
100
AcDbSymbolTableRecord
100
AcDbLinetypeTableRecord
  2
BYBLOCK
 70
     0
  3

 72
    65
 73
     0
 40
0.0
  0
LTYPE
  5
12
330
4
100
AcDbSymbolTableRecord
100
AcDbLinetypeTableRecord
  2
BYLAYER
 70
     0
  3

 72
    65
 73
     0
 40
0.0
  0
LTYPE
  5
13
330
4
100
AcDbSymbolTableRecord
100
AcDbLinetypeTableRecord
  2
CONTINUOUS
 70
     0
  3
Solid line
 72
    65
 73
     0
 40
0.0
  0
ENDTAB
  0
TABLE
  2
LAYER
  5
2
330
0
100
AcDbSymbolTable
 70
     6
  0
LAYER
  5
14
330
2
100
AcDbSymbolTableRecord
100
AcDbLayerTableRecord
  2
0
 70
     0
 62
     7
  6
CONTINUOUS
  0
LAYER
  5
B1
330
2
100
AcDbSymbolTableRecord
100
AcDbLayerTableRecord
  2
DIM
 70
     0
 62
     3
  6
CONTINUOUS
  0
LAYER
  5
B2
330
2
100
AcDbSymbolTableRecord
100
AcDbLayerTableRecord
  2
DRAW
 70
     0
 62
     7
  6
CONTINUOUS
  0
LAYER
  5
B3
330
2
100
AcDbSymbolTableRecord
100
AcDbLayerTableRecord
  2
CARTOUCHE
 70
     0
 62
     7
  6
CONTINUOUS
  0
LAYER
  5
B4
330
2
100
AcDbSymbolTableRecord
100
AcDbLayerTableRecord
  2
DRAW-TEXT
 70
     0
 62
     1
  6
CONTINUOUS
  0
LAYER
  5
1EF1
330
2
100
AcDbSymbolTableRecord
100
AcDbLayerTableRecord
  2
DEFPOINTS
 70
     0
 62
     7
  6
CONTINUOUS
  0
ENDTAB
  0
TABLE
  2
STYLE
  5
3
330
0
100
AcDbSymbolTable
 70
     2
  0
STYLE
  5
17
330
3
100
AcDbSymbolTableRecord
100
AcDbTextStyleTableRecord
  2
STANDARD
 70
     0
 40
0.0
 41
1.0
 50
0.0
 71
     0
 42
0.2
  3
txt
  4

  0
STYLE
  5
BE
330
3
100
AcDbSymbolTableRecord
100
AcDbTextStyleTableRecord
  2
FINDER
 70
     0
 40
1.8
 41
1.0
 50
0.0
 71
     0
 42
0.2
  3
ARIAL.TTF
  4

1001
ACAD
1000
Arial
1071
       34
  0
ENDTAB
  0
TABLE
  2
VIEW
  5
5
330
0
100
AcDbSymbolTable
 70
     0
  0
ENDTAB
  0
TABLE
  2
UCS
  5
6
330
0
100
AcDbSymbolTable
 70
     0
  0
ENDTAB
  0
TABLE
  2
APPID
  5
8
330
0
100
AcDbSymbolTable
 70
     1
  0
APPID
  5
16
330
8
100
AcDbSymbolTableRecord
100
AcDbRegAppTableRecord
  2
ACAD
 70
     0
  0
ENDTAB
  0
TABLE
  2
DIMSTYLE
  5
9
330
0
100
AcDbSymbolTable
 70
     2
  0
DIMSTYLE
105
18
330
9
100
AcDbSymbolTableRecord
100
AcDbDimStyleTableRecord
  2
STANDARD
 70
     0
  3

  4

  5

  6

  7

 40
1.0
 41
0.18
 42
0.0625
 43
0.38
 44
0.18
 45
0.0
 46
0.0
 47
0.0
 48
0.0
140
0.18
141
0.09
142
0.0
143
25.4
144
1.0
145
0.0
146
1.0
147
0.09
 71
     0
 72
     0
 73
     1
 74
     1
 75
     0
 76
     0
 77
     0
 78
     0
170
     0
171
     2
172
     0
173
     0
174
     0
175
     0
176
     0
177
     0
178
     0
270
     2
271
     4
272
     4
273
     2
274
     2
340
17
275
     0
280
     0
281
     0
282
     0
283
     1
284
     0
285
     0
286
     0
287
     0
288
     0
  0
DIMSTYLE
105
D1
102
{ACAD_REACTORS
330
29CB
330
29D8
330
29E5
330
29F2
330
2A23
330
2A30
102
}
330
9
100
AcDbSymbolTableRecord
100
AcDbDimStyleTableRecord
  2
FINDER
 70
     0
  3

  4

  5

  6

  7

 40
1.0
 41
2.5
 42
2.0
 43
6.5
 44
1.25
 45
0.0
 46
0.0
 47
0.0
 48
0.0
140
3.5
141
2.5
142
0.0
143
0.0393701
144
1.0
145
0.0
146
1.0
147
0.625
 71
     0
 72
     0
 73
     0
 74
     0
 75
     0
 76
     0
 77
     1
 78
     8
170
     0
171
     3
172
     1
173
     0
174
     0
175
     0
176
   256
177
   256
178
     2
270
     2
271
     2
272
     2
273
     2
274
     3
340
BE
275
     0
280
     0
281
     0
282
     0
283
     0
284
     8
285
     0
286
     0
287
     3
288
     0
  0
ENDTAB
  0
TABLE
  2
BLOCK_RECORD
  5
1
330
0
100
AcDbSymbolTable
 70
    14
  0
BLOCK_RECORD
  5
A
102
{ACAD_XDICTIONARY
360
2588
102
}
330
1
100
AcDbSymbolTableRecord
100
AcDbBlockTableRecord
  2
*MODEL_SPACE
  0
BLOCK_RECORD
  5
B
102
{ACAD_XDICTIONARY
360
258A
102
}
330
1
100
AcDbSymbolTableRecord
100
AcDbBlockTableRecord
  2
*PAPER_SPACE
  0
BLOCK_RECORD
  5
29CC
330
1
100
AcDbSymbolTableRecord
100
AcDbBlockTableRecord
  2
*D0
  0
BLOCK_RECORD
  5
29D9
330
1
100
AcDbSymbolTableRecord
100
AcDbBlockTableRecord
  2
*D1
  0
BLOCK_RECORD
  5
29E6
330
1
100
AcDbSymbolTableRecord
100
AcDbBlockTableRecord
  2
*D2
  0
BLOCK_RECORD
  5
29F3
330
1
100
AcDbSymbolTableRecord
100
AcDbBlockTableRecord
  2
*D3
  0
BLOCK_RECORD
  5
2A24
330
1
100
AcDbSymbolTableRecord
100
AcDbBlockTableRecord
  2
*D4
  0
BLOCK_RECORD
  5
2A31
330
1
100
AcDbSymbolTableRecord
100
AcDbBlockTableRecord
  2
*D5
  0
BLOCK_RECORD
  5
2AA7
330
1
100
AcDbSymbolTableRecord
100
AcDbBlockTableRecord
  2
*X6
  0
BLOCK_RECORD
  5
2B38
330
1
100
AcDbSymbolTableRecord
100
AcDbBlockTableRecord
  2
*X7
  0
BLOCK_RECORD
  5
2B58
330
1
100
AcDbSymbolTableRecord
100
AcDbBlockTableRecord
  2
*X8
  0
BLOCK_RECORD
  5
2B65
330
1
100
AcDbSymbolTableRecord
100
AcDbBlockTableRecord
  2
*X9
  0
BLOCK_RECORD
  5
2B7C
330
1
100
AcDbSymbolTableRecord
100
AcDbBlockTableRecord
  2
*X10
  0
BLOCK_RECORD
  5
2BA6
330
1
100
AcDbSymbolTableRecord
100
AcDbBlockTableRecord
  2
*X11
  0
BLOCK_RECORD
  5
2BD5
330
1
100
AcDbSymbolTableRecord
100
AcDbBlockTableRecord
  2
*X12
  0
BLOCK_RECORD
  5
2C08
330
1
100
AcDbSymbolTableRecord
100
AcDbBlockTableRecord
  2
*X13
  0
ENDTAB
  0
ENDSEC
  0
SECTION
  2
BLOCKS
  0
BLOCK
  5
D
330
A
100
AcDbEntity
  8
0
100
AcDbBlockBegin
  2
*MODEL_SPACE
 70
     0
 10
0.0
 20
0.0
 30
0.0
  3
*MODEL_SPACE
  1

  0
ENDBLK
  5
E
330
A
100
AcDbEntity
  8
0
100
AcDbBlockEnd
  0
BLOCK
  5
F
330
B
100
AcDbEntity
 67
     1
  8
0
100
AcDbBlockBegin
  2
*PAPER_SPACE
 70
     0
 10
0.0
 20
0.0
 30
0.0
  3
*PAPER_SPACE
  1

  0
ENDBLK
  5
10
330
B
100
AcDbEntity
 67
     1
  8
0
100
AcDbBlockEnd
  0
BLOCK
  5
29D6
330
29CC
100
AcDbEntity
  8
0
100
AcDbBlockBegin
  2
*D0
 70
     1
 10
0.0
 20
0.0
 30
0.0
  3
*D0
  1

  0
LINE
  5
29CD
330
29CC
100
AcDbEntity
  8
DIM
  6
CONTINUOUS
100
AcDbLine
 10
83.54044910463619
 20
211.801805129962
 30
0.0
 11
83.54044910463619
 21
221.8979376762461
 31
0.0
  0
LINE
  5
29CE
330
29CC
100
AcDbEntity
  8
DIM
  6
CONTINUOUS
100
AcDbLine
 10
48.54044715121142
 20
211.801805129962
 30
0.0
 11
48.54044715121142
 21
221.8979376762461
 31
0.0
  0
LINE
  5
29CF
330
29CC
100
AcDbEntity
  8
DIM
  6
CONTINUOUS
100
AcDbLine
 10
81.04044910463619
 20
220.6479376762461
 30
0.0
 11
51.04044715121142
 21
220.6479376762461
 31
0.0
  0
SOLID
  5
29D0
330
29CC
100
AcDbEntity
  8
DIM
  6
CONTINUOUS
100
AcDbTrace
 10
81.04044910463619
 20
221.0646043429127
 30
0.0
 11
81.04044910463619
 21
220.2312710095794
 31
0.0
 12
83.54044910463619
 22
220.6479376762461
 32
0.0
 13
83.54044910463619
 23
220.6479376762461
 33
0.0
  0
SOLID
  5
29D1
330
29CC
100
AcDbEntity
  8
DIM
  6
CONTINUOUS
100
AcDbTrace
 10
51.04044715121142
 20
221.0646043429127
 30
0.0
 11
51.04044715121142
 21
220.2312710095794
 31
0.0
 12
48.54044715121142
 22
220.6479376762461
 32
0.0
 13
48.54044715121142
 23
220.6479376762461
 33
0.0
  0
MTEXT
  5
29D2
330
29CC
100
AcDbEntity
  8
DIM
  6
CONTINUOUS
 62
     2
100
AcDbMText
 10
66.0404481279238
 20
222.1925829695612
 30
0.0
 40
1.8
 41
0.0
 71
     5
 72
     1
  1
35
  7
FINDER
1001
ACAD
1000
MTEXTBEGIN
1070
    73
1070
     1
1070
    44
1040
1.0
1070
    74
1070
     0
1000
MTEXTEND
  0
POINT
  5
29D3
330
29CC
100
AcDbEntity
  8
DEFPOINTS
  6
CONTINUOUS
 62
     0
100
AcDbPoint
 10
83.54044910463619
 20
209.801805129962
 30
0.0
  0
POINT
  5
29D4
330
29CC
100
AcDbEntity
  8
DEFPOINTS
  6
CONTINUOUS
 62
     0
100
AcDbPoint
 10
48.54044715121142
 20
209.801805129962
 30
0.0
  0
POINT
  5
29D5
330
29CC
100
AcDbEntity
  8
DEFPOINTS
  6
CONTINUOUS
 62
     0
100
AcDbPoint
 10
48.54044715121142
 20
220.6479376762461
 30
0.0
  0
ENDBLK
  5
29D7
330
29CC
100
AcDbEntity
  8
0
100
AcDbBlockEnd
  0
BLOCK
  5
29E3
330
29D9
100
AcDbEntity
  8
0
100
AcDbBlockBegin
  2
*D1
 70
     1
 10
0.0
 20
0.0
 30
0.0
  3
*D1
  1

  0
LINE
  5
29DA
330
29D9
100
AcDbEntity
  8
DIM
  6
CONTINUOUS
100
AcDbLine
 10
47.74045614361736
 20
210.9999999573232
 30
0.0
 11
35.9073858402776
 21
210.9999999573232
 31
0.0
  0
LINE
  5
29DB
330
29D9
100
AcDbEntity
  8
DIM
  6
CONTINUOUS
100
AcDbLine
 10
47.74045614361756
 20
126.9999999573232
 30
0.0
 11
35.90738584027758
 21
126.9999999573232
 31
0.0
  0
LINE
  5
29DC
330
29D9
100
AcDbEntity
  8
DIM
  6
CONTINUOUS
100
AcDbLine
 10
37.1573858402776
 20
208.4999999573232
 30
0.0
 11
37.15738584027758
 21
129.4999999573232
 31
0.0
  0
SOLID
  5
29DD
330
29D9
100
AcDbEntity
  8
DIM
  6
CONTINUOUS
100
AcDbTrace
 10
36.74071917361094
 20
208.4999999573232
 30
0.0
 11
37.57405250694427
 21
208.4999999573232
 31
0.0
 12
37.1573858402776
 22
210.9999999573232
 32
0.0
 13
37.1573858402776
 23
210.9999999573232
 33
0.0
  0
SOLID
  5
29DE
330
29D9
100
AcDbEntity
  8
DIM
  6
CONTINUOUS
100
AcDbTrace
 10
36.74071917361092
 20
129.4999999573232
 30
0.0
 11
37.57405250694425
 21
129.4999999573232
 31
0.0
 12
37.15738584027758
 22
126.9999999573232
 32
0.0
 13
37.15738584027758
 23
126.9999999573232
 33
0.0
  0
MTEXT
  5
29DF
330
29D9
100
AcDbEntity
  8
DIM
  6
CONTINUOUS
 62
     2
100
AcDbMText
 10
35.61335446237851
 20
168.9999999573232
 30
0.0
 40
1.8
 41
0.0
 71
     5
 72
     1
  1
84
  7
FINDER
 11
0.0000000000000001
 21
1.0
 31
0.0
1001
ACAD
1000
MTEXTBEGIN
1070
    73
1070
     1
1070
    44
1040
1.0
1070
    74
1070
     0
1000
MTEXTEND
  0
POINT
  5
29E0
330
29D9
100
AcDbEntity
  8
DEFPOINTS
  6
CONTINUOUS
 62
     0
100
AcDbPoint
 10
49.74045614361736
 20
210.9999999573232
 30
0.0
  0
POINT
  5
29E1
330
29D9
100
AcDbEntity
  8
DEFPOINTS
  6
CONTINUOUS
 62
     0
100
AcDbPoint
 10
49.74045614361756
 20
126.9999999573232
 30
0.0
  0
POINT
  5
29E2
330
29D9
100
AcDbEntity
  8
DEFPOINTS
  6
CONTINUOUS
 62
     0
100
AcDbPoint
 10
37.15738584027758
 20
126.9999999573232
 30
0.0
  0
ENDBLK
  5
29E4
330
29D9
100
AcDbEntity
  8
0
100
AcDbBlockEnd
  0
BLOCK
  5
29F0
330
29E6
100
AcDbEntity
  8
0
100
AcDbBlockBegin
  2
*D2
 70
     1
 10
0.0
 20
0.0
 30
0.0
  3
*D2
  1

  0
LINE
  5
2A1A
330
29E6
100
AcDbEntity
  8
DIM
  6
CONTINUOUS
100
AcDbLine
 10
115.044810205365
 20
188.7000075867312
 30
0.0
 11
115.044810205365
 21
231.2669463753669
 31
0.0
  0
LINE
  5
2A1B
330
29E6
100
AcDbEntity
  8
DIM
  6
CONTINUOUS
100
AcDbLine
 10
169.6448160140387
 20
191.9031322023362
 30
0.0
 11
169.6448160140387
 21
231.2669463753669
 31
0.0
  0
LINE
  5
2A1C
330
29E6
100
AcDbEntity
  8
DIM
  6
CONTINUOUS
100
AcDbLine
 10
117.544810205365
 20
230.0169463753669
 30
0.0
 11
167.1448160140387
 21
230.0169463753669
 31
0.0
  0
SOLID
  5
2A1D
330
29E6
100
AcDbEntity
  8
DIM
  6
CONTINUOUS
100
AcDbTrace
 10
117.544810205365
 20
230.4336130420336
 30
0.0
 11
117.544810205365
 21
229.6002797087003
 31
0.0
 12
115.044810205365
 22
230.0169463753669
 32
0.0
 13
115.044810205365
 23
230.0169463753669
 33
0.0
  0
SOLID
  5
2A1E
330
29E6
100
AcDbEntity
  8
DIM
  6
CONTINUOUS
100
AcDbTrace
 10
167.1448160140387
 20
230.4336130420336
 30
0.0
 11
167.1448160140387
 21
229.6002797087003
 31
0.0
 12
169.6448160140387
 22
230.0169463753669
 32
0.0
 13
169.6448160140387
 23
230.0169463753669
 33
0.0
  0
MTEXT
  5
2A1F
330
29E6
100
AcDbEntity
  8
DIM
  6
CONTINUOUS
 62
     2
100
AcDbMText
 10
142.3448131097019
 20
231.560977753266
 30
0.0
 40
1.8
 41
0.0
 71
     5
 72
     1
  1
54.6
  7
FINDER
1001
ACAD
1000
MTEXTBEGIN
1070
    73
1070
     1
1070
    44
1040
1.0
1070
    74
1070
     0
1000
MTEXTEND
  0
POINT
  5
2A20
330
29E6
100
AcDbEntity
  8
DEFPOINTS
  6
CONTINUOUS
 62
     0
100
AcDbPoint
 10
115.044810205365
 20
186.7000075867312
 30
0.0
  0
POINT
  5
2A21
330
29E6
100
AcDbEntity
  8
DEFPOINTS
  6
CONTINUOUS
 62
     0
100
AcDbPoint
 10
169.6448160140387
 20
189.9031322023362
 30
0.0
  0
POINT
  5
2A22
330
29E6
100
AcDbEntity
  8
DEFPOINTS
  6
CONTINUOUS
 62
     0
100
AcDbPoint
 10
169.6448160140387
 20
230.0169463753669
 30
0.0
  0
ENDBLK
  5
29F1
330
29E6
100
AcDbEntity
  8
0
100
AcDbBlockEnd
  0
BLOCK
  5
29FD
330
29F3
100
AcDbEntity
  8
0
100
AcDbBlockBegin
  2
*D3
 70
     1
 10
0.0
 20
0.0
 30
0.0
  3
*D3
  1

  0
LINE
  5
2A08
330
29F3
100
AcDbEntity
  8
DIM
  6
CONTINUOUS
100
AcDbLine
 10
115.044810205365
 20
188.7000075867312
 30
0.0
 11
115.044810205365
 21
221.7545359576301
 31
0.0
  0
LINE
  5
2A09
330
29F3
100
AcDbEntity
  8
DIM
  6
CONTINUOUS
100
AcDbLine
 10
157.3448118272531
 20
211.7667921184058
 30
0.0
 11
157.3448118272531
 21
221.7545359576301
 31
0.0
  0
LINE
  5
2A0A
330
29F3
100
AcDbEntity
  8
DIM
  6
CONTINUOUS
100
AcDbLine
 10
117.544810205365
 20
220.5045359576302
 30
0.0
 11
154.8448118272531
 21
220.5045359576302
 31
0.0
  0
SOLID
  5
2A0B
330
29F3
100
AcDbEntity
  8
DIM
  6
CONTINUOUS
100
AcDbTrace
 10
117.544810205365
 20
220.9212026242968
 30
0.0
 11
117.544810205365
 21
220.0878692909635
 31
0.0
 12
115.044810205365
 22
220.5045359576302
 32
0.0
 13
115.044810205365
 23
220.5045359576302
 33
0.0
  0
SOLID
  5
2A0C
330
29F3
100
AcDbEntity
  8
DIM
  6
CONTINUOUS
100
AcDbTrace
 10
154.8448118272531
 20
220.9212026242968
 30
0.0
 11
154.8448118272531
 21
220.0878692909635
 31
0.0
 12
157.3448118272531
 22
220.5045359576302
 32
0.0
 13
157.3448118272531
 23
220.5045359576302
 33
0.0
  0
MTEXT
  5
2A0D
330
29F3
100
AcDbEntity
  8
DIM
  6
CONTINUOUS
 62
     2
100
AcDbMText
 10
136.194811016309
 20
222.0491812509453
 30
0.0
 40
1.8
 41
0.0
 71
     5
 72
     1
  1
42.3
  7
FINDER
1001
ACAD
1000
MTEXTBEGIN
1070
    73
1070
     1
1070
    44
1040
1.0
1070
    74
1070
     0
1000
MTEXTEND
  0
POINT
  5
2A0E
330
29F3
100
AcDbEntity
  8
DEFPOINTS
  6
CONTINUOUS
 62
     0
100
AcDbPoint
 10
115.044810205365
 20
186.7000075867312
 30
0.0
  0
POINT
  5
2A0F
330
29F3
100
AcDbEntity
  8
DEFPOINTS
  6
CONTINUOUS
 62
     0
100
AcDbPoint
 10
157.3448118272531
 20
209.7667921184058
 30
0.0
  0
POINT
  5
2A10
330
29F3
100
AcDbEntity
  8
DEFPOINTS
  6
CONTINUOUS
 62
     0
100
AcDbPoint
 10
157.3448118272531
 20
220.5045359576302
 30
0.0
  0
ENDBLK
  5
29FE
330
29F3
100
AcDbEntity
  8
0
100
AcDbBlockEnd
  0
BLOCK
  5
2A2E
330
2A24
100
AcDbEntity
  8
0
100
AcDbBlockBegin
  2
*D4
 70
     1
 10
0.0
 20
0.0
 30
0.0
  3
*D4
  1

  0
LINE
  5
2A25
330
2A24
100
AcDbEntity
  8
DIM
  6
CONTINUOUS
100
AcDbLine
 10
169.6448160579116
 20
147.0968677571506
 30
0.0
 11
169.6448160579116
 21
111.0280139513835
 31
0.0
  0
LINE
  5
2A26
330
2A24
100
AcDbEntity
  8
DIM
  6
CONTINUOUS
100
AcDbLine
 10
111.6448101332456
 20
126.4234078551551
 30
0.0
 11
111.6448101332456
 21
111.0280139513835
 31
0.0
  0
LINE
  5
2A27
330
2A24
100
AcDbEntity
  8
DIM
  6
CONTINUOUS
100
AcDbLine
 10
167.1448160579116
 20
112.2780139513835
 30
0.0
 11
114.1448101332455
 21
112.2780139513835
 31
0.0
  0
SOLID
  5
2A28
330
2A24
100
AcDbEntity
  8
DIM
  6
CONTINUOUS
100
AcDbTrace
 10
167.1448160579116
 20
112.6946806180501
 30
0.0
 11
167.1448160579116
 21
111.8613472847168
 31
0.0
 12
169.6448160579116
 22
112.2780139513835
 32
0.0
 13
169.6448160579116
 23
112.2780139513835
 33
0.0
  0
SOLID
  5
2A29
330
2A24
100
AcDbEntity
  8
DIM
  6
CONTINUOUS
100
AcDbTrace
 10
114.1448101332455
 20
112.6946806180501
 30
0.0
 11
114.1448101332455
 21
111.8613472847168
 31
0.0
 12
111.6448101332456
 22
112.2780139513835
 32
0.0
 13
111.6448101332456
 23
112.2780139513835
 33
0.0
  0
MTEXT
  5
2A2A
330
2A24
100
AcDbEntity
  8
DIM
  6
CONTINUOUS
 62
     2
100
AcDbMText
 10
140.6448130955786
 20
113.8220453292825
 30
0.0
 40
1.8
 41
0.0
 71
     5
 72
     1
  1
58
  7
FINDER
1001
ACAD
1000
MTEXTBEGIN
1070
    73
1070
     1
1070
    44
1040
1.0
1070
    74
1070
     0
1000
MTEXTEND
  0
POINT
  5
2A2B
330
2A24
100
AcDbEntity
  8
DEFPOINTS
  6
CONTINUOUS
 62
     0
100
AcDbPoint
 10
169.6448160579116
 20
149.0968677571506
 30
0.0
  0
POINT
  5
2A2C
330
2A24
100
AcDbEntity
  8
DEFPOINTS
  6
CONTINUOUS
 62
     0
100
AcDbPoint
 10
111.6448101332456
 20
128.4234078551551
 30
0.0
  0
POINT
  5
2A2D
330
2A24
100
AcDbEntity
  8
DEFPOINTS
  6
CONTINUOUS
 62
     0
100
AcDbPoint
 10
111.6448101332456
 20
112.2780139513835
 30
0.0
  0
ENDBLK
  5
2A2F
330
2A24
100
AcDbEntity
  8
0
100
AcDbBlockEnd
  0
BLOCK
  5
2A3B
330
2A31
100
AcDbEntity
  8
0
100
AcDbBlockBegin
  2
*D5
 70
     1
 10
0.0
 20
0.0
 30
0.0
  3
*D5
  1

  0
LINE
  5
2A8E
330
2A31
100
AcDbEntity
  8
DIM
  6
CONTINUOUS
100
AcDbLine
 10
160.544811810894
 20
191.3895277155827
 30
0.0
 11
185.4775172706136
 21
191.3895277155827
 31
0.0
  0
LINE
  5
2A8F
330
2A31
100
AcDbEntity
  8
DIM
  6
CONTINUOUS
100
AcDbLine
 10
160.5448118110713
 20
146.6104721991128
 30
0.0
 11
185.4775172706136
 21
146.6104721991128
 31
0.0
  0
LINE
  5
2A90
330
2A31
100
AcDbEntity
  8
DIM
  6
CONTINUOUS
100
AcDbLine
 10
184.2275172706136
 20
188.8895277155827
 30
0.0
 11
184.2275172706136
 21
149.1104721991128
 31
0.0
  0
SOLID
  5
2A91
330
2A31
100
AcDbEntity
  8
DIM
  6
CONTINUOUS
100
AcDbTrace
 10
183.8108506039469
 20
188.8895277155827
 30
0.0
 11
184.6441839372802
 21
188.8895277155827
 31
0.0
 12
184.2275172706136
 22
191.3895277155827
 32
0.0
 13
184.2275172706136
 23
191.3895277155827
 33
0.0
  0
SOLID
  5
2A92
330
2A31
100
AcDbEntity
  8
DIM
  6
CONTINUOUS
100
AcDbTrace
 10
183.8108506039469
 20
149.1104721991128
 30
0.0
 11
184.6441839372802
 21
149.1104721991128
 31
0.0
 12
184.2275172706136
 22
146.6104721991128
 32
0.0
 13
184.2275172706136
 23
146.6104721991128
 33
0.0
  0
MTEXT
  5
2A93
330
2A31
100
AcDbEntity
  8
DIM
  6
CONTINUOUS
 62
     2
100
AcDbMText
 10
182.6834858927145
 20
168.9999999573862
 30
0.0
 40
1.8
 41
0.0
 71
     5
 72
     1
  1
44.8
  7
FINDER
 11
0.0000000000000001
 21
1.0
 31
0.0
1001
ACAD
1000
MTEXTBEGIN
1070
    73
1070
     1
1070
    44
1040
1.0
1070
    74
1070
     0
1000
MTEXTEND
  0
POINT
  5
2A94
330
2A31
100
AcDbEntity
  8
DEFPOINTS
  6
CONTINUOUS
 62
     0
100
AcDbPoint
 10
158.544811810894
 20
191.3895277155827
 30
0.0
  0
POINT
  5
2A95
330
2A31
100
AcDbEntity
  8
DEFPOINTS
  6
CONTINUOUS
 62
     0
100
AcDbPoint
 10
158.5448118110713
 20
146.6104721991128
 30
0.0
  0
POINT
  5
2A96
330
2A31
100
AcDbEntity
  8
DEFPOINTS
  6
CONTINUOUS
 62
     0
100
AcDbPoint
 10
184.2275172706136
 20
146.6104721991128
 30
0.0
  0
ENDBLK
  5
2A3C
330
2A31
100
AcDbEntity
  8
0
100
AcDbBlockEnd
  0
BLOCK
  5
2B36
330
2AA7
100
AcDbEntity
  8
0
100
AcDbBlockBegin
  2
*X6
 70
     1
 10
0.0
 20
0.0
 30
0.0
  3
*X6
  1

  0
LINE
  5
2AA8
330
2AA7
100
AcDbEntity
  8
0
  6
CONTINUOUS
 62
     0
100
AcDbLine
 10
14.98946714318631
 20
20.30887437873807
 30
0.0
 11
15.51619307571112
 21
20.83560031126288
 31
0.0
  0
LINE
  5
2AA9
330
2AA7
100
AcDbEntity
  8
0
  6
CONTINUOUS
 62
     0
100
AcDbLine
 10
14.11251745253288
 20
19.71476740477394
 30
0.0
 11
16.11030004967524
 21
21.7125500019163
 31
0.0
  0
LINE
  5
2AAA
330
2AA7
100
AcDbEntity
  8
0
  6
CONTINUOUS
 62
     0
100
AcDbLine
 10
13.59659465958662
 20
19.48168732851699
 30
0.0
 11
16.34338012593219
 21
22.22847279486256
 31
0.0
  0
LINE
  5
2AAB
330
2AA7
100
AcDbEntity
  8
0
  6
CONTINUOUS
 62
     0
100
AcDbLine
 10
13.1748939473581
 20
19.34282933297777
 30
0.0
 11
16.48223812147141
 21
22.65017350709108
 31
0.0
  0
LINE
  5
2AAC
330
2AA7
100
AcDbEntity
  8
0
  6
CONTINUOUS
 62
     0
100
AcDbLine
 10
12.80484418404001
 20
19.25562228634899
 30
0.0
 11
16.5694451681002
 21
23.02022327040917
 31
0.0
  0
LINE
  5
2AAD
330
2AA7
100
AcDbEntity
  8
0
  6
CONTINUOUS
 62
     0
100
AcDbLine
 10
14.79535208722197
 20
21.52897290622026
 30
0.0
 11
16.62213341977443
 21
23.35575423877271
 31
0.0
  0
LINE
  5
2AAE
330
2AA7
100
AcDbEntity
  8
0
  6
CONTINUOUS
 62
     0
100
AcDbLine
 10
12.46931321567648
 20
19.20293403467476
 30
0.0
 11
14.2960945904291
 21
21.02971540942739
 31
0.0
  0
LINE
  5
2AAF
330
2AA7
100
AcDbEntity
  8
0
  6
CONTINUOUS
 62
     0
100
AcDbLine
 10
15.29353583996729
 20
22.30999937565488
 30
0.0
 11
16.64927471651913
 21
23.66573825220672
 31
0.0
  0
LINE
  5
2AB0
330
2AA7
100
AcDbEntity
  8
0
  6
CONTINUOUS
 62
     0
100
AcDbLine
 10
12.15932920224247
 20
19.17579273793005
 30
0.0
 11
13.51506812099447
 21
20.53153165668206
 31
0.0
  0
LINE
  5
2AB1
330
2AA7
100
AcDbEntity
  8
0
  6
CONTINUOUS
 62
     0
100
AcDbLine
 10
15.47908751263477
 20
22.77839376501166
 30
0.0
 11
16.65627284793247
 21
23.95557910030935
 31
0.0
  0
LINE
  5
2AB2
330
2AA7
100
AcDbEntity
  8
0
  6
CONTINUOUS
 62
     0
100
AcDbLine
 10
11.86948835413983
 20
19.16879460651672
 30
0.0
 11
13.04667373163769
 21
20.34597998401458
 31
0.0
  0
LINE
  5
2AB3
330
2AA7
100
AcDbEntity
  8
0
  6
CONTINUOUS
 62
     0
100
AcDbLine
 10
15.58008243066611
 20
23.16223139973229
 30
0.0
 11
16.64668204742011
 21
24.2288310164863
 31
0.0
  0
LINE
  5
2AB4
330
2AA7
100
AcDbEntity
  8
0
  6
CONTINUOUS
 62
     0
100
AcDbLine
 10
11.59623643796288
 20
19.17838540702908
 30
0.0
 11
12.66283609691706
 21
20.24498506598324
 31
0.0
  0
LINE
  5
2AB5
330
2AA7
100
AcDbEntity
  8
0
  6
CONTINUOUS
 62
     0
100
AcDbLine
 10
12.65453085014504
 20
20.51952253590054
 30
0.0
 11
13.32322297621252
 21
21.18821466196801
 31
0.0
  0
LINE
  5
2AB6
330
2AA7
100
AcDbEntity
  8
0
  6
CONTINUOUS
 62
     0
100
AcDbLine
 10
15.63412492981957
 20
23.49911661557506
 30
0.0
 11
16.62298585552361
 21
24.48797754127911
 31
0.0
  0
LINE
  5
2AB7
330
2AA7
100
AcDbEntity
  8
0
  6
CONTINUOUS
 62
     0
100
AcDbLine
 10
11.33708991317008
 20
19.20208159892557
 30
0.0
 11
12.32595088107429
 21
20.19094256682979
 31
0.0
  0
LINE
  5
2AB8
330
2AA7
100
AcDbEntity
  8
0
  6
CONTINUOUS
 62
     0
100
AcDbLine
 10
12.40434667647494
 20
20.55218107891974
 30
0.0
 11
13.32322297621251
 21
21.47105737865731
 31
0.0
  0
LINE
  5
2AB9
330
2AA7
100
AcDbEntity
  8
0
  6
CONTINUOUS
 62
     0
100
AcDbLine
 10
15.65642462945329
 20
23.80425903189809
 30
0.0
 11
16.5869974570198
 21
24.7348318594646
 31
0.0
  0
LINE
  5
2ABA
330
2AA7
100
AcDbEntity
  8
0
  6
CONTINUOUS
 62
     0
100
AcDbLine
 10
11.09023559498458
 20
19.23806999742937
 30
0.0
 11
12.02080846475126
 21
20.16864286719606
 31
0.0
  0
LINE
  5
2ABB
330
2AA7
100
AcDbEntity
  8
0
  6
CONTINUOUS
 62
     0
100
AcDbLine
 10
12.21255257375408
 20
20.64322969288818
 30
0.0
 11
13.3232229762125
 21
21.7539000953466
 31
0.0
  0
LINE
  5
2ABC
330
2AA7
100
AcDbEntity
  8
0
  6
CONTINUOUS
 62
     0
100
AcDbLine
 10
15.65496140644842
 20
24.08563852558253
 30
0.0
 11
16.54008480751749
 21
24.97076192665159
 31
0.0
  0
LINE
  5
2ABD
330
2AA7
100
AcDbEntity
  8
0
  6
CONTINUOUS
 62
     0
100
AcDbLine
 10
10.8543055277976
 20
19.2849826469317
 30
0.0
 11
11.73942897106682
 21
20.17010609020093
 31
0.0
  0
LINE
  5
2ABE
330
2AA7
100
AcDbEntity
  8
0
  6
CONTINUOUS
 62
     0
100
AcDbLine
 10
12.06321284180218
 20
20.77673267762559
 30
0.0
 11
13.32322297621251
 21
22.03674281203592
 31
0.0
  0
LINE
  5
2ABF
330
2AA7
100
AcDbEntity
  8
0
  6
CONTINUOUS
 62
     0
100
AcDbLine
 10
15.6345405082318
 20
24.34806034405521
 30
0.0
 11
16.48330609191417
 21
25.19682592773758
 31
0.0
  0
LINE
  5
2AC0
330
2AA7
100
AcDbEntity
  8
0
  6
CONTINUOUS
 62
     0
100
AcDbLine
 10
10.62824152671161
 20
19.34176136253502
 30
0.0
 11
11.47700715259414
 21
20.19052698841755
 31
0.0
  0
LINE
  5
2AC1
330
2AA7
100
AcDbEntity
  8
0
  6
CONTINUOUS
 62
     0
100
AcDbLine
 10
11.92044664236979
 20
20.91680919488251
 30
0.0
 11
13.32322297621251
 21
22.31958552872522
 31
0.0
  0
LINE
  5
2AC2
330
2AA7
100
AcDbEntity
  8
0
  6
CONTINUOUS
 62
     0
100
AcDbLine
 10
15.59831520922672
 20
24.59467776173942
 30
0.0
 11
16.41749564198165
 21
25.41385819449436
 31
0.0
  0
LINE
  5
2AC3
330
2AA7
100
AcDbEntity
  8
0
  6
CONTINUOUS
 62
     0
100
AcDbLine
 10
10.41120925995482
 20
19.40757181246754
 30
0.0
 11
11.23038973490992
 21
20.22675228742263
 31
0.0
  0
LINE
  5
2AC4
330
2AA7
100
AcDbEntity
  8
0
  6
CONTINUOUS
 62
     0
100
AcDbLine
 10
11.77768044293741
 20
21.05688571213943
 30
0.0
 11
13.32322297621251
 21
22.60242824541453
 31
0.0
  0
LINE
  5
2AC5
330
2AA7
100
AcDbEntity
  8
0
  6
CONTINUOUS
 62
     0
100
AcDbLine
 10
15.54847842647961
 20
24.82768369568162
 30
0.0
 11
16.34332077222384
 21
25.62252604142585
 31
0.0
  0
LINE
  5
2AC6
330
2AA7
100
AcDbEntity
  8
0
  6
CONTINUOUS
 62
     0
100
AcDbLine
 10
10.20254141302334
 20
19.48174668222535
 30
0.0
 11
10.99738380096773
 21
20.27658907016975
 31
0.0
  0
LINE
  5
2AC7
330
2AA7
100
AcDbEntity
  8
0
  6
CONTINUOUS
 62
     0
100
AcDbLine
 10
12.36292297621249
 20
21.92497096210381
 30
0.0
 11
13.32322297621251
 21
22.88527096210383
 31
0.0
  0
LINE
  5
2AC8
330
2AA7
100
AcDbEntity
  8
0
  6
CONTINUOUS
 62
     0
100
AcDbLine
 10
11.63491424350503
 20
21.19696222939635
 30
0.0
 11
12.30787686507163
 21
21.86992485096295
 31
0.0
  0
LINE
  5
2AC9
330
2AA7
100
AcDbEntity
  8
0
  6
CONTINUOUS
 62
     0
100
AcDbLine
 10
15.48661865024844
 20
25.04866663613976
 30
0.0
 11
16.26132067781356
 21
25.82336866370488
 31
0.0
  0
LINE
  5
2ACA
330
2AA7
100
AcDbEntity
  8
0
  6
CONTINUOUS
 62
     0
100
AcDbLine
 10
10.00169879074431
 20
19.56374677663563
 30
0.0
 11
10.77640086050959
 21
20.33844884640091
 31
0.0
  0
LINE
  5
2ACB
330
2AA7
100
AcDbEntity
  8
0
  6
CONTINUOUS
 62
     0
100
AcDbLine
 10
12.36292297621249
 20
22.20781367879312
 30
0.0
 11
13.32322297621252
 21
23.16811367879314
 31
0.0
  0
LINE
  5
2ACC
330
2AA7
100
AcDbEntity
  8
0
  6
CONTINUOUS
 62
     0
100
AcDbLine
 10
11.49214804407264
 20
21.33703874665326
 30
0.0
 11
12.17222822932802
 21
22.01711893190865
 31
0.0
  0
LINE
  5
2ACD
330
2AA7
100
AcDbEntity
  8
0
  6
CONTINUOUS
 62
     0
100
AcDbLine
 10
15.41392012378507
 20
25.25881082636569
 30
0.0
 11
16.17193379938753
 21
26.01682450196816
 31
0.0
  0
LINE
  5
2ACE
330
2AA7
100
AcDbEntity
  8
0
  6
CONTINUOUS
 62
     0
100
AcDbLine
 10
9.80824295248103
 20
19.65313365506165
 30
0.0
 11
10.56625667028367
 21
20.41114737286429
 31
0.0
  0
LINE
  5
2ACF
330
2AA7
100
AcDbEntity
  8
0
  6
CONTINUOUS
 62
     0
100
AcDbLine
 10
12.36292297621249
 20
22.49065639548241
 30
0.0
 11
13.32322297621252
 21
23.45095639548244
 31
0.0
  0
LINE
  5
2AD0
330
2AA7
100
AcDbEntity
  8
0
  6
CONTINUOUS
 62
     0
100
AcDbLine
 10
14.38066018784676
 20
24.50839360711668
 30
0.0
 11
14.90394340251921
 21
25.03167682178913
 31
0.0
  0
LINE
  5
2AD1
330
2AA7
100
AcDbEntity
  8
0
  6
CONTINUOUS
 62
     0
100
AcDbLine
 10
11.34938184464026
 20
21.47711526391019
 30
0.0
 11
12.03657959358442
 21
22.16431301285435
 31
0.0
  0
LINE
  5
2AD2
330
2AA7
100
AcDbEntity
  8
0
  6
CONTINUOUS
 62
     0
100
AcDbLine
 10
15.33128311277797
 20
25.4590165320479
 30
0.0
 11
16.07551750282127
 21
26.20325092209119
 31
0.0
  0
LINE
  5
2AD3
330
2AA7
100
AcDbEntity
  8
0
  6
CONTINUOUS
 62
     0
100
AcDbLine
 10
9.621816532358003
 20
19.74954995162792
 30
0.0
 11
10.36605096460146
 21
20.49378438387138
 31
0.0
  0
LINE
  5
2AD4
330
2AA7
100
AcDbEntity
  8
0
  6
CONTINUOUS
 62
     0
100
AcDbLine
 10
12.36292297621249
 20
22.77349911217172
 30
0.0
 11
13.32322297621252
 21
23.73379911217174
 31
0.0
  0
LINE
  5
2AD5
330
2AA7
100
AcDbEntity
  8
0
  6
CONTINUOUS
 62
     0
100
AcDbLine
 10
14.09781747115746
 20
24.50839360711668
 30
0.0
 11
14.84041341550277
 21
25.250989551462
 31
0.0
  0
LINE
  5
2AD6
330
2AA7
100
AcDbEntity
  8
0
  6
CONTINUOUS
 62
     0
100
AcDbLine
 10
11.20661564520789
 20
21.61719178116711
 30
0.0
 11
11.90093095784082
 21
22.31150709380004
 31
0.0
  0
LINE
  5
2AD7
330
2AA7
100
AcDbEntity
  8
0
  6
CONTINUOUS
 62
     0
100
AcDbLine
 10
15.23939988217547
 20
25.6499760181347
 30
0.0
 11
15.97236247310275
 21
26.38293860906198
 31
0.0
  0
LINE
  5
2AD8
330
2AA7
100
AcDbEntity
  8
0
  6
CONTINUOUS
 62
     0
100
AcDbLine
 10
9.442128845387209
 20
19.85270498134644
 30
0.0
 11
10.17509147851465
 21
20.58566761447388
 31
0.0
  0
LINE
  5
2AD9
330
2AA7
100
AcDbEntity
  8
0
  6
CONTINUOUS
 62
     0
100
AcDbLine
 10
12.36292297621248
 20
23.05634182886102
 30
0.0
 11
13.3232229762125
 21
24.01664182886104
 31
0.0
  0
LINE
  5
2ADA
330
2AA7
100
AcDbEntity
  8
0
  6
CONTINUOUS
 62
     0
100
AcDbLine
 10
13.81497475446815
 20
24.50839360711669
 30
0.0
 11
14.70908708311424
 21
25.40250593576278
 31
0.0
  0
LINE
  5
2ADB
330
2AA7
100
AcDbEntity
  8
0
  6
CONTINUOUS
 62
     0
100
AcDbLine
 10
11.06384944577548
 20
21.75726829842403
 30
0.0
 11
11.7652823220972
 21
22.45870117474574
 31
0.0
  0
LINE
  5
2ADC
330
2AA7
100
AcDbEntity
  8
0
  6
CONTINUOUS
 62
     0
100
AcDbLine
 10
15.1388045456285
 20
25.83222339827704
 30
0.0
 11
15.8627033646577
 21
26.55612221730624
 31
0.0
  0
LINE
  5
2ADD
330
2AA7
100
AcDbEntity
  8
0
  6
CONTINUOUS
 62
     0
100
AcDbLine
 10
9.268945237142943
 20
19.96236408979148
 30
0.0
 11
9.992844098372309
 21
20.68626295102084
 31
0.0
  0
LINE
  5
2ADE
330
2AA7
100
AcDbEntity
  8
0
  6
CONTINUOUS
 62
     0
100
AcDbLine
 10
12.36292297621248
 20
23.33918454555032
 30
0.0
 11
13.3232229762125
 21
24.29948454555034
 31
0.0
  0
LINE
  5
2ADF
330
2AA7
100
AcDbEntity
  8
0
  6
CONTINUOUS
 62
     0
100
AcDbLine
 10
13.53213203777884
 20
24.50839360711669
 30
0.0
 11
14.51689263385999
 21
25.49315420319783
 31
0.0
  0
LINE
  5
2AE0
330
2AA7
100
AcDbEntity
  8
0
  6
CONTINUOUS
 62
     0
100
AcDbLine
 10
10.9210832463431
 20
21.89734481568094
 30
0.0
 11
11.6296336863536
 21
22.60589525569145
 31
0.0
  0
LINE
  5
2AE1
330
2AA7
100
AcDbEntity
  8
0
  6
CONTINUOUS
 62
     0
100
AcDbLine
 10
15.02990666914595
 20
26.00616823848379
 30
0.0
 11
15.74672672460261
 21
26.72298829394045
 31
0.0
  0
LINE
  5
2AE2
330
2AA7
100
AcDbEntity
  8
0
  6
CONTINUOUS
 62
     0
100
AcDbLine
 10
9.102079160508736
 20
20.07834072984657
 30
0.0
 11
9.818899258165565
 21
20.7951608275034
 31
0.0
  0
LINE
  5
2AE3
330
2AA7
100
AcDbEntity
  8
0
  6
CONTINUOUS
 62
     0
100
AcDbLine
 10
12.36292297621248
 20
23.62202726223963
 30
0.0
 11
14.24423932108955
 21
25.50334360711669
 31
0.0
  0
LINE
  5
2AE4
330
2AA7
100
AcDbEntity
  8
0
  6
CONTINUOUS
 62
     0
100
AcDbLine
 10
10.77831704691072
 20
22.03742133293787
 30
0.0
 11
11.49398505061
 21
22.75308933663715
 31
0.0
  0
LINE
  5
2AE5
330
2AA7
100
AcDbEntity
  8
0
  6
CONTINUOUS
 62
     0
100
AcDbLine
 10
14.91301428310674
 20
26.17211856913388
 30
0.0
 11
15.62457687138681
 21
26.88368115741396
 31
0.0
  0
LINE
  5
2AE6
330
2AA7
100
AcDbEntity
  8
0
  6
CONTINUOUS
 62
     0
100
AcDbLine
 10
8.941386297035229
 20
20.20049058306237
 30
0.0
 11
9.652948927515474
 21
20.91205321354261
 31
0.0
  0
LINE
  5
2AE7
330
2AA7
100
AcDbEntity
  8
0
  6
CONTINUOUS
 62
     0
100
AcDbLine
 10
12.36292297621248
 20
23.90486997892894
 30
0.0
 11
13.96139660440025
 21
25.50334360711669
 31
0.0
  0
LINE
  5
2AE8
330
2AA7
100
AcDbEntity
  8
0
  6
CONTINUOUS
 62
     0
100
AcDbLine
 10
10.63555084747833
 20
22.17749785019477
 30
0.0
 11
11.3583364148664
 21
22.90028341758284
 31
0.0
  0
LINE
  5
2AE9
330
2AA7
100
AcDbEntity
  8
0
  6
CONTINUOUS
 62
     0
100
AcDbLine
 10
14.7883496628495
 20
26.33029666556595
 30
0.0
 11
15.49636019197527
 21
27.03830719469171
 31
0.0
  0
LINE
  5
2AEA
330
2AA7
100
AcDbEntity
  8
0
  6
CONTINUOUS
 62
     0
100
AcDbLine
 10
8.786760259757475
 20
20.32870726247392
 30
0.0
 11
9.494770831083407
 21
21.03671783379985
 31
0.0
  0
LINE
  5
2AEB
330
2AA7
100
AcDbEntity
  8
0
  6
CONTINUOUS
 62
     0
100
AcDbLine
 10
12.36292297621249
 20
24.18771269561824
 30
0.0
 11
13.67855388771094
 21
25.50334360711669
 31
0.0
  0
LINE
  5
2AEC
330
2AA7
100
AcDbEntity
  8
0
  6
CONTINUOUS
 62
     0
100
AcDbLine
 10
10.49278464804595
 20
22.31757436745171
 30
0.0
 11
11.22268777912279
 21
23.04747749852853
 31
0.0
  0
LINE
  5
2AED
330
2AA7
100
AcDbEntity
  8
0
  6
CONTINUOUS
 62
     0
100
AcDbLine
 10
14.65605992219868
 20
26.48084964160442
 30
0.0
 11
15.36214817160475
 21
27.1869378910105
 31
0.0
  0
LINE
  5
2AEE
330
2AA7
100
AcDbEntity
  8
0
  6
CONTINUOUS
 62
     0
100
AcDbLine
 10
8.638129563438688
 20
20.46291928284443
 30
0.0
 11
9.344217855044931
 21
21.16900757445067
 31
0.0
  0
LINE
  5
2AEF
330
2AA7
100
AcDbEntity
  8
0
  6
CONTINUOUS
 62
     0
100
AcDbLine
 10
12.36292297621249
 20
24.47055541230755
 30
0.0
 11
13.39571117102164
 21
25.50334360711669
 31
0.0
  0
LINE
  5
2AF0
330
2AA7
100
AcDbEntity
  8
0
  6
CONTINUOUS
 62
     0
100
AcDbLine
 10
10.35001844861356
 20
22.45765088470862
 30
0.0
 11
11.08703914337918
 21
23.19467157947423
 31
0.0
  0
LINE
  5
2AF1
330
2AA7
100
AcDbEntity
  8
0
  6
CONTINUOUS
 62
     0
100
AcDbLine
 10
14.51622366572999
 20
26.62385610182504
 30
0.0
 11
15.22197936453198
 21
27.32961180062705
 31
0.0
  0
LINE
  5
2AF2
330
2AA7
100
AcDbEntity
  8
0
  6
CONTINUOUS
 62
     0
100
AcDbLine
 10
8.495455653822148
 20
20.6030880899172
 30
0.0
 11
9.201211394824305
 21
21.30884383091936
 31
0.0
  0
LINE
  5
2AF3
330
2AA7
100
AcDbEntity
  8
0
  6
CONTINUOUS
 62
     0
100
AcDbLine
 10
11.02036845433233
 20
23.41084360711668
 30
0.0
 11
11.41387297621249
 21
23.80434812899685
 31
0.0
  0
LINE
  5
2AF4
330
2AA7
100
AcDbEntity
  8
0
  6
CONTINUOUS
 62
     0
100
AcDbLine
 10
12.36292297621249
 20
24.75339812899685
 30
0.0
 11
13.32322297621252
 21
25.71369812899687
 31
0.0
  0
LINE
  5
2AF5
330
2AA7
100
AcDbEntity
  8
0
  6
CONTINUOUS
 62
     0
100
AcDbLine
 10
10.20725224918118
 20
22.59772740196554
 30
0.0
 11
10.95139050763558
 21
23.34186566041994
 31
0.0
  0
LINE
  5
2AF6
330
2AA7
100
AcDbEntity
  8
0
  6
CONTINUOUS
 62
     0
100
AcDbLine
 10
14.36885442740246
 20
26.75932958018681
 30
0.0
 11
15.07586043537989
 21
27.46633558816425
 31
0.0
  0
LINE
  5
2AF7
330
2AA7
100
AcDbEntity
  8
0
  6
CONTINUOUS
 62
     0
100
AcDbLine
 10
8.358731866284948
 20
20.7492070190693
 30
0.0
 11
9.065737916462545
 21
21.45621306924689
 31
0.0
  0
LINE
  5
2AF8
330
2AA7
100
AcDbEntity
  8
0
  6
CONTINUOUS
 62
     0
100
AcDbLine
 10
12.36292297621249
 20
25.03624084568615
 30
0.0
 11
13.32322297621252
 21
25.99654084568618
 31
0.0
  0
LINE
  5
2AF9
330
2AA7
100
AcDbEntity
  8
0
  6
CONTINUOUS
 62
     0
100
AcDbLine
 10
10.0644860497488
 20
22.73780391922245
 30
0.0
 11
11.41387297621249
 21
24.08719084568616
 31
0.0
  0
LINE
  5
2AFA
330
2AA7
100
AcDbEntity
  8
0
  6
CONTINUOUS
 62
     0
100
AcDbLine
 10
14.21390125453573
 20
26.88721912400939
 30
0.0
 11
14.92376633762453
 21
27.59708420709819
 31
0.0
  0
LINE
  5
2AFB
330
2AA7
100
AcDbEntity
  8
0
  6
CONTINUOUS
 62
     0
100
AcDbLine
 10
8.227983247350998
 20
20.90130111682465
 30
0.0
 11
8.937848372639969
 21
21.61116624211362
 31
0.0
  0
LINE
  5
2AFC
330
2AA7
100
AcDbEntity
  8
0
  6
CONTINUOUS
 62
     0
100
AcDbLine
 10
12.36292297621249
 20
25.31908356237545
 30
0.0
 11
13.3232229762125
 21
26.27938356237547
 31
0.0
  0
LINE
  5
2AFD
330
2AA7
100
AcDbEntity
  8
0
  6
CONTINUOUS
 62
     0
100
AcDbLine
 10
9.921719850316421
 20
22.87788043647938
 30
0.0
 11
11.41387297621249
 21
24.37003356237546
 31
0.0
  0
LINE
  5
2AFE
330
2AA7
100
AcDbEntity
  8
0
  6
CONTINUOUS
 62
     0
100
AcDbLine
 10
14.05124649691411
 20
27.00740708307707
 30
0.0
 11
14.76563964049162
 21
27.72180022665458
 31
0.0
  0
LINE
  5
2AFF
330
2AA7
100
AcDbEntity
  8
0
  6
CONTINUOUS
 62
     0
100
AcDbLine
 10
8.10326722779461
 20
21.05942781395757
 30
0.0
 11
8.817660413572284
 21
21.77382099973524
 31
0.0
  0
LINE
  5
2B00
330
2AA7
100
AcDbEntity
  8
0
  6
CONTINUOUS
 62
     0
100
AcDbLine
 10
12.36292297621248
 20
25.60192627906475
 30
0.0
 11
13.3232229762125
 21
26.56222627906478
 31
0.0
  0
LINE
  5
2B01
330
2AA7
100
AcDbEntity
  8
0
  6
CONTINUOUS
 62
     0
100
AcDbLine
 10
9.778953650884027
 20
23.0179569537363
 30
0.0
 11
11.41387297621249
 21
24.65287627906477
 31
0.0
  0
LINE
  5
2B02
330
2AA7
100
AcDbEntity
  8
0
  6
CONTINUOUS
 62
     0
100
AcDbLine
 10
13.88070057287115
 20
27.11970387572343
 30
0.0
 11
14.6013889615565
 21
27.84039226440878
 31
0.0
  0
LINE
  5
2B03
330
2AA7
100
AcDbEntity
  8
0
  6
CONTINUOUS
 62
     0
100
AcDbLine
 10
7.984675190040405
 20
21.22367849289268
 30
0.0
 11
8.705363620925929
 21
21.9443669237782
 31
0.0
  0
LINE
  5
2B04
330
2AA7
100
AcDbEntity
  8
0
  6
CONTINUOUS
 62
     0
100
AcDbLine
 10
12.36292297621249
 20
25.88476899575407
 30
0.0
 11
13.32322297621251
 21
26.84506899575408
 31
0.0
  0
LINE
  5
2B05
330
2AA7
100
AcDbEntity
  8
0
  6
CONTINUOUS
 62
     0
100
AcDbLine
 10
9.636187451451647
 20
23.15803347099322
 30
0.0
 11
11.41387297621249
 21
24.93571899575407
 31
0.0
  0
LINE
  5
2B06
330
2AA7
100
AcDbEntity
  8
0
  6
CONTINUOUS
 62
     0
100
AcDbLine
 10
13.70199315281168
 20
27.22383917235326
 30
0.0
 11
14.43088640341356
 21
27.95273242295513
 31
0.0
  0
LINE
  5
2B07
330
2AA7
100
AcDbEntity
  8
0
  6
CONTINUOUS
 62
     0
100
AcDbLine
 10
7.87233503149406
 20
21.39418105103563
 30
0.0
 11
8.601228324296094
 21
22.12307434383766
 31
0.0
  0
LINE
  5
2B08
330
2AA7
100
AcDbEntity
  8
0
  6
CONTINUOUS
 62
     0
100
AcDbLine
 10
12.36292297621248
 20
26.16761171244336
 30
0.0
 11
13.32322297621251
 21
27.12791171244338
 31
0.0
  0
LINE
  5
2B09
330
2AA7
100
AcDbEntity
  8
0
  6
CONTINUOUS
 62
     0
100
AcDbLine
 10
9.49342125201926
 20
23.29810998825013
 30
0.0
 11
11.41387297621249
 21
25.21856171244337
 31
0.0
  0
LINE
  5
2B0A
330
2AA7
100
AcDbEntity
  8
0
  6
CONTINUOUS
 62
     0
100
AcDbLine
 10
13.51475975757465
 20
27.31944849380552
 30
0.0
 11
14.25396382172501
 21
28.05865255795589
 31
0.0
  0
LINE
  5
2B0B
330
2AA7
100
AcDbEntity
  8
0
  6
CONTINUOUS
 62
     0
100
AcDbLine
 10
7.766414896493301
 20
21.57110363272417
 30
0.0
 11
8.505619002843829
 21
22.3103077390747
 31
0.0
  0
LINE
  5
2B0C
330
2AA7
100
AcDbEntity
  8
0
  6
CONTINUOUS
 62
     0
100
AcDbLine
 10
10.46482297621248
 20
24.55235442913267
 30
0.0
 11
11.4138729762125
 21
25.50140442913268
 31
0.0
  0
LINE
  5
2B0D
330
2AA7
100
AcDbEntity
  8
0
  6
CONTINUOUS
 62
     0
100
AcDbLine
 10
9.323312154196514
 20
23.41084360711669
 30
0.0
 11
10.3412121541965
 21
24.42874360711669
 31
0.0
  0
LINE
  5
2B0E
330
2AA7
100
AcDbEntity
  8
0
  6
CONTINUOUS
 62
     0
100
AcDbLine
 10
12.36292297621249
 20
26.45045442913267
 30
0.0
 11
14.07040765927055
 21
28.15793911219072
 31
0.0
  0
LINE
  5
2B0F
330
2AA7
100
AcDbEntity
  8
0
  6
CONTINUOUS
 62
     0
100
AcDbLine
 10
7.667128342258457
 20
21.75465979517864
 30
0.0
 11
8.419013934164127
 21
22.5065453870843
 31
0.0
  0
LINE
  5
2B10
330
2AA7
100
AcDbEntity
  8
0
  6
CONTINUOUS
 62
     0
100
AcDbLine
 10
10.46482297621248
 20
24.83519714582197
 30
0.0
 11
11.41387297621249
 21
25.78424714582197
 31
0.0
  0
LINE
  5
2B11
330
2AA7
100
AcDbEntity
  8
0
  6
CONTINUOUS
 62
     0
100
AcDbLine
 10
9.040469437507212
 20
23.41084360711669
 30
0.0
 11
10.0583694375072
 21
24.42874360711668
 31
0.0
  0
LINE
  5
2B12
330
2AA7
100
AcDbEntity
  8
0
  6
CONTINUOUS
 62
     0
100
AcDbLine
 10
12.36292297621249
 20
26.73329714582197
 30
0.0
 11
13.87995195237009
 21
28.25032612197958
 31
0.0
  0
LINE
  5
2B13
330
2AA7
100
AcDbEntity
  8
0
  6
CONTINUOUS
 62
     0
100
AcDbLine
 10
7.574741332469606
 20
21.94511550207908
 30
0.0
 11
8.342033811074408
 21
22.71240798068388
 31
0.0
  0
LINE
  5
2B14
330
2AA7
100
AcDbEntity
  8
0
  6
CONTINUOUS
 62
     0
100
AcDbLine
 10
10.46482297621248
 20
25.11803986251127
 30
0.0
 11
11.41387297621249
 21
26.06708986251128
 31
0.0
  0
LINE
  5
2B15
330
2AA7
100
AcDbEntity
  8
0
  6
CONTINUOUS
 62
     0
100
AcDbLine
 10
8.75762672081791
 20
23.41084360711669
 30
0.0
 11
9.7755267208179
 21
24.42874360711668
 31
0.0
  0
LINE
  5
2B16
330
2AA7
100
AcDbEntity
  8
0
  6
CONTINUOUS
 62
     0
100
AcDbLine
 10
12.36292297621249
 20
27.01613986251128
 30
0.0
 11
13.6822689304656
 21
28.33548581676439
 31
0.0
  0
LINE
  5
2B17
330
2AA7
100
AcDbEntity
  8
0
  6
CONTINUOUS
 62
     0
100
AcDbLine
 10
7.4895816376848
 20
22.14279852398358
 30
0.0
 11
8.275483850239361
 21
22.92870073653814
 31
0.0
  0
LINE
  5
2B18
330
2AA7
100
AcDbEntity
  8
0
  6
CONTINUOUS
 62
     0
100
AcDbLine
 10
10.46482297621249
 20
25.40088257920058
 30
0.0
 11
11.41387297621249
 21
26.34993257920058
 31
0.0
  0
LINE
  5
2B19
330
2AA7
100
AcDbEntity
  8
0
  6
CONTINUOUS
 62
     0
100
AcDbLine
 10
8.474784004128608
 20
23.41084360711669
 30
0.0
 11
9.492684004128598
 21
24.42874360711668
 31
0.0
  0
LINE
  5
2B1A
330
2AA7
100
AcDbEntity
  8
0
  6
CONTINUOUS
 62
     0
100
AcDbLine
 10
12.36292297621249
 20
27.29898257920058
 30
0.0
 11
13.47695635100713
 21
28.41301595399523
 31
0.0
  0
LINE
  5
2B1B
330
2AA7
100
AcDbEntity
  8
0
  6
CONTINUOUS
 62
     0
100
AcDbLine
 10
7.412051500453969
 20
22.34811110344205
 30
0.0
 11
8.220417161622158
 21
23.15647676461024
 31
0.0
  0
LINE
  5
2B1C
330
2AA7
100
AcDbEntity
  8
0
  6
CONTINUOUS
 62
     0
100
AcDbLine
 10
10.46482297621249
 20
25.68372529588988
 30
0.0
 11
11.41387297621249
 21
26.63277529588989
 31
0.0
  0
LINE
  5
2B1D
330
2AA7
100
AcDbEntity
  8
0
  6
CONTINUOUS
 62
     0
100
AcDbLine
 10
8.191941287439298
 20
23.41084360711668
 30
0.0
 11
9.209841287439296
 21
24.42874360711668
 31
0.0
  0
LINE
  5
2B1E
330
2AA7
100
AcDbEntity
  8
0
  6
CONTINUOUS
 62
     0
100
AcDbLine
 10
12.36292297621249
 20
27.58182529588988
 30
0.0
 11
13.26352027917741
 21
28.4824225988548
 31
0.0
  0
LINE
  5
2B1F
330
2AA7
100
AcDbEntity
  8
0
  6
CONTINUOUS
 62
     0
100
AcDbLine
 10
7.342644855594386
 20
22.56154717527177
 30
0.0
 11
8.178233337739143
 21
23.39713565741653
 31
0.0
  0
LINE
  5
2B20
330
2AA7
100
AcDbEntity
  8
0
  6
CONTINUOUS
 62
     0
100
AcDbLine
 10
10.46482297621249
 20
25.96656801257918
 30
0.0
 11
11.4138729762125
 21
26.91561801257919
 31
0.0
  0
LINE
  5
2B21
330
2AA7
100
AcDbEntity
  8
0
  6
CONTINUOUS
 62
     0
100
AcDbLine
 10
12.17248361102626
 20
27.67422864739295
 30
0.0
 11
13.0413513274458
 21
28.54309636381249
 31
0.0
  0
LINE
  5
2B22
330
2AA7
100
AcDbEntity
  8
0
  6
CONTINUOUS
 62
     0
100
AcDbLine
 10
7.281971090636695
 20
22.78371612700339
 30
0.0
 11
8.926998570749994
 21
24.42874360711668
 31
0.0
  0
LINE
  5
2B23
330
2AA7
100
AcDbEntity
  8
0
  6
CONTINUOUS
 62
     0
100
AcDbLine
 10
10.46482297621248
 20
26.24941072926849
 30
0.0
 11
11.41387297621249
 21
27.1984607292685
 31
0.0
  0
LINE
  5
2B24
330
2AA7
100
AcDbEntity
  8
0
  6
CONTINUOUS
 62
     0
100
AcDbLine
 10
11.89955595892624
 20
27.68414371198225
 30
0.0
 11
12.80969121422386
 21
28.59427896727986
 31
0.0
  0
LINE
  5
2B25
330
2AA7
100
AcDbEntity
  8
0
  6
CONTINUOUS
 62
     0
100
AcDbLine
 10
7.23078848716932
 20
23.01537624022532
 30
0.0
 11
8.644155854060684
 21
24.42874360711669
 31
0.0
  0
LINE
  5
2B26
330
2AA7
100
AcDbEntity
  8
0
  6
CONTINUOUS
 62
     0
100
AcDbLine
 10
10.46482297621249
 20
26.5322534459578
 30
0.0
 11
11.41387297621249
 21
27.4813034459578
 31
0.0
  0
LINE
  5
2B27
330
2AA7
100
AcDbEntity
  8
0
  6
CONTINUOUS
 62
     0
100
AcDbLine
 10
11.60515893817368
 20
27.67258940791899
 30
0.0
 11
12.56758449922934
 21
28.63501496897464
 31
0.0
  0
LINE
  5
2B28
330
2AA7
100
AcDbEntity
  8
0
  6
CONTINUOUS
 62
     0
100
AcDbLine
 10
7.190052485474545
 20
23.25748295521985
 30
0.0
 11
8.361313137371382
 21
24.42874360711669
 31
0.0
  0
LINE
  5
2B29
330
2AA7
100
AcDbEntity
  8
0
  6
CONTINUOUS
 62
     0
100
AcDbLine
 10
10.46482297621249
 20
26.8150961626471
 30
0.0
 11
12.3138067227184
 21
28.66407990915301
 31
0.0
  0
LINE
  5
2B2A
330
2AA7
100
AcDbEntity
  8
0
  6
CONTINUOUS
 62
     0
100
AcDbLine
 10
7.160987545296173
 20
23.51126073173078
 30
0.0
 11
8.191863730195372
 21
24.54213691662998
 31
0.0
  0
LINE
  5
2B2B
330
2AA7
100
AcDbEntity
  8
0
  6
CONTINUOUS
 62
     0
100
AcDbLine
 10
10.46482297621249
 20
27.0979388793364
 30
0.0
 11
12.04675322306042
 21
28.67986912618434
 31
0.0
  0
LINE
  5
2B2C
330
2AA7
100
AcDbEntity
  8
0
  6
CONTINUOUS
 62
     0
100
AcDbLine
 10
7.145198328264847
 20
23.77831423138875
 30
0.0
 11
8.270420866999273
 21
24.90353677012318
 31
0.0
  0
LINE
  5
2B2D
330
2AA7
100
AcDbEntity
  8
0
  6
CONTINUOUS
 62
     0
100
AcDbLine
 10
10.46482297621249
 20
27.3807815960257
 30
0.0
 11
11.76425868915726
 21
28.68021730897048
 31
0.0
  0
LINE
  5
2B2E
330
2AA7
100
AcDbEntity
  8
0
  6
CONTINUOUS
 62
     0
100
AcDbLine
 10
7.144850145478706
 20
24.06080876529192
 30
0.0
 11
8.412672403383361
 21
25.32863102319658
 31
0.0
  0
LINE
  5
2B2F
330
2AA7
100
AcDbEntity
  8
0
  6
CONTINUOUS
 62
     0
100
AcDbLine
 10
9.9246398068098
 20
27.12344114331232
 30
0.0
 11
11.46328597187034
 21
28.66208730837286
 31
0.0
  0
LINE
  5
2B30
330
2AA7
100
AcDbEntity
  8
0
  6
CONTINUOUS
 62
     0
100
AcDbLine
 10
7.162980146076328
 20
24.36178148257885
 30
0.0
 11
8.701626353337033
 21
25.90042768983956
 31
0.0
  0
LINE
  5
2B31
330
2AA7
100
AcDbEntity
  8
0
  6
CONTINUOUS
 62
     0
100
AcDbLine
 10
7.204078281230074
 20
24.6857223344219
 30
0.0
 11
11.1393451200273
 21
28.62098917321912
 31
0.0
  0
LINE
  5
2B32
330
2AA7
100
AcDbEntity
  8
0
  6
CONTINUOUS
 62
     0
100
AcDbLine
 10
7.27529604137107
 20
25.03978281125219
 30
0.0
 11
10.78528464319699
 21
28.54977141307812
 31
0.0
  0
LINE
  5
2B33
330
2AA7
100
AcDbEntity
  8
0
  6
CONTINUOUS
 62
     0
100
AcDbLine
 10
7.38939283603053
 20
25.43672232260095
 30
0.0
 11
10.38834513184824
 21
28.43567461841866
 31
0.0
  0
LINE
  5
2B34
330
2AA7
100
AcDbEntity
  8
0
  6
CONTINUOUS
 62
     0
100
AcDbLine
 10
7.574054068911337
 20
25.90422627217108
 30
0.0
 11
9.92084118227811
 21
28.25101338553785
 31
0.0
  0
LINE
  5
2B35
330
2AA7
100
AcDbEntity
  8
0
  6
CONTINUOUS
 62
     0
100
AcDbLine
 10
7.923914723298132
 20
26.53692964324717
 30
0.0
 11
9.288137811202012
 21
27.90115273115106
 31
0.0
  0
ENDBLK
  5
2B37
330
2AA7
100
AcDbEntity
  8
0
100
AcDbBlockEnd
  0
BLOCK
  5
2B56
330
2B38
100
AcDbEntity
  8
0
100
AcDbBlockBegin
  2
*X7
 70
     1
 10
0.0
 20
0.0
 30
0.0
  3
*X7
  1

  0
LINE
  5
2B39
330
2B38
100
AcDbEntity
  8
0
  6
CONTINUOUS
 62
     0
100
AcDbLine
 10
20.40385527197239
 20
20.63209360711668
 30
0.0
 11
20.4701229762125
 21
20.6983613113568
 31
0.0
  0
LINE
  5
2B3A
330
2B38
100
AcDbEntity
  8
0
  6
CONTINUOUS
 62
     0
100
AcDbLine
 10
20.12101255528309
 20
20.63209360711668
 30
0.0
 11
20.47012297621249
 21
20.98120402804609
 31
0.0
  0
LINE
  5
2B3B
330
2B38
100
AcDbEntity
  8
0
  6
CONTINUOUS
 62
     0
100
AcDbLine
 10
19.83816983859378
 20
20.63209360711668
 30
0.0
 11
20.47012297621249
 21
21.26404674473539
 31
0.0
  0
LINE
  5
2B3C
330
2B38
100
AcDbEntity
  8
0
  6
CONTINUOUS
 62
     0
100
AcDbLine
 10
19.55532712190448
 20
20.63209360711669
 30
0.0
 11
20.47012297621249
 21
21.5468894614247
 31
0.0
  0
LINE
  5
2B3D
330
2B38
100
AcDbEntity
  8
0
  6
CONTINUOUS
 62
     0
100
AcDbLine
 10
19.27248440521518
 20
20.63209360711669
 30
0.0
 11
20.47012297621249
 21
21.829732178114
 31
0.0
  0
LINE
  5
2B3E
330
2B38
100
AcDbEntity
  8
0
  6
CONTINUOUS
 62
     0
100
AcDbLine
 10
18.98964168852588
 20
20.63209360711669
 30
0.0
 11
20.47012297621249
 21
22.11257489480331
 31
0.0
  0
LINE
  5
2B3F
330
2B38
100
AcDbEntity
  8
0
  6
CONTINUOUS
 62
     0
100
AcDbLine
 10
18.70679897183657
 20
20.63209360711669
 30
0.0
 11
20.4701229762125
 21
22.39541761149261
 31
0.0
  0
LINE
  5
2B40
330
2B38
100
AcDbEntity
  8
0
  6
CONTINUOUS
 62
     0
100
AcDbLine
 10
18.67462297621249
 20
20.8827603281819
 30
0.0
 11
20.4701229762125
 21
22.67826032818192
 31
0.0
  0
LINE
  5
2B41
330
2B38
100
AcDbEntity
  8
0
  6
CONTINUOUS
 62
     0
100
AcDbLine
 10
20.91986353845797
 20
23.41084360711669
 30
0.0
 11
21.08752297621251
 21
23.57850304487123
 31
0.0
  0
LINE
  5
2B42
330
2B38
100
AcDbEntity
  8
0
  6
CONTINUOUS
 62
     0
100
AcDbLine
 10
18.67462297621249
 20
21.16560304487121
 30
0.0
 11
20.4701229762125
 21
22.96110304487123
 31
0.0
  0
LINE
  5
2B43
330
2B38
100
AcDbEntity
  8
0
  6
CONTINUOUS
 62
     0
100
AcDbLine
 10
20.63702082176867
 20
23.41084360711669
 30
0.0
 11
21.08752297621251
 21
23.86134576156053
 31
0.0
  0
LINE
  5
2B44
330
2B38
100
AcDbEntity
  8
0
  6
CONTINUOUS
 62
     0
100
AcDbLine
 10
18.67462297621249
 20
21.44844576156051
 30
0.0
 11
20.4701229762125
 21
23.24394576156052
 31
0.0
  0
LINE
  5
2B45
330
2B38
100
AcDbEntity
  8
0
  6
CONTINUOUS
 62
     0
100
AcDbLine
 10
18.67462297621248
 20
21.73128847824981
 30
0.0
 11
21.0875229762125
 21
24.14418847824983
 31
0.0
  0
LINE
  5
2B46
330
2B38
100
AcDbEntity
  8
0
  6
CONTINUOUS
 62
     0
100
AcDbLine
 10
18.67462297621249
 20
22.01413119493912
 30
0.0
 11
21.0875229762125
 21
24.42703119493913
 31
0.0
  0
LINE
  5
2B47
330
2B38
100
AcDbEntity
  8
0
  6
CONTINUOUS
 62
     0
100
AcDbLine
 10
18.67462297621249
 20
22.29697391162843
 30
0.0
 11
20.88604267170075
 21
24.50839360711669
 31
0.0
  0
LINE
  5
2B48
330
2B38
100
AcDbEntity
  8
0
  6
CONTINUOUS
 62
     0
100
AcDbLine
 10
21.02664995501144
 20
24.93184360711669
 30
0.0
 11
21.0875229762125
 21
24.99271662831775
 31
0.0
  0
LINE
  5
2B49
330
2B38
100
AcDbEntity
  8
0
  6
CONTINUOUS
 62
     0
100
AcDbLine
 10
18.67462297621248
 20
22.57981662831773
 30
0.0
 11
20.60319995501143
 21
24.50839360711669
 31
0.0
  0
LINE
  5
2B4A
330
2B38
100
AcDbEntity
  8
0
  6
CONTINUOUS
 62
     0
100
AcDbLine
 10
20.74380723832214
 20
24.93184360711669
 30
0.0
 11
21.0875229762125
 21
25.27555934500705
 31
0.0
  0
LINE
  5
2B4B
330
2B38
100
AcDbEntity
  8
0
  6
CONTINUOUS
 62
     0
100
AcDbLine
 10
18.67462297621249
 20
22.86265934500704
 30
0.0
 11
20.43397690248405
 21
24.62201327127861
 31
0.0
  0
LINE
  5
2B4C
330
2B38
100
AcDbEntity
  8
0
  6
CONTINUOUS
 62
     0
100
AcDbLine
 10
18.67462297621249
 20
23.14550206169634
 30
0.0
 11
21.0875229762125
 21
25.55840206169636
 31
0.0
  0
LINE
  5
2B4D
330
2B38
100
AcDbEntity
  8
0
  6
CONTINUOUS
 62
     0
100
AcDbLine
 10
18.65712180494354
 20
23.41084360711669
 30
0.0
 11
21.08127180494354
 21
25.83499360711669
 31
0.0
  0
LINE
  5
2B4E
330
2B38
100
AcDbEntity
  8
0
  6
CONTINUOUS
 62
     0
100
AcDbLine
 10
18.37427908825423
 20
23.41084360711668
 30
0.0
 11
20.79842908825423
 21
25.83499360711669
 31
0.0
  0
LINE
  5
2B4F
330
2B38
100
AcDbEntity
  8
0
  6
CONTINUOUS
 62
     0
100
AcDbLine
 10
18.13732297621251
 20
23.45673021176427
 30
0.0
 11
20.51558637156492
 21
25.83499360711668
 31
0.0
  0
LINE
  5
2B50
330
2B38
100
AcDbEntity
  8
0
  6
CONTINUOUS
 62
     0
100
AcDbLine
 10
18.13732297621251
 20
23.73957292845357
 30
0.0
 11
20.23274365487563
 21
25.83499360711669
 31
0.0
  0
LINE
  5
2B51
330
2B38
100
AcDbEntity
  8
0
  6
CONTINUOUS
 62
     0
100
AcDbLine
 10
18.67462297621249
 20
24.55971564514285
 30
0.0
 11
19.94990093818632
 21
25.83499360711669
 31
0.0
  0
LINE
  5
2B52
330
2B38
100
AcDbEntity
  8
0
  6
CONTINUOUS
 62
     0
100
AcDbLine
 10
18.13732297621251
 20
24.02241564514287
 30
0.0
 11
18.62330093818632
 21
24.50839360711668
 31
0.0
  0
LINE
  5
2B53
330
2B38
100
AcDbEntity
  8
0
  6
CONTINUOUS
 62
     0
100
AcDbLine
 10
18.67462297621249
 20
24.84255836183216
 30
0.0
 11
19.66705822149701
 21
25.83499360711669
 31
0.0
  0
LINE
  5
2B54
330
2B38
100
AcDbEntity
  8
0
  6
CONTINUOUS
 62
     0
100
AcDbLine
 10
18.13732297621251
 20
24.30525836183218
 30
0.0
 11
18.34045822149701
 21
24.50839360711669
 31
0.0
  0
LINE
  5
2B55
330
2B38
100
AcDbEntity
  8
0
  6
CONTINUOUS
 62
     0
100
AcDbLine
 10
18.70280531180699
 20
25.15358341411596
 30
0.0
 11
19.35607675113877
 21
25.80685485344774
 31
0.0
  0
ENDBLK
  5
2B57
330
2B38
100
AcDbEntity
  8
0
100
AcDbBlockEnd
  0
BLOCK
  5
2B63
330
2B58
100
AcDbEntity
  8
0
100
AcDbBlockBegin
  2
*X8
 70
     1
 10
0.0
 20
0.0
 30
0.0
  3
*X8
  1

  0
LINE
  5
2B59
330
2B58
100
AcDbEntity
  8
0
  6
CONTINUOUS
 62
     0
100
AcDbLine
 10
23.58348440521518
 20
24.94309360711669
 30
0.0
 11
23.6259729762125
 21
24.98558217811401
 31
0.0
  0
LINE
  5
2B5A
330
2B58
100
AcDbEntity
  8
0
  6
CONTINUOUS
 62
     0
100
AcDbLine
 10
23.30064168852588
 20
24.94309360711669
 30
0.0
 11
23.6259729762125
 21
25.26842489480332
 31
0.0
  0
LINE
  5
2B5B
330
2B58
100
AcDbEntity
  8
0
  6
CONTINUOUS
 62
     0
100
AcDbLine
 10
23.01779897183657
 20
24.94309360711669
 30
0.0
 11
23.6259729762125
 21
25.55126761149262
 31
0.0
  0
LINE
  5
2B5C
330
2B58
100
AcDbEntity
  8
0
  6
CONTINUOUS
 62
     0
100
AcDbLine
 10
22.73495625514727
 20
24.94309360711669
 30
0.0
 11
23.6259729762125
 21
25.83411032818192
 31
0.0
  0
LINE
  5
2B5D
330
2B58
100
AcDbEntity
  8
0
  6
CONTINUOUS
 62
     0
100
AcDbLine
 10
22.45211353845797
 20
24.94309360711669
 30
0.0
 11
23.34401353845797
 21
25.83499360711669
 31
0.0
  0
LINE
  5
2B5E
330
2B58
100
AcDbEntity
  8
0
  6
CONTINUOUS
 62
     0
100
AcDbLine
 10
22.16927082176867
 20
24.94309360711669
 30
0.0
 11
23.06117082176866
 21
25.83499360711668
 31
0.0
  0
LINE
  5
2B5F
330
2B58
100
AcDbEntity
  8
0
  6
CONTINUOUS
 62
     0
100
AcDbLine
 10
21.88642810507935
 20
24.94309360711669
 30
0.0
 11
22.77832810507936
 21
25.83499360711669
 31
0.0
  0
LINE
  5
2B60
330
2B58
100
AcDbEntity
  8
0
  6
CONTINUOUS
 62
     0
100
AcDbLine
 10
21.8079729762125
 20
25.14748119493914
 30
0.0
 11
22.49548538839006
 21
25.83499360711669
 31
0.0
  0
LINE
  5
2B61
330
2B58
100
AcDbEntity
  8
0
  6
CONTINUOUS
 62
     0
100
AcDbLine
 10
21.8079729762125
 20
25.43032391162844
 30
0.0
 11
22.21264267170075
 21
25.8349936071167
 31
0.0
  0
LINE
  5
2B62
330
2B58
100
AcDbEntity
  8
0
  6
CONTINUOUS
 62
     0
100
AcDbLine
 10
21.8079729762125
 20
25.71316662831774
 30
0.0
 11
21.92979995501144
 21
25.83499360711669
 31
0.0
  0
ENDBLK
  5
2B64
330
2B58
100
AcDbEntity
  8
0
100
AcDbBlockEnd
  0
BLOCK
  5
2B7A
330
2B65
100
AcDbEntity
  8
0
100
AcDbBlockBegin
  2
*X9
 70
     1
 10
0.0
 20
0.0
 30
0.0
  3
*X9
  1

  0
LINE
  5
2B66
330
2B65
100
AcDbEntity
  8
0
  6
CONTINUOUS
 62
     0
100
AcDbLine
 10
23.51512515555474
 20
20.63209360711669
 30
0.0
 11
23.6259729762125
 21
20.74294142777445
 31
0.0
  0
LINE
  5
2B67
330
2B65
100
AcDbEntity
  8
0
  6
CONTINUOUS
 62
     0
100
AcDbLine
 10
23.23228243886543
 20
20.63209360711669
 30
0.0
 11
23.6259729762125
 21
21.02578414446375
 31
0.0
  0
LINE
  5
2B68
330
2B65
100
AcDbEntity
  8
0
  6
CONTINUOUS
 62
     0
100
AcDbLine
 10
22.94943972217613
 20
20.63209360711668
 30
0.0
 11
23.6259729762125
 21
21.30862686115305
 31
0.0
  0
LINE
  5
2B69
330
2B65
100
AcDbEntity
  8
0
  6
CONTINUOUS
 62
     0
100
AcDbLine
 10
22.66659700548682
 20
20.63209360711668
 30
0.0
 11
23.62597297621249
 21
21.59146957784236
 31
0.0
  0
LINE
  5
2B6A
330
2B65
100
AcDbEntity
  8
0
  6
CONTINUOUS
 62
     0
100
AcDbLine
 10
22.38375428879752
 20
20.63209360711668
 30
0.0
 11
23.62597297621249
 21
21.87431229453166
 31
0.0
  0
LINE
  5
2B6B
330
2B65
100
AcDbEntity
  8
0
  6
CONTINUOUS
 62
     0
100
AcDbLine
 10
22.10091157210821
 20
20.63209360711669
 30
0.0
 11
23.62597297621249
 21
22.15715501122097
 31
0.0
  0
LINE
  5
2B6C
330
2B65
100
AcDbEntity
  8
0
  6
CONTINUOUS
 62
     0
100
AcDbLine
 10
21.81806885541891
 20
20.63209360711669
 30
0.0
 11
23.6259729762125
 21
22.43999772791027
 31
0.0
  0
LINE
  5
2B6D
330
2B65
100
AcDbEntity
  8
0
  6
CONTINUOUS
 62
     0
100
AcDbLine
 10
21.8079729762125
 20
20.90484044459958
 30
0.0
 11
23.6259729762125
 21
22.72284044459957
 31
0.0
  0
LINE
  5
2B6E
330
2B65
100
AcDbEntity
  8
0
  6
CONTINUOUS
 62
     0
100
AcDbLine
 10
21.8079729762125
 20
21.18768316128889
 30
0.0
 11
23.6259729762125
 21
23.00568316128888
 31
0.0
  0
LINE
  5
2B6F
330
2B65
100
AcDbEntity
  8
0
  6
CONTINUOUS
 62
     0
100
AcDbLine
 10
21.8079729762125
 20
21.47052587797819
 30
0.0
 11
23.6259729762125
 21
23.28852587797818
 31
0.0
  0
LINE
  5
2B70
330
2B65
100
AcDbEntity
  8
0
  6
CONTINUOUS
 62
     0
100
AcDbLine
 10
21.8079729762125
 20
21.75336859466749
 30
0.0
 11
23.6259729762125
 21
23.57136859466749
 31
0.0
  0
LINE
  5
2B71
330
2B65
100
AcDbEntity
  8
0
  6
CONTINUOUS
 62
     0
100
AcDbLine
 10
21.8079729762125
 20
22.03621131135679
 30
0.0
 11
23.6259729762125
 21
23.85421131135679
 31
0.0
  0
LINE
  5
2B72
330
2B65
100
AcDbEntity
  8
0
  6
CONTINUOUS
 62
     0
100
AcDbLine
 10
21.80797297621249
 20
22.31905402804609
 30
0.0
 11
23.62597297621249
 21
24.13705402804609
 31
0.0
  0
LINE
  5
2B73
330
2B65
100
AcDbEntity
  8
0
  6
CONTINUOUS
 62
     0
100
AcDbLine
 10
21.80797297621249
 20
22.6018967447354
 30
0.0
 11
23.62597297621249
 21
24.4198967447354
 31
0.0
  0
LINE
  5
2B74
330
2B65
100
AcDbEntity
  8
0
  6
CONTINUOUS
 62
     0
100
AcDbLine
 10
21.8079729762125
 20
22.88473946142471
 30
0.0
 11
23.43162712190448
 21
24.50839360711669
 31
0.0
  0
LINE
  5
2B75
330
2B65
100
AcDbEntity
  8
0
  6
CONTINUOUS
 62
     0
100
AcDbLine
 10
21.8079729762125
 20
23.16758217811401
 30
0.0
 11
23.14878440521518
 21
24.50839360711669
 31
0.0
  0
LINE
  5
2B76
330
2B65
100
AcDbEntity
  8
0
  6
CONTINUOUS
 62
     0
100
AcDbLine
 10
21.8079729762125
 20
23.45042489480332
 30
0.0
 11
22.86594168852587
 21
24.50839360711669
 31
0.0
  0
LINE
  5
2B77
330
2B65
100
AcDbEntity
  8
0
  6
CONTINUOUS
 62
     0
100
AcDbLine
 10
21.8079729762125
 20
23.73326761149262
 30
0.0
 11
22.58309897183657
 21
24.50839360711668
 31
0.0
  0
LINE
  5
2B78
330
2B65
100
AcDbEntity
  8
0
  6
CONTINUOUS
 62
     0
100
AcDbLine
 10
21.8079729762125
 20
24.01611032818192
 30
0.0
 11
22.30025625514727
 21
24.50839360711668
 31
0.0
  0
LINE
  5
2B79
330
2B65
100
AcDbEntity
  8
0
  6
CONTINUOUS
 62
     0
100
AcDbLine
 10
21.8079729762125
 20
24.29895304487122
 30
0.0
 11
22.01741353845796
 21
24.50839360711668
 31
0.0
  0
ENDBLK
  5
2B7B
330
2B65
100
AcDbEntity
  8
0
100
AcDbBlockEnd
  0
BLOCK
  5
2BA4
330
2B7C
100
AcDbEntity
  8
0
100
AcDbBlockBegin
  2
*X10
 70
     1
 10
0.0
 20
0.0
 30
0.0
  3
*X10
  1

  0
LINE
  5
2B7D
330
2B7C
100
AcDbEntity
  8
0
  6
CONTINUOUS
 62
     0
100
AcDbLine
 10
29.73766492271942
 20
20.63209360711669
 30
0.0
 11
29.8922229762125
 21
20.78665166060976
 31
0.0
  0
LINE
  5
2B7E
330
2B7C
100
AcDbEntity
  8
0
  6
CONTINUOUS
 62
     0
100
AcDbLine
 10
29.45482220603011
 20
20.63209360711669
 30
0.0
 11
29.89222297621249
 21
21.06949437729907
 31
0.0
  0
LINE
  5
2B7F
330
2B7C
100
AcDbEntity
  8
0
  6
CONTINUOUS
 62
     0
100
AcDbLine
 10
29.17197948934081
 20
20.63209360711669
 30
0.0
 11
29.8922229762125
 21
21.35233709398837
 31
0.0
  0
LINE
  5
2B80
330
2B7C
100
AcDbEntity
  8
0
  6
CONTINUOUS
 62
     0
100
AcDbLine
 10
28.88913677265151
 20
20.63209360711669
 30
0.0
 11
29.8922229762125
 21
21.63517981067768
 31
0.0
  0
LINE
  5
2B81
330
2B7C
100
AcDbEntity
  8
0
  6
CONTINUOUS
 62
     0
100
AcDbLine
 10
28.6062940559622
 20
20.63209360711669
 30
0.0
 11
29.8922229762125
 21
21.91802252736698
 31
0.0
  0
LINE
  5
2B82
330
2B7C
100
AcDbEntity
  8
0
  6
CONTINUOUS
 62
     0
100
AcDbLine
 10
28.3234513392729
 20
20.63209360711669
 30
0.0
 11
29.8922229762125
 21
22.20086524405628
 31
0.0
  0
LINE
  5
2B83
330
2B7C
100
AcDbEntity
  8
0
  6
CONTINUOUS
 62
     0
100
AcDbLine
 10
28.1084229762125
 20
20.69990796074559
 30
0.0
 11
29.8922229762125
 21
22.48370796074559
 31
0.0
  0
LINE
  5
2B84
330
2B7C
100
AcDbEntity
  8
0
  6
CONTINUOUS
 62
     0
100
AcDbLine
 10
28.10842297621249
 20
20.98275067743489
 30
0.0
 11
29.8922229762125
 21
22.7665506774349
 31
0.0
  0
LINE
  5
2B85
330
2B7C
100
AcDbEntity
  8
0
  6
CONTINUOUS
 62
     0
100
AcDbLine
 10
28.10842297621249
 20
21.26559339412419
 30
0.0
 11
29.8922229762125
 21
23.04939339412419
 31
0.0
  0
LINE
  5
2B86
330
2B7C
100
AcDbEntity
  8
0
  6
CONTINUOUS
 62
     0
100
AcDbLine
 10
28.10842297621249
 20
21.5484361108135
 30
0.0
 11
29.89184294464031
 21
23.33185607924131
 31
0.0
  0
LINE
  5
2B87
330
2B7C
100
AcDbEntity
  8
0
  6
CONTINUOUS
 62
     0
100
AcDbLine
 10
28.1084229762125
 20
21.83127882750281
 30
0.0
 11
29.85326765992761
 21
23.57612351121792
 31
0.0
  0
LINE
  5
2B88
330
2B7C
100
AcDbEntity
  8
0
  6
CONTINUOUS
 62
     0
100
AcDbLine
 10
28.1084229762125
 20
22.11412154419211
 30
0.0
 11
29.7778145719578
 21
23.78351313993741
 31
0.0
  0
LINE
  5
2B89
330
2B7C
100
AcDbEntity
  8
0
  6
CONTINUOUS
 62
     0
100
AcDbLine
 10
28.1084229762125
 20
22.39696426088142
 30
0.0
 11
29.67412964984317
 21
23.96267093451208
 31
0.0
  0
LINE
  5
2B8A
330
2B7C
100
AcDbEntity
  8
0
  6
CONTINUOUS
 62
     0
100
AcDbLine
 10
28.08408741851916
 20
22.65547141987738
 30
0.0
 11
29.54593010449247
 21
24.11731410585069
 31
0.0
  0
LINE
  5
2B8B
330
2B7C
100
AcDbEntity
  8
0
  6
CONTINUOUS
 62
     0
100
AcDbLine
 10
26.06070960575847
 20
20.63209360711669
 30
0.0
 11
26.2899729762125
 21
20.86135697757072
 31
0.0
  0
LINE
  5
2B8C
330
2B7C
100
AcDbEntity
  8
0
  6
CONTINUOUS
 62
     0
100
AcDbLine
 10
27.993800251453
 20
22.84802696950052
 30
0.0
 11
29.39435863885448
 21
24.248585356902
 31
0.0
  0
LINE
  5
2B8D
330
2B7C
100
AcDbEntity
  8
0
  6
CONTINUOUS
 62
     0
100
AcDbLine
 10
25.77786688906916
 20
20.63209360711669
 30
0.0
 11
26.2899729762125
 21
21.14419969426002
 31
0.0
  0
LINE
  5
2B8E
330
2B7C
100
AcDbEntity
  8
0
  6
CONTINUOUS
 62
     0
100
AcDbLine
 10
27.85643124454681
 20
22.99350067928364
 30
0.0
 11
29.21854476173636
 21
24.35561419647318
 31
0.0
  0
LINE
  5
2B8F
330
2B7C
100
AcDbEntity
  8
0
  6
CONTINUOUS
 62
     0
100
AcDbLine
 10
25.49502417237986
 20
20.63209360711668
 30
0.0
 11
26.2899729762125
 21
21.42704241094932
 31
0.0
  0
LINE
  5
2B90
330
2B7C
100
AcDbEntity
  8
0
  6
CONTINUOUS
 62
     0
100
AcDbLine
 10
27.67336145621951
 20
23.09327360764564
 30
0.0
 11
29.00873242055444
 21
24.42864457198057
 31
0.0
  0
LINE
  5
2B91
330
2B7C
100
AcDbEntity
  8
0
  6
CONTINUOUS
 62
     0
100
AcDbLine
 10
25.21218145569056
 20
20.63209360711668
 30
0.0
 11
26.2899729762125
 21
21.70988512763862
 31
0.0
  0
LINE
  5
2B92
330
2B7C
100
AcDbEntity
  8
0
  6
CONTINUOUS
 62
     0
100
AcDbLine
 10
27.42668159597107
 20
23.1294364640865
 30
0.0
 11
28.78111137615865
 21
24.48386624427408
 31
0.0
  0
LINE
  5
2B93
330
2B7C
100
AcDbEntity
  8
0
  6
CONTINUOUS
 62
     0
100
AcDbLine
 10
24.92933873900125
 20
20.63209360711668
 30
0.0
 11
26.2899729762125
 21
21.99272784432793
 31
0.0
  0
LINE
  5
2B94
330
2B7C
100
AcDbEntity
  8
0
  6
CONTINUOUS
 62
     0
100
AcDbLine
 10
27.09337871134729
 20
23.07897629615202
 30
0.0
 11
28.53965784556285
 21
24.52525543036758
 31
0.0
  0
LINE
  5
2B95
330
2B7C
100
AcDbEntity
  8
0
  6
CONTINUOUS
 62
     0
100
AcDbLine
 10
24.64649602231195
 20
20.63209360711668
 30
0.0
 11
26.2899729762125
 21
22.27557056101724
 31
0.0
  0
LINE
  5
2B96
330
2B7C
100
AcDbEntity
  8
0
  6
CONTINUOUS
 62
     0
100
AcDbLine
 10
24.49492297621249
 20
20.76336327770653
 30
0.0
 11
28.28214143765219
 21
24.55058173914623
 31
0.0
  0
LINE
  5
2B97
330
2B7C
100
AcDbEntity
  8
0
  6
CONTINUOUS
 62
     0
100
AcDbLine
 10
24.49492297621249
 20
21.04620599439583
 30
0.0
 11
28.00532133716157
 21
24.55660435534491
 31
0.0
  0
LINE
  5
2B98
330
2B7C
100
AcDbEntity
  8
0
  6
CONTINUOUS
 62
     0
100
AcDbLine
 10
24.49492297621249
 20
21.32904871108514
 30
0.0
 11
27.70419502338755
 21
24.5383207582602
 31
0.0
  0
LINE
  5
2B99
330
2B7C
100
AcDbEntity
  8
0
  6
CONTINUOUS
 62
     0
100
AcDbLine
 10
24.49492297621249
 20
21.61189142777444
 30
0.0
 11
27.37030343271159
 21
24.48727188427354
 31
0.0
  0
LINE
  5
2B9A
330
2B7C
100
AcDbEntity
  8
0
  6
CONTINUOUS
 62
     0
100
AcDbLine
 10
24.49492297621249
 20
21.89473414446374
 30
0.0
 11
26.98703511483339
 21
24.38684628308465
 31
0.0
  0
LINE
  5
2B9B
330
2B7C
100
AcDbEntity
  8
0
  6
CONTINUOUS
 62
     0
100
AcDbLine
 10
24.49492297621249
 20
22.17757686115305
 30
0.0
 11
26.51056620292166
 21
24.19322008786221
 31
0.0
  0
LINE
  5
2B9C
330
2B7C
100
AcDbEntity
  8
0
  6
CONTINUOUS
 62
     0
100
AcDbLine
 10
24.49492297621249
 20
22.46041957784235
 30
0.0
 11
26.2899729762125
 21
24.25546957784236
 31
0.0
  0
LINE
  5
2B9D
330
2B7C
100
AcDbEntity
  8
0
  6
CONTINUOUS
 62
     0
100
AcDbLine
 10
24.49492297621249
 20
22.74326229453166
 30
0.0
 11
26.26005428879752
 21
24.50839360711668
 31
0.0
  0
LINE
  5
2B9E
330
2B7C
100
AcDbEntity
  8
0
  6
CONTINUOUS
 62
     0
100
AcDbLine
 10
24.49492297621249
 20
23.02610501122096
 30
0.0
 11
25.97721157210822
 21
24.50839360711669
 31
0.0
  0
LINE
  5
2B9F
330
2B7C
100
AcDbEntity
  8
0
  6
CONTINUOUS
 62
     0
100
AcDbLine
 10
24.49492297621249
 20
23.30894772791026
 30
0.0
 11
25.69436885541891
 21
24.50839360711669
 31
0.0
  0
LINE
  5
2BA0
330
2B7C
100
AcDbEntity
  8
0
  6
CONTINUOUS
 62
     0
100
AcDbLine
 10
24.49492297621249
 20
23.59179044459957
 30
0.0
 11
25.41152613872961
 21
24.50839360711669
 31
0.0
  0
LINE
  5
2BA1
330
2B7C
100
AcDbEntity
  8
0
  6
CONTINUOUS
 62
     0
100
AcDbLine
 10
24.49492297621249
 20
23.87463316128887
 30
0.0
 11
25.1286834220403
 21
24.50839360711668
 31
0.0
  0
LINE
  5
2BA2
330
2B7C
100
AcDbEntity
  8
0
  6
CONTINUOUS
 62
     0
100
AcDbLine
 10
24.49492297621249
 20
24.15747587797818
 30
0.0
 11
24.845840705351
 21
24.50839360711668
 31
0.0
  0
LINE
  5
2BA3
330
2B7C
100
AcDbEntity
  8
0
  6
CONTINUOUS
 62
     0
100
AcDbLine
 10
24.49492297621249
 20
24.44031859466748
 30
0.0
 11
24.5629979886617
 21
24.50839360711668
 31
0.0
  0
ENDBLK
  5
2BA5
330
2B7C
100
AcDbEntity
  8
0
100
AcDbBlockEnd
  0
BLOCK
  5
2BD3
330
2BA6
100
AcDbEntity
  8
0
100
AcDbBlockBegin
  2
*X11
 70
     1
 10
0.0
 20
0.0
 30
0.0
  3
*X11
  1

  0
LINE
  5
2BA7
330
2BA6
100
AcDbEntity
  8
0
  6
CONTINUOUS
 62
     0
100
AcDbLine
 10
35.94895468988411
 20
20.6208436071167
 30
0.0
 11
35.9865729762125
 21
20.65846189344508
 31
0.0
  0
LINE
  5
2BA8
330
2BA6
100
AcDbEntity
  8
0
  6
CONTINUOUS
 62
     0
100
AcDbLine
 10
35.6661119731948
 20
20.62084360711669
 30
0.0
 11
35.9865729762125
 21
20.94130461013438
 31
0.0
  0
LINE
  5
2BA9
330
2BA6
100
AcDbEntity
  8
0
  6
CONTINUOUS
 62
     0
100
AcDbLine
 10
35.3832692565055
 20
20.62084360711669
 30
0.0
 11
35.9865729762125
 21
21.22414732682369
 31
0.0
  0
LINE
  5
2BAA
330
2BA6
100
AcDbEntity
  8
0
  6
CONTINUOUS
 62
     0
100
AcDbLine
 10
35.10042653981621
 20
20.6208436071167
 30
0.0
 11
35.9865729762125
 21
21.506990043513
 31
0.0
  0
LINE
  5
2BAB
330
2BA6
100
AcDbEntity
  8
0
  6
CONTINUOUS
 62
     0
100
AcDbLine
 10
34.8175838231269
 20
20.6208436071167
 30
0.0
 11
35.9865729762125
 21
21.7898327602023
 31
0.0
  0
LINE
  5
2BAC
330
2BA6
100
AcDbEntity
  8
0
  6
CONTINUOUS
 62
     0
100
AcDbLine
 10
34.53474110643759
 20
20.6208436071167
 30
0.0
 11
35.9865729762125
 21
22.07267547689161
 31
0.0
  0
LINE
  5
2BAD
330
2BA6
100
AcDbEntity
  8
0
  6
CONTINUOUS
 62
     0
100
AcDbLine
 10
34.25189838974829
 20
20.6208436071167
 30
0.0
 11
35.9865729762125
 21
22.35551819358091
 31
0.0
  0
LINE
  5
2BAE
330
2BA6
100
AcDbEntity
  8
0
  6
CONTINUOUS
 62
     0
100
AcDbLine
 10
34.19152297621249
 20
20.8433109102702
 30
0.0
 11
35.9865729762125
 21
22.63836091027021
 31
0.0
  0
LINE
  5
2BAF
330
2BA6
100
AcDbEntity
  8
0
  6
CONTINUOUS
 62
     0
100
AcDbLine
 10
33.76931006849532
 20
20.70394071924233
 30
0.0
 11
35.9865729762125
 21
22.92120362695951
 31
0.0
  0
LINE
  5
2BB0
330
2BA6
100
AcDbEntity
  8
0
  6
CONTINUOUS
 62
     0
100
AcDbLine
 10
33.39236634668884
 20
20.60983971412515
 30
0.0
 11
35.9865729762125
 21
23.20404634364881
 31
0.0
  0
LINE
  5
2BB1
330
2BA6
100
AcDbEntity
  8
0
  6
CONTINUOUS
 62
     0
100
AcDbLine
 10
33.08101349676572
 20
20.58132958089135
 30
0.0
 11
35.9865729762125
 21
23.48688906033812
 31
0.0
  0
LINE
  5
2BB2
330
2BA6
100
AcDbEntity
  8
0
  6
CONTINUOUS
 62
     0
100
AcDbLine
 10
32.78812179433337
 20
20.5712805951483
 30
0.0
 11
35.9865729762125
 21
23.76973177702743
 31
0.0
  0
LINE
  5
2BB3
330
2BA6
100
AcDbEntity
  8
0
  6
CONTINUOUS
 62
     0
100
AcDbLine
 10
32.50752380447832
 20
20.57352532198255
 30
0.0
 11
35.9865729762125
 21
24.05257449371673
 31
0.0
  0
LINE
  5
2BB4
330
2BA6
100
AcDbEntity
  8
0
  6
CONTINUOUS
 62
     0
100
AcDbLine
 10
34.17881428393366
 20
22.52765851812719
 30
0.0
 11
35.9865729762125
 21
24.33541721040603
 31
0.0
  0
LINE
  5
2BB5
330
2BA6
100
AcDbEntity
  8
0
  6
CONTINUOUS
 62
     0
100
AcDbLine
 10
32.24308330320312
 20
20.59192753739665
 30
0.0
 11
33.5947915553251
 21
21.94363578951862
 31
0.0
  0
LINE
  5
2BB6
330
2BA6
100
AcDbEntity
  8
0
  6
CONTINUOUS
 62
     0
100
AcDbLine
 10
34.18164288181293
 20
22.81332983269576
 30
0.0
 11
35.9865729762125
 21
24.61825992709534
 31
0.0
  0
LINE
  5
2BB7
330
2BA6
100
AcDbEntity
  8
0
  6
CONTINUOUS
 62
     0
100
AcDbLine
 10
32.00051587262909
 20
20.63220282351193
 30
0.0
 11
33.24755471239335
 21
21.87924166327619
 31
0.0
  0
LINE
  5
2BB8
330
2BA6
100
AcDbEntity
  8
0
  6
CONTINUOUS
 62
     0
100
AcDbLine
 10
34.10028732459351
 20
23.01481699216565
 30
0.0
 11
35.9865729762125
 21
24.90110264378464
 31
0.0
  0
LINE
  5
2BB9
330
2BA6
100
AcDbEntity
  8
0
  6
CONTINUOUS
 62
     0
100
AcDbLine
 10
31.77752155152184
 20
20.69205121909399
 30
0.0
 11
32.98807784516069
 21
21.90260751273283
 31
0.0
  0
LINE
  5
2BBA
330
2BA6
100
AcDbEntity
  8
0
  6
CONTINUOUS
 62
     0
100
AcDbLine
 10
33.96946103525296
 20
23.1668334195144
 30
0.0
 11
35.9865729762125
 21
25.18394536047394
 31
0.0
  0
LINE
  5
2BBB
330
2BA6
100
AcDbEntity
  8
0
  6
CONTINUOUS
 62
     0
100
AcDbLine
 10
31.57735655266627
 20
20.77472893692771
 30
0.0
 11
32.76916056716867
 21
21.96653295143011
 31
0.0
  0
LINE
  5
2BBC
330
2BA6
100
AcDbEntity
  8
0
  6
CONTINUOUS
 62
     0
100
AcDbLine
 10
33.79869139168887
 20
23.27890649263963
 30
0.0
 11
35.9865729762125
 21
25.46678807716325
 31
0.0
  0
LINE
  5
2BBD
330
2BA6
100
AcDbEntity
  8
0
  6
CONTINUOUS
 62
     0
100
AcDbLine
 10
31.39462786403553
 20
20.87484296498628
 30
0.0
 11
32.57878095327255
 21
22.0589960542233
 31
0.0
  0
LINE
  5
2BBE
330
2BA6
100
AcDbEntity
  8
0
  6
CONTINUOUS
 62
     0
100
AcDbLine
 10
33.59506660797613
 20
23.35812442561617
 30
0.0
 11
35.9865729762125
 21
25.74963079385255
 31
0.0
  0
LINE
  5
2BBF
330
2BA6
100
AcDbEntity
  8
0
  6
CONTINUOUS
 62
     0
100
AcDbLine
 10
31.22313095771962
 20
20.98618877535967
 30
0.0
 11
32.42473321158667
 21
22.18779102922672
 31
0.0
  0
LINE
  5
2BC0
330
2BA6
100
AcDbEntity
  8
0
  6
CONTINUOUS
 62
     0
100
AcDbLine
 10
33.37303685143528
 20
23.41893738576464
 30
0.0
 11
35.77784307278734
 21
25.8237436071167
 31
0.0
  0
LINE
  5
2BC1
330
2BA6
100
AcDbEntity
  8
0
  6
CONTINUOUS
 62
     0
100
AcDbLine
 10
31.06703655932743
 20
21.11293709365678
 30
0.0
 11
32.30780348735248
 21
22.35370402168184
 31
0.0
  0
LINE
  5
2BC2
330
2BA6
100
AcDbEntity
  8
0
  6
CONTINUOUS
 62
     0
100
AcDbLine
 10
33.11599510872116
 20
23.44473835973982
 30
0.0
 11
34.07794507158477
 21
24.40668832260344
 31
0.0
  0
LINE
  5
2BC3
330
2BA6
100
AcDbEntity
  8
0
  6
CONTINUOUS
 62
     0
100
AcDbLine
 10
34.19152297621249
 20
24.52026622723115
 30
0.0
 11
35.49500035609803
 21
25.8237436071167
 31
0.0
  0
LINE
  5
2BC4
330
2BA6
100
AcDbEntity
  8
0
  6
CONTINUOUS
 62
     0
100
AcDbLine
 10
30.92289119341729
 20
21.25163444443595
 30
0.0
 11
32.23358530622347
 21
22.56232855724213
 31
0.0
  0
LINE
  5
2BC5
330
2BA6
100
AcDbEntity
  8
0
  6
CONTINUOUS
 62
     0
100
AcDbLine
 10
32.7481736096376
 20
23.35975957734556
 30
0.0
 11
33.88591149297755
 21
24.49749746068552
 31
0.0
  0
LINE
  5
2BC6
330
2BA6
100
AcDbEntity
  8
0
  6
CONTINUOUS
 62
     0
100
AcDbLine
 10
34.19152297621249
 20
24.80310894392045
 30
0.0
 11
35.21215763940872
 21
25.8237436071167
 31
0.0
  0
LINE
  5
2BC7
330
2BA6
100
AcDbEntity
  8
0
  6
CONTINUOUS
 62
     0
100
AcDbLine
 10
30.79573641207614
 20
21.4073223797841
 30
0.0
 11
32.26604065428763
 21
22.8776266219956
 31
0.0
  0
LINE
  5
2BC8
330
2BA6
100
AcDbEntity
  8
0
  6
CONTINUOUS
 62
     0
100
AcDbLine
 10
34.19152297621249
 20
25.08595166060977
 30
0.0
 11
34.92931492271942
 21
25.8237436071167
 31
0.0
  0
LINE
  5
2BC9
330
2BA6
100
AcDbEntity
  8
0
  6
CONTINUOUS
 62
     0
100
AcDbLine
 10
30.68486213057575
 20
21.57929081497302
 30
0.0
 11
33.65908040447928
 21
24.55350908887655
 31
0.0
  0
LINE
  5
2BCA
330
2BA6
100
AcDbEntity
  8
0
  6
CONTINUOUS
 62
     0
100
AcDbLine
 10
34.19152297621249
 20
25.36879437729907
 30
0.0
 11
34.64647220603012
 21
25.8237436071167
 31
0.0
  0
LINE
  5
2BCB
330
2BA6
100
AcDbEntity
  8
0
  6
CONTINUOUS
 62
     0
100
AcDbLine
 10
30.59117900796042
 20
21.76845040904699
 30
0.0
 11
33.41812710058627
 21
24.59539850167285
 31
0.0
  0
LINE
  5
2BCC
330
2BA6
100
AcDbEntity
  8
0
  6
CONTINUOUS
 62
     0
100
AcDbLine
 10
34.19152297621249
 20
25.65163709398837
 30
0.0
 11
34.36362948934082
 21
25.8237436071167
 31
0.0
  0
LINE
  5
2BCD
330
2BA6
100
AcDbEntity
  8
0
  6
CONTINUOUS
 62
     0
100
AcDbLine
 10
30.5171401026012
 20
21.97725422037708
 30
0.0
 11
33.17224949320045
 21
24.63236361097633
 31
0.0
  0
LINE
  5
2BCE
330
2BA6
100
AcDbEntity
  8
0
  6
CONTINUOUS
 62
     0
100
AcDbLine
 10
30.45912583106565
 20
22.20208266553082
 30
0.0
 11
32.90592647138441
 21
24.64888330584959
 31
0.0
  0
LINE
  5
2BCF
330
2BA6
100
AcDbEntity
  8
0
  6
CONTINUOUS
 62
     0
100
AcDbLine
 10
30.42369368109809
 20
22.44949323225257
 30
0.0
 11
32.62147513128882
 21
24.64727468244331
 31
0.0
  0
LINE
  5
2BD0
330
2BA6
100
AcDbEntity
  8
0
  6
CONTINUOUS
 62
     0
100
AcDbLine
 10
30.42431842749477
 20
22.73296069533856
 30
0.0
 11
32.32111378987424
 21
24.62975605771803
 31
0.0
  0
LINE
  5
2BD1
330
2BA6
100
AcDbEntity
  8
0
  6
CONTINUOUS
 62
     0
100
AcDbLine
 10
30.48456014727226
 20
23.07604513180535
 30
0.0
 11
31.97893133461656
 21
24.57041631914965
 31
0.0
  0
LINE
  5
2BD2
330
2BA6
100
AcDbEntity
  8
0
  6
CONTINUOUS
 62
     0
100
AcDbLine
 10
30.66709573670678
 20
23.54142343792917
 30
0.0
 11
31.51624097783787
 21
24.39056867906026
 31
0.0
  0
ENDBLK
  5
2BD4
330
2BA6
100
AcDbEntity
  8
0
100
AcDbBlockEnd
  0
BLOCK
  5
2C06
330
2BD5
100
AcDbEntity
  8
0
100
AcDbBlockBegin
  2
*X12
 70
     1
 10
0.0
 20
0.0
 30
0.0
  3
*X12
  1

  0
LINE
  5
2BD6
330
2BD5
100
AcDbEntity
  8
0
  6
CONTINUOUS
 62
     0
100
AcDbLine
 10
41.23382443163126
 20
20.81454444845637
 30
0.0
 11
42.03852064718826
 21
21.61924066401338
 31
0.0
  0
LINE
  5
2BD7
330
2BD5
100
AcDbEntity
  8
0
  6
CONTINUOUS
 62
     0
100
AcDbLine
 10
40.761924316934
 20
20.62548705044843
 30
0.0
 11
41.99208087360227
 21
21.85564360711669
 31
0.0
  0
LINE
  5
2BD8
330
2BD5
100
AcDbEntity
  8
0
  6
CONTINUOUS
 62
     0
100
AcDbLine
 10
42.10936425852561
 20
22.25576970872933
 30
0.0
 11
42.23468802862376
 21
22.38109347882748
 31
0.0
  0
LINE
  5
2BD9
330
2BD5
100
AcDbEntity
  8
0
  6
CONTINUOUS
 62
     0
100
AcDbLine
 10
40.38714372147003
 20
20.53354917167375
 30
0.0
 11
41.70923815691296
 21
21.85564360711669
 31
0.0
  0
LINE
  5
2BDA
330
2BD5
100
AcDbEntity
  8
0
  6
CONTINUOUS
 62
     0
100
AcDbLine
 10
41.82543336328735
 20
22.25468153018038
 30
0.0
 11
42.24862438405333
 21
22.67787255094635
 31
0.0
  0
LINE
  5
2BDB
330
2BD5
100
AcDbEntity
  8
0
  6
CONTINUOUS
 62
     0
100
AcDbLine
 10
40.0527804866274
 20
20.48202865352042
 30
0.0
 11
41.42639544022366
 21
21.85564360711669
 31
0.0
  0
LINE
  5
2BDC
330
2BD5
100
AcDbEntity
  8
0
  6
CONTINUOUS
 62
     0
100
AcDbLine
 10
41.54150246804907
 20
22.2535933516314
 30
0.0
 11
42.21409021783318
 21
22.92618110141551
 31
0.0
  0
LINE
  5
2BDD
330
2BD5
100
AcDbEntity
  8
0
  6
CONTINUOUS
 62
     0
100
AcDbLine
 10
39.74394012551539
 20
20.45603100909772
 30
0.0
 11
41.14355272353435
 21
21.85564360711669
 31
0.0
  0
LINE
  5
2BDE
330
2BD5
100
AcDbEntity
  8
0
  6
CONTINUOUS
 62
     0
100
AcDbLine
 10
41.25757157281079
 20
22.25250517308243
 30
0.0
 11
42.1560324540612
 21
23.15096605433283
 31
0.0
  0
LINE
  5
2BDF
330
2BD5
100
AcDbEntity
  8
0
  6
CONTINUOUS
 62
     0
100
AcDbLine
 10
39.44878816058276
 20
20.4437217608544
 30
0.0
 11
40.86071000684505
 21
21.85564360711669
 31
0.0
  0
LINE
  5
2BE0
330
2BD5
100
AcDbEntity
  8
0
  6
CONTINUOUS
 62
     0
100
AcDbLine
 10
40.97364067757253
 20
22.25141699453347
 30
0.0
 11
42.08269660975441
 21
23.36047292671535
 31
0.0
  0
LINE
  5
2BE1
330
2BD5
100
AcDbEntity
  8
0
  6
CONTINUOUS
 62
     0
100
AcDbLine
 10
39.16676589738567
 20
20.44454221434661
 30
0.0
 11
40.57786729015575
 21
21.85564360711669
 31
0.0
  0
LINE
  5
2BE2
330
2BD5
100
AcDbEntity
  8
0
  6
CONTINUOUS
 62
     0
100
AcDbLine
 10
40.68970978233426
 20
22.25032881598449
 30
0.0
 11
41.99226190333589
 21
23.55288093698613
 31
0.0
  0
LINE
  5
2BE3
330
2BD5
100
AcDbEntity
  8
0
  6
CONTINUOUS
 62
     0
100
AcDbLine
 10
38.90253497223048
 20
20.46315400588072
 30
0.0
 11
40.17887150097073
 21
21.73949053462098
 31
0.0
  0
LINE
  5
2BE4
330
2BD5
100
AcDbEntity
  8
0
  6
CONTINUOUS
 62
     0
100
AcDbLine
 10
40.40577888709599
 20
22.24924063743553
 30
0.0
 11
41.88575764934264
 21
23.72921939968218
 31
0.0
  0
LINE
  5
2BE5
330
2BD5
100
AcDbEntity
  8
0
  6
CONTINUOUS
 62
     0
100
AcDbLine
 10
38.65076933945138
 20
20.49423108979092
 30
0.0
 11
39.71113473632248
 21
21.55459648666203
 31
0.0
  0
LINE
  5
2BE6
330
2BD5
100
AcDbEntity
  8
0
  6
CONTINUOUS
 62
     0
100
AcDbLine
 10
40.12184799185771
 20
22.24815245888656
 30
0.0
 11
41.76313160843945
 21
23.88943607546831
 31
0.0
  0
LINE
  5
2BE7
330
2BD5
100
AcDbEntity
  8
0
  6
CONTINUOUS
 62
     0
100
AcDbLine
 10
38.40769348166068
 20
20.53399794868953
 30
0.0
 11
39.41154543156577
 21
21.53784989859462
 31
0.0
  0
LINE
  5
2BE8
330
2BD5
100
AcDbEntity
  8
0
  6
CONTINUOUS
 62
     0
100
AcDbLine
 10
39.83791709661943
 20
22.24706428033758
 30
0.0
 11
41.62484932044399
 21
24.03399650416214
 31
0.0
  0
LINE
  5
2BE9
330
2BD5
100
AcDbEntity
  8
0
  6
CONTINUOUS
 62
     0
100
AcDbLine
 10
38.18012839871428
 20
20.58927558243244
 30
0.0
 11
39.1623236792862
 21
21.57147086300435
 31
0.0
  0
LINE
  5
2BEA
330
2BD5
100
AcDbEntity
  8
0
  6
CONTINUOUS
 62
     0
100
AcDbLine
 10
39.55398620138117
 20
22.24597610178863
 30
0.0
 11
41.47049606392519
 21
24.16248596433264
 31
0.0
  0
LINE
  5
2BEB
330
2BD5
100
AcDbEntity
  8
0
  6
CONTINUOUS
 62
     0
100
AcDbLine
 10
37.96719003858655
 20
20.659179938994
 30
0.0
 11
38.94359023101842
 21
21.63558013142588
 31
0.0
  0
LINE
  5
2BEC
330
2BD5
100
AcDbEntity
  8
0
  6
CONTINUOUS
 62
     0
100
AcDbLine
 10
39.27005530614289
 20
22.24488792323966
 30
0.0
 11
40.10436099001994
 21
23.07919360711669
 31
0.0
  0
LINE
  5
2BED
330
2BD5
100
AcDbEntity
  8
0
  6
CONTINUOUS
 62
     0
100
AcDbLine
 10
40.29675631659836
 20
23.27158893369511
 30
0.0
 11
41.30607525588014
 21
24.2809078729769
 31
0.0
  0
LINE
  5
2BEE
330
2BD5
100
AcDbEntity
  8
0
  6
CONTINUOUS
 62
     0
100
AcDbLine
 10
37.76212663821223
 20
20.736959255309
 30
0.0
 11
38.75166696582754
 21
21.7264995829243
 31
0.0
  0
LINE
  5
2BEF
330
2BD5
100
AcDbEntity
  8
0
  6
CONTINUOUS
 62
     0
100
AcDbLine
 10
38.98676827333064
 20
22.24444360711669
 30
0.0
 11
39.82151827333064
 21
23.07919360711669
 31
0.0
  0
LINE
  5
2BF0
330
2BD5
100
AcDbEntity
  8
0
  6
CONTINUOUS
 62
     0
100
AcDbLine
 10
40.18585519244889
 20
23.44353052623496
 30
0.0
 11
41.12716214713813
 21
24.38483748092419
 31
0.0
  0
LINE
  5
2BF1
330
2BD5
100
AcDbEntity
  8
0
  6
CONTINUOUS
 62
     0
100
AcDbLine
 10
37.56707697671666
 20
20.82475231050272
 30
0.0
 11
38.58724192642089
 21
21.84491726020695
 31
0.0
  0
LINE
  5
2BF2
330
2BD5
100
AcDbEntity
  8
0
  6
CONTINUOUS
 62
     0
100
AcDbLine
 10
38.70392555664134
 20
22.2444436071167
 30
0.0
 11
39.53867555664134
 21
23.0791936071167
 31
0.0
  0
LINE
  5
2BF3
330
2BD5
100
AcDbEntity
  8
0
  6
CONTINUOUS
 62
     0
100
AcDbLine
 10
40.03559926541862
 20
23.576117315894
 30
0.0
 11
40.93254152617326
 21
24.47305957664864
 31
0.0
  0
LINE
  5
2BF4
330
2BD5
100
AcDbEntity
  8
0
  6
CONTINUOUS
 62
     0
100
AcDbLine
 10
37.38616166485813
 20
20.9266797153335
 30
0.0
 11
38.458813829234
 21
21.99933187970937
 31
0.0
  0
LINE
  5
2BF5
330
2BD5
100
AcDbEntity
  8
0
  6
CONTINUOUS
 62
     0
100
AcDbLine
 10
38.42108283995202
 20
22.2444436071167
 30
0.0
 11
39.25583283995202
 21
23.0791936071167
 31
0.0
  0
LINE
  5
2BF6
330
2BD5
100
AcDbEntity
  8
0
  6
CONTINUOUS
 62
     0
100
AcDbLine
 10
39.8536624306423
 20
23.67702319780697
 30
0.0
 11
40.72194545099562
 21
24.54530621816029
 31
0.0
  0
LINE
  5
2BF7
330
2BD5
100
AcDbEntity
  8
0
  6
CONTINUOUS
 62
     0
100
AcDbLine
 10
37.22184984512831
 20
21.04521061229298
 30
0.0
 11
38.375638430372
 21
22.19899919753668
 31
0.0
  0
LINE
  5
2BF8
330
2BD5
100
AcDbEntity
  8
0
  6
CONTINUOUS
 62
     0
100
AcDbLine
 10
39.63845355989358
 20
23.74465704374755
 30
0.0
 11
40.5012357738023
 21
24.60743925765628
 31
0.0
  0
LINE
  5
2BF9
330
2BD5
100
AcDbEntity
  8
0
  6
CONTINUOUS
 62
     0
100
AcDbLine
 10
37.07655956159225
 20
21.18276304544623
 30
0.0
 11
38.97299012326272
 21
23.0791936071167
 31
0.0
  0
LINE
  5
2BFA
330
2BD5
100
AcDbEntity
  8
0
  6
CONTINUOUS
 62
     0
100
AcDbLine
 10
39.38487978059393
 20
23.77392598113722
 30
0.0
 11
40.26957641099243
 21
24.65862261153572
 31
0.0
  0
LINE
  5
2BFB
330
2BD5
100
AcDbEntity
  8
0
  6
CONTINUOUS
 62
     0
100
AcDbLine
 10
36.94605200688531
 20
21.33509820742859
 30
0.0
 11
38.69014740657342
 21
23.0791936071167
 31
0.0
  0
LINE
  5
2BFC
330
2BD5
100
AcDbEntity
  8
0
  6
CONTINUOUS
 62
     0
100
AcDbLine
 10
39.06924509432824
 20
23.74113401156083
 30
0.0
 11
40.02610276084062
 21
24.69799167807321
 31
0.0
  0
LINE
  5
2BFD
330
2BD5
100
AcDbEntity
  8
0
  6
CONTINUOUS
 62
     0
100
AcDbLine
 10
36.82592221508353
 20
21.49781113231611
 30
0.0
 11
38.40730468988412
 21
23.07919360711669
 31
0.0
  0
LINE
  5
2BFE
330
2BD5
100
AcDbEntity
  8
0
  6
CONTINUOUS
 62
     0
100
AcDbLine
 10
36.72204470147373
 20
21.67677633539562
 30
0.0
 11
39.76916940185159
 21
24.72390103577348
 31
0.0
  0
LINE
  5
2BFF
330
2BD5
100
AcDbEntity
  8
0
  6
CONTINUOUS
 62
     0
100
AcDbLine
 10
36.63367221868488
 20
21.87124656929607
 30
0.0
 11
39.49239259327073
 21
24.72996694388192
 31
0.0
  0
LINE
  5
2C00
330
2BD5
100
AcDbEntity
  8
0
  6
CONTINUOUS
 62
     0
100
AcDbLine
 10
36.55872697385153
 20
22.07914404115202
 30
0.0
 11
39.21488928388358
 21
24.73530635118407
 31
0.0
  0
LINE
  5
2C01
330
2BD5
100
AcDbEntity
  8
0
  6
CONTINUOUS
 62
     0
100
AcDbLine
 10
36.50347549367967
 20
22.30673527766947
 30
0.0
 11
38.91033768825782
 21
24.71359747224762
 31
0.0
  0
LINE
  5
2C02
330
2BD5
100
AcDbEntity
  8
0
  6
CONTINUOUS
 62
     0
100
AcDbLine
 10
36.47892411431334
 20
22.56502661499244
 30
0.0
 11
38.59996447924426
 21
24.68606697992337
 31
0.0
  0
LINE
  5
2C03
330
2BD5
100
AcDbEntity
  8
0
  6
CONTINUOUS
 62
     0
100
AcDbLine
 10
36.49730619074715
 20
22.86625140811556
 30
0.0
 11
38.25254582337645
 21
24.62149104074486
 31
0.0
  0
LINE
  5
2C04
330
2BD5
100
AcDbEntity
  8
0
  6
CONTINUOUS
 62
     0
100
AcDbLine
 10
36.58207047382975
 20
23.23385840788746
 30
0.0
 11
37.8616737342633
 21
24.51346166832101
 31
0.0
  0
LINE
  5
2C05
330
2BD5
100
AcDbEntity
  8
0
  6
CONTINUOUS
 62
     0
100
AcDbLine
 10
36.87895768640204
 20
23.81358833714906
 30
0.0
 11
37.28993357936131
 21
24.22456423010832
 31
0.0
  0
ENDBLK
  5
2C07
330
2BD5
100
AcDbEntity
  8
0
100
AcDbBlockEnd
  0
BLOCK
  5
2C29
330
2C08
100
AcDbEntity
  8
0
100
AcDbBlockBegin
  2
*X13
 70
     1
 10
0.0
 20
0.0
 30
0.0
  3
*X13
  1

  0
LINE
  5
2C09
330
2C08
100
AcDbEntity
  8
0
  6
CONTINUOUS
 62
     0
100
AcDbLine
 10
47.24971434063112
 20
22.58779360711668
 30
0.0
 11
47.28795659173517
 21
22.62603585822073
 31
0.0
  0
LINE
  5
2C0A
330
2C08
100
AcDbEntity
  8
0
  6
CONTINUOUS
 62
     0
100
AcDbLine
 10
46.96687162394181
 20
22.58779360711668
 30
0.0
 11
47.30766242413531
 21
22.92858440731017
 31
0.0
  0
LINE
  5
2C0B
330
2C08
100
AcDbEntity
  8
0
  6
CONTINUOUS
 62
     0
100
AcDbLine
 10
46.68402890725251
 20
22.58779360711668
 30
0.0
 11
47.29611504099408
 21
23.19987974085824
 31
0.0
  0
LINE
  5
2C0C
330
2C08
100
AcDbEntity
  8
0
  6
CONTINUOUS
 62
     0
100
AcDbLine
 10
46.40118619056321
 20
22.58779360711668
 30
0.0
 11
47.26153315523016
 21
23.44814057178364
 31
0.0
  0
LINE
  5
2C0D
330
2C08
100
AcDbEntity
  8
0
  6
CONTINUOUS
 62
     0
100
AcDbLine
 10
44.44548619056321
 20
20.63209360711669
 30
0.0
 11
44.45962297621249
 21
20.64623039276595
 31
0.0
  0
LINE
  5
2C0E
330
2C08
100
AcDbEntity
  8
0
  6
CONTINUOUS
 62
     0
100
AcDbLine
 10
46.1183434738739
 20
22.58779360711668
 30
0.0
 11
47.20921446605053
 21
23.6786645992933
 31
0.0
  0
LINE
  5
2C0F
330
2C08
100
AcDbEntity
  8
0
  6
CONTINUOUS
 62
     0
100
AcDbLine
 10
44.1626434738739
 20
20.63209360711668
 30
0.0
 11
44.45962297621249
 21
20.92907310945526
 31
0.0
  0
LINE
  5
2C10
330
2C08
100
AcDbEntity
  8
0
  6
CONTINUOUS
 62
     0
100
AcDbLine
 10
45.8355007571846
 20
22.58779360711668
 30
0.0
 11
47.13201133898738
 21
23.88430418891946
 31
0.0
  0
LINE
  5
2C11
330
2C08
100
AcDbEntity
  8
0
  6
CONTINUOUS
 62
     0
100
AcDbLine
 10
43.8798007571846
 20
20.63209360711668
 30
0.0
 11
44.45962297621249
 21
21.21191582614456
 31
0.0
  0
LINE
  5
2C12
330
2C08
100
AcDbEntity
  8
0
  6
CONTINUOUS
 62
     0
100
AcDbLine
 10
45.5526580404953
 20
22.58779360711668
 30
0.0
 11
47.02930284680043
 21
24.06443841342182
 31
0.0
  0
LINE
  5
2C13
330
2C08
100
AcDbEntity
  8
0
  6
CONTINUOUS
 62
     0
100
AcDbLine
 10
43.5969580404953
 20
20.63209360711668
 30
0.0
 11
44.45962297621249
 21
21.49475854283387
 31
0.0
  0
LINE
  5
2C14
330
2C08
100
AcDbEntity
  8
0
  6
CONTINUOUS
 62
     0
100
AcDbLine
 10
45.4545729762125
 20
22.77255125952319
 30
0.0
 11
46.90089549976312
 21
24.21887378307381
 31
0.0
  0
LINE
  5
2C15
330
2C08
100
AcDbEntity
  8
0
  6
CONTINUOUS
 62
     0
100
AcDbLine
 10
43.31411532380601
 20
20.63209360711669
 30
0.0
 11
44.45962297621249
 21
21.77760125952318
 31
0.0
  0
LINE
  5
2C16
330
2C08
100
AcDbEntity
  8
0
  6
CONTINUOUS
 62
     0
100
AcDbLine
 10
45.41819881762309
 20
23.01901981762308
 30
0.0
 11
46.74470971389381
 21
24.3455307138938
 31
0.0
  0
LINE
  5
2C17
330
2C08
100
AcDbEntity
  8
0
  6
CONTINUOUS
 62
     0
100
AcDbLine
 10
43.03127260711669
 20
20.63209360711668
 30
0.0
 11
44.4596229762125
 21
22.06044397621248
 31
0.0
  0
LINE
  5
2C18
330
2C08
100
AcDbEntity
  8
0
  6
CONTINUOUS
 62
     0
100
AcDbLine
 10
45.29461390127502
 20
23.17827761796431
 30
0.0
 11
46.55878408076631
 21
24.44244779745559
 31
0.0
  0
LINE
  5
2C19
330
2C08
100
AcDbEntity
  8
0
  6
CONTINUOUS
 62
     0
100
AcDbLine
 10
42.74842989042738
 20
20.63209360711668
 30
0.0
 11
44.45962297621249
 21
22.34328669290178
 31
0.0
  0
LINE
  5
2C1A
330
2C08
100
AcDbEntity
  8
0
  6
CONTINUOUS
 62
     0
100
AcDbLine
 10
45.10254687639092
 20
23.26905330976953
 30
0.0
 11
46.34635704299881
 21
24.5128634763774
 31
0.0
  0
LINE
  5
2C1B
330
2C08
100
AcDbEntity
  8
0
  6
CONTINUOUS
 62
     0
100
AcDbLine
 10
42.73297297621249
 20
20.89947940959109
 30
0.0
 11
44.45962297621249
 21
22.62612940959108
 31
0.0
  0
LINE
  5
2C1C
330
2C08
100
AcDbEntity
  8
0
  6
CONTINUOUS
 62
     0
100
AcDbLine
 10
44.79762211486146
 20
23.24697126492937
 30
0.0
 11
46.11516596148556
 21
24.56451511155345
 31
0.0
  0
LINE
  5
2C1D
330
2C08
100
AcDbEntity
  8
0
  6
CONTINUOUS
 62
     0
100
AcDbLine
 10
42.7329729762125
 20
21.18232212628039
 30
0.0
 11
44.49250552681683
 21
22.94185467688474
 31
0.0
  0
LINE
  5
2C1E
330
2C08
100
AcDbEntity
  8
0
  6
CONTINUOUS
 62
     0
100
AcDbLine
 10
42.7329729762125
 20
21.46516484296971
 30
0.0
 11
45.8577145844811
 21
24.58990645123831
 31
0.0
  0
LINE
  5
2C1F
330
2C08
100
AcDbEntity
  8
0
  6
CONTINUOUS
 62
     0
100
AcDbLine
 10
42.7329729762125
 20
21.74800755965902
 30
0.0
 11
45.56309255672949
 21
24.578127140176
 31
0.0
  0
LINE
  5
2C20
330
2C08
100
AcDbEntity
  8
0
  6
CONTINUOUS
 62
     0
100
AcDbLine
 10
42.7329729762125
 20
22.03085027634832
 30
0.0
 11
45.22227722723954
 21
24.52015452737535
 31
0.0
  0
LINE
  5
2C21
330
2C08
100
AcDbEntity
  8
0
  6
CONTINUOUS
 62
     0
100
AcDbLine
 10
42.7329729762125
 20
22.31369299303762
 30
0.0
 11
44.77708856439911
 21
24.35780858122422
 31
0.0
  0
LINE
  5
2C22
330
2C08
100
AcDbEntity
  8
0
  6
CONTINUOUS
 62
     0
100
AcDbLine
 10
42.73297297621251
 20
22.59653570972692
 30
0.0
 11
44.45962297621249
 21
24.32318570972691
 31
0.0
  0
LINE
  5
2C23
330
2C08
100
AcDbEntity
  8
0
  6
CONTINUOUS
 62
     0
100
AcDbLine
 10
42.73297297621251
 20
22.87937842641623
 30
0.0
 11
44.36198815691297
 21
24.50839360711668
 31
0.0
  0
LINE
  5
2C24
330
2C08
100
AcDbEntity
  8
0
  6
CONTINUOUS
 62
     0
100
AcDbLine
 10
42.7329729762125
 20
23.16222114310552
 30
0.0
 11
44.07914544022366
 21
24.50839360711668
 31
0.0
  0
LINE
  5
2C25
330
2C08
100
AcDbEntity
  8
0
  6
CONTINUOUS
 62
     0
100
AcDbLine
 10
42.73297297621249
 20
23.44506385979483
 30
0.0
 11
43.79630272353435
 21
24.50839360711668
 31
0.0
  0
LINE
  5
2C26
330
2C08
100
AcDbEntity
  8
0
  6
CONTINUOUS
 62
     0
100
AcDbLine
 10
42.7329729762125
 20
23.72790657648413
 30
0.0
 11
43.51346000684505
 21
24.50839360711669
 31
0.0
  0
LINE
  5
2C27
330
2C08
100
AcDbEntity
  8
0
  6
CONTINUOUS
 62
     0
100
AcDbLine
 10
42.7329729762125
 20
24.01074929317345
 30
0.0
 11
43.23061729015575
 21
24.50839360711669
 31
0.0
  0
LINE
  5
2C28
330
2C08
100
AcDbEntity
  8
0
  6
CONTINUOUS
 62
     0
100
AcDbLine
 10
42.7329729762125
 20
24.29359200986275
 30
0.0
 11
42.94777457346644
 21
24.50839360711669
 31
0.0
  0
ENDBLK
  5
2C2A
330
2C08
100
AcDbEntity
  8
0
100
AcDbBlockEnd
  0
ENDSEC
  0
SECTION
  2
ENTITIES
  0
LINE
  5
29
330
A
100
AcDbEntity
  8
CARTOUCHE
  6
CONTINUOUS
 62
     7
100
AcDbLine
 10
205.0000369999999
 20
10.00079299999999
 30
0.0
 11
5.0
 21
10.00106799999999
 31
0.0
  0
LINE
  5
2A
330
A
100
AcDbEntity
  8
CARTOUCHE
  6
CONTINUOUS
 62
     7
100
AcDbLine
 10
50.000001
 20
36.845393
 30
0.0
 11
50.000001
 21
5.000041000000003
 31
0.0
  0
TEXT
  5
2B
330
A
100
AcDbEntity
  8
CARTOUCHE
  6
CONTINUOUS
 62
     7
100
AcDbText
 10
119.7224188765448
 20
32.43596648846941
 30
0.0
 40
1.8
  1
PRODUCT TYPE
 50
359.9999079999999
 41
0.8
  7
FINDER
 72
     1
 11
127.4999904999999
 21
32.435954
 31
0.0
100
AcDbText
  0
TEXT
  5
2D
330
A
100
AcDbEntity
  8
CARTOUCHE
  6
CONTINUOUS
 62
     2
100
AcDbText
 10
19.49392955867334
 20
6.600974855371421
 30
0.0
 40
1.8
  1
MOD. UT 902
 50
359.9999079999999
 41
1.05
  7
FINDER
 72
     1
 11
27.5000005
 21
6.600961999999995
 31
0.0
100
AcDbText
  0
LINE
  5
2E
330
A
100
AcDbEntity
  8
CARTOUCHE
  6
CONTINUOUS
 62
     7
100
AcDbLine
 10
205.0000079999999
 20
20.002808
 30
0.0
 11
49.999973
 21
20.00304499999999
 31
0.0
  0
TEXT
  5
31
330
A
100
AcDbEntity
  8
CARTOUCHE
  6
CONTINUOUS
 62
     7
100
AcDbText
 10
73.49406286516899
 20
16.62430475616189
 30
0.0
 40
1.8
  1
REV.
 50
359.9999079999999
 41
0.8
  7
FINDER
 72
     1
 11
75.83332616666665
 21
16.62430099999999
 31
0.0
100
AcDbText
  0
TEXT
  5
32
330
A
100
AcDbEntity
  8
CARTOUCHE
  6
CONTINUOUS
 62
     1
100
AcDbText
 10
75.18814199204266
 20
11.7762790359741
 30
0.0
 40
2.1
  1
0
 50
359.9999079999999
 41
0.8
  7
FINDER
 72
     1
 11
75.83332616666665
 21
11.77627799999999
 31
0.0
100
AcDbText
  0
LINE
  5
33
330
A
100
AcDbEntity
  8
CARTOUCHE
  6
CONTINUOUS
 62
     7
100
AcDbLine
 10
101.6666513333333
 20
20.00296599999999
 30
0.0
 11
101.6666513333333
 21
10.001024
 31
0.0
  0
LINE
  5
37
330
A
100
AcDbEntity
  8
CARTOUCHE
  6
CONTINUOUS
 62
     4
100
AcDbLine
 10
12.362923
 20
27.65548499999999
 30
0.0
 11
12.362923
 21
21.81019399999999
 31
0.0
  0
LINE
  5
38
330
A
100
AcDbEntity
  8
CARTOUCHE
  6
CONTINUOUS
 62
     4
100
AcDbLine
 10
12.362923
 20
21.81019399999999
 30
0.0
 11
10.88782299999999
 21
23.41084399999999
 31
0.0
  0
LINE
  5
39
330
A
100
AcDbEntity
  8
CARTOUCHE
  6
CONTINUOUS
 62
     4
100
AcDbLine
 10
10.88782299999999
 20
23.41084399999999
 30
0.0
 11
11.11642299999999
 21
23.41084399999999
 31
0.0
  0
LINE
  5
3A
330
A
100
AcDbEntity
  8
CARTOUCHE
  6
CONTINUOUS
 62
     4
100
AcDbLine
 10
11.413873
 20
23.766514
 30
0.0
 11
11.413873
 21
27.65262099999999
 31
0.0
  0
LINE
  5
3B
330
A
100
AcDbEntity
  8
CARTOUCHE
  6
CONTINUOUS
 62
     4
100
AcDbLine
 10
10.46482299999999
 20
27.399506
 30
0.0
 11
10.46482299999999
 21
24.428744
 31
0.0
  0
LINE
  5
3C
330
A
100
AcDbEntity
  8
CARTOUCHE
  6
CONTINUOUS
 62
     4
100
AcDbLine
 10
10.46482299999999
 20
24.428744
 30
0.0
 11
8.174775999999999
 21
24.428744
 31
0.0
  0
LINE
  5
3D
330
A
100
AcDbEntity
  8
CARTOUCHE
  6
CONTINUOUS
 62
     4
100
AcDbLine
 10
8.176312999999998
 20
23.41084399999999
 30
0.0
 11
9.378522999999999
 21
23.41084399999999
 31
0.0
  0
LINE
  5
3E
330
A
100
AcDbEntity
  8
CARTOUCHE
  6
CONTINUOUS
 62
     4
100
AcDbLine
 10
9.378522999999999
 20
23.41084399999999
 30
0.0
 11
12.173699
 21
20.668328
 31
0.0
  0
LINE
  5
3F
330
A
100
AcDbEntity
  8
CARTOUCHE
  6
CONTINUOUS
 62
     4
100
AcDbLine
 10
13.323223
 20
21.16984399999999
 30
0.0
 11
13.323223
 21
24.508394
 31
0.0
  0
LINE
  5
40
330
A
100
AcDbEntity
  8
CARTOUCHE
  6
CONTINUOUS
 62
     4
100
AcDbLine
 10
13.323223
 20
24.508394
 30
0.0
 11
14.45542299999999
 21
24.508394
 31
0.0
  0
LINE
  5
41
330
A
100
AcDbEntity
  8
CARTOUCHE
  6
CONTINUOUS
 62
     4
100
AcDbLine
 10
14.35365599999999
 20
25.503344
 30
0.0
 11
13.323223
 21
25.503344
 31
0.0
  0
LINE
  5
42
330
A
100
AcDbEntity
  8
CARTOUCHE
  6
CONTINUOUS
 62
     4
100
AcDbLine
 10
13.323223
 20
25.503344
 30
0.0
 11
13.323223
 21
27.40413399999999
 31
0.0
  0
LINE
  5
43
330
A
100
AcDbEntity
  8
CARTOUCHE
  6
CONTINUOUS
 62
     4
100
AcDbLine
 10
28.108423
 20
22.47903399999999
 30
0.0
 11
28.108423
 21
20.63209399999999
 31
0.0
  0
LINE
  5
44
330
A
100
AcDbEntity
  8
CARTOUCHE
  6
CONTINUOUS
 62
     4
100
AcDbLine
 10
28.108423
 20
20.63209399999999
 30
0.0
 11
29.892223
 21
20.63209399999999
 31
0.0
  0
LINE
  5
45
330
A
100
AcDbEntity
  8
CARTOUCHE
  6
CONTINUOUS
 62
     4
100
AcDbLine
 10
29.892223
 20
20.63209399999999
 30
0.0
 11
29.892223
 21
23.324553
 31
0.0
  0
LINE
  5
46
330
A
100
AcDbEntity
  8
CARTOUCHE
  6
CONTINUOUS
 62
     4
100
AcDbLine
 10
26.289973
 20
24.074144
 30
0.0
 11
26.289973
 21
24.508394
 31
0.0
  0
LINE
  5
47
330
A
100
AcDbEntity
  8
CARTOUCHE
  6
CONTINUOUS
 62
     4
100
AcDbLine
 10
26.289973
 20
24.508394
 30
0.0
 11
24.494923
 21
24.508394
 31
0.0
  0
LINE
  5
48
330
A
100
AcDbEntity
  8
CARTOUCHE
  6
CONTINUOUS
 62
     4
100
AcDbLine
 10
24.494923
 20
24.508394
 30
0.0
 11
24.494923
 21
20.63209399999999
 31
0.0
  0
LINE
  5
49
330
A
100
AcDbEntity
  8
CARTOUCHE
  6
CONTINUOUS
 62
     4
100
AcDbLine
 10
24.494923
 20
20.63209399999999
 30
0.0
 11
26.289973
 21
20.63209399999999
 31
0.0
  0
LINE
  5
4A
330
A
100
AcDbEntity
  8
CARTOUCHE
  6
CONTINUOUS
 62
     4
100
AcDbLine
 10
26.289973
 20
20.63209399999999
 30
0.0
 11
26.289973
 21
22.43349899999999
 31
0.0
  0
LINE
  5
4B
330
A
100
AcDbEntity
  8
CARTOUCHE
  6
CONTINUOUS
 62
     4
100
AcDbLine
 10
35.986573
 20
25.823744
 30
0.0
 11
35.986573
 21
20.62084399999999
 31
0.0
  0
LINE
  5
4C
330
A
100
AcDbEntity
  8
CARTOUCHE
  6
CONTINUOUS
 62
     4
100
AcDbLine
 10
35.986573
 20
20.62084399999999
 30
0.0
 11
34.191523
 21
20.62084399999999
 31
0.0
  0
LINE
  5
4D
330
A
100
AcDbEntity
  8
CARTOUCHE
  6
CONTINUOUS
 62
     4
100
AcDbLine
 10
34.191523
 20
24.319904
 30
0.0
 11
34.191523
 21
25.823744
 31
0.0
  0
LINE
  5
4E
330
A
100
AcDbEntity
  8
CARTOUCHE
  6
CONTINUOUS
 62
     4
100
AcDbLine
 10
34.191523
 20
25.823744
 30
0.0
 11
35.986573
 21
25.823744
 31
0.0
  0
LINE
  5
4F
330
A
100
AcDbEntity
  8
CARTOUCHE
  6
CONTINUOUS
 62
     4
100
AcDbLine
 10
42.732973
 20
24.508394
 30
0.0
 11
44.459623
 21
24.508394
 31
0.0
  0
LINE
  5
50
330
A
100
AcDbEntity
  8
CARTOUCHE
  6
CONTINUOUS
 62
     4
100
AcDbLine
 10
44.459623
 20
24.508394
 30
0.0
 11
44.459623
 21
24.165494
 31
0.0
  0
LINE
  5
51
330
A
100
AcDbEntity
  8
CARTOUCHE
  6
CONTINUOUS
 62
     4
100
AcDbLine
 10
47.283823
 20
22.58779399999999
 30
0.0
 11
45.454573
 21
22.58779399999999
 31
0.0
  0
LINE
  5
52
330
A
100
AcDbEntity
  8
CARTOUCHE
  6
CONTINUOUS
 62
     4
100
AcDbLine
 10
45.454573
 20
22.58779399999999
 30
0.0
 11
45.454573
 21
22.827644
 31
0.0
  0
LINE
  5
53
330
A
100
AcDbEntity
  8
CARTOUCHE
  6
CONTINUOUS
 62
     4
100
AcDbLine
 10
44.459623
 20
22.78219399999999
 30
0.0
 11
44.459623
 21
20.63209399999999
 31
0.0
  0
LINE
  5
54
330
A
100
AcDbEntity
  8
CARTOUCHE
  6
CONTINUOUS
 62
     4
100
AcDbLine
 10
44.459623
 20
20.63209399999999
 30
0.0
 11
42.732973
 21
20.63209399999999
 31
0.0
  0
LINE
  5
55
330
A
100
AcDbEntity
  8
CARTOUCHE
  6
CONTINUOUS
 62
     4
100
AcDbLine
 10
42.732973
 20
20.63209399999999
 30
0.0
 11
42.732973
 21
24.508394
 31
0.0
  0
LINE
  5
56
330
A
100
AcDbEntity
  8
CARTOUCHE
  6
CONTINUOUS
 62
     4
100
AcDbLine
 10
39.15412299999999
 20
22.24444399999999
 30
0.0
 11
39.051073
 21
22.24444399999999
 31
0.0
  0
LINE
  5
57
330
A
100
AcDbEntity
  8
CARTOUCHE
  6
CONTINUOUS
 62
     4
100
AcDbLine
 10
39.051073
 20
22.24444399999999
 30
0.0
 11
38.364823
 21
22.24444399999999
 31
0.0
  0
LINE
  5
58
330
A
100
AcDbEntity
  8
CARTOUCHE
  6
CONTINUOUS
 62
     4
100
AcDbLine
 10
40.343023
 20
21.855644
 30
0.0
 11
42.10387299999999
 21
21.855644
 31
0.0
  0
LINE
  5
59
330
A
100
AcDbEntity
  8
CARTOUCHE
  6
CONTINUOUS
 62
     4
100
AcDbLine
 10
42.206923
 20
22.25614399999999
 30
0.0
 11
39.15412299999999
 21
22.24444399999999
 31
0.0
  0
LINE
  5
5A
330
A
100
AcDbEntity
  8
CARTOUCHE
  6
CONTINUOUS
 62
     4
100
AcDbLine
 10
39.15412299999999
 20
23.07919399999999
 30
0.0
 11
40.343023
 21
23.07919399999999
 31
0.0
  0
LINE
  5
5B
330
A
100
AcDbEntity
  8
CARTOUCHE
  6
CONTINUOUS
 62
     4
100
AcDbLine
 10
38.364823
 20
23.07919399999999
 30
0.0
 11
39.15412299999999
 21
23.07919399999999
 31
0.0
  0
LINE
  5
5C
330
A
100
AcDbEntity
  8
CARTOUCHE
  6
CONTINUOUS
 62
     4
100
AcDbLine
 10
21.08752299999999
 20
24.931844
 30
0.0
 11
21.08752299999999
 21
25.834994
 31
0.0
  0
LINE
  5
5D
330
A
100
AcDbEntity
  8
CARTOUCHE
  6
CONTINUOUS
 62
     4
100
AcDbLine
 10
21.08752299999999
 20
25.834994
 30
0.0
 11
19.58947299999999
 21
25.834994
 31
0.0
  0
LINE
  5
5E
330
A
100
AcDbEntity
  8
CARTOUCHE
  6
CONTINUOUS
 62
     4
100
AcDbLine
 10
18.67462299999999
 20
24.931844
 30
0.0
 11
18.67462299999999
 21
24.508394
 31
0.0
  0
LINE
  5
5F
330
A
100
AcDbEntity
  8
CARTOUCHE
  6
CONTINUOUS
 62
     4
100
AcDbLine
 10
18.67462299999999
 20
24.508394
 30
0.0
 11
18.137323
 21
24.508394
 31
0.0
  0
LINE
  5
60
330
A
100
AcDbEntity
  8
CARTOUCHE
  6
CONTINUOUS
 62
     4
100
AcDbLine
 10
18.137323
 20
24.508394
 30
0.0
 11
18.137323
 21
23.41084399999999
 31
0.0
  0
LINE
  5
61
330
A
100
AcDbEntity
  8
CARTOUCHE
  6
CONTINUOUS
 62
     4
100
AcDbLine
 10
18.137323
 20
23.41084399999999
 30
0.0
 11
18.67462299999999
 21
23.41084399999999
 31
0.0
  0
LINE
  5
62
330
A
100
AcDbEntity
  8
CARTOUCHE
  6
CONTINUOUS
 62
     4
100
AcDbLine
 10
18.67462299999999
 20
23.41084399999999
 30
0.0
 11
18.67462299999999
 21
20.63209399999999
 31
0.0
  0
LINE
  5
63
330
A
100
AcDbEntity
  8
CARTOUCHE
  6
CONTINUOUS
 62
     4
100
AcDbLine
 10
18.67462299999999
 20
20.63209399999999
 30
0.0
 11
20.470123
 21
20.63209399999999
 31
0.0
  0
LINE
  5
64
330
A
100
AcDbEntity
  8
CARTOUCHE
  6
CONTINUOUS
 62
     4
100
AcDbLine
 10
20.470123
 20
20.63209399999999
 30
0.0
 11
20.470123
 21
23.41084399999999
 31
0.0
  0
LINE
  5
65
330
A
100
AcDbEntity
  8
CARTOUCHE
  6
CONTINUOUS
 62
     4
100
AcDbLine
 10
20.470123
 20
23.41084399999999
 30
0.0
 11
21.08752299999999
 21
23.41084399999999
 31
0.0
  0
LINE
  5
66
330
A
100
AcDbEntity
  8
CARTOUCHE
  6
CONTINUOUS
 62
     4
100
AcDbLine
 10
21.08752299999999
 20
23.41084399999999
 30
0.0
 11
21.08752299999999
 21
24.508394
 31
0.0
  0
LINE
  5
67
330
A
100
AcDbEntity
  8
CARTOUCHE
  6
CONTINUOUS
 62
     4
100
AcDbLine
 10
21.08752299999999
 20
24.508394
 30
0.0
 11
20.412973
 21
24.508394
 31
0.0
  0
LINE
  5
68
330
A
100
AcDbEntity
  8
CARTOUCHE
  6
CONTINUOUS
 62
     4
100
AcDbLine
 10
20.412973
 20
24.508394
 30
0.0
 11
20.46107899999999
 21
24.76862199999999
 31
0.0
  0
LINE
  5
69
330
A
100
AcDbEntity
  8
CARTOUCHE
  6
CONTINUOUS
 62
     4
100
AcDbLine
 10
20.67905299999999
 20
24.931844
 30
0.0
 11
21.08752299999999
 21
24.931844
 31
0.0
  0
LINE
  5
6A
330
A
100
AcDbEntity
  8
CARTOUCHE
  6
CONTINUOUS
 62
     4
100
AcDbLine
 10
21.80797299999999
 20
20.63209399999999
 30
0.0
 11
21.80797299999999
 21
24.508394
 31
0.0
  0
LINE
  5
6B
330
A
100
AcDbEntity
  8
CARTOUCHE
  6
CONTINUOUS
 62
     4
100
AcDbLine
 10
21.80797299999999
 20
24.508394
 30
0.0
 11
23.625973
 21
24.508394
 31
0.0
  0
LINE
  5
6C
330
A
100
AcDbEntity
  8
CARTOUCHE
  6
CONTINUOUS
 62
     4
100
AcDbLine
 10
23.625973
 20
24.508394
 30
0.0
 11
23.625973
 21
20.63209399999999
 31
0.0
  0
LINE
  5
6D
330
A
100
AcDbEntity
  8
CARTOUCHE
  6
CONTINUOUS
 62
     4
100
AcDbLine
 10
23.625973
 20
20.63209399999999
 30
0.0
 11
21.80797299999999
 21
20.63209399999999
 31
0.0
  0
LINE
  5
6E
330
A
100
AcDbEntity
  8
CARTOUCHE
  6
CONTINUOUS
 62
     4
100
AcDbLine
 10
21.80797299999999
 20
24.943094
 30
0.0
 11
21.80797299999999
 21
25.834994
 31
0.0
  0
LINE
  5
6F
330
A
100
AcDbEntity
  8
CARTOUCHE
  6
CONTINUOUS
 62
     4
100
AcDbLine
 10
21.80797299999999
 20
25.834994
 30
0.0
 11
23.625973
 21
25.834994
 31
0.0
  0
LINE
  5
70
330
A
100
AcDbEntity
  8
CARTOUCHE
  6
CONTINUOUS
 62
     4
100
AcDbLine
 10
23.625973
 20
25.834994
 30
0.0
 11
23.625973
 21
24.943094
 31
0.0
  0
LINE
  5
71
330
A
100
AcDbEntity
  8
CARTOUCHE
  6
CONTINUOUS
 62
     4
100
AcDbLine
 10
23.625973
 20
24.943094
 30
0.0
 11
21.80797299999999
 21
24.943094
 31
0.0
  0
ARC
  5
72
330
A
100
AcDbEntity
  8
CARTOUCHE
  6
CONTINUOUS
 62
     4
100
AcDbCircle
 10
19.58025899999999
 20
24.929401
 30
0.0
 40
0.905639
100
AcDbArc
 50
90.0
 51
180.0
  0
ARC
  5
73
330
A
100
AcDbEntity
  8
CARTOUCHE
  6
CONTINUOUS
 62
     4
100
AcDbCircle
 10
20.70598799999999
 20
24.668716
 30
0.0
 40
0.264503
100
AcDbArc
 50
95.84467300000001
 51
157.807812
  0
ARC
  5
74
330
A
100
AcDbEntity
  8
CARTOUCHE
  6
CONTINUOUS
 62
     4
100
AcDbCircle
 10
28.675028
 20
23.26487299999999
 30
0.0
 40
1.218658
100
AcDbArc
 50
2.806996999999999
 51
66.54578100000001
  0
ARC
  5
75
330
A
100
AcDbEntity
  8
CARTOUCHE
  6
CONTINUOUS
 62
     4
100
AcDbCircle
 10
28.06740299999999
 20
21.04526099999999
 30
0.0
 40
3.511892
100
AcDbArc
 50
71.872392
 51
120.4055569999999
  0
ARC
  5
76
330
A
100
AcDbEntity
  8
CARTOUCHE
  6
CONTINUOUS
 62
     4
100
AcDbCircle
 10
27.457324
 20
22.47903399999999
 30
0.0
 40
0.6511239999999999
100
AcDbArc
 50
0.0
 51
97.15068299999998
  0
ARC
  5
77
330
A
100
AcDbEntity
  8
CARTOUCHE
  6
CONTINUOUS
 62
     4
100
AcDbCircle
 10
27.44381
 20
21.82007899999999
 30
0.0
 40
1.306761
100
AcDbArc
 50
92.96251299999999
 51
152.003324
  0
CIRCLE
  5
78
330
A
100
AcDbEntity
  8
CARTOUCHE
  6
CONTINUOUS
 62
     4
100
AcDbCircle
 10
11.89964599999999
 20
23.92542199999999
 30
0.0
 40
4.756723
  0
ARC
  5
79
330
A
100
AcDbEntity
  8
CARTOUCHE
  6
CONTINUOUS
 62
     4
100
AcDbCircle
 10
11.899651
 20
23.925417
 30
0.0
 40
3.758726999999999
100
AcDbArc
 50
112.441032
 51
172.30447
  0
ARC
  5
7A
330
A
100
AcDbEntity
  8
CARTOUCHE
  6
CONTINUOUS
 62
     4
100
AcDbCircle
 10
11.899651
 20
23.925417
 30
0.0
 40
3.758726999999999
100
AcDbArc
 50
82.92015400000002
 51
97.425676
  0
ARC
  5
7B
330
A
100
AcDbEntity
  8
CARTOUCHE
  6
CONTINUOUS
 62
     4
100
AcDbCircle
 10
11.899651
 20
23.925417
 30
0.0
 40
3.758726999999999
100
AcDbArc
 50
187.868554
 51
67.74447600000001
  0
SPLINE
  5
7C
330
A
100
AcDbEntity
  8
CARTOUCHE
  6
CONTINUOUS
 62
     4
100
AcDbSpline
210
0.0
220
0.0
230
1.0
 70
     8
 71
     3
 72
    36
 73
    32
 74
    30
 42
0.0000000001
 43
0.0000000001
 44
0.000001
 12
-0.7486966541787443
 22
0.6629127544568397
 32
0.0
 13
0.8109899424984487
 23
0.5850600936368528
 33
0.0
 40
0.0
 40
0.0
 40
0.0
 40
0.0
 40
0.1780761553060592
 40
0.3550416348689643
 40
0.534344865884214
 40
0.7146560387434039
 40
1.07096908972023
 40
1.425796663898011
 40
1.782601001142078
 40
2.138603895040087
 40
2.494665093696489
 40
2.851054396920104
 40
3.206893011134885
 40
3.5633758813569
 40
3.919393765629757
 40
4.275489247209685
 40
4.63181002055742
 40
4.987968836485984
 40
5.344081360419369
 40
5.700398584840188
 40
6.056403071275475
 40
6.412685561611947
 40
6.768553833375488
 40
7.124993908020175
 40
7.480918575954272
 40
7.837064891658398
 40
8.193226462040996
 40
8.549153485654635
 40
8.905927656882475
 40
9.261828075226134
 40
9.97055756363208
 40
9.97055756363208
 40
9.97055756363208
 40
9.97055756363208
 10
34.19152297621249
 20
24.31990419713182
 30
0.0
 10
34.1470813023236
 20
24.35925384867083
 30
0.0
 10
34.05217195696811
 20
24.43173618392171
 30
0.0
 10
33.88702575613148
 20
24.50226791579084
 30
0.0
 10
33.71305223761583
 20
24.54495714766014
 30
0.0
 10
33.47834937114383
 20
24.58798310564187
 30
0.0
 10
33.18518211493349
 20
24.63800747804683
 30
0.0
 10
32.82899744348545
 20
24.659369294718
 30
0.0
 10
32.47326771695627
 20
24.6462139008177
 30
0.0
 10
32.11757591555201
 20
24.6124287086089
 30
0.0
 10
31.77299300510801
 20
24.51557088414889
 30
0.0
 10
31.44749964423073
 20
24.36660655392596
 30
0.0
 10
31.1577579438396
 20
24.15567801072958
 30
0.0
 10
30.90609576518012
 20
23.90204674026736
 30
0.0
 10
30.69450218406408
 20
23.61346834211755
 30
0.0
 10
30.53862681297709
 20
23.29089603959583
 30
0.0
 10
30.44277781548908
 20
22.9462329884785
 30
0.0
 10
30.40515987073752
 20
22.58968062292321
 30
0.0
 10
30.44352427876861
 20
22.23351817132073
 30
0.0
 10
30.53308941867978
 20
21.88748886639843
 30
0.0
 10
30.68157947778859
 20
21.56148506227443
 30
0.0
 10
30.88917782139148
 20
21.26919473918138
 30
0.0
 10
31.15221374974196
 20
21.02575919463755
 30
0.0
 10
31.4509261633181
 20
20.8297348790022
 30
0.0
 10
31.77615975633121
 20
20.68002671318712
 30
0.0
 10
32.1245992018452
 20
20.59680895475905
 30
0.0
 10
32.48036308610931
 20
20.56921458872082
 30
0.0
 10
32.83672042951042
 20
20.56880350163354
 30
0.0
 10
33.19288790635217
 20
20.58096018875885
 30
0.0
 10
33.66419152145323
 20
20.63797084694976
 30
0.0
 10
33.99993214719606
 20
20.7886271601667
 30
0.0
 10
34.19152297621249
 20
20.92684360711669
 30
0.0
 11
34.19152297621249
 21
24.31990419713182
 31
0.0
 11
34.04814564948316
 21
24.42551803537496
 31
0.0
 11
33.886414432493
 21
24.49734946038967
 31
0.0
 11
33.71305596481814
 21
24.54313679053143
 31
0.0
 11
33.53598457982956
 21
24.57716399139704
 31
0.0
 11
33.18386096308204
 21
24.63164336554592
 31
0.0
 11
32.8297140010732
 21
24.65361067318905
 31
0.0
 11
32.47307470160767
 21
24.6427593690914
 31
0.0
 11
32.11942187052807
 21
24.60192152108414
 31
0.0
 11
31.77626880985488
 21
24.50691864896159
 31
0.0
 11
31.45331806594562
 21
24.35619987525168
 31
0.0
 11
31.16425081659299
 21
24.14868782982736
 31
0.0
 11
30.91268311986691
 21
23.89611360248224
 31
0.0
 11
30.70379325220439
 21
23.60781901266322
 31
0.0
 11
30.54866063637869
 21
23.28729150751013
 31
0.0
 11
30.45247328846812
 21
22.94419894098582
 31
0.0
 11
30.4178204424804
 21
22.58972989255913
 31
0.0
 11
30.4520470898832
 21
22.23526594311771
 31
0.0
 11
30.54294059487364
 21
21.89073675637875
 31
0.0
 11
30.691396483504
 21
21.56716285752306
 31
0.0
 11
30.89849041843911
 21
21.27725022136696
 31
0.0
 11
31.15802450035081
 21
21.03376654019861
 31
0.0
 11
31.45548308742885
 21
20.83737935540596
 31
0.0
 11
31.77997022332717
 21
20.69112453447919
 31
0.0
 11
32.12581407620214
 21
20.60608206244056
 31
0.0
 11
32.48050427697165
 21
20.57374147270578
 31
0.0
 11
32.83641989969535
 21
20.57089422013113
 31
0.0
 11
33.19286980656467
 21
20.58610182742617
 31
0.0
 11
33.54527140198384
 21
20.63588357412756
 31
0.0
 11
34.19152297621249
 21
20.92684360711669
 31
0.0
  0
SPLINE
  5
7D
330
A
100
AcDbEntity
  8
CARTOUCHE
  6
CONTINUOUS
 62
     4
100
AcDbSpline
210
0.0
220
0.0
230
1.0
 70
     8
 71
     3
 72
    32
 73
    28
 74
    26
 42
0.0000000001
 43
0.0000000001
 44
0.000001
 12
-0.1341089932713914
 22
0.9909665876929121
 32
0.0
 13
0.0921211275959058
 23
0.9957478083583508
 33
0.0
 40
0.0
 40
0.0
 40
0.0
 40
0.0
 40
0.1932870726990442
 40
0.3866792452096369
 40
0.5800716448723918
 40
0.7723331336887302
 40
0.9658517963207579
 40
1.15936832472225
 40
1.351211885861727
 40
1.544293516073681
 40
1.738458265495977
 40
1.931764420786823
 40
2.315247530488627
 40
2.698534125382553
 40
2.891496493449492
 40
3.086239187656826
 40
3.279346076389813
 40
3.471494617804942
 40
3.665361350852587
 40
3.858866209618604
 40
4.051424456358013
 40
4.244517019109064
 40
4.629047421486941
 40
4.822526074880362
 40
5.015998230668782
 40
5.208856307653513
 40
5.402319509587266
 40
5.402319509587266
 40
5.402319509587266
 40
5.402319509587266
 10
34.19152297621249
 20
22.75924360711669
 30
0.0
 10
34.18288246463514
 20
22.82309061740926
 30
0.0
 10
34.14699032504411
 20
22.94923083584773
 30
0.0
 10
34.0386311915935
 20
23.11295856749962
 30
0.0
 10
33.88808692217448
 20
23.2375052632015
 30
0.0
 10
33.71390333686501
 20
23.32349595013639
 30
0.0
 10
33.52952374823402
 20
23.38166664627401
 30
0.0
 10
33.34290576820264
 20
23.43125923522332
 30
0.0
 10
33.15005934454871
 20
23.45345638096766
 30
0.0
 10
32.9567662653034
 20
23.43192402229584
 30
0.0
 10
32.77056094954621
 20
23.37588613719518
 30
0.0
 10
32.54005643000672
 20
23.25927875203682
 30
0.0
 10
32.30432080538978
 20
23.02895627192544
 30
0.0
 10
32.19918324728944
 20
22.70410853072549
 30
0.0
 10
32.25560999955026
 20
22.44863361631263
 30
0.0
 10
32.34552926468555
 20
22.27538547462596
 30
0.0
 10
32.47312191827225
 20
22.12730573798492
 30
0.0
 10
32.63483114160579
 20
22.01829644309
 30
0.0
 10
32.81426091781527
 20
21.94472694998748
 30
0.0
 10
33.00144386925829
 20
21.89441488480765
 30
0.0
 10
33.1942829819659
 20
21.87304334806435
 30
0.0
 10
33.45148795617318
 20
21.88934820105486
 30
0.0
 10
33.70119762619981
 20
21.97262952139333
 30
0.0
 10
33.91655360502459
 20
22.11456126477983
 30
0.0
 10
34.05836119423948
 20
22.24858589816442
 30
0.0
 10
34.15639851653419
 20
22.41858974007392
 30
0.0
 10
34.18558229344234
 20
22.54608008734217
 30
0.0
 10
34.19152297621249
 20
22.61029360711668
 30
0.0
 11
34.19152297621249
 21
22.75924360711669
 31
0.0
 11
34.13791895137521
 21
22.94494973500174
 31
0.0
 11
34.03155373353056
 21
23.10646429401779
 31
0.0
 11
33.88383915758775
 21
23.2312882243935
 31
0.0
 11
33.71260018090836
 21
23.31870497950504
 31
0.0
 11
33.52912571204567
 21
23.38024026476581
 31
0.0
 11
33.34129541646134
 21
23.4268066350183
 31
0.0
 11
33.15043306379559
 21
23.44618483007101
 31
0.0
 11
32.95838311054932
 21
23.42625160056325
 31
0.0
 11
32.77240099875644
 21
23.37047876932411
 31
0.0
 11
32.6003783004499
 21
23.2823001555606
 31
0.0
 11
32.3303531106979
 21
23.01000300398824
 31
0.0
 11
32.22491909320101
 21
22.64150286445184
 31
0.0
 11
32.26331822628609
 21
22.45239971642014
 31
0.0
 11
32.35215412813562
 21
22.27909964132739
 31
0.0
 11
32.4790661567678
 21
22.13355370124998
 31
0.0
 11
32.63725672616545
 21
22.02448118124886
 31
0.0
 11
32.81564788989768
 21
21.94858052993354
 31
0.0
 11
33.00273750412712
 21
21.89916786421673
 31
0.0
 11
33.19419909206249
 21
21.87864610808738
 31
0.0
 11
33.38690243953788
 21
21.89090007892743
 31
0.0
 11
33.7516338226573
 21
22.01269765064039
 31
0.0
 11
33.91321018639743
 21
22.11912633605072
 31
0.0
 11
34.05119662359747
 21
22.25474052514756
 31
0.0
 11
34.14728879489485
 21
22.42195449774152
 31
0.0
 11
34.19152297621249
 21
22.61029360711668
 31
0.0
  0
LINE
  5
7E
330
A
100
AcDbEntity
  8
CARTOUCHE
  6
CONTINUOUS
 62
     4
100
AcDbLine
 10
34.191523
 20
22.61029399999999
 30
0.0
 11
34.191523
 21
22.75924399999999
 31
0.0
  0
LINE
  5
7F
330
A
100
AcDbEntity
  8
CARTOUCHE
  6
CONTINUOUS
 62
     4
100
AcDbLine
 10
34.191523
 20
20.62084399999999
 30
0.0
 11
34.191523
 21
20.92684399999999
 31
0.0
  0
SPLINE
  5
80
330
A
100
AcDbEntity
  8
CARTOUCHE
  6
CONTINUOUS
 62
     4
100
AcDbSpline
210
0.0
220
0.0
230
1.0
 70
     8
 71
     3
 72
    46
 73
    42
 74
    40
 42
0.0000000001
 43
0.0000000001
 44
0.000001
 12
0.2679235453433934
 22
0.9634401765811029
 32
0.0
 13
0.1610223945668763
 23
0.9869507527977013
 33
0.0
 40
0.0
 40
0.0
 40
0.0
 40
0.0
 40
0.2811755879610205
 40
0.5640894598527197
 40
0.8489967500744224
 40
1.131204584902198
 40
1.693847130716202
 40
2.25688272553264
 40
2.539006562895577
 40
2.820696627709168
 40
3.102988313571604
 40
3.385254961394738
 40
3.94853705967111
 40
4.51259487957146
 40
5.076290929579045
 40
5.639938991368811
 40
6.203885292827621
 40
6.766738024232006
 40
7.329350602228585
 40
7.892323292363498
 40
8.455148072837019
 40
8.737354674731138
 40
9.018966275430827
 40
9.581780957923617
 40
9.864038410179498
 40
10.14660875455178
 40
10.42765626274299
 40
10.71044466815239
 40
11.27439702776554
 40
11.83782171874065
 40
12.40154952919085
 40
12.96488070414784
 40
13.53013628041458
 40
13.81230340811157
 40
14.09372867187361
 40
14.37575650341838
 40
14.65756953458365
 40
14.93943539145296
 40
15.2212008302244
 40
15.50299648006999
 40
15.78483841467691
 40
15.78483841467691
 40
15.78483841467691
 40
15.78483841467691
 10
42.2069229762125
 20
22.2561436071167
 30
0.0
 10
42.23203416300934
 20
22.34644222648852
 30
0.0
 10
42.26336600835234
 20
22.53399302707784
 30
0.0
 10
42.24149685064985
 20
22.81801354893512
 30
0.0
 10
42.17836809953296
 20
23.09483432895953
 30
0.0
 10
42.05825188604775
 20
23.45212616882764
 30
0.0
 10
41.8230668006803
 20
23.86725004625181
 30
0.0
 10
41.46781676949065
 20
24.18453380611619
 30
0.0
 10
41.14761161207628
 20
24.38196283172969
 30
0.0
 10
40.88897553118341
 20
24.49665789401903
 30
0.0
 10
40.61969386966782
 20
24.58173362530224
 30
0.0
 10
40.25431496432636
 20
24.67112545926651
 30
0.0
 10
39.78717039719532
 20
24.73491722666181
 30
0.0
 10
39.22286209832438
 20
24.74314592079586
 30
0.0
 10
38.65912089182815
 20
24.707767262888
 30
0.0
 10
38.10430973138447
 20
24.60055473365942
 30
0.0
 10
37.56703419814676
 20
24.41975302663697
 30
0.0
 10
37.09128412027334
 20
24.10132431889457
 30
0.0
 10
36.74193897991701
 20
23.6494135573821
 30
0.0
 10
36.52262166512313
 20
23.12465092262864
 30
0.0
 10
36.46286239872553
 20
22.6523743754689
 30
0.0
 10
36.49897197569239
 20
22.27677357904617
 30
0.0
 10
36.60138550967333
 20
21.91447847594101
 30
0.0
 10
36.76185476285072
 20
21.56953949794035
 30
0.0
 10
36.99184531701846
 20
21.27135446443551
 30
0.0
 10
37.18412183917007
 20
21.0637297758158
 30
0.0
 10
37.41499114147043
 20
20.89810995063151
 30
0.0
 10
37.75233275177086
 20
20.73107999541952
 30
0.0
 10
38.19505514432215
 20
20.56630095377483
 30
0.0
 10
38.75227472239757
 20
20.4684543647121
 30
0.0
 10
39.31516450875555
 20
20.42686251213917
 30
0.0
 10
39.87978566121683
 20
20.45310413897527
 30
0.0
 10
40.34636221788836
 20
20.51793252236163
 30
0.0
 10
40.71317022013404
 20
20.60361845862006
 30
0.0
 10
40.98020793552477
 20
20.69575648453573
 30
0.0
 10
41.23634112546803
 20
20.81337071306749
 30
0.0
 10
41.48756204304269
 20
20.94257872732798
 30
0.0
 10
41.71131198312713
 20
21.11779586997518
 30
0.0
 10
41.89210410379195
 20
21.33577447260693
 30
0.0
 10
42.03705455831309
 20
21.5796883241839
 30
0.0
 10
42.0887453551459
 20
21.76292223727327
 30
0.0
 10
42.10387297621249
 20
21.85564360711669
 30
0.0
 11
42.2069229762125
 21
22.2561436071167
 31
0.0
 11
42.25187369928078
 21
22.53370336692195
 31
0.0
 11
42.23470970538826
 21
22.81609604661632
 31
0.0
 11
42.1735788783549
 21
23.0943678180467
 31
0.0
 11
42.08234233059616
 21
23.36142053588839
 31
0.0
 11
41.79914459059214
 21
23.84759505388021
 31
0.0
 11
41.38499580886721
 21
24.22902637720731
 31
0.0
 11
41.1444496714726
 21
24.37644216492157
 31
0.0
 11
40.88739588735783
 21
24.49164913231013
 31
0.0
 11
40.61887239332167
 21
24.57873375105808
 31
0.0
 11
40.34465192624326
 21
24.64564860681681
 31
0.0
 11
39.78677780416955
 21
24.72351512572941
 31
0.0
 11
39.22285539283774
 21
24.73587418697074
 31
0.0
 11
38.66058598489463
 21
24.6957948090196
 31
0.0
 11
38.10728319880826
 21
24.58829981854138
 31
0.0
 11
37.57690963109762
 21
24.3966247732279
 31
0.0
 11
37.1122433036989
 21
24.07899538626728
 31
0.0
 11
36.76366857941348
 21
23.63737494458054
 31
0.0
 11
36.54722159336241
 21
23.11767406956402
 31
0.0
 11
36.47887604508949
 21
22.55901436160784
 31
0.0
 11
36.50730298839907
 21
22.27824312562695
 31
0.0
 11
36.58066141679664
 21
22.00635409419069
 31
0.0
 11
36.82487619371594
 21
21.49928452588675
 31
0.0
 11
36.99507455897878
 21
21.27411393911514
 31
0.0
 11
37.19090624714094
 21
21.07040837833609
 31
0.0
 11
37.41820717151092
 21
20.90511471530929
 31
0.0
 11
37.66963145788086
 21
20.77567317677089
 31
0.0
 11
38.1996064863776
 21
20.58288122875969
 31
0.0
 11
38.75315260795133
 21
20.4778380326807
 31
0.0
 11
39.3154824739789
 21
20.43816227630538
 31
0.0
 11
39.87832438970059
 21
20.46163547548925
 31
0.0
 11
40.43780417420945
 21
20.54223471097222
 31
0.0
 11
40.71211753370237
 21
20.60834422386486
 31
0.0
 11
40.97822189579761
 21
20.69993377525822
 31
0.0
 11
41.23556355576588
 21
20.81532426148599
 31
0.0
 11
41.48298030283661
 21
20.95024471011851
 31
0.0
 11
41.70417597333143
 21
21.12494680466518
 31
0.0
 11
41.88612496759311
 21
21.3400893433574
 31
0.0
 11
42.02581025553314
 21
21.58482751880403
 31
0.0
 11
42.10387297621249
 21
21.85564360711669
 31
0.0
  0
SPLINE
  5
81
330
A
100
AcDbEntity
  8
CARTOUCHE
  6
CONTINUOUS
 62
     4
100
AcDbSpline
210
0.0
220
0.0
230
1.0
 70
     8
 71
     3
 72
    15
 73
    11
 74
     9
 42
0.0000000001
 43
0.0000000001
 44
0.000001
 12
0.1873467659221653
 22
-0.9822938406090642
 32
0.0
 13
0.7770129286964091
 23
0.6294846373332945
 33
0.0
 40
0.0
 40
0.0
 40
0.0
 40
0.0
 40
0.3371520882962238
 40
0.6743124420665318
 40
1.011741231949301
 40
1.348773281046484
 40
1.687274393511964
 40
1.856092886460975
 40
2.024671668997265
 40
2.361713795269132
 40
2.361713795269132
 40
2.361713795269132
 40
2.361713795269132
 10
38.3648229762125
 20
22.24444360711669
 30
0.0
 10
38.3858777606679
 20
22.13404946722274
 30
0.0
 10
38.4790882392058
 20
21.91720258641543
 30
0.0
 10
38.75430841965681
 20
21.70644962175585
 30
0.0
 10
39.06998579026009
 20
21.58181024957577
 30
0.0
 10
39.40539428132957
 20
21.52556294079901
 30
0.0
 10
39.68949383633029
 20
21.54062590043178
 30
0.0
 10
39.90812614741166
 20
21.59887432412625
 30
0.0
 10
40.11328190683267
 20
21.69222629120342
 30
0.0
 10
40.25572761300298
 20
21.7849226602426
 30
0.0
 10
40.3430229762125
 20
21.85564360711669
 30
0.0
 11
38.3648229762125
 21
22.24444360711669
 31
0.0
 11
38.50164219830394
 21
21.93629966675314
 31
0.0
 11
38.76098099155704
 21
21.72084551731241
 31
0.0
 11
39.07332908880515
 21
21.59318639542836
 31
0.0
 11
39.40580907592665
 21
21.53798084006903
 31
0.0
 11
39.7436513990388
 21
21.55908759838489
 31
0.0
 11
39.90657573481705
 21
21.60330661466393
 31
0.0
 11
40.06077578326683
 21
21.67143258943228
 31
0.0
 11
40.3430229762125
 21
21.85564360711669
 31
0.0
  0
SPLINE
  5
82
330
A
100
AcDbEntity
  8
CARTOUCHE
  6
CONTINUOUS
 62
     4
100
AcDbSpline
210
0.0
220
0.0
230
1.0
 70
     8
 71
     3
 72
    21
 73
    17
 74
    15
 42
0.0000000001
 43
0.0000000001
 44
0.000001
 12
-0.0762450288998757
 22
0.9970891111470715
 32
0.0
 13
-0.2154301143740796
 23
-0.9765192603429648
 33
0.0
 40
0.0
 40
0.0
 40
0.0
 40
0.0
 40
0.1868552501291099
 40
0.3735743240415363
 40
0.5613842212537195
 40
0.7484489381161498
 40
0.9355884385827966
 40
1.123112064008595
 40
1.311428189761292
 40
1.500242138341776
 40
1.686443726256273
 40
1.873057604711222
 40
2.059520215358873
 40
2.246467675506937
 40
2.434628543455337
 40
2.621193756753846
 40
2.621193756753846
 40
2.621193756753846
 40
2.621193756753846
 10
40.3430229762125
 20
23.07919360711669
 30
0.0
 10
40.33827404823044
 20
23.14129738553816
 30
0.0
 10
40.31098607120404
 20
23.26532099804101
 30
0.0
 10
40.21176993964344
 20
23.42743856410385
 30
0.0
 10
40.07410542495197
 20
23.55667636729545
 30
0.0
 10
39.9138014685594
 20
23.65566279649367
 30
0.0
 10
39.73873495456709
 20
23.72452138799518
 30
0.0
 10
39.55490004271078
 20
23.76544088796556
 30
0.0
 10
39.36639757169171
 20
23.77885750750729
 30
0.0
 10
39.1790224559892
 20
23.76782182101864
 30
0.0
 10
38.99274814414789
 20
23.72745913194854
 30
0.0
 10
38.83748760469036
 20
23.62068056673371
 30
0.0
 10
38.66640559987162
 20
23.54392780516535
 30
0.0
 10
38.52524863854353
 20
23.41621618712655
 30
0.0
 10
38.42100518625729
 20
23.258923243242
 30
0.0
 10
38.37822023129222
 20
23.13992178181537
 30
0.0
 10
38.36482297621251
 20
23.0791936071167
 30
0.0
 11
40.3430229762125
 21
23.07919360711669
 31
0.0
 11
40.30128482007762
 21
23.26132867168497
 31
0.0
 11
40.20559522220136
 21
23.42166431604199
 31
0.0
 11
40.07014905358668
 21
23.55176773224803
 31
0.0
 11
39.91135088271828
 21
23.6506431736504
 31
0.0
 11
39.7374628559249
 21
23.71981068462436
 31
0.0
 11
39.55447534379333
 21
23.76080659501808
 31
0.0
 11
39.36667772831406
 21
23.77477007425147
 31
0.0
 11
39.17824365086322
 21
23.76280187157366
 31
0.0
 11
38.99791204207538
 21
23.71641788353441
 31
0.0
 11
38.83484335052719
 21
23.62568105970969
 31
0.0
 11
38.6715939776077
 21
23.53558123947115
 31
0.0
 11
38.53168126994678
 21
23.41159000587155
 31
0.0
 11
38.42745670868595
 21
23.25493190905037
 31
0.0
 11
38.36482297621251
 21
23.0791936071167
 31
0.0
  0
SPLINE
  5
83
330
A
100
AcDbEntity
  8
CARTOUCHE
  6
CONTINUOUS
 62
     4
100
AcDbSpline
210
0.0
220
0.0
230
1.0
 70
     8
 71
     3
 72
    14
 73
    10
 74
     8
 42
0.0000000001
 43
0.0000000001
 44
0.000001
 12
0.0554704849890783
 22
0.9984603273516061
 32
0.0
 13
-0.0466631639368038
 23
-0.9989106812580427
 33
0.0
 40
0.0
 40
0.0
 40
0.0
 40
0.0
 40
0.2162139074022184
 40
0.4333924847994317
 40
0.6499495281904898
 40
0.8697428518080903
 40
1.087237595645033
 40
1.304827608132222
 40
1.522315904263415
 40
1.522315904263415
 40
1.522315904263415
 40
1.522315904263415
 10
45.4545729762125
 20
22.82764360711668
 30
0.0
 10
45.45857080631416
 20
22.89960394337094
 30
0.0
 10
45.42640845178715
 20
23.04880719341104
 30
0.0
 10
45.27439530019221
 20
23.21580479327942
 30
0.0
 10
45.06187441261873
 20
23.29256560222702
 30
0.0
 10
44.83996045298546
 20
23.27349163465662
 30
0.0
 10
44.63539403875084
 20
23.17927816693098
 30
0.0
 10
44.50069250367363
 20
22.99887923670178
 30
0.0
 10
44.46300587355137
 20
22.85461073446804
 30
0.0
 10
44.45962297621247
 20
22.78219360711668
 30
0.0
 11
45.4545729762125
 21
22.82764360711668
 31
0.0
 11
45.40925657835891
 21
23.03905624439607
 31
0.0
 11
45.2643208173426
 21
23.20079736409237
 31
0.0
 11
45.06139949806013
 21
23.27642755731508
 31
0.0
 11
44.84216559415751
 21
23.2607549970325
 31
0.0
 11
44.64694347697346
 21
23.16487840855711
 31
0.0
 11
44.51370731348553
 21
22.99285063220138
 31
0.0
 11
44.45962297621247
 21
22.78219360711668
 31
0.0
  0
SPLINE
  5
84
330
A
100
AcDbEntity
  8
CARTOUCHE
  6
CONTINUOUS
 62
     4
100
AcDbSpline
210
0.0
220
0.0
230
1.0
 70
     8
 71
     3
 72
    20
 73
    16
 74
    14
 42
0.0000000001
 43
0.0000000001
 44
0.000001
 12
0.1358608544273129
 22
0.9907279284618359
 32
0.0
 13
-0.8123777522852272
 23
-0.583131535412039
 33
0.0
 40
0.0
 40
0.0
 40
0.0
 40
0.0
 40
0.3099167376574449
 40
0.6201162120086089
 40
0.9308832229227101
 40
1.240782580369534
 40
1.550958571056
 40
1.86184147292939
 40
2.170989032701104
 40
2.482794313402607
 40
2.792566681426349
 40
3.102412009711692
 40
3.41342341835682
 40
3.723770860918002
 40
4.342414092774922
 40
4.342414092774922
 40
4.342414092774922
 40
4.342414092774922
 10
47.28382297621251
 20
22.58779360711669
 30
0.0
 10
47.29785816047233
 20
22.69014132961503
 30
0.0
 10
47.31442324043969
 20
22.89676966285278
 30
0.0
 10
47.30092965568099
 20
23.20747621588525
 30
0.0
 10
47.25565430040701
 20
23.51474442121904
 30
0.0
 10
47.17620425041043
 20
23.81641651325382
 30
0.0
 10
47.02732817013801
 20
24.09240856669955
 30
0.0
 10
46.81020864916885
 20
24.32073910349872
 30
0.0
 10
46.53096591325815
 20
24.46673549232283
 30
0.0
 10
46.23076181269933
 20
24.54812138519136
 30
0.0
 10
45.9230282829723
 20
24.59724610143176
 30
0.0
 10
45.61155007781773
 20
24.58971042935069
 30
0.0
 10
45.30365677773262
 20
24.54593296501846
 30
0.0
 10
44.90384925448966
 20
24.43649405403212
 30
0.0
 10
44.62714697559995
 20
24.28574373300502
 30
0.0
 10
44.45962297621249
 20
24.16549360711669
 30
0.0
 11
47.28382297621251
 21
22.58779360711669
 31
0.0
 11
47.3080338234398
 21
22.8967638790771
 31
0.0
 11
47.29564801913904
 21
23.20671600883972
 31
0.0
 11
47.24989999164073
 21
23.51409730955235
 31
0.0
 11
47.16468005782961
 21
23.81204898160464
 31
0.0
 11
47.01605698726017
 21
24.08429955967585
 31
0.0
 11
46.79947591694869
 21
24.30732619143858
 31
0.0
 11
46.52824151124928
 21
24.45566419975128
 31
0.0
 11
46.22887996193932
 21
24.5428722112578
 31
0.0
 11
45.92238599753447
 21
24.58782115591738
 31
0.0
 11
45.61256799206709
 21
24.58370341795764
 31
0.0
 11
45.3047164351297
 21
24.53948194901727
 31
0.0
 11
45.00579935951135
 21
24.45603046599671
 31
0.0
 11
44.45962297621249
 21
24.16549360711669
 31
0.0
  0
ARC
  5
85
330
A
100
AcDbEntity
  8
CARTOUCHE
  6
CONTINUOUS
 62
     4
100
AcDbCircle
 10
10.95095399999999
 20
23.851493
 30
0.0
 40
0.4706070000000001
100
AcDbArc
 50
290.581791
 51
349.597912
  0
SPLINE
  5
86
330
A
100
AcDbEntity
  8
CARTOUCHE
  6
CONTINUOUS
 62
     4
100
AcDbSpline
210
0.0
220
0.0
230
1.0
 70
     8
 71
     3
 72
    14
 73
    10
 74
     8
 42
0.0000000001
 43
0.0000000001
 44
0.000001
 12
-0.0678904074543379
 22
-0.9976927846665446
 32
0.0
 13
-0.8200536786282524
 23
0.5722866101598663
 33
0.0
 40
0.0
 40
0.0
 40
0.0
 40
0.0
 40
0.2180606789005075
 40
0.4363602626287939
 40
0.6537280242066189
 40
0.8729546411850181
 40
1.089088005528229
 40
1.305403373828848
 40
1.523279715932534
 40
1.523279715932534
 40
1.523279715932534
 40
1.523279715932534
 10
13.32322297621251
 20
21.16984360711669
 30
0.0
 10
13.3182882334324
 20
21.09732441846385
 30
0.0
 10
13.28444048343501
 20
20.95301317401817
 30
0.0
 10
13.16948288538595
 20
20.76307428830322
 30
0.0
 10
12.99638521645118
 20
20.62406333344731
 30
0.0
 10
12.79557455913801
 20
20.53568047568411
 30
0.0
 10
12.57604688222646
 20
20.50360657412561
 30
0.0
 10
12.36194585198925
 20
20.55796217058827
 30
0.0
 10
12.23325574438505
 20
20.6267655025048
 30
0.0
 10
12.17369897910899
 20
20.66832807359032
 30
0.0
 11
13.32322297621251
 21
21.16984360711669
 31
0.0
 11
13.27374961772985
 21
20.95746843688553
 31
0.0
 11
13.15964273339541
 21
20.77136537381492
 31
0.0
 11
12.99218699760145
 21
20.63277473124213
 31
0.0
 11
12.79139755994316
 21
20.54477508934442
 31
0.0
 11
12.57693403206401
 21
20.51795972590457
 31
0.0
 11
12.36599789339048
 21
20.56590052451097
 31
0.0
 11
12.17369897910899
 21
20.66832807359032
 31
0.0
  0
ARC
  5
87
330
A
100
AcDbEntity
  8
CARTOUCHE
  6
CONTINUOUS
 62
     4
100
AcDbCircle
 10
14.40453899999999
 20
25.005869
 30
0.0
 40
0.5000710000000001
100
AcDbArc
 50
275.8401249999999
 51
95.840125
  0
INSERT
  5
88
330
A
100
AcDbEntity
  8
CARTOUCHE
  6
CONTINUOUS
 62
     4
100
AcDbBlockReference
  2
*X6
 10
0.0
 20
0.0
 30
0.0
1001
ACAD
1000
HATCH
1002
{
1070
    19
1000
ANSI31
1040
0.062992
1040
0.0
1000
R14_HATCH_DATA
1000
88
1011
1.0
1021
0.0
1031
0.0
1011
0.0
1021
1.0
1031
0.0
1011
0.0
1021
0.0
1031
1.0
1040
0.0
1010
0.0
1020
0.0
1030
1.0
1000
ANSI31
1070
     0
1070
     0
1071
        1
1071
        1
1071
       50
1070
     1
1040
10.46482297621249
1040
24.42874360711669
1040
10.46482297621249
1040
27.39950620338089
1070
     1
1040
8.174776197285117
1040
24.42874360711669
1040
10.46482297621249
1040
24.42874360711669
1070
     1
1040
11.41387297621249
1040
27.65262056693448
1040
11.41387297621249
1040
23.76651350370063
1070
     1
1040
11.11642297621249
1040
23.41084360711669
1040
10.88782297621249
1040
23.41084360711669
1070
     1
1040
10.88782297621249
1040
23.41084360711669
1040
12.36292297621249
1040
21.81019360711669
1070
     1
1040
12.36292297621249
1040
21.81019360711669
1040
12.36292297621249
1040
27.65548474905463
1070
     1
1040
9.378522976212499
1040
23.41084360711669
1040
8.176313141344726
1040
23.41084360711669
1070
     1
1040
13.32322297621251
1040
27.40413356412171
1040
13.32322297621251
1040
25.50334360711669
1070
     1
1040
13.32322297621251
1040
25.50334360711669
1040
14.35365561804984
1040
25.50334360711669
1070
     1
1040
14.45542297620991
1040
24.50839360711669
1040
13.32322297621251
1040
24.50839360711669
1070
     1
1040
13.32322297621251
1040
24.50839360711669
1040
13.32322297621251
1040
21.16984360711669
1070
     1
1040
13.32322297621251
1040
21.16984360711669
1040
13.31883473362851
1040
21.12641207783193
1070
     1
1040
13.31883473362851
1040
21.12641207783193
1040
13.31163234261353
1040
21.08326802947578
1070
     1
1040
13.31163234261353
1040
21.08326802947578
1040
13.30167673704228
1040
21.04060222873889
1070
     1
1040
13.30167673704228
1040
21.04060222873889
1040
13.28902885078948
1040
20.99860544231192
1070
     1
1040
13.28902885078948
1040
20.99860544231192
1040
13.27374961772985
1040
20.95746843688553
1070
     1
1040
13.27374961772985
1040
20.95746843688553
1040
13.25587736440904
1040
20.91734035839061
1070
     1
1040
13.25587736440904
1040
20.91734035839061
1040
13.23547981538517
1040
20.87846556800614
1070
     1
1040
13.23547981538517
1040
20.87846556800614
1040
13.21260770458825
1040
20.84104451056206
1070
     1
1040
13.21260770458825
1040
20.84104451056206
1040
13.18731176594832
1040
20.80527763088834
1070
     1
1040
13.18731176594832
1040
20.80527763088834
1040
13.15964273339541
1040
20.77136537381492
1070
     1
1040
13.15964273339541
1040
20.77136537381492
1040
13.12981510363878
1040
20.73960515208204
1070
     1
1040
13.12981510363878
1040
20.73960515208204
1040
13.09792030592154
1040
20.70987423443825
1070
     1
1040
13.09792030592154
1040
20.70987423443825
1040
13.06419374950322
1040
20.68216436340364
1070
     1
1040
13.06419374950322
1040
20.68216436340364
1040
13.02887084364335
1040
20.65646728149825
1070
     1
1040
13.02887084364335
1040
20.65646728149825
1040
12.99218699760145
1040
20.63277473124213
1070
     1
1040
12.99218699760145
1040
20.63277473124213
1040
12.91478675188543
1040
20.59112910905729
1070
     1
1040
12.91478675188543
1040
20.59112910905729
1040
12.87455471295311
1040
20.57347859798428
1070
     1
1040
12.87455471295311
1040
20.57347859798428
1040
12.83340026517213
1040
20.55801039718216
1070
     1
1040
12.83340026517213
1040
20.55801039718216
1040
12.79139755994316
1040
20.54477508934442
1070
     1
1040
12.79139755994316
1040
20.54477508934442
1040
12.74924920374652
1040
20.53399436824628
1070
     1
1040
12.74924920374652
1040
20.53399436824628
1040
12.7065385525372
1040
20.52567780520202
1070
     1
1040
12.7065385525372
1040
20.52567780520202
1040
12.66345572663828
1040
20.52007006636281
1070
     1
1040
12.66345572663828
1040
20.52007006636281
1040
12.62019084637286
1040
20.51741581787993
1070
     1
1040
12.62019084637286
1040
20.51741581787993
1040
12.57693403206401
1040
20.51795972590457
1070
     1
1040
12.57693403206401
1040
20.51795972590457
1040
12.53382920534852
1040
20.52186005993909
1070
     1
1040
12.53382920534852
1040
20.52186005993909
1040
12.4910530384767
1040
20.52890666207177
1070
     1
1040
12.4910530384767
1040
20.52890666207177
1040
12.44873567109528
1040
20.53879717704784
1070
     1
1040
12.44873567109528
1040
20.53879717704784
1040
12.40700724285096
1040
20.55122924961249
1070
     1
1040
12.40700724285096
1040
20.55122924961249
1040
12.36599789339048
1040
20.56590052451097
1070
     1
1040
12.36599789339048
1040
20.56590052451097
1040
12.2860134057736
1040
20.60136338170921
1070
     1
1040
12.2860134057736
1040
20.60136338170921
1040
12.22861677966269
1040
20.63285264645903
1070
     1
1040
12.22861677966269
1040
20.63285264645903
1040
12.17369897910899
1040
20.66832807359032
1070
     1
1040
12.17369897910892
1040
20.66832807359026
1040
9.378522976212499
1040
23.41084360711669
1070
     2
1040
11.89964574585572
1040
23.92542170859346
1040
4.756722701239384
1040
0.0
1040
6.283185307179586
1070
     1
1070
     2
1040
11.89965080003961
1040
23.92541669660974
1040
3.758727016569031
1040
1.962466222740304
1040
3.007280317403794
1070
     1
1070
     2
1040
10.95095374319995
1040
23.85149252383617
1040
0.4706066881870569
1040
5.071608999292026
1040
6.101634622497394
1070
     1
1070
     2
1040
11.89965080003961
1040
23.92541669660974
1040
3.758727016569031
1040
1.447229703560746
1040
1.700398822181218
1070
     1
1070
     2
1040
11.89965080003961
1040
23.92541669660974
1040
3.758727016569031
1040
3.278924828260763
1040
7.465549463417864
1070
     1
1070
     2
1040
14.40453929713244
1040
25.00586860711695
1040
0.5000705194487285
1040
4.814318390362723
1040
7.955911043952516
1070
     1
1071
        0
1070
     0
1070
     1
1040
0.0
1040
0.062992
1070
     0
1070
     1
1040
0.7853981633974483
1040
-6.22517
1040
-28.624349
1040
-0.1414213583446519
1040
0.1414213583446519
1070
     0
1071
        1
1040
-6.22517
1040
-28.624349
1040
0.0
1002
}
  0
INSERT
  5
89
330
A
100
AcDbEntity
  8
CARTOUCHE
  6
CONTINUOUS
 62
     4
100
AcDbBlockReference
  2
*X7
 10
0.0
 20
0.0
 30
0.0
1001
ACAD
1000
HATCH
1002
{
1070
    19
1000
ANSI31
1040
0.062992
1040
0.0
1000
R14_HATCH_DATA
1000
89
1011
1.0
1021
0.0
1031
0.0
1011
0.0
1021
1.0
1031
0.0
1011
0.0
1021
0.0
1031
1.0
1040
0.0
1010
0.0
1020
0.0
1030
1.0
1000
ANSI31
1070
     0
1070
     0
1071
        1
1071
        1
1071
       16
1070
     1
1040
18.67462297621249
1040
24.50839360711669
1040
18.67462297621249
1040
24.92940137843239
1070
     1
1040
19.58025878682235
1040
25.83499360711669
1040
21.0875229762125
1040
25.83499360711669
1070
     1
1040
21.0875229762125
1040
25.83499360711669
1040
21.0875229762125
1040
24.93184360711669
1070
     1
1040
21.0875229762125
1040
24.93184360711669
1040
20.67905333190206
1040
24.93184360711669
1070
     1
1040
20.46107932853862
1040
24.76862245788874
1040
20.41297297621249
1040
24.50839360711669
1070
     1
1040
20.41297297621248
1040
24.50839360711669
1040
21.0875229762125
1040
24.50839360711669
1070
     1
1040
21.0875229762125
1040
24.50839360711669
1040
21.0875229762125
1040
23.41084360711669
1070
     1
1040
21.0875229762125
1040
23.41084360711669
1040
20.4701229762125
1040
23.41084360711669
1070
     1
1040
20.4701229762125
1040
23.41084360711669
1040
20.4701229762125
1040
20.63209360711669
1070
     1
1040
20.47012297621249
1040
20.63209360711669
1040
18.67462297621248
1040
20.63209360711669
1070
     1
1040
18.67462297621249
1040
20.63209360711669
1040
18.67462297621249
1040
23.41084360711669
1070
     1
1040
18.67462297621249
1040
23.41084360711669
1040
18.13732297621251
1040
23.41084360711669
1070
     1
1040
18.13732297621251
1040
23.41084360711669
1040
18.13732297621251
1040
24.50839360711669
1070
     1
1040
18.13732297621251
1040
24.50839360711669
1040
18.67462297621248
1040
24.50839360711669
1070
     2
1040
19.58025878682235
1040
24.92940137843239
1040
0.9056391035836327
1040
1.570796326794896
1040
3.141592653589793
1070
     1
1070
     2
1040
20.70598815405769
1040
24.66871596669092
1040
0.2645026272092472
1040
1.672805114347311
1040
2.754265904768217
1070
     1
1071
        0
1070
     0
1070
     1
1040
0.0
1040
0.062992
1070
     0
1070
     1
1040
0.7853981633974483
1040
-6.22517
1040
-28.624349
1040
-0.1414213583446519
1040
0.1414213583446519
1070
     0
1071
        1
1040
-6.22517
1040
-28.624349
1040
0.0
1002
}
  0
INSERT
  5
8A
330
A
100
AcDbEntity
  8
CARTOUCHE
  6
CONTINUOUS
 62
     4
100
AcDbBlockReference
  2
*X8
 10
0.0
 20
0.0
 30
0.0
1001
ACAD
1000
HATCH
1002
{
1070
    19
1000
ANSI31
1040
0.062992
1040
0.0
1000
R14_HATCH_DATA
1000
8A
1011
1.0
1021
0.0
1031
0.0
1011
0.0
1021
1.0
1031
0.0
1011
0.0
1021
0.0
1031
1.0
1040
0.0
1010
0.0
1020
0.0
1030
1.0
1000
ANSI31
1070
     0
1070
     0
1071
        1
1071
        1
1071
        4
1070
     1
1040
21.8079729762125
1040
25.83499360711669
1040
21.8079729762125
1040
24.94309360711669
1070
     1
1040
21.8079729762125
1040
24.94309360711669
1040
23.6259729762125
1040
24.94309360711669
1070
     1
1040
23.6259729762125
1040
24.94309360711668
1040
23.6259729762125
1040
25.83499360711669
1070
     1
1040
23.6259729762125
1040
25.83499360711669
1040
21.8079729762125
1040
25.83499360711669
1071
        0
1070
     0
1070
     1
1040
0.0
1040
0.062992
1070
     0
1070
     1
1040
0.7853981633974483
1040
-6.22517
1040
-28.624349
1040
-0.1414213583446519
1040
0.1414213583446519
1070
     0
1071
        1
1040
-6.22517
1040
-28.624349
1040
0.0
1002
}
  0
INSERT
  5
8B
330
A
100
AcDbEntity
  8
CARTOUCHE
  6
CONTINUOUS
 62
     4
100
AcDbBlockReference
  2
*X9
 10
0.0
 20
0.0
 30
0.0
1001
ACAD
1000
HATCH
1002
{
1070
    19
1000
ANSI31
1040
0.062992
1040
0.0
1000
R14_HATCH_DATA
1000
8B
1011
1.0
1021
0.0
1031
0.0
1011
0.0
1021
1.0
1031
0.0
1011
0.0
1021
0.0
1031
1.0
1040
0.0
1010
0.0
1020
0.0
1030
1.0
1000
ANSI31
1070
     0
1070
     0
1071
        1
1071
        1
1071
        4
1070
     1
1040
21.8079729762125
1040
24.50839360711669
1040
21.8079729762125
1040
20.63209360711669
1070
     1
1040
21.8079729762125
1040
20.63209360711669
1040
23.6259729762125
1040
20.63209360711669
1070
     1
1040
23.6259729762125
1040
20.63209360711669
1040
23.6259729762125
1040
24.50839360711669
1070
     1
1040
23.6259729762125
1040
24.50839360711669
1040
21.8079729762125
1040
24.50839360711669
1071
        0
1070
     0
1070
     1
1040
0.0
1040
0.062992
1070
     0
1070
     1
1040
0.7853981633974483
1040
-6.22517
1040
-28.624349
1040
-0.1414213583446519
1040
0.1414213583446519
1070
     0
1071
        1
1040
-6.22517
1040
-28.624349
1040
0.0
1002
}
  0
INSERT
  5
8C
330
A
100
AcDbEntity
  8
CARTOUCHE
  6
CONTINUOUS
 62
     4
100
AcDbBlockReference
  2
*X10
 10
0.0
 20
0.0
 30
0.0
1001
ACAD
1000
HATCH
1002
{
1070
    19
1000
ANSI31
1040
0.062992
1040
0.0
1000
R14_HATCH_DATA
1000
8C
1011
1.0
1021
0.0
1031
0.0
1011
0.0
1021
1.0
1031
0.0
1011
0.0
1021
0.0
1031
1.0
1040
0.0
1010
0.0
1020
0.0
1030
1.0
1000
ANSI31
1070
     0
1070
     0
1071
        1
1071
        1
1071
       12
1070
     1
1040
26.2899729762125
1040
24.50839360711669
1040
26.2899729762125
1040
24.0741436071167
1070
     1
1040
29.8922229762125
1040
23.32455319801141
1040
29.8922229762125
1040
20.63209360711669
1070
     1
1040
29.8922229762125
1040
20.63209360711669
1040
28.1084229762125
1040
20.63209360711669
1070
     1
1040
28.1084229762125
1040
20.63209360711669
1040
28.1084229762125
1040
22.47903425384608
1070
     1
1040
26.2899729762125
1040
22.43349938746982
1040
26.2899729762125
1040
20.63209360711669
1070
     1
1040
26.2899729762125
1040
20.63209360711669
1040
24.49492297621249
1040
20.63209360711669
1070
     1
1040
24.49492297621249
1040
20.63209360711669
1040
24.49492297621249
1040
24.50839360711669
1070
     1
1040
24.49492297621249
1040
24.50839360711669
1040
26.2899729762125
1040
24.50839360711669
1070
     2
1040
28.06740262422222
1040
21.04526125288079
1040
3.51189186471132
1040
1.254409881684032
1040
2.101473407347706
1070
     1
1070
     2
1040
28.67502750890198
1040
23.26487340256417
1040
1.218657656450693
1040
0.0489913397436033
1040
1.161442981761084
1070
     1
1070
     2
1040
27.45732435316137
1040
22.47903425384608
1040
0.6511236546569659
1040
0.0
1040
1.695599288911282
1070
     1
1070
     2
1040
27.44380973637427
1040
21.82007935996339
1040
1.306760651093609
1040
1.622501932778031
1040
2.652958477775717
1070
     1
1071
        0
1070
     0
1070
     1
1040
0.0
1040
0.062992
1070
     0
1070
     1
1040
0.7853981633974483
1040
-6.22517
1040
-28.624349
1040
-0.1414213583446519
1040
0.1414213583446519
1070
     0
1071
        1
1040
-6.22517
1040
-28.624349
1040
0.0
1002
}
  0
INSERT
  5
8D
330
A
100
AcDbEntity
  8
CARTOUCHE
  6
CONTINUOUS
 62
     4
100
AcDbBlockReference
  2
*X11
 10
0.0
 20
0.0
 30
0.0
1001
ACAD
1000
HATCH
1002
{
1070
    19
1000
ANSI31
1040
0.062992
1040
0.0
1000
R14_HATCH_DATA
1000
8D
1011
1.0
1021
0.0
1031
0.0
1011
0.0
1021
1.0
1031
0.0
1011
0.0
1021
0.0
1031
1.0
1040
0.0
1010
0.0
1020
0.0
1030
1.0
1000
ANSI31
1070
     0
1070
     0
1071
        1
1071
        1
1071
      154
1070
     1
1040
34.19152297621249
1040
24.31990419713182
1040
34.13663886743906
1040
24.36546535202642
1070
     1
1040
34.13663886743906
1040
24.36546535202642
1040
34.09335300453609
1040
24.39695233004338
1070
     1
1040
34.09335300453609
1040
24.39695233004338
1040
34.04814564948316
1040
24.42551803537496
1070
     1
1040
34.04814564948316
1040
24.42551803537496
1040
33.9853148771282
1040
24.45824326889328
1070
     1
1040
33.9853148771282
1040
24.45824326889328
1040
33.93641481696294
1040
24.4791830661683
1070
     1
1040
33.93641481696294
1040
24.4791830661683
1040
33.886414432493
1040
24.49734946038967
1070
     1
1040
33.886414432493
1040
24.49734946038967
1040
33.80036916880801
1040
24.52267004883189
1070
     1
1040
33.80036916880801
1040
24.52267004883189
1040
33.71305596481814
1040
24.54313679053143
1070
     1
1040
33.71305596481814
1040
24.54313679053143
1040
33.53598457982956
1040
24.57716399139704
1070
     1
1040
33.53598457982956
1040
24.57716399139704
1040
33.18386096308204
1040
24.63164336554592
1070
     1
1040
33.18386096308204
1040
24.63164336554592
1040
32.8297140010732
1040
24.65361067318905
1070
     1
1040
32.8297140010732
1040
24.65361067318905
1040
32.47307470160767
1040
24.6427593690914
1070
     1
1040
32.47307470160767
1040
24.6427593690914
1040
32.29553494834803
1040
24.62756727352911
1070
     1
1040
32.29553494834803
1040
24.62756727352911
1040
32.11942187052807
1040
24.60192152108414
1070
     1
1040
32.11942187052807
1040
24.60192152108414
1040
31.98039318439711
1040
24.57087434194068
1070
     1
1040
31.98039318439711
1040
24.57087434194068
1040
31.77626880985488
1040
24.50691864896159
1070
     1
1040
31.77626880985488
1040
24.50691864896159
1040
31.64385690583681
1040
24.45344206025171
1070
     1
1040
31.64385690583681
1040
24.45344206025171
1040
31.54719857995649
1040
24.407477873527
1070
     1
1040
31.54719857995649
1040
24.407477873527
1040
31.45331806594562
1040
24.35619987525168
1070
     1
1040
31.45331806594562
1040
24.35619987525168
1040
31.33327592488072
1040
24.27954096136778
1070
     1
1040
31.33327592488072
1040
24.27954096136778
1040
31.16425081659299
1040
24.14868782982736
1070
     1
1040
31.16425081659299
1040
24.14868782982736
1040
31.0589378780202
1040
24.05235758471281
1070
     1
1040
31.0589378780202
1040
24.05235758471281
1040
30.91268311986691
1040
23.89611360248224
1070
     1
1040
30.91268311986691
1040
23.89611360248224
1040
30.82344491669815
1040
23.78493111348759
1070
     1
1040
30.82344491669815
1040
23.78493111348759
1040
30.70379325220439
1040
23.60781901266322
1070
     1
1040
30.70379325220439
1040
23.60781901266322
1040
30.63481574159435
1040
23.48302033355442
1070
     1
1040
30.63481574159435
1040
23.48302033355442
1040
30.58909607880861
1040
23.38630952682728
1070
     1
1040
30.58909607880861
1040
23.38630952682728
1040
30.54866063637869
1040
23.28729150751013
1070
     1
1040
30.54866063637869
1040
23.28729150751013
1040
30.50307718886284
1040
23.15213239899057
1070
     1
1040
30.50307718886284
1040
23.15213239899057
1040
30.45247328846812
1040
22.94419894098582
1070
     1
1040
30.45247328846812
1040
22.94419894098582
1040
30.43063168033315
1040
22.80314986265371
1070
     1
1040
30.43063168033315
1040
22.80314986265371
1040
30.42104684068462
1040
22.696588010784
1070
     1
1040
30.42104684068462
1040
22.696588010784
1040
30.4178204424804
1040
22.58972989255913
1070
     1
1040
30.4178204424804
1040
22.58972989255913
1040
30.42378322889166
1040
22.44735507912694
1070
     1
1040
30.42378322889166
1040
22.44735507912694
1040
30.4520470898832
1040
22.23526594311771
1070
     1
1040
30.4520470898832
1040
22.23526594311771
1040
30.48182324188058
1040
22.09568317102136
1070
     1
1040
30.48182324188058
1040
22.09568317102136
1040
30.54294059487364
1040
21.89073675637875
1070
     1
1040
30.54294059487364
1040
21.89073675637875
1040
30.59524458124375
1040
21.75814401472731
1070
     1
1040
30.59524458124375
1040
21.75814401472731
1040
30.64066312551954
1040
21.66132551045659
1070
     1
1040
30.64066312551954
1040
21.66132551045659
1040
30.691396483504
1040
21.56716285752306
1070
     1
1040
30.691396483504
1040
21.56716285752306
1040
30.76734088927042
1040
21.44630187745565
1070
     1
1040
30.76734088927042
1040
21.44630187745565
1040
30.83037096957592
1040
21.35977834748524
1070
     1
1040
30.83037096957592
1040
21.35977834748524
1040
30.89849041843911
1040
21.27725022136696
1070
     1
1040
30.89849041843911
1040
21.27725022136696
1040
30.9967667597747
1040
21.17408034911913
1070
     1
1040
30.9967667597747
1040
21.17408034911913
1040
31.15802450035081
1040
21.03376654019861
1070
     1
1040
31.15802450035081
1040
21.03376654019861
1040
31.27323180799477
1040
20.94957663934497
1070
     1
1040
31.27323180799477
1040
20.94957663934497
1040
31.45548308742885
1040
20.83737935540596
1070
     1
1040
31.45548308742885
1040
20.83737935540596
1040
31.58228464331514
1040
20.77219559678803
1070
     1
1040
31.58228464331514
1040
20.77219559678803
1040
31.68003783957309
1040
20.72894332356438
1070
     1
1040
31.68003783957309
1040
20.72894332356438
1040
31.77997022332717
1040
20.69112453447919
1070
     1
1040
31.77997022332717
1040
20.69112453447919
1040
31.91640621679791
1040
20.64973705912834
1070
     1
1040
31.91640621679791
1040
20.64973705912834
1040
32.12581407620214
1040
20.60608206244056
1070
     1
1040
32.12581407620214
1040
20.60608206244056
1040
32.3026773089029
1040
20.58473447517807
1070
     1
1040
32.3026773089029
1040
20.58473447517807
1040
32.48050427697165
1040
20.57374147270578
1070
     1
1040
32.48050427697165
1040
20.57374147270578
1040
32.83641989969535
1040
20.57089422013113
1070
     1
1040
32.83641989969535
1040
20.57089422013113
1040
33.19286980656467
1040
20.58610182742617
1070
     1
1040
33.19286980656467
1040
20.58610182742617
1040
33.33459654960583
1040
20.59999995765213
1070
     1
1040
33.33459654960583
1040
20.59999995765213
1040
33.54527140198384
1040
20.63588357412756
1070
     1
1040
33.54527140198384
1040
20.63588357412756
1040
33.68285267363335
1040
20.67301572521217
1070
     1
1040
33.68285267363335
1040
20.67301572521217
1040
33.81743305695801
1040
20.72115385795995
1070
     1
1040
33.81743305695801
1040
20.72115385795995
1040
33.94784796188077
1040
20.77982191846434
1070
     1
1040
33.94784796188077
1040
20.77982191846434
1040
34.0729327983246
1040
20.84854385281878
1070
     1
1040
34.0729327983246
1040
20.84854385281878
1040
34.19152297621249
1040
20.92684360711669
1070
     1
1040
34.19152297621249
1040
20.92684360711669
1040
34.19152297621249
1040
20.6208436071167
1070
     1
1040
34.19152297621249
1040
20.6208436071167
1040
35.9865729762125
1040
20.6208436071167
1070
     1
1040
35.9865729762125
1040
20.6208436071167
1040
35.9865729762125
1040
25.8237436071167
1070
     1
1040
35.9865729762125
1040
25.8237436071167
1040
34.19152297621249
1040
25.8237436071167
1070
     1
1040
34.19152297621249
1040
25.8237436071167
1040
34.19152297621249
1040
24.31990419713182
1070
     1
1040
34.19152297621249
1040
22.75924360711669
1040
34.18522427602212
1040
22.79742902286496
1070
     1
1040
34.18522427602212
1040
22.79742902286496
1040
34.17670390504242
1040
22.83525808906735
1070
     1
1040
34.17670390504242
1040
22.83525808906735
1040
34.16597248167421
1040
22.87256506018414
1070
     1
1040
34.16597248167421
1040
22.87256506018414
1040
34.1530406243182
1040
22.90918419067553
1070
     1
1040
34.1530406243182
1040
22.90918419067553
1040
34.13791895137521
1040
22.94494973500174
1070
     1
1040
34.13791895137521
1040
22.94494973500174
1040
34.12062248577393
1040
22.97972412972832
1070
     1
1040
34.12062248577393
1040
22.97972412972832
1040
34.10124110014737
1040
23.01337043735117
1070
     1
1040
34.10124110014737
1040
23.01337043735117
1040
34.07987142553699
1040
23.04578100351233
1070
     1
1040
34.07987142553699
1040
23.04578100351233
1040
34.05661009298424
1040
23.07684817385388
1070
     1
1040
34.05661009298424
1040
23.07684817385388
1040
34.03155373353056
1040
23.10646429401779
1070
     1
1040
34.03155373353056
1040
23.10646429401779
1040
34.00480782842281
1040
23.13453995989881
1070
     1
1040
34.00480782842281
1040
23.13453995989881
1040
33.97651347065819
1040
23.16105855153512
1070
     1
1040
33.97651347065819
1040
23.16105855153512
1040
33.93149659569063
1040
23.19792049990339
1070
     1
1040
33.93149659569063
1040
23.19792049990339
1040
33.88383915758775
1040
23.2312882243935
1070
     1
1040
33.88383915758775
1040
23.2312882243935
1040
33.81740830033322
1040
23.2702539875106
1070
     1
1040
33.81740830033322
1040
23.2702539875106
1040
33.71260018090836
1040
23.31870497950504
1070
     1
1040
33.71260018090836
1040
23.31870497950504
1040
33.52912571204567
1040
23.38024026476581
1070
     1
1040
33.52912571204567
1040
23.38024026476581
1040
33.34129541646134
1040
23.4268066350183
1070
     1
1040
33.34129541646134
1040
23.4268066350183
1040
33.26536709065413
1040
23.43871980520695
1070
     1
1040
33.26536709065413
1040
23.43871980520695
1040
33.20799245339293
1040
23.44418358333277
1070
     1
1040
33.20799245339293
1040
23.44418358333277
1040
33.15043306379559
1040
23.44618483007101
1070
     1
1040
33.15043306379559
1040
23.44618483007101
1040
33.073205774121
1040
23.44294111298528
1070
     1
1040
33.073205774121
1040
23.44294111298528
1040
33.01556012610554
1040
23.43626883784902
1070
     1
1040
33.01556012610554
1040
23.43626883784902
1040
32.95838311054932
1040
23.42625160056325
1070
     1
1040
32.95838311054932
1040
23.42625160056325
1040
32.88279130539605
1040
23.40794999318988
1070
     1
1040
32.88279130539605
1040
23.40794999318988
1040
32.82709324452985
1040
23.39068869542821
1070
     1
1040
32.82709324452985
1040
23.39068869542821
1040
32.77240099875644
1040
23.37047876932411
1070
     1
1040
32.77240099875644
1040
23.37047876932411
1040
32.70162295371041
1040
23.33916365530199
1070
     1
1040
32.70162295371041
1040
23.33916365530199
1040
32.65017627897317
1040
23.31224485443584
1070
     1
1040
32.65017627897317
1040
23.31224485443584
1040
32.6003783004499
1040
23.2823001555606
1070
     1
1040
32.6003783004499
1040
23.2823001555606
1040
32.53744100048406
1040
23.23798016409065
1070
     1
1040
32.53744100048406
1040
23.23798016409065
1040
32.4783720173184
1040
23.18841304210749
1070
     1
1040
32.4783720173184
1040
23.18841304210749
1040
32.42376916516049
1040
23.13377620070204
1070
     1
1040
32.42376916516049
1040
23.13377620070204
1040
32.37423025821781
1040
23.07424705096529
1070
     1
1040
32.37423025821781
1040
23.07424705096529
1040
32.3303531106979
1040
23.01000300398824
1070
     1
1040
32.3303531106979
1040
23.01000300398824
1040
32.29281787773375
1040
22.94139393368274
1070
     1
1040
32.29281787773375
1040
22.94139393368274
1040
32.26252133259767
1040
22.86924570514724
1070
     1
1040
32.26252133259767
1040
22.86924570514724
1040
32.25039554512275
1040
22.83215493136484
1070
     1
1040
32.25039554512275
1040
22.83215493136484
1040
32.24044900219397
1040
22.79455199781086
1070
     1
1040
32.24044900219397
1040
22.79455199781086
1040
32.23280489467436
1040
22.75656111441393
1070
     1
1040
32.23280489467436
1040
22.75656111441393
1040
32.22758641342698
1040
22.7183064911027
1070
     1
1040
32.22758641342698
1040
22.7183064911027
1040
32.22491674931485
1040
22.67991233780578
1070
     1
1040
32.22491674931485
1040
22.67991233780578
1040
32.22491909320101
1040
22.64150286445184
1070
     1
1040
32.22491909320101
1040
22.64150286445184
1040
32.22769315985367
1040
22.60293992315524
1070
     1
1040
32.22769315985367
1040
22.60293992315524
1040
32.23311057136401
1040
22.5646177567803
1070
     1
1040
32.23311057136401
1040
22.5646177567803
1040
32.24098086285654
1040
22.52666674625049
1070
     1
1040
32.24098086285654
1040
22.52666674625049
1040
32.25111356945575
1040
22.48921727248927
1070
     1
1040
32.25111356945575
1040
22.48921727248927
1040
32.26331822628609
1040
22.45239971642014
1070
     1
1040
32.26331822628609
1040
22.45239971642014
1040
32.29364520888784
1040
22.38042545227397
1070
     1
1040
32.29364520888784
1040
22.38042545227397
1040
32.32104847285927
1040
22.32870628189326
1070
     1
1040
32.32104847285927
1040
22.32870628189326
1040
32.35215412813562
1040
22.27909964132739
1070
     1
1040
32.35215412813562
1040
22.27909964132739
1040
32.39858603635965
1040
22.21711302746509
1070
     1
1040
32.39858603635965
1040
22.21711302746509
1040
32.43723474843396
1040
22.17377153999965
1070
     1
1040
32.43723474843396
1040
22.17377153999965
1040
32.4790661567678
1040
22.13355370124998
1070
     1
1040
32.4790661567678
1040
22.13355370124998
1040
32.53918564534263
1040
22.08548667717685
1070
     1
1040
32.53918564534263
1040
22.08548667717685
1040
32.58721199952906
1040
22.05335539427741
1070
     1
1040
32.58721199952906
1040
22.05335539427741
1040
32.63725672616545
1040
22.02448118124886
1070
     1
1040
32.63725672616545
1040
22.02448118124886
1040
32.70704840391081
1040
21.99051935609724
1070
     1
1040
32.70704840391081
1040
21.99051935609724
1040
32.81564788989768
1040
21.94858052993354
1070
     1
1040
32.81564788989768
1040
21.94858052993354
1040
32.88966328774721
1040
21.92569887434945
1070
     1
1040
32.88966328774721
1040
21.92569887434945
1040
33.00273750412712
1040
21.89916786421673
1070
     1
1040
33.00273750412712
1040
21.89916786421673
1040
33.07891412932522
1040
21.88724451800207
1070
     1
1040
33.07891412932522
1040
21.88724451800207
1040
33.19419909206249
1040
21.87864610808738
1070
     1
1040
33.19419909206249
1040
21.87864610808738
1040
33.27146321562465
1040
21.87950852987933
1070
     1
1040
33.27146321562465
1040
21.87950852987933
1040
33.38690243953788
1040
21.89090007892743
1070
     1
1040
33.38690243953788
1040
21.89090007892743
1040
33.46278968411079
1040
21.90512653207653
1070
     1
1040
33.46278968411079
1040
21.90512653207653
1040
33.53763085249445
1040
21.92455361531234
1070
     1
1040
33.53763085249445
1040
21.92455361531234
1040
33.61100153690361
1040
21.94904722914488
1070
     1
1040
33.61100153690361
1040
21.94904722914488
1040
33.68247732955298
1040
21.97847327408422
1070
     1
1040
33.68247732955298
1040
21.97847327408422
1040
33.7516338226573
1040
22.01269765064039
1070
     1
1040
33.7516338226573
1040
22.01269765064039
1040
33.81849942445664
1040
22.05184622470257
1070
     1
1040
33.81849942445664
1040
22.05184622470257
1040
33.91321018639743
1040
22.11912633605072
1070
     1
1040
33.91321018639743
1040
22.11912633605072
1040
33.97214635988498
1040
22.16959904888181
1070
     1
1040
33.97214635988498
1040
22.16959904888181
1040
34.01332469417972
1040
22.21066362568218
1070
     1
1040
34.01332469417972
1040
22.21066362568218
1040
34.05119662359747
1040
22.25474052514756
1070
     1
1040
34.05119662359747
1040
22.25474052514756
1040
34.07423731840943
1040
22.28578232487433
1070
     1
1040
34.07423731840943
1040
22.28578232487433
1040
34.09545033830772
1040
22.31814137644631
1070
     1
1040
34.09545033830772
1040
22.31814137644631
1040
34.11475222792979
1040
22.35170092541428
1070
     1
1040
34.11475222792979
1040
22.35170092541428
1040
34.13205953191303
1040
22.38634421732908
1070
     1
1040
34.13205953191303
1040
22.38634421732908
1040
34.14728879489485
1040
22.42195449774152
1070
     1
1040
34.14728879489485
1040
22.42195449774152
1040
34.16041126870771
1040
22.45852484543253
1070
     1
1040
34.16041126870771
1040
22.45852484543253
1040
34.1713772837539
1040
22.4957973539745
1070
     1
1040
34.1713772837539
1040
22.4957973539745
1040
34.1802054800254
1040
22.53361859960848
1070
     1
1040
34.1802054800254
1040
22.53361859960848
1040
34.18691449751426
1040
22.57183515857553
1070
     1
1040
34.18691449751426
1040
22.57183515857553
1040
34.19152297621249
1040
22.61029360711668
1070
     1
1040
34.19152297621249
1040
22.61029360711669
1040
34.19152297621249
1040
22.75924360711669
1071
        0
1070
     0
1070
     1
1040
0.0
1040
0.062992
1070
     0
1070
     1
1040
0.7853981633974483
1040
-6.22517
1040
-28.624349
1040
-0.1414213583446519
1040
0.1414213583446519
1070
     0
1071
        1
1040
-6.22517
1040
-28.624349
1040
0.0
1002
}
  0
INSERT
  5
8E
330
A
100
AcDbEntity
  8
CARTOUCHE
  6
CONTINUOUS
 62
     4
100
AcDbBlockReference
  2
*X12
 10
0.0
 20
0.0
 30
0.0
1001
ACAD
1000
HATCH
1002
{
1070
    19
1000
ANSI31
1040
0.062992
1040
0.0
1000
R14_HATCH_DATA
1000
8E
1011
1.0
1021
0.0
1031
0.0
1011
0.0
1021
1.0
1031
0.0
1011
0.0
1021
0.0
1031
1.0
1040
0.0
1010
0.0
1020
0.0
1030
1.0
1000
ANSI31
1070
     0
1070
     0
1071
        1
1071
        1
1071
      165
1070
     1
1040
39.0510729762125
1040
22.24444360711669
1040
39.1541229762125
1040
22.24444360711669
1070
     1
1040
39.1541229762125
1040
22.24444360711669
1040
42.2069229762125
1040
22.2561436071167
1070
     1
1040
42.2069229762125
1040
22.2561436071167
1040
42.23237762185878
1040
22.36584671807226
1070
     1
1040
42.23237762185878
1040
22.36584671807226
1040
42.24504827300029
1040
22.44946246465666
1070
     1
1040
42.24504827300029
1040
22.44946246465666
1040
42.25187369928078
1040
22.53370336692195
1070
     1
1040
42.25187369928078
1040
22.53370336692195
1040
42.25173537908569
1040
22.64696902678046
1070
     1
1040
42.25173537908569
1040
22.64696902678046
1040
42.23470970538826
1040
22.81609604661632
1070
     1
1040
42.23470970538826
1040
22.81609604661632
1040
42.20846517089046
1040
22.95621257524745
1070
     1
1040
42.20846517089046
1040
22.95621257524745
1040
42.1735788783549
1040
23.0943678180467
1070
     1
1040
42.1735788783549
1040
23.0943678180467
1040
42.1317953513426
1040
23.22914592982182
1070
     1
1040
42.1317953513426
1040
23.22914592982182
1040
42.08234233059616
1040
23.36142053588839
1070
     1
1040
42.08234233059616
1040
23.36142053588839
1040
42.03686170536565
1040
23.46471631345355
1070
     1
1040
42.03686170536565
1040
23.46471631345355
1040
41.98586075982514
1040
23.56553467942711
1070
     1
1040
41.98586075982514
1040
23.56553467942711
1040
41.9292803528995
1040
23.66332260841728
1070
     1
1040
41.9292803528995
1040
23.66332260841728
1040
41.86706134351354
1040
23.75752707503225
1070
     1
1040
41.86706134351354
1040
23.75752707503225
1040
41.79914459059214
1040
23.84759505388021
1070
     1
1040
41.79914459059214
1040
23.84759505388021
1040
41.72552403227461
1040
23.93312974680929
1070
     1
1040
41.72552403227461
1040
23.93312974680929
1040
41.646718709121
1040
24.01400429896925
1070
     1
1040
41.646718709121
1040
24.01400429896925
1040
41.56330878695366
1040
24.0902546369974
1070
     1
1040
41.56330878695366
1040
24.0902546369974
1040
41.38499580886721
1040
24.22902637720731
1070
     1
1040
41.38499580886721
1040
24.22902637720731
1040
41.26698552360454
1040
24.30660502920468
1070
     1
1040
41.26698552360454
1040
24.30660502920468
1040
41.1444496714726
1040
24.37644216492157
1070
     1
1040
41.1444496714726
1040
24.37644216492157
1040
41.01771944247007
1040
24.43798598686956
1070
     1
1040
41.01771944247007
1040
24.43798598686956
1040
40.88739588735783
1040
24.49164913231013
1070
     1
1040
40.88739588735783
1040
24.49164913231013
1040
40.61887239332167
1040
24.57873375105808
1070
     1
1040
40.61887239332167
1040
24.57873375105808
1040
40.34465192624326
1040
24.64564860681681
1070
     1
1040
40.34465192624326
1040
24.64564860681681
1040
40.06700470098034
1040
24.69362958168881
1070
     1
1040
40.06700470098034
1040
24.69362958168881
1040
39.78677780416955
1040
24.72351512572941
1070
     1
1040
39.78677780416955
1040
24.72351512572941
1040
39.22285539283774
1040
24.73587418697074
1070
     1
1040
39.22285539283774
1040
24.73587418697074
1040
38.66058598489463
1040
24.6957948090196
1070
     1
1040
38.66058598489463
1040
24.6957948090196
1040
38.38230020586061
1040
24.65113876708679
1070
     1
1040
38.38230020586061
1040
24.65113876708679
1040
38.10728319880826
1040
24.58829981854138
1070
     1
1040
38.10728319880826
1040
24.58829981854138
1040
37.89059274430329
1040
24.52407995067682
1070
     1
1040
37.89059274430329
1040
24.52407995067682
1040
37.73158560950747
1040
24.46569680922368
1070
     1
1040
37.73158560950747
1040
24.46569680922368
1040
37.57690963109762
1040
24.3966247732279
1070
     1
1040
37.57690963109762
1040
24.3966247732279
1040
37.47700594046573
1040
24.34397907058795
1070
     1
1040
37.47700594046573
1040
24.34397907058795
1040
37.38006697776783
1040
24.28586263277782
1070
     1
1040
37.38006697776783
1040
24.28586263277782
1040
37.28661322764598
1040
24.2223061075916
1070
     1
1040
37.28661322764598
1040
24.2223061075916
1040
37.19716517474233
1040
24.15334014282338
1070
     1
1040
37.19716517474233
1040
24.15334014282338
1040
37.1122433036989
1040
24.07899538626728
1070
     1
1040
37.1122433036989
1040
24.07899538626728
1040
37.03231956115444
1040
23.99941355886845
1070
     1
1040
37.03231956115444
1040
23.99941355886845
1040
36.9574691985834
1040
23.91497437553553
1070
     1
1040
36.9574691985834
1040
23.91497437553553
1040
36.88772323485606
1040
23.82616406173335
1070
     1
1040
36.88772323485606
1040
23.82616406173335
1040
36.82311268884266
1040
23.73346884292673
1070
     1
1040
36.82311268884266
1040
23.73346884292673
1040
36.76366857941348
1040
23.63737494458054
1070
     1
1040
36.76366857941348
1040
23.63737494458054
1040
36.66049084556013
1040
23.43648932775315
1070
     1
1040
36.66049084556013
1040
23.43648932775315
1040
36.61706050465457
1040
23.33229860733602
1070
     1
1040
36.61706050465457
1040
23.33229860733602
1040
36.57925710602354
1040
23.22594333946835
1070
     1
1040
36.57925710602354
1040
23.22594333946835
1040
36.54722159336241
1040
23.11767406956402
1070
     1
1040
36.54722159336241
1040
23.11767406956402
1040
36.52110405484771
1040
23.00779024093529
1070
     1
1040
36.52110405484771
1040
23.00779024093529
1040
36.50105148618125
1040
22.89661309273046
1070
     1
1040
36.50105148618125
1040
22.89661309273046
1040
36.48722313194486
1040
22.78451188804436
1070
     1
1040
36.48722313194486
1040
22.78451188804436
1040
36.47977823672034
1040
22.67185588997187
1070
     1
1040
36.47977823672034
1040
22.67185588997187
1040
36.47887604508949
1040
22.55901436160784
1070
     1
1040
36.47887604508949
1040
22.55901436160784
1040
36.48475774395981
1040
22.44607158248759
1070
     1
1040
36.48475774395981
1040
22.44607158248759
1040
36.50730298839907
1040
22.27824312562695
1070
     1
1040
36.50730298839907
1040
22.27824312562695
1040
36.53184176454268
1040
22.16836321870454
1070
     1
1040
36.53184176454268
1040
22.16836321870454
1040
36.58066141679664
1040
22.00635409419069
1070
     1
1040
36.58066141679664
1040
22.00635409419069
1040
36.66317612048025
1040
21.79605059028197
1070
     1
1040
36.66317612048025
1040
21.79605059028197
1040
36.73810157655724
1040
21.64424333087827
1070
     1
1040
36.73810157655724
1040
21.64424333087827
1040
36.82487619371594
1040
21.49928452588675
1070
     1
1040
36.82487619371594
1040
21.49928452588675
1040
36.90656479578137
1040
21.38422047002156
1070
     1
1040
36.90656479578137
1040
21.38422047002156
1040
36.99507455897878
1040
21.27411393911514
1070
     1
1040
36.99507455897878
1040
21.27411393911514
1040
37.06997592170736
1040
21.18923199261414
1070
     1
1040
37.06997592170736
1040
21.18923199261414
1040
37.19090624714094
1040
21.07040837833609
1070
     1
1040
37.19090624714094
1040
21.07040837833609
1040
37.27814005089745
1040
20.99937278063336
1070
     1
1040
37.27814005089745
1040
20.99937278063336
1040
37.41820717151092
1040
20.90511471530929
1070
     1
1040
37.41820717151092
1040
20.90511471530929
1040
37.54199232876573
1040
20.83675698136081
1070
     1
1040
37.54199232876573
1040
20.83675698136081
1040
37.66963145788086
1040
20.77567317677089
1070
     1
1040
37.66963145788086
1040
20.77567317677089
1040
37.8780081581552
1040
20.68845696528821
1070
     1
1040
37.8780081581552
1040
20.68845696528821
1040
38.1996064863776
1040
20.58288122875969
1070
     1
1040
38.1996064863776
1040
20.58288122875969
1040
38.41901473591617
1040
20.5313383877604
1070
     1
1040
38.41901473591617
1040
20.5313383877604
1040
38.75315260795133
1040
20.4778380326807
1070
     1
1040
38.75315260795133
1040
20.4778380326807
1040
39.03388002407347
1040
20.45024301554652
1070
     1
1040
39.03388002407347
1040
20.45024301554652
1040
39.3154824739789
1040
20.43816227630538
1070
     1
1040
39.3154824739789
1040
20.43816227630538
1040
39.87832438970059
1040
20.46163547548925
1070
     1
1040
39.87832438970059
1040
20.46163547548925
1040
40.15919163958635
1040
20.49446766611456
1070
     1
1040
40.15919163958635
1040
20.49446766611456
1040
40.43780417420945
1040
20.54223471097222
1070
     1
1040
40.43780417420945
1040
20.54223471097222
1040
40.71211753370237
1040
20.60834422386486
1070
     1
1040
40.71211753370237
1040
20.60834422386486
1040
40.97822189579761
1040
20.69993377525822
1070
     1
1040
40.97822189579761
1040
20.69993377525822
1040
41.23556355576588
1040
20.81532426148599
1070
     1
1040
41.23556355576588
1040
20.81532426148599
1040
41.36129896456578
1040
20.87918642113991
1070
     1
1040
41.36129896456578
1040
20.87918642113991
1040
41.48298030283661
1040
20.95024471011851
1070
     1
1040
41.48298030283661
1040
20.95024471011851
1040
41.57561849499816
1040
21.01478183487384
1070
     1
1040
41.57561849499816
1040
21.01478183487384
1040
41.64162067797335
1040
21.06789487373303
1070
     1
1040
41.64162067797335
1040
21.06789487373303
1040
41.70417597333143
1040
21.12494680466518
1070
     1
1040
41.70417597333143
1040
21.12494680466518
1040
41.7817101714212
1040
21.20681530143447
1070
     1
1040
41.7817101714212
1040
21.20681530143447
1040
41.88612496759311
1040
21.3400893433574
1070
     1
1040
41.88612496759311
1040
21.3400893433574
1040
41.94806769779654
1040
21.43459300621544
1070
     1
1040
41.94806769779654
1040
21.43459300621544
1040
41.98954620943113
1040
21.50838618886258
1070
     1
1040
41.98954620943113
1040
21.50838618886258
1040
42.02581025553314
1040
21.58482751880403
1070
     1
1040
42.02581025553314
1040
21.58482751880403
1040
42.06495311335439
1040
21.69080606664596
1070
     1
1040
42.06495311335439
1040
21.69080606664596
1040
42.08734956124508
1040
21.7725999887287
1070
     1
1040
42.08734956124508
1040
21.7725999887287
1040
42.10387297621249
1040
21.85564360711669
1070
     1
1040
42.1038729762125
1040
21.85564360711669
1040
40.3430229762125
1040
21.85564360711669
1070
     1
1040
40.3430229762125
1040
21.85564360711669
1040
40.23476024848425
1040
21.77513923010117
1070
     1
1040
40.23476024848425
1040
21.77513923010117
1040
40.14934213166021
1040
21.72065519582548
1070
     1
1040
40.14934213166021
1040
21.72065519582548
1040
40.06077578326683
1040
21.67143258943228
1070
     1
1040
40.06077578326683
1040
21.67143258943228
1040
39.9847582806153
1040
21.63477293281268
1070
     1
1040
39.9847582806153
1040
21.63477293281268
1040
39.90657573481703
1040
21.60330661466393
1070
     1
1040
39.90657573481703
1040
21.60330661466393
1040
39.84227684043671
1040
21.58263477145073
1070
     1
1040
39.84227684043671
1040
21.58263477145073
1040
39.74365139903882
1040
21.55908759838492
1070
     1
1040
39.74365139903882
1040
21.55908759838492
1040
39.60933694828439
1040
21.54053645709474
1070
     1
1040
39.60933694828439
1040
21.54053645709474
1040
39.50763922715866
1040
21.53565640431556
1070
     1
1040
39.50763922715866
1040
21.53565640431556
1040
39.40580907592665
1040
21.53798084006903
1070
     1
1040
39.40580907592665
1040
21.53798084006903
1040
39.27139248316182
1040
21.55149592366054
1070
     1
1040
39.27139248316182
1040
21.55149592366054
1040
39.17168098959246
1040
21.56918758966989
1070
     1
1040
39.17168098959246
1040
21.56918758966989
1040
39.07332908880515
1040
21.59318639542836
1070
     1
1040
39.07332908880515
1040
21.59318639542836
1040
38.94488412919865
1040
21.63503670912596
1070
     1
1040
38.94488412919865
1040
21.63503670912596
1040
38.85139509395393
1040
21.67430102476285
1070
     1
1040
38.85139509395393
1040
21.67430102476285
1040
38.76098099155707
1040
21.72084551731241
1070
     1
1040
38.76098099155707
1040
21.72084551731241
1040
38.70284010572697
1040
21.75613985649101
1070
     1
1040
38.70284010572697
1040
21.75613985649101
1040
38.64707685719372
1040
21.79510415864196
1070
     1
1040
38.64707685719372
1040
21.79510415864196
1040
38.59445017225021
1040
21.83796670614767
1070
     1
1040
38.59445017225021
1040
21.83796670614767
1040
38.54571897718932
1040
21.88495578139061
1070
     1
1040
38.54571897718932
1040
21.88495578139061
1040
38.50164219830395
1040
21.93629966675315
1070
     1
1040
38.50164219830395
1040
21.93629966675315
1040
38.46287701718852
1040
21.99205035339784
1070
     1
1040
38.46287701718852
1040
21.99205035339784
1040
38.42966872450979
1040
22.05156201261892
1070
     1
1040
38.42966872450979
1040
22.05156201261892
1040
38.40216110017965
1040
22.11401272255397
1070
     1
1040
38.40216110017965
1040
22.11401272255397
1040
38.38049792410992
1040
22.17858056134068
1070
     1
1040
38.38049792410992
1040
22.17858056134068
1040
38.36482297621251
1040
22.24444360711671
1070
     1
1040
38.3648229762125
1040
22.24444360711669
1040
39.0510729762125
1040
22.24444360711669
1070
     1
1040
38.3648229762125
1040
23.07919360711669
1040
39.1541229762125
1040
23.07919360711669
1070
     1
1040
39.1541229762125
1040
23.07919360711669
1040
40.3430229762125
1040
23.07919360711669
1070
     1
1040
40.3430229762125
1040
23.07919360711669
1040
40.33909926301454
1040
23.11641599550353
1070
     1
1040
40.33909926301454
1040
23.11641599550353
1040
40.33300155668256
1040
23.15343121688127
1070
     1
1040
40.33300155668256
1040
23.15343121688127
1040
40.32469189133606
1040
23.19004875052245
1070
     1
1040
40.32469189133606
1040
23.19004875052245
1040
40.31413230109458
1040
23.22607807569952
1070
     1
1040
40.31413230109458
1040
23.22607807569952
1040
40.30128482007762
1040
23.26132867168497
1070
     1
1040
40.30128482007762
1040
23.26132867168497
1040
40.2861562754215
1040
23.29560552113762
1070
     1
1040
40.2861562754215
1040
23.29560552113762
1040
40.26886416528138
1040
23.32884602666271
1070
     1
1040
40.26886416528138
1040
23.32884602666271
1040
40.24956736768168
1040
23.36098167189717
1070
     1
1040
40.24956736768168
1040
23.36098167189717
1040
40.22842476064687
1040
23.39194394047795
1070
     1
1040
40.22842476064687
1040
23.39194394047795
1040
40.20559522220136
1040
23.42166431604199
1070
     1
1040
40.20559522220136
1040
23.42166431604199
1040
40.15515801785679
1040
23.47753406525592
1070
     1
1040
40.15515801785679
1040
23.47753406525592
1040
40.11388839399304
1040
23.51605862117359
1070
     1
1040
40.11388839399304
1040
23.51605862117359
1040
40.07014905358668
1040
23.55176773224803
1070
     1
1040
40.07014905358668
1040
23.55176773224803
1040
40.00889746141838
1040
23.59493589176599
1070
     1
1040
40.00889746141838
1040
23.59493589176599
1040
39.96089441895125
1040
23.62414416847377
1070
     1
1040
39.96089441895125
1040
23.62414416847377
1040
39.91135088271828
1040
23.6506431736504
1070
     1
1040
39.91135088271828
1040
23.6506431736504
1040
39.84321277515286
1040
23.6818016613351
1070
     1
1040
39.84321277515286
1040
23.6818016613351
1040
39.7374628559249
1040
23.71981068462436
1070
     1
1040
39.7374628559249
1040
23.71981068462436
1040
39.66503365624778
1040
23.73954552020273
1070
     1
1040
39.66503365624778
1040
23.73954552020273
1040
39.55447534379333
1040
23.76080659501808
1070
     1
1040
39.55447534379333
1040
23.76080659501808
1040
39.47958224634176
1040
23.76953429507831
1070
     1
1040
39.47958224634176
1040
23.76953429507831
1040
39.36667772831406
1040
23.77477007425147
1070
     1
1040
39.36667772831406
1040
23.77477007425147
1040
39.29122949187705
1040
23.77322624991531
1070
     1
1040
39.29122949187705
1040
23.77322624991531
1040
39.17824365086322
1040
23.76280187157366
1070
     1
1040
39.17824365086322
1040
23.76280187157366
1040
39.10438801088995
1040
23.74982437023361
1070
     1
1040
39.10438801088995
1040
23.74982437023361
1040
39.06808459709384
1040
23.74084703659711
1070
     1
1040
39.06808459709384
1040
23.74084703659711
1040
39.03251357680947
1040
23.72981136235449
1070
     1
1040
39.03251357680947
1040
23.72981136235449
1040
38.99791204207538
1040
23.71641788353441
1070
     1
1040
38.99791204207538
1040
23.71641788353441
1040
38.96434370672354
1040
23.70050789086009
1070
     1
1040
38.96434370672354
1040
23.70050789086009
1040
38.83484335052719
1040
23.62568105970969
1070
     1
1040
38.83484335052719
1040
23.62568105970969
1040
38.6715939776077
1040
23.53558123947115
1070
     1
1040
38.6715939776077
1040
23.53558123947115
1040
38.64097585888165
1040
23.51416025014972
1070
     1
1040
38.64097585888165
1040
23.51416025014972
1040
38.61162458828315
1040
23.49088000691659
1070
     1
1040
38.61162458828315
1040
23.49088000691659
1040
38.5835911062816
1040
23.4659111349842
1070
     1
1040
38.5835911062816
1040
23.4659111349842
1040
38.53168126994678
1040
23.41159000587155
1070
     1
1040
38.53168126994678
1040
23.41159000587155
1040
38.48534058579902
1040
23.35202538560785
1070
     1
1040
38.48534058579902
1040
23.35202538560785
1040
38.45462052922736
1040
23.30455107675152
1070
     1
1040
38.45462052922736
1040
23.30455107675152
1040
38.42745670868595
1040
23.25493190905037
1070
     1
1040
38.42745670868595
1040
23.25493190905037
1040
38.39720008793944
1040
23.18647261641375
1070
     1
1040
38.39720008793944
1040
23.18647261641375
1040
38.37898034260687
1040
23.13339531126972
1070
     1
1040
38.37898034260687
1040
23.13339531126972
1040
38.36482297621251
1040
23.0791936071167
1071
        0
1070
     0
1070
     1
1040
0.0
1040
0.062992
1070
     0
1070
     1
1040
0.7853981633974483
1040
-6.22517
1040
-28.624349
1040
-0.1414213583446519
1040
0.1414213583446519
1070
     0
1071
        1
1040
-6.22517
1040
-28.624349
1040
0.0
1002
}
  0
INSERT
  5
8F
330
A
100
AcDbEntity
  8
CARTOUCHE
  6
CONTINUOUS
 62
     4
100
AcDbBlockReference
  2
*X13
 10
0.0
 20
0.0
 30
0.0
1001
ACAD
1000
HATCH
1002
{
1070
    19
1000
ANSI31
1040
0.062992
1040
0.0
1000
R14_HATCH_DATA
1000
8F
1011
1.0
1021
0.0
1031
0.0
1011
0.0
1021
1.0
1031
0.0
1011
0.0
1021
0.0
1031
1.0
1040
0.0
1010
0.0
1020
0.0
1030
1.0
1000
ANSI31
1070
     0
1070
     0
1071
        1
1071
        1
1071
       78
1070
     1
1040
42.7329729762125
1040
24.50839360711669
1040
42.7329729762125
1040
20.63209360711669
1070
     1
1040
42.73297297621249
1040
20.63209360711669
1040
44.45962297621249
1040
20.63209360711669
1070
     1
1040
44.45962297621249
1040
20.63209360711669
1040
44.45962297621249
1040
22.7821936071167
1070
     1
1040
44.45962297621249
1040
22.7821936071167
1040
44.46348794510234
1040
22.8255625145897
1070
     1
1040
44.46348794510234
1040
22.8255625145897
1040
44.47094556156601
1040
22.86858609211488
1070
     1
1040
44.47094556156601
1040
22.86858609211488
1040
44.48187912731205
1040
22.91099091841204
1070
     1
1040
44.48187912731205
1040
22.91099091841204
1040
44.49617194404904
1040
22.95250357220095
1070
     1
1040
44.49617194404904
1040
22.95250357220095
1040
44.51370731348553
1040
22.99285063220139
1070
     1
1040
44.51370731348553
1040
22.99285063220139
1040
44.53438626348421
1040
23.0317545945469
1070
     1
1040
44.53438626348421
1040
23.0317545945469
1040
44.55812166299893
1040
23.06881377931527
1070
     1
1040
44.55812166299893
1040
23.06881377931527
1040
44.58484120386311
1040
23.10362376054641
1070
     1
1040
44.58484120386311
1040
23.10362376054641
1040
44.61447257791014
1040
23.13578011228038
1070
     1
1040
44.61447257791014
1040
23.13578011228038
1040
44.64694347697346
1040
23.1648784085571
1070
     1
1040
44.64694347697346
1040
23.1648784085571
1040
44.68210883840074
1040
23.19058719493143
1070
     1
1040
44.68210883840074
1040
23.19058719493143
1040
44.71962636284679
1040
23.21293288857709
1070
     1
1040
44.71962636284679
1040
23.21293288857709
1040
44.75908341829764
1040
23.23201184788313
1070
     1
1040
44.75908341829764
1040
23.23201184788313
1040
44.80006737273921
1040
23.24792043123857
1070
     1
1040
44.80006737273921
1040
23.24792043123857
1040
44.84216559415751
1040
23.26075499703252
1070
     1
1040
44.84216559415751
1040
23.26075499703252
1040
44.88545455273231
1040
23.270655442047
1070
     1
1040
44.88545455273231
1040
23.270655442047
1040
44.92924123868192
1040
23.2773439388539
1070
     1
1040
44.92924123868192
1040
23.2773439388539
1040
44.97330683573443
1040
23.28064946918181
1070
     1
1040
44.97330683573443
1040
23.28064946918181
1040
45.01743252761782
1040
23.28040101475933
1070
     1
1040
45.01743252761782
1040
23.28040101475933
1040
45.06139949806012
1040
23.27642755731508
1070
     1
1040
45.06139949806012
1040
23.27642755731508
1040
45.10431902475496
1040
23.26873571333316
1070
     1
1040
45.10431902475496
1040
23.26873571333316
1040
45.14647148487028
1040
23.2572942532064
1070
     1
1040
45.14647148487028
1040
23.2572942532064
1040
45.1874563135664
1040
23.24213569574835
1070
     1
1040
45.1874563135664
1040
23.24213569574835
1040
45.22687294600372
1040
23.22329255977249
1070
     1
1040
45.22687294600372
1040
23.22329255977249
1040
45.26432081734258
1040
23.20079736409236
1070
     1
1040
45.26432081734258
1040
23.20079736409236
1040
45.29950399260581
1040
23.17464234545267
1070
     1
1040
45.29950399260581
1040
23.17464234545267
1040
45.3319466893692
1040
23.14511885198865
1070
     1
1040
45.3319466893692
1040
23.14511885198865
1040
45.36129137460258
1040
23.11249875587486
1070
     1
1040
45.36129137460258
1040
23.11249875587486
1040
45.38718051527586
1040
23.07705392928583
1070
     1
1040
45.38718051527586
1040
23.07705392928583
1040
45.40925657835891
1040
23.03905624439609
1070
     1
1040
45.40925657835891
1040
23.03905624439609
1040
45.42712855451241
1040
22.99901140429402
1070
     1
1040
45.42712855451241
1040
22.99901140429402
1040
45.44073151771931
1040
22.95727674897495
1070
     1
1040
45.44073151771931
1040
22.95727674897495
1040
45.44993013263485
1040
22.91442324997896
1070
     1
1040
45.44993013263485
1040
22.91442324997896
1040
45.45458906391417
1040
22.87102187884616
1070
     1
1040
45.45458906391417
1040
22.87102187884616
1040
45.45517385589502
1040
22.84929416983477
1070
     1
1040
45.45517385589502
1040
22.84929416983477
1040
45.4545729762125
1040
22.8276436071167
1070
     1
1040
45.4545729762125
1040
22.82764360711668
1040
45.4545729762125
1040
22.58779360711669
1070
     1
1040
45.4545729762125
1040
22.58779360711669
1040
47.28382297621251
1040
22.58779360711669
1070
     1
1040
47.28382297621251
1040
22.58779360711669
1040
47.3004804936556
1040
22.74190106131424
1070
     1
1040
47.3004804936556
1040
22.74190106131424
1040
47.3080338234398
1040
22.8967638790771
1070
     1
1040
47.3080338234398
1040
22.8967638790771
1040
47.30622287525522
1040
23.05192121819743
1070
     1
1040
47.30622287525522
1040
23.05192121819743
1040
47.29564801913904
1040
23.20671600883972
1070
     1
1040
47.29564801913904
1040
23.20671600883972
1040
47.27690756459471
1040
23.36097203168621
1070
     1
1040
47.27690756459471
1040
23.36097203168621
1040
47.24989999164073
1040
23.51409730955235
1070
     1
1040
47.24989999164073
1040
23.51409730955235
1040
47.22187384806168
1040
23.63507228911501
1070
     1
1040
47.22187384806168
1040
23.63507228911501
1040
47.19591979102985
1040
23.72444452731119
1070
     1
1040
47.19591979102985
1040
23.72444452731119
1040
47.16468005782961
1040
23.81204898160464
1070
     1
1040
47.16468005782961
1040
23.81204898160464
1040
47.11349871924234
1040
23.92524957107785
1070
     1
1040
47.11349871924234
1040
23.92524957107785
1040
47.06786670375861
1040
24.00661487989895
1070
     1
1040
47.06786670375861
1040
24.00661487989895
1040
47.01605698726017
1040
24.08429955967585
1070
     1
1040
47.01605698726017
1040
24.08429955967585
1040
46.97801762216911
1040
24.13384773491677
1070
     1
1040
46.97801762216911
1040
24.13384773491677
1040
46.93728662108015
1040
24.18120785118272
1070
     1
1040
46.93728662108015
1040
24.18120785118272
1040
46.89391719550556
1040
24.22609654300447
1070
     1
1040
46.89391719550556
1040
24.22609654300447
1040
46.84796255695764
1040
24.26823044491285
1070
     1
1040
46.84796255695764
1040
24.26823044491285
1040
46.79947591694869
1040
24.30732619143858
1070
     1
1040
46.79947591694869
1040
24.30732619143858
1040
46.7488465724848
1040
24.34298114654168
1070
     1
1040
46.7488465724848
1040
24.34298114654168
1040
46.69608724688365
1040
24.37549699186584
1070
     1
1040
46.69608724688365
1040
24.37549699186584
1040
46.61365719684794
1040
24.41870306383236
1070
     1
1040
46.61365719684794
1040
24.41870306383236
1040
46.52824151124928
1040
24.45566419975128
1070
     1
1040
46.52824151124928
1040
24.45566419975128
1040
46.41028459037802
1040
24.49653361183229
1070
     1
1040
46.41028459037802
1040
24.49653361183229
1040
46.22887996193932
1040
24.5428722112578
1070
     1
1040
46.22887996193932
1040
24.5428722112578
1040
46.10697132102439
1040
24.56607477690471
1070
     1
1040
46.10697132102439
1040
24.56607477690471
1040
45.92238599753447
1040
24.58782115591738
1070
     1
1040
45.92238599753447
1040
24.58782115591738
1040
45.79850421157131
1040
24.59181565822406
1070
     1
1040
45.79850421157131
1040
24.59181565822406
1040
45.61256799206709
1040
24.58370341795764
1070
     1
1040
45.61256799206709
1040
24.58370341795764
1040
45.45792565313361
1040
24.56627398792206
1070
     1
1040
45.45792565313361
1040
24.56627398792206
1040
45.3047164351297
1040
24.53948194901727
1070
     1
1040
45.3047164351297
1040
24.53948194901727
1040
45.18380461446541
1040
24.5111348336182
1070
     1
1040
45.18380461446541
1040
24.5111348336182
1040
45.00579935951135
1040
24.45603046599671
1070
     1
1040
45.00579935951135
1040
24.45603046599671
1040
44.89043442943742
1040
24.4105183218836
1070
     1
1040
44.89043442943742
1040
24.4105183218836
1040
44.77781671686114
1040
24.3581981890036
1070
     1
1040
44.77781671686114
1040
24.3581981890036
1040
44.66826383099194
1040
24.29958044229217
1070
     1
1040
44.66826383099194
1040
24.29958044229217
1040
44.45962297621249
1040
24.16549360711669
1070
     1
1040
44.45962297621249
1040
24.16549360711669
1040
44.45962297621249
1040
24.50839360711669
1070
     1
1040
44.45962297621249
1040
24.50839360711669
1040
42.7329729762125
1040
24.50839360711669
1071
        0
1070
     0
1070
     1
1040
0.0
1040
0.062992
1070
     0
1070
     1
1040
0.7853981633974483
1040
-6.22517
1040
-28.624349
1040
-0.1414213583446519
1040
0.1414213583446519
1070
     0
1071
        1
1040
-6.22517
1040
-28.624349
1040
0.0
1002
}
  0
LINE
  5
90
330
A
100
AcDbEntity
  8
CARTOUCHE
  6
CONTINUOUS
 62
     7
100
AcDbLine
 10
205.0000369999999
 20
36.84515599999999
 30
0.0
 11
5.0
 21
36.84546199999999
 31
0.0
  0
LINE
  5
91
330
A
100
AcDbEntity
  8
CARTOUCHE
  6
CONTINUOUS
 62
     7
100
AcDbLine
 10
153.3333296666666
 20
20.002887
 30
0.0
 11
153.3333296666666
 21
10.000945
 31
0.0
  0
TEXT
  5
94
330
A
100
AcDbEntity
  8
CARTOUCHE
  6
CONTINUOUS
 62
     2
100
AcDbText
 10
16.19094183698592
 20
14.30878215898842
 30
0.0
 40
1.8
  1
www.findernet.com
 50
359.9999079999999
 41
1.05
  7
FINDER
 72
     1
 11
27.5000005
 21
14.30876399999999
 31
0.0
100
AcDbText
  0
POLYLINE
  5
9B
330
A
100
AcDbEntity
  8
CARTOUCHE
  6
CONTINUOUS
 62
     7
100
AcDb2dPolyline
 66
     1
 10
0.0
 20
0.0
 30
0.0
 70
   129
  0
VERTEX
  5
2C2B
330
9B
100
AcDbEntity
  8
CARTOUCHE
  6
CONTINUOUS
 62
     7
100
AcDbVertex
100
AcDb2dVertex
 10
205.0000369999999
 20
292.0001829999999
 30
0.0
  0
VERTEX
  5
2C2C
330
9B
100
AcDbEntity
  8
CARTOUCHE
  6
CONTINUOUS
 62
     7
100
AcDbVertex
100
AcDb2dVertex
 10
205.0000369999999
 20
5.000182999999999
 30
0.0
  0
VERTEX
  5
2C2D
330
9B
100
AcDbEntity
  8
CARTOUCHE
  6
CONTINUOUS
 62
     7
100
AcDbVertex
100
AcDb2dVertex
 10
5.0
 20
5.0
 30
0.0
  0
VERTEX
  5
2C2E
330
9B
100
AcDbEntity
  8
CARTOUCHE
  6
CONTINUOUS
 62
     7
100
AcDbVertex
100
AcDb2dVertex
 10
5.0
 20
292.0
 30
0.0
  0
VERTEX
  5
2C2F
330
9B
100
AcDbEntity
  8
CARTOUCHE
  6
CONTINUOUS
 62
     7
100
AcDbVertex
100
AcDb2dVertex
 10
204.999774
 20
292.0001829999999
 30
0.0
  0
SEQEND
  5
2C30
330
9B
100
AcDbEntity
  8
CARTOUCHE
  6
CONTINUOUS
 62
     7
  0
TEXT
  5
AA
330
A
100
AcDbEntity
  8
CARTOUCHE
  6
CONTINUOUS
 62
     7
100
AcDbText
 10
124.9195672230592
 20
16.62422614341349
 30
0.0
 40
1.8
  1
DATE
 50
359.9999079999999
 41
0.8
  7
FINDER
 72
     1
 11
127.4999765
 21
16.6242220000428
 31
0.0
100
AcDbText
  0
TEXT
  5
AB
330
A
100
AcDbEntity
  8
CARTOUCHE
  6
CONTINUOUS
 62
     1
100
AcDbText
 10
121.6268523526678
 20
11.77620843053535
 30
0.0
 40
2.1
  1
26/03/2003
 50
359.9999079999999
 41
0.8
  7
FINDER
 72
     1
 11
127.4999765
 21
11.7761990000428
 31
0.0
100
AcDbText
  0
TEXT
  5
AC
330
A
100
AcDbEntity
  8
CARTOUCHE
  6
CONTINUOUS
 62
     7
100
AcDbText
 10
175.8770504677168
 20
16.62414828217011
 30
0.0
 40
1.8
  1
SCALE
 50
359.9999079999999
 41
0.8
  7
FINDER
 72
     1
 11
179.1666548333333
 21
16.6241430000428
 31
0.0
100
AcDbText
  0
TEXT
  5
AD
330
A
100
AcDbEntity
  8
CARTOUCHE
  6
CONTINUOUS
 62
     1
100
AcDbText
 10
177.6230259110979
 20
11.77612247865226
 30
0.0
 40
2.1
  1
1:1
 50
359.9999079999999
 41
0.8
  7
FINDER
 72
     1
 11
179.1666548333333
 21
11.7761200000428
 31
0.0
100
AcDbText
  0
TEXT
  5
AE
330
A
100
AcDbEntity
  8
CARTOUCHE
  6
CONTINUOUS
 62
     1
100
AcDbText
 10
123.77065898568
 20
22.43595998819847
 30
0.0
 40
3.0
  1
7111
 50
359.9999079999999
 41
0.8
  7
FINDER
 72
     1
 11
127.4999904999999
 21
22.435954
 31
0.0
100
AcDbText
  0
LINE
  5
27B4
330
A
100
AcDbEntity
  8
DRAW
  6
CONTINUOUS
100
AcDbLine
 10
168.2564741154462
 20
188.90486661292
 30
0.0
 11
156.1552836751173
 21
189.010472101996
 31
0.0
  0
LINE
  5
27B5
330
A
100
AcDbEntity
  8
DRAW
  6
CONTINUOUS
100
AcDbLine
 10
158.0311433344954
 20
191.394010432558
 30
0.0
 11
168.2564740105334
 21
191.3047753236379
 31
0.0
  0
LINE
  5
27B6
330
A
100
AcDbEntity
  8
DRAW
  6
CONTINUOUS
100
AcDbLine
 10
158.0311433346727
 20
146.6059894821334
 30
0.0
 11
168.25647401071
 21
146.6952245911345
 31
0.0
  0
LINE
  5
27B7
330
A
100
AcDbEntity
  8
DRAW
  6
CONTINUOUS
100
AcDbLine
 10
168.2564741156039
 20
149.0951333018523
 30
0.0
 11
156.1552836752758
 21
148.9895278126805
 31
0.0
  0
LINE
  5
27B8
330
A
100
AcDbEntity
  8
DRAW
  6
CONTINUOUS
100
AcDbLine
 10
58.69050099380096
 20
133.2000007077422
 30
0.0
 11
64.89049472339231
 21
133.2000004027117
 31
0.0
  0
LINE
  5
27B9
330
A
100
AcDbEntity
  8
DRAW
  6
CONTINUOUS
100
AcDbLine
 10
64.89049476649558
 20
137.7999992258008
 30
0.0
 11
58.69050103690421
 21
137.7999990369615
 31
0.0
  0
LINE
  5
27BA
330
A
100
AcDbEntity
  8
DRAW
  6
CONTINUOUS
100
AcDbLine
 10
67.19049741644994
 20
204.8000069678887
 30
0.0
 11
58.69050146956579
 21
204.8000065457385
 31
0.0
  0
LINE
  5
27BB
330
A
100
AcDbEntity
  8
DRAW
  6
CONTINUOUS
100
AcDbLine
 10
58.69050169802386
 20
200.2000065517147
 30
0.0
 11
67.19049764490801
 21
200.2000069738656
 31
0.0
  0
LINE
  5
27BC
330
A
100
AcDbEntity
  8
DRAW
  6
CONTINUOUS
100
AcDbLine
 10
79.59050484028146
 20
205.0000075867134
 30
0.0
 11
52.49050922732928
 21
205.0000062407988
 31
0.0
  0
LINE
  5
27BD
330
A
100
AcDbEntity
  8
DRAW
  6
CONTINUOUS
100
AcDbLine
 10
79.59049184217358
 20
199.9999999573431
 30
0.0
 11
52.49049718274651
 21
199.999999957343
 31
0.0
  0
LINE
  5
27BE
330
A
100
AcDbEntity
  8
DRAW
  6
CONTINUOUS
100
AcDbLine
 10
52.49050328118592
 20
133.0000010097939
 30
0.0
 11
79.59049412591255
 21
132.9999996765144
 31
0.0
  0
LINE
  5
27BF
330
A
100
AcDbEntity
  8
DRAW
  6
CONTINUOUS
100
AcDbLine
 10
52.49050312889611
 20
137.999999957343
 30
0.0
 11
79.59049397362268
 21
137.999999957343
 31
0.0
  0
CIRCLE
  5
27C5
330
A
100
AcDbEntity
  8
DRAW
  6
CONTINUOUS
100
AcDbCircle
 10
60.44050712883475
 20
158.0000018647403
 30
0.0
 40
7.0
  0
LINE
  5
27C6
330
A
100
AcDbEntity
  8
DRAW
  6
CONTINUOUS
100
AcDbLine
 10
81.0017341048386
 20
191.304775323638
 30
0.0
 11
51.0792694716784
 21
191.3047753236379
 31
0.0
  0
LINE
  5
27C7
330
A
100
AcDbEntity
  8
DRAW
  6
CONTINUOUS
100
AcDbLine
 10
51.0792694716785
 20
146.6952245911345
 30
0.0
 11
81.00173410483867
 21
146.6952245911345
 31
0.0
  0
LINE
  5
27C8
330
A
100
AcDbEntity
  8
DRAW
  6
CONTINUOUS
100
AcDbLine
 10
81.0017341048386
 20
191.1147825606406
 30
0.0
 11
51.0792694716784
 21
191.1147825606405
 31
0.0
  0
LINE
  5
27C9
330
A
100
AcDbEntity
  8
DRAW
  6
CONTINUOUS
100
AcDbLine
 10
51.0792694716785
 20
146.8852173541333
 30
0.0
 11
81.00173410483867
 21
146.8852173541334
 31
0.0
  0
LINE
  5
27CA
330
A
100
AcDbEntity
  8
DRAW
  6
CONTINUOUS
100
AcDbLine
 10
82.30729394932129
 20
209.7667921184059
 30
0.0
 11
49.77370962719563
 21
209.7667921184058
 31
0.0
  0
LINE
  5
27CB
330
A
100
AcDbEntity
  8
DRAW
  6
CONTINUOUS
100
AcDbLine
 10
82.30729394932129
 20
210.9667464737601
 30
0.0
 11
49.77370962719563
 21
210.96674647376
 31
0.0
  0
LINE
  5
27CC
330
A
100
AcDbEntity
  8
DRAW
  6
CONTINUOUS
100
AcDbLine
 10
82.34054743289956
 20
210.9999999573232
 30
0.0
 11
49.74045614361736
 21
210.9999999573232
 31
0.0
  0
LINE
  5
27CD
330
A
100
AcDbEntity
  8
DRAW
  6
CONTINUOUS
100
AcDbLine
 10
49.77370962719581
 20
128.2332077962802
 30
0.0
 11
82.30729394932147
 21
128.2332077962802
 31
0.0
  0
LINE
  5
27CE
330
A
100
AcDbEntity
  8
DRAW
  6
CONTINUOUS
100
AcDbLine
 10
49.74045614361755
 20
126.9999999573232
 30
0.0
 11
82.34054743289973
 21
126.9999999573232
 31
0.0
  0
LINE
  5
27CF
330
A
100
AcDbEntity
  8
DRAW
  6
CONTINUOUS
100
AcDbLine
 10
49.77370962719581
 20
127.0332534409165
 30
0.0
 11
82.30729394932147
 21
127.0332534409166
 31
0.0
  0
LINE
  5
27D0
330
A
100
AcDbEntity
  8
DRAW
  6
CONTINUOUS
100
AcDbLine
 10
79.84050174057478
 20
198.999999957347
 30
0.0
 11
52.24050183594221
 21
198.999999957347
 31
0.0
  0
LINE
  5
27D1
330
A
100
AcDbEntity
  8
DRAW
  6
CONTINUOUS
100
AcDbLine
 10
80.84050178527826
 20
191.3895277155828
 30
0.0
 11
51.24050179123873
 21
191.3895277155827
 31
0.0
  0
LINE
  5
27D2
330
A
100
AcDbEntity
  8
DRAW
  6
CONTINUOUS
100
AcDbLine
 10
79.84050174057478
 20
198.7999999543675
 30
0.0
 11
52.24050183594221
 21
198.7999999543675
 31
0.0
  0
LINE
  5
27D3
330
A
100
AcDbEntity
  8
DRAW
  6
CONTINUOUS
100
AcDbLine
 10
52.24050183594234
 20
138.9999999573469
 30
0.0
 11
79.8405017405749
 21
138.999999957347
 31
0.0
  0
LINE
  5
27D4
330
A
100
AcDbEntity
  8
DRAW
  6
CONTINUOUS
100
AcDbLine
 10
52.24050183594233
 20
139.199999960328
 30
0.0
 11
79.8405017405749
 21
139.199999960328
 31
0.0
  0
LINE
  5
27D5
330
A
100
AcDbEntity
  8
DRAW
  6
CONTINUOUS
100
AcDbLine
 10
80.84050178527837
 20
146.6104721991129
 30
0.0
 11
51.24050179123884
 21
146.6104721991128
 31
0.0
  0
LINE
  5
27D6
330
A
100
AcDbEntity
  8
DRAW
  6
CONTINUOUS
100
AcDbLine
 10
80.99999995529646
 20
189.9031322023363
 30
0.0
 11
51.08100552856916
 21
189.9031322023363
 31
0.0
  0
LINE
  5
27D7
330
A
100
AcDbEntity
  8
DRAW
  6
CONTINUOUS
100
AcDbLine
 10
80.99999995529646
 20
191.1031322053118
 30
0.0
 11
51.08100552856916
 21
191.1031322053117
 31
0.0
  0
LINE
  5
27D8
330
A
100
AcDbEntity
  8
DRAW
  6
CONTINUOUS
100
AcDbLine
 10
80.99999995529646
 20
190.1031322053158
 30
0.0
 11
51.08100552856916
 21
190.1031322053157
 31
0.0
  0
LINE
  5
27D9
330
A
100
AcDbEntity
  8
DRAW
  6
CONTINUOUS
100
AcDbLine
 10
51.08100552856926
 20
148.0968677124471
 30
0.0
 11
80.99999995529655
 21
148.0968677124472
 31
0.0
  0
LINE
  5
27DA
330
A
100
AcDbEntity
  8
DRAW
  6
CONTINUOUS
100
AcDbLine
 10
51.08100552856926
 20
146.8968677094621
 30
0.0
 11
80.99999995529655
 21
146.8968677094622
 31
0.0
  0
LINE
  5
27DB
330
A
100
AcDbEntity
  8
DRAW
  6
CONTINUOUS
100
AcDbLine
 10
51.08100552856926
 20
147.8968677094661
 30
0.0
 11
80.99999995529655
 21
147.8968677094661
 31
0.0
  0
LINE
  5
27E2
330
A
100
AcDbEntity
  8
DRAW
  6
CONTINUOUS
100
AcDbLine
 10
48.67936076096059
 20
188.9048666129201
 30
0.0
 11
48.67936076096068
 21
149.0951333018523
 31
0.0
  0
LINE
  5
27E3
330
A
100
AcDbEntity
  8
DRAW
  6
CONTINUOUS
100
AcDbLine
 10
48.8693535239587
 20
188.9048666129208
 30
0.0
 11
48.86935352395878
 21
149.095133301853
 31
0.0
  0
LINE
  5
27E4
330
A
100
AcDbEntity
  8
DRAW
  6
CONTINUOUS
100
AcDbLine
 10
48.5405017882585
 20
198.0000001626087
 30
0.0
 11
48.54050178825862
 21
140.000007586821
 31
0.0
  0
LINE
  5
27E5
330
A
100
AcDbEntity
  8
DRAW
  6
CONTINUOUS
100
AcDbLine
 10
50.08100548386569
 20
188.9031321576327
 30
0.0
 11
50.08100548386578
 21
149.0968677571506
 31
0.0
  0
LINE
  5
27E6
330
A
100
AcDbEntity
  8
DRAW
  6
CONTINUOUS
100
AcDbLine
 10
48.88100548088546
 20
188.903132157628
 30
0.0
 11
48.88100548088555
 21
149.0968677571458
 31
0.0
  0
LINE
  5
27E7
330
A
100
AcDbEntity
  8
DRAW
  6
CONTINUOUS
100
AcDbLine
 10
49.88100548088546
 20
188.903132157632
 30
0.0
 11
49.88100548088555
 21
149.0968677571498
 31
0.0
  0
LINE
  5
27E8
330
A
100
AcDbEntity
  8
DRAW
  6
CONTINUOUS
100
AcDbLine
 10
48.54047254551915
 20
198.0000094941697
 30
0.0
 11
48.54047254551915
 21
140.000007586821
 31
0.0
  0
LINE
  5
27E9
330
A
100
AcDbEntity
  8
DRAW
  6
CONTINUOUS
100
AcDbLine
 10
48.5737552718369
 20
128.2332077962754
 30
0.0
 11
48.57375527183686
 21
148.9895278126805
 31
0.0
  0
LINE
  5
27EA
330
A
100
AcDbEntity
  8
DRAW
  6
CONTINUOUS
100
AcDbLine
 10
49.77370962719581
 20
128.2332077962802
 30
0.0
 11
49.77370962719577
 21
146.9275404960142
 31
0.0
  0
LINE
  5
27EB
330
A
100
AcDbEntity
  8
DRAW
  6
CONTINUOUS
100
AcDbLine
 10
50.04050178825861
 20
146.7932525555564
 30
0.0
 11
50.04050178825862
 21
140.2000000050267
 31
0.0
  0
LINE
  5
27EC
330
A
100
AcDbEntity
  8
DRAW
  6
CONTINUOUS
100
AcDbLine
 10
51.24050179123884
 20
146.6104721991128
 30
0.0
 11
51.24050179123885
 21
140.2000000050314
 31
0.0
  0
LINE
  5
27ED
330
A
100
AcDbEntity
  8
DRAW
  6
CONTINUOUS
100
AcDbLine
 10
51.04050178825859
 20
146.6087268255278
 30
0.0
 11
51.04050178825861
 21
140.2000000050307
 31
0.0
  0
CIRCLE
  5
27EE
330
A
100
AcDbEntity
  8
DRAW
  6
CONTINUOUS
100
AcDbCircle
 10
52.49050320504102
 20
135.4999994804904
 30
0.0
 40
2.1
  0
ARC
  5
27EF
330
A
100
AcDbEntity
  8
DRAW
  6
CONTINUOUS
100
AcDbCircle
 10
52.48818011985651
 20
135.4999999303768
 30
0.0
 40
2.299999997019767
100
AcDbArc
 50
89.94676054684275
 51
270.0176925809199
  0
ARC
  5
27F0
330
A
100
AcDbEntity
  8
DRAW
  6
CONTINUOUS
100
AcDbCircle
 10
52.49050320504102
 20
135.4999994804904
 30
0.0
 40
2.300000002980232
100
AcDbArc
 50
269.9999971811316
 51
90.0
  0
LINE
  5
27F1
330
A
100
AcDbEntity
  8
DRAW
  6
CONTINUOUS
100
AcDbLine
 10
52.49050309188449
 20
133.200001012773
 30
0.0
 11
58.69050099380096
 21
133.2000007077422
 31
0.0
  0
LINE
  5
27F2
330
A
100
AcDbEntity
  8
DRAW
  6
CONTINUOUS
100
AcDbLine
 10
58.69050103690421
 20
137.7999990369615
 30
0.0
 11
52.4905031349877
 21
137.7999988481221
 31
0.0
  0
ARC
  5
27F3
330
A
100
AcDbEntity
  8
DRAW
  6
CONTINUOUS
100
AcDbCircle
 10
52.48818011985651
 20
135.499999930378
 30
0.0
 40
2.5
100
AcDbArc
 50
89.94676054684275
 51
270.053242943384
  0
LINE
  5
27F4
330
A
100
AcDbEntity
  8
DRAW
  6
CONTINUOUS
100
AcDbLine
 10
48.54050178825862
 20
140.000007586821
 30
0.0
 11
48.54050178825865
 21
128.1999543126821
 31
0.0
  0
ARC
  5
27F5
330
A
100
AcDbEntity
  8
DRAW
  6
CONTINUOUS
100
AcDbCircle
 10
49.77381993786597
 20
128.2333181069456
 30
0.0
 40
1.200064671098972
100
AcDbArc
 50
180.005266662703
 51
269.9947333372977
  0
ARC
  5
27F6
330
A
100
AcDbEntity
  8
DRAW
  6
CONTINUOUS
100
AcDbCircle
 10
49.74043721933701
 20
128.1999353884015
 30
0.0
 40
1.199935431227583
100
AcDbArc
 50
179.9990963835399
 51
270.0009036164592
  0
LINE
  5
27F7
330
A
100
AcDbEntity
  8
DRAW
  6
CONTINUOUS
100
AcDbLine
 10
49.74045614361755
 20
126.9999999573232
 30
0.0
 11
49.77370962719581
 21
127.0332534409165
 31
0.0
  0
LINE
  5
27F8
330
A
100
AcDbEntity
  8
DRAW
  6
CONTINUOUS
100
AcDbLine
 10
49.77370962719581
 20
128.2332077962754
 30
0.0
 11
48.57375527183691
 21
128.2332077962754
 31
0.0
  0
LINE
  5
27F9
330
A
100
AcDbEntity
  8
DRAW
  6
CONTINUOUS
100
AcDbLine
 10
48.54050178825864
 20
128.1999543126821
 30
0.0
 11
48.5737552718369
 21
128.2332077962754
 31
0.0
  0
LINE
  5
27FA
330
A
100
AcDbEntity
  8
DRAW
  6
CONTINUOUS
100
AcDbLine
 10
49.77370962719581
 20
128.2332077962802
 30
0.0
 11
49.77370962719581
 21
127.0332534409165
 31
0.0
  0
ARC
  5
27FB
330
A
100
AcDbEntity
  8
DRAW
  6
CONTINUOUS
100
AcDbCircle
 10
52.24050183594234
 20
140.2000000050267
 30
0.0
 40
2.200000047683715
100
AcDbArc
 50
180.0
 51
270.0
  0
LINE
  5
27FC
330
A
100
AcDbEntity
  8
DRAW
  6
CONTINUOUS
100
AcDbLine
 10
52.49050309188451
 20
133.200001012773
 30
0.0
 11
52.4905030820448
 21
133.0000010097935
 31
0.0
  0
ARC
  5
27FD
330
A
100
AcDbEntity
  8
DRAW
  6
CONTINUOUS
100
AcDbCircle
 10
52.24050183594233
 20
140.2000000050307
 30
0.0
 40
1.200000047683715
100
AcDbArc
 50
180.0
 51
270.0
  0
ARC
  5
27FE
330
A
100
AcDbEntity
  8
DRAW
  6
CONTINUOUS
100
AcDbCircle
 10
52.24050183594233
 20
140.2000000050314
 30
0.0
 40
1.000000044703483
100
AcDbArc
 50
180.0
 51
270.0
  0
LINE
  5
27FF
330
A
100
AcDbEntity
  8
DRAW
  6
CONTINUOUS
100
AcDbLine
 10
50.04050178825861
 20
140.2000000050307
 30
0.0
 11
51.04050178825861
 21
140.2000000050307
 31
0.0
  0
LINE
  5
2800
330
A
100
AcDbEntity
  8
DRAW
  6
CONTINUOUS
100
AcDbLine
 10
51.04050178825862
 20
140.2000000050307
 30
0.0
 11
51.24050179123885
 21
140.2000000050307
 31
0.0
  0
LINE
  5
2801
330
A
100
AcDbEntity
  8
DRAW
  6
CONTINUOUS
100
AcDbLine
 10
52.24050183594234
 20
137.999999957343
 30
0.0
 11
52.24050183594234
 21
138.9999999573469
 31
0.0
  0
LINE
  5
2802
330
A
100
AcDbEntity
  8
DRAW
  6
CONTINUOUS
100
AcDbLine
 10
52.49031728817016
 20
137.7999989344641
 30
0.0
 11
52.49050312889609
 21
137.9999988511031
 31
0.0
  0
LINE
  5
2803
330
A
100
AcDbEntity
  8
DRAW
  6
CONTINUOUS
100
AcDbLine
 10
52.24050183594234
 20
137.999999957343
 30
0.0
 11
52.49050312889611
 21
137.999999957343
 31
0.0
  0
LINE
  5
2804
330
A
100
AcDbEntity
  8
DRAW
  6
CONTINUOUS
100
AcDbLine
 10
52.24050183594233
 20
139.199999960328
 30
0.0
 11
52.24050183594233
 21
138.9999999573469
 31
0.0
  0
ARC
  5
2805
330
A
100
AcDbEntity
  8
DRAW
  6
CONTINUOUS
100
AcDbCircle
 10
58.69050110695752
 20
135.499999718909
 30
0.0
 40
2.300000002980232
100
AcDbArc
 50
269.9999971811325
 51
90.0
  0
ARC
  5
2806
330
A
100
AcDbEntity
  8
DRAW
  6
CONTINUOUS
100
AcDbCircle
 10
58.69050110695752
 20
135.499999718909
 30
0.0
 40
2.300000002980232
100
AcDbArc
 50
90.0
 51
269.9999971811325
  0
CIRCLE
  5
2807
330
A
100
AcDbEntity
  8
DRAW
  6
CONTINUOUS
100
AcDbCircle
 10
58.69050110695752
 20
135.4999997189082
 30
0.0
 40
2.1
  0
LINE
  5
2808
330
A
100
AcDbEntity
  8
DRAW
  6
CONTINUOUS
100
AcDbLine
 10
58.69050099380096
 20
133.2000007077422
 30
0.0
 11
58.69050098396126
 21
133.0000007047628
 31
0.0
  0
LINE
  5
2809
330
A
100
AcDbEntity
  8
DRAW
  6
CONTINUOUS
100
AcDbLine
 10
58.69050103690421
 20
137.7999990369615
 30
0.0
 11
58.69050103081261
 21
137.9999990399425
 31
0.0
  0
LINE
  5
280A
330
A
100
AcDbEntity
  8
DRAW
  6
CONTINUOUS
100
AcDbLine
 10
58.69050110695752
 20
137.7999997218892
 30
0.0
 11
58.69050110695752
 21
137.5999997189082
 31
0.0
  0
ARC
  5
280B
330
A
100
AcDbEntity
  8
DRAW
  6
CONTINUOUS
100
AcDbCircle
 10
51.07925956648802
 20
149.0951233966626
 30
0.0
 40
2.209906042551436
100
AcDbArc
 50
179.9997431901632
 51
270.0002568098367
  0
ARC
  5
280C
330
A
100
AcDbEntity
  8
DRAW
  6
CONTINUOUS
100
AcDbCircle
 10
51.07927917070781
 20
149.0951430008816
 30
0.0
 40
2.399918409766714
100
AcDbArc
 50
180.0002315551399
 51
269.9997684448592
  0
ARC
  5
280D
330
A
100
AcDbEntity
  8
DRAW
  6
CONTINUOUS
100
AcDbCircle
 10
50.98259969570256
 20
149.0111876371226
 30
0.0
 40
2.408941802199413
100
AcDbArc
 50
180.5151777626261
 51
239.8785570565306
  0
ARC
  5
280E
330
A
100
AcDbEntity
  8
DRAW
  6
CONTINUOUS
100
AcDbCircle
 10
51.08100552856926
 20
149.0968677571506
 30
0.0
 40
1.000000044703483
100
AcDbArc
 50
180.0
 51
270.0
  0
ARC
  5
280F
330
A
100
AcDbEntity
  8
DRAW
  6
CONTINUOUS
100
AcDbCircle
 10
51.08100552856926
 20
149.0968677571458
 30
0.0
 40
2.200000047683715
100
AcDbArc
 50
180.0
 51
270.0
  0
ARC
  5
2810
330
A
100
AcDbEntity
  8
DRAW
  6
CONTINUOUS
100
AcDbCircle
 10
51.08100552856926
 20
149.0968677571498
 30
0.0
 40
1.200000047683715
100
AcDbArc
 50
180.0
 51
270.0
  0
ARC
  5
2811
330
A
100
AcDbEntity
  8
DRAW
  6
CONTINUOUS
100
AcDbCircle
 10
50.98399867155291
 20
148.9998782995996
 30
0.0
 40
2.399871568034432
100
AcDbArc
 50
239.7141693347567
 51
246.8496836312123
  0
ARC
  5
2812
330
A
100
AcDbEntity
  8
DRAW
  6
CONTINUOUS
100
AcDbCircle
 10
50.95174323578693
 20
148.9128036558172
 30
0.0
 40
2.307131951646927
100
AcDbArc
 50
246.7360715594089
 51
270.9509732194035
  0
LINE
  5
2813
330
A
100
AcDbEntity
  8
DRAW
  6
CONTINUOUS
100
AcDbLine
 10
51.0792694716785
 20
146.8852173541333
 30
0.0
 11
51.0792694716785
 21
146.6952245911345
 31
0.0
  0
LINE
  5
2814
330
A
100
AcDbEntity
  8
DRAW
  6
CONTINUOUS
100
AcDbLine
 10
50.99003436271789
 20
146.6059894821334
 30
0.0
 11
51.0792694716785
 21
146.6952245911345
 31
0.0
  0
LINE
  5
2815
330
A
100
AcDbEntity
  8
DRAW
  6
CONTINUOUS
100
AcDbLine
 10
51.04050178825859
 20
146.6087268251377
 30
0.0
 11
50.99003436271788
 21
146.6059894821334
 31
0.0
  0
LINE
  5
2816
330
A
100
AcDbEntity
  8
DRAW
  6
CONTINUOUS
100
AcDbLine
 10
51.24050179123884
 20
146.6104721991128
 30
0.0
 11
51.04050178825861
 21
146.6087268251377
 31
0.0
  0
LINE
  5
2817
330
A
100
AcDbEntity
  8
DRAW
  6
CONTINUOUS
100
AcDbLine
 10
51.08100552856926
 20
148.0968677124471
 30
0.0
 11
51.08100552856926
 21
147.8968677094661
 31
0.0
  0
LINE
  5
2818
330
A
100
AcDbEntity
  8
DRAW
  6
CONTINUOUS
100
AcDbLine
 10
51.08100552856926
 20
146.8968677094621
 30
0.0
 11
51.08100552856926
 21
147.8968677094661
 31
0.0
  0
LINE
  5
2819
330
A
100
AcDbEntity
  8
DRAW
  6
CONTINUOUS
100
AcDbLine
 10
49.88100548088555
 20
149.0968677571498
 30
0.0
 11
50.08100548386578
 21
149.0968677571498
 31
0.0
  0
LINE
  5
281A
330
A
100
AcDbEntity
  8
DRAW
  6
CONTINUOUS
100
AcDbLine
 10
48.88100548088555
 20
149.0968677571498
 30
0.0
 11
49.88100548088555
 21
149.0968677571498
 31
0.0
  0
LINE
  5
281B
330
A
100
AcDbEntity
  8
DRAW
  6
CONTINUOUS
100
AcDbLine
 10
48.67936076096068
 20
149.0951333018522
 30
0.0
 11
48.86935352395878
 21
149.0951333018522
 31
0.0
  0
LINE
  5
281C
330
A
100
AcDbEntity
  8
DRAW
  6
CONTINUOUS
100
AcDbLine
 10
48.67936076096068
 20
149.0951333018523
 30
0.0
 11
48.57375527183684
 21
148.9895278126805
 31
0.0
  0
LINE
  5
281D
330
A
100
AcDbEntity
  8
DRAW
  6
CONTINUOUS
100
AcDbLine
 10
57.44050115273488
 20
172.7000007202686
 30
0.0
 11
57.44050115273488
 21
170.7000007202686
 31
0.0
  0
LINE
  5
281E
330
A
100
AcDbEntity
  8
DRAW
  6
CONTINUOUS
100
AcDbLine
 10
59.44050115273488
 20
172.7000007202686
 30
0.0
 11
59.44050115273488
 21
170.7000007202686
 31
0.0
  0
LINE
  5
2825
330
A
100
AcDbEntity
  8
DRAW
  6
CONTINUOUS
100
AcDbLine
 10
59.44050115273488
 20
170.7000007202686
 30
0.0
 11
57.44050115273488
 21
170.7000007202686
 31
0.0
  0
LINE
  5
282C
330
A
100
AcDbEntity
  8
DRAW
  6
CONTINUOUS
100
AcDbLine
 10
59.44050115273488
 20
172.7000007202686
 30
0.0
 11
57.44050115273488
 21
172.7000007202686
 31
0.0
  0
CIRCLE
  5
2844
330
A
100
AcDbEntity
  8
DRAW
  6
CONTINUOUS
100
AcDbCircle
 10
58.69050158379469
 20
202.5000075867221
 30
0.0
 40
2.1
  0
ARC
  5
2845
330
A
100
AcDbEntity
  8
DRAW
  6
CONTINUOUS
100
AcDbCircle
 10
52.49050320503778
 20
202.5000062408049
 30
0.0
 40
2.299999997019767
100
AcDbArc
 50
89.9998619792456
 51
269.9998619792504
  0
ARC
  5
2846
330
A
100
AcDbEntity
  8
DRAW
  6
CONTINUOUS
100
AcDbCircle
 10
58.69050158379469
 20
202.5000075867221
 30
0.0
 40
2.300000002980232
100
AcDbArc
 50
270.0000028455862
 51
90.0
  0
ARC
  5
2847
330
A
100
AcDbEntity
  8
DRAW
  6
CONTINUOUS
100
AcDbCircle
 10
58.69050158379469
 20
202.5000075867221
 30
0.0
 40
2.300000002980232
100
AcDbArc
 50
90.0
 51
270.0000028455862
  0
ARC
  5
2848
330
A
100
AcDbEntity
  8
DRAW
  6
CONTINUOUS
100
AcDbCircle
 10
52.49050320504102
 20
202.5000075867221
 30
0.0
 40
2.300000002980232
100
AcDbArc
 50
270.0000028455862
 51
90.0
  0
CIRCLE
  5
2849
330
A
100
AcDbEntity
  8
DRAW
  6
CONTINUOUS
100
AcDbCircle
 10
52.49050320504102
 20
202.5000075867213
 30
0.0
 40
2.1
  0
ARC
  5
284A
330
A
100
AcDbEntity
  8
DRAW
  6
CONTINUOUS
100
AcDbCircle
 10
52.49050320503778
 20
202.5000062408061
 30
0.0
 40
2.5
100
AcDbArc
 50
89.9998619792456
 51
263.7172090455686
  0
LINE
  5
284B
330
A
100
AcDbEntity
  8
DRAW
  6
CONTINUOUS
100
AcDbLine
 10
48.54050178825847
 20
209.8000456019643
 30
0.0
 11
48.5405017882585
 21
198.0000094941697
 31
0.0
  0
LINE
  5
284C
330
A
100
AcDbEntity
  8
DRAW
  6
CONTINUOUS
100
AcDbLine
 10
49.77370962719563
 20
209.7667921184058
 30
0.0
 11
49.77370962719567
 21
191.0724594186718
 31
0.0
  0
LINE
  5
284D
330
A
100
AcDbEntity
  8
DRAW
  6
CONTINUOUS
100
AcDbLine
 10
48.57375527183673
 20
209.7667921184011
 30
0.0
 11
48.57375527183677
 21
189.010472101996
 31
0.0
  0
LINE
  5
284E
330
A
100
AcDbEntity
  8
DRAW
  6
CONTINUOUS
100
AcDbLine
 10
48.54044715121142
 20
209.8000001066213
 30
0.0
 11
48.54044715121142
 21
198.0000001626087
 31
0.0
  0
LINE
  5
284F
330
A
100
AcDbEntity
  8
DRAW
  6
CONTINUOUS
100
AcDbLine
 10
52.49050331927023
 20
200.2000062437927
 30
0.0
 11
58.69050169802386
 21
200.2000065517147
 31
0.0
  0
LINE
  5
2850
330
A
100
AcDbEntity
  8
DRAW
  6
CONTINUOUS
100
AcDbLine
 10
50.04050178825849
 20
197.7999999096592
 30
0.0
 11
50.04050178825851
 21
191.2067473591295
 31
0.0
  0
LINE
  5
2851
330
A
100
AcDbEntity
  8
DRAW
  6
CONTINUOUS
100
AcDbLine
 10
51.0405017882585
 20
197.7999999096632
 30
0.0
 11
51.0405017882585
 21
191.3912730895562
 31
0.0
  0
LINE
  5
2852
330
A
100
AcDbEntity
  8
DRAW
  6
CONTINUOUS
100
AcDbLine
 10
51.24050179123873
 20
197.799999909664
 30
0.0
 11
51.24050179123874
 21
191.3895277155827
 31
0.0
  0
ARC
  5
2853
330
A
100
AcDbEntity
  8
DRAW
  6
CONTINUOUS
100
AcDbCircle
 10
51.07927917070759
 20
188.9048569138909
 30
0.0
 40
2.399918409766585
100
AcDbArc
 50
90.00023155513749
 51
179.9997684448625
  0
ARC
  5
2854
330
A
100
AcDbEntity
  8
DRAW
  6
CONTINUOUS
100
AcDbCircle
 10
51.07925956648779
 20
188.9048765181115
 30
0.0
 40
2.209906042551287
100
AcDbArc
 50
89.99974319015995
 51
180.0002568098408
  0
ARC
  5
2855
330
A
100
AcDbEntity
  8
DRAW
  6
CONTINUOUS
100
AcDbCircle
 10
50.98399867156314
 20
189.0001216150654
 30
0.0
 40
2.399871568057715
100
AcDbArc
 50
113.1503163688175
 51
120.2858306652045
  0
ARC
  5
2856
330
A
100
AcDbEntity
  8
DRAW
  6
CONTINUOUS
100
AcDbCircle
 10
51.08100552856917
 20
188.9031321576327
 30
0.0
 40
1.000000044703483
100
AcDbArc
 50
90.0
 51
180.0
  0
ARC
  5
2857
330
A
100
AcDbEntity
  8
DRAW
  6
CONTINUOUS
100
AcDbCircle
 10
51.08100552856917
 20
188.903132157628
 30
0.0
 40
2.200000047683715
100
AcDbArc
 50
90.0
 51
180.0
  0
ARC
  5
2858
330
A
100
AcDbEntity
  8
DRAW
  6
CONTINUOUS
100
AcDbCircle
 10
51.08100552856917
 20
188.903132157632
 30
0.0
 40
1.200000047683715
100
AcDbArc
 50
90.0
 51
180.0
  0
LINE
  5
2859
330
A
100
AcDbEntity
  8
DRAW
  6
CONTINUOUS
100
AcDbLine
 10
50.08100548386569
 20
188.903132157632
 30
0.0
 11
49.88100548088546
 21
188.903132157632
 31
0.0
  0
ARC
  5
285A
330
A
100
AcDbEntity
  8
DRAW
  6
CONTINUOUS
100
AcDbCircle
 10
50.98227334937812
 20
188.9890021917739
 30
0.0
 40
2.408613768724325
100
AcDbArc
 50
120.1169952736474
 51
179.4892699074228
  0
LINE
  5
285B
330
A
100
AcDbEntity
  8
DRAW
  6
CONTINUOUS
100
AcDbLine
 10
48.88100548088546
 20
188.903132157632
 30
0.0
 11
49.88100548088546
 21
188.903132157632
 31
0.0
  0
LINE
  5
285C
330
A
100
AcDbEntity
  8
DRAW
  6
CONTINUOUS
100
AcDbLine
 10
48.8693535239587
 20
188.90486661292
 30
0.0
 11
48.67936076096059
 21
188.90486661292
 31
0.0
  0
LINE
  5
285D
330
A
100
AcDbEntity
  8
DRAW
  6
CONTINUOUS
100
AcDbLine
 10
48.67936076096059
 20
188.90486661292
 30
0.0
 11
48.57375527183677
 21
189.010472101996
 31
0.0
  0
ARC
  5
285E
330
A
100
AcDbEntity
  8
DRAW
  6
CONTINUOUS
100
AcDbCircle
 10
50.95174323581741
 20
189.0871962587811
 30
0.0
 40
2.30713195173954
100
AcDbArc
 50
89.04902678139368
 51
113.263928440428
  0
LINE
  5
285F
330
A
100
AcDbEntity
  8
DRAW
  6
CONTINUOUS
100
AcDbLine
 10
51.0792694716784
 20
191.3047753236379
 30
0.0
 11
51.0792694716784
 21
191.1147825606405
 31
0.0
  0
LINE
  5
2860
330
A
100
AcDbEntity
  8
DRAW
  6
CONTINUOUS
100
AcDbLine
 10
50.99003436271779
 20
191.394010432558
 30
0.0
 11
51.0792694716784
 21
191.3047753236379
 31
0.0
  0
LINE
  5
2861
330
A
100
AcDbEntity
  8
DRAW
  6
CONTINUOUS
100
AcDbLine
 10
51.0405017882585
 20
191.3912730895562
 30
0.0
 11
50.99003436271778
 21
191.394010432558
 31
0.0
  0
LINE
  5
2862
330
A
100
AcDbEntity
  8
DRAW
  6
CONTINUOUS
100
AcDbLine
 10
51.24050179123874
 20
191.3895277155827
 30
0.0
 11
51.0405017882585
 21
191.3912730895562
 31
0.0
  0
LINE
  5
2863
330
A
100
AcDbEntity
  8
DRAW
  6
CONTINUOUS
100
AcDbLine
 10
51.08100552856917
 20
190.1031322053157
 30
0.0
 11
51.08100552856917
 21
189.9031322023362
 31
0.0
  0
LINE
  5
2864
330
A
100
AcDbEntity
  8
DRAW
  6
CONTINUOUS
100
AcDbLine
 10
51.08100552856916
 20
191.1031322053117
 30
0.0
 11
51.08100552856916
 21
190.1031322053157
 31
0.0
  0
ARC
  5
2865
330
A
100
AcDbEntity
  8
DRAW
  6
CONTINUOUS
100
AcDbCircle
 10
52.24050183594221
 20
197.7999999096593
 30
0.0
 40
2.200000047683715
100
AcDbArc
 50
90.65781797438985
 51
180.0
  0
LINE
  5
2866
330
A
100
AcDbEntity
  8
DRAW
  6
CONTINUOUS
100
AcDbLine
 10
52.24050183594219
 20
199.999999957343
 30
0.0
 11
52.24050183594219
 21
198.9999999573469
 31
0.0
  0
ARC
  5
2867
330
A
100
AcDbEntity
  8
DRAW
  6
CONTINUOUS
100
AcDbCircle
 10
52.24050183594221
 20
197.7999999096632
 30
0.0
 40
1.200000047683715
100
AcDbArc
 50
90.0
 51
180.0
  0
ARC
  5
2868
330
A
100
AcDbEntity
  8
DRAW
  6
CONTINUOUS
100
AcDbCircle
 10
52.24050183594221
 20
197.799999909664
 30
0.0
 40
1.000000044703483
100
AcDbArc
 50
90.0
 51
180.0
  0
LINE
  5
2869
330
A
100
AcDbEntity
  8
DRAW
  6
CONTINUOUS
100
AcDbLine
 10
50.04050178825849
 20
197.7999999096632
 30
0.0
 11
51.0405017882585
 21
197.7999999096632
 31
0.0
  0
LINE
  5
286A
330
A
100
AcDbEntity
  8
DRAW
  6
CONTINUOUS
100
AcDbLine
 10
51.24050179123873
 20
197.7999999096632
 30
0.0
 11
51.0405017882585
 21
197.7999999096632
 31
0.0
  0
LINE
  5
286B
330
A
100
AcDbEntity
  8
DRAW
  6
CONTINUOUS
100
AcDbLine
 10
52.24050183594221
 20
198.9999999573469
 30
0.0
 11
52.24050183594221
 21
198.7999999543675
 31
0.0
  0
LINE
  5
286C
330
A
100
AcDbEntity
  8
DRAW
  6
CONTINUOUS
100
AcDbLine
 10
52.49050331927023
 20
200.2000062437927
 30
0.0
 11
52.49050332920319
 21
200.0000062408132
 31
0.0
  0
LINE
  5
286D
330
A
100
AcDbEntity
  8
DRAW
  6
CONTINUOUS
100
AcDbLine
 10
52.49049718274649
 20
199.999999957343
 30
0.0
 11
52.24050183594219
 21
199.999999957343
 31
0.0
  0
ARC
  5
286E
330
A
100
AcDbEntity
  8
DRAW
  6
CONTINUOUS
100
AcDbCircle
 10
52.24050183594221
 20
197.7999999096593
 30
0.0
 40
2.200000047683715
100
AcDbArc
 50
90.0
 51
90.65781797438985
  0
LINE
  5
286F
330
A
100
AcDbEntity
  8
DRAW
  6
CONTINUOUS
100
AcDbLine
 10
52.24050183594219
 20
199.999999957343
 30
0.0
 11
52.2152439933286
 21
199.9998549619741
 31
0.0
  0
LINE
  5
2870
330
A
100
AcDbEntity
  8
DRAW
  6
CONTINUOUS
100
AcDbLine
 10
58.69050169802386
 20
200.2000065517147
 30
0.0
 11
58.69050170795683
 21
200.0000065487352
 31
0.0
  0
LINE
  5
2871
330
A
100
AcDbEntity
  8
DRAW
  6
CONTINUOUS
100
AcDbLine
 10
58.6905014695658
 20
204.8000065457385
 30
0.0
 11
52.49050309081217
 21
204.8000062378171
 31
0.0
  0
ARC
  5
2872
330
A
100
AcDbEntity
  8
DRAW
  6
CONTINUOUS
100
AcDbCircle
 10
49.77381993786583
 20
209.7666818077309
 30
0.0
 40
1.200064671099009
100
AcDbArc
 50
90.00526666270555
 51
179.994733337296
  0
ARC
  5
2873
330
A
100
AcDbEntity
  8
DRAW
  6
CONTINUOUS
100
AcDbCircle
 10
49.74045551829291
 20
209.7999768488828
 30
0.0
 40
1.200023108440438
100
AcDbArc
 50
89.99997014353292
 51
99.5230080620653
  0
ARC
  5
2874
330
A
100
AcDbEntity
  8
DRAW
  6
CONTINUOUS
100
AcDbCircle
 10
49.74044719889514
 20
209.8000001066213
 30
0.0
 40
1.200000047683716
100
AcDbArc
 50
99.52280003521339
 51
180.0
  0
LINE
  5
2875
330
A
100
AcDbEntity
  8
DRAW
  6
CONTINUOUS
100
AcDbLine
 10
49.77370962719563
 20
209.7667921184011
 30
0.0
 11
48.57375527183672
 21
209.7667921184011
 31
0.0
  0
LINE
  5
2876
330
A
100
AcDbEntity
  8
DRAW
  6
CONTINUOUS
100
AcDbLine
 10
48.54050178825847
 20
209.8000456019643
 30
0.0
 11
48.57375527183673
 21
209.7667921184011
 31
0.0
  0
LINE
  5
2877
330
A
100
AcDbEntity
  8
DRAW
  6
CONTINUOUS
100
AcDbLine
 10
49.77370962719563
 20
209.7667921184058
 30
0.0
 11
49.77370962719563
 21
210.96674647376
 31
0.0
  0
LINE
  5
2878
330
A
100
AcDbEntity
  8
DRAW
  6
CONTINUOUS
100
AcDbLine
 10
49.74045614361736
 20
210.9999999573232
 30
0.0
 11
49.77370962719563
 21
210.96674647376
 31
0.0
  0
LINE
  5
2879
330
A
100
AcDbEntity
  8
DRAW
  6
CONTINUOUS
100
AcDbLine
 10
52.49050874554595
 20
204.800006237818
 30
0.0
 11
52.49050922732928
 21
205.0000062407984
 31
0.0
  0
LINE
  5
287A
330
A
100
AcDbEntity
  8
DRAW
  6
CONTINUOUS
100
AcDbLine
 10
52.49050320504102
 20
204.8000075897023
 30
0.0
 11
52.49050320504102
 21
204.6000075867213
 31
0.0
  0
LINE
  5
287B
330
A
100
AcDbEntity
  8
DRAW
  6
CONTINUOUS
100
AcDbLine
 10
55.6044560321094
 20
211.0000000734192
 30
0.0
 11
55.57643934119839
 21
211.0000000158474
 31
0.0
  0
LINE
  5
287C
330
A
100
AcDbEntity
  8
DRAW
  6
CONTINUOUS
100
AcDbLine
 10
58.6905014695658
 20
204.8000065457385
 30
0.0
 11
58.69050145963285
 21
205.0000065487195
 31
0.0
  0
LINE
  5
287D
330
A
100
AcDbEntity
  8
DRAW
  6
CONTINUOUS
100
AcDbLine
 10
58.69050158379469
 20
204.8000075897023
 30
0.0
 11
58.69050158379469
 21
204.6000075867213
 31
0.0
  0
LINE
  5
287E
330
A
100
AcDbEntity
  8
DRAW
  6
CONTINUOUS
100
AcDbLine
 10
83.40164281555642
 20
188.9048666129202
 30
0.0
 11
83.40164281555649
 21
149.0951333018523
 31
0.0
  0
LINE
  5
287F
330
A
100
AcDbEntity
  8
DRAW
  6
CONTINUOUS
100
AcDbLine
 10
83.21165005255833
 20
188.9048666129209
 30
0.0
 11
83.2116500525584
 21
149.0951333018531
 31
0.0
  0
LINE
  5
2880
330
A
100
AcDbEntity
  8
DRAW
  6
CONTINUOUS
100
AcDbLine
 10
83.54050178825849
 20
198.0000075868788
 30
0.0
 11
83.54050178825861
 21
140.0000056795302
 31
0.0
  0
LINE
  5
2881
330
A
100
AcDbEntity
  8
DRAW
  6
CONTINUOUS
100
AcDbLine
 10
82.00000000000004
 20
149.0968677571506
 30
0.0
 11
81.99999999999995
 21
188.9031321576328
 31
0.0
  0
LINE
  5
2882
330
A
100
AcDbEntity
  8
DRAW
  6
CONTINUOUS
100
AcDbLine
 10
83.20000000298028
 20
149.0968677571459
 30
0.0
 11
83.20000000298019
 21
188.9031321576281
 31
0.0
  0
LINE
  5
2883
330
A
100
AcDbEntity
  8
DRAW
  6
CONTINUOUS
100
AcDbLine
 10
82.20000000298027
 20
149.0968677571499
 30
0.0
 11
82.2000000029802
 21
188.903132157632
 31
0.0
  0
LINE
  5
2885
330
A
100
AcDbEntity
  8
DRAW
  6
CONTINUOUS
100
AcDbLine
 10
73.39049460418298
 20
133.1999999845243
 30
0.0
 11
79.59049393661093
 21
133.1999996794935
 31
0.0
  0
LINE
  5
2886
330
A
100
AcDbEntity
  8
DRAW
  6
CONTINUOUS
100
AcDbLine
 10
79.59049397971426
 20
137.799999673533
 30
0.0
 11
73.39049464728629
 21
137.7999994846936
 31
0.0
  0
LINE
  5
2887
330
A
100
AcDbEntity
  8
DRAW
  6
CONTINUOUS
100
AcDbLine
 10
64.89049472339231
 20
133.2000004027117
 30
0.0
 11
73.39049460418298
 21
133.1999999845243
 31
0.0
  0
LINE
  5
2888
330
A
100
AcDbEntity
  8
DRAW
  6
CONTINUOUS
100
AcDbLine
 10
73.39049464728629
 20
137.7999994846936
 30
0.0
 11
64.89049476649556
 21
137.7999992258008
 31
0.0
  0
ARC
  5
2889
330
A
100
AcDbEntity
  8
DRAW
  6
CONTINUOUS
100
AcDbCircle
 10
64.89049483654889
 20
135.4999999573276
 30
0.0
 40
2.300000002980232
100
AcDbArc
 50
269.9999971811325
 51
90.0
  0
CIRCLE
  5
288A
330
A
100
AcDbEntity
  8
DRAW
  6
CONTINUOUS
100
AcDbCircle
 10
64.89049483654889
 20
135.4999999573268
 30
0.0
 40
2.1
  0
ARC
  5
288B
330
A
100
AcDbEntity
  8
DRAW
  6
CONTINUOUS
100
AcDbCircle
 10
64.89049483654889
 20
135.4999999573276
 30
0.0
 40
2.300000002980232
100
AcDbArc
 50
90.0
 51
269.9999971811325
  0
LINE
  5
288C
330
A
100
AcDbEntity
  8
DRAW
  6
CONTINUOUS
100
AcDbLine
 10
64.89049472339231
 20
133.2000004027117
 30
0.0
 11
64.8904947135526
 21
133.0000003997322
 31
0.0
  0
LINE
  5
288D
330
A
100
AcDbEntity
  8
DRAW
  6
CONTINUOUS
100
AcDbLine
 10
64.89049476649558
 20
137.7999992258007
 30
0.0
 11
64.89049476040398
 21
137.9999992287818
 31
0.0
  0
LINE
  5
288E
330
A
100
AcDbEntity
  8
DRAW
  6
CONTINUOUS
100
AcDbLine
 10
64.89049483654889
 20
137.7999999603078
 30
0.0
 11
64.89049483654889
 21
137.5999999573268
 31
0.0
  0
ARC
  5
288F
330
A
100
AcDbEntity
  8
DRAW
  6
CONTINUOUS
100
AcDbCircle
 10
73.39049471733961
 20
135.5000004341647
 30
0.0
 40
2.300000002980232
100
AcDbArc
 50
269.9999971811325
 51
90.0
  0
ARC
  5
2890
330
A
100
AcDbEntity
  8
DRAW
  6
CONTINUOUS
100
AcDbCircle
 10
73.39049471733961
 20
135.5000004341647
 30
0.0
 40
2.300000002980232
100
AcDbArc
 50
90.0
 51
269.9999971811325
  0
CIRCLE
  5
2891
330
A
100
AcDbEntity
  8
DRAW
  6
CONTINUOUS
100
AcDbCircle
 10
73.39049471733961
 20
135.500000434164
 30
0.0
 40
2.1
  0
LINE
  5
2892
330
A
100
AcDbEntity
  8
DRAW
  6
CONTINUOUS
100
AcDbLine
 10
73.39049460418298
 20
133.1999999845243
 30
0.0
 11
73.39049459434328
 21
132.9999999815448
 31
0.0
  0
LINE
  5
2893
330
A
100
AcDbEntity
  8
DRAW
  6
CONTINUOUS
100
AcDbLine
 10
73.39049464728629
 20
137.7999994846936
 30
0.0
 11
73.39049464119469
 21
137.9999994876746
 31
0.0
  0
LINE
  5
2894
330
A
100
AcDbEntity
  8
DRAW
  6
CONTINUOUS
100
AcDbLine
 10
73.39049471733961
 20
137.8000004371449
 30
0.0
 11
73.39049471733961
 21
137.6000004341639
 31
0.0
  0
LINE
  5
2896
330
A
100
AcDbEntity
  8
DRAW
  6
CONTINUOUS
100
AcDbLine
 10
83.50724830468037
 20
128.2332077962755
 30
0.0
 11
83.50724830468033
 21
148.9895278126806
 31
0.0
  0
LINE
  5
2897
330
A
100
AcDbEntity
  8
DRAW
  6
CONTINUOUS
100
AcDbLine
 10
82.30729394932145
 20
128.2332077962802
 30
0.0
 11
82.30729394932144
 21
146.9275404960143
 31
0.0
  0
LINE
  5
2898
330
A
100
AcDbEntity
  8
DRAW
  6
CONTINUOUS
100
AcDbLine
 10
82.04050178825861
 20
140.2000000050268
 30
0.0
 11
82.04050178825861
 21
146.7932525555565
 31
0.0
  0
LINE
  5
2899
330
A
100
AcDbEntity
  8
DRAW
  6
CONTINUOUS
100
AcDbLine
 10
81.04050178825861
 20
140.2000000050307
 30
0.0
 11
81.04050178825861
 21
146.6087268251378
 31
0.0
  0
LINE
  5
289A
330
A
100
AcDbEntity
  8
DRAW
  6
CONTINUOUS
100
AcDbLine
 10
80.84050178527837
 20
140.2000000050315
 30
0.0
 11
80.84050178527837
 21
146.6104721991129
 31
0.0
  0
LINE
  5
289B
330
A
100
AcDbEntity
  8
DRAW
  6
CONTINUOUS
100
AcDbLine
 10
83.54050178825861
 20
140.0000056795302
 30
0.0
 11
83.54050178825863
 21
128.1999543126822
 31
0.0
  0
ARC
  5
289C
330
A
100
AcDbEntity
  8
DRAW
  6
CONTINUOUS
100
AcDbCircle
 10
82.30718363865131
 20
128.2333181069457
 30
0.0
 40
1.200064671098993
100
AcDbArc
 50
270.0052666627039
 51
359.9947333372952
  0
ARC
  5
289D
330
A
100
AcDbEntity
  8
DRAW
  6
CONTINUOUS
100
AcDbCircle
 10
82.34056635718022
 20
128.1999353884017
 30
0.0
 40
1.199935431227659
100
AcDbArc
 50
269.999096383544
 51
0.0009036164551795
  0
LINE
  5
289E
330
A
100
AcDbEntity
  8
DRAW
  6
CONTINUOUS
100
AcDbLine
 10
82.30729394932147
 20
128.2332077962755
 30
0.0
 11
83.50724830468038
 21
128.2332077962755
 31
0.0
  0
LINE
  5
289F
330
A
100
AcDbEntity
  8
DRAW
  6
CONTINUOUS
100
AcDbLine
 10
82.34054743289973
 20
126.9999999573232
 30
0.0
 11
82.30729394932147
 21
127.0332534409166
 31
0.0
  0
LINE
  5
28A0
330
A
100
AcDbEntity
  8
DRAW
  6
CONTINUOUS
100
AcDbLine
 10
82.30729394932147
 20
128.2332077962802
 30
0.0
 11
82.30729394932147
 21
127.0332534409166
 31
0.0
  0
LINE
  5
28A1
330
A
100
AcDbEntity
  8
DRAW
  6
CONTINUOUS
100
AcDbLine
 10
83.54050178825863
 20
128.1999543126822
 30
0.0
 11
83.50724830468037
 21
128.2332077962755
 31
0.0
  0
ARC
  5
28A2
330
A
100
AcDbEntity
  8
DRAW
  6
CONTINUOUS
100
AcDbCircle
 10
79.59049404976759
 20
135.5000006725833
 30
0.0
 40
2.300000002980232
100
AcDbArc
 50
90.0
 51
270.000001745113
  0
ARC
  5
28A3
330
A
100
AcDbEntity
  8
DRAW
  6
CONTINUOUS
100
AcDbCircle
 10
79.59049404976761
 20
135.4999996765132
 30
0.0
 40
2.299999997019769
100
AcDbArc
 50
270.000001745113
 51
90.00000000000081
  0
CIRCLE
  5
28A4
330
A
100
AcDbEntity
  8
DRAW
  6
CONTINUOUS
100
AcDbCircle
 10
79.59049404976759
 20
135.5000006725825
 30
0.0
 40
2.1
  0
ARC
  5
28A5
330
A
100
AcDbEntity
  8
DRAW
  6
CONTINUOUS
100
AcDbCircle
 10
79.59049404976761
 20
135.4999996765144
 30
0.0
 40
2.500000000000001
100
AcDbArc
 50
270.000001745113
 51
90.00000174511304
  0
ARC
  5
28A6
330
A
100
AcDbEntity
  8
DRAW
  6
CONTINUOUS
100
AcDbCircle
 10
79.8405017405749
 20
140.2000000050268
 30
0.0
 40
2.200000047683715
100
AcDbArc
 50
275.3428412347319
 51
0.0
  0
ARC
  5
28A7
330
A
100
AcDbEntity
  8
DRAW
  6
CONTINUOUS
100
AcDbCircle
 10
79.8405017405749
 20
140.2000000050307
 30
0.0
 40
1.200000047683715
100
AcDbArc
 50
270.0
 51
0.0
  0
LINE
  5
28A8
330
A
100
AcDbEntity
  8
DRAW
  6
CONTINUOUS
100
AcDbLine
 10
82.04050178825861
 20
140.2000000050307
 30
0.0
 11
81.04050178825861
 21
140.2000000050307
 31
0.0
  0
LINE
  5
28A9
330
A
100
AcDbEntity
  8
DRAW
  6
CONTINUOUS
100
AcDbLine
 10
79.59049411982096
 20
133.1999996794934
 30
0.0
 11
79.59049412591255
 21
132.999999676514
 31
0.0
  0
LINE
  5
28AA
330
A
100
AcDbEntity
  8
DRAW
  6
CONTINUOUS
100
AcDbLine
 10
79.8405017405749
 20
137.9999999573431
 30
0.0
 11
79.8405017405749
 21
138.999999957347
 31
0.0
  0
LINE
  5
28AB
330
A
100
AcDbEntity
  8
DRAW
  6
CONTINUOUS
100
AcDbLine
 10
79.59049397971426
 20
137.799999673533
 30
0.0
 11
79.59049397362267
 21
137.999999676514
 31
0.0
  0
LINE
  5
28AC
330
A
100
AcDbEntity
  8
DRAW
  6
CONTINUOUS
100
AcDbLine
 10
79.59049404976759
 20
137.8000006755635
 30
0.0
 11
79.59049404976759
 21
137.6000006725825
 31
0.0
  0
LINE
  5
28AD
330
A
100
AcDbEntity
  8
DRAW
  6
CONTINUOUS
100
AcDbLine
 10
79.59049397362267
 20
137.9999999573431
 30
0.0
 11
79.8405017405749
 21
137.9999999573431
 31
0.0
  0
ARC
  5
28AE
330
A
100
AcDbEntity
  8
DRAW
  6
CONTINUOUS
100
AcDbCircle
 10
79.83019227223842
 20
140.4209539521996
 30
0.0
 40
2.420975945842784
100
AcDbArc
 50
270.2439887149578
 51
275.098852519783
  0
ARC
  5
28AF
330
A
100
AcDbEntity
  8
DRAW
  6
CONTINUOUS
100
AcDbCircle
 10
79.8405017405749
 20
140.2000000050315
 30
0.0
 40
1.000000044703483
100
AcDbArc
 50
270.0
 51
0.0
  0
LINE
  5
28B0
330
A
100
AcDbEntity
  8
DRAW
  6
CONTINUOUS
100
AcDbLine
 10
79.8405017405749
 20
138.999999957347
 30
0.0
 11
79.8405017405749
 21
139.199999960328
 31
0.0
  0
LINE
  5
28B1
330
A
100
AcDbEntity
  8
DRAW
  6
CONTINUOUS
100
AcDbLine
 10
80.84050178527837
 20
140.2000000050307
 30
0.0
 11
81.04050178825861
 21
140.2000000050307
 31
0.0
  0
ARC
  5
28B2
330
A
100
AcDbEntity
  8
DRAW
  6
CONTINUOUS
100
AcDbCircle
 10
81.00172440580939
 20
149.0951430008817
 30
0.0
 40
2.399918409766717
100
AcDbArc
 50
270.0002315551407
 51
359.9997684448592
  0
ARC
  5
28B3
330
A
100
AcDbEntity
  8
DRAW
  6
CONTINUOUS
100
AcDbCircle
 10
81.00174401002917
 20
149.0951233966626
 30
0.0
 40
2.209906042551426
100
AcDbArc
 50
269.9997431901631
 51
0.0002568098367976
  0
ARC
  5
28B4
330
A
100
AcDbEntity
  8
DRAW
  6
CONTINUOUS
100
AcDbCircle
 10
81.09840388081467
 20
149.0111876371227
 30
0.0
 40
2.408941802199371
100
AcDbArc
 50
300.1214429434682
 51
359.4848222373746
  0
ARC
  5
28B5
330
A
100
AcDbEntity
  8
DRAW
  6
CONTINUOUS
100
AcDbCircle
 10
80.99999995529655
 20
149.0968677571506
 30
0.0
 40
1.000000044703483
100
AcDbArc
 50
270.0
 51
0.0
  0
ARC
  5
28B6
330
A
100
AcDbEntity
  8
DRAW
  6
CONTINUOUS
100
AcDbCircle
 10
80.99999995529655
 20
149.0968677571459
 30
0.0
 40
2.200000047683715
100
AcDbArc
 50
270.0
 51
0.0
  0
ARC
  5
28B7
330
A
100
AcDbEntity
  8
DRAW
  6
CONTINUOUS
100
AcDbCircle
 10
80.99999995529655
 20
149.0968677571499
 30
0.0
 40
1.200000047683715
100
AcDbArc
 50
270.0
 51
0.0
  0
ARC
  5
28B8
330
A
100
AcDbEntity
  8
DRAW
  6
CONTINUOUS
100
AcDbCircle
 10
81.12926034073021
 20
148.9128036558175
 30
0.0
 40
2.307131951647188
100
AcDbArc
 50
269.049026780598
 51
293.2639284405902
  0
LINE
  5
28B9
330
A
100
AcDbEntity
  8
DRAW
  6
CONTINUOUS
100
AcDbLine
 10
81.00173410483868
 20
146.6952245911345
 30
0.0
 11
81.00173410483868
 21
146.8852173541334
 31
0.0
  0
LINE
  5
28BA
330
A
100
AcDbEntity
  8
DRAW
  6
CONTINUOUS
100
AcDbLine
 10
81.09096921379931
 20
146.6059894821334
 30
0.0
 11
81.0017341048387
 21
146.6952245911345
 31
0.0
  0
LINE
  5
28BB
330
A
100
AcDbEntity
  8
DRAW
  6
CONTINUOUS
100
AcDbLine
 10
81.04050178825861
 20
146.6087268251378
 30
0.0
 11
81.09096921379933
 21
146.6059894821334
 31
0.0
  0
LINE
  5
28BC
330
A
100
AcDbEntity
  8
DRAW
  6
CONTINUOUS
100
AcDbLine
 10
80.84050178527837
 20
146.6104721991128
 30
0.0
 11
81.04050178825859
 21
146.6087268251378
 31
0.0
  0
LINE
  5
28BD
330
A
100
AcDbEntity
  8
DRAW
  6
CONTINUOUS
100
AcDbLine
 10
80.99999995529655
 20
147.8968677094661
 30
0.0
 11
80.99999995529655
 21
148.0968677124472
 31
0.0
  0
LINE
  5
28BE
330
A
100
AcDbEntity
  8
DRAW
  6
CONTINUOUS
100
AcDbLine
 10
80.99999995529655
 20
146.8968677094622
 30
0.0
 11
80.99999995529655
 21
147.8968677094661
 31
0.0
  0
ARC
  5
28BF
330
A
100
AcDbEntity
  8
DRAW
  6
CONTINUOUS
100
AcDbCircle
 10
81.09700490496337
 20
148.9998782996015
 30
0.0
 40
2.399871568036537
100
AcDbArc
 50
293.1503163687902
 51
300.2858306652395
  0
LINE
  5
28C0
330
A
100
AcDbEntity
  8
DRAW
  6
CONTINUOUS
100
AcDbLine
 10
83.20000000298028
 20
149.0968677571499
 30
0.0
 11
82.20000000298027
 21
149.0968677571499
 31
0.0
  0
LINE
  5
28C1
330
A
100
AcDbEntity
  8
DRAW
  6
CONTINUOUS
100
AcDbLine
 10
82.00000000000004
 20
149.0968677571499
 30
0.0
 11
82.20000000298027
 21
149.0968677571499
 31
0.0
  0
LINE
  5
28C2
330
A
100
AcDbEntity
  8
DRAW
  6
CONTINUOUS
100
AcDbLine
 10
83.40164281555651
 20
149.0951333018523
 30
0.0
 11
83.2116500525584
 21
149.0951333018523
 31
0.0
  0
LINE
  5
28C3
330
A
100
AcDbEntity
  8
DRAW
  6
CONTINUOUS
100
AcDbLine
 10
83.40164281555649
 20
149.0951333018523
 30
0.0
 11
83.50724830468033
 21
148.9895278126806
 31
0.0
  0
LINE
  5
28E5
330
A
100
AcDbEntity
  8
DRAW
  6
CONTINUOUS
100
AcDbLine
 10
79.59049775023593
 20
204.8000075837316
 30
0.0
 11
73.3904979409708
 21
204.8000072758102
 31
0.0
  0
LINE
  5
28E6
330
A
100
AcDbEntity
  8
DRAW
  6
CONTINUOUS
100
AcDbLine
 10
73.39049816942888
 20
200.2000072817877
 30
0.0
 11
79.59049797869401
 21
200.2000075897097
 31
0.0
  0
CIRCLE
  5
28E7
330
A
100
AcDbEntity
  8
DRAW
  6
CONTINUOUS
100
AcDbCircle
 10
73.39049805519971
 20
202.5000075867221
 30
0.0
 40
2.1
  0
CIRCLE
  5
28E8
330
A
100
AcDbEntity
  8
DRAW
  6
CONTINUOUS
100
AcDbCircle
 10
67.19049753067884
 20
202.5000075867221
 30
0.0
 40
2.1
  0
ARC
  5
28E9
330
A
100
AcDbEntity
  8
DRAW
  6
CONTINUOUS
100
AcDbCircle
 10
73.39049805519971
 20
202.5000075867221
 30
0.0
 40
2.300000002980232
100
AcDbArc
 50
270.0000028455862
 51
90.0
  0
ARC
  5
28EA
330
A
100
AcDbEntity
  8
DRAW
  6
CONTINUOUS
100
AcDbCircle
 10
73.39049805519971
 20
202.5000075867221
 30
0.0
 40
2.300000002980232
100
AcDbArc
 50
90.0
 51
270.0000028455862
  0
ARC
  5
28EB
330
A
100
AcDbEntity
  8
DRAW
  6
CONTINUOUS
100
AcDbCircle
 10
67.19049753067884
 20
202.5000075867221
 30
0.0
 40
2.300000002980232
100
AcDbArc
 50
270.0000028455862
 51
90.0
  0
ARC
  5
28EC
330
A
100
AcDbEntity
  8
DRAW
  6
CONTINUOUS
100
AcDbCircle
 10
67.19049753067884
 20
202.5000075867221
 30
0.0
 40
2.300000002980232
100
AcDbArc
 50
90.0
 51
270.0000028455862
  0
LINE
  5
28ED
330
A
100
AcDbEntity
  8
DRAW
  6
CONTINUOUS
100
AcDbLine
 10
67.19049764490801
 20
200.2000069738656
 30
0.0
 11
73.39049816942886
 21
200.2000072817877
 31
0.0
  0
LINE
  5
28EE
330
A
100
AcDbEntity
  8
DRAW
  6
CONTINUOUS
100
AcDbLine
 10
67.19049764490802
 20
200.2000069738656
 30
0.0
 11
67.19049765484098
 21
200.0000069708862
 31
0.0
  0
LINE
  5
28EF
330
A
100
AcDbEntity
  8
DRAW
  6
CONTINUOUS
100
AcDbLine
 10
73.39049816942888
 20
200.2000072817877
 30
0.0
 11
73.39049817936185
 21
200.0000072788082
 31
0.0
  0
LINE
  5
28F0
330
A
100
AcDbEntity
  8
DRAW
  6
CONTINUOUS
100
AcDbLine
 10
73.3904979409708
 20
204.8000072758102
 30
0.0
 11
67.19049741644996
 21
204.8000069678887
 31
0.0
  0
LINE
  5
28F1
330
A
100
AcDbEntity
  8
DRAW
  6
CONTINUOUS
100
AcDbLine
 10
63.17098464139653
 20
210.9999999537431
 30
0.0
 11
62.70991144344701
 21
210.9999999610356
 31
0.0
  0
LINE
  5
28F2
330
A
100
AcDbEntity
  8
DRAW
  6
CONTINUOUS
100
AcDbLine
 10
67.19049741644994
 20
204.8000069678887
 30
0.0
 11
67.190497406517
 21
205.0000069708697
 31
0.0
  0
LINE
  5
28F3
330
A
100
AcDbEntity
  8
DRAW
  6
CONTINUOUS
100
AcDbLine
 10
67.19049753067884
 20
204.8000075897023
 30
0.0
 11
67.19049753067884
 21
204.6000075867213
 31
0.0
  0
LINE
  5
28F4
330
A
100
AcDbEntity
  8
DRAW
  6
CONTINUOUS
100
AcDbLine
 10
70.27644005273415
 20
210.9999998413595
 30
0.0
 11
70.3044597074755
 21
210.9999998408055
 31
0.0
  0
LINE
  5
28F5
330
A
100
AcDbEntity
  8
DRAW
  6
CONTINUOUS
100
AcDbLine
 10
73.3904979409708
 20
204.8000072758102
 30
0.0
 11
73.39049793103786
 21
205.0000072787912
 31
0.0
  0
LINE
  5
28F6
330
A
100
AcDbEntity
  8
DRAW
  6
CONTINUOUS
100
AcDbLine
 10
73.39049805519971
 20
204.8000075897023
 30
0.0
 11
73.39049805519971
 21
204.6000075867213
 31
0.0
  0
LINE
  5
28F7
330
A
100
AcDbEntity
  8
DRAW
  6
CONTINUOUS
100
AcDbLine
 10
76.47644182075161
 20
210.9999996943766
 30
0.0
 11
76.5044599935778
 21
210.9999996937119
 31
0.0
  0
ARC
  5
28F8
330
A
100
AcDbEntity
  8
DRAW
  6
CONTINUOUS
100
AcDbCircle
 10
79.59049786446485
 20
202.5000075867221
 30
0.0
 40
2.300000002980232
100
AcDbArc
 50
90.0
 51
269.9998619792504
  0
ARC
  5
28F9
330
A
100
AcDbEntity
  8
DRAW
  6
CONTINUOUS
100
AcDbCircle
 10
79.59049786446485
 20
202.5000075867221
 30
0.0
 40
2.299999997019767
100
AcDbArc
 50
269.9998619792504
 51
90.0
  0
CIRCLE
  5
28FA
330
A
100
AcDbEntity
  8
DRAW
  6
CONTINUOUS
100
AcDbCircle
 10
79.59049786446485
 20
202.5000075867213
 30
0.0
 40
2.1
  0
ARC
  5
28FB
330
A
100
AcDbEntity
  8
DRAW
  6
CONTINUOUS
100
AcDbCircle
 10
79.59049786446485
 20
202.5000075867233
 30
0.0
 40
2.5
100
AcDbArc
 50
275.7106637794974
 51
89.99984012605967
  0
LINE
  5
28FC
330
A
100
AcDbEntity
  8
DRAW
  6
CONTINUOUS
100
AcDbLine
 10
83.54050178825847
 20
209.8000456019644
 30
0.0
 11
83.54050178825849
 21
198.0000075868788
 31
0.0
  0
LINE
  5
28FD
330
A
100
AcDbEntity
  8
DRAW
  6
CONTINUOUS
100
AcDbLine
 10
82.30729394932129
 20
209.7667921184059
 30
0.0
 11
82.30729394932133
 21
191.0724594186718
 31
0.0
  0
LINE
  5
28FE
330
A
100
AcDbEntity
  8
DRAW
  6
CONTINUOUS
100
AcDbLine
 10
83.50724830468021
 20
209.7667921184012
 30
0.0
 11
83.50724830468024
 21
189.0104721019961
 31
0.0
  0
LINE
  5
28FF
330
A
100
AcDbEntity
  8
DRAW
  6
CONTINUOUS
100
AcDbLine
 10
82.0405017882585
 20
191.2067473591296
 30
0.0
 11
82.0405017882585
 21
197.7999999096594
 31
0.0
  0
LINE
  5
2900
330
A
100
AcDbEntity
  8
DRAW
  6
CONTINUOUS
100
AcDbLine
 10
80.84050178527826
 20
191.3895277155828
 30
0.0
 11
80.84050178527826
 21
197.799999909664
 31
0.0
  0
LINE
  5
2901
330
A
100
AcDbEntity
  8
DRAW
  6
CONTINUOUS
100
AcDbLine
 10
81.04050178825849
 20
191.3912730891661
 30
0.0
 11
81.04050178825849
 21
197.7999999096633
 31
0.0
  0
ARC
  5
2902
330
A
100
AcDbEntity
  8
DRAW
  6
CONTINUOUS
100
AcDbCircle
 10
81.00172440580935
 20
188.9048569138909
 30
0.0
 40
2.39991840976667
100
AcDbArc
 50
0.0002315551399407
 51
89.99976844486088
  0
ARC
  5
2903
330
A
100
AcDbEntity
  8
DRAW
  6
CONTINUOUS
100
AcDbCircle
 10
81.00174401002901
 20
188.9048765181112
 30
0.0
 40
2.209906042551533
100
AcDbArc
 50
359.9997431901664
 51
90.00025680983435
  0
ARC
  5
2904
330
A
100
AcDbEntity
  8
DRAW
  6
CONTINUOUS
100
AcDbCircle
 10
81.12926034070037
 20
189.0871962587841
 30
0.0
 40
2.307131951736551
100
AcDbArc
 50
66.73607155956029
 51
90.95097321862587
  0
ARC
  5
2905
330
A
100
AcDbEntity
  8
DRAW
  6
CONTINUOUS
100
AcDbCircle
 10
80.99999995529648
 20
188.9031321576328
 30
0.0
 40
1.000000044703483
100
AcDbArc
 50
0.0
 51
90.0
  0
ARC
  5
2906
330
A
100
AcDbEntity
  8
DRAW
  6
CONTINUOUS
100
AcDbCircle
 10
80.99999995529648
 20
188.903132157632
 30
0.0
 40
1.200000047683715
100
AcDbArc
 50
0.0
 51
90.0
  0
ARC
  5
2907
330
A
100
AcDbEntity
  8
DRAW
  6
CONTINUOUS
100
AcDbCircle
 10
80.99999995529648
 20
188.9031321576281
 30
0.0
 40
2.200000047683715
100
AcDbArc
 50
0.0
 51
90.0
  0
LINE
  5
2908
330
A
100
AcDbEntity
  8
DRAW
  6
CONTINUOUS
100
AcDbLine
 10
81.0017341048386
 20
191.1147825606406
 30
0.0
 11
81.0017341048386
 21
191.304775323638
 31
0.0
  0
LINE
  5
2909
330
A
100
AcDbEntity
  8
DRAW
  6
CONTINUOUS
100
AcDbLine
 10
81.0909692137992
 20
191.3940104325581
 30
0.0
 11
81.0017341048386
 21
191.304775323638
 31
0.0
  0
LINE
  5
290A
330
A
100
AcDbEntity
  8
DRAW
  6
CONTINUOUS
100
AcDbLine
 10
81.04050178825849
 20
191.3912730895562
 30
0.0
 11
81.0909692137992
 21
191.3940104325581
 31
0.0
  0
LINE
  5
290B
330
A
100
AcDbEntity
  8
DRAW
  6
CONTINUOUS
100
AcDbLine
 10
80.84050178527826
 20
191.3895277155828
 30
0.0
 11
81.04050178825849
 21
191.3912730895562
 31
0.0
  0
LINE
  5
290C
330
A
100
AcDbEntity
  8
DRAW
  6
CONTINUOUS
100
AcDbLine
 10
80.99999995529646
 20
189.9031322023363
 30
0.0
 11
80.99999995529646
 21
190.1031322053158
 31
0.0
  0
LINE
  5
290D
330
A
100
AcDbEntity
  8
DRAW
  6
CONTINUOUS
100
AcDbLine
 10
80.99999995529646
 20
191.1031322053118
 30
0.0
 11
80.99999995529646
 21
190.1031322053158
 31
0.0
  0
ARC
  5
290E
330
A
100
AcDbEntity
  8
DRAW
  6
CONTINUOUS
100
AcDbCircle
 10
81.09873022713884
 20
188.989002191774
 30
0.0
 40
2.408613768724375
100
AcDbArc
 50
0.5107300925771423
 51
59.88300472635179
  0
LINE
  5
290F
330
A
100
AcDbEntity
  8
DRAW
  6
CONTINUOUS
100
AcDbLine
 10
83.20000000298019
 20
188.903132157632
 30
0.0
 11
82.2000000029802
 21
188.903132157632
 31
0.0
  0
LINE
  5
2910
330
A
100
AcDbEntity
  8
DRAW
  6
CONTINUOUS
100
AcDbLine
 10
82.2000000029802
 20
188.903132157632
 30
0.0
 11
81.99999999999995
 21
188.903132157632
 31
0.0
  0
ARC
  5
2911
330
A
100
AcDbEntity
  8
DRAW
  6
CONTINUOUS
100
AcDbCircle
 10
81.09700490497454
 20
189.0001216151068
 30
0.0
 40
2.399871568011689
100
AcDbArc
 50
59.71416933472577
 51
66.84968363124956
  0
LINE
  5
2912
330
A
100
AcDbEntity
  8
DRAW
  6
CONTINUOUS
100
AcDbLine
 10
83.21165005255833
 20
188.9048666129202
 30
0.0
 11
83.40164281555642
 21
188.9048666129202
 31
0.0
  0
LINE
  5
2913
330
A
100
AcDbEntity
  8
DRAW
  6
CONTINUOUS
100
AcDbLine
 10
83.40164281555642
 20
188.9048666129201
 30
0.0
 11
83.50724830468024
 21
189.0104721019961
 31
0.0
  0
ARC
  5
2914
330
A
100
AcDbEntity
  8
DRAW
  6
CONTINUOUS
100
AcDbCircle
 10
79.84050174057478
 20
197.7999999096594
 30
0.0
 40
2.200000047683715
100
AcDbArc
 50
0.0
 51
77.32098546451624
  0
LINE
  5
2915
330
A
100
AcDbEntity
  8
DRAW
  6
CONTINUOUS
100
AcDbLine
 10
82.0405017882585
 20
197.7999999096633
 30
0.0
 11
81.04050178825849
 21
197.7999999096633
 31
0.0
  0
ARC
  5
2916
330
A
100
AcDbEntity
  8
DRAW
  6
CONTINUOUS
100
AcDbCircle
 10
79.84050174057478
 20
197.7999999096633
 30
0.0
 40
1.200000047683715
100
AcDbArc
 50
0.0
 51
90.0
  0
LINE
  5
2917
330
A
100
AcDbEntity
  8
DRAW
  6
CONTINUOUS
100
AcDbLine
 10
79.84050174057476
 20
199.9999999573431
 30
0.0
 11
79.84050174057476
 21
198.999999957347
 31
0.0
  0
ARC
  5
2918
330
A
100
AcDbEntity
  8
DRAW
  6
CONTINUOUS
100
AcDbCircle
 10
79.84050174057478
 20
197.799999909664
 30
0.0
 40
1.000000044703483
100
AcDbArc
 50
0.0
 51
90.0
  0
LINE
  5
2919
330
A
100
AcDbEntity
  8
DRAW
  6
CONTINUOUS
100
AcDbLine
 10
79.84050174057478
 20
198.7999999543676
 30
0.0
 11
79.84050174057478
 21
198.999999957347
 31
0.0
  0
LINE
  5
291A
330
A
100
AcDbEntity
  8
DRAW
  6
CONTINUOUS
100
AcDbLine
 10
81.04050178825849
 20
197.7999999096633
 30
0.0
 11
80.84050178527826
 21
197.7999999096633
 31
0.0
  0
ARC
  5
291B
330
A
100
AcDbEntity
  8
DRAW
  6
CONTINUOUS
100
AcDbCircle
 10
79.84050174057478
 20
197.7999999096594
 30
0.0
 40
2.200000047683715
100
AcDbArc
 50
77.32098546451624
 51
90.0
  0
LINE
  5
291C
330
A
100
AcDbEntity
  8
DRAW
  6
CONTINUOUS
100
AcDbLine
 10
79.59049232395688
 20
200.200007589709
 30
0.0
 11
79.59049184217358
 21
200.0000075867301
 31
0.0
  0
LINE
  5
291D
330
A
100
AcDbEntity
  8
DRAW
  6
CONTINUOUS
100
AcDbLine
 10
79.84050174057476
 20
199.9999999573431
 30
0.0
 11
79.59049184217358
 21
199.9999999573431
 31
0.0
  0
ARC
  5
291E
330
A
100
AcDbEntity
  8
DRAW
  6
CONTINUOUS
100
AcDbCircle
 10
82.34054805758409
 20
209.7999768373878
 30
0.0
 40
1.200023119935639
100
AcDbArc
 50
80.48188022461731
 51
90.00002982591503
  0
ARC
  5
291F
330
A
100
AcDbEntity
  8
DRAW
  6
CONTINUOUS
100
AcDbCircle
 10
82.30718363865083
 20
209.7666818077306
 30
0.0
 40
1.200064671099354
100
AcDbArc
 50
0.0052666627242864
 51
89.99473333728223
  0
ARC
  5
2920
330
A
100
AcDbEntity
  8
DRAW
  6
CONTINUOUS
100
AcDbCircle
 10
82.34045041539996
 20
209.7999995075706
 30
0.0
 40
1.200000047683715
100
AcDbArc
 50
359.9999995468903
 51
80.47710334671947
  0
LINE
  5
2921
330
A
100
AcDbEntity
  8
DRAW
  6
CONTINUOUS
100
AcDbLine
 10
79.59049775023593
 20
204.8000075837316
 30
0.0
 11
79.59049774030297
 21
205.0000075867127
 31
0.0
  0
LINE
  5
2922
330
A
100
AcDbEntity
  8
DRAW
  6
CONTINUOUS
100
AcDbLine
 10
79.59049786446485
 20
204.8000075897023
 30
0.0
 11
79.59049786446485
 21
204.6000075867213
 31
0.0
  0
LINE
  5
2923
330
A
100
AcDbEntity
  8
DRAW
  6
CONTINUOUS
100
AcDbLine
 10
82.30729394932129
 20
209.7667921184011
 30
0.0
 11
83.50724830468019
 21
209.7667921184011
 31
0.0
  0
LINE
  5
2924
330
A
100
AcDbEntity
  8
DRAW
  6
CONTINUOUS
100
AcDbLine
 10
82.30729394932129
 20
209.7667921184059
 30
0.0
 11
82.30729394932129
 21
210.9667464737601
 31
0.0
  0
LINE
  5
2925
330
A
100
AcDbEntity
  8
DRAW
  6
CONTINUOUS
100
AcDbLine
 10
82.34054743289956
 20
210.9999999573232
 30
0.0
 11
82.30729394932129
 21
210.9667464737601
 31
0.0
  0
LINE
  5
2926
330
A
100
AcDbEntity
  8
DRAW
  6
CONTINUOUS
100
AcDbLine
 10
83.54050178825847
 20
209.8000456019643
 30
0.0
 11
83.50724830468021
 21
209.7667921184012
 31
0.0
  0
LINE
  5
2927
330
A
100
AcDbEntity
  8
DRAW
  6
CONTINUOUS
100
AcDbLine
 10
152.3448118812049
 20
198.0000001626087
 30
0.0
 11
152.3448118814345
 21
140.000007586821
 31
0.0
  0
LINE
  5
2928
330
A
100
AcDbEntity
  8
DRAW
  6
CONTINUOUS
100
AcDbLine
 10
115.0448102296822
 20
186.0000018646853
 30
0.0
 11
115.0448102298206
 21
150.9999885482652
 31
0.0
  0
LINE
  5
2929
330
A
100
AcDbEntity
  8
DRAW
  6
CONTINUOUS
100
AcDbLine
 10
115.5404469837819
 20
187.5000075867331
 30
0.0
 11
115.5404469839283
 21
150.5000075867332
 31
0.0
  0
LINE
  5
292A
330
A
100
AcDbEntity
  8
DRAW
  6
CONTINUOUS
100
AcDbLine
 10
152.3448128348805
 20
198.0000094941697
 30
0.0
 11
152.34481283511
 21
140.000007586821
 31
0.0
  0
LINE
  5
292B
330
A
100
AcDbEntity
  8
DRAW
  6
CONTINUOUS
100
AcDbLine
 10
137.7448124536401
 20
140.0000075867633
 30
0.0
 11
137.7448124534106
 21
198.0000094941119
 31
0.0
  0
LINE
  5
292C
330
A
100
AcDbEntity
  8
DRAW
  6
CONTINUOUS
100
AcDbLine
 10
112.1404468349043
 20
127.2234534997981
 30
0.0
 11
137.7448124012399
 21
127.000007586821
 31
0.0
  0
LINE
  5
292D
330
A
100
AcDbEntity
  8
DRAW
  6
CONTINUOUS
100
AcDbLine
 10
112.1404468873512
 20
128.4234078551571
 30
0.0
 11
137.7448124536868
 21
128.1999619421799
 31
0.0
  0
LINE
  5
292E
330
A
100
AcDbEntity
  8
DRAW
  6
CONTINUOUS
100
AcDbLine
 10
111.6448101331582
 20
150.5000075867178
 30
0.0
 11
111.6448101332456
 21
128.4234078551551
 31
0.0
  0
LINE
  5
292F
330
A
100
AcDbEntity
  8
DRAW
  6
CONTINUOUS
100
AcDbLine
 10
112.1404468872639
 20
150.5000075867197
 30
0.0
 11
112.1404468873512
 21
128.423407855157
 31
0.0
  0
SPLINE
  5
2930
330
A
100
AcDbEntity
  8
DRAW
  6
CONTINUOUS
100
AcDbSpline
210
0.0
220
0.0
230
1.0
 70
     8
 71
     3
 72
    11
 73
     7
 74
     5
 42
0.0000000001
 43
0.0000000001
 44
0.000001
 12
-0.0001562144421453
 22
-0.999999987798524
 32
0.0
 13
0.00000046851272
 23
0.9999999999998902
 33
0.0
 40
0.0
 40
0.0
 40
0.0
 40
0.0
 40
0.0018543354981871
 40
0.0036939913805269
 40
0.0049104616067738
 40
0.0064686681396863
 40
0.0064686681396863
 40
0.0064686681396863
 40
0.0064686681396863
 10
111.6448101087601
 20
127.7235125933909
 30
0.0
 10
111.6448100122021
 20
127.7228944815657
 30
0.0
 10
111.6448096515516
 20
127.7204977095576
 30
0.0
 10
111.6448100137307
 20
127.7234840616124
 30
0.0
 10
111.6448102061519
 20
127.7247688175964
 30
0.0
 10
111.6448101051132
 20
127.7257531883611
 30
0.0
 10
111.6448101053566
 20
127.7262725905387
 30
0.0
 11
111.6448101087601
 21
127.7235125933909
 31
0.0
 11
111.6448098095162
 21
127.7216572579169
 31
0.0
 11
111.6448100244334
 21
127.7234969137867
 31
0.0
 11
111.6448101535647
 21
127.7247153840009
 31
0.0
 11
111.6448101053566
 21
127.7262725905387
 31
0.0
  0
LINE
  5
2931
330
A
100
AcDbEntity
  8
DRAW
  6
CONTINUOUS
100
AcDbLine
 10
111.6448101332456
 20
128.4234078551551
 30
0.0
 11
111.6448101026515
 21
127.7234344613283
 31
0.0
  0
LINE
  5
2932
330
A
100
AcDbEntity
  8
DRAW
  6
CONTINUOUS
100
AcDbLine
 10
111.6448101332456
 20
128.4234078551551
 30
0.0
 11
112.1404468873512
 21
128.423407855157
 31
0.0
  0
ARC
  5
2933
330
A
100
AcDbEntity
  8
DRAW
  6
CONTINUOUS
100
AcDbCircle
 10
112.1448101026515
 20
127.7234344613302
 30
0.0
 40
0.5000000000000099
100
AcDbArc
 50
180.0000000002263
 51
269.5000000002266
  0
ARC
  5
2934
330
A
100
AcDbEntity
  8
DRAW
  6
CONTINUOUS
100
AcDbCircle
 10
194.6022385253164
 20
127.8234270732846
 30
0.0
 40
82.4639742983674
100
AcDbArc
 50
179.5831310559821
 51
180.4168639355145
  0
LINE
  5
2935
330
A
100
AcDbEntity
  8
DRAW
  6
CONTINUOUS
100
AcDbLine
 10
113.8448117712189
 20
151.9999999135495
 30
0.0
 11
115.0448117712189
 21
151.9999998907106
 31
0.0
  0
LINE
  5
2936
330
A
100
AcDbEntity
  8
DRAW
  6
CONTINUOUS
100
AcDbLine
 10
115.044809932309
 20
151.3000049164431
 30
0.0
 11
112.1448098369416
 21
151.3000049164316
 31
0.0
  0
LINE
  5
2937
330
A
100
AcDbEntity
  8
DRAW
  6
CONTINUOUS
100
AcDbLine
 10
112.1448101331562
 20
151.0000075867197
 30
0.0
 11
115.0448102296299
 21
151.0000075867312
 31
0.0
  0
LINE
  5
2938
330
A
100
AcDbEntity
  8
DRAW
  6
CONTINUOUS
100
AcDbLine
 10
112.1404468872639
 20
150.5000075867197
 30
0.0
 11
115.5404469839283
 21
150.5000075867332
 31
0.0
  0
LINE
  5
2939
330
A
100
AcDbEntity
  8
DRAW
  6
CONTINUOUS
100
AcDbLine
 10
113.8448118007981
 20
151.3000049164384
 30
0.0
 11
113.8448117937165
 21
152.4414369261146
 31
0.0
  0
LINE
  5
293A
330
A
100
AcDbEntity
  8
DRAW
  6
CONTINUOUS
100
AcDbLine
 10
113.0448079052584
 20
152.4414369413391
 30
0.0
 11
113.0448085969513
 21
151.3000049164352
 31
0.0
  0
LINE
  5
293B
330
A
100
AcDbEntity
  8
DRAW
  6
CONTINUOUS
100
AcDbLine
 10
111.6448085991284
 20
151.6000021242911
 30
0.0
 11
113.0448086257737
 21
153.0000008897319
 31
0.0
  0
LINE
  5
293C
330
A
100
AcDbEntity
  8
DRAW
  6
CONTINUOUS
100
AcDbLine
 10
112.1407019448808
 20
150.6684525134158
 30
0.0
 11
112.1404468872639
 21
150.5000075867197
 31
0.0
  0
LINE
  5
293D
330
A
100
AcDbEntity
  8
DRAW
  6
CONTINUOUS
100
AcDbLine
 10
112.1415771812013
 20
150.8357870641432
 30
0.0
 11
112.1407019448808
 21
150.6684525134158
 31
0.0
  0
LINE
  5
293E
330
A
100
AcDbEntity
  8
DRAW
  6
CONTINUOUS
100
AcDbLine
 10
112.1429446051504
 20
150.9520022332814
 30
0.0
 11
112.1415771812013
 21
150.8357870641432
 31
0.0
  0
LINE
  5
293F
330
A
100
AcDbEntity
  8
DRAW
  6
CONTINUOUS
100
AcDbLine
 10
112.1445960388277
 20
150.9994053148223
 30
0.0
 11
112.1429446051504
 21
150.9520022332814
 31
0.0
  0
LINE
  5
2940
330
A
100
AcDbEntity
  8
DRAW
  6
CONTINUOUS
100
AcDbLine
 10
112.1446816435352
 20
150.9997907409707
 30
0.0
 11
112.1445960388277
 21
150.9994053148223
 31
0.0
  0
LINE
  5
2941
330
A
100
AcDbEntity
  8
DRAW
  6
CONTINUOUS
100
AcDbLine
 10
112.1447244665282
 20
150.9999112069608
 30
0.0
 11
112.1446816435352
 21
150.9997907409707
 31
0.0
  0
LINE
  5
2942
330
A
100
AcDbEntity
  8
DRAW
  6
CONTINUOUS
100
AcDbLine
 10
112.1447672977779
 20
150.9999834911994
 30
0.0
 11
112.1447244665282
 21
150.9999112069608
 31
0.0
  0
LINE
  5
2943
330
A
100
AcDbEntity
  8
DRAW
  6
CONTINUOUS
100
AcDbLine
 10
112.1448101331562
 20
151.0000075867197
 30
0.0
 11
112.1447672977779
 21
150.9999834911994
 31
0.0
  0
LINE
  5
2944
330
A
100
AcDbEntity
  8
DRAW
  6
CONTINUOUS
100
AcDbLine
 10
111.6448085839025
 20
150.8000049259479
 30
0.0
 11
111.6448085991284
 21
151.6000021242911
 31
0.0
  0
LINE
  5
2945
330
A
100
AcDbEntity
  8
DRAW
  6
CONTINUOUS
100
AcDbLine
 10
111.6448099323122
 20
150.5000075867178
 30
0.0
 11
111.644809932311
 21
150.8000049164297
 31
0.0
  0
ARC
  5
2946
330
A
100
AcDbEntity
  8
DRAW
  6
CONTINUOUS
100
AcDbCircle
 10
112.1448098369435
 20
150.8000049164317
 30
0.0
 40
0.5
100
AcDbArc
 50
90.00000000022636
 51
180.0000000002263
  0
LINE
  5
2947
330
A
100
AcDbEntity
  8
DRAW
  6
CONTINUOUS
100
AcDbLine
 10
112.1404468872639
 20
150.5000075867197
 30
0.0
 11
111.6448101331582
 21
150.5000075867178
 31
0.0
  0
ARC
  5
2948
330
A
100
AcDbEntity
  8
DRAW
  6
CONTINUOUS
100
AcDbCircle
 10
112.1448101331582
 20
150.5000075867197
 30
0.0
 40
0.5
100
AcDbArc
 50
90.00000000022636
 51
180.0000000002263
  0
LINE
  5
2949
330
A
100
AcDbEntity
  8
DRAW
  6
CONTINUOUS
100
AcDbLine
 10
113.0448089309324
 20
152.4414369413404
 30
0.0
 11
113.8448117937165
 21
152.4414369261146
 31
0.0
  0
LINE
  5
294A
330
A
100
AcDbEntity
  8
DRAW
  6
CONTINUOUS
100
AcDbLine
 10
113.0448088030954
 20
153.0000032693991
 30
0.0
 11
113.8448116658804
 21
153.0000003625498
 31
0.0
  0
LINE
  5
294B
330
A
100
AcDbEntity
  8
DRAW
  6
CONTINUOUS
100
AcDbLine
 10
113.0448089309324
 20
152.4414369413404
 30
0.0
 11
113.0448088030954
 21
153.0000032693991
 31
0.0
  0
LINE
  5
294C
330
A
100
AcDbEntity
  8
DRAW
  6
CONTINUOUS
100
AcDbLine
 10
113.8448117937165
 20
152.4414369261146
 30
0.0
 11
113.8448116658804
 21
153.0000003625498
 31
0.0
  0
ARC
  5
294D
330
A
100
AcDbEntity
  8
DRAW
  6
CONTINUOUS
100
AcDbCircle
 10
149.1660446039413
 20
184.4003004479358
 30
0.0
 40
47.74805232138823
100
AcDbArc
 50
224.3882805126229
 51
225.2330778763868
  0
LINE
  5
294E
330
A
100
AcDbEntity
  8
DRAW
  6
CONTINUOUS
100
AcDbLine
 10
152.3448118361258
 20
127.0137806392789
 30
0.0
 11
137.7448125036979
 21
127.0137806392211
 31
0.0
  0
LINE
  5
294F
330
A
100
AcDbEntity
  8
DRAW
  6
CONTINUOUS
100
AcDbLine
 10
152.3448118375721
 20
127.0165367258317
 30
0.0
 11
137.7448125051442
 21
127.0165367257739
 31
0.0
  0
LINE
  5
2950
330
A
100
AcDbEntity
  8
DRAW
  6
CONTINUOUS
100
AcDbLine
 10
137.744811881512
 20
128.2000002537301
 30
0.0
 11
152.3448118813431
 21
128.2000002537879
 31
0.0
  0
LINE
  5
2951
330
A
100
AcDbEntity
  8
DRAW
  6
CONTINUOUS
100
AcDbLine
 10
152.3448118812964
 20
140.00000021164
 30
0.0
 11
137.7448125488684
 21
140.0000002115822
 31
0.0
  0
LINE
  5
2952
330
A
100
AcDbEntity
  8
DRAW
  6
CONTINUOUS
100
AcDbLine
 10
152.3448115737949
 20
127.0000001137991
 30
0.0
 11
137.744812241367
 21
127.0000001137413
 31
0.0
  0
LINE
  5
2953
330
A
100
AcDbEntity
  8
DRAW
  6
CONTINUOUS
100
AcDbLine
 10
137.7448125489151
 20
128.2000002537301
 30
0.0
 11
137.7448125488684
 21
140.0000002115822
 31
0.0
  0
LINE
  5
2954
330
A
100
AcDbEntity
  8
DRAW
  6
CONTINUOUS
100
AcDbLine
 10
137.7448124964615
 20
128.2000002537301
 30
0.0
 11
137.7448124964661
 21
127.0165367257739
 31
0.0
  0
LINE
  5
2955
330
A
100
AcDbEntity
  8
DRAW
  6
CONTINUOUS
100
AcDbLine
 10
137.7448124121453
 20
127.0262289321947
 30
0.0
 11
137.7448124012398
 21
127.000007586821
 31
0.0
  0
LINE
  5
2956
330
A
100
AcDbEntity
  8
DRAW
  6
CONTINUOUS
100
AcDbLine
 10
156.155283675358
 20
128.2332077962754
 30
0.0
 11
156.1552836752758
 21
148.9895278126805
 31
0.0
  0
LINE
  5
2957
330
A
100
AcDbEntity
  8
DRAW
  6
CONTINUOUS
100
AcDbLine
 10
157.3448118275759
 20
128.2332077962802
 30
0.0
 11
157.3448118275019
 21
146.9275404960142
 31
0.0
  0
LINE
  5
2958
330
A
100
AcDbEntity
  8
DRAW
  6
CONTINUOUS
100
AcDbLine
 10
158.5448118110713
 20
146.6104721991128
 30
0.0
 11
158.5448118110967
 21
140.2000000050314
 31
0.0
  0
LINE
  5
2959
330
A
100
AcDbEntity
  8
DRAW
  6
CONTINUOUS
100
AcDbLine
 10
158.3448118168333
 20
146.6087268255278
 30
0.0
 11
158.3448118168587
 21
140.2000000050307
 31
0.0
  0
ARC
  5
295A
330
A
100
AcDbEntity
  8
DRAW
  6
CONTINUOUS
100
AcDbCircle
 10
156.1448117798922
 20
128.2332077962754
 30
0.0
 40
1.200000047683714
100
AcDbArc
 50
270.5000000002268
 51
0.0000000002263537
  0
ARC
  5
295B
330
A
100
AcDbEntity
  8
DRAW
  6
CONTINUOUS
100
AcDbCircle
 10
158.3448117197103
 20
137.9999999573469
 30
0.0
 40
1.0
100
AcDbArc
 50
90.00000000022636
 51
180.0000000002263
  0
LINE
  5
295C
330
A
100
AcDbEntity
  8
DRAW
  6
CONTINUOUS
100
AcDbLine
 10
157.3448118158666
 20
140.2000000050267
 30
0.0
 11
158.3448117721553
 21
140.2000000050307
 31
0.0
  0
LINE
  5
295D
330
A
100
AcDbEntity
  8
DRAW
  6
CONTINUOUS
100
AcDbLine
 10
152.3448118813431
 20
128.2000002537879
 30
0.0
 11
152.3448118812964
 21
140.00000021164
 31
0.0
  0
LINE
  5
295E
330
A
100
AcDbEntity
  8
DRAW
  6
CONTINUOUS
100
AcDbLine
 10
152.3448118814813
 20
128.1999543126821
 30
0.0
 11
156.155283675358
 21
128.2332077962754
 31
0.0
  0
LINE
  5
295F
330
A
100
AcDbEntity
  8
DRAW
  6
CONTINUOUS
100
AcDbLine
 10
152.3448118290343
 20
126.9999999573232
 30
0.0
 11
156.1552836229111
 21
127.0332534409165
 31
0.0
  0
LINE
  5
2960
330
A
100
AcDbEntity
  8
DRAW
  6
CONTINUOUS
100
AcDbLine
 10
152.3448118288894
 20
128.2000002537879
 30
0.0
 11
152.3448118288941
 21
127.0165367258317
 31
0.0
  0
LINE
  5
2961
330
A
100
AcDbEntity
  8
DRAW
  6
CONTINUOUS
100
AcDbLine
 10
152.3448118290343
 20
126.9999999573232
 30
0.0
 11
152.3448118399397
 21
127.0262213026969
 31
0.0
  0
LINE
  5
2962
330
A
100
AcDbEntity
  8
DRAW
  6
CONTINUOUS
100
AcDbLine
 10
152.344811837629
 20
127.0165367258317
 30
0.0
 11
152.3448118376374
 21
127.015435534116
 31
0.0
  0
LINE
  5
2963
330
A
100
AcDbEntity
  8
DRAW
  6
CONTINUOUS
100
AcDbLine
 10
156.155283675358
 20
128.2332077962754
 30
0.0
 11
157.3448118275759
 21
128.2332077962802
 31
0.0
  0
LINE
  5
2964
330
A
100
AcDbEntity
  8
DRAW
  6
CONTINUOUS
100
AcDbLine
 10
156.1581990144655
 20
127.8289741690653
 30
0.0
 11
156.155283675358
 21
128.2332077962754
 31
0.0
  0
LINE
  5
2965
330
A
100
AcDbEntity
  8
DRAW
  6
CONTINUOUS
100
AcDbLine
 10
156.1596028411277
 20
127.4273994396839
 30
0.0
 11
156.1581990144655
 21
127.8289741690653
 31
0.0
  0
LINE
  5
2966
330
A
100
AcDbEntity
  8
DRAW
  6
CONTINUOUS
100
AcDbLine
 10
156.1587550783157
 20
127.1484899866501
 30
0.0
 11
156.1596028411277
 21
127.4273994396839
 31
0.0
  0
LINE
  5
2967
330
A
100
AcDbEntity
  8
DRAW
  6
CONTINUOUS
100
AcDbLine
 10
156.1557847778801
 20
127.0347031819337
 30
0.0
 11
156.1587550783157
 21
127.1484899866501
 31
0.0
  0
LINE
  5
2968
330
A
100
AcDbEntity
  8
DRAW
  6
CONTINUOUS
100
AcDbLine
 10
156.1555874215665
 20
127.0337764912911
 30
0.0
 11
156.1557847778801
 21
127.0347031819337
 31
0.0
  0
LINE
  5
2969
330
A
100
AcDbEntity
  8
DRAW
  6
CONTINUOUS
100
AcDbLine
 10
156.1554871809124
 20
127.0334865151424
 30
0.0
 11
156.1555874215665
 21
127.0337764912911
 31
0.0
  0
LINE
  5
296A
330
A
100
AcDbEntity
  8
DRAW
  6
CONTINUOUS
100
AcDbLine
 10
156.1553859114407
 20
127.0333121594165
 30
0.0
 11
156.1554871809124
 21
127.0334865151424
 31
0.0
  0
LINE
  5
296B
330
A
100
AcDbEntity
  8
DRAW
  6
CONTINUOUS
100
AcDbLine
 10
156.1552836229111
 20
127.0332534409165
 30
0.0
 11
156.1553859114407
 21
127.0333121594165
 31
0.0
  0
ARC
  5
296C
330
A
100
AcDbEntity
  8
DRAW
  6
CONTINUOUS
100
AcDbCircle
 10
158.344811764409
 20
139.1999999603272
 30
0.0
 40
0.2000000029802322
100
AcDbArc
 50
270.0000000002247
 51
0.0000000002271679
  0
LINE
  5
296D
330
A
100
AcDbEntity
  8
DRAW
  6
CONTINUOUS
100
AcDbLine
 10
158.3448117644051
 20
140.2000000050307
 30
0.0
 11
158.3448117644098
 21
138.9999999573469
 31
0.0
  0
LINE
  5
296E
330
A
100
AcDbEntity
  8
DRAW
  6
CONTINUOUS
100
AcDbLine
 10
158.5448117673853
 20
140.2000000050314
 30
0.0
 11
158.5448117673893
 21
139.199999960328
 31
0.0
  0
LINE
  5
296F
330
A
100
AcDbEntity
  8
DRAW
  6
CONTINUOUS
100
AcDbLine
 10
158.3448118168587
 20
140.2000000050307
 30
0.0
 11
158.5448118110967
 21
140.2000000050314
 31
0.0
  0
SPLINE
  5
2970
330
A
100
AcDbEntity
  8
DRAW
  6
CONTINUOUS
100
AcDbSpline
210
0.0
220
0.0
230
1.0
 70
     8
 71
     3
 72
    14
 73
    10
 74
     8
 42
0.0000000001
 43
0.0000000001
 44
0.000001
 12
-0.0000001022267792
 22
-0.9999999999999948
 32
0.0
 13
0.999961923063037
 23
0.0087265356283576
 33
0.0
 40
0.0
 40
0.0
 40
0.0
 40
0.0
 40
0.0663844804579799
 40
0.1336813675061981
 40
0.2168724014202322
 40
0.3232920844297219
 40
0.453635609852727
 40
0.6047198655590136
 40
0.7716409880255219
 40
0.7716409880255219
 40
0.7716409880255219
 40
0.7716409880255219
 10
157.3448118158405
 20
146.7932525555564
 30
0.0
 10
157.3448118135784
 20
146.7711243954038
 30
0.0
 10
157.3536177568114
 20
146.7251150046027
 30
0.0
 10
157.4055864446077
 20
146.670447383637
 30
0.0
 10
157.4859274339324
 20
146.6372500537577
 30
0.0
 10
157.5909588584427
 20
146.6172541876405
 30
0.0
 10
157.7200639082307
 20
146.6077351960026
 30
0.0
 10
157.8694970154269
 20
146.6048886862839
 30
0.0
 10
157.9755050791322
 20
146.605503934426
 30
0.0
 10
158.0311433346727
 20
146.6059894821334
 30
0.0
 11
157.3448118158405
 21
146.7932525555564
 31
0.0
 11
157.3592863234349
 21
146.7284644375552
 31
0.0
 11
157.4039784757041
 21
146.6781507550985
 31
0.0
 11
157.479231750386
 21
146.6426869631723
 31
0.0
 11
157.5833266703312
 21
146.6205648848639
 31
0.0
 11
157.7131861794754
 21
146.6093428605067
 31
0.0
 11
157.864223649408
 21
146.6055841578148
 31
0.0
 11
158.0311433346727
 21
146.6059894821334
 31
0.0
  0
SPLINE
  5
2971
330
A
100
AcDbEntity
  8
DRAW
  6
CONTINUOUS
100
AcDbSpline
210
0.0
220
0.0
230
1.0
 70
     8
 71
     3
 72
    14
 73
    10
 74
     8
 42
0.0000000001
 43
0.0000000001
 44
0.000001
 12
0.5797032675712965
 22
-0.8148276637223125
 32
0.0
 13
-0.000000074841471
 23
-0.9999999999999973
 33
0.0
 40
0.0
 40
0.0
 40
0.0
 40
0.0
 40
0.3996839587837852
 40
0.7944864764114761
 40
1.177640578281738
 40
1.541807652054778
 40
1.87645915133257
 40
2.16714111428964
 40
2.399157967040097
 40
2.399157967040097
 40
2.399157967040097
 40
2.399157967040097
 10
156.1552836752758
 20
148.9895278126805
 30
0.0
 10
156.2325163742434
 20
148.8809699638929
 30
0.0
 10
156.3859995273082
 20
148.6651492513217
 30
0.0
 10
156.6109744300828
 20
148.3434683517949
 30
0.0
 10
156.8242005696675
 20
148.0280052138615
 30
0.0
 10
157.0178448699889
 20
147.7237846892025
 30
0.0
 10
157.1815027929735
 20
147.4367610537752
 30
0.0
 10
157.3002836844915
 20
147.177305333718
 30
0.0
 10
157.34481183329
 20
147.004879446931
 30
0.0
 10
157.3448118275019
 20
146.9275404960142
 30
0.0
 11
156.1552836752758
 21
148.9895278126805
 31
0.0
 11
156.3865099298472
 21
148.6635196434577
 31
0.0
 11
156.612327987434
 21
148.3396751965259
 31
0.0
 11
156.8262279011287
 21
148.0217854640272
 31
0.0
 11
157.0205494539932
 21
147.7137971923635
 31
0.0
 11
157.1839654643347
 21
147.4217581400954
 31
0.0
 11
157.2997853399989
 21
147.1551465979119
 31
0.0
 11
157.3448118275019
 21
146.9275404960142
 31
0.0
  0
LINE
  5
2972
330
A
100
AcDbEntity
  8
DRAW
  6
CONTINUOUS
100
AcDbLine
 10
112.1404468870301
 20
209.5766073182824
 30
0.0
 11
137.7448124533639
 21
209.8000532314621
 31
0.0
  0
LINE
  5
2973
330
A
100
AcDbEntity
  8
DRAW
  6
CONTINUOUS
100
AcDbLine
 10
112.1404468345737
 20
210.7765616736413
 30
0.0
 11
137.7448124009075
 21
211.000007586821
 31
0.0
  0
LINE
  5
2974
330
A
100
AcDbEntity
  8
DRAW
  6
CONTINUOUS
100
AcDbLine
 10
111.6448101329245
 20
209.5766073182804
 30
0.0
 11
111.6448101330118
 21
187.5000075867178
 31
0.0
  0
LINE
  5
2975
330
A
100
AcDbEntity
  8
DRAW
  6
CONTINUOUS
100
AcDbLine
 10
112.1404468870301
 20
209.5766073182824
 30
0.0
 11
112.1404468871175
 21
187.5000075867197
 31
0.0
  0
LINE
  5
2976
330
A
100
AcDbEntity
  8
DRAW
  6
CONTINUOUS
100
AcDbLine
 10
115.044810205365
 20
186.7000075867312
 30
0.0
 11
112.1448101099976
 21
186.7000075867197
 31
0.0
  0
LINE
  5
2977
330
A
100
AcDbEntity
  8
DRAW
  6
CONTINUOUS
100
AcDbLine
 10
112.1404468871175
 20
187.5000075867197
 30
0.0
 11
115.5404469837819
 21
187.5000075867331
 31
0.0
  0
LINE
  5
2978
330
A
100
AcDbEntity
  8
DRAW
  6
CONTINUOUS
100
AcDbLine
 10
112.1448101330138
 20
187.0000075867197
 30
0.0
 11
115.0448102294875
 21
187.0000075867312
 31
0.0
  0
LINE
  5
2979
330
A
100
AcDbEntity
  8
DRAW
  6
CONTINUOUS
100
AcDbLine
 10
113.3089116877989
 20
185.0000075867243
 30
0.0
 11
112.1807083553747
 21
185.0000075867199
 31
0.0
  0
LINE
  5
297A
330
A
100
AcDbEntity
  8
DRAW
  6
CONTINUOUS
100
AcDbLine
 10
112.1807083553747
 20
185.0000075867199
 30
0.0
 11
111.6448099679347
 21
187.0000075867178
 31
0.0
  0
LINE
  5
297B
330
A
100
AcDbEntity
  8
DRAW
  6
CONTINUOUS
100
AcDbLine
 10
112.1431403910986
 20
187.0380678204641
 30
0.0
 11
112.1448101330138
 21
187.0000075867197
 31
0.0
  0
LINE
  5
297C
330
A
100
AcDbEntity
  8
DRAW
  6
CONTINUOUS
100
AcDbLine
 10
112.1417248522533
 20
187.1464541961264
 30
0.0
 11
112.1431403910986
 21
187.0380678204641
 31
0.0
  0
LINE
  5
297D
330
A
100
AcDbEntity
  8
DRAW
  6
CONTINUOUS
100
AcDbLine
 10
112.1407790194355
 20
187.3086658705372
 30
0.0
 11
112.1417248522533
 21
187.1464541961264
 31
0.0
  0
LINE
  5
297E
330
A
100
AcDbEntity
  8
DRAW
  6
CONTINUOUS
100
AcDbLine
 10
112.1404468871175
 20
187.5000075867197
 30
0.0
 11
112.1407790194355
 21
187.3086658705372
 31
0.0
  0
LINE
  5
297F
330
A
100
AcDbEntity
  8
DRAW
  6
CONTINUOUS
100
AcDbLine
 10
111.6448099679347
 20
187.0000075867178
 30
0.0
 11
111.6448099679339
 21
187.2000075867178
 31
0.0
  0
LINE
  5
2980
330
A
100
AcDbEntity
  8
DRAW
  6
CONTINUOUS
100
AcDbLine
 10
111.644810205363
 20
187.2000075867178
 30
0.0
 11
111.6448102053618
 21
187.5000075867177
 31
0.0
  0
ARC
  5
2981
330
A
100
AcDbEntity
  8
DRAW
  6
CONTINUOUS
100
AcDbCircle
 10
112.1448101099956
 20
187.2000075867197
 30
0.0
 40
0.5
100
AcDbArc
 50
180.0000000002263
 51
270.0000000002263
  0
LINE
  5
2982
330
A
100
AcDbEntity
  8
DRAW
  6
CONTINUOUS
100
AcDbLine
 10
111.6448101330118
 20
187.5000075867178
 30
0.0
 11
112.1404468871175
 21
187.5000075867197
 31
0.0
  0
ARC
  5
2983
330
A
100
AcDbEntity
  8
DRAW
  6
CONTINUOUS
100
AcDbCircle
 10
112.1448101330118
 20
187.5000075867197
 30
0.0
 40
0.5
100
AcDbArc
 50
180.0000000002263
 51
270.0000000002263
  0
LINE
  5
2984
330
A
100
AcDbEntity
  8
DRAW
  6
CONTINUOUS
100
AcDbLine
 10
113.7644252664455
 20
186.7000075867261
 30
0.0
 11
113.3089116877988
 21
185.0000075867243
 31
0.0
  0
LINE
  5
2985
330
A
100
AcDbEntity
  8
DRAW
  6
CONTINUOUS
100
AcDbLine
 10
115.0448102294249
 20
182.0000037720339
 30
0.0
 11
114.5948102413379
 21
184.0000038144177
 31
0.0
  0
LINE
  5
2986
330
A
100
AcDbEntity
  8
DRAW
  6
CONTINUOUS
100
AcDbLine
 10
115.0448102294091
 20
186.0000018646853
 30
0.0
 11
114.5948102413379
 21
184.0000018646835
 31
0.0
  0
ARC
  5
2987
330
A
100
AcDbEntity
  8
DRAW
  6
CONTINUOUS
100
AcDbCircle
 10
149.1658519589403
 20
153.5999057708058
 30
0.0
 40
47.7477810131434
100
AcDbArc
 50
134.7669194420144
 51
135.6117216060345
  0
LINE
  5
2988
330
A
100
AcDbEntity
  8
DRAW
  6
CONTINUOUS
100
AcDbLine
 10
115.0448102296782
 20
187.0000075867312
 30
0.0
 11
115.0448102296822
 21
186.0000018646853
 31
0.0
  0
LINE
  5
2989
330
A
100
AcDbEntity
  8
DRAW
  6
CONTINUOUS
100
AcDbLine
 10
111.6448101023249
 20
210.2765807121072
 30
0.0
 11
111.6448101329245
 21
209.5766073182804
 31
0.0
  0
ARC
  5
298A
330
A
100
AcDbEntity
  8
DRAW
  6
CONTINUOUS
100
AcDbCircle
 10
112.1448101023249
 20
210.2765807121092
 30
0.0
 40
0.4999999999999958
100
AcDbArc
 50
90.50000000022688
 51
180.0000000002263
  0
LINE
  5
298B
330
A
100
AcDbEntity
  8
DRAW
  6
CONTINUOUS
100
AcDbLine
 10
111.6448101329245
 20
209.5766073182804
 30
0.0
 11
112.1404468870301
 21
209.5766073182824
 31
0.0
  0
ARC
  5
298C
330
A
100
AcDbEntity
  8
DRAW
  6
CONTINUOUS
100
AcDbCircle
 10
194.6022385247034
 20
210.1765881008073
 30
0.0
 40
82.46397429808027
100
AcDbArc
 50
179.5831360649373
 51
180.4168689444722
  0
LINE
  5
298D
330
A
100
AcDbEntity
  8
DRAW
  6
CONTINUOUS
100
AcDbLine
 10
152.3448118360744
 20
210.9862199988055
 30
0.0
 11
137.7448125036464
 21
210.9862199987477
 31
0.0
  0
LINE
  5
298E
330
A
100
AcDbEntity
  8
DRAW
  6
CONTINUOUS
100
AcDbLine
 10
152.3448118375207
 20
210.9834639677877
 30
0.0
 11
137.7448118919669
 21
210.9834639677299
 31
0.0
  0
LINE
  5
298F
330
A
100
AcDbEntity
  8
DRAW
  6
CONTINUOUS
100
AcDbLine
 10
152.3448118813011
 20
209.8000001066213
 30
0.0
 11
137.7448118814712
 21
209.8000001065635
 31
0.0
  0
LINE
  5
2990
330
A
100
AcDbEntity
  8
DRAW
  6
CONTINUOUS
100
AcDbLine
 10
137.7448125489199
 20
198.0000001625509
 30
0.0
 11
152.3448118813478
 21
198.0000001626087
 31
0.0
  0
LINE
  5
2991
330
A
100
AcDbEntity
  8
DRAW
  6
CONTINUOUS
100
AcDbLine
 10
152.3448115737434
 20
211.0000000158474
 30
0.0
 11
137.7448122413154
 21
211.0000000157896
 31
0.0
  0
LINE
  5
2992
330
A
100
AcDbEntity
  8
DRAW
  6
CONTINUOUS
100
AcDbLine
 10
137.7448125488732
 20
209.8000001065635
 30
0.0
 11
137.7448125489199
 21
198.0000001625509
 31
0.0
  0
LINE
  5
2993
330
A
100
AcDbEntity
  8
DRAW
  6
CONTINUOUS
100
AcDbLine
 10
137.7448124964195
 20
209.8000001065635
 30
0.0
 11
137.7448124964148
 21
210.9834639677299
 31
0.0
  0
LINE
  5
2994
330
A
100
AcDbEntity
  8
DRAW
  6
CONTINUOUS
100
AcDbLine
 10
137.7448124009075
 20
211.000007586821
 30
0.0
 11
137.7448124533639
 21
209.8000532314621
 31
0.0
  0
LINE
  5
2995
330
A
100
AcDbEntity
  8
DRAW
  6
CONTINUOUS
100
AcDbLine
 10
152.3448118811582
 20
209.8000456019643
 30
0.0
 11
152.3448118812049
 21
198.0000001626087
 31
0.0
  0
LINE
  5
2996
330
A
100
AcDbEntity
  8
DRAW
  6
CONTINUOUS
100
AcDbLine
 10
157.3448118272531
 20
209.7667921184058
 30
0.0
 11
157.3448118273271
 21
191.0724594186718
 31
0.0
  0
LINE
  5
2997
330
A
100
AcDbEntity
  8
DRAW
  6
CONTINUOUS
100
AcDbLine
 10
156.1552836750352
 20
209.7667921184011
 30
0.0
 11
156.1552836751174
 21
189.010472101996
 31
0.0
  0
LINE
  5
2998
330
A
100
AcDbEntity
  8
DRAW
  6
CONTINUOUS
100
AcDbLine
 10
152.3448118813011
 20
209.8000001066213
 30
0.0
 11
152.3448118813478
 21
198.0000001626087
 31
0.0
  0
ARC
  5
2999
330
A
100
AcDbEntity
  8
DRAW
  6
CONTINUOUS
100
AcDbCircle
 10
158.3448117194648
 20
199.9999999573469
 30
0.0
 40
1.0
100
AcDbArc
 50
180.0000000002263
 51
270.0000000002263
  0
SPLINE
  5
299A
330
A
100
AcDbEntity
  8
DRAW
  6
CONTINUOUS
100
AcDbSpline
210
0.0
220
0.0
230
1.0
 70
     8
 71
     3
 72
    14
 73
    10
 74
     8
 42
0.0000000001
 43
0.0000000001
 44
0.000001
 12
-0.0000001022351272
 22
0.9999999999999948
 32
0.0
 13
0.9999619230631065
 23
-0.0087265356203763
 33
0.0
 40
0.0
 40
0.0
 40
0.0
 40
0.0
 40
0.0663844804579669
 40
0.1336813675062726
 40
0.2168724014202527
 40
0.3232920844297469
 40
0.4536356098527293
 40
0.6047198655590456
 40
0.7716409880255508
 40
0.7716409880255508
 40
0.7716409880255508
 40
0.7716409880255508
 10
157.3448118156647
 20
191.2067473591295
 30
0.0
 10
157.3448118134024
 20
191.2288755192822
 30
0.0
 10
157.3536177566351
 20
191.2748849100834
 30
0.0
 10
157.4055864444309
 20
191.3295525310494
 30
0.0
 10
157.4859274337554
 20
191.3627498609295
 30
0.0
 10
157.5909588582655
 20
191.3827457270473
 30
0.0
 10
157.7200639080534
 20
191.3922647186863
 30
0.0
 10
157.8694970152496
 20
191.3951112284063
 30
0.0
 10
157.9755050789549
 20
191.394495980265
 30
0.0
 10
158.0311433344954
 20
191.394010432558
 30
0.0
 11
157.3448118156647
 21
191.2067473591295
 31
0.0
 11
157.3592863232585
 21
191.2715354771308
 31
0.0
 11
157.4039784755274
 21
191.3218491595879
 31
0.0
 11
157.479231750209
 21
191.3573129515147
 31
0.0
 11
157.583326670154
 21
191.3794350298239
 31
0.0
 11
157.7131861792981
 21
191.3906570541822
 31
0.0
 11
157.8642236492307
 21
191.3944157568753
 31
0.0
 11
158.0311433344954
 21
191.394010432558
 31
0.0
  0
LINE
  5
299B
330
A
100
AcDbEntity
  8
DRAW
  6
CONTINUOUS
100
AcDbLine
 10
158.3448117719272
 20
197.7999999096632
 30
0.0
 11
157.3448118156386
 21
197.7999999096592
 31
0.0
  0
SPLINE
  5
299C
330
A
100
AcDbEntity
  8
DRAW
  6
CONTINUOUS
100
AcDbSpline
210
0.0
220
0.0
230
1.0
 70
     8
 71
     3
 72
    14
 73
    10
 74
     8
 42
0.0000000001
 43
0.0000000001
 44
0.000001
 12
0.579703267588796
 22
0.8148276637098627
 32
0.0
 13
-0.0000000748496695
 23
0.9999999999999973
 33
0.0
 40
0.0
 40
0.0
 40
0.0
 40
0.0
 40
0.3995811602557828
 40
0.7944214396948379
 40
1.177770695507017
 40
1.541684859288875
 40
1.87641002472569
 40
2.167150776612173
 40
2.399152752510786
 40
2.399152752510786
 40
2.399152752510786
 40
2.399152752510786
 10
156.1552836751174
 20
189.010472101996
 30
0.0
 10
156.2324965098731
 20
189.1190020297539
 30
0.0
 10
156.3859719611067
 20
189.3348020652181
 30
0.0
 10
156.6109395114369
 20
189.6565394141604
 30
0.0
 10
156.8242826902666
 20
189.9719182094484
 30
0.0
 10
157.0177285187415
 20
190.2762704982627
 30
0.0
 10
157.1814608305679
 20
190.5632008404182
 30
0.0
 10
157.3002881784006
 20
190.8226832930155
 30
0.0
 10
157.3448118331155
 20
190.9951254267056
 30
0.0
 10
157.3448118273271
 20
191.0724594186718
 30
0.0
 11
156.1552836751174
 21
189.010472101996
 31
0.0
 11
156.386448698512
 21
189.3363976702038
 31
0.0
 11
156.612289443944
 21
189.6602723326158
 31
0.0
 11
156.8263366775017
 21
189.9782981536987
 31
0.0
 11
157.0204254808139
 21
190.2861342126442
 31
0.0
 11
157.1839182833203
 21
190.5782147055446
 31
0.0
 11
157.2997911057614
 21
190.8448673413064
 31
0.0
 11
157.3448118273271
 21
191.0724594186718
 31
0.0
  0
LINE
  5
299D
330
A
100
AcDbEntity
  8
DRAW
  6
CONTINUOUS
100
AcDbLine
 10
158.3448118166307
 20
197.7999999096632
 30
0.0
 11
158.3448118166561
 21
191.3912730895562
 31
0.0
  0
LINE
  5
299E
330
A
100
AcDbEntity
  8
DRAW
  6
CONTINUOUS
100
AcDbLine
 10
158.5448118108686
 20
197.799999909664
 30
0.0
 11
158.544811810894
 21
191.3895277155827
 31
0.0
  0
ARC
  5
299F
330
A
100
AcDbEntity
  8
DRAW
  6
CONTINUOUS
100
AcDbCircle
 10
158.3448117641731
 20
198.7999999543667
 30
0.0
 40
0.2000000029802322
100
AcDbArc
 50
0.0000000002271679
 51
90.00000000022636
  0
LINE
  5
29A0
330
A
100
AcDbEntity
  8
DRAW
  6
CONTINUOUS
100
AcDbLine
 10
158.3448117641771
 20
197.7999999096632
 30
0.0
 11
158.3448117641723
 21
198.9999999573469
 31
0.0
  0
LINE
  5
29A1
330
A
100
AcDbEntity
  8
DRAW
  6
CONTINUOUS
100
AcDbLine
 10
158.5448117671573
 20
197.799999909664
 30
0.0
 11
158.5448117671533
 21
198.7999999543675
 31
0.0
  0
LINE
  5
29A2
330
A
100
AcDbEntity
  8
DRAW
  6
CONTINUOUS
100
AcDbLine
 10
158.3448118166307
 20
197.7999999096632
 30
0.0
 11
158.5448118108686
 21
197.799999909664
 31
0.0
  0
ARC
  5
29A3
330
A
100
AcDbEntity
  8
DRAW
  6
CONTINUOUS
100
AcDbCircle
 10
156.1448117795694
 20
209.7667921184011
 30
0.0
 40
1.200000047683714
100
AcDbArc
 50
0.0000000002271679
 51
89.50000000022667
  0
LINE
  5
29A4
330
A
100
AcDbEntity
  8
DRAW
  6
CONTINUOUS
100
AcDbLine
 10
152.3448118811582
 20
209.8000456019643
 30
0.0
 11
156.1552836750352
 21
209.7667921184011
 31
0.0
  0
LINE
  5
29A5
330
A
100
AcDbEntity
  8
DRAW
  6
CONTINUOUS
100
AcDbLine
 10
152.3448118287018
 20
210.9999999573232
 30
0.0
 11
156.1552836225788
 21
210.96674647376
 31
0.0
  0
LINE
  5
29A6
330
A
100
AcDbEntity
  8
DRAW
  6
CONTINUOUS
100
AcDbLine
 10
152.3448118375776
 20
210.9834639677877
 30
0.0
 11
152.344811837586
 21
210.9845643805303
 31
0.0
  0
LINE
  5
29A7
330
A
100
AcDbEntity
  8
DRAW
  6
CONTINUOUS
100
AcDbLine
 10
152.3448118287018
 20
210.9999999573232
 30
0.0
 11
152.3448118396074
 21
210.9737786119495
 31
0.0
  0
LINE
  5
29A8
330
A
100
AcDbEntity
  8
DRAW
  6
CONTINUOUS
100
AcDbLine
 10
152.3448118288475
 20
209.8000001066213
 30
0.0
 11
152.3448118288428
 21
210.9834639677877
 31
0.0
  0
LINE
  5
29A9
330
A
100
AcDbEntity
  8
DRAW
  6
CONTINUOUS
100
AcDbLine
 10
156.1552836750352
 20
209.7667921184011
 30
0.0
 11
157.3448118272531
 21
209.7667921184058
 31
0.0
  0
LINE
  5
29AA
330
A
100
AcDbEntity
  8
DRAW
  6
CONTINUOUS
100
AcDbLine
 10
156.1584935088476
 20
210.8753791616257
 30
0.0
 11
156.1552836225788
 21
210.96674647376
 31
0.0
  0
LINE
  5
29AB
330
A
100
AcDbEntity
  8
DRAW
  6
CONTINUOUS
100
AcDbLine
 10
156.1596206752127
 20
210.6152556745274
 30
0.0
 11
156.1584935088476
 21
210.8753791616257
 31
0.0
  0
LINE
  5
29AC
330
A
100
AcDbEntity
  8
DRAW
  6
CONTINUOUS
100
AcDbLine
 10
156.1584935372366
 20
210.2259736651432
 30
0.0
 11
156.1596206752127
 21
210.6152556745274
 31
0.0
  0
LINE
  5
29AD
330
A
100
AcDbEntity
  8
DRAW
  6
CONTINUOUS
100
AcDbLine
 10
156.1552836750352
 20
209.7667921184011
 30
0.0
 11
156.1584935372366
 21
210.2259736651432
 31
0.0
  0
LINE
  5
29AE
330
A
100
AcDbEntity
  8
DRAW
  6
CONTINUOUS
100
AcDbLine
 10
168.2564741154462
 20
188.9048666129201
 30
0.0
 11
168.2564741156039
 21
149.0951333018523
 31
0.0
  0
LINE
  5
29AF
330
A
100
AcDbEntity
  8
DRAW
  6
CONTINUOUS
100
AcDbLine
 10
168.4448160630333
 20
188.903132157628
 30
0.0
 11
168.4448160631909
 21
149.095133301853
 31
0.0
  0
LINE
  5
29B0
330
A
100
AcDbEntity
  8
DRAW
  6
CONTINUOUS
100
AcDbLine
 10
169.644816057754
 20
188.9031321576327
 30
0.0
 11
169.6448160579116
 21
149.0968677571506
 31
0.0
  0
LINE
  5
29B1
330
A
100
AcDbEntity
  8
DRAW
  6
CONTINUOUS
100
AcDbLine
 10
169.4448160635161
 20
188.903132157632
 30
0.0
 11
169.4448160636737
 21
149.0968677571498
 31
0.0
  0
LINE
  5
29B2
330
A
100
AcDbEntity
  8
DRAW
  6
CONTINUOUS
100
AcDbLine
 10
168.4448159666011
 20
146.8852173541333
 30
0.0
 11
168.4448160631909
 21
149.095133301853
 31
0.0
  0
LINE
  5
29B3
330
A
100
AcDbEntity
  8
DRAW
  6
CONTINUOUS
100
AcDbLine
 10
168.25647401071
 20
146.6952245911345
 30
0.0
 11
168.2564741156039
 21
149.0951333018523
 31
0.0
  0
LINE
  5
29B4
330
A
100
AcDbEntity
  8
DRAW
  6
CONTINUOUS
100
AcDbLine
 10
169.6448160142002
 20
149.0968677571506
 30
0.0
 11
169.6448160142042
 21
148.0968677124471
 31
0.0
  0
LINE
  5
29B5
330
A
100
AcDbEntity
  8
DRAW
  6
CONTINUOUS
100
AcDbLine
 10
169.44481601122
 20
149.0968677571498
 30
0.0
 11
169.4448160112248
 21
147.8968677094661
 31
0.0
  0
ARC
  5
29B6
330
A
100
AcDbEntity
  8
DRAW
  6
CONTINUOUS
100
AcDbCircle
 10
169.4448159665253
 20
146.8968677094661
 30
0.0
 40
1.0
100
AcDbArc
 50
90.00000000022636
 51
178.9046461330623
  0
LINE
  5
29B7
330
A
100
AcDbEntity
  8
DRAW
  6
CONTINUOUS
100
AcDbLine
 10
168.4448160763933
 20
146.8846810521693
 30
0.0
 11
168.4448159826591
 21
146.9159875699758
 31
0.0
  0
ARC
  5
29B8
330
A
100
AcDbEntity
  8
DRAW
  6
CONTINUOUS
100
AcDbCircle
 10
168.2548159689853
 20
146.8852173541326
 30
0.0
 40
0.1899999976158142
100
AcDbArc
 50
270.5000000002268
 51
0.0000000002271679
  0
ARC
  5
29B9
330
A
100
AcDbEntity
  8
DRAW
  6
CONTINUOUS
100
AcDbCircle
 10
169.444816011224
 20
148.0968677124463
 30
0.0
 40
0.2000000029802322
100
AcDbArc
 50
270.0000000002247
 51
0.0000000002271679
  0
LINE
  5
29BA
330
A
100
AcDbEntity
  8
DRAW
  6
CONTINUOUS
100
AcDbLine
 10
168.4448160626816
 20
149.0968677571458
 30
0.0
 11
169.4448160189702
 21
149.0968677571498
 31
0.0
  0
LINE
  5
29BB
330
A
100
AcDbEntity
  8
DRAW
  6
CONTINUOUS
100
AcDbLine
 10
168.2564741156039
 20
149.0951333018523
 30
0.0
 11
168.4448160631909
 21
149.095133301853
 31
0.0
  0
LINE
  5
29BC
330
A
100
AcDbEntity
  8
DRAW
  6
CONTINUOUS
100
AcDbLine
 10
169.4448160636737
 20
149.0968677571498
 30
0.0
 11
169.6448160579116
 21
149.0968677571506
 31
0.0
  0
LINE
  5
29BD
330
A
100
AcDbEntity
  8
DRAW
  6
CONTINUOUS
100
AcDbLine
 10
169.6452788522957
 20
181.0123494136757
 30
0.0
 11
169.6452788528825
 21
178.8597330305327
 31
0.0
  0
LINE
  5
29BE
330
A
100
AcDbEntity
  8
DRAW
  6
CONTINUOUS
100
AcDbLine
 10
169.6452788517144
 20
183.1445125310555
 30
0.0
 11
169.6452788522957
 21
181.0123494136757
 31
0.0
  0
ARC
  5
29BF
330
A
100
AcDbEntity
  8
DRAW
  6
CONTINUOUS
100
AcDbCircle
 10
169.4448159663503
 20
191.1031322053157
 30
0.0
 40
1.0
100
AcDbArc
 50
181.0953545109046
 51
270.0000000002271
  0
LINE
  5
29C0
330
A
100
AcDbEntity
  8
DRAW
  6
CONTINUOUS
100
AcDbLine
 10
169.4448160188126
 20
188.903132157632
 30
0.0
 11
168.444816062524
 21
188.903132157628
 31
0.0
  0
LINE
  5
29C1
330
A
100
AcDbEntity
  8
DRAW
  6
CONTINUOUS
100
AcDbLine
 10
168.2564740105334
 20
191.3047753236379
 30
0.0
 11
168.2564741154462
 21
188.90486661292
 31
0.0
  0
LINE
  5
29C2
330
A
100
AcDbEntity
  8
DRAW
  6
CONTINUOUS
100
AcDbLine
 10
168.4448159664261
 20
191.1147825606405
 30
0.0
 11
168.4448160630333
 21
188.9048666129208
 31
0.0
  0
LINE
  5
29C3
330
A
100
AcDbEntity
  8
DRAW
  6
CONTINUOUS
100
AcDbLine
 10
168.2564741154462
 20
188.9048666129201
 30
0.0
 11
168.4448160630333
 21
188.9048666129208
 31
0.0
  0
LINE
  5
29C4
330
A
100
AcDbEntity
  8
DRAW
  6
CONTINUOUS
100
AcDbLine
 10
168.4448160630333
 20
188.9048666129208
 30
0.0
 11
168.4448160630333
 21
188.903132157628
 31
0.0
  0
LINE
  5
29C5
330
A
100
AcDbEntity
  8
DRAW
  6
CONTINUOUS
100
AcDbLine
 10
168.4448160762173
 20
191.1153188569198
 30
0.0
 11
168.4448159824843
 21
191.0840123335625
 31
0.0
  0
ARC
  5
29C6
330
A
100
AcDbEntity
  8
DRAW
  6
CONTINUOUS
100
AcDbCircle
 10
168.2548159688103
 20
191.1147825606398
 30
0.0
 40
0.1899999976158142
100
AcDbArc
 50
0.0000000002271679
 51
89.50000000022667
  0
LINE
  5
29C7
330
A
100
AcDbEntity
  8
DRAW
  6
CONTINUOUS
100
AcDbLine
 10
169.6448160140427
 20
188.9031321576327
 30
0.0
 11
169.6448160140387
 21
189.9031322023362
 31
0.0
  0
LINE
  5
29C8
330
A
100
AcDbEntity
  8
DRAW
  6
CONTINUOUS
100
AcDbLine
 10
169.4448160110624
 20
188.903132157632
 30
0.0
 11
169.4448160110576
 21
190.1031322053157
 31
0.0
  0
LINE
  5
29C9
330
A
100
AcDbEntity
  8
DRAW
  6
CONTINUOUS
100
AcDbLine
 10
169.4448160635161
 20
188.903132157632
 30
0.0
 11
169.644816057754
 21
188.9031321576327
 31
0.0
  0
ARC
  5
29CA
330
A
100
AcDbEntity
  8
DRAW
  6
CONTINUOUS
100
AcDbCircle
 10
169.4448160110585
 20
189.9031322023354
 30
0.0
 40
0.2000000029802322
100
AcDbArc
 50
0.0000000002271679
 51
90.00000000022636
  0
DIMENSION
  5
29CB
330
A
100
AcDbEntity
  8
DIM
  6
CONTINUOUS
100
AcDbDimension
  2
*D0
 10
48.54044715121142
 20
220.6479376762461
 30
0.0
 11
66.0404481279238
 21
222.1925829695612
 31
0.0
 70
    32
  3
FINDER
100
AcDbAlignedDimension
 13
83.54044910463619
 23
209.801805129962
 33
0.0
 14
48.54044715121142
 24
209.801805129962
 34
0.0
100
AcDbRotatedDimension
  0
DIMENSION
  5
29D8
330
A
100
AcDbEntity
  8
DIM
  6
CONTINUOUS
100
AcDbDimension
  2
*D1
 10
37.15738584027758
 20
126.9999999573232
 30
0.0
 11
35.61335446237851
 21
168.9999999573232
 31
0.0
 70
    32
  3
FINDER
100
AcDbAlignedDimension
 13
49.74045614361736
 23
210.9999999573232
 33
0.0
 14
49.74045614361756
 24
126.9999999573232
 34
0.0
 50
90.0
100
AcDbRotatedDimension
  0
DIMENSION
  5
29E5
330
A
100
AcDbEntity
  8
DIM
  6
CONTINUOUS
100
AcDbDimension
  2
*D2
 10
169.6448160140387
 20
230.0169463753669
 30
0.0
 11
142.3448131097019
 21
231.560977753266
 31
0.0
 70
    32
  3
FINDER
100
AcDbAlignedDimension
 13
115.044810205365
 23
186.7000075867312
 33
0.0
 14
169.6448160140387
 24
189.9031322023362
 34
0.0
100
AcDbRotatedDimension
  0
DIMENSION
  5
29F2
330
A
100
AcDbEntity
  8
DIM
  6
CONTINUOUS
100
AcDbDimension
  2
*D3
 10
157.3448118272531
 20
220.5045359576302
 30
0.0
 11
136.194811016309
 21
222.0491812509453
 31
0.0
 70
    32
  3
FINDER
100
AcDbAlignedDimension
 13
115.044810205365
 23
186.7000075867312
 33
0.0
 14
157.3448118272531
 24
209.7667921184058
 34
0.0
100
AcDbRotatedDimension
  0
DIMENSION
  5
2A23
330
A
100
AcDbEntity
  8
DIM
  6
CONTINUOUS
100
AcDbDimension
  2
*D4
 10
111.6448101332456
 20
112.2780139513835
 30
0.0
 11
140.6448130955786
 21
113.8220453292825
 31
0.0
 70
    32
  3
FINDER
100
AcDbAlignedDimension
 13
169.6448160579116
 23
149.0968677571506
 33
0.0
 14
111.6448101332456
 24
128.4234078551551
 34
0.0
100
AcDbRotatedDimension
  0
DIMENSION
  5
2A30
330
A
100
AcDbEntity
  8
DIM
  6
CONTINUOUS
100
AcDbDimension
  2
*D5
 10
184.2275172706136
 20
146.6104721991128
 30
0.0
 11
184.2275172706136
 21
168.9999999573862
 31
0.0
 70
   160
  3
FINDER
100
AcDbAlignedDimension
 13
158.544811810894
 23
191.3895277155827
 33
0.0
 14
158.5448118110713
 24
146.6104721991128
 34
0.0
 50
90.0
100
AcDbRotatedDimension
1001
ACAD
1000
DSTYLE
1002
{
1070
   271
1070
     1
1002
}
  0
ENDSEC
  0
SECTION
  2
OBJECTS
  0
DICTIONARY
  5
19
330
0
100
AcDbDictionary
  3
ACAD_GROUP
350
1A
  3
ACAD_LAYOUT
350
255E
  3
ACAD_MLINESTYLE
350
1B
  3
ACAD_PLOTSETTINGS
350
255F
1001
ACAD
1000
TREAT_AS_HARD
1070
     0
  0
DICTIONARY
  5
2588
330
A
100
AcDbDictionary
  3
ACAD_LAYOUTSELFREF
350
2AA5
1001
ACAD
1000
TREAT_AS_HARD
1070
     1
  0
DICTIONARY
  5
258A
330
B
100
AcDbDictionary
  3
ACAD_LAYOUTSELFREF
350
2AA6
1001
ACAD
1000
TREAT_AS_HARD
1070
     1
  0
DICTIONARY
  5
1A
102
{ACAD_REACTORS
330
19
102
}
330
0
100
AcDbDictionary
1001
ACAD
1000
TREAT_AS_HARD
1070
     0
  0
DICTIONARY
  5
255E
102
{ACAD_REACTORS
330
19
102
}
330
19
100
AcDbDictionary
1001
ACAD
1000
TREAT_AS_HARD
1070
     0
  0
DICTIONARY
  5
1B
102
{ACAD_REACTORS
330
19
102
}
330
0
100
AcDbDictionary
  3
STANDARD
350
1C
1001
ACAD
1000
TREAT_AS_HARD
1070
     0
  0
DICTIONARY
  5
255F
102
{ACAD_REACTORS
330
19
102
}
330
19
100
AcDbDictionary
1001
ACAD
1000
TREAT_AS_HARD
1070
     0
  0
XRECORD
  5
2AA5
102
{ACAD_REACTORS
330
2588
102
}
330
2588
100
AcDbXrecord
340
A
  0
XRECORD
  5
2AA6
102
{ACAD_REACTORS
330
258A
102
}
330
258A
100
AcDbXrecord
340
B
  0
MLINESTYLE
  5
1C
102
{ACAD_REACTORS
330
1B
102
}
330
0
100
AcDbMlineStyle
  2
STANDARD
 70
     0
  3

 62
     0
 51
90.0
 52
90.0
 71
     2
 49
0.5
 62
   256
  6
BYLAYER
 49
-0.5
 62
   256
  6
BYLAYER
  0
ENDSEC
  0
EOF
