  0
SECTION
  2
HEADER
  9
$ACADVER
  1
AC1014
  9
$ACADMAINTVER
 70
     9
  9
$DWGCODEPAGE
  3
ANSI_1252
  9
$INSBASE
 10
0.0
 20
0.0
 30
0.0
  9
$EXTMIN
 10
1.000000E+20
 20
1.000000E+20
 30
1.000000E+20
  9
$EXTMAX
 10
-1.000000E+20
 20
-1.000000E+20
 30
-1.000000E+20
  9
$LIMMIN
 10
0.0
 20
0.0
  9
$LIMMAX
 10
420.0
 20
297.0
  9
$ORTHOMODE
 70
     0
  9
$REGENMODE
 70
     1
  9
$FILLMODE
 70
     1
  9
$QTEXTMODE
 70
     0
  9
$MIRRTEXT
 70
     1
  9
$DRAGMODE
 70
     2
  9
$LTSCALE
 40
1.0
  9
$OSMODE
 70
    37
  9
$ATTMODE
 70
     1
  9
$TEXTSIZE
 40
2.5
  9
$TRACEWID
 40
1.0
  9
$TEXTSTYLE
  7
STANDARD
  9
$CLAYER
  8
0
  9
$CELTYPE
  6
BYLAYER
  9
$CECOLOR
 62
   256
  9
$CELTSCALE
 40
1.0
  9
$DELOBJ
 70
     1
  9
$DISPSILH
 70
     0
  9
$DIMSCALE
 40
1.0
  9
$DIMASZ
 40
2.5
  9
$DIMEXO
 40
0.625
  9
$DIMDLI
 40
3.75
  9
$DIMRND
 40
0.0
  9
$DIMDLE
 40
0.0
  9
$DIMEXE
 40
1.25
  9
$DIMTP
 40
0.0
  9
$DIMTM
 40
0.0
  9
$DIMTXT
 40
2.5
  9
$DIMCEN
 40
2.5
  9
$DIMTSZ
 40
0.0
  9
$DIMTOL
 70
     0
  9
$DIMLIM
 70
     0
  9
$DIMTIH
 70
     0
  9
$DIMTOH
 70
     0
  9
$DIMSE1
 70
     0
  9
$DIMSE2
 70
     0
  9
$DIMTAD
 70
     1
  9
$DIMZIN
 70
     8
  9
$DIMBLK
  1

  9
$DIMASO
 70
     1
  9
$DIMSHO
 70
     1
  9
$DIMPOST
  1

  9
$DIMAPOST
  1

  9
$DIMALT
 70
     0
  9
$DIMALTD
 70
     3
  9
$DIMALTF
 40
0.03937
  9
$DIMLFAC
 40
1.0
  9
$DIMTOFL
 70
     1
  9
$DIMTVP
 40
0.0
  9
$DIMTIX
 70
     0
  9
$DIMSOXD
 70
     0
  9
$DIMSAH
 70
     0
  9
$DIMBLK1
  1

  9
$DIMBLK2
  1

  9
$DIMSTYLE
  2
ISO-25
  9
$DIMCLRD
 70
     0
  9
$DIMCLRE
 70
     0
  9
$DIMCLRT
 70
     0
  9
$DIMTFAC
 40
1.0
  9
$DIMGAP
 40
0.625
  9
$DIMJUST
 70
     0
  9
$DIMSD1
 70
     0
  9
$DIMSD2
 70
     0
  9
$DIMTOLJ
 70
     0
  9
$DIMTZIN
 70
     8
  9
$DIMALTZ
 70
     0
  9
$DIMALTTZ
 70
     0
  9
$DIMFIT
 70
     3
  9
$DIMUPT
 70
     0
  9
$DIMUNIT
 70
     2
  9
$DIMDEC
 70
     2
  9
$DIMTDEC
 70
     2
  9
$DIMALTU
 70
     2
  9
$DIMALTTD
 70
     3
  9
$DIMTXSTY
  7
STANDARD
  9
$DIMAUNIT
 70
     0
  9
$LUNITS
 70
     2
  9
$LUPREC
 70
     4
  9
$SKETCHINC
 40
1.0
  9
$FILLETRAD
 40
10.0
  9
$AUNITS
 70
     0
  9
$AUPREC
 70
     0
  9
$MENU
  1
.
  9
$ELEVATION
 40
0.0
  9
$PELEVATION
 40
0.0
  9
$THICKNESS
 40
0.0
  9
$LIMCHECK
 70
     0
  9
$CHAMFERA
 40
10.0
  9
$CHAMFERB
 40
10.0
  9
$CHAMFERC
 40
20.0
  9
$CHAMFERD
 40
0.0
  9
$SKPOLY
 70
     0
  9
$TDCREATE
 40
2455656.461871262
  9
$TDUPDATE
 40
2455656.461871273
  9
$TDINDWG
 40
0.0000000116
  9
$TDUSRTIMER
 40
0.0000000116
  9
$USRTIMER
 70
     1
  9
$ANGBASE
 50
0.0
  9
$ANGDIR
 70
     0
  9
$PDMODE
 70
     0
  9
$PDSIZE
 40
0.0
  9
$PLINEWID
 40
0.0
  9
$COORDS
 70
     1
  9
$SPLFRAME
 70
     0
  9
$SPLINETYPE
 70
     6
  9
$SPLINESEGS
 70
     8
  9
$ATTDIA
 70
     0
  9
$ATTREQ
 70
     1
  9
$HANDLING
 70
     1
  9
$HANDSEED
  5
42D
  9
$SURFTAB1
 70
     6
  9
$SURFTAB2
 70
     6
  9
$SURFTYPE
 70
     6
  9
$SURFU
 70
     6
  9
$SURFV
 70
     6
  9
$UCSNAME
  2

  9
$UCSORG
 10
0.0
 20
0.0
 30
0.0
  9
$UCSXDIR
 10
1.0
 20
0.0
 30
0.0
  9
$UCSYDIR
 10
0.0
 20
1.0
 30
0.0
  9
$PUCSNAME
  2

  9
$PUCSORG
 10
0.0
 20
0.0
 30
0.0
  9
$PUCSXDIR
 10
1.0
 20
0.0
 30
0.0
  9
$PUCSYDIR
 10
0.0
 20
1.0
 30
0.0
  9
$USERI1
 70
     0
  9
$USERI2
 70
     0
  9
$USERI3
 70
     0
  9
$USERI4
 70
     0
  9
$USERI5
 70
     0
  9
$USERR1
 40
0.0
  9
$USERR2
 40
0.0
  9
$USERR3
 40
0.0
  9
$USERR4
 40
0.0
  9
$USERR5
 40
0.0
  9
$WORLDVIEW
 70
     1
  9
$SHADEDGE
 70
     3
  9
$SHADEDIF
 70
    70
  9
$TILEMODE
 70
     1
  9
$MAXACTVP
 70
    64
  9
$PINSBASE
 10
0.0
 20
0.0
 30
0.0
  9
$PLIMCHECK
 70
     0
  9
$PEXTMIN
 10
1.000000E+20
 20
1.000000E+20
 30
1.000000E+20
  9
$PEXTMAX
 10
-1.000000E+20
 20
-1.000000E+20
 30
-1.000000E+20
  9
$PLIMMIN
 10
0.0
 20
0.0
  9
$PLIMMAX
 10
420.0
 20
297.0
  9
$UNITMODE
 70
     0
  9
$VISRETAIN
 70
     1
  9
$PLINEGEN
 70
     0
  9
$PSLTSCALE
 70
     1
  9
$TREEDEPTH
 70
  3020
  9
$PICKSTYLE
 70
     1
  9
$CMLSTYLE
  2
STANDARD
  9
$CMLJUST
 70
     0
  9
$CMLSCALE
 40
20.0
  9
$PROXYGRAPHICS
 70
     1
  9
$MEASUREMENT
 70
     1
  0
ENDSEC
  0
SECTION
  2
CLASSES
  0
CLASS
  1
ACDBDICTIONARYWDFLT
  2
AcDbDictionaryWithDefault
  3
ObjectDBX Classes
 90
        0
280
     0
281
     0
  0
CLASS
  1
VISUALSTYLE
  2
AcDbVisualStyle
  3
ObjectDBX Classes
 90
     4095
280
     0
281
     0
  0
CLASS
  1
DICTIONARYVAR
  2
AcDbDictionaryVar
  3
ObjectDBX Classes
 90
        0
280
     0
281
     0
  0
CLASS
  1
XRECORD
  2
AcDbXrecord
  3
AutoCAD 2000
 90
        0
280
     0
281
     0
  0
CLASS
  1
LWPOLYLINE
  2
AcDbPolyline
  3
AutoCAD 2000
 90
        0
280
     0
281
     1
  0
CLASS
  1
HATCH
  2
AcDbHatch
  3
AutoCAD 2000
 90
        0
280
     0
281
     1
  0
CLASS
  1
ACDBPLACEHOLDER
  2
AcDbPlaceHolder
  3
ObjectDBX Classes
 90
        0
280
     0
281
     0
  0
CLASS
  1
LAYOUT
  2
AcDbLayout
  3
ObjectDBX Classes
 90
        0
280
     0
281
     0
  0
ENDSEC
  0
SECTION
  2
TABLES
  0
TABLE
  2
VPORT
  5
8
330
0
100
AcDbSymbolTable
 70
     1
  0
VPORT
  5
29
330
8
100
AcDbSymbolTableRecord
100
AcDbViewportTableRecord
  2
*ACTIVE
 70
     0
 10
0.0
 20
0.0
 11
1.0
 21
1.0
 12
344.186916
 22
148.5
 13
0.0
 23
0.0
 14
10.0
 24
10.0
 15
10.0
 25
10.0
 16
0.0
 26
0.0
 36
1.0
 17
0.0
 27
0.0
 37
0.0
 40
297.0
 41
1.972973
 42
50.0
 43
0.0
 44
0.0
 50
0.0
 51
0.0
 71
     0
 72
   100
 73
     1
 74
     3
 75
     0
 76
     0
 77
     0
 78
     0
  0
ENDTAB
  0
TABLE
  2
LTYPE
  5
5
330
0
100
AcDbSymbolTable
 70
     1
  0
LTYPE
  5
14
330
5
100
AcDbSymbolTableRecord
100
AcDbLinetypeTableRecord
  2
BYBLOCK
 70
     0
  3

 72
    65
 73
     0
 40
0.0
  0
LTYPE
  5
15
330
5
100
AcDbSymbolTableRecord
100
AcDbLinetypeTableRecord
  2
BYLAYER
 70
     0
  3

 72
    65
 73
     0
 40
0.0
  0
LTYPE
  5
16
330
5
100
AcDbSymbolTableRecord
100
AcDbLinetypeTableRecord
  2
CONTINUOUS
 70
     0
  3
Solid line
 72
    65
 73
     0
 40
0.0
  0
ENDTAB
  0
TABLE
  2
LAYER
  5
2
330
0
100
AcDbSymbolTable
 70
     6
  0
LAYER
  5
10
330
2
100
AcDbSymbolTableRecord
100
AcDbLayerTableRecord
  2
0
 70
     0
 62
     7
  6
CONTINUOUS
  0
LAYER
  5
3B
330
2
100
AcDbSymbolTableRecord
100
AcDbLayerTableRecord
  2
DIM
 70
     0
 62
     7
  6
CONTINUOUS
  0
LAYER
  5
3C
330
2
100
AcDbSymbolTableRecord
100
AcDbLayerTableRecord
  2
DRAW
 70
     0
 62
     7
  6
CONTINUOUS
  0
LAYER
  5
3D
330
2
100
AcDbSymbolTableRecord
100
AcDbLayerTableRecord
  2
CARTOUCHE
 70
     0
 62
     7
  6
CONTINUOUS
  0
LAYER
  5
3E
330
2
100
AcDbSymbolTableRecord
100
AcDbLayerTableRecord
  2
DRAW-TEXT
 70
     0
 62
     7
  6
CONTINUOUS
  0
LAYER
  5
3F
330
2
100
AcDbSymbolTableRecord
100
AcDbLayerTableRecord
  2
DEFPOINTS
 70
     0
 62
     7
  6
CONTINUOUS
  0
ENDTAB
  0
TABLE
  2
STYLE
  5
3
330
0
100
AcDbSymbolTable
 70
    18
  0
STYLE
  5
11
330
3
100
AcDbSymbolTableRecord
100
AcDbTextStyleTableRecord
  2
STANDARD
 70
     0
 40
0.0
 41
1.0
 50
0.0
 71
     0
 42
2.5
  3
txt
  4

1001
ACAD
1000
txt
1071
        0
  0
STYLE
  5
40
330
3
100
AcDbSymbolTableRecord
100
AcDbTextStyleTableRecord
  2
DEFAULT
 70
     0
 40
0.0
 41
1.0
 50
0.0
 71
     0
 42
0.2
  3

  4

1001
ACAD
1000
txt
1071
        0
  0
STYLE
  5
41
330
3
100
AcDbSymbolTableRecord
100
AcDbTextStyleTableRecord
  2
FINDER
 70
     0
 40
0.0
 41
1.0
 50
0.0
 71
     0
 42
0.2
  3
ARIAL.TTF
  4

1001
ACAD
1000
Arial
1071
        0
  0
STYLE
  5
42
330
3
100
AcDbSymbolTableRecord
100
AcDbTextStyleTableRecord
  2
ISO_FINDER
 70
     0
 40
0.0
 41
1.0
 50
0.0
 71
     0
 42
0.2
  3

  4

1001
ACAD
1000
Arial
1071
        0
  0
STYLE
  5
43
330
3
100
AcDbSymbolTableRecord
100
AcDbTextStyleTableRecord
  2
TSTYLE1
 70
     0
 40
0.0
 41
1.0
 50
0.0
 71
     0
 42
0.2
  3

  4

1001
ACAD
1000
Arial
1071
        0
  0
STYLE
  5
44
330
3
100
AcDbSymbolTableRecord
100
AcDbTextStyleTableRecord
  2
TSTYLE2
 70
     0
 40
0.0
 41
1.0
 50
0.0
 71
     0
 42
0.2
  3

  4

1001
ACAD
1000
Arial
1071
        0
  0
STYLE
  5
45
330
3
100
AcDbSymbolTableRecord
100
AcDbTextStyleTableRecord
  2
TSTYLE3
 70
     0
 40
0.0
 41
1.0
 50
0.0
 71
     0
 42
0.2
  3

  4

1001
ACAD
1000
Arial
1071
        0
  0
STYLE
  5
46
330
3
100
AcDbSymbolTableRecord
100
AcDbTextStyleTableRecord
  2
TSTYLE4
 70
     0
 40
0.0
 41
1.0
 50
0.0
 71
     0
 42
0.2
  3

  4

1001
ACAD
1000
Arial
1071
        0
  0
STYLE
  5
47
330
3
100
AcDbSymbolTableRecord
100
AcDbTextStyleTableRecord
  2
TSTYLE5
 70
     0
 40
0.0
 41
1.0
 50
0.0
 71
     0
 42
0.2
  3

  4

1001
ACAD
1000
Arial
1071
        0
  0
STYLE
  5
48
330
3
100
AcDbSymbolTableRecord
100
AcDbTextStyleTableRecord
  2
TSTYLE11
 70
     0
 40
0.0
 41
1.0
 50
0.0
 71
     0
 42
0.2
  3

  4

1001
ACAD
1000
Arial
1071
        0
  0
STYLE
  5
49
330
3
100
AcDbSymbolTableRecord
100
AcDbTextStyleTableRecord
  2
TSTYLE23
 70
     0
 40
0.0
 41
1.0
 50
0.0
 71
     0
 42
0.2
  3

  4

1001
ACAD
1000
Arial
1071
        0
  0
STYLE
  5
4A
330
3
100
AcDbSymbolTableRecord
100
AcDbTextStyleTableRecord
  2
TSTYLE22
 70
     0
 40
0.0
 41
1.0
 50
0.0
 71
     0
 42
0.2
  3

  4

1001
ACAD
1000
Arial
1071
        0
  0
STYLE
  5
4B
330
3
100
AcDbSymbolTableRecord
100
AcDbTextStyleTableRecord
  2
ISO
 70
     0
 40
0.0
 41
1.0
 50
0.0
 71
     0
 42
0.2
  3

  4

1001
ACAD
1000
ISOCP
1071
        0
  0
STYLE
  5
4C
330
3
100
AcDbSymbolTableRecord
100
AcDbTextStyleTableRecord
  2
HELVETICAR
 70
     0
 40
0.0
 41
1.0
 50
0.0
 71
     0
 42
0.2
  3

  4

1001
ACAD
1000
Swis721 Cn BT
1071
        0
  0
STYLE
  5
4D
330
3
100
AcDbSymbolTableRecord
100
AcDbTextStyleTableRecord
  2
ROMANS
 70
     0
 40
0.0
 41
1.0
 50
0.0
 71
     0
 42
0.2
  3

  4

1001
ACAD
1000
romans
1071
        0
  0
STYLE
  5
4E
330
3
100
AcDbSymbolTableRecord
100
AcDbTextStyleTableRecord
  2
STD
 70
     0
 40
0.0
 41
1.0
 50
0.0
 71
     0
 42
0.2
  3

  4

1001
ACAD
1000
txt
1071
        0
  0
STYLE
  5
4F
330
3
100
AcDbSymbolTableRecord
100
AcDbTextStyleTableRecord
  2
STYLE1
 70
     0
 40
0.0
 41
1.0
 50
0.0
 71
     0
 42
0.2
  3

  4

1001
ACAD
1000
Arial Black
1071
        0
  0
STYLE
  5
50
330
3
100
AcDbSymbolTableRecord
100
AcDbTextStyleTableRecord
  2
TESTO_NOTA__ISO_
 70
     0
 40
0.0
 41
1.0
 50
0.0
 71
     0
 42
0.2
  3

  4

1001
ACAD
1000
Tahoma
1071
        0
  0
ENDTAB
  0
TABLE
  2
VIEW
  5
6
330
0
100
AcDbSymbolTable
 70
     0
  0
ENDTAB
  0
TABLE
  2
UCS
  5
7
330
0
100
AcDbSymbolTable
 70
     0
  0
ENDTAB
  0
TABLE
  2
APPID
  5
9
330
0
100
AcDbSymbolTable
 70
     1
  0
APPID
  5
12
330
9
100
AcDbSymbolTableRecord
100
AcDbRegAppTableRecord
  2
ACAD
 70
     0
  0
ENDTAB
  0
TABLE
  2
DIMSTYLE
  5
A
330
0
100
AcDbSymbolTable
 70
    13
  0
DIMSTYLE
105
27
330
A
100
AcDbSymbolTableRecord
100
AcDbDimStyleTableRecord
  2
ISO-25
 70
     0
  3

  4

  5

  6

  7

 40
1.0
 41
2.5
 42
0.625
 43
3.75
 44
1.25
 45
0.0
 46
0.0
 47
0.0
 48
0.0
140
2.5
141
2.5
142
0.0
143
0.03937
144
1.0
145
0.0
146
1.0
147
0.625
 71
     0
 72
     0
 73
     0
 74
     0
 75
     0
 76
     0
 77
     1
 78
     8
170
     0
171
     3
172
     1
173
     0
174
     0
175
     0
176
     0
177
     0
178
     0
270
     2
271
     2
272
     2
273
     2
274
     3
340
11
275
     0
280
     0
281
     0
282
     0
283
     0
284
     8
285
     0
286
     0
287
     3
288
     0
  0
DIMSTYLE
105
51
330
A
100
AcDbSymbolTableRecord
100
AcDbDimStyleTableRecord
  2
DEFAULT
 70
     0
  3
<>
  4

  5
CLOSED
  6

  7

 40
1.0
 41
4.375
 42
1.05
 43
0.38
 44
2.1
 45
0.0
 46
0.0
 47
0.0
 48
0.0
140
3.5
141
0.09
142
0.0
143
25.4
144
1.0
145
0.0
146
0.4
147
1.75
 71
     0
 72
     0
 73
     0
 74
     0
 75
     0
 76
     0
 77
     1
 78
     8
170
     0
171
     2
172
     0
173
     0
174
     0
175
     0
176
     0
177
     0
178
     2
270
     2
271
     2
272
     3
273
     2
274
     2
340
40
275
     0
280
     0
281
     0
282
     0
283
     1
284
     8
285
     0
286
     0
287
     3
288
     0
  0
DIMSTYLE
105
59
330
A
100
AcDbSymbolTableRecord
100
AcDbDimStyleTableRecord
  2
DEFAULTDIMENSIONSTYLE
 70
     0
  3
<>
  4

  5

  6

  7

 40
1.0
 41
2.5
 42
0.875
 43
0.38
 44
1.75
 45
0.0
 46
0.0
 47
0.0
 48
0.0
140
3.5
141
0.09
142
0.0
143
25.4
144
1.0
145
0.0
146
1.0
147
1.75
 71
     0
 72
     0
 73
     0
 74
     0
 75
     0
 76
     0
 77
     1
 78
     8
170
     0
171
     2
172
     0
173
     0
174
     0
175
     0
176
     0
177
     0
178
     2
270
     2
271
     2
272
     2
273
     2
274
     2
340
11
275
     0
280
     0
281
     0
282
     0
283
     1
284
     8
285
     0
286
     0
287
     3
288
     0
  0
DIMSTYLE
105
5A
102
{ACAD_REACTORS
330
3A5
330
3B2
330
3BF
330
3CC
330
3D9
330
3E6
330
3F3
102
}
330
A
100
AcDbSymbolTableRecord
100
AcDbDimStyleTableRecord
  2
FINDER
 70
     0
  3
<>
  4

  5

  6

  7

 40
1.0
 41
2.5
 42
3.888889
 43
0.38
 44
2.430556
 45
0.0
 46
0.0
 47
0.0
 48
0.0
140
3.5
141
0.09
142
0.0
143
25.4
144
1.0
145
0.0
146
1.0
147
2.430556
 71
     0
 72
     0
 73
     0
 74
     0
 75
     0
 76
     0
 77
     1
 78
     8
170
     0
171
     2
172
     0
173
     0
174
     0
175
     0
176
     0
177
     0
178
     2
270
     2
271
     2
272
     2
273
     2
274
     2
340
41
275
     0
280
     0
281
     0
282
     0
283
     1
284
     8
285
     0
286
     0
287
     3
288
     0
  0
DIMSTYLE
105
5B
330
A
100
AcDbSymbolTableRecord
100
AcDbDimStyleTableRecord
  2
ISO_FINDER
 70
     0
  3
<>
  4

  5
CLOSED
  6

  7

 40
1.0
 41
1.0
 42
1.05
 43
0.38
 44
1.75
 45
0.0
 46
0.0
 47
0.0
 48
0.0
140
3.5
141
0.09
142
0.0
143
25.4
144
1.0
145
0.0
146
0.6
147
3.5
 71
     0
 72
     0
 73
     0
 74
     0
 75
     0
 76
     0
 77
     1
 78
     8
170
     0
171
     2
172
     0
173
     0
174
     0
175
     0
176
     0
177
     0
178
     2
270
     2
271
     2
272
     3
273
     2
274
     2
340
42
275
     0
280
     0
281
     0
282
     0
283
     1
284
     8
285
     0
286
     0
287
     3
288
     0
  0
DIMSTYLE
105
5C
330
A
100
AcDbSymbolTableRecord
100
AcDbDimStyleTableRecord
  2
DSTYLE1
 70
     0
  3
<>
  4

  5

  6

  7

 40
1.0
 41
1.35
 42
0.35
 43
0.38
 44
1.166667
 45
0.0
 46
0.0
 47
0.0
 48
0.0
140
3.5
141
0.09
142
0.0
143
25.4
144
1.0
145
0.0
146
0.6
147
2.45
 71
     0
 72
     0
 73
     0
 74
     0
 75
     0
 76
     0
 77
     1
 78
     8
170
     0
171
     2
172
     0
173
     0
174
     0
175
     0
176
     0
177
     0
178
     2
270
     2
271
     2
272
     4
273
     2
274
     2
340
49
275
     0
280
     0
281
     0
282
     0
283
     1
284
     0
285
     0
286
     0
287
     3
288
     0
  0
DIMSTYLE
105
5D
330
A
100
AcDbSymbolTableRecord
100
AcDbDimStyleTableRecord
  2
DSTYLE2
 70
     0
  3
<>
  4

  5

  6

  7

 40
1.0
 41
1.35
 42
0.35
 43
0.38
 44
1.166667
 45
0.0
 46
0.0
 47
0.0
 48
0.0
140
3.5
141
0.09
142
0.0
143
25.4
144
1.0
145
0.0
146
0.6
147
2.45
 71
     0
 72
     0
 73
     0
 74
     0
 75
     0
 76
     0
 77
     1
 78
     8
170
     0
171
     2
172
     0
173
     0
174
     0
175
     0
176
     0
177
     0
178
     2
270
     2
271
     2
272
     4
273
     2
274
     2
340
49
275
     0
280
     0
281
     0
282
     0
283
     1
284
     0
285
     0
286
     0
287
     3
288
     0
  0
DIMSTYLE
105
5E
330
A
100
AcDbSymbolTableRecord
100
AcDbDimStyleTableRecord
  2
DSTYLE3
 70
     0
  3
<>
  4

  5

  6

  7

 40
1.0
 41
1.35
 42
0.233333
 43
0.38
 44
1.166667
 45
0.0
 46
0.0
 47
0.0
 48
0.0
140
3.5
141
0.09
142
0.0
143
25.4
144
1.0
145
0.0
146
0.6
147
2.45
 71
     0
 72
     0
 73
     0
 74
     0
 75
     0
 76
     0
 77
     1
 78
     8
170
     0
171
     2
172
     0
173
     0
174
     0
175
     0
176
     0
177
     0
178
     2
270
     2
271
     2
272
     4
273
     2
274
     2
340
49
275
     0
280
     0
281
     0
282
     0
283
     1
284
     0
285
     0
286
     0
287
     3
288
     0
  0
DIMSTYLE
105
5F
330
A
100
AcDbSymbolTableRecord
100
AcDbDimStyleTableRecord
  2
DSTYLE4
 70
     0
  3
<>
  4

  5

  6

  7

 40
1.0
 41
1.35
 42
0.233333
 43
0.38
 44
1.166667
 45
0.0
 46
0.0
 47
0.0
 48
0.0
140
3.5
141
0.09
142
0.0
143
25.4
144
1.0
145
0.0
146
0.6
147
2.45
 71
     0
 72
     0
 73
     0
 74
     0
 75
     0
 76
     0
 77
     1
 78
     8
170
     0
171
     2
172
     0
173
     0
174
     0
175
     0
176
     0
177
     0
178
     2
270
     2
271
     2
272
     4
273
     2
274
     2
340
49
275
     0
280
     0
281
     0
282
     0
283
     1
284
     0
285
     0
286
     0
287
     3
288
     0
  0
DIMSTYLE
105
60
330
A
100
AcDbSymbolTableRecord
100
AcDbDimStyleTableRecord
  2
DSTYLE5
 70
     0
  3
<>
  4

  5

  6

  7

 40
1.0
 41
1.35
 42
0.000147
 43
0.38
 44
1.166667
 45
0.0
 46
0.0
 47
0.0
 48
0.0
140
3.5
141
0.09
142
0.0
143
25.4
144
1.0
145
0.0
146
0.6
147
2.45
 71
     0
 72
     0
 73
     0
 74
     0
 75
     0
 76
     0
 77
     1
 78
     8
170
     0
171
     2
172
     0
173
     0
174
     0
175
     0
176
     0
177
     0
178
     2
270
     2
271
     2
272
     4
273
     2
274
     2
340
49
275
     0
280
     0
281
     0
282
     0
283
     1
284
     0
285
     0
286
     0
287
     3
288
     0
  0
DIMSTYLE
105
61
330
A
100
AcDbSymbolTableRecord
100
AcDbDimStyleTableRecord
  2
ST0
 70
     0
  3
<>
  4

  5

  6

  7

 40
1.0
 41
1.4
 42
0.6125
 43
0.38
 44
0.6125
 45
0.0
 46
0.0
 47
0.0
 48
0.0
140
3.5
141
0.09
142
0.0
143
25.4
144
1.0
145
0.0
146
0.5
147
1.458333
 71
     0
 72
     0
 73
     0
 74
     0
 75
     0
 76
     0
 77
     1
 78
     8
170
     0
171
     2
172
     0
173
     0
174
     0
175
     0
176
     0
177
     0
178
     2
270
     2
271
     1
272
     2
273
     2
274
     2
340
4B
275
     0
280
     0
281
     0
282
     0
283
     1
284
     0
285
     0
286
     0
287
     3
288
     0
  0
DIMSTYLE
105
62
330
A
100
AcDbSymbolTableRecord
100
AcDbDimStyleTableRecord
  2
PUNTI
 70
     0
  3
<>
  4

  5
DOT
  6

  7

 40
1.0
 41
1.05
 42
0.6125
 43
0.38
 44
0.30625
 45
0.0
 46
0.0
 47
0.0
 48
0.0
140
3.5
141
0.09
142
0.0
143
25.4
144
1.0
145
0.0
146
0.5
147
0.8575
 71
     0
 72
     0
 73
     0
 74
     0
 75
     0
 76
     0
 77
     1
 78
     8
170
     0
171
     2
172
     0
173
     0
174
     0
175
     0
176
     0
177
     0
178
     2
270
     2
271
     4
272
     4
273
     2
274
     2
340
4B
275
     0
280
     0
281
     0
282
     0
283
     1
284
     0
285
     0
286
     0
287
     3
288
     0
  0
DIMSTYLE
105
6B
330
A
100
AcDbSymbolTableRecord
100
AcDbDimStyleTableRecord
  2
DEFAULT__ISO_
 70
     0
  3
<>
  4

  5

  6

  7

 40
1.0
 41
1.1
 42
0.35
 43
0.38
 44
0.0
 45
0.0
 46
0.0
 47
0.0
 48
0.0
140
3.5
141
0.09
142
0.0
143
25.4
144
1.0
145
0.0
146
3.5052
147
0.7
 71
     0
 72
     0
 73
     0
 74
     0
 75
     0
 76
     0
 77
     1
 78
     8
170
     0
171
     2
172
     0
173
     0
174
     0
175
     0
176
     0
177
     0
178
     2
270
     2
271
     3
272
     3
273
     2
274
     2
340
50
275
     0
280
     0
281
     0
282
     0
283
     1
284
     0
285
     0
286
     0
287
     3
288
     0
  0
ENDTAB
  0
TABLE
  2
BLOCK_RECORD
  5
1
330
0
100
AcDbSymbolTable
 70
    11
  0
BLOCK_RECORD
  5
1F
330
1
100
AcDbSymbolTableRecord
100
AcDbBlockTableRecord
  2
*MODEL_SPACE
  0
BLOCK_RECORD
  5
1B
330
1
100
AcDbSymbolTableRecord
100
AcDbBlockTableRecord
  2
*PAPER_SPACE
  0
BLOCK_RECORD
  5
52
330
1
100
AcDbSymbolTableRecord
100
AcDbBlockTableRecord
  2
_CLOSED
  0
BLOCK_RECORD
  5
63
330
1
100
AcDbSymbolTableRecord
100
AcDbBlockTableRecord
  2
_DOT
  0
BLOCK_RECORD
  5
3A6
330
1
100
AcDbSymbolTableRecord
100
AcDbBlockTableRecord
  2
*D3
  0
BLOCK_RECORD
  5
3B3
330
1
100
AcDbSymbolTableRecord
100
AcDbBlockTableRecord
  2
*D4
  0
BLOCK_RECORD
  5
3C0
330
1
100
AcDbSymbolTableRecord
100
AcDbBlockTableRecord
  2
*D5
  0
BLOCK_RECORD
  5
3CD
330
1
100
AcDbSymbolTableRecord
100
AcDbBlockTableRecord
  2
*D6
  0
BLOCK_RECORD
  5
3DA
330
1
100
AcDbSymbolTableRecord
100
AcDbBlockTableRecord
  2
*D7
  0
BLOCK_RECORD
  5
3E7
330
1
100
AcDbSymbolTableRecord
100
AcDbBlockTableRecord
  2
*D8
  0
BLOCK_RECORD
  5
3F4
330
1
100
AcDbSymbolTableRecord
100
AcDbBlockTableRecord
  2
*D9
  0
BLOCK_RECORD
  5
400
330
1
100
AcDbSymbolTableRecord
100
AcDbBlockTableRecord
  2
LW_POLYLINE_11
  0
ENDTAB
  0
ENDSEC
  0
SECTION
  2
BLOCKS
  0
BLOCK
  5
20
330
1F
100
AcDbEntity
  8
0
100
AcDbBlockBegin
  2
*MODEL_SPACE
 70
     0
 71
     0
 10
0.0
 20
0.0
 30
0.0
  3
*MODEL_SPACE
  1

  0
ENDBLK
  5
21
330
1F
100
AcDbEntity
  8
0
100
AcDbBlockEnd
  0
BLOCK
  5
1C
330
1B
100
AcDbEntity
 67
     1
  8
0
100
AcDbBlockBegin
  2
*PAPER_SPACE
 70
     0
 71
     0
 10
0.0
 20
0.0
 30
0.0
  3
*PAPER_SPACE
  1

  0
ENDBLK
  5
1D
330
1B
100
AcDbEntity
 67
     1
  8
0
100
AcDbBlockEnd
  0
BLOCK
  5
53
330
52
100
AcDbEntity
  8
0
100
AcDbBlockBegin
  2
_CLOSED
 70
     0
 71
     0
 10
0.0
 20
0.0
 30
0.0
  3
_CLOSED
  1

  0
LINE
  5
55
330
52
100
AcDbEntity
  8
0
  6
BYBLOCK
 62
     0
100
AcDbLine
 10
-1.0
 20
0.166667
 30
0.0
 11
0.0
 21
0.0
 31
0.0
  0
LINE
  5
56
330
52
100
AcDbEntity
  8
0
  6
BYBLOCK
 62
     0
100
AcDbLine
 10
0.0
 20
0.0
 30
0.0
 11
-1.0
 21
-0.166667
 31
0.0
  0
LINE
  5
57
330
52
100
AcDbEntity
  8
0
  6
BYBLOCK
 62
     0
100
AcDbLine
 10
-1.0
 20
0.166667
 30
0.0
 11
-1.0
 21
-0.166667
 31
0.0
  0
LINE
  5
58
330
52
100
AcDbEntity
  8
0
  6
BYBLOCK
 62
     0
100
AcDbLine
 10
0.0
 20
0.0
 30
0.0
 11
-1.0
 21
0.0
 31
0.0
  0
ENDBLK
  5
54
330
52
100
AcDbEntity
  8
0
100
AcDbBlockEnd
  0
BLOCK
  5
64
330
63
100
AcDbEntity
  8
0
100
AcDbBlockBegin
  2
_DOT
 70
     0
 71
     0
 10
0.0
 20
0.0
 30
0.0
  3
_DOT
  1

  0
POLYLINE
  5
66
330
63
100
AcDbEntity
  8
0
  6
BYBLOCK
 62
     0
100
AcDb2dPolyline
 66
     1
 10
0.0
 20
0.0
 30
0.0
 70
     1
 40
0.5
 41
0.5
  0
VERTEX
  5
69
330
66
100
AcDbEntity
  8
0
  6
BYBLOCK
 62
     0
100
AcDbVertex
100
AcDb2dVertex
 10
-0.25
 20
0.0
 30
0.0
 42
1.0
  0
VERTEX
  5
6A
330
66
100
AcDbEntity
  8
0
  6
BYBLOCK
 62
     0
100
AcDbVertex
100
AcDb2dVertex
 10
0.25
 20
0.0
 30
0.0
 42
1.0
  0
SEQEND
  5
68
330
66
100
AcDbEntity
  8
0
  6
BYBLOCK
 62
     0
  0
LINE
  5
67
330
63
100
AcDbEntity
  8
0
  6
BYBLOCK
 62
     0
100
AcDbLine
 10
-0.5
 20
0.0
 30
0.0
 11
-1.0
 21
0.0
 31
0.0
  0
ENDBLK
  5
65
330
63
100
AcDbEntity
  8
0
100
AcDbBlockEnd
  0
BLOCK
  5
3B0
330
3A6
100
AcDbEntity
  8
0
100
AcDbBlockBegin
  2
*D3
 70
     1
 71
     0
 10
0.0
 20
0.0
 30
0.0
  3
*D3
  1

  0
LINE
  5
3A7
330
3A6
100
AcDbEntity
  8
DIM
  6
CONTINUOUS
 62
     3
100
AcDbLine
 10
39.597711
 20
190.795437
 30
0.0
 11
39.597711
 21
201.074385
 31
0.0
  0
LINE
  5
3A8
330
3A6
100
AcDbEntity
  8
DIM
  6
CONTINUOUS
 62
     3
100
AcDbLine
 10
74.597711
 20
190.795437
 30
0.0
 11
74.597711
 21
201.074385
 31
0.0
  0
LINE
  5
3A9
330
3A6
100
AcDbEntity
  8
DIM
  6
CONTINUOUS
 62
     3
100
AcDbLine
 10
40.797711
 20
198.643829
 30
0.0
 11
73.397711
 21
198.643829
 31
0.0
  0
INSERT
  5
3AA
330
3A6
100
AcDbEntity
  8
DIM
 62
     3
100
AcDbBlockReference
  2
_CLOSED
 10
39.597711
 20
198.643829
 30
0.0
 41
1.2
 42
1.2
 43
1.2
 50
180.0
  0
INSERT
  5
3AB
330
3A6
100
AcDbEntity
  8
DIM
 62
     3
100
AcDbBlockReference
  2
_CLOSED
 10
74.597711
 20
198.643829
 30
0.0
 41
1.2
 42
1.2
 43
1.2
  0
MTEXT
  5
3AC
330
3A6
100
AcDbEntity
  8
DIM
 62
     2
100
AcDbMText
 10
57.097711
 20
202.861135
 30
0.0
 40
3.5
 41
0.0
 71
     5
 72
     1
  1
\A1;35
  7
FINDER
  0
POINT
  5
3AD
330
3A6
100
AcDbEntity
  8
DEFPOINTS
 62
     0
100
AcDbPoint
 10
39.597711
 20
189.684326
 30
0.0
  0
POINT
  5
3AE
330
3A6
100
AcDbEntity
  8
DEFPOINTS
 62
     0
100
AcDbPoint
 10
74.597711
 20
189.684326
 30
0.0
  0
POINT
  5
3AF
330
3A6
100
AcDbEntity
  8
DEFPOINTS
 62
     0
100
AcDbPoint
 10
74.597711
 20
198.643829
 30
0.0
  0
ENDBLK
  5
3B1
330
3A6
100
AcDbEntity
  8
0
100
AcDbBlockEnd
  0
BLOCK
  5
3BD
330
3B3
100
AcDbEntity
  8
0
100
AcDbBlockBegin
  2
*D4
 70
     1
 71
     0
 10
0.0
 20
0.0
 30
0.0
  3
*D4
  1

  0
LINE
  5
3B4
330
3B3
100
AcDbEntity
  8
DIM
  6
CONTINUOUS
 62
     3
100
AcDbLine
 10
95.549941
 20
180.795437
 30
0.0
 11
95.549941
 21
201.074385
 31
0.0
  0
LINE
  5
3B5
330
3B3
100
AcDbEntity
  8
DIM
  6
CONTINUOUS
 62
     3
100
AcDbLine
 10
156.349941
 20
172.295437
 30
0.0
 11
156.349941
 21
201.074385
 31
0.0
  0
LINE
  5
3B6
330
3B3
100
AcDbEntity
  8
DIM
  6
CONTINUOUS
 62
     3
100
AcDbLine
 10
96.749941
 20
198.643829
 30
0.0
 11
155.149941
 21
198.643829
 31
0.0
  0
INSERT
  5
3B7
330
3B3
100
AcDbEntity
  8
DIM
 62
     3
100
AcDbBlockReference
  2
_CLOSED
 10
95.549941
 20
198.643829
 30
0.0
 41
1.2
 42
1.2
 43
1.2
 50
180.0
  0
INSERT
  5
3B8
330
3B3
100
AcDbEntity
  8
DIM
 62
     3
100
AcDbBlockReference
  2
_CLOSED
 10
156.349941
 20
198.643829
 30
0.0
 41
1.2
 42
1.2
 43
1.2
  0
MTEXT
  5
3B9
330
3B3
100
AcDbEntity
  8
DIM
 62
     2
100
AcDbMText
 10
125.949941
 20
202.861135
 30
0.0
 40
3.5
 41
0.0
 71
     5
 72
     1
  1
\A1;60.8
  7
FINDER
  0
POINT
  5
3BA
330
3B3
100
AcDbEntity
  8
DEFPOINTS
 62
     0
100
AcDbPoint
 10
95.549941
 20
179.684326
 30
0.0
  0
POINT
  5
3BB
330
3B3
100
AcDbEntity
  8
DEFPOINTS
 62
     0
100
AcDbPoint
 10
156.349941
 20
171.184326
 30
0.0
  0
POINT
  5
3BC
330
3B3
100
AcDbEntity
  8
DEFPOINTS
 62
     0
100
AcDbPoint
 10
156.349941
 20
198.643829
 30
0.0
  0
ENDBLK
  5
3BE
330
3B3
100
AcDbEntity
  8
0
100
AcDbBlockEnd
  0
BLOCK
  5
3CA
330
3C0
100
AcDbEntity
  8
0
100
AcDbBlockBegin
  2
*D5
 70
     1
 71
     0
 10
0.0
 20
0.0
 30
0.0
  3
*D5
  1

  0
LINE
  5
3C1
330
3C0
100
AcDbEntity
  8
DIM
  6
CONTINUOUS
 62
     3
100
AcDbLine
 10
124.461052
 20
191.684326
 30
0.0
 11
177.068923
 21
191.684326
 31
0.0
  0
LINE
  5
3C2
330
3C0
100
AcDbEntity
  8
DIM
  6
CONTINUOUS
 62
     3
100
AcDbLine
 10
124.461052
 20
107.684326
 30
0.0
 11
177.068923
 21
107.684326
 31
0.0
  0
LINE
  5
3C3
330
3C0
100
AcDbEntity
  8
DIM
  6
CONTINUOUS
 62
     3
100
AcDbLine
 10
174.638367
 20
190.484326
 30
0.0
 11
174.638367
 21
108.884326
 31
0.0
  0
INSERT
  5
3C4
330
3C0
100
AcDbEntity
  8
DIM
 62
     3
100
AcDbBlockReference
  2
_CLOSED
 10
174.638367
 20
191.684326
 30
0.0
 41
1.2
 42
1.2
 43
1.2
 50
90.0
  0
INSERT
  5
3C5
330
3C0
100
AcDbEntity
  8
DIM
 62
     3
100
AcDbBlockReference
  2
_CLOSED
 10
174.638367
 20
107.684326
 30
0.0
 41
1.2
 42
1.2
 43
1.2
 50
270.0
  0
MTEXT
  5
3C6
330
3C0
100
AcDbEntity
  8
DIM
 62
     2
100
AcDbMText
 10
170.421061
 20
149.684326
 30
0.0
 40
3.5
 41
0.0
 71
     5
 72
     1
  1
\A1;84
  7
FINDER
 11
0.0
 21
1.0
 31
0.0
  0
POINT
  5
3C7
330
3C0
100
AcDbEntity
  8
DEFPOINTS
 62
     0
100
AcDbPoint
 10
123.349941
 20
191.684326
 30
0.0
  0
POINT
  5
3C8
330
3C0
100
AcDbEntity
  8
DEFPOINTS
 62
     0
100
AcDbPoint
 10
123.349941
 20
107.684326
 30
0.0
  0
POINT
  5
3C9
330
3C0
100
AcDbEntity
  8
DEFPOINTS
 62
     0
100
AcDbPoint
 10
174.638367
 20
107.684326
 30
0.0
  0
ENDBLK
  5
3CB
330
3C0
100
AcDbEntity
  8
0
100
AcDbBlockEnd
  0
BLOCK
  5
3D7
330
3CD
100
AcDbEntity
  8
0
100
AcDbBlockBegin
  2
*D6
 70
     1
 71
     0
 10
0.0
 20
0.0
 30
0.0
  3
*D6
  1

  0
LINE
  5
3CE
330
3CD
100
AcDbEntity
  8
DIM
  6
CONTINUOUS
 62
     3
100
AcDbLine
 10
155.461052
 20
127.184326
 30
0.0
 11
166.926589
 21
127.184326
 31
0.0
  0
LINE
  5
3CF
330
3CD
100
AcDbEntity
  8
DIM
  6
CONTINUOUS
 62
     3
100
AcDbLine
 10
149.961052
 20
172.184326
 30
0.0
 11
166.926589
 21
172.184326
 31
0.0
  0
LINE
  5
3D0
330
3CD
100
AcDbEntity
  8
DIM
  6
CONTINUOUS
 62
     3
100
AcDbLine
 10
164.496033
 20
128.384326
 30
0.0
 11
164.496033
 21
170.984326
 31
0.0
  0
INSERT
  5
3D1
330
3CD
100
AcDbEntity
  8
DIM
 62
     3
100
AcDbBlockReference
  2
_CLOSED
 10
164.496033
 20
127.184326
 30
0.0
 41
1.2
 42
1.2
 43
1.2
 50
270.0
  0
INSERT
  5
3D2
330
3CD
100
AcDbEntity
  8
DIM
 62
     3
100
AcDbBlockReference
  2
_CLOSED
 10
164.496033
 20
172.184326
 30
0.0
 41
1.2
 42
1.2
 43
1.2
 50
90.0
  0
MTEXT
  5
3D3
330
3CD
100
AcDbEntity
  8
DIM
 62
     2
100
AcDbMText
 10
160.285727
 20
149.684326
 30
0.0
 40
3.5
 41
0.0
 71
     5
 72
     1
  1
\A1;45
  7
FINDER
 11
0.0
 21
1.0
 31
0.0
  0
POINT
  5
3D4
330
3CD
100
AcDbEntity
  8
DEFPOINTS
 62
     0
100
AcDbPoint
 10
154.349941
 20
127.184326
 30
0.0
  0
POINT
  5
3D5
330
3CD
100
AcDbEntity
  8
DEFPOINTS
 62
     0
100
AcDbPoint
 10
148.849941
 20
172.184326
 30
0.0
  0
POINT
  5
3D6
330
3CD
100
AcDbEntity
  8
DEFPOINTS
 62
     0
100
AcDbPoint
 10
164.496033
 20
172.184326
 30
0.0
  0
ENDBLK
  5
3D8
330
3CD
100
AcDbEntity
  8
0
100
AcDbBlockEnd
  0
BLOCK
  5
3E4
330
3DA
100
AcDbEntity
  8
0
100
AcDbBlockBegin
  2
*D7
 70
     1
 71
     0
 10
0.0
 20
0.0
 30
0.0
  3
*D7
  1

  0
LINE
  5
3DB
330
3DA
100
AcDbEntity
  8
DIM
  6
CONTINUOUS
 62
     3
100
AcDbLine
 10
94.938829
 20
102.834326
 30
0.0
 11
87.815652
 21
102.834326
 31
0.0
  0
LINE
  5
3DC
330
3DA
100
AcDbEntity
  8
DIM
  6
CONTINUOUS
 62
     3
100
AcDbLine
 10
98.138829
 20
133.384341
 30
0.0
 11
87.815652
 21
133.384341
 31
0.0
  0
LINE
  5
3DD
330
3DA
100
AcDbEntity
  8
DIM
  6
CONTINUOUS
 62
     3
100
AcDbLine
 10
90.246208
 20
104.034326
 30
0.0
 11
90.246208
 21
132.184341
 31
0.0
  0
INSERT
  5
3DE
330
3DA
100
AcDbEntity
  8
DIM
 62
     3
100
AcDbBlockReference
  2
_CLOSED
 10
90.246208
 20
102.834326
 30
0.0
 41
1.2
 42
1.2
 43
1.2
 50
270.0
  0
INSERT
  5
3DF
330
3DA
100
AcDbEntity
  8
DIM
 62
     3
100
AcDbBlockReference
  2
_CLOSED
 10
90.246208
 20
133.384341
 30
0.0
 41
1.2
 42
1.2
 43
1.2
 50
90.0
  0
MTEXT
  5
3E0
330
3DA
100
AcDbEntity
  8
DIM
 62
     2
100
AcDbMText
 10
86.028902
 20
118.109334
 30
0.0
 40
3.5
 41
0.0
 71
     5
 72
     1
  1
\A1;30.5
  7
FINDER
 11
0.0
 21
1.0
 31
0.0
  0
POINT
  5
3E1
330
3DA
100
AcDbEntity
  8
DEFPOINTS
 62
     0
100
AcDbPoint
 10
96.04994
 20
102.834326
 30
0.0
  0
POINT
  5
3E2
330
3DA
100
AcDbEntity
  8
DEFPOINTS
 62
     0
100
AcDbPoint
 10
99.24994
 20
133.384341
 30
0.0
  0
POINT
  5
3E3
330
3DA
100
AcDbEntity
  8
DEFPOINTS
 62
     0
100
AcDbPoint
 10
90.246208
 20
133.384341
 30
0.0
  0
ENDBLK
  5
3E5
330
3DA
100
AcDbEntity
  8
0
100
AcDbBlockEnd
  0
BLOCK
  5
3F1
330
3E7
100
AcDbEntity
  8
0
100
AcDbBlockBegin
  2
*D8
 70
     1
 71
     0
 10
0.0
 20
0.0
 30
0.0
  3
*D8
  1

  0
LINE
  5
3E8
330
3E7
100
AcDbEntity
  8
DIM
  6
CONTINUOUS
 62
     3
100
AcDbLine
 10
98.138829
 20
133.384341
 30
0.0
 11
87.815652
 21
133.384341
 31
0.0
  0
LINE
  5
3E9
330
3E7
100
AcDbEntity
  8
DIM
  6
CONTINUOUS
 62
     3
100
AcDbLine
 10
98.08883
 20
167.184326
 30
0.0
 11
87.815652
 21
167.184326
 31
0.0
  0
LINE
  5
3EA
330
3E7
100
AcDbEntity
  8
DIM
  6
CONTINUOUS
 62
     3
100
AcDbLine
 10
90.246208
 20
134.584341
 30
0.0
 11
90.246208
 21
165.984326
 31
0.0
  0
INSERT
  5
3EB
330
3E7
100
AcDbEntity
  8
DIM
 62
     3
100
AcDbBlockReference
  2
_CLOSED
 10
90.246208
 20
133.384341
 30
0.0
 41
1.2
 42
1.2
 43
1.2
 50
270.0
  0
INSERT
  5
3EC
330
3E7
100
AcDbEntity
  8
DIM
 62
     3
100
AcDbBlockReference
  2
_CLOSED
 10
90.246208
 20
167.184326
 30
0.0
 41
1.2
 42
1.2
 43
1.2
 50
90.0
  0
MTEXT
  5
3ED
330
3E7
100
AcDbEntity
  8
DIM
 62
     2
100
AcDbMText
 10
86.028902
 20
150.284334
 30
0.0
 40
3.5
 41
0.0
 71
     5
 72
     1
  1
\A1;33.8
  7
FINDER
 11
0.0
 21
1.0
 31
0.0
  0
POINT
  5
3EE
330
3E7
100
AcDbEntity
  8
DEFPOINTS
 62
     0
100
AcDbPoint
 10
99.24994
 20
133.384341
 30
0.0
  0
POINT
  5
3EF
330
3E7
100
AcDbEntity
  8
DEFPOINTS
 62
     0
100
AcDbPoint
 10
99.199941
 20
167.184326
 30
0.0
  0
POINT
  5
3F0
330
3E7
100
AcDbEntity
  8
DEFPOINTS
 62
     0
100
AcDbPoint
 10
90.246208
 20
167.184326
 30
0.0
  0
ENDBLK
  5
3F2
330
3E7
100
AcDbEntity
  8
0
100
AcDbBlockEnd
  0
BLOCK
  5
3FE
330
3F4
100
AcDbEntity
  8
0
100
AcDbBlockBegin
  2
*D9
 70
     1
 71
     0
 10
0.0
 20
0.0
 30
0.0
  3
*D9
  1

  0
LINE
  5
3F5
330
3F4
100
AcDbEntity
  8
DIM
  6
CONTINUOUS
 62
     3
100
AcDbLine
 10
38.8866
 20
191.684326
 30
0.0
 11
30.489724
 21
191.684326
 31
0.0
  0
LINE
  5
3F6
330
3F4
100
AcDbEntity
  8
DIM
  6
CONTINUOUS
 62
     3
100
AcDbLine
 10
55.977281
 20
102.834339
 30
0.0
 11
30.489724
 21
102.834339
 31
0.0
  0
LINE
  5
3F7
330
3F4
100
AcDbEntity
  8
DIM
  6
CONTINUOUS
 62
     3
100
AcDbLine
 10
32.92028
 20
190.484326
 30
0.0
 11
32.92028
 21
104.034339
 31
0.0
  0
INSERT
  5
3F8
330
3F4
100
AcDbEntity
  8
DIM
 62
     3
100
AcDbBlockReference
  2
_CLOSED
 10
32.92028
 20
191.684326
 30
0.0
 41
1.2
 42
1.2
 43
1.2
 50
90.0
  0
INSERT
  5
3F9
330
3F4
100
AcDbEntity
  8
DIM
 62
     3
100
AcDbBlockReference
  2
_CLOSED
 10
32.92028
 20
102.834339
 30
0.0
 41
1.2
 42
1.2
 43
1.2
 50
270.0
  0
MTEXT
  5
3FA
330
3F4
100
AcDbEntity
  8
DIM
 62
     2
100
AcDbMText
 10
28.702974
 20
147.259333
 30
0.0
 40
3.5
 41
0.0
 71
     5
 72
     1
  1
\A1;88.8
  7
FINDER
 11
7.997105718399909E-17
 21
1.0
 31
0.0
  0
POINT
  5
3FB
330
3F4
100
AcDbEntity
  8
DEFPOINTS
 62
     0
100
AcDbPoint
 10
39.997711
 20
191.684326
 30
0.0
  0
POINT
  5
3FC
330
3F4
100
AcDbEntity
  8
DEFPOINTS
 62
     0
100
AcDbPoint
 10
57.088392
 20
102.834339
 30
0.0
  0
POINT
  5
3FD
330
3F4
100
AcDbEntity
  8
DEFPOINTS
 62
     0
100
AcDbPoint
 10
32.92028
 20
102.834339
 30
0.0
  0
ENDBLK
  5
3FF
330
3F4
100
AcDbEntity
  8
0
100
AcDbBlockEnd
  0
BLOCK
  5
406
330
400
100
AcDbEntity
  8
0
100
AcDbBlockBegin
  2
LW_POLYLINE_11
 70
     0
 71
     0
 10
200.000031
 20
287.000183
 30
0.0
  3
LW_POLYLINE_11
  1

  0
LINE
  5
401
330
400
100
AcDbEntity
  8
CARTOUCHE
  6
CONTINUOUS
 62
     0
100
AcDbLine
 10
200.000031
 20
287.000183
 30
0.0
 11
200.000031
 21
0.000183
 31
0.0
  0
LINE
  5
402
330
400
100
AcDbEntity
  8
CARTOUCHE
  6
CONTINUOUS
 62
     0
100
AcDbLine
 10
200.000031
 20
0.000183
 30
0.0
 11
-0.000006
 21
0.0
 31
0.0
  0
LINE
  5
403
330
400
100
AcDbEntity
  8
CARTOUCHE
  6
CONTINUOUS
 62
     0
100
AcDbLine
 10
-0.000006
 20
0.0
 30
0.0
 11
-0.000006
 21
287.0
 31
0.0
  0
LINE
  5
404
330
400
100
AcDbEntity
  8
CARTOUCHE
  6
CONTINUOUS
 62
     0
100
AcDbLine
 10
-0.000006
 20
287.0
 30
0.0
 11
199.999768
 21
287.000183
 31
0.0
  0
LINE
  5
405
330
400
100
AcDbEntity
  8
CARTOUCHE
  6
CONTINUOUS
 62
     0
100
AcDbLine
 10
199.999768
 20
287.000183
 30
0.0
 11
200.000031
 21
287.000183
 31
0.0
  0
ENDBLK
  5
407
330
400
100
AcDbEntity
  8
0
100
AcDbBlockEnd
  0
ENDSEC
  0
SECTION
  2
ENTITIES
  0
LINE
  5
6C
330
1F
100
AcDbEntity
  8
CARTOUCHE
  6
CONTINUOUS
 62
     7
100
AcDbLine
 10
200.000037
 20
5.000793
 30
0.0
 11
0.0
 21
5.001068
 31
0.0
  0
LINE
  5
6D
330
1F
100
AcDbEntity
  8
CARTOUCHE
  6
CONTINUOUS
 62
     7
100
AcDbLine
 10
45.000001
 20
31.845393
 30
0.0
 11
45.000001
 21
0.000041
 31
0.0
  0
TEXT
  5
6E
330
1F
100
AcDbEntity
  8
CARTOUCHE
  6
CONTINUOUS
 62
     7
100
AcDbText
 10
114.72242
 20
27.435966
 30
0.0
 40
1.8
  1
PRODUCT TYPE
 50
359.999908
  7
FINDER
100
AcDbText
  0
TEXT
  5
6F
330
1F
100
AcDbEntity
  8
CARTOUCHE
  6
CONTINUOUS
 62
     2
100
AcDbText
 10
14.493931
 20
1.600975
 30
0.0
 40
1.8
  1
MOD. UT 902
 50
359.999908
  7
FINDER
100
AcDbText
  0
LINE
  5
70
330
1F
100
AcDbEntity
  8
CARTOUCHE
  6
CONTINUOUS
 62
     7
100
AcDbLine
 10
200.000008
 20
15.002808
 30
0.0
 11
44.999973
 21
15.003045
 31
0.0
  0
TEXT
  5
71
330
1F
100
AcDbEntity
  8
CARTOUCHE
  6
CONTINUOUS
 62
     7
100
AcDbText
 10
68.494064
 20
11.624306
 30
0.0
 40
1.8
  1
REV.
 50
359.999908
  7
FINDER
100
AcDbText
  0
TEXT
  5
72
330
1F
100
AcDbEntity
  8
CARTOUCHE
  6
CONTINUOUS
 62
     1
100
AcDbText
 10
70.188141
 20
6.776279
 30
0.0
 40
2.1
  1
0
 50
359.999908
  7
FINDER
100
AcDbText
  0
LINE
  5
73
330
1F
100
AcDbEntity
  8
CARTOUCHE
  6
CONTINUOUS
 62
     7
100
AcDbLine
 10
96.666651
 20
15.002966
 30
0.0
 11
96.666651
 21
5.001024
 31
0.0
  0
LINE
  5
74
330
1F
100
AcDbEntity
  8
CARTOUCHE
  6
CONTINUOUS
 62
     4
100
AcDbLine
 10
7.362923
 20
22.655485
 30
0.0
 11
7.362923
 21
16.810194
 31
0.0
  0
LINE
  5
75
330
1F
100
AcDbEntity
  8
CARTOUCHE
  6
CONTINUOUS
 62
     4
100
AcDbLine
 10
7.362923
 20
16.810194
 30
0.0
 11
5.887823
 21
18.410844
 31
0.0
  0
LINE
  5
76
330
1F
100
AcDbEntity
  8
CARTOUCHE
  6
CONTINUOUS
 62
     4
100
AcDbLine
 10
5.887823
 20
18.410844
 30
0.0
 11
6.116423
 21
18.410844
 31
0.0
  0
LINE
  5
77
330
1F
100
AcDbEntity
  8
CARTOUCHE
  6
CONTINUOUS
 62
     4
100
AcDbLine
 10
6.413873
 20
18.766514
 30
0.0
 11
6.413873
 21
22.652621
 31
0.0
  0
LINE
  5
78
330
1F
100
AcDbEntity
  8
CARTOUCHE
  6
CONTINUOUS
 62
     4
100
AcDbLine
 10
5.464823
 20
22.399506
 30
0.0
 11
5.464823
 21
19.428744
 31
0.0
  0
LINE
  5
79
330
1F
100
AcDbEntity
  8
CARTOUCHE
  6
CONTINUOUS
 62
     4
100
AcDbLine
 10
5.464823
 20
19.428744
 30
0.0
 11
3.174776
 21
19.428744
 31
0.0
  0
LINE
  5
7A
330
1F
100
AcDbEntity
  8
CARTOUCHE
  6
CONTINUOUS
 62
     4
100
AcDbLine
 10
3.176313
 20
18.410844
 30
0.0
 11
4.378523
 21
18.410844
 31
0.0
  0
LINE
  5
7B
330
1F
100
AcDbEntity
  8
CARTOUCHE
  6
CONTINUOUS
 62
     4
100
AcDbLine
 10
4.378523
 20
18.410844
 30
0.0
 11
7.173699
 21
15.668328
 31
0.0
  0
LINE
  5
7C
330
1F
100
AcDbEntity
  8
CARTOUCHE
  6
CONTINUOUS
 62
     4
100
AcDbLine
 10
8.323223
 20
16.169844
 30
0.0
 11
8.323223
 21
19.508394
 31
0.0
  0
LINE
  5
7D
330
1F
100
AcDbEntity
  8
CARTOUCHE
  6
CONTINUOUS
 62
     4
100
AcDbLine
 10
8.323223
 20
19.508394
 30
0.0
 11
9.455423
 21
19.508394
 31
0.0
  0
LINE
  5
7E
330
1F
100
AcDbEntity
  8
CARTOUCHE
  6
CONTINUOUS
 62
     4
100
AcDbLine
 10
9.353656
 20
20.503344
 30
0.0
 11
8.323223
 21
20.503344
 31
0.0
  0
LINE
  5
7F
330
1F
100
AcDbEntity
  8
CARTOUCHE
  6
CONTINUOUS
 62
     4
100
AcDbLine
 10
8.323223
 20
20.503344
 30
0.0
 11
8.323223
 21
22.404134
 31
0.0
  0
LINE
  5
80
330
1F
100
AcDbEntity
  8
CARTOUCHE
  6
CONTINUOUS
 62
     4
100
AcDbLine
 10
23.108423
 20
17.479034
 30
0.0
 11
23.108423
 21
15.632094
 31
0.0
  0
LINE
  5
81
330
1F
100
AcDbEntity
  8
CARTOUCHE
  6
CONTINUOUS
 62
     4
100
AcDbLine
 10
23.108423
 20
15.632094
 30
0.0
 11
24.892223
 21
15.632094
 31
0.0
  0
LINE
  5
82
330
1F
100
AcDbEntity
  8
CARTOUCHE
  6
CONTINUOUS
 62
     4
100
AcDbLine
 10
24.892223
 20
15.632094
 30
0.0
 11
24.892223
 21
18.324553
 31
0.0
  0
LINE
  5
83
330
1F
100
AcDbEntity
  8
CARTOUCHE
  6
CONTINUOUS
 62
     4
100
AcDbLine
 10
21.289973
 20
19.074144
 30
0.0
 11
21.289973
 21
19.508394
 31
0.0
  0
LINE
  5
84
330
1F
100
AcDbEntity
  8
CARTOUCHE
  6
CONTINUOUS
 62
     4
100
AcDbLine
 10
21.289973
 20
19.508394
 30
0.0
 11
19.494923
 21
19.508394
 31
0.0
  0
LINE
  5
85
330
1F
100
AcDbEntity
  8
CARTOUCHE
  6
CONTINUOUS
 62
     4
100
AcDbLine
 10
19.494923
 20
19.508394
 30
0.0
 11
19.494923
 21
15.632094
 31
0.0
  0
LINE
  5
86
330
1F
100
AcDbEntity
  8
CARTOUCHE
  6
CONTINUOUS
 62
     4
100
AcDbLine
 10
19.494923
 20
15.632094
 30
0.0
 11
21.289973
 21
15.632094
 31
0.0
  0
LINE
  5
87
330
1F
100
AcDbEntity
  8
CARTOUCHE
  6
CONTINUOUS
 62
     4
100
AcDbLine
 10
21.289973
 20
15.632094
 30
0.0
 11
21.289973
 21
17.433499
 31
0.0
  0
LINE
  5
88
330
1F
100
AcDbEntity
  8
CARTOUCHE
  6
CONTINUOUS
 62
     4
100
AcDbLine
 10
30.986573
 20
20.823744
 30
0.0
 11
30.986573
 21
15.620844
 31
0.0
  0
LINE
  5
89
330
1F
100
AcDbEntity
  8
CARTOUCHE
  6
CONTINUOUS
 62
     4
100
AcDbLine
 10
30.986573
 20
15.620844
 30
0.0
 11
29.191523
 21
15.620844
 31
0.0
  0
LINE
  5
8A
330
1F
100
AcDbEntity
  8
CARTOUCHE
  6
CONTINUOUS
 62
     4
100
AcDbLine
 10
29.191523
 20
19.319904
 30
0.0
 11
29.191523
 21
20.823744
 31
0.0
  0
LINE
  5
8B
330
1F
100
AcDbEntity
  8
CARTOUCHE
  6
CONTINUOUS
 62
     4
100
AcDbLine
 10
29.191523
 20
20.823744
 30
0.0
 11
30.986573
 21
20.823744
 31
0.0
  0
LINE
  5
8C
330
1F
100
AcDbEntity
  8
CARTOUCHE
  6
CONTINUOUS
 62
     4
100
AcDbLine
 10
37.732973
 20
19.508394
 30
0.0
 11
39.459623
 21
19.508394
 31
0.0
  0
LINE
  5
8D
330
1F
100
AcDbEntity
  8
CARTOUCHE
  6
CONTINUOUS
 62
     4
100
AcDbLine
 10
39.459623
 20
19.508394
 30
0.0
 11
39.459623
 21
19.165494
 31
0.0
  0
LINE
  5
8E
330
1F
100
AcDbEntity
  8
CARTOUCHE
  6
CONTINUOUS
 62
     4
100
AcDbLine
 10
42.283823
 20
17.587794
 30
0.0
 11
40.454573
 21
17.587794
 31
0.0
  0
LINE
  5
8F
330
1F
100
AcDbEntity
  8
CARTOUCHE
  6
CONTINUOUS
 62
     4
100
AcDbLine
 10
40.454573
 20
17.587794
 30
0.0
 11
40.454573
 21
17.827644
 31
0.0
  0
LINE
  5
90
330
1F
100
AcDbEntity
  8
CARTOUCHE
  6
CONTINUOUS
 62
     4
100
AcDbLine
 10
39.459623
 20
17.782194
 30
0.0
 11
39.459623
 21
15.632094
 31
0.0
  0
LINE
  5
91
330
1F
100
AcDbEntity
  8
CARTOUCHE
  6
CONTINUOUS
 62
     4
100
AcDbLine
 10
39.459623
 20
15.632094
 30
0.0
 11
37.732973
 21
15.632094
 31
0.0
  0
LINE
  5
92
330
1F
100
AcDbEntity
  8
CARTOUCHE
  6
CONTINUOUS
 62
     4
100
AcDbLine
 10
37.732973
 20
15.632094
 30
0.0
 11
37.732973
 21
19.508394
 31
0.0
  0
LINE
  5
93
330
1F
100
AcDbEntity
  8
CARTOUCHE
  6
CONTINUOUS
 62
     4
100
AcDbLine
 10
34.154123
 20
17.244444
 30
0.0
 11
34.051073
 21
17.244444
 31
0.0
  0
LINE
  5
94
330
1F
100
AcDbEntity
  8
CARTOUCHE
  6
CONTINUOUS
 62
     4
100
AcDbLine
 10
34.051073
 20
17.244444
 30
0.0
 11
33.364823
 21
17.244444
 31
0.0
  0
LINE
  5
95
330
1F
100
AcDbEntity
  8
CARTOUCHE
  6
CONTINUOUS
 62
     4
100
AcDbLine
 10
35.343023
 20
16.855644
 30
0.0
 11
37.103873
 21
16.855644
 31
0.0
  0
LINE
  5
96
330
1F
100
AcDbEntity
  8
CARTOUCHE
  6
CONTINUOUS
 62
     4
100
AcDbLine
 10
37.206923
 20
17.256144
 30
0.0
 11
34.154123
 21
17.244444
 31
0.0
  0
LINE
  5
97
330
1F
100
AcDbEntity
  8
CARTOUCHE
  6
CONTINUOUS
 62
     4
100
AcDbLine
 10
34.154123
 20
18.079194
 30
0.0
 11
35.343023
 21
18.079194
 31
0.0
  0
LINE
  5
98
330
1F
100
AcDbEntity
  8
CARTOUCHE
  6
CONTINUOUS
 62
     4
100
AcDbLine
 10
33.364823
 20
18.079194
 30
0.0
 11
34.154123
 21
18.079194
 31
0.0
  0
LINE
  5
99
330
1F
100
AcDbEntity
  8
CARTOUCHE
  6
CONTINUOUS
 62
     4
100
AcDbLine
 10
16.087523
 20
19.931844
 30
0.0
 11
16.087523
 21
20.834994
 31
0.0
  0
LINE
  5
9A
330
1F
100
AcDbEntity
  8
CARTOUCHE
  6
CONTINUOUS
 62
     4
100
AcDbLine
 10
16.087523
 20
20.834994
 30
0.0
 11
14.589473
 21
20.834994
 31
0.0
  0
LINE
  5
9B
330
1F
100
AcDbEntity
  8
CARTOUCHE
  6
CONTINUOUS
 62
     4
100
AcDbLine
 10
13.674623
 20
19.931844
 30
0.0
 11
13.674623
 21
19.508394
 31
0.0
  0
LINE
  5
9C
330
1F
100
AcDbEntity
  8
CARTOUCHE
  6
CONTINUOUS
 62
     4
100
AcDbLine
 10
13.674623
 20
19.508394
 30
0.0
 11
13.137323
 21
19.508394
 31
0.0
  0
LINE
  5
9D
330
1F
100
AcDbEntity
  8
CARTOUCHE
  6
CONTINUOUS
 62
     4
100
AcDbLine
 10
13.137323
 20
19.508394
 30
0.0
 11
13.137323
 21
18.410844
 31
0.0
  0
LINE
  5
9E
330
1F
100
AcDbEntity
  8
CARTOUCHE
  6
CONTINUOUS
 62
     4
100
AcDbLine
 10
13.137323
 20
18.410844
 30
0.0
 11
13.674623
 21
18.410844
 31
0.0
  0
LINE
  5
9F
330
1F
100
AcDbEntity
  8
CARTOUCHE
  6
CONTINUOUS
 62
     4
100
AcDbLine
 10
13.674623
 20
18.410844
 30
0.0
 11
13.674623
 21
15.632094
 31
0.0
  0
LINE
  5
A0
330
1F
100
AcDbEntity
  8
CARTOUCHE
  6
CONTINUOUS
 62
     4
100
AcDbLine
 10
13.674623
 20
15.632094
 30
0.0
 11
15.470123
 21
15.632094
 31
0.0
  0
LINE
  5
A1
330
1F
100
AcDbEntity
  8
CARTOUCHE
  6
CONTINUOUS
 62
     4
100
AcDbLine
 10
15.470123
 20
15.632094
 30
0.0
 11
15.470123
 21
18.410844
 31
0.0
  0
LINE
  5
A2
330
1F
100
AcDbEntity
  8
CARTOUCHE
  6
CONTINUOUS
 62
     4
100
AcDbLine
 10
15.470123
 20
18.410844
 30
0.0
 11
16.087523
 21
18.410844
 31
0.0
  0
LINE
  5
A3
330
1F
100
AcDbEntity
  8
CARTOUCHE
  6
CONTINUOUS
 62
     4
100
AcDbLine
 10
16.087523
 20
18.410844
 30
0.0
 11
16.087523
 21
19.508394
 31
0.0
  0
LINE
  5
A4
330
1F
100
AcDbEntity
  8
CARTOUCHE
  6
CONTINUOUS
 62
     4
100
AcDbLine
 10
16.087523
 20
19.508394
 30
0.0
 11
15.412973
 21
19.508394
 31
0.0
  0
LINE
  5
A5
330
1F
100
AcDbEntity
  8
CARTOUCHE
  6
CONTINUOUS
 62
     4
100
AcDbLine
 10
15.412973
 20
19.508394
 30
0.0
 11
15.461079
 21
19.768622
 31
0.0
  0
LINE
  5
A6
330
1F
100
AcDbEntity
  8
CARTOUCHE
  6
CONTINUOUS
 62
     4
100
AcDbLine
 10
15.679053
 20
19.931844
 30
0.0
 11
16.087523
 21
19.931844
 31
0.0
  0
LINE
  5
A7
330
1F
100
AcDbEntity
  8
CARTOUCHE
  6
CONTINUOUS
 62
     4
100
AcDbLine
 10
16.807973
 20
15.632094
 30
0.0
 11
16.807973
 21
19.508394
 31
0.0
  0
LINE
  5
A8
330
1F
100
AcDbEntity
  8
CARTOUCHE
  6
CONTINUOUS
 62
     4
100
AcDbLine
 10
16.807973
 20
19.508394
 30
0.0
 11
18.625973
 21
19.508394
 31
0.0
  0
LINE
  5
A9
330
1F
100
AcDbEntity
  8
CARTOUCHE
  6
CONTINUOUS
 62
     4
100
AcDbLine
 10
18.625973
 20
19.508394
 30
0.0
 11
18.625973
 21
15.632094
 31
0.0
  0
LINE
  5
AA
330
1F
100
AcDbEntity
  8
CARTOUCHE
  6
CONTINUOUS
 62
     4
100
AcDbLine
 10
18.625973
 20
15.632094
 30
0.0
 11
16.807973
 21
15.632094
 31
0.0
  0
LINE
  5
AB
330
1F
100
AcDbEntity
  8
CARTOUCHE
  6
CONTINUOUS
 62
     4
100
AcDbLine
 10
16.807973
 20
19.943094
 30
0.0
 11
16.807973
 21
20.834994
 31
0.0
  0
LINE
  5
AC
330
1F
100
AcDbEntity
  8
CARTOUCHE
  6
CONTINUOUS
 62
     4
100
AcDbLine
 10
16.807973
 20
20.834994
 30
0.0
 11
18.625973
 21
20.834994
 31
0.0
  0
LINE
  5
AD
330
1F
100
AcDbEntity
  8
CARTOUCHE
  6
CONTINUOUS
 62
     4
100
AcDbLine
 10
18.625973
 20
20.834994
 30
0.0
 11
18.625973
 21
19.943094
 31
0.0
  0
LINE
  5
AE
330
1F
100
AcDbEntity
  8
CARTOUCHE
  6
CONTINUOUS
 62
     4
100
AcDbLine
 10
18.625973
 20
19.943094
 30
0.0
 11
16.807973
 21
19.943094
 31
0.0
  0
ARC
  5
AF
330
1F
100
AcDbEntity
  8
CARTOUCHE
  6
CONTINUOUS
 62
     4
100
AcDbCircle
 10
14.580259
 20
19.929401
 30
0.0
 40
0.905639
100
AcDbArc
 50
90.0
 51
180.0
  0
ARC
  5
B0
330
1F
100
AcDbEntity
  8
CARTOUCHE
  6
CONTINUOUS
 62
     4
100
AcDbCircle
 10
15.705988
 20
19.668716
 30
0.0
 40
0.264503
100
AcDbArc
 50
95.844673
 51
157.807812
  0
ARC
  5
B1
330
1F
100
AcDbEntity
  8
CARTOUCHE
  6
CONTINUOUS
 62
     4
100
AcDbCircle
 10
23.675028
 20
18.264873
 30
0.0
 40
1.218658
100
AcDbArc
 50
2.806997
 51
66.545781
  0
ARC
  5
B2
330
1F
100
AcDbEntity
  8
CARTOUCHE
  6
CONTINUOUS
 62
     4
100
AcDbCircle
 10
23.067403
 20
16.045261
 30
0.0
 40
3.511892
100
AcDbArc
 50
71.872392
 51
120.405557
  0
ARC
  5
B3
330
1F
100
AcDbEntity
  8
CARTOUCHE
  6
CONTINUOUS
 62
     4
100
AcDbCircle
 10
22.457324
 20
17.479034
 30
0.0
 40
0.651124
100
AcDbArc
 50
0.0
 51
97.150683
  0
ARC
  5
B4
330
1F
100
AcDbEntity
  8
CARTOUCHE
  6
CONTINUOUS
 62
     4
100
AcDbCircle
 10
22.44381
 20
16.820079
 30
0.0
 40
1.306761
100
AcDbArc
 50
92.962513
 51
152.003324
  0
CIRCLE
  5
B5
330
1F
100
AcDbEntity
  8
CARTOUCHE
  6
CONTINUOUS
 62
     4
100
AcDbCircle
 10
6.899646
 20
18.925422
 30
0.0
 40
4.756723
  0
ARC
  5
B6
330
1F
100
AcDbEntity
  8
CARTOUCHE
  6
CONTINUOUS
 62
     4
100
AcDbCircle
 10
6.899651
 20
18.925417
 30
0.0
 40
3.758727
100
AcDbArc
 50
112.441032
 51
172.30447
  0
ARC
  5
B7
330
1F
100
AcDbEntity
  8
CARTOUCHE
  6
CONTINUOUS
 62
     4
100
AcDbCircle
 10
6.899651
 20
18.925417
 30
0.0
 40
3.758727
100
AcDbArc
 50
82.920154
 51
97.425676
  0
ARC
  5
B8
330
1F
100
AcDbEntity
  8
CARTOUCHE
  6
CONTINUOUS
 62
     4
100
AcDbCircle
 10
6.899651
 20
18.925417
 30
0.0
 40
3.758727
100
AcDbArc
 50
187.868554
 51
67.744476
  0
SPLINE
  5
B9
330
1F
100
AcDbEntity
  8
CARTOUCHE
  6
CONTINUOUS
 62
     4
100
AcDbSpline
210
0.0
220
0.0
230
1.0
 70
     8
 71
     3
 72
    36
 73
    32
 74
     0
 42
0.0
 43
0.0
 40
0.0
 40
0.0
 40
0.0
 40
0.0
 40
0.1780767830136681
 40
0.3550421473332519
 40
0.5343453484092107
 40
0.7146565399102437
 40
1.070969665796742
 40
1.425797276482804
 40
1.782601621641158
 40
2.138604507529012
 40
2.494665694350761
 40
2.851054992366518
 40
3.206893612592711
 40
3.563376496270243
 40
3.919394399374822
 40
4.275489906300407
 40
4.631810709934304
 40
4.987969559364683
 40
5.34408211860129
 40
5.700399378588028
 40
6.056403899471826
 40
6.412686420078558
 40
6.768554714070927
 40
7.124994803535126
 40
7.480919478161396
 40
7.837065786048822
 40
8.193227339653797
 40
8.54915435091597
 40
8.90592851958123
 40
9.261828936493906
 40
9.970559377486843
 40
9.970559377486843
 40
9.970559377486843
 40
9.970559377486843
 10
29.19152297621247
 20
19.31990419713179
 30
0.0
 10
29.1470811456694
 20
19.35925398737595
 30
0.0
 10
29.05217101571805
 20
19.43173556621809
 30
0.0
 10
28.88702486192653
 20
19.50226756380448
 30
0.0
 10
28.71305131556232
 20
19.54495666942722
 30
0.0
 10
28.47834845644468
 20
19.58798269645786
 30
0.0
 10
28.18518117017913
 20
19.6380071954232
 30
0.0
 10
27.82899646784813
 20
19.65936914144959
 30
0.0
 10
27.47326672482029
 20
19.64621384628077
 30
0.0
 10
27.11757491729929
 20
19.61242874303616
 30
0.0
 10
26.77299200399079
 20
19.51557094953318
 30
0.0
 10
26.44749864205448
 20
19.36660662833782
 30
0.0
 10
26.15775694326908
 20
19.15567807341921
 30
0.0
 10
25.90609476451141
 20
18.90204678516807
 30
0.0
 10
25.69450118247778
 20
18.61346836368199
 30
0.0
 10
25.53862581202111
 20
18.29089603326815
 30
0.0
 10
25.44277681566371
 20
17.94623295105322
 30
0.0
 10
25.4051588730083
 20
17.58968055220072
 30
0.0
 10
25.44352328414163
 20
17.23351806607326
 30
0.0
 10
25.5330884282904
 20
16.88748872605868
 30
0.0
 10
25.68157849234228
 20
16.56148488761744
 30
0.0
 10
25.88917684075068
 20
16.26919453242289
 30
0.0
 10
26.1522127749239
 20
16.02575896079475
 30
0.0
 10
26.45092519319712
 20
15.8297346257055
 30
0.0
 10
26.77615878588608
 20
15.68002644669815
 30
0.0
 10
27.12459823011875
 20
15.59680869955605
 30
0.0
 10
27.48036210823477
 20
15.56921438733917
 30
0.0
 10
27.83671943981153
 20
15.56880338564122
 30
0.0
 10
28.19288691357406
 20
15.5809601144162
 30
0.0
 10
28.6641908177113
 20
15.63797081704081
 30
0.0
 10
28.99993188968324
 20
15.78862697439314
 30
0.0
 10
29.19152297621247
 20
15.92684360711667
 30
0.0
  0
SPLINE
  5
BA
330
1F
100
AcDbEntity
  8
CARTOUCHE
  6
CONTINUOUS
 62
     4
100
AcDbSpline
210
0.0
220
0.0
230
1.0
 70
     8
 71
     3
 72
    32
 73
    28
 74
     0
 42
0.0
 43
0.0
 40
0.0
 40
0.0
 40
0.0
 40
0.0
 40
0.1932877580521157
 40
0.3866798787325882
 40
0.5800722507134989
 40
0.772333729456475
 40
0.9658523902015594
 40
1.159368918637214
 40
1.351212480188305
 40
1.544294116240269
 40
1.738458877748041
 40
1.931765051105018
 40
2.315248221342022
 40
2.698534908932237
 40
2.891497325006418
 40
3.086240061673468
 40
3.27934698460621
 40
3.47149554917474
 40
3.665362297658928
 40
3.858867169137039
 40
4.051425425593018
 40
4.244517993884934
 40
4.629048396203631
 40
4.822527042047698
 40
5.015999172173861
 40
5.208857197714148
 40
5.402321103694232
 40
5.402321103694232
 40
5.402321103694232
 40
5.402321103694232
 10
29.19152297621247
 20
17.75924360711667
 30
0.0
 10
29.18288243399775
 20
17.82309084379659
 30
0.0
 10
29.14698925229231
 20
17.9492309949249
 30
0.0
 10
29.03863033600135
 20
18.11295896718002
 30
0.0
 10
28.88808593421186
 20
18.23750555169801
 30
0.0
 10
28.71390236835975
 20
18.32349619385565
 30
0.0
 10
28.52952277004852
 20
18.38166686509658
 30
0.0
 10
28.34290479514243
 20
18.43125946356719
 30
0.0
 10
28.15005836734326
 20
18.45345660720096
 30
0.0
 10
27.9567652835641
 20
18.43192422737053
 30
0.0
 10
27.77055996307331
 20
18.37588631632258
 30
0.0
 10
27.54005543090193
 20
18.25927888814988
 30
0.0
 10
27.30431979796026
 20
18.02895633252871
 30
0.0
 10
27.19918224735056
 20
17.70410852264934
 30
0.0
 10
27.2556090006949
 20
17.44863354719075
 30
0.0
 10
27.34552826919219
 20
17.27538536050071
 30
0.0
 10
27.47312092641039
 20
17.12730558305736
 30
0.0
 10
27.63483015622103
 20
17.01829625364087
 30
0.0
 10
27.81425994030428
 20
16.94472673420569
 30
0.0
 10
28.00144289742559
 20
16.89441464262615
 30
0.0
 10
28.19428201703386
 20
16.87304307862473
 30
0.0
 10
28.45148699611309
 20
16.8893478994068
 30
0.0
 10
28.70119669040025
 20
16.97262918726352
 30
0.0
 10
28.91655264301392
 20
17.11456090216899
 30
0.0
 10
29.05836036639801
 20
17.24858543450057
 30
0.0
 10
29.15639747778994
 20
17.41858950885381
 30
0.0
 10
29.18558227182314
 20
17.546079853658
 30
0.0
 10
29.19152297621247
 20
17.61029360711666
 30
0.0
  0
LINE
  5
BB
330
1F
100
AcDbEntity
  8
CARTOUCHE
  6
CONTINUOUS
 62
     4
100
AcDbLine
 10
29.191523
 20
17.610294
 30
0.0
 11
29.191523
 21
17.759244
 31
0.0
  0
LINE
  5
BC
330
1F
100
AcDbEntity
  8
CARTOUCHE
  6
CONTINUOUS
 62
     4
100
AcDbLine
 10
29.191523
 20
15.620844
 30
0.0
 11
29.191523
 21
15.926844
 31
0.0
  0
SPLINE
  5
BD
330
1F
100
AcDbEntity
  8
CARTOUCHE
  6
CONTINUOUS
 62
     4
100
AcDbSpline
210
0.0
220
0.0
230
1.0
 70
     8
 71
     3
 72
    46
 73
    42
 74
     0
 42
0.0
 43
0.0
 40
0.0
 40
0.0
 40
0.0
 40
0.0
 40
0.2811760796502946
 40
0.5640898973250563
 40
0.8489971748537003
 40
1.131205009177211
 40
1.693847543907712
 40
2.256883126992217
 40
2.539006962714906
 40
2.820697028678528
 40
3.102988717666822
 40
3.385255369055035
 40
3.948537474972731
 40
4.512595302147443
 40
5.076291358232317
 40
5.639939427570669
 40
6.203885740903807
 40
6.766738495431309
 40
7.329351108981916
 40
7.892323841237688
 40
8.45514866590555
 40
8.737355288896866
 40
9.018966908742904
 40
9.581781624582574
 40
9.86403908982524
 40
10.14660944492419
 40
10.42765695915669
 40
10.7104453671154
 40
11.27439772862129
 40
11.83782241902082
 40
12.40155022911231
 40
12.96488140450844
 40
13.53013698036286
 40
13.81230410617875
 40
14.09372936703951
 40
14.37575719238146
 40
14.65757020519361
 40
14.93943603583764
 40
15.22120144973326
 40
15.50299703910228
 40
15.78483944550847
 40
15.78483944550847
 40
15.78483944550847
 40
15.78483944550847
 10
37.20692297621247
 20
17.25614360711671
 30
0.0
 10
37.23203420692107
 20
17.3464423843929
 30
0.0
 10
37.26336484409046
 20
17.53399353514692
 30
0.0
 10
37.24149612352574
 20
17.81801411254952
 30
0.0
 10
37.17836723535868
 20
18.09483488905607
 30
0.0
 10
37.05825107130295
 20
18.45212671536387
 30
0.0
 10
36.82306595169769
 20
18.86725058477685
 30
0.0
 10
36.46781589545185
 20
19.18453429852832
 30
0.0
 10
36.14761072222359
 20
19.38196329151134
 30
0.0
 10
35.88897462899058
 20
19.49665832798303
 30
0.0
 10
35.61969295726612
 20
19.58173403519248
 30
0.0
 10
35.2543140411176
 20
19.67112584450371
 30
0.0
 10
34.78716946498412
 20
19.73491758839327
 30
0.0
 10
34.22286115907593
 20
19.74314626209986
 30
0.0
 10
33.65911994648309
 20
19.70776759135032
 30
0.0
 10
33.10430878015268
 20
19.60055504764404
 30
0.0
 10
32.56703323781767
 20
19.41975332166317
 30
0.0
 10
32.09128315197597
 20
19.10132458254378
 30
0.0
 10
31.74193800490184
 20
18.64941378404785
 30
0.0
 10
31.52262068232574
 20
18.12465110892418
 30
0.0
 10
31.46286140999609
 20
17.65237452681703
 30
0.0
 10
31.49897098284839
 20
17.27677370178463
 30
0.0
 10
31.60138451349223
 20
16.91447857233737
 30
0.0
 10
31.76185376327498
 20
16.56953956862208
 30
0.0
 10
31.99184431742594
 20
16.27135451108103
 30
0.0
 10
32.18412083772114
 20
16.06372980713053
 30
0.0
 10
32.41499014005785
 20
15.89810997038029
 30
0.0
 10
32.7523317509042
 20
15.73108000815063
 30
0.0
 10
33.19505414301852
 20
15.56630096045467
 30
0.0
 10
33.75227372266897
 20
15.46845437614093
 30
0.0
 10
34.31516350933748
 20
15.42686252978586
 30
0.0
 10
34.8797846612523
 20
15.45310416565457
 30
0.0
 10
35.34636121692427
 20
15.51793254831694
 30
0.0
 10
35.71316921960886
 20
15.60361847371956
 30
0.0
 10
35.98020693492333
 20
15.69575649055218
 30
0.0
 10
36.23634011737818
 20
15.81337070818239
 30
0.0
 10
36.48756104735048
 20
15.94257867459993
 30
0.0
 10
36.71131096251793
 20
16.11779577915576
 30
0.0
 10
36.89210320202199
 20
16.33577430529641
 30
0.0
 10
37.03705328185708
 20
16.57968837892793
 30
0.0
 10
37.08874532982247
 20
16.76292208205905
 30
0.0
 10
37.10387297621253
 20
16.85564360711669
 30
0.0
  0
SPLINE
  5
BE
330
1F
100
AcDbEntity
  8
CARTOUCHE
  6
CONTINUOUS
 62
     4
100
AcDbSpline
210
0.0
220
0.0
230
1.0
 70
     8
 71
     3
 72
    15
 73
    11
 74
     0
 42
0.0
 43
0.0
 40
0.0
 40
0.0
 40
0.0
 40
0.0
 40
0.3371530624456519
 40
0.6743134103473634
 40
1.011742195803972
 40
1.348774234605689
 40
1.687275239821948
 40
1.856093664733062
 40
2.024672439731733
 40
2.36171424272068
 40
2.36171424272068
 40
2.36171424272068
 40
2.36171424272068
 10
33.36482297621251
 20
17.24444360711669
 30
0.0
 10
33.3858778215025
 20
17.13404914825571
 30
0.0
 10
33.47908858652352
 20
16.91720193038532
 30
0.0
 10
33.75430938453144
 20
16.70644926418299
 30
0.0
 10
34.06998675418981
 20
16.58180999970011
 30
0.0
 10
34.40539517918739
 20
16.52556263807151
 30
0.0
 10
34.68949469675783
 20
16.54062536220022
 30
0.0
 10
34.90812694138117
 20
16.59887374482219
 30
0.0
 10
35.11328271453908
 20
16.69222545658818
 30
0.0
 10
35.25572769673465
 20
16.78492272807648
 30
0.0
 10
35.34302297621252
 20
16.85564360711669
 30
0.0
  0
SPLINE
  5
BF
330
1F
100
AcDbEntity
  8
CARTOUCHE
  6
CONTINUOUS
 62
     4
100
AcDbSpline
210
0.0
220
0.0
230
1.0
 70
     8
 71
     3
 72
    21
 73
    17
 74
     0
 42
0.0
 43
0.0
 40
0.0
 40
0.0
 40
0.0
 40
0.0
 40
0.1868562426648683
 40
0.3735753311188897
 40
0.561385244331366
 40
0.7484499710535985
 40
0.9355894656463413
 40
1.123113048870195
 40
1.311429068188788
 40
1.500242837337345
 40
1.686444243009907
 40
1.873057665252352
 40
2.059520356870873
 40
2.246467921108978
 40
2.434628805645711
 40
2.621194974095634
 40
2.621194974095634
 40
2.621194974095634
 40
2.621194974095634
 10
35.34302297621252
 20
18.07919360711668
 30
0.0
 10
35.33827402300517
 20
18.14129771542036
 30
0.0
 10
35.31098590801867
 20
18.26532167893515
 30
0.0
 10
35.21176932408082
 20
18.4274393651603
 30
0.0
 10
35.07410472232061
 20
18.55667707405826
 30
0.0
 10
34.91380074337155
 20
18.65566347451573
 30
0.0
 10
34.73873424931833
 20
18.72452207485077
 30
0.0
 10
34.55489940604025
 20
18.76544162614522
 30
0.0
 10
34.36639704794266
 20
18.77885835001854
 30
0.0
 10
34.17902209853401
 20
18.76782273359754
 30
0.0
 10
33.99274798283
 20
18.72746022546607
 30
0.0
 10
33.83748785500461
 20
18.62068130925581
 30
0.0
 10
33.66640581764318
 20
18.54392880021908
 30
0.0
 10
33.52524874688265
 20
18.41621721231661
 30
0.0
 10
33.42100493506643
 20
18.25892401888791
 30
0.0
 10
33.37822029988172
 20
18.13992209272328
 30
0.0
 10
33.36482297621251
 20
18.07919360711668
 30
0.0
  0
SPLINE
  5
C0
330
1F
100
AcDbEntity
  8
CARTOUCHE
  6
CONTINUOUS
 62
     4
100
AcDbSpline
210
0.0
220
0.0
230
1.0
 70
     8
 71
     3
 72
    14
 73
    10
 74
     0
 42
0.0
 43
0.0
 40
0.0
 40
0.0
 40
0.0
 40
0.0
 40
0.2162148910594536
 40
0.4333935378504982
 40
0.6499506618299267
 40
0.8697440506435969
 40
1.087238867261143
 40
1.304828920110255
 40
1.52231799513657
 40
1.52231799513657
 40
1.52231799513657
 40
1.52231799513657
 10
40.45457297621249
 20
17.82764360711667
 30
0.0
 10
40.4585708245022
 20
17.89960427075187
 30
0.0
 10
40.42640871477511
 20
18.04880797988181
 30
0.0
 10
40.27439512155047
 20
18.21580578301359
 30
0.0
 10
40.06187418874424
 20
18.29256657103895
 30
0.0
 10
39.83996012736452
 20
18.27349259239088
 30
0.0
 10
39.63539374842924
 20
18.1792790871346
 30
0.0
 10
39.50069166663809
 20
17.99888001181955
 30
0.0
 10
39.46300588566658
 20
17.85461099381689
 30
0.0
 10
39.45962297621247
 20
17.78219360711671
 30
0.0
  0
SPLINE
  5
C1
330
1F
100
AcDbEntity
  8
CARTOUCHE
  6
CONTINUOUS
 62
     4
100
AcDbSpline
210
0.0
220
0.0
230
1.0
 70
     8
 71
     3
 72
    20
 73
    16
 74
     0
 42
0.0
 43
0.0
 40
0.0
 40
0.0
 40
0.0
 40
0.0
 40
0.3099173987996669
 40
0.6201169005603266
 40
0.9308839291328165
 40
1.240783325707781
 40
1.55095939565128
 40
1.86184239372724
 40
2.170990040564945
 40
2.482795387658576
 40
2.792567816778102
 40
3.102413185111548
 40
3.413424630920254
 40
3.723772126664227
 40
4.34241605336301
 40
4.34241605336301
 40
4.34241605336301
 40
4.34241605336301
 10
42.28382297621249
 20
17.58779360711668
 30
0.0
 10
42.29785819041342
 20
17.69014154795241
 30
0.0
 10
42.31442439810405
 20
17.89677002490993
 30
0.0
 10
42.30093033884827
 20
18.20747684710312
 30
0.0
 10
42.25565509292562
 20
18.51474506996465
 30
0.0
 10
42.17620497908092
 20
18.81641720416798
 30
0.0
 10
42.02732884775901
 20
19.09240930675497
 30
0.0
 10
41.81020925681196
 20
19.32073989851239
 30
0.0
 10
41.53096645435983
 20
19.46673633765892
 30
0.0
 10
41.2307622884091
 20
19.54812226604332
 30
0.0
 10
40.92302870824335
 20
19.59724701034366
 30
0.0
 10
40.61155045095131
 20
19.58971136447536
 30
0.0
 10
40.30365712496848
 20
19.54593387513313
 30
0.0
 10
39.90384924168495
 20
19.43649512043618
 30
0.0
 10
39.62714716375797
 20
19.28574386806645
 30
0.0
 10
39.45962297621247
 20
19.16549360711667
 30
0.0
  0
ARC
  5
C2
330
1F
100
AcDbEntity
  8
CARTOUCHE
  6
CONTINUOUS
 62
     4
100
AcDbCircle
 10
5.950954
 20
18.851493
 30
0.0
 40
0.470607
100
AcDbArc
 50
290.581791
 51
349.597912
  0
SPLINE
  5
C3
330
1F
100
AcDbEntity
  8
CARTOUCHE
  6
CONTINUOUS
 62
     4
100
AcDbSpline
210
0.0
220
0.0
230
1.0
 70
     8
 71
     3
 72
    14
 73
    10
 74
     0
 42
0.0
 43
0.0
 40
0.0
 40
0.0
 40
0.0
 40
0.0
 40
0.218061519141428
 40
0.4363611552766655
 40
0.6537290224029619
 40
0.8729556978994847
 40
1.089089148588595
 40
1.305404600578318
 40
1.523281343816881
 40
1.523281343816881
 40
1.523281343816881
 40
1.523281343816881
 10
8.323222976212492
 20
16.16984360711672
 30
0.0
 10
8.318288214417635
 20
16.09732413902975
 30
0.0
 10
8.284441201709
 20
15.95301240567483
 30
0.0
 10
8.169483084717058
 20
15.76307331566505
 30
0.0
 10
7.996385400748409
 20
15.62406236269834
 30
0.0
 10
7.795574627707992
 20
15.53567944687768
 30
0.0
 10
7.57604694575457
 20
15.50360567386355
 30
0.0
 10
7.361945471922013
 20
15.55796082330824
 30
0.0
 10
7.233255854035747
 20
15.62676542598342
 30
0.0
 10
7.173698979108963
 20
15.66832807359032
 30
0.0
  0
ARC
  5
C4
330
1F
100
AcDbEntity
  8
CARTOUCHE
  6
CONTINUOUS
 62
     4
100
AcDbCircle
 10
9.404539
 20
20.005869
 30
0.0
 40
0.500071
100
AcDbArc
 50
275.840125
 51
95.840125
  0
HATCH
  5
C5
330
1F
100
AcDbEntity
  8
CARTOUCHE
  6
CONTINUOUS
 62
     4
100
AcDbHatch
 10
0.0
 20
0.0
 30
0.0
210
0.0
220
0.0
230
1.0
  2
ANSI_31
 70
     0
 71
     0
 91
        4
 92
        1
 93
        3
 72
     1
 10
5.464823000000024
 20
22.39950599999997
 11
5.464823000000024
 21
19.42874399999999
 72
     1
 10
5.464823000000024
 20
19.42874399999999
 11
3.174775999999952
 21
19.42874399999999
 72
     2
 10
6.899650999999968
 20
18.92541699999996
 40
3.758727000000017
 50
187.6955481858978
 51
247.5589807620791
 73
     0
 97
        0
 92
        0
 93
        6
 72
     1
 10
6.413872999999967
 20
22.65262100000001
 11
6.413872999999967
 21
18.76651400000003
 72
     2
 10
5.950954000000016
 20
18.85149300000001
 40
0.4706070000000082
 50
10.40206637069416
 51
69.41820895943546
 73
     0
 72
     1
 10
6.116423000000054
 20
18.410844
 11
5.887823000000026
 21
18.410844
 72
     1
 10
5.887823000000026
 20
18.410844
 11
7.362923000000023
 21
16.81019400000002
 72
     1
 10
7.362923000000023
 20
16.81019400000002
 11
7.362923000000023
 21
22.655485
 72
     2
 10
6.899650999999938
 20
18.92541699999981
 40
3.758727000000176
 50
82.9201709847183
 51
97.42568618826525
 73
     1
 97
        0
 92
        0
 93
       40
 72
     1
 10
9.353656
 20
20.50334399999997
 11
8.323222999999984
 21
20.50334399999997
 72
     1
 10
8.323222999999984
 20
20.50334399999997
 11
8.323222999999984
 21
22.404134
 72
     2
 10
6.899650999999952
 20
18.92541699999998
 40
3.758726999999999
 50
292.2555505518877
 51
532.1314361600666
 73
     0
 72
     1
 10
3.17631300000005
 20
18.410844
 11
4.378522999999973
 21
18.410844
 72
     1
 10
4.378522999999973
 20
18.410844
 11
7.173698999999942
 21
15.66832799999997
 72
     1
 10
7.173698999999942
 20
15.66832799999997
 11
7.228616999999986
 21
15.63285300000001
 72
     1
 10
7.228616999999986
 20
15.63285300000001
 11
7.286013000000025
 21
15.60136299999999
 72
     1
 10
7.286013000000025
 20
15.60136299999999
 11
7.36599799999999
 21
15.565901
 72
     1
 10
7.36599799999999
 20
15.565901
 11
7.407007000000021
 21
15.55122899999998
 72
     1
 10
7.407007000000021
 20
15.55122899999998
 11
7.448736000000054
 21
15.53879699999999
 72
     1
 10
7.448736000000054
 20
15.53879699999999
 11
7.491052999999965
 21
15.528907
 72
     1
 10
7.491052999999965
 20
15.528907
 11
7.533828999999969
 21
15.52186
 72
     1
 10
7.533828999999969
 20
15.52186
 11
7.576934000000051
 21
15.51796000000002
 72
     1
 10
7.576934000000051
 20
15.51796000000002
 11
7.620190999999977
 21
15.51741600000003
 72
     1
 10
7.620190999999977
 20
15.51741600000003
 11
7.663455999999996
 21
15.52006999999998
 72
     1
 10
7.663455999999996
 20
15.52006999999998
 11
7.706539000000021
 21
15.52567799999997
 72
     1
 10
7.706539000000021
 20
15.52567799999997
 11
7.749248999999963
 21
15.53399400000001
 72
     1
 10
7.749248999999963
 20
15.53399400000001
 11
7.791397999999958
 21
15.54477500000002
 72
     1
 10
7.791397999999958
 20
15.54477500000002
 11
7.833399999999983
 21
15.55801000000002
 72
     1
 10
7.833399999999983
 20
15.55801000000002
 11
7.874554999999987
 21
15.57347900000002
 72
     1
 10
7.874554999999987
 20
15.57347900000002
 11
7.914787000000047
 21
15.59112900000002
 72
     1
 10
7.914787000000047
 20
15.59112900000002
 11
7.992186999999944
 21
15.63277499999998
 72
     1
 10
7.992186999999944
 20
15.63277499999998
 11
8.028870999999981
 21
15.65646700000002
 72
     1
 10
8.028870999999981
 20
15.65646700000002
 11
8.064194000000043
 21
15.682164
 72
     1
 10
8.064194000000043
 20
15.682164
 11
8.097920000000045
 21
15.70987400000001
 72
     1
 10
8.097920000000045
 20
15.70987400000001
 11
8.129815000000008
 21
15.73960499999998
 72
     1
 10
8.129815000000008
 20
15.73960499999998
 11
8.15964299999996
 21
15.771365
 72
     1
 10
8.15964299999996
 20
15.771365
 11
8.18731200000002
 21
15.80527799999999
 72
     1
 10
8.18731200000002
 20
15.80527799999999
 11
8.212608000000046
 21
15.84104500000001
 72
     1
 10
8.212608000000046
 20
15.84104500000001
 11
8.235480000000052
 21
15.878466
 72
     1
 10
8.235480000000052
 20
15.878466
 11
8.255877000000055
 21
15.91734000000002
 72
     1
 10
8.255877000000055
 20
15.91734000000002
 11
8.27374999999995
 21
15.95746800000001
 72
     1
 10
8.27374999999995
 20
15.95746800000001
 11
8.289029000000028
 21
15.998605
 72
     1
 10
8.289029000000028
 20
15.998605
 11
8.30167700000004
 21
16.04060199999998
 72
     1
 10
8.30167700000004
 20
16.04060199999998
 11
8.311632000000031
 21
16.08326799999998
 72
     1
 10
8.311632000000031
 20
16.08326799999998
 11
8.318835000000036
 21
16.12641200000002
 72
     1
 10
8.318835000000036
 20
16.12641200000002
 11
8.323222999999984
 21
16.16984400000001
 72
     1
 10
8.323222999999984
 20
16.16984400000001
 11
8.323222999999984
 21
19.50839400000001
 72
     1
 10
8.323222999999984
 20
19.50839400000001
 11
9.455422999999996
 21
19.50839400000001
 72
     2
 10
9.40453899999999
 20
20.00586900000002
 40
0.5000710000000025
 50
275.8401026338644
 51
455.8401224817054
 73
     1
 97
        0
 92
        0
 93
        1
 72
     2
 10
6.899645999999962
 20
18.925422003831
 40
4.756723
 50
359.9999999538551
 51
719.9999823537613
 73
     1
 97
        0
 75
     0
 76
     2
 52
0.0
 41
0.062992
 77
     0
 78
     1
 53
44.99999999988837
 43
0.0
 44
0.0
 45
-3.592095212307267
 46
3.592095212321264
 79
     0
 98
        0
  0
HATCH
  5
C6
330
1F
100
AcDbEntity
  8
CARTOUCHE
  6
CONTINUOUS
 62
     4
100
AcDbHatch
 10
0.0
 20
0.0
 30
0.0
210
0.0
220
0.0
230
1.0
  2
ANSI_31
 70
     0
 71
     0
 91
        1
 92
        1
 93
       16
 72
     1
 10
15.67905299999995
 20
19.93184400000001
 11
16.08752300000003
 21
19.93184400000001
 72
     1
 10
16.08752300000003
 20
19.93184400000001
 11
16.08752300000003
 21
20.83499399999999
 72
     1
 10
16.08752300000003
 20
20.83499399999999
 11
14.58025899999996
 21
20.83499399999999
 72
     2
 10
14.58025899999995
 20
19.929401
 40
0.9056389999999922
 50
89.99998127603097
 51
180.0000198478434
 73
     1
 72
     1
 10
13.674623
 20
19.92940099999998
 11
13.674623
 21
19.50839400000001
 72
     1
 10
13.674623
 20
19.50839400000001
 11
13.13732300000004
 21
19.50839400000001
 72
     1
 10
13.13732300000004
 20
19.50839400000001
 11
13.13732300000004
 21
18.410844
 72
     1
 10
13.13732300000004
 20
18.410844
 11
13.674623
 21
18.410844
 72
     1
 10
13.674623
 20
18.410844
 11
13.674623
 21
15.632094
 72
     1
 10
13.674623
 20
15.632094
 11
15.47012300000006
 21
15.632094
 72
     1
 10
15.47012300000006
 20
15.632094
 11
15.47012300000006
 21
18.410844
 72
     1
 10
15.47012300000006
 20
18.410844
 11
16.08752300000003
 21
18.410844
 72
     1
 10
16.08752300000003
 20
18.410844
 11
16.08752300000003
 21
19.50839400000001
 72
     1
 10
16.08752300000003
 20
19.50839400000001
 11
15.41297299999997
 21
19.50839400000001
 72
     1
 10
15.41297299999997
 20
19.50839400000001
 11
15.46107900000004
 21
19.76862199999999
 72
     2
 10
15.70598800000005
 20
19.668716
 40
0.2645030000000168
 50
202.1921825436233
 51
264.1553335516165
 73
     0
 97
        0
 75
     0
 76
     2
 52
0.0
 41
0.062992
 77
     0
 78
     1
 53
44.99999999988837
 43
0.0
 44
0.0
 45
-3.592095212307267
 46
3.592095212321264
 79
     0
 98
        0
  0
HATCH
  5
C7
330
1F
100
AcDbEntity
  8
CARTOUCHE
  6
CONTINUOUS
 62
     4
100
AcDbHatch
 10
0.0
 20
0.0
 30
0.0
210
0.0
220
0.0
230
1.0
  2
ANSI_31
 70
     0
 71
     0
 91
        1
 92
        1
 93
        4
 72
     1
 10
16.80797299999995
 20
20.83499399999999
 11
16.80797299999995
 21
19.94309399999997
 72
     1
 10
16.80797299999995
 20
19.94309399999997
 11
18.62597300000004
 21
19.94309399999997
 72
     1
 10
18.62597300000004
 20
19.94309399999997
 11
18.62597300000004
 21
20.83499399999999
 72
     1
 10
18.62597300000004
 20
20.83499399999999
 11
16.80797299999995
 21
20.83499399999999
 97
        0
 75
     0
 76
     2
 52
0.0
 41
0.062992
 77
     0
 78
     1
 53
44.99999999988837
 43
0.0
 44
0.0
 45
-3.592095212307267
 46
3.592095212321264
 79
     0
 98
        0
  0
HATCH
  5
C8
330
1F
100
AcDbEntity
  8
CARTOUCHE
  6
CONTINUOUS
 62
     4
100
AcDbHatch
 10
0.0
 20
0.0
 30
0.0
210
0.0
220
0.0
230
1.0
  2
ANSI_31
 70
     0
 71
     0
 91
        1
 92
        1
 93
        4
 72
     1
 10
16.80797299999995
 20
19.50839400000001
 11
16.80797299999995
 21
15.632094
 72
     1
 10
16.80797299999995
 20
15.632094
 11
18.62597300000004
 21
15.632094
 72
     1
 10
18.62597300000004
 20
15.632094
 11
18.62597300000004
 21
19.50839400000001
 72
     1
 10
18.62597300000004
 20
19.50839400000001
 11
16.80797299999995
 21
19.50839400000001
 97
        0
 75
     0
 76
     2
 52
0.0
 41
0.062992
 77
     0
 78
     1
 53
44.99999999988837
 43
0.0
 44
0.0
 45
-3.592095212307267
 46
3.592095212321264
 79
     0
 98
        0
  0
HATCH
  5
C9
330
1F
100
AcDbEntity
  8
CARTOUCHE
  6
CONTINUOUS
 62
     4
100
AcDbHatch
 10
0.0
 20
0.0
 30
0.0
210
0.0
220
0.0
230
1.0
  2
ANSI_31
 70
     0
 71
     0
 91
        1
 92
        1
 93
       12
 72
     2
 10
22.45732399999997
 20
17.47903400000001
 40
0.6511239999999975
 50
262.8493335533972
 51
360.0000000000003
 73
     0
 72
     1
 10
23.10842300000002
 20
17.47903400000001
 11
23.10842300000002
 21
15.632094
 72
     1
 10
23.10842300000002
 20
15.632094
 11
24.89222300000006
 21
15.632094
 72
     1
 10
24.89222300000006
 20
15.632094
 11
24.89222300000006
 21
18.32455299999998
 72
     2
 10
23.67502799999997
 20
18.26487300000003
 40
1.218658000000013
 50
2.806977534125194
 51
66.54578204501234
 73
     1
 72
     2
 10
23.06740300000001
 20
16.045261
 40
3.511891999999999
 50
71.87239877900564
 51
120.4055336606957
 73
     1
 72
     1
 10
21.28997300000003
 20
19.07414399999999
 11
21.28997300000003
 21
19.50839400000001
 72
     1
 10
21.28997300000003
 20
19.50839400000001
 11
19.49492299999997
 21
19.50839400000001
 72
     1
 10
19.49492299999997
 20
19.50839400000001
 11
19.49492299999997
 21
15.632094
 72
     1
 10
19.49492299999997
 20
15.632094
 11
21.28997300000003
 21
15.632094
 72
     1
 10
21.28997300000003
 20
15.632094
 11
21.28997300000003
 21
17.43349899999998
 72
     2
 10
22.44380999999997
 20
16.82007900000007
 40
1.306760999999965
 50
207.9967033745314
 51
267.0374831484658
 73
     0
 97
        0
 75
     0
 76
     2
 52
0.0
 41
0.062992
 77
     0
 78
     1
 53
44.99999999988837
 43
0.0
 44
0.0
 45
-3.592095212307267
 46
3.592095212321264
 79
     0
 98
        0
  0
HATCH
  5
CA
330
1F
100
AcDbEntity
  8
CARTOUCHE
  6
CONTINUOUS
 62
     4
100
AcDbHatch
 10
0.0
 20
0.0
 30
0.0
210
0.0
220
0.0
230
1.0
  2
ANSI_31
 70
     0
 71
     0
 91
        2
 92
        1
 93
       68
 72
     1
 10
29.19152299999996
 20
19.31990400000001
 11
29.13663900000006
 21
19.36546499999997
 72
     1
 10
29.13663900000006
 20
19.36546499999997
 11
29.09335299999998
 21
19.396952
 72
     1
 10
29.09335299999998
 20
19.396952
 11
29.04814599999997
 21
19.42551800000001
 72
     1
 10
29.04814599999997
 20
19.42551800000001
 11
28.98531500000001
 21
19.45824299999998
 72
     1
 10
28.98531500000001
 20
19.45824299999998
 11
28.93641500000001
 21
19.47918299999998
 72
     1
 10
28.93641500000001
 20
19.47918299999998
 11
28.88641400000006
 21
19.49734899999999
 72
     1
 10
28.88641400000006
 20
19.49734899999999
 11
28.80036900000005
 21
19.52267000000001
 72
     1
 10
28.80036900000005
 20
19.52267000000001
 11
28.71305600000005
 21
19.543137
 72
     1
 10
28.71305600000005
 20
19.543137
 11
28.53598499999998
 21
19.57716399999998
 72
     1
 10
28.53598499999998
 20
19.57716399999998
 11
28.18386099999998
 21
19.631643
 72
     1
 10
28.18386099999998
 20
19.631643
 11
27.82971399999997
 21
19.65361100000001
 72
     1
 10
27.82971399999997
 20
19.65361100000001
 11
27.47307499999999
 21
19.64275900000001
 72
     1
 10
27.47307499999999
 20
19.64275900000001
 11
27.29553499999997
 21
19.627567
 72
     1
 10
27.29553499999997
 20
19.627567
 11
27.11942199999999
 21
19.601922
 72
     1
 10
27.11942199999999
 20
19.601922
 11
26.98039300000005
 21
19.570874
 72
     1
 10
26.98039300000005
 20
19.570874
 11
26.77626899999996
 21
19.50691899999998
 72
     1
 10
26.77626899999996
 20
19.50691899999998
 11
26.64385700000003
 21
19.453442
 72
     1
 10
26.64385700000003
 20
19.453442
 11
26.54719899999998
 21
19.40747800000003
 72
     1
 10
26.54719899999998
 20
19.40747800000003
 11
26.45331799999997
 21
19.3562
 72
     1
 10
26.45331799999997
 20
19.3562
 11
26.33327599999996
 21
19.27954099999999
 72
     1
 10
26.33327599999996
 20
19.27954099999999
 11
26.16425100000004
 21
19.14868799999999
 72
     1
 10
26.16425100000004
 20
19.14868799999999
 11
26.05893800000001
 21
19.05235800000003
 72
     1
 10
26.05893800000001
 20
19.05235800000003
 11
25.91268300000002
 21
18.89611400000001
 72
     1
 10
25.91268300000002
 20
18.89611400000001
 11
25.82344499999999
 21
18.78493100000003
 72
     1
 10
25.82344499999999
 20
18.78493100000003
 11
25.70379300000002
 21
18.60781900000001
 72
     1
 10
25.70379300000002
 20
18.60781900000001
 11
25.634816
 21
18.48302000000001
 72
     1
 10
25.634816
 20
18.48302000000001
 11
25.58909600000004
 21
18.38630999999998
 72
     1
 10
25.58909600000004
 20
18.38630999999998
 11
25.54866100000004
 21
18.28729199999998
 72
     1
 10
25.54866100000004
 20
18.28729199999998
 11
25.50307699999996
 21
18.15213199999999
 72
     1
 10
25.50307699999996
 20
18.15213199999999
 11
25.45247300000005
 21
17.94419900000003
 72
     1
 10
25.45247300000005
 20
17.94419900000003
 11
25.43063199999995
 21
17.80315000000002
 72
     1
 10
25.43063199999995
 20
17.80315000000002
 11
25.42104700000004
 21
17.69658800000002
 72
     1
 10
25.42104700000004
 20
17.69658800000002
 11
25.41782000000001
 21
17.58972999999997
 72
     1
 10
25.41782000000001
 20
17.58972999999997
 11
25.42378299999996
 21
17.44735500000002
 72
     1
 10
25.42378299999996
 20
17.44735500000002
 11
25.45204699999999
 21
17.23526600000002
 72
     1
 10
25.45204699999999
 20
17.23526600000002
 11
25.48182299999996
 21
17.09568300000001
 72
     1
 10
25.48182299999996
 20
17.09568300000001
 11
25.54294100000004
 21
16.890737
 72
     1
 10
25.54294100000004
 20
16.890737
 11
25.59524499999998
 21
16.75814400000002
 72
     1
 10
25.59524499999998
 20
16.75814400000002
 11
25.64066300000002
 21
16.66132599999997
 72
     1
 10
25.64066300000002
 20
16.66132599999997
 11
25.69139600000005
 21
16.56716299999999
 72
     1
 10
25.69139600000005
 20
16.56716299999999
 11
25.76734099999999
 21
16.446302
 72
     1
 10
25.76734099999999
 20
16.446302
 11
25.83037100000001
 21
16.35977800000001
 72
     1
 10
25.83037100000001
 20
16.35977800000001
 11
25.89849000000004
 21
16.27724999999998
 72
     1
 10
25.89849000000004
 20
16.27724999999998
 11
25.99676699999998
 21
16.17408
 72
     1
 10
25.99676699999998
 20
16.17408
 11
26.15802499999995
 21
16.03376700000001
 72
     1
 10
26.15802499999995
 20
16.03376700000001
 11
26.27323200000001
 21
15.94957699999998
 72
     1
 10
26.27323200000001
 20
15.94957699999998
 11
26.45548299999996
 21
15.837379
 72
     1
 10
26.45548299999996
 20
15.837379
 11
26.58228499999996
 21
15.77219600000001
 72
     1
 10
26.58228499999996
 20
15.77219600000001
 11
26.68003799999997
 21
15.72894300000002
 72
     1
 10
26.68003799999997
 20
15.72894300000002
 11
26.77997000000005
 21
15.691125
 72
     1
 10
26.77997000000005
 20
15.691125
 11
26.91640600000005
 21
15.64973700000002
 72
     1
 10
26.91640600000005
 20
15.64973700000002
 11
27.12581399999999
 21
15.60608200000001
 72
     1
 10
27.12581399999999
 20
15.60608200000001
 11
27.30267700000002
 21
15.58473400000003
 72
     1
 10
27.30267700000002
 20
15.58473400000003
 11
27.480504
 21
15.57374099999998
 72
     1
 10
27.480504
 20
15.57374099999998
 11
27.83641999999998
 21
15.57089400000001
 72
     1
 10
27.83641999999998
 20
15.57089400000001
 11
28.19286999999997
 21
15.58610199999998
 72
     1
 10
28.19286999999997
 20
15.58610199999998
 11
28.33459700000003
 21
15.60000000000002
 72
     1
 10
28.33459700000003
 20
15.60000000000002
 11
28.54527099999996
 21
15.63588399999998
 72
     1
 10
28.54527099999996
 20
15.63588399999998
 11
28.68285300000002
 21
15.67301600000002
 72
     1
 10
28.68285300000002
 20
15.67301600000002
 11
28.81743300000005
 21
15.72115400000001
 72
     1
 10
28.81743300000005
 20
15.72115400000001
 11
28.94784800000002
 21
15.77982200000002
 72
     1
 10
28.94784800000002
 20
15.77982200000002
 11
29.07293300000003
 21
15.848544
 72
     1
 10
29.07293300000003
 20
15.848544
 11
29.19152299999996
 21
15.92684400000002
 72
     1
 10
29.19152299999996
 20
15.92684400000002
 11
29.19152299999996
 21
15.62084399999998
 72
     1
 10
29.19152299999996
 20
15.62084399999998
 11
30.98657300000002
 21
15.62084399999998
 72
     1
 10
30.98657300000002
 20
15.62084399999998
 11
30.98657300000002
 21
20.82374399999998
 72
     1
 10
30.98657300000002
 20
20.82374399999998
 11
29.19152299999996
 21
20.82374399999998
 72
     1
 10
29.19152299999996
 20
20.82374399999998
 11
29.19152299999996
 21
19.31990400000001
 97
        0
 92
        0
 93
       86
 72
     1
 10
29.19152299999996
 20
17.75924400000002
 11
29.18522399999995
 21
17.79742900000002
 72
     1
 10
29.18522399999995
 20
17.79742900000002
 11
29.17670399999997
 21
17.83525800000001
 72
     1
 10
29.17670399999997
 20
17.83525800000001
 11
29.16597200000001
 21
17.87256500000001
 72
     1
 10
29.16597200000001
 20
17.87256500000001
 11
29.15304100000003
 21
17.90918399999998
 72
     1
 10
29.15304100000003
 20
17.90918399999998
 11
29.13791900000001
 21
17.94495000000001
 72
     1
 10
29.13791900000001
 20
17.94495000000001
 11
29.12062200000003
 21
17.97972399999998
 72
     1
 10
29.12062200000003
 20
17.97972399999998
 11
29.10124099999996
 21
18.01337000000001
 72
     1
 10
29.10124099999996
 20
18.01337000000001
 11
29.07987100000003
 21
18.04578099999998
 72
     1
 10
29.07987100000003
 20
18.04578099999998
 11
29.05660999999998
 21
18.07684799999998
 72
     1
 10
29.05660999999998
 20
18.07684799999998
 11
29.03155400000003
 21
18.10646400000002
 72
     1
 10
29.03155400000003
 20
18.10646400000002
 11
29.00480800000003
 21
18.13454000000002
 72
     1
 10
29.00480800000003
 20
18.13454000000002
 11
28.97651299999995
 21
18.16105900000002
 72
     1
 10
28.97651299999995
 20
18.16105900000002
 11
28.93149700000004
 21
18.19792000000001
 72
     1
 10
28.93149700000004
 20
18.19792000000001
 11
28.88383899999997
 21
18.23128800000001
 72
     1
 10
28.88383899999997
 20
18.23128800000001
 11
28.817408
 21
18.27025400000002
 72
     1
 10
28.817408
 20
18.27025400000002
 11
28.71259999999995
 21
18.31870500000002
 72
     1
 10
28.71259999999995
 20
18.31870500000002
 11
28.52912600000002
 21
18.38024000000001
 72
     1
 10
28.52912600000002
 20
18.38024000000001
 11
28.34129499999995
 21
18.426807
 72
     1
 10
28.34129499999995
 20
18.426807
 11
28.26536699999997
 21
18.43871999999999
 72
     1
 10
28.26536699999997
 20
18.43871999999999
 11
28.20799199999999
 21
18.44418400000001
 72
     1
 10
28.20799199999999
 20
18.44418400000001
 11
28.15043300000002
 21
18.44618500000001
 72
     1
 10
28.15043300000002
 20
18.44618500000001
 11
28.07320600000003
 21
18.44294100000002
 72
     1
 10
28.07320600000003
 20
18.44294100000002
 11
28.01556000000005
 21
18.43626899999998
 72
     1
 10
28.01556000000005
 20
18.43626899999998
 11
27.95838300000003
 21
18.42625199999998
 72
     1
 10
27.95838300000003
 20
18.42625199999998
 11
27.882791
 21
18.40795000000003
 72
     1
 10
27.882791
 20
18.40795000000003
 11
27.82709299999999
 21
18.39068900000001
 72
     1
 10
27.82709299999999
 20
18.39068900000001
 11
27.77240099999995
 21
18.37047899999999
 72
     1
 10
27.77240099999995
 20
18.37047899999999
 11
27.70162300000004
 21
18.33916399999998
 72
     1
 10
27.70162300000004
 20
18.33916399999998
 11
27.65017599999999
 21
18.31224500000002
 72
     1
 10
27.65017599999999
 20
18.31224500000002
 11
27.60037799999998
 21
18.28230000000002
 72
     1
 10
27.60037799999998
 20
18.28230000000002
 11
27.53744099999994
 21
18.23797999999999
 72
     1
 10
27.53744099999994
 20
18.23797999999999
 11
27.47837200000004
 21
18.18841300000003
 72
     1
 10
27.47837200000004
 20
18.18841300000003
 11
27.42376899999999
 21
18.13377600000001
 72
     1
 10
27.42376899999999
 20
18.13377600000001
 11
27.37423000000001
 21
18.07424700000001
 72
     1
 10
27.37423000000001
 20
18.07424700000001
 11
27.33035300000006
 21
18.01000299999998
 72
     1
 10
27.33035300000006
 20
18.01000299999998
 11
27.29281800000001
 21
17.941394
 72
     1
 10
27.29281800000001
 20
17.941394
 11
27.26252099999999
 21
17.86924599999998
 72
     1
 10
27.26252099999999
 20
17.86924599999998
 11
27.25039600000002
 21
17.832155
 72
     1
 10
27.25039600000002
 20
17.832155
 11
27.24044900000001
 21
17.79455200000001
 72
     1
 10
27.24044900000001
 20
17.79455200000001
 11
27.23280499999998
 21
17.75656099999998
 72
     1
 10
27.23280499999998
 20
17.75656099999998
 11
27.22758599999997
 21
17.71830599999998
 72
     1
 10
27.22758599999997
 20
17.71830599999998
 11
27.224917
 21
17.679912
 72
     1
 10
27.224917
 20
17.679912
 11
27.224919
 21
17.641503
 72
     1
 10
27.224919
 20
17.641503
 11
27.22769300000004
 21
17.60293999999999
 72
     1
 10
27.22769300000004
 20
17.60293999999999
 11
27.23311100000001
 21
17.564618
 72
     1
 10
27.23311100000001
 20
17.564618
 11
27.24098100000003
 21
17.52666699999997
 72
     1
 10
27.24098100000003
 20
17.52666699999997
 11
27.25111400000003
 21
17.489217
 72
     1
 10
27.25111400000003
 20
17.489217
 11
27.26331800000003
 21
17.45240000000001
 72
     1
 10
27.26331800000003
 20
17.45240000000001
 11
27.29364499999997
 21
17.380425
 72
     1
 10
27.29364499999997
 20
17.380425
 11
27.32104800000002
 21
17.32870600000001
 72
     1
 10
27.32104800000002
 20
17.32870600000001
 11
27.35215400000004
 21
17.27909999999997
 72
     1
 10
27.35215400000004
 20
17.27909999999997
 11
27.39858600000002
 21
17.21711299999998
 72
     1
 10
27.39858600000002
 20
17.21711299999998
 11
27.43723499999999
 21
17.17377199999999
 72
     1
 10
27.43723499999999
 20
17.17377199999999
 11
27.47906599999999
 21
17.133554
 72
     1
 10
27.47906599999999
 20
17.133554
 11
27.53918599999997
 21
17.085487
 72
     1
 10
27.53918599999997
 20
17.085487
 11
27.58721200000002
 21
17.05335500000001
 72
     1
 10
27.58721200000002
 20
17.05335500000001
 11
27.63725699999998
 21
17.02448099999998
 72
     1
 10
27.63725699999998
 20
17.02448099999998
 11
27.70704799999999
 21
16.99051900000001
 72
     1
 10
27.70704799999999
 20
16.99051900000001
 11
27.81564800000001
 21
16.94858099999999
 72
     1
 10
27.81564800000001
 20
16.94858099999999
 11
27.88966300000004
 21
16.92569900000001
 72
     1
 10
27.88966300000004
 20
16.92569900000001
 11
28.00273800000002
 21
16.89916799999997
 72
     1
 10
28.00273800000002
 20
16.89916799999997
 11
28.07891399999994
 21
16.88724500000001
 72
     1
 10
28.07891399999994
 20
16.88724500000001
 11
28.19419900000003
 21
16.878646
 72
     1
 10
28.19419900000003
 20
16.878646
 11
28.27146300000004
 21
16.87950899999998
 72
     1
 10
28.27146300000004
 20
16.87950899999998
 11
28.38690199999996
 21
16.89089999999999
 72
     1
 10
28.38690199999996
 20
16.89089999999999
 11
28.46279000000004
 21
16.90512699999999
 72
     1
 10
28.46279000000004
 20
16.90512699999999
 11
28.53763100000003
 21
16.924554
 72
     1
 10
28.53763100000003
 20
16.924554
 11
28.61100199999998
 21
16.94904700000001
 72
     1
 10
28.61100199999998
 20
16.94904700000001
 11
28.68247699999995
 21
16.97847300000001
 72
     1
 10
28.68247699999995
 20
16.97847300000001
 11
28.75163399999997
 21
17.012698
 72
     1
 10
28.75163399999997
 20
17.012698
 11
28.81849899999997
 21
17.05184600000001
 72
     1
 10
28.81849899999997
 20
17.05184600000001
 11
28.91321000000005
 21
17.11912599999999
 72
     1
 10
28.91321000000005
 20
17.11912599999999
 11
28.97214599999995
 21
17.16959900000001
 72
     1
 10
28.97214599999995
 20
17.16959900000001
 11
29.01332500000001
 21
17.21066400000001
 72
     1
 10
29.01332500000001
 20
17.21066400000001
 11
29.051197
 21
17.25474100000002
 72
     1
 10
29.051197
 20
17.25474100000002
 11
29.07423700000004
 21
17.28578199999998
 72
     1
 10
29.07423700000004
 20
17.28578199999998
 11
29.09545000000003
 21
17.31814100000003
 72
     1
 10
29.09545000000003
 20
17.31814100000003
 11
29.11475199999995
 21
17.35170099999999
 72
     1
 10
29.11475199999995
 20
17.35170099999999
 11
29.13206000000002
 21
17.38634400000001
 72
     1
 10
29.13206000000002
 20
17.38634400000001
 11
29.147289
 21
17.42195400000003
 72
     1
 10
29.147289
 20
17.42195400000003
 11
29.16041099999995
 21
17.45852500000001
 72
     1
 10
29.16041099999995
 20
17.45852500000001
 11
29.17137700000001
 21
17.49579699999998
 72
     1
 10
29.17137700000001
 20
17.49579699999998
 11
29.180205
 21
17.53361899999999
 72
     1
 10
29.180205
 20
17.53361899999999
 11
29.186914
 21
17.57183500000002
 72
     1
 10
29.186914
 20
17.57183500000002
 11
29.19152299999996
 21
17.61029400000001
 72
     1
 10
29.19152299999996
 20
17.61029400000001
 11
29.19152299999996
 21
17.75924400000002
 97
        0
 75
     0
 76
     2
 52
0.0
 41
0.062992
 77
     0
 78
     1
 53
44.99999999988837
 43
0.0
 44
0.0
 45
-3.592095212307267
 46
3.592095212321264
 79
     0
 98
        0
  0
HATCH
  5
CB
330
1F
100
AcDbEntity
  8
CARTOUCHE
  6
CONTINUOUS
 62
     4
100
AcDbHatch
 10
0.0
 20
0.0
 30
0.0
210
0.0
220
0.0
230
1.0
  2
ANSI_31
 70
     0
 71
     0
 91
        2
 92
        1
 93
      122
 72
     1
 10
34.05107299999997
 20
17.24444399999999
 11
34.15412300000003
 21
17.24444399999999
 72
     1
 10
34.15412300000003
 20
17.24444399999999
 11
37.20692299999996
 21
17.25614400000001
 72
     1
 10
37.20692299999996
 20
17.25614400000001
 11
37.23237800000004
 21
17.36584699999997
 72
     1
 10
37.23237800000004
 20
17.36584699999997
 11
37.245048
 21
17.44946199999998
 72
     1
 10
37.245048
 20
17.44946199999998
 11
37.25187400000004
 21
17.533703
 72
     1
 10
37.25187400000004
 20
17.533703
 11
37.25173500000005
 21
17.64696900000001
 72
     1
 10
37.25173500000005
 20
17.64696900000001
 11
37.23470999999995
 21
17.81609600000002
 72
     1
 10
37.23470999999995
 20
17.81609600000002
 11
37.20846500000005
 21
17.95621299999999
 72
     1
 10
37.20846500000005
 20
17.95621299999999
 11
37.17357900000002
 21
18.09436799999997
 72
     1
 10
37.17357900000002
 20
18.09436799999997
 11
37.13179500000001
 21
18.22914600000001
 72
     1
 10
37.13179500000001
 20
18.22914600000001
 11
37.08234200000004
 21
18.36142100000001
 72
     1
 10
37.08234200000004
 20
18.36142100000001
 11
37.03686200000004
 21
18.46471600000001
 72
     1
 10
37.03686200000004
 20
18.46471600000001
 11
36.985861
 21
18.56553500000001
 72
     1
 10
36.985861
 20
18.56553500000001
 11
36.92927999999995
 21
18.66332299999999
 72
     1
 10
36.92927999999995
 20
18.66332299999999
 11
36.86706100000004
 21
18.75752699999998
 72
     1
 10
36.86706100000004
 20
18.75752699999998
 11
36.79914499999995
 21
18.84759500000001
 72
     1
 10
36.79914499999995
 20
18.84759500000001
 11
36.72552399999995
 21
18.93313000000001
 72
     1
 10
36.72552399999995
 20
18.93313000000001
 11
36.64671899999996
 21
19.014004
 72
     1
 10
36.64671899999996
 20
19.014004
 11
36.563309
 21
19.09025500000001
 72
     1
 10
36.563309
 20
19.09025500000001
 11
36.384996
 21
19.22902599999998
 72
     1
 10
36.384996
 20
19.22902599999998
 11
36.26698599999997
 21
19.30660499999999
 72
     1
 10
36.26698599999997
 20
19.30660499999999
 11
36.14445000000001
 21
19.376442
 72
     1
 10
36.14445000000001
 20
19.376442
 11
36.01771899999994
 21
19.43798600000002
 72
     1
 10
36.01771899999994
 20
19.43798600000002
 11
35.88739599999997
 21
19.491649
 72
     1
 10
35.88739599999997
 20
19.491649
 11
35.61887200000001
 21
19.578734
 72
     1
 10
35.61887200000001
 20
19.578734
 11
35.344652
 21
19.64564899999999
 72
     1
 10
35.344652
 20
19.64564899999999
 11
35.06700499999999
 21
19.69362999999998
 72
     1
 10
35.06700499999999
 20
19.69362999999998
 11
34.78677800000003
 21
19.72351500000002
 72
     1
 10
34.78677800000003
 20
19.72351500000002
 11
34.22285499999998
 21
19.73587400000002
 72
     1
 10
34.22285499999998
 20
19.73587400000002
 11
33.66058599999997
 21
19.69579499999998
 72
     1
 10
33.66058599999997
 20
19.69579499999998
 11
33.38229999999999
 21
19.651139
 72
     1
 10
33.38229999999999
 20
19.651139
 11
33.10728300000005
 21
19.5883
 72
     1
 10
33.10728300000005
 20
19.5883
 11
32.89059299999997
 21
19.52408000000003
 72
     1
 10
32.89059299999997
 20
19.52408000000003
 11
32.73158599999999
 21
19.46569699999998
 72
     1
 10
32.73158599999999
 20
19.46569699999998
 11
32.57691
 21
19.39662499999997
 72
     1
 10
32.57691
 20
19.39662499999997
 11
32.47700599999996
 21
19.34397899999999
 72
     1
 10
32.47700599999996
 20
19.34397899999999
 11
32.38006700000005
 21
19.28586300000001
 72
     1
 10
32.38006700000005
 20
19.28586300000001
 11
32.28661299999999
 21
19.222306
 72
     1
 10
32.28661299999999
 20
19.222306
 11
32.19716500000004
 21
19.15334000000001
 72
     1
 10
32.19716500000004
 20
19.15334000000001
 11
32.11224300000003
 21
19.07899500000002
 72
     1
 10
32.11224300000003
 20
19.07899500000002
 11
32.03232000000003
 21
18.999414
 72
     1
 10
32.03232000000003
 20
18.999414
 11
31.95746899999995
 21
18.91497400000003
 72
     1
 10
31.95746899999995
 20
18.91497400000003
 11
31.88772300000005
 21
18.82616400000001
 72
     1
 10
31.88772300000005
 20
18.82616400000001
 11
31.82311300000003
 21
18.73346900000001
 72
     1
 10
31.82311300000003
 20
18.73346900000001
 11
31.76366900000005
 21
18.63737500000002
 72
     1
 10
31.76366900000005
 20
18.63737500000002
 11
31.66049099999998
 21
18.43648899999999
 72
     1
 10
31.66049099999998
 20
18.43648899999999
 11
31.61706100000004
 21
18.33229899999998
 72
     1
 10
31.61706100000004
 20
18.33229899999998
 11
31.57925699999998
 21
18.22594300000003
 72
     1
 10
31.57925699999998
 20
18.22594300000003
 11
31.54722200000003
 21
18.11767400000002
 72
     1
 10
31.54722200000003
 20
18.11767400000002
 11
31.52110400000004
 21
18.00779
 72
     1
 10
31.52110400000004
 20
18.00779
 11
31.50105099999996
 21
17.896613
 72
     1
 10
31.50105099999996
 20
17.896613
 11
31.48722299999997
 21
17.78451200000001
 72
     1
 10
31.48722299999997
 20
17.78451200000001
 11
31.47977800000001
 21
17.67185599999999
 72
     1
 10
31.47977800000001
 20
17.67185599999999
 11
31.47887600000001
 21
17.55901399999999
 72
     1
 10
31.47887600000001
 20
17.55901399999999
 11
31.48475800000006
 21
17.44607200000002
 72
     1
 10
31.48475800000006
 20
17.44607200000002
 11
31.50730299999998
 21
17.27824299999997
 72
     1
 10
31.50730299999998
 20
17.27824299999997
 11
31.53184199999998
 21
17.168363
 72
     1
 10
31.53184199999998
 20
17.168363
 11
31.58066099999996
 21
17.00635399999999
 72
     1
 10
31.58066099999996
 20
17.00635399999999
 11
31.66317600000002
 21
16.79605099999998
 72
     1
 10
31.66317600000002
 20
16.79605099999998
 11
31.73810200000003
 21
16.64424300000002
 72
     1
 10
31.73810200000003
 20
16.64424300000002
 11
31.82487600000002
 21
16.49928499999999
 72
     1
 10
31.82487600000002
 20
16.49928499999999
 11
31.906565
 21
16.38422000000003
 72
     1
 10
31.906565
 20
16.38422000000003
 11
31.99507500000004
 21
16.274114
 72
     1
 10
31.99507500000004
 20
16.274114
 11
32.069976
 21
16.189232
 72
     1
 10
32.069976
 20
16.189232
 11
32.19090600000004
 21
16.07040799999999
 72
     1
 10
32.19090600000004
 20
16.07040799999999
 11
32.27814000000001
 21
15.99937299999999
 72
     1
 10
32.27814000000001
 20
15.99937299999999
 11
32.41820700000005
 21
15.90511500000002
 72
     1
 10
32.41820700000005
 20
15.90511500000002
 11
32.54199200000005
 21
15.83675699999998
 72
     1
 10
32.54199200000005
 20
15.83675699999998
 11
32.66963099999998
 21
15.77567299999998
 72
     1
 10
32.66963099999998
 20
15.77567299999998
 11
32.87800800000002
 21
15.68845699999997
 72
     1
 10
32.87800800000002
 20
15.68845699999997
 11
33.19960600000002
 21
15.58288099999999
 72
     1
 10
33.19960600000002
 20
15.58288099999999
 11
33.41901499999994
 21
15.53133800000001
 72
     1
 10
33.41901499999994
 20
15.53133800000001
 11
33.753153
 21
15.47783800000002
 72
     1
 10
33.753153
 20
15.47783800000002
 11
34.03387999999995
 21
15.450243
 72
     1
 10
34.03387999999995
 20
15.450243
 11
34.31548199999997
 21
15.43816199999998
 72
     1
 10
34.31548199999997
 20
15.43816199999998
 11
34.87832400000002
 21
15.461635
 72
     1
 10
34.87832400000002
 20
15.461635
 11
35.15919199999996
 21
15.49446799999998
 72
     1
 10
35.15919199999996
 20
15.49446799999998
 11
35.43780400000003
 21
15.54223500000001
 72
     1
 10
35.43780400000003
 20
15.54223500000001
 11
35.71211800000003
 21
15.60834399999999
 72
     1
 10
35.71211800000003
 20
15.60834399999999
 11
35.97822199999996
 21
15.69993399999998
 72
     1
 10
35.97822199999996
 20
15.69993399999998
 11
36.23556399999995
 21
15.81532399999998
 72
     1
 10
36.23556399999995
 20
15.81532399999998
 11
36.36129900000003
 21
15.879186
 72
     1
 10
36.36129900000003
 20
15.879186
 11
36.48298
 21
15.950245
 72
     1
 10
36.48298
 20
15.950245
 11
36.57561799999996
 21
16.01478200000003
 72
     1
 10
36.57561799999996
 20
16.01478200000003
 11
36.64162099999999
 21
16.06789500000002
 72
     1
 10
36.64162099999999
 20
16.06789500000002
 11
36.70417599999996
 21
16.12494700000002
 72
     1
 10
36.70417599999996
 20
16.12494700000002
 11
36.78170999999998
 21
16.20681500000001
 72
     1
 10
36.78170999999998
 20
16.20681500000001
 11
36.88612499999999
 21
16.34008899999998
 72
     1
 10
36.88612499999999
 20
16.34008899999998
 11
36.94806800000003
 21
16.43459300000001
 72
     1
 10
36.94806800000003
 20
16.43459300000001
 11
36.98954600000002
 21
16.50838599999997
 72
     1
 10
36.98954600000002
 20
16.50838599999997
 11
37.02580999999998
 21
16.58482800000002
 72
     1
 10
37.02580999999998
 20
16.58482800000002
 11
37.06495300000006
 21
16.69080600000001
 72
     1
 10
37.06495300000006
 20
16.69080600000001
 11
37.08735000000001
 21
16.77260000000001
 72
     1
 10
37.08735000000001
 20
16.77260000000001
 11
37.10387300000002
 21
16.85564399999998
 72
     1
 10
37.10387300000002
 20
16.85564399999998
 11
35.34302300000002
 21
16.85564399999998
 72
     1
 10
35.34302300000002
 20
16.85564399999998
 11
35.23476000000005
 21
16.77513900000002
 72
     1
 10
35.23476000000005
 20
16.77513900000002
 11
35.14934200000005
 21
16.72065500000002
 72
     1
 10
35.14934200000005
 20
16.72065500000002
 11
35.06077600000003
 21
16.67143299999998
 72
     1
 10
35.06077600000003
 20
16.67143299999998
 11
34.98475800000006
 21
16.634773
 72
     1
 10
34.98475800000006
 20
16.634773
 11
34.90657599999997
 21
16.60330699999997
 72
     1
 10
34.90657599999997
 20
16.60330699999997
 11
34.84227699999997
 21
16.58263499999998
 72
     1
 10
34.84227699999997
 20
16.58263499999998
 11
34.743651
 21
16.55908799999997
 72
     1
 10
34.743651
 20
16.55908799999997
 11
34.60933699999998
 21
16.54053599999997
 72
     1
 10
34.60933699999998
 20
16.54053599999997
 11
34.50763900000004
 21
16.53565600000002
 72
     1
 10
34.50763900000004
 20
16.53565600000002
 11
34.40580899999998
 21
16.537981
 72
     1
 10
34.40580899999998
 20
16.537981
 11
34.27139199999999
 21
16.55149599999999
 72
     1
 10
34.27139199999999
 20
16.55149599999999
 11
34.17168100000004
 21
16.569188
 72
     1
 10
34.17168100000004
 20
16.569188
 11
34.07332900000006
 21
16.593186
 72
     1
 10
34.07332900000006
 20
16.593186
 11
33.944884
 21
16.63503700000001
 72
     1
 10
33.944884
 20
16.63503700000001
 11
33.85139500000002
 21
16.67430100000001
 72
     1
 10
33.85139500000002
 20
16.67430100000001
 11
33.76098100000002
 21
16.72084599999999
 72
     1
 10
33.76098100000002
 20
16.72084599999999
 11
33.70284000000004
 21
16.75614000000002
 72
     1
 10
33.70284000000004
 20
16.75614000000002
 11
33.64707699999997
 21
16.79510399999998
 72
     1
 10
33.64707699999997
 20
16.79510399999998
 11
33.59445000000005
 21
16.83796699999999
 72
     1
 10
33.59445000000005
 20
16.83796699999999
 11
33.54571899999996
 21
16.88495599999999
 72
     1
 10
33.54571899999996
 20
16.88495599999999
 11
33.50164199999995
 21
16.93630000000002
 72
     1
 10
33.50164199999995
 20
16.93630000000002
 11
33.46287700000005
 21
16.99205000000001
 72
     1
 10
33.46287700000005
 20
16.99205000000001
 11
33.42966899999999
 21
17.05156199999999
 72
     1
 10
33.42966899999999
 20
17.05156199999999
 11
33.40216099999998
 21
17.114013
 72
     1
 10
33.40216099999998
 20
17.114013
 11
33.38049799999999
 21
17.17858100000001
 72
     1
 10
33.38049799999999
 20
17.17858100000001
 11
33.364823
 21
17.24444399999999
 72
     1
 10
33.364823
 20
17.24444399999999
 11
34.05107299999997
 21
17.24444399999999
 97
        0
 92
        0
 93
       43
 72
     1
 10
33.364823
 20
18.07919400000003
 11
34.15412300000003
 21
18.07919400000003
 72
     1
 10
34.15412300000003
 20
18.07919400000003
 11
35.34302300000002
 21
18.07919400000003
 72
     1
 10
35.34302300000002
 20
18.07919400000003
 11
35.33909900000003
 21
18.11641600000002
 72
     1
 10
35.33909900000003
 20
18.11641600000002
 11
35.33300199999996
 21
18.15343100000001
 72
     1
 10
35.33300199999996
 20
18.15343100000001
 11
35.32469200000003
 21
18.19004899999999
 72
     1
 10
35.32469200000003
 20
18.19004899999999
 11
35.31413199999997
 21
18.22607800000003
 72
     1
 10
35.31413199999997
 20
18.22607800000003
 11
35.30128500000001
 21
18.26132899999999
 72
     1
 10
35.30128500000001
 20
18.26132899999999
 11
35.28615600000001
 21
18.29560600000002
 72
     1
 10
35.28615600000001
 20
18.29560600000002
 11
35.26886400000001
 21
18.328846
 72
     1
 10
35.26886400000001
 20
18.328846
 11
35.24956699999996
 21
18.36098199999998
 72
     1
 10
35.24956699999996
 20
18.36098199999998
 11
35.22842500000002
 21
18.39194400000002
 72
     1
 10
35.22842500000002
 20
18.39194400000002
 11
35.20559500000002
 21
18.42166400000002
 72
     1
 10
35.20559500000002
 20
18.42166400000002
 11
35.15515800000003
 21
18.47753399999999
 72
     1
 10
35.15515800000003
 20
18.47753399999999
 11
35.11388799999997
 21
18.51605899999998
 72
     1
 10
35.11388799999997
 20
18.51605899999998
 11
35.07014900000001
 21
18.55176799999998
 72
     1
 10
35.07014900000001
 20
18.55176799999998
 11
35.00889700000005
 21
18.59493600000002
 72
     1
 10
35.00889700000005
 20
18.59493600000002
 11
34.96089400000005
 21
18.624144
 72
     1
 10
34.96089400000005
 20
18.624144
 11
34.91135099999997
 21
18.650643
 72
     1
 10
34.91135099999997
 20
18.650643
 11
34.84321299999999
 21
18.681802
 72
     1
 10
34.84321299999999
 20
18.681802
 11
34.73746300000005
 21
18.71981099999999
 72
     1
 10
34.73746300000005
 20
18.71981099999999
 11
34.66503399999999
 21
18.73954600000002
 72
     1
 10
34.66503399999999
 20
18.73954600000002
 11
34.55447500000002
 21
18.760807
 72
     1
 10
34.55447500000002
 20
18.760807
 11
34.47958200000005
 21
18.76953400000002
 72
     1
 10
34.47958200000005
 20
18.76953400000002
 11
34.36667799999998
 21
18.77476999999999
 72
     1
 10
34.36667799999998
 20
18.77476999999999
 11
34.29122900000004
 21
18.77322600000002
 72
     1
 10
34.29122900000004
 20
18.77322600000002
 11
34.17824399999995
 21
18.76280200000002
 72
     1
 10
34.17824399999995
 20
18.76280200000002
 11
34.10438799999997
 21
18.74982399999999
 72
     1
 10
34.10438799999997
 20
18.74982399999999
 11
34.068085
 21
18.74084699999997
 72
     1
 10
34.068085
 20
18.74084699999997
 11
34.03251399999999
 21
18.72981099999998
 72
     1
 10
34.03251399999999
 20
18.72981099999998
 11
33.99791200000004
 21
18.71641799999998
 72
     1
 10
33.99791200000004
 20
18.71641799999998
 11
33.96434399999998
 21
18.70050800000001
 72
     1
 10
33.96434399999998
 20
18.70050800000001
 11
33.83484299999998
 21
18.62568099999999
 72
     1
 10
33.83484299999998
 20
18.62568099999999
 11
33.67159400000003
 21
18.53558099999998
 72
     1
 10
33.67159400000003
 20
18.53558099999998
 11
33.64097600000002
 21
18.51416
 72
     1
 10
33.64097600000002
 20
18.51416
 11
33.611625
 21
18.49088
 72
     1
 10
33.611625
 20
18.49088
 11
33.58359099999996
 21
18.46591100000001
 72
     1
 10
33.58359099999996
 20
18.46591100000001
 11
33.53168100000005
 21
18.41158999999999
 72
     1
 10
33.53168100000005
 20
18.41158999999999
 11
33.48534099999995
 21
18.35202500000003
 72
     1
 10
33.48534099999995
 20
18.35202500000003
 11
33.45462099999997
 21
18.304551
 72
     1
 10
33.45462099999997
 20
18.304551
 11
33.427457
 21
18.254932
 72
     1
 10
33.427457
 20
18.254932
 11
33.3972
 21
18.18647299999998
 72
     1
 10
33.3972
 20
18.18647299999998
 11
33.37897999999996
 21
18.13339500000001
 72
     1
 10
33.37897999999996
 20
18.13339500000001
 11
33.364823
 21
18.07919400000003
 97
        0
 75
     0
 76
     2
 52
0.0
 41
0.062992
 77
     0
 78
     1
 53
44.99999999988837
 43
0.0
 44
0.0
 45
-3.592095212307267
 46
3.592095212321264
 79
     0
 98
        0
  0
HATCH
  5
CC
330
1F
100
AcDbEntity
  8
CARTOUCHE
  6
CONTINUOUS
 62
     4
100
AcDbHatch
 10
0.0
 20
0.0
 30
0.0
210
0.0
220
0.0
230
1.0
  2
ANSI_31
 70
     0
 71
     0
 91
        1
 92
        1
 93
       78
 72
     1
 10
37.73297300000002
 20
19.50839400000001
 11
37.73297300000002
 21
15.632094
 72
     1
 10
37.73297300000002
 20
15.632094
 11
39.45962299999997
 21
15.632094
 72
     1
 10
39.45962299999997
 20
15.632094
 11
39.45962299999997
 21
17.782194
 72
     1
 10
39.45962299999997
 20
17.782194
 11
39.46348799999998
 21
17.82556299999999
 72
     1
 10
39.46348799999998
 20
17.82556299999999
 11
39.47094600000003
 21
17.86858599999999
 72
     1
 10
39.47094600000003
 20
17.86858599999999
 11
39.48187900000005
 21
17.91099100000002
 72
     1
 10
39.48187900000005
 20
17.91099100000002
 11
39.496172
 21
17.95250399999998
 72
     1
 10
39.496172
 20
17.95250399999998
 11
39.51370699999995
 21
17.99285099999997
 72
     1
 10
39.51370699999995
 20
17.99285099999997
 11
39.53438600000004
 21
18.03175499999998
 72
     1
 10
39.53438600000004
 20
18.03175499999998
 11
39.55812200000003
 21
18.06881399999997
 72
     1
 10
39.55812200000003
 20
18.06881399999997
 11
39.58484099999998
 21
18.10362400000002
 72
     1
 10
39.58484099999998
 20
18.10362400000002
 11
39.61447299999998
 21
18.13578000000001
 72
     1
 10
39.61447299999998
 20
18.13578000000001
 11
39.64694299999996
 21
18.16487799999999
 72
     1
 10
39.64694299999996
 20
18.16487799999999
 11
39.68210899999997
 21
18.19058699999999
 72
     1
 10
39.68210899999997
 20
18.19058699999999
 11
39.71962599999995
 21
18.21293300000002
 72
     1
 10
39.71962599999995
 20
18.21293300000002
 11
39.75908300000003
 21
18.232012
 72
     1
 10
39.75908300000003
 20
18.232012
 11
39.80006700000001
 21
18.24792000000002
 72
     1
 10
39.80006700000001
 20
18.24792000000002
 11
39.84216600000002
 21
18.26075500000002
 72
     1
 10
39.84216600000002
 20
18.26075500000002
 11
39.88545499999998
 21
18.27065499999998
 72
     1
 10
39.88545499999998
 20
18.27065499999998
 11
39.92924100000005
 21
18.27734399999997
 72
     1
 10
39.92924100000005
 20
18.27734399999997
 11
39.97330699999998
 21
18.28064899999998
 72
     1
 10
39.97330699999998
 20
18.28064899999998
 11
40.01743299999998
 21
18.28040099999998
 72
     1
 10
40.01743299999998
 20
18.28040099999998
 11
40.06139900000005
 21
18.27642800000001
 72
     1
 10
40.06139900000005
 20
18.27642800000001
 11
40.10431900000003
 21
18.26873599999999
 72
     1
 10
40.10431900000003
 20
18.26873599999999
 11
40.14647100000002
 21
18.257294
 72
     1
 10
40.14647100000002
 20
18.257294
 11
40.187456
 21
18.24213600000002
 72
     1
 10
40.187456
 20
18.24213600000002
 11
40.22687299999996
 21
18.22329300000001
 72
     1
 10
40.22687299999996
 20
18.22329300000001
 11
40.264321
 21
18.20079700000002
 72
     1
 10
40.264321
 20
18.20079700000002
 11
40.29950399999996
 21
18.17464200000001
 72
     1
 10
40.29950399999996
 20
18.17464200000001
 11
40.33194700000001
 21
18.14511900000002
 72
     1
 10
40.33194700000001
 20
18.14511900000002
 11
40.36129100000005
 21
18.11249900000001
 72
     1
 10
40.36129100000005
 20
18.11249900000001
 11
40.38718100000006
 21
18.07705399999998
 72
     1
 10
40.38718100000006
 20
18.07705399999998
 11
40.40925700000003
 21
18.03905600000002
 72
     1
 10
40.40925700000003
 20
18.03905600000002
 11
40.42712900000004
 21
17.999011
 72
     1
 10
40.42712900000004
 20
17.999011
 11
40.44073200000003
 21
17.95727699999998
 72
     1
 10
40.44073200000003
 20
17.95727699999998
 11
40.44992999999999
 21
17.914423
 72
     1
 10
40.44992999999999
 20
17.914423
 11
40.45458899999994
 21
17.87102199999998
 72
     1
 10
40.45458899999994
 20
17.87102199999998
 11
40.45517399999994
 21
17.84929399999999
 72
     1
 10
40.45517399999994
 20
17.84929399999999
 11
40.45457299999998
 21
17.82764400000002
 72
     1
 10
40.45457299999998
 20
17.82764400000002
 11
40.45457299999998
 21
17.58779399999997
 72
     1
 10
40.45457299999998
 20
17.58779399999997
 11
42.28382299999998
 21
17.58779399999997
 72
     1
 10
42.28382299999998
 20
17.58779399999997
 11
42.30047999999999
 21
17.74190099999998
 72
     1
 10
42.30047999999999
 20
17.74190099999998
 11
42.30803400000002
 21
17.89676400000002
 72
     1
 10
42.30803400000002
 20
17.89676400000002
 11
42.30622300000005
 21
18.05192099999999
 72
     1
 10
42.30622300000005
 20
18.05192099999999
 11
42.29564800000003
 21
18.20671600000003
 72
     1
 10
42.29564800000003
 20
18.20671600000003
 11
42.27690800000005
 21
18.360972
 72
     1
 10
42.27690800000005
 20
18.360972
 11
42.24990000000003
 21
18.51409699999999
 72
     1
 10
42.24990000000003
 20
18.51409699999999
 11
42.22187399999996
 21
18.63507199999998
 72
     1
 10
42.22187399999996
 20
18.63507199999998
 11
42.19592
 21
18.724445
 72
     1
 10
42.19592
 20
18.724445
 11
42.16467999999998
 21
18.812049
 72
     1
 10
42.16467999999998
 20
18.812049
 11
42.11349900000005
 21
18.92525000000001
 72
     1
 10
42.11349900000005
 20
18.92525000000001
 11
42.06786699999998
 21
19.00661500000001
 72
     1
 10
42.06786699999998
 20
19.00661500000001
 11
42.01605700000005
 21
19.08429999999998
 72
     1
 10
42.01605700000005
 20
19.08429999999998
 11
41.97801800000002
 21
19.133848
 72
     1
 10
41.97801800000002
 20
19.133848
 11
41.93728699999997
 21
19.18120800000003
 72
     1
 10
41.93728699999997
 20
19.18120800000003
 11
41.89391699999999
 21
19.22609699999998
 72
     1
 10
41.89391699999999
 20
19.22609699999998
 11
41.84796300000005
 21
19.26823000000002
 72
     1
 10
41.84796300000005
 20
19.26823000000002
 11
41.79947600000003
 21
19.30732599999999
 72
     1
 10
41.79947600000003
 20
19.30732599999999
 11
41.74884699999996
 21
19.34298100000001
 72
     1
 10
41.74884699999996
 20
19.34298100000001
 11
41.69608700000003
 21
19.375497
 72
     1
 10
41.69608700000003
 20
19.375497
 11
41.61365699999999
 21
19.41870299999999
 72
     1
 10
41.61365699999999
 20
19.41870299999999
 11
41.52824199999998
 21
19.45566400000001
 72
     1
 10
41.52824199999998
 20
19.45566400000001
 11
41.41028500000004
 21
19.496534
 72
     1
 10
41.41028500000004
 20
19.496534
 11
41.22888
 21
19.54287199999999
 72
     1
 10
41.22888
 20
19.54287199999999
 11
41.10697100000004
 21
19.56607500000001
 72
     1
 10
41.10697100000004
 20
19.56607500000001
 11
40.92238599999996
 21
19.58782100000002
 72
     1
 10
40.92238599999996
 20
19.58782100000002
 11
40.79850399999998
 21
19.59181599999999
 72
     1
 10
40.79850399999998
 20
19.59181599999999
 11
40.61256800000001
 21
19.58370300000001
 72
     1
 10
40.61256800000001
 20
19.58370300000001
 11
40.45792600000004
 21
19.56627400000002
 72
     1
 10
40.45792600000004
 20
19.56627400000002
 11
40.30471599999998
 21
19.53948200000002
 72
     1
 10
40.30471599999998
 20
19.53948200000002
 11
40.18380500000001
 21
19.51113500000002
 72
     1
 10
40.18380500000001
 20
19.51113500000002
 11
40.00579900000002
 21
19.45603
 72
     1
 10
40.00579900000002
 20
19.45603
 11
39.89043400000003
 21
19.41051800000002
 72
     1
 10
39.89043400000003
 20
19.41051800000002
 11
39.77781700000003
 21
19.35819800000002
 72
     1
 10
39.77781700000003
 20
19.35819800000002
 11
39.66826400000002
 21
19.29957999999999
 72
     1
 10
39.66826400000002
 20
19.29957999999999
 11
39.45962299999997
 21
19.16549400000002
 72
     1
 10
39.45962299999997
 20
19.16549400000002
 11
39.45962299999997
 21
19.50839400000001
 72
     1
 10
39.45962299999997
 20
19.50839400000001
 11
37.73297300000002
 21
19.50839400000001
 97
        0
 75
     0
 76
     2
 52
0.0
 41
0.062992
 77
     0
 78
     1
 53
44.99999999988837
 43
0.0
 44
0.0
 45
-3.592095212307267
 46
3.592095212321264
 79
     0
 98
        0
  0
LINE
  5
CD
330
1F
100
AcDbEntity
  8
CARTOUCHE
  6
CONTINUOUS
 62
     7
100
AcDbLine
 10
200.000037
 20
31.845156
 30
0.0
 11
0.0
 21
31.845462
 31
0.0
  0
LINE
  5
CE
330
1F
100
AcDbEntity
  8
CARTOUCHE
  6
CONTINUOUS
 62
     7
100
AcDbLine
 10
148.33333
 20
15.002887
 30
0.0
 11
148.33333
 21
5.000945
 31
0.0
  0
TEXT
  5
CF
330
1F
100
AcDbEntity
  8
CARTOUCHE
  6
CONTINUOUS
 62
     2
100
AcDbText
 10
11.190943
 20
9.308782
 30
0.0
 40
1.8
  1
www.findernet.com
 50
359.999908
  7
FINDER
100
AcDbText
  0
TEXT
  5
D0
330
1F
100
AcDbEntity
  8
CARTOUCHE
  6
CONTINUOUS
 62
     7
100
AcDbText
 10
119.919563
 20
11.624226
 30
0.0
 40
1.8
  1
DATE
 50
359.999908
 41
0.9
  7
FINDER
100
AcDbText
  0
TEXT
  5
D1
330
1F
100
AcDbEntity
  8
CARTOUCHE
  6
CONTINUOUS
 62
     1
100
AcDbText
 10
118.89595
 20
6.776225
 30
0.0
 40
2.1
  1
05/04/11
 50
359.999908
 41
1.04
  7
FINDER
100
AcDbText
  0
TEXT
  5
D2
330
1F
100
AcDbEntity
  8
CARTOUCHE
  6
CONTINUOUS
 62
     7
100
AcDbText
 10
170.877045
 20
11.624147
 30
0.0
 40
1.8
  1
SCALE
 50
359.999908
  7
FINDER
100
AcDbText
  0
TEXT
  5
D3
330
1F
100
AcDbEntity
  8
CARTOUCHE
  6
CONTINUOUS
 62
     1
100
AcDbText
 10
172.623032
 20
6.776122
 30
0.0
 40
2.1
  1
1:1
 50
359.999908
 41
1.61
  7
FINDER
100
AcDbText
  0
TEXT
  5
D4
330
1F
100
AcDbEntity
  8
CARTOUCHE
  6
CONTINUOUS
 62
     1
100
AcDbText
 10
115.798492
 20
17.435961
 30
0.0
 40
3.0
  1
72.42
 50
359.999908
  7
FINDER
100
AcDbText
  0
LINE
  5
D5
330
1F
100
AcDbEntity
  8
0
  6
CONTINUOUS
 62
     6
100
AcDbLine
 10
154.349941
 20
170.184326
 30
0.0
 11
154.349941
 21
129.184326
 31
0.0
  0
LINE
  5
D6
330
1F
100
AcDbEntity
  8
0
  6
CONTINUOUS
 62
     5
100
AcDbLine
 10
97.549941
 20
172.184326
 30
0.0
 11
97.549941
 21
178.684326
 31
0.0
  0
LINE
  5
D7
330
1F
100
AcDbEntity
  8
0
  6
CONTINUOUS
 62
     5
100
AcDbLine
 10
97.549941
 20
120.684326
 30
0.0
 11
97.549941
 21
127.184326
 31
0.0
  0
LINE
  5
D8
330
1F
100
AcDbEntity
  8
0
  6
CONTINUOUS
 62
     5
100
AcDbLine
 10
99.344064
 20
189.684326
 30
0.0
 11
97.757121
 21
180.684326
 31
0.0
  0
LINE
  5
D9
330
1F
100
AcDbEntity
  8
0
  6
CONTINUOUS
 62
     5
100
AcDbLine
 10
97.549941
 20
109.684326
 30
0.0
 11
97.549941
 21
118.684326
 31
0.0
  0
LINE
  5
DA
330
1F
100
AcDbEntity
  8
0
  6
CONTINUOUS
 62
     5
100
AcDbLine
 10
101.849941
 20
170.184326
 30
0.0
 11
101.849941
 21
129.184326
 31
0.0
  0
CIRCLE
  5
DB
330
1F
100
AcDbEntity
  8
0
  6
CONTINUOUS
 62
     5
100
AcDbCircle
 10
105.974374
 20
185.475615
 30
0.0
 40
2.283226896594906
  0
ARC
  5
DC
330
1F
100
AcDbEntity
  8
0
  6
CONTINUOUS
 62
     5
100
AcDbCircle
 10
-105.974376
 20
185.475613
 30
0.0
 40
1.80418896794981
210
0.0
220
0.0
230
-1.0
100
AcDbArc
 50
7.69553
 51
67.558968
  0
LINE
  5
DD
330
1F
100
AcDbEntity
  8
0
  6
CONTINUOUS
 62
     5
100
AcDbLine
 10
105.285659
 20
187.143176
 30
0.0
 11
105.285659
 21
185.71721
 31
0.0
  0
LINE
  5
DE
330
1F
100
AcDbEntity
  8
0
  6
CONTINUOUS
 62
     5
100
AcDbLine
 10
105.285659
 20
185.71721
 30
0.0
 11
104.186436
 21
185.71721
 31
0.0
  0
SPLINE
  5
DF
330
1F
100
AcDbEntity
  8
0
  6
CONTINUOUS
 62
     5
100
AcDbSpline
210
0.0
220
0.0
230
1.0
 70
     8
 71
     3
 72
    12
 73
     8
 74
     0
 42
0.0
 43
0.0
 40
0.0
 40
0.0
 40
0.0
 40
0.0
 40
0.3637905269759911
 40
0.9684673001366666
 40
1.640575178382409
 40
2.495589798140456
 40
3.36356733241194
 40
3.36356733241194
 40
3.36356733241194
 40
3.36356733241194
 10
106.1059191110852
 20
183.9122103944096
 30
0.0
 10
106.127510645136
 20
183.897142422456
 30
0.0
 10
106.1889826650781
 20
183.8622706944486
 30
0.0
 10
106.3053836230345
 20
183.8278999015395
 30
0.0
 10
106.4601760343087
 20
183.8624531188559
 30
0.0
 10
106.6076883682506
 20
183.9652183803702
 30
0.0
 10
106.6534478606056
 20
184.0905876560323
 30
0.0
 10
106.6576906296949
 20
184.1529378505023
 30
0.0
  0
LINE
  5
E0
330
1F
100
AcDbEntity
  8
0
  6
CONTINUOUS
 62
     5
100
AcDbLine
 10
106.657691
 20
184.152938
 30
0.0
 11
106.657691
 21
185.755442
 31
0.0
  0
LINE
  5
E1
330
1F
100
AcDbEntity
  8
0
  6
CONTINUOUS
 62
     5
100
AcDbLine
 10
106.657691
 20
185.755442
 30
0.0
 11
107.201147
 21
185.755442
 31
0.0
  0
ARC
  5
E2
330
1F
100
AcDbEntity
  8
0
  6
CONTINUOUS
 62
     5
100
AcDbCircle
 10
107.176722
 20
185.99423
 30
0.0
 40
0.2400338493353885
100
AcDbArc
 50
275.840125
 51
95.840125
  0
LINE
  5
E3
330
1F
100
AcDbEntity
  8
0
  6
CONTINUOUS
 62
     5
100
AcDbLine
 10
107.152298
 20
186.233018
 30
0.0
 11
106.657691
 21
186.233018
 31
0.0
  0
LINE
  5
E4
330
1F
100
AcDbEntity
  8
0
  6
CONTINUOUS
 62
     5
100
AcDbLine
 10
106.657691
 20
186.233018
 30
0.0
 11
106.657691
 21
187.145397
 31
0.0
  0
ARC
  5
E5
330
1F
100
AcDbEntity
  8
0
  6
CONTINUOUS
 62
     5
100
AcDbCircle
 10
-105.974376
 20
185.475613
 30
0.0
 40
1.804188967952968
210
0.0
220
0.0
230
-1.0
100
AcDbArc
 50
112.255524
 51
352.131446
  0
LINE
  5
E6
330
1F
100
AcDbEntity
  8
0
  6
CONTINUOUS
 62
     5
100
AcDbLine
 10
104.187174
 20
185.228618
 30
0.0
 11
104.764235
 21
185.228618
 31
0.0
  0
LINE
  5
E7
330
1F
100
AcDbEntity
  8
0
  6
CONTINUOUS
 62
     5
100
AcDbLine
 10
104.764235
 20
185.228618
 30
0.0
 11
106.105919
 21
183.91221
 31
0.0
  0
ARC
  5
E8
330
1F
100
AcDbEntity
  8
0
  6
CONTINUOUS
 62
     5
100
AcDbCircle
 10
-105.974376
 20
185.475613
 30
0.0
 40
1.804188967997765
210
0.0
220
0.0
230
-1.0
100
AcDbArc
 50
82.574324
 51
97.079846
  0
LINE
  5
E9
330
1F
100
AcDbEntity
  8
0
  6
CONTINUOUS
 62
     5
100
AcDbLine
 10
106.196747
 20
187.266046
 30
0.0
 11
106.196747
 21
184.460306
 31
0.0
  0
LINE
  5
EA
330
1F
100
AcDbEntity
  8
0
  6
CONTINUOUS
 62
     5
100
AcDbLine
 10
106.196747
 20
184.460306
 30
0.0
 11
105.488699
 21
185.228618
 31
0.0
  0
LINE
  5
EB
330
1F
100
AcDbEntity
  8
0
  6
CONTINUOUS
 62
     5
100
AcDbLine
 10
105.488699
 20
185.228618
 30
0.0
 11
105.598427
 21
185.228618
 31
0.0
  0
ARC
  5
EC
330
1F
100
AcDbEntity
  8
0
  6
CONTINUOUS
 62
     5
100
AcDbCircle
 10
105.519068
 20
185.44005
 30
0.0
 40
0.2258343473822191
100
AcDbArc
 50
290.573117
 51
349.614785
  0
LINE
  5
ED
330
1F
100
AcDbEntity
  8
0
  6
CONTINUOUS
 62
     5
100
AcDbLine
 10
105.741203
 20
185.399339
 30
0.0
 11
105.741203
 21
187.264671
 31
0.0
  0
SPLINE
  5
EE
330
1F
100
AcDbEntity
  8
0
  6
CONTINUOUS
 62
     5
100
AcDbSpline
210
0.0
220
0.0
230
1.0
 70
     8
 71
     3
 72
    41
 73
    37
 74
     0
 42
0.0
 43
0.0
 40
0.0
 40
0.0
 40
0.0
 40
0.0
 40
0.3630440744592747
 40
1.791700086240979
 40
2.820865281921449
 40
3.849931363375884
 40
4.856790340591665
 40
5.83759868068671
 40
6.970581469611588
 40
8.29123736726245
 40
9.767247191077999
 40
11.3455465923324
 40
12.80086580130341
 40
14.00866255572859
 40
15.04597687646266
 40
15.94689418676366
 40
16.84554205995983
 40
17.75377991426894
 40
18.72405101040651
 40
19.59393433591632
 40
20.2929722326603
 40
21.13632971514732
 40
21.79231523328016
 40
22.79782107612743
 40
23.68135899268789
 40
25.22006762332594
 40
26.40656246107282
 40
27.65394131290573
 40
29.43754020279101
 40
31.10758122025136
 40
31.88123876723194
 40
32.57478040260793
 40
33.22571281077332
 40
33.82134105053366
 40
34.4354371342209
 40
35.07059774383078
 40
35.07059774383078
 40
35.07059774383078
 40
35.07059774383078
 10
120.5218666296948
 20
184.6743618505024
 30
0.0
 10
120.5288699296941
 20
184.699545380301
 30
0.0
 10
120.5569086228414
 20
184.8260662125927
 30
0.0
 10
120.5262764475622
 20
185.0338428887624
 30
0.0
 10
120.4418560285765
 20
185.2702771456811
 30
0.0
 10
120.3218863959306
 20
185.458943688513
 30
0.0
 10
120.1597858030481
 20
185.6062346977483
 30
0.0
 10
119.9667008107181
 20
185.7240858919064
 30
0.0
 10
119.7307625744595
 20
185.80288451454
 30
0.0
 10
119.4524177576027
 20
185.8578259188883
 30
0.0
 10
119.1367837972422
 20
185.8705888179751
 30
0.0
 10
118.8117828575407
 20
185.8527364373855
 30
0.0
 10
118.5117868317092
 20
185.789996931807
 30
0.0
 10
118.2610873298275
 20
185.6940269375064
 30
0.0
 10
118.0751846651875
 20
185.559931730441
 30
0.0
 10
117.9423690550339
 20
185.4026496802934
 30
0.0
 10
117.8488075738779
 20
185.2303223621099
 30
0.0
 10
117.7860540073693
 20
185.0391975976178
 30
0.0
 10
117.7649263038697
 20
184.8408338362682
 30
0.0
 10
117.785271559186
 20
184.6573974850084
 30
0.0
 10
117.8414223660679
 20
184.4925054881111
 30
0.0
 10
117.9089847510434
 20
184.3483448160417
 30
0.0
 10
118.0156379836021
 20
184.2025900160826
 30
0.0
 10
118.1426997740037
 20
184.0671692677865
 30
0.0
 10
118.3615166279851
 20
183.9485832033301
 30
0.0
 10
118.6070042389588
 20
183.8591697965852
 30
0.0
 10
118.8902593854743
 20
183.8135217265476
 30
0.0
 10
119.1938663925205
 20
183.7936170885844
 30
0.0
 10
119.5320044247721
 20
183.8204966592529
 30
0.0
 10
119.8329757654308
 20
183.8814180955941
 30
0.0
 10
120.0396226896031
 20
183.9736718293569
 30
0.0
 10
120.1759788111066
 20
184.0427184584206
 30
0.0
 10
120.2863886313552
 20
184.1303779070635
 30
0.0
 10
120.3717095359193
 20
184.2344014173393
 30
0.0
 10
120.4401269433008
 20
184.3492749482033
 30
0.0
 10
120.4650388237698
 20
184.4369870490926
 30
0.0
 10
120.4724026296949
 20
184.4821218505023
 30
0.0
  0
LINE
  5
EF
330
1F
100
AcDbEntity
  8
0
  6
CONTINUOUS
 62
     5
100
AcDbLine
 10
120.472403
 20
184.482122
 30
0.0
 11
119.627195
 21
184.482122
 31
0.0
  0
SPLINE
  5
F0
330
1F
100
AcDbEntity
  8
0
  6
CONTINUOUS
 62
     5
100
AcDbSpline
210
0.0
220
0.0
230
1.0
 70
     8
 71
     3
 72
    14
 73
    10
 74
     0
 42
0.0
 43
0.0
 40
0.0
 40
0.0
 40
0.0
 40
0.0
 40
0.5849692299600031
 40
1.118602999506121
 40
2.096488473373078
 40
2.890934821467145
 40
3.734969180957322
 40
4.493595571218039
 40
5.244342532583844
 40
5.244342532583844
 40
5.244342532583844
 40
5.244342532583844
 10
119.6271946296949
 20
184.4821218505023
 30
0.0
 10
119.594468566566
 20
184.4556093521651
 30
0.0
 10
119.5274470545862
 20
184.4104078898768
 30
0.0
 10
119.391523348002
 20
184.3428819003425
 30
0.0
 10
119.2227854227847
 20
184.3198576199323
 30
0.0
 10
119.0349044165048
 20
184.3447464505134
 30
0.0
 10
118.8716380399364
 20
184.4054296460284
 30
0.0
 10
118.7329371103906
 20
184.5108037880331
 30
0.0
 10
118.687785430792
 20
184.6156491541499
 30
0.0
 10
118.6776586296949
 20
184.6687458505023
 30
0.0
  0
LINE
  5
F1
330
1F
100
AcDbEntity
  8
0
  6
CONTINUOUS
 62
     5
100
AcDbLine
 10
118.677659
 20
184.668746
 30
0.0
 11
119.007059
 21
184.668746
 31
0.0
  0
LINE
  5
F2
330
1F
100
AcDbEntity
  8
0
  6
CONTINUOUS
 62
     5
100
AcDbLine
 10
119.007059
 20
184.668746
 30
0.0
 11
119.056523
 21
184.668746
 31
0.0
  0
LINE
  5
F3
330
1F
100
AcDbEntity
  8
0
  6
CONTINUOUS
 62
     5
100
AcDbLine
 10
119.056523
 20
184.668746
 30
0.0
 11
120.521867
 21
184.674362
 31
0.0
  0
SPLINE
  5
F4
330
1F
100
AcDbEntity
  8
0
  6
CONTINUOUS
 62
     5
100
AcDbSpline
210
0.0
220
0.0
230
1.0
 70
     8
 71
     3
 72
    16
 73
    12
 74
     0
 42
0.0
 43
0.0
 40
0.0
 40
0.0
 40
0.0
 40
0.0
 40
0.5474303608679332
 40
1.248433213929174
 40
1.669148378856708
 40
2.089863543784241
 40
2.533741905500601
 40
3.889403367665844
 40
4.652346353740162
 40
5.302653973255724
 40
5.802071634136879
 40
5.802071634136879
 40
5.802071634136879
 40
5.802071634136879
 10
118.6776586296949
 20
185.0694258505023
 30
0.0
 10
118.6861498046331
 20
185.1079153434604
 30
0.0
 10
118.7203267964355
 20
185.1925766280759
 30
0.0
 10
118.8049608974618
 20
185.284849381493
 30
0.0
 10
118.9066251143795
 20
185.3305206644181
 30
0.0
 10
118.9840434114276
 20
185.383396680515
 30
0.0
 10
119.1435709606179
 20
185.4134605408423
 30
0.0
 10
119.3342457870747
 20
185.3945981255742
 30
0.0
 10
119.5113637099415
 20
185.2961496907172
 30
0.0
 10
119.603516629121
 20
185.1879151245088
 30
0.0
 10
119.6244530054878
 20
185.105279252136
 30
0.0
 10
119.6271946296949
 20
185.0694258505023
 30
0.0
  0
LINE
  5
F5
330
1F
100
AcDbEntity
  8
0
  6
CONTINUOUS
 62
     5
100
AcDbLine
 10
119.627195
 20
185.069426
 30
0.0
 11
119.056523
 21
185.069426
 31
0.0
  0
LINE
  5
F6
330
1F
100
AcDbEntity
  8
0
  6
CONTINUOUS
 62
     5
100
AcDbLine
 10
119.056523
 20
185.069426
 30
0.0
 11
118.677659
 21
185.069426
 31
0.0
  0
SPLINE
  5
F7
330
1F
100
AcDbEntity
  8
0
  6
CONTINUOUS
 62
     5
100
AcDbSpline
210
0.0
220
0.0
230
1.0
 70
     8
 71
     3
 72
    31
 73
    27
 74
     0
 42
0.0
 43
0.0
 40
0.0
 40
0.0
 40
0.0
 40
0.0
 40
0.4099510339074079
 40
1.446824218052893
 40
2.704343203993066
 40
3.847343203993066
 40
4.767900643808748
 40
5.668462690532898
 40
6.555363474160922
 40
7.475459664784491
 40
8.376376975085499
 40
9.253185392015896
 40
10.161423246325
 40
11.08109710155848
 40
12.00176479405126
 40
12.87837017847461
 40
13.7422526936351
 40
14.60793277311018
 40
15.47665885191753
 40
16.34054136707802
 40
17.21714675150136
 40
18.13682060673484
 40
19.30582060673484
 40
20.53241304108294
 40
21.52898767451488
 40
22.1535931499952
 40
22.1535931499952
 40
22.1535931499952
 40
22.1535931499952
 10
116.6744746296949
 20
185.6649669337096
 30
0.0
 10
116.6523757440375
 20
185.6845337810834
 30
0.0
 10
116.5681357920275
 20
185.7482469107359
 30
0.0
 10
116.3720513602993
 20
185.7874905896784
 30
0.0
 10
116.1292186298704
 20
185.8285771711906
 30
0.0
 10
115.8889269644608
 20
185.8247952978612
 30
0.0
 10
115.6757835032
 20
185.8063436112978
 30
0.0
 10
115.4876255674614
 20
185.7504178991877
 30
0.0
 10
115.312474496879
 20
185.6617171166548
 30
0.0
 10
115.1623123927229
 20
185.5352151636063
 30
0.0
 10
115.0348648056242
 20
185.3875196277389
 30
0.0
 10
114.9385496296574
 20
185.2181774671823
 30
0.0
 10
114.8788275053543
 20
185.0315937518287
 30
0.0
 10
114.8549891375771
 20
184.8334282207074
 30
0.0
 10
114.8793149929518
 20
184.6378624031593
 30
0.0
 10
114.9337305448219
 20
184.4532136268352
 30
0.0
 10
115.0224622596799
 20
184.286305317603
 30
0.0
 10
115.1440782419577
 20
184.1420456451142
 30
0.0
 10
115.2940473739969
 20
184.0284971687047
 30
0.0
 10
115.4596208649897
 20
183.9378832187451
 30
0.0
 10
115.6445894639533
 20
183.8824556545919
 30
0.0
 10
115.8580369085146
 20
183.8627092551566
 30
0.0
 10
116.0964870701497
 20
183.8653263240308
 30
0.0
 10
116.3418115599754
 20
183.8805214127125
 30
0.0
 10
116.5378508089556
 20
183.9491017186509
 30
0.0
 10
116.6380031190726
 20
184.0099867653685
 30
0.0
 10
116.6744746296949
 20
184.0362978505024
 30
0.0
  0
LINE
  5
F8
330
1F
100
AcDbEntity
  8
0
  6
CONTINUOUS
 62
     5
100
AcDbLine
 10
116.674475
 20
184.036298
 30
0.0
 11
116.674475
 21
183.889418
 31
0.0
  0
LINE
  5
F9
330
1F
100
AcDbEntity
  8
0
  6
CONTINUOUS
 62
     5
100
AcDbLine
 10
116.674475
 20
183.889418
 30
0.0
 11
117.536099
 21
183.889418
 31
0.0
  0
LINE
  5
FA
330
1F
100
AcDbEntity
  8
0
  6
CONTINUOUS
 62
     5
100
AcDbLine
 10
117.536099
 20
183.889418
 30
0.0
 11
117.536099
 21
186.38681
 31
0.0
  0
LINE
  5
FB
330
1F
100
AcDbEntity
  8
0
  6
CONTINUOUS
 62
     5
100
AcDbLine
 10
117.536099
 20
186.38681
 30
0.0
 11
116.674475
 21
186.38681
 31
0.0
  0
LINE
  5
FC
330
1F
100
AcDbEntity
  8
0
  6
CONTINUOUS
 62
     5
100
AcDbLine
 10
116.674475
 20
186.38681
 30
0.0
 11
116.674475
 21
185.664967
 31
0.0
  0
LINE
  5
FD
330
1F
100
AcDbEntity
  8
0
  6
CONTINUOUS
 62
     5
100
AcDbLine
 10
116.674475
 20
184.91585
 30
0.0
 11
116.674475
 21
184.844354
 31
0.0
  0
SPLINE
  5
FE
330
1F
100
AcDbEntity
  8
0
  6
CONTINUOUS
 62
     5
100
AcDbSpline
210
0.0
220
0.0
230
1.0
 70
     8
 71
     3
 72
    23
 73
    19
 74
     0
 42
0.0
 43
0.0
 40
0.0
 40
0.0
 40
0.0
 40
0.0
 40
0.6669640170203994
 40
1.367241105036289
 40
2.140113668917293
 40
2.988671268612208
 40
3.841507712486409
 40
4.61392016707269
 40
5.335952022325626
 40
6.020499317988973
 40
6.729216468903221
 40
7.451248324156158
 40
8.23595017836577
 40
9.084507778060683
 40
9.795872057201187
 40
10.65924169220739
 40
11.32417627545601
 40
11.97574438394506
 40
11.97574438394506
 40
11.97574438394506
 40
11.97574438394506
 10
116.6744746296949
 20
184.8443538505023
 30
0.0
 10
116.6700508433283
 20
184.7965366375118
 30
0.0
 10
116.6396678325526
 20
184.6981874906072
 30
0.0
 10
116.5263489887535
 20
184.587722981279
 30
0.0
 10
116.3762540105021
 20
184.5097029198785
 30
0.0
 10
116.1959841880023
 20
184.4824595737317
 30
0.0
 10
116.0192708258548
 20
184.5173638034584
 30
0.0
 10
115.8628663058023
 20
184.5908034547912
 30
0.0
 10
115.7612811602728
 20
184.7162115567543
 30
0.0
 10
115.7154742285453
 20
184.8678648182256
 30
0.0
 10
115.7598612257533
 20
185.0211146450723
 30
0.0
 10
115.8644388506456
 20
185.1463550977365
 30
0.0
 10
116.0165834579435
 20
185.228402671833
 30
0.0
 10
116.1880395608338
 20
185.2567423272577
 30
0.0
 10
116.3590876712818
 20
185.2158596162446
 30
0.0
 10
116.5137084472451
 20
185.1639410484037
 30
0.0
 10
116.6341433641221
 20
185.0552208654
 30
0.0
 10
116.6681831873933
 20
184.9623389707109
 30
0.0
 10
116.6744746296949
 20
184.9158498505024
 30
0.0
  0
LINE
  5
FF
330
1F
100
AcDbEntity
  8
0
  6
CONTINUOUS
 62
     5
100
AcDbLine
 10
113.754599
 20
184.781349
 30
0.0
 11
113.754587
 21
183.894818
 31
0.0
  0
LINE
  5
100
330
1F
100
AcDbEntity
  8
0
  6
CONTINUOUS
 62
     5
100
AcDbLine
 10
113.754587
 20
183.894818
 30
0.0
 11
114.610811
 21
183.894818
 31
0.0
  0
LINE
  5
101
330
1F
100
AcDbEntity
  8
0
  6
CONTINUOUS
 62
     5
100
AcDbLine
 10
114.610811
 20
183.894818
 30
0.0
 11
114.610811
 21
185.187198
 31
0.0
  0
ARC
  5
102
330
1F
100
AcDbEntity
  8
0
  6
CONTINUOUS
 62
     5
100
AcDbCircle
 10
114.026557
 20
185.158552
 30
0.0
 40
0.5849556750962099
100
AcDbArc
 50
2.806997
 51
66.545781
  0
ARC
  5
103
330
1F
100
AcDbEntity
  8
0
  6
CONTINUOUS
 62
     5
100
AcDbCircle
 10
113.734897
 20
184.093138
 30
0.0
 40
1.685708095057755
100
AcDbArc
 50
71.872392
 51
120.405557
  0
LINE
  5
104
330
1F
100
AcDbEntity
  8
0
  6
CONTINUOUS
 62
     5
100
AcDbLine
 10
112.881731
 20
185.547002
 30
0.0
 11
112.881731
 21
185.755442
 31
0.0
  0
LINE
  5
105
330
1F
100
AcDbEntity
  8
0
  6
CONTINUOUS
 62
     5
100
AcDbLine
 10
112.881731
 20
185.755442
 30
0.0
 11
112.020107
 21
185.755442
 31
0.0
  0
LINE
  5
106
330
1F
100
AcDbEntity
  8
0
  6
CONTINUOUS
 62
     5
100
AcDbLine
 10
112.020107
 20
185.755442
 30
0.0
 11
112.020107
 21
183.894818
 31
0.0
  0
LINE
  5
107
330
1F
100
AcDbEntity
  8
0
  6
CONTINUOUS
 62
     5
100
AcDbLine
 10
112.020107
 20
183.894818
 30
0.0
 11
112.881731
 21
183.894818
 31
0.0
  0
LINE
  5
108
330
1F
100
AcDbEntity
  8
0
  6
CONTINUOUS
 62
     5
100
AcDbLine
 10
112.881731
 20
183.894818
 30
0.0
 11
112.881731
 21
184.759493
 31
0.0
  0
ARC
  5
109
330
1F
100
AcDbEntity
  8
0
  6
CONTINUOUS
 62
     5
100
AcDbCircle
 10
-113.435572
 20
184.465051
 30
0.0
 40
0.6272451125223354
210
0.0
220
0.0
230
-1.0
100
AcDbArc
 50
27.996676
 51
87.037487
  0
ARC
  5
10A
330
1F
100
AcDbEntity
  8
0
  6
CONTINUOUS
 62
     5
100
AcDbCircle
 10
-113.442059
 20
184.781349
 30
0.0
 40
0.3125393542332445
210
0.0
220
0.0
230
-1.0
100
AcDbArc
 50
82.849317
 51
180.0
  0
LINE
  5
10B
330
1F
100
AcDbEntity
  8
0
  6
CONTINUOUS
 62
     5
100
AcDbLine
 10
111.603011
 20
185.755442
 30
0.0
 11
110.730371
 21
185.755442
 31
0.0
  0
LINE
  5
10C
330
1F
100
AcDbEntity
  8
0
  6
CONTINUOUS
 62
     5
100
AcDbLine
 10
110.730371
 20
185.755442
 30
0.0
 11
110.730371
 21
183.894818
 31
0.0
  0
LINE
  5
10D
330
1F
100
AcDbEntity
  8
0
  6
CONTINUOUS
 62
     5
100
AcDbLine
 10
110.730371
 20
183.894818
 30
0.0
 11
111.603011
 21
183.894818
 31
0.0
  0
LINE
  5
10E
330
1F
100
AcDbEntity
  8
0
  6
CONTINUOUS
 62
     5
100
AcDbLine
 10
111.603011
 20
183.894818
 30
0.0
 11
111.603011
 21
185.755442
 31
0.0
  0
LINE
  5
10F
330
1F
100
AcDbEntity
  8
0
  6
CONTINUOUS
 62
     5
100
AcDbLine
 10
111.603011
 20
186.39221
 30
0.0
 11
110.730371
 21
186.39221
 31
0.0
  0
LINE
  5
110
330
1F
100
AcDbEntity
  8
0
  6
CONTINUOUS
 62
     5
100
AcDbLine
 10
110.730371
 20
186.39221
 30
0.0
 11
110.730371
 21
185.964098
 31
0.0
  0
LINE
  5
111
330
1F
100
AcDbEntity
  8
0
  6
CONTINUOUS
 62
     5
100
AcDbLine
 10
110.730371
 20
185.964098
 30
0.0
 11
111.603011
 21
185.964098
 31
0.0
  0
LINE
  5
112
330
1F
100
AcDbEntity
  8
0
  6
CONTINUOUS
 62
     5
100
AcDbLine
 10
111.603011
 20
185.964098
 30
0.0
 11
111.603011
 21
186.39221
 31
0.0
  0
LINE
  5
113
330
1F
100
AcDbEntity
  8
0
  6
CONTINUOUS
 62
     5
100
AcDbLine
 10
108.968459
 20
185.228618
 30
0.0
 11
109.226363
 21
185.228618
 31
0.0
  0
LINE
  5
114
330
1F
100
AcDbEntity
  8
0
  6
CONTINUOUS
 62
     5
100
AcDbLine
 10
109.226363
 20
185.228618
 30
0.0
 11
109.226363
 21
183.894818
 31
0.0
  0
LINE
  5
115
330
1F
100
AcDbEntity
  8
0
  6
CONTINUOUS
 62
     5
100
AcDbLine
 10
109.226363
 20
183.894818
 30
0.0
 11
110.088203
 21
183.894818
 31
0.0
  0
LINE
  5
116
330
1F
100
AcDbEntity
  8
0
  6
CONTINUOUS
 62
     5
100
AcDbLine
 10
110.088203
 20
183.894818
 30
0.0
 11
110.088203
 21
185.228618
 31
0.0
  0
LINE
  5
117
330
1F
100
AcDbEntity
  8
0
  6
CONTINUOUS
 62
     5
100
AcDbLine
 10
110.088203
 20
185.228618
 30
0.0
 11
110.384555
 21
185.228618
 31
0.0
  0
LINE
  5
118
330
1F
100
AcDbEntity
  8
0
  6
CONTINUOUS
 62
     5
100
AcDbLine
 10
110.384555
 20
185.228618
 30
0.0
 11
110.384555
 21
185.755442
 31
0.0
  0
LINE
  5
119
330
1F
100
AcDbEntity
  8
0
  6
CONTINUOUS
 62
     5
100
AcDbLine
 10
110.384555
 20
185.755442
 30
0.0
 11
110.060771
 21
185.755442
 31
0.0
  0
LINE
  5
11A
330
1F
100
AcDbEntity
  8
0
  6
CONTINUOUS
 62
     5
100
AcDbLine
 10
110.060771
 20
185.755442
 30
0.0
 11
110.083862
 21
185.880352
 31
0.0
  0
ARC
  5
11B
330
1F
100
AcDbEntity
  8
0
  6
CONTINUOUS
 62
     5
100
AcDbCircle
 10
-110.201418
 20
185.832397
 30
0.0
 40
0.1269612610398744
210
0.0
220
0.0
230
-1.0
100
AcDbArc
 50
22.192188
 51
84.155327
  0
LINE
  5
11C
330
1F
100
AcDbEntity
  8
0
  6
CONTINUOUS
 62
     5
100
AcDbLine
 10
110.188489
 20
185.958698
 30
0.0
 11
110.384555
 21
185.958698
 31
0.0
  0
LINE
  5
11D
330
1F
100
AcDbEntity
  8
0
  6
CONTINUOUS
 62
     5
100
AcDbLine
 10
110.384555
 20
185.958698
 30
0.0
 11
110.384555
 21
186.39221
 31
0.0
  0
LINE
  5
11E
330
1F
100
AcDbEntity
  8
0
  6
CONTINUOUS
 62
     5
100
AcDbLine
 10
110.384555
 20
186.39221
 30
0.0
 11
109.665491
 21
186.39221
 31
0.0
  0
ARC
  5
11F
330
1F
100
AcDbEntity
  8
0
  6
CONTINUOUS
 62
     5
100
AcDbCircle
 10
109.661068
 20
185.957526
 30
0.0
 40
0.4347067697209716
100
AcDbArc
 50
89.417049
 51
180.0
  0
LINE
  5
120
330
1F
100
AcDbEntity
  8
0
  6
CONTINUOUS
 62
     5
100
AcDbLine
 10
109.226361
 20
185.957526
 30
0.0
 11
109.226363
 21
185.755442
 31
0.0
  0
LINE
  5
121
330
1F
100
AcDbEntity
  8
0
  6
CONTINUOUS
 62
     5
100
AcDbLine
 10
109.226363
 20
185.755442
 30
0.0
 11
108.968459
 21
185.755442
 31
0.0
  0
LINE
  5
122
330
1F
100
AcDbEntity
  8
0
  6
CONTINUOUS
 62
     5
100
AcDbLine
 10
108.968459
 20
185.755442
 30
0.0
 11
108.968459
 21
185.228618
 31
0.0
  0
LINE
  5
123
330
1F
100
AcDbEntity
  8
0
  6
CONTINUOUS
 62
     5
100
AcDbLine
 10
121.603163
 20
185.59085
 30
0.0
 11
121.603163
 21
185.755442
 31
0.0
  0
LINE
  5
124
330
1F
100
AcDbEntity
  8
0
  6
CONTINUOUS
 62
     5
100
AcDbLine
 10
121.603163
 20
185.755442
 30
0.0
 11
120.774371
 21
185.755442
 31
0.0
  0
LINE
  5
125
330
1F
100
AcDbEntity
  8
0
  6
CONTINUOUS
 62
     5
100
AcDbLine
 10
120.774371
 20
185.755442
 30
0.0
 11
120.774371
 21
183.894818
 31
0.0
  0
LINE
  5
126
330
1F
100
AcDbEntity
  8
0
  6
CONTINUOUS
 62
     5
100
AcDbLine
 10
120.774371
 20
183.894818
 30
0.0
 11
121.603163
 21
183.894818
 31
0.0
  0
LINE
  5
127
330
1F
100
AcDbEntity
  8
0
  6
CONTINUOUS
 62
     5
100
AcDbLine
 10
121.603163
 20
183.894818
 30
0.0
 11
121.603163
 21
184.926866
 31
0.0
  0
SPLINE
  5
128
330
1F
100
AcDbEntity
  8
0
  6
CONTINUOUS
 62
     5
100
AcDbSpline
210
0.0
220
0.0
230
1.0
 70
     8
 71
     3
 72
    14
 73
    10
 74
     0
 42
0.0
 43
0.0
 40
0.0
 40
0.0
 40
0.0
 40
0.0
 40
0.4984505993576489
 40
0.9864936302473448
 40
1.590581372218658
 40
2.176804026165091
 40
2.634709038149013
 40
3.022672953996877
 40
3.382307490714356
 40
3.382307490714356
 40
3.382307490714356
 40
3.382307490714356
 10
121.6031626296949
 20
184.9268658505023
 30
0.0
 10
121.6048372980013
 20
184.9627151997023
 30
0.0
 10
121.6237068669445
 20
185.0334514935898
 30
0.0
 10
121.6963736074771
 20
185.12716846633
 30
0.0
 10
121.8146264574543
 20
185.1717471385923
 30
0.0
 10
121.9379246724405
 20
185.1645386490908
 30
0.0
 10
122.0269498644182
 20
185.1049500224058
 30
0.0
 10
122.0744654201998
 20
185.0295888019057
 30
0.0
 10
122.0821749650512
 20
184.9745356693449
 30
0.0
 10
122.0807386296949
 20
184.9486818505023
 30
0.0
  0
LINE
  5
129
330
1F
100
AcDbEntity
  8
0
  6
CONTINUOUS
 62
     5
100
AcDbLine
 10
122.080739
 20
184.948682
 30
0.0
 11
122.080739
 21
184.833554
 31
0.0
  0
LINE
  5
12A
330
1F
100
AcDbEntity
  8
0
  6
CONTINUOUS
 62
     5
100
AcDbLine
 10
122.080739
 20
184.833554
 30
0.0
 11
122.958779
 21
184.833554
 31
0.0
  0
SPLINE
  5
12B
330
1F
100
AcDbEntity
  8
0
  6
CONTINUOUS
 62
     5
100
AcDbSpline
210
0.0
220
0.0
230
1.0
 70
     8
 71
     3
 72
    18
 73
    14
 74
     0
 42
0.0
 43
0.0
 40
0.0
 40
0.0
 40
0.0
 40
0.0
 40
0.5862226539464359
 40
1.937079048978856
 40
2.725655614697113
 40
3.510357468906729
 40
4.33775157089199
 40
5.29538250188785
 40
6.222921719387574
 40
7.036306007408925
 40
8.367711655586822
 40
9.276897005226814
 40
9.643276589810892
 40
9.643276589810892
 40
9.643276589810892
 40
9.643276589810892
 10
122.958778629695
 20
184.8335538505023
 30
0.0
 10
122.9645130488617
 20
184.8753705257028
 30
0.0
 10
122.9768862823889
 20
185.0145628862988
 30
0.0
 10
122.9603814639955
 20
185.2116354465044
 30
0.0
 10
122.9110864080573
 20
185.4174361866021
 30
0.0
 10
122.8274536357437
 20
185.5714116638053
 30
0.0
 10
122.6886691242023
 20
185.7008717932351
 30
0.0
 10
122.5008342733959
 20
185.7657465055524
 30
0.0
 10
122.308888700379
 20
185.8002842108961
 30
0.0
 10
122.0867861997808
 20
185.7907685656623
 30
0.0
 10
121.8694957166772
 20
185.7428646416216
 30
0.0
 10
121.7011310392538
 20
185.6570527401963
 30
0.0
 10
121.6245926105803
 20
185.6062324697609
 30
0.0
 10
121.6031626296949
 20
185.5908498505023
 30
0.0
  0
LINE
  5
12C
330
1F
100
AcDbEntity
  8
0
  6
CONTINUOUS
 62
     5
100
AcDbLine
 10
115.849969
 20
111.698205
 30
0.0
 11
115.849969
 21
112.453622
 31
0.0
  0
ARC
  5
12D
330
1F
100
AcDbEntity
  8
0
  6
CONTINUOUS
 62
     5
100
AcDbCircle
 10
-115.599969
 20
114.185673
 30
0.0
 40
1.75
210
0.0
220
0.0
230
-1.0
100
AcDbArc
 50
261.786787
 51
347.626375
  0
LINE
  5
12E
330
1F
100
AcDbEntity
  8
0
  6
CONTINUOUS
 62
     5
100
AcDbLine
 10
113.89062
 20
113.810673
 30
0.0
 11
115.349969
 21
113.810673
 31
0.0
  0
LINE
  5
12F
330
1F
100
AcDbEntity
  8
0
  6
CONTINUOUS
 62
     5
100
AcDbLine
 10
115.349969
 20
113.810673
 30
0.0
 11
115.349969
 21
114.560673
 31
0.0
  0
LINE
  5
130
330
1F
100
AcDbEntity
  8
0
  6
CONTINUOUS
 62
     5
100
AcDbLine
 10
115.349969
 20
114.560673
 30
0.0
 11
113.89062
 21
114.560673
 31
0.0
  0
ARC
  5
131
330
1F
100
AcDbEntity
  8
0
  6
CONTINUOUS
 62
     5
100
AcDbCircle
 10
-115.599969
 20
114.185673
 30
0.0
 40
1.749999999999999
210
0.0
220
0.0
230
-1.0
100
AcDbArc
 50
12.373619
 51
98.213211
  0
LINE
  5
132
330
1F
100
AcDbEntity
  8
0
  6
CONTINUOUS
 62
     5
100
AcDbLine
 10
115.849969
 20
115.917724
 30
0.0
 11
115.849969
 21
116.673142
 31
0.0
  0
ARC
  5
133
330
1F
100
AcDbEntity
  8
0
  6
CONTINUOUS
 62
     5
100
AcDbCircle
 10
115.599969
 20
114.185673
 30
0.0
 40
2.500000000000003
100
AcDbArc
 50
84.26083
 51
275.73917
  0
ARC
  5
134
330
1F
100
AcDbEntity
  8
0
  6
CONTINUOUS
 62
     5
100
AcDbCircle
 10
-111.349969
 20
114.185673
 30
0.0
 40
1.74999999999999
210
0.0
220
0.0
230
-1.0
100
AcDbArc
 50
261.786789
 51
98.213211
  0
LINE
  5
135
330
1F
100
AcDbEntity
  8
0
  6
CONTINUOUS
 62
     5
100
AcDbLine
 10
111.599969
 20
115.917724
 30
0.0
 11
111.599969
 21
116.673142
 31
0.0
  0
ARC
  5
136
330
1F
100
AcDbEntity
  8
0
  6
CONTINUOUS
 62
     5
100
AcDbCircle
 10
111.349969
 20
114.185673
 30
0.0
 40
2.5
100
AcDbArc
 50
84.260838
 51
275.73917
  0
LINE
  5
137
330
1F
100
AcDbEntity
  8
0
  6
CONTINUOUS
 62
     5
100
AcDbLine
 10
111.599969
 20
111.698205
 30
0.0
 11
111.599969
 21
112.453622
 31
0.0
  0
LINE
  5
138
330
1F
100
AcDbEntity
  8
0
  6
CONTINUOUS
 62
     4
100
AcDbLine
 10
143.349941
 20
120.684326
 30
0.0
 11
143.349941
 21
120.184326
 31
0.0
  0
LINE
  5
139
330
1F
100
AcDbEntity
  8
0
  6
CONTINUOUS
 62
     4
100
AcDbLine
 10
143.349941
 20
178.684326
 30
0.0
 11
143.349941
 21
179.184326
 31
0.0
  0
LINE
  5
13A
330
1F
100
AcDbEntity
  8
0
  6
CONTINUOUS
 62
     4
100
AcDbLine
 10
124.849941
 20
190.184326
 30
0.0
 11
124.849941
 21
189.684326
 31
0.0
  0
LINE
  5
13B
330
1F
100
AcDbEntity
  8
0
  6
CONTINUOUS
 62
     5
100
AcDbLine
 10
154.349941
 20
129.184326
 30
0.0
 11
101.849941
 21
129.184326
 31
0.0
  0
LINE
  5
13C
330
1F
100
AcDbEntity
  8
0
  6
CONTINUOUS
 62
     5
100
AcDbLine
 10
154.349941
 20
170.184326
 30
0.0
 11
101.849941
 21
170.184326
 31
0.0
  0
LINE
  5
13D
330
1F
100
AcDbEntity
  8
0
  6
CONTINUOUS
 62
     6
100
AcDbLine
 10
100.849941
 20
172.934326
 30
0.0
 11
103.349729
 21
172.934326
 31
0.0
  0
LINE
  5
13E
330
1F
100
AcDbEntity
  8
0
  6
CONTINUOUS
 62
     6
100
AcDbLine
 10
103.349729
 20
172.934326
 30
0.0
 11
103.349729
 21
177.934326
 31
0.0
  0
LINE
  5
13F
330
1F
100
AcDbEntity
  8
0
  6
CONTINUOUS
 62
     6
100
AcDbLine
 10
103.349729
 20
177.934326
 30
0.0
 11
100.849941
 21
177.934326
 31
0.0
  0
LINE
  5
140
330
1F
100
AcDbEntity
  8
0
  6
CONTINUOUS
 62
     6
100
AcDbLine
 10
100.849941
 20
172.934326
 30
0.0
 11
100.849941
 21
177.934326
 31
0.0
  0
LINE
  5
141
330
1F
100
AcDbEntity
  8
0
  6
CONTINUOUS
 62
     6
100
AcDbLine
 10
100.849941
 20
126.434326
 30
0.0
 11
100.849941
 21
121.434326
 31
0.0
  0
LINE
  5
142
330
1F
100
AcDbEntity
  8
0
  6
CONTINUOUS
 62
     6
100
AcDbLine
 10
100.849941
 20
121.434326
 30
0.0
 11
103.349729
 21
121.434326
 31
0.0
  0
LINE
  5
143
330
1F
100
AcDbEntity
  8
0
  6
CONTINUOUS
 62
     6
100
AcDbLine
 10
103.349729
 20
121.434326
 30
0.0
 11
103.349729
 21
126.434326
 31
0.0
  0
LINE
  5
144
330
1F
100
AcDbEntity
  8
0
  6
CONTINUOUS
 62
     6
100
AcDbLine
 10
100.849941
 20
126.434326
 30
0.0
 11
103.349729
 21
126.434326
 31
0.0
  0
LINE
  5
145
330
1F
100
AcDbEntity
  8
0
  6
CONTINUOUS
 62
     6
100
AcDbLine
 10
100.849941
 20
117.184326
 30
0.0
 11
100.849941
 21
112.184326
 31
0.0
  0
LINE
  5
146
330
1F
100
AcDbEntity
  8
0
  6
CONTINUOUS
 62
     6
100
AcDbLine
 10
100.849941
 20
112.184326
 30
0.0
 11
103.349729
 21
112.184326
 31
0.0
  0
LINE
  5
147
330
1F
100
AcDbEntity
  8
0
  6
CONTINUOUS
 62
     6
100
AcDbLine
 10
103.349729
 20
112.184326
 30
0.0
 11
103.349729
 21
117.184326
 31
0.0
  0
LINE
  5
148
330
1F
100
AcDbEntity
  8
0
  6
CONTINUOUS
 62
     6
100
AcDbLine
 10
100.849941
 20
117.184326
 30
0.0
 11
103.349729
 21
117.184326
 31
0.0
  0
LINE
  5
149
330
1F
100
AcDbEntity
  8
0
  6
CONTINUOUS
 62
     6
100
AcDbLine
 10
100.849941
 20
182.184326
 30
0.0
 11
100.849941
 21
187.184326
 31
0.0
  0
LINE
  5
14A
330
1F
100
AcDbEntity
  8
0
  6
CONTINUOUS
 62
     6
100
AcDbLine
 10
100.849941
 20
187.184326
 30
0.0
 11
103.349729
 21
187.184326
 31
0.0
  0
LINE
  5
14B
330
1F
100
AcDbEntity
  8
0
  6
CONTINUOUS
 62
     6
100
AcDbLine
 10
103.349729
 20
187.184326
 30
0.0
 11
103.349729
 21
182.184326
 31
0.0
  0
LINE
  5
14C
330
1F
100
AcDbEntity
  8
0
  6
CONTINUOUS
 62
     6
100
AcDbLine
 10
100.849941
 20
182.184326
 30
0.0
 11
103.349729
 21
182.184326
 31
0.0
  0
LINE
  5
14D
330
1F
100
AcDbEntity
  8
0
  6
CONTINUOUS
 62
     6
100
AcDbLine
 10
105.349941
 20
152.184326
 30
0.0
 11
105.349941
 21
147.184326
 31
0.0
  0
LINE
  5
14E
330
1F
100
AcDbEntity
  8
0
  6
CONTINUOUS
 62
     6
100
AcDbLine
 10
105.349941
 20
147.184326
 30
0.0
 11
103.849941
 21
147.184326
 31
0.0
  0
LINE
  5
14F
330
1F
100
AcDbEntity
  8
0
  6
CONTINUOUS
 62
     6
100
AcDbLine
 10
103.849941
 20
147.184326
 30
0.0
 11
103.849941
 21
152.184326
 31
0.0
  0
LINE
  5
150
330
1F
100
AcDbEntity
  8
0
  6
CONTINUOUS
 62
     6
100
AcDbLine
 10
105.349941
 20
152.184326
 30
0.0
 11
103.849941
 21
152.184326
 31
0.0
  0
LINE
  5
151
330
1F
100
AcDbEntity
  8
0
  6
CONTINUOUS
 62
     4
100
AcDbLine
 10
124.849941
 20
109.684326
 30
0.0
 11
124.849941
 21
109.184326
 31
0.0
  0
ARC
  5
152
330
1F
100
AcDbEntity
  8
0
  6
CONTINUOUS
 62
     4
100
AcDbCircle
 10
123.349941
 20
109.184326
 30
0.0
 40
1.5
100
AcDbArc
 50
270.0
 51
0.0
  0
LINE
  5
153
330
1F
100
AcDbEntity
  8
0
  6
CONTINUOUS
 62
     4
100
AcDbLine
 10
123.349941
 20
107.684326
 30
0.0
 11
97.549941
 21
107.684326
 31
0.0
  0
LINE
  5
154
330
1F
100
AcDbEntity
  8
0
  6
CONTINUOUS
 62
     4
100
AcDbLine
 10
141.849941
 20
118.684326
 30
0.0
 11
124.849941
 21
118.684326
 31
0.0
  0
ARC
  5
155
330
1F
100
AcDbEntity
  8
0
  6
CONTINUOUS
 62
     4
100
AcDbCircle
 10
141.849941
 20
120.184326
 30
0.0
 40
1.500000000000007
100
AcDbArc
 50
270.0
 51
0.0
  0
LINE
  5
156
330
1F
100
AcDbEntity
  8
0
  6
CONTINUOUS
 62
     5
100
AcDbLine
 10
124.849941
 20
118.684326
 30
0.0
 11
124.849941
 21
118.884326
 31
0.0
  0
LINE
  5
157
330
1F
100
AcDbEntity
  8
0
  6
CONTINUOUS
 62
     5
100
AcDbLine
 10
143.349941
 20
120.184326
 30
0.0
 11
143.149941
 21
120.184326
 31
0.0
  0
LINE
  5
158
330
1F
100
AcDbEntity
  8
0
  6
CONTINUOUS
 62
     4
100
AcDbLine
 10
154.349941
 20
127.184326
 30
0.0
 11
143.349941
 21
127.184326
 31
0.0
  0
LINE
  5
159
330
1F
100
AcDbEntity
  8
0
  6
CONTINUOUS
 62
     5
100
AcDbLine
 10
143.349941
 20
127.184326
 30
0.0
 11
143.349941
 21
127.384326
 31
0.0
  0
LINE
  5
15A
330
1F
100
AcDbEntity
  8
0
  6
CONTINUOUS
 62
     4
100
AcDbLine
 10
154.349941
 20
172.184326
 30
0.0
 11
143.349941
 21
172.184326
 31
0.0
  0
LINE
  5
15B
330
1F
100
AcDbEntity
  8
0
  6
CONTINUOUS
 62
     4
100
AcDbLine
 10
141.849941
 20
180.684326
 30
0.0
 11
124.849941
 21
180.684326
 31
0.0
  0
ARC
  5
15C
330
1F
100
AcDbEntity
  8
0
  6
CONTINUOUS
 62
     4
100
AcDbCircle
 10
141.849941
 20
179.184326
 30
0.0
 40
1.5
100
AcDbArc
 50
0.0
 51
90.0
  0
LINE
  5
15D
330
1F
100
AcDbEntity
  8
0
  6
CONTINUOUS
 62
     4
100
AcDbLine
 10
99.696718
 20
191.684326
 30
0.0
 11
123.349941
 21
191.684326
 31
0.0
  0
ARC
  5
15E
330
1F
100
AcDbEntity
  8
0
  6
CONTINUOUS
 62
     4
100
AcDbCircle
 10
-123.349941
 20
190.184326
 30
0.0
 40
1.5
210
0.0
220
0.0
230
-1.0
100
AcDbArc
 50
90.0
 51
180.0
  0
LINE
  5
15F
330
1F
100
AcDbEntity
  8
0
  6
CONTINUOUS
 62
     4
100
AcDbLine
 10
124.849941
 20
118.684326
 30
0.0
 11
124.849941
 21
109.684326
 31
0.0
  0
LINE
  5
160
330
1F
100
AcDbEntity
  8
0
  6
CONTINUOUS
 62
     4
100
AcDbLine
 10
143.349941
 20
127.184326
 30
0.0
 11
143.349941
 21
120.684326
 31
0.0
  0
LINE
  5
161
330
1F
100
AcDbEntity
  8
0
  6
CONTINUOUS
 62
     4
100
AcDbLine
 10
143.349941
 20
178.684326
 30
0.0
 11
143.349941
 21
172.184326
 31
0.0
  0
LINE
  5
162
330
1F
100
AcDbEntity
  8
0
  6
CONTINUOUS
 62
     4
100
AcDbLine
 10
124.849941
 20
189.684326
 30
0.0
 11
124.849941
 21
180.684326
 31
0.0
  0
LINE
  5
163
330
1F
100
AcDbEntity
  8
0
  6
CONTINUOUS
 62
     5
100
AcDbLine
 10
97.549941
 20
118.684326
 30
0.0
 11
124.649941
 21
118.684326
 31
0.0
  0
LINE
  5
164
330
1F
100
AcDbEntity
  8
0
  6
CONTINUOUS
 62
     5
100
AcDbLine
 10
97.549941
 20
109.684326
 30
0.0
 11
124.649941
 21
109.684326
 31
0.0
  0
LINE
  5
165
330
1F
100
AcDbEntity
  8
0
  6
CONTINUOUS
 62
     5
100
AcDbLine
 10
143.149941
 20
127.184326
 30
0.0
 11
97.549941
 21
127.184326
 31
0.0
  0
LINE
  5
166
330
1F
100
AcDbEntity
  8
0
  6
CONTINUOUS
 62
     5
100
AcDbLine
 10
143.149941
 20
120.684326
 30
0.0
 11
97.549941
 21
120.684326
 31
0.0
  0
LINE
  5
167
330
1F
100
AcDbEntity
  8
0
  6
CONTINUOUS
 62
     5
100
AcDbLine
 10
143.149941
 20
178.684326
 30
0.0
 11
97.549941
 21
178.684326
 31
0.0
  0
LINE
  5
168
330
1F
100
AcDbEntity
  8
0
  6
CONTINUOUS
 62
     5
100
AcDbLine
 10
143.149941
 20
172.184326
 30
0.0
 11
97.549941
 21
172.184326
 31
0.0
  0
LINE
  5
169
330
1F
100
AcDbEntity
  8
0
  6
CONTINUOUS
 62
     5
100
AcDbLine
 10
124.649941
 20
189.684326
 30
0.0
 11
99.344064
 21
189.684326
 31
0.0
  0
LINE
  5
16A
330
1F
100
AcDbEntity
  8
0
  6
CONTINUOUS
 62
     5
100
AcDbLine
 10
97.757121
 20
180.684326
 30
0.0
 11
124.649941
 21
180.684326
 31
0.0
  0
LINE
  5
16B
330
1F
100
AcDbEntity
  8
0
  6
CONTINUOUS
 62
     5
100
AcDbLine
 10
124.649941
 20
118.684326
 30
0.0
 11
124.849941
 21
118.684326
 31
0.0
  0
LINE
  5
16C
330
1F
100
AcDbEntity
  8
0
  6
CONTINUOUS
 62
     5
100
AcDbLine
 10
124.649941
 20
109.684326
 30
0.0
 11
124.849941
 21
109.684326
 31
0.0
  0
LINE
  5
16D
330
1F
100
AcDbEntity
  8
0
  6
CONTINUOUS
 62
     5
100
AcDbLine
 10
143.149941
 20
127.184326
 30
0.0
 11
143.349941
 21
127.184326
 31
0.0
  0
LINE
  5
16E
330
1F
100
AcDbEntity
  8
0
  6
CONTINUOUS
 62
     5
100
AcDbLine
 10
143.149941
 20
120.684326
 30
0.0
 11
143.349941
 21
120.684326
 31
0.0
  0
LINE
  5
16F
330
1F
100
AcDbEntity
  8
0
  6
CONTINUOUS
 62
     5
100
AcDbLine
 10
143.149941
 20
178.684326
 30
0.0
 11
143.349941
 21
178.684326
 31
0.0
  0
LINE
  5
170
330
1F
100
AcDbEntity
  8
0
  6
CONTINUOUS
 62
     5
100
AcDbLine
 10
143.149941
 20
172.184326
 30
0.0
 11
143.349941
 21
172.184326
 31
0.0
  0
LINE
  5
171
330
1F
100
AcDbEntity
  8
0
  6
CONTINUOUS
 62
     5
100
AcDbLine
 10
124.649941
 20
189.684326
 30
0.0
 11
124.849941
 21
189.684326
 31
0.0
  0
LINE
  5
172
330
1F
100
AcDbEntity
  8
0
  6
CONTINUOUS
 62
     5
100
AcDbLine
 10
124.649941
 20
180.684326
 30
0.0
 11
124.849941
 21
180.684326
 31
0.0
  0
LINE
  5
173
330
1F
100
AcDbEntity
  8
0
  6
CONTINUOUS
 62
     4
100
AcDbLine
 10
99.39994
 20
164.684326
 30
0.0
 11
99.84994
 21
162.684326
 31
0.0
  0
LINE
  5
174
330
1F
100
AcDbEntity
  8
0
  6
CONTINUOUS
 62
     4
100
AcDbLine
 10
99.39994
 20
164.684326
 30
0.0
 11
99.84994
 21
166.684326
 31
0.0
  0
LINE
  5
175
330
1F
100
AcDbEntity
  8
0
  6
CONTINUOUS
 62
     4
100
AcDbLine
 10
99.696718
 20
191.684326
 30
0.0
 11
97.665865
 21
191.684326
 31
0.0
  0
LINE
  5
176
330
1F
100
AcDbEntity
  8
0
  6
CONTINUOUS
 62
     4
100
AcDbLine
 10
97.665865
 20
191.684326
 30
0.0
 11
95.549941
 21
179.684326
 31
0.0
  0
LINE
  5
177
330
1F
100
AcDbEntity
  8
0
  6
CONTINUOUS
 62
     4
100
AcDbLine
 10
95.549941
 20
179.684326
 30
0.0
 11
95.549941
 21
167.684326
 31
0.0
  0
LINE
  5
178
330
1F
100
AcDbEntity
  8
0
  6
CONTINUOUS
 62
     4
100
AcDbLine
 10
95.549941
 20
167.684326
 30
0.0
 11
96.704642
 21
165.684326
 31
0.0
  0
LINE
  5
179
330
1F
100
AcDbEntity
  8
0
  6
CONTINUOUS
 62
     4
100
AcDbLine
 10
96.704642
 20
165.684326
 30
0.0
 11
98.148017
 21
165.684326
 31
0.0
  0
LINE
  5
17A
330
1F
100
AcDbEntity
  8
0
  6
CONTINUOUS
 62
     4
100
AcDbLine
 10
98.148017
 20
165.684326
 30
0.0
 11
98.549941
 21
167.184326
 31
0.0
  0
LINE
  5
17B
330
1F
100
AcDbEntity
  8
0
  6
CONTINUOUS
 62
     4
100
AcDbLine
 10
98.549941
 20
167.184326
 30
0.0
 11
99.849941
 21
167.184326
 31
0.0
  0
LINE
  5
17C
330
1F
100
AcDbEntity
  8
0
  6
CONTINUOUS
 62
     5
100
AcDbLine
 10
99.849941
 20
132.459303
 30
0.0
 11
99.849941
 21
131.684326
 31
0.0
  0
LINE
  5
17D
330
1F
100
AcDbEntity
  8
0
  6
CONTINUOUS
 62
     4
100
AcDbLine
 10
96.04994
 20
131.684326
 30
0.0
 11
95.549941
 21
131.684326
 31
0.0
  0
LINE
  5
17E
330
1F
100
AcDbEntity
  8
0
  6
CONTINUOUS
 62
     4
100
AcDbLine
 10
95.549941
 20
131.684326
 30
0.0
 11
95.549941
 21
107.684326
 31
0.0
  0
LINE
  5
17F
330
1F
100
AcDbEntity
  8
0
  6
CONTINUOUS
 62
     4
100
AcDbLine
 10
95.549941
 20
107.684326
 30
0.0
 11
97.549941
 21
107.684326
 31
0.0
  0
LINE
  5
180
330
1F
100
AcDbEntity
  8
0
  6
CONTINUOUS
 62
     5
100
AcDbLine
 10
101.849729
 20
177.846856
 30
0.0
 11
103.349729
 21
177.715623
 31
0.0
  0
LINE
  5
181
330
1F
100
AcDbEntity
  8
0
  6
CONTINUOUS
 62
     5
100
AcDbLine
 10
101.849729
 20
177.846856
 30
0.0
 11
100.849941
 21
177.934326
 31
0.0
  0
LINE
  5
182
330
1F
100
AcDbEntity
  8
0
  6
CONTINUOUS
 62
     5
100
AcDbLine
 10
101.849729
 20
173.021796
 30
0.0
 11
103.349729
 21
173.153029
 31
0.0
  0
LINE
  5
183
330
1F
100
AcDbEntity
  8
0
  6
CONTINUOUS
 62
     5
100
AcDbLine
 10
101.849729
 20
173.021796
 30
0.0
 11
101.849729
 21
177.846856
 31
0.0
  0
LINE
  5
184
330
1F
100
AcDbEntity
  8
0
  6
CONTINUOUS
 62
     5
100
AcDbLine
 10
100.849941
 20
172.934326
 30
0.0
 11
101.849729
 21
173.021796
 31
0.0
  0
LINE
  5
185
330
1F
100
AcDbEntity
  8
0
  6
CONTINUOUS
 62
     5
100
AcDbLine
 10
101.849729
 20
121.521796
 30
0.0
 11
103.349729
 21
121.653029
 31
0.0
  0
LINE
  5
186
330
1F
100
AcDbEntity
  8
0
  6
CONTINUOUS
 62
     5
100
AcDbLine
 10
101.849729
 20
121.521796
 30
0.0
 11
100.849941
 21
121.434326
 31
0.0
  0
LINE
  5
187
330
1F
100
AcDbEntity
  8
0
  6
CONTINUOUS
 62
     5
100
AcDbLine
 10
101.849729
 20
126.346856
 30
0.0
 11
103.349729
 21
126.215623
 31
0.0
  0
LINE
  5
188
330
1F
100
AcDbEntity
  8
0
  6
CONTINUOUS
 62
     5
100
AcDbLine
 10
101.849729
 20
126.346856
 30
0.0
 11
101.849729
 21
121.521796
 31
0.0
  0
LINE
  5
189
330
1F
100
AcDbEntity
  8
0
  6
CONTINUOUS
 62
     5
100
AcDbLine
 10
100.849941
 20
126.434326
 30
0.0
 11
101.849729
 21
126.346856
 31
0.0
  0
LINE
  5
18A
330
1F
100
AcDbEntity
  8
0
  6
CONTINUOUS
 62
     5
100
AcDbLine
 10
104.349941
 20
147.228071
 30
0.0
 11
105.349941
 21
147.315559
 31
0.0
  0
LINE
  5
18B
330
1F
100
AcDbEntity
  8
0
  6
CONTINUOUS
 62
     5
100
AcDbLine
 10
104.349941
 20
147.228071
 30
0.0
 11
103.849941
 21
147.184326
 31
0.0
  0
LINE
  5
18C
330
1F
100
AcDbEntity
  8
0
  6
CONTINUOUS
 62
     5
100
AcDbLine
 10
104.349941
 20
152.140582
 30
0.0
 11
105.349941
 21
152.053093
 31
0.0
  0
LINE
  5
18D
330
1F
100
AcDbEntity
  8
0
  6
CONTINUOUS
 62
     5
100
AcDbLine
 10
104.349941
 20
152.140582
 30
0.0
 11
104.349941
 21
147.228071
 31
0.0
  0
LINE
  5
18E
330
1F
100
AcDbEntity
  8
0
  6
CONTINUOUS
 62
     5
100
AcDbLine
 10
103.849941
 20
152.184326
 30
0.0
 11
104.349941
 21
152.140582
 31
0.0
  0
LINE
  5
18F
330
1F
100
AcDbEntity
  8
0
  6
CONTINUOUS
 62
     4
100
AcDbLine
 10
154.349941
 20
127.184326
 30
0.0
 11
155.349941
 21
127.184326
 31
0.0
  0
ARC
  5
190
330
1F
100
AcDbEntity
  8
0
  6
CONTINUOUS
 62
     4
100
AcDbCircle
 10
155.349941
 20
128.184326
 30
0.0
 40
1.000000000000002
100
AcDbArc
 50
270.0
 51
0.0
  0
LINE
  5
191
330
1F
100
AcDbEntity
  8
0
  6
CONTINUOUS
 62
     4
100
AcDbLine
 10
156.349941
 20
128.184326
 30
0.0
 11
156.349941
 21
171.184326
 31
0.0
  0
ARC
  5
192
330
1F
100
AcDbEntity
  8
0
  6
CONTINUOUS
 62
     4
100
AcDbCircle
 10
-155.349941
 20
171.184326
 30
0.0
 40
1.0
210
0.0
220
0.0
230
-1.0
100
AcDbArc
 50
90.0
 51
180.0
  0
LINE
  5
193
330
1F
100
AcDbEntity
  8
0
  6
CONTINUOUS
 62
     4
100
AcDbLine
 10
155.349941
 20
172.184326
 30
0.0
 11
154.349941
 21
172.184326
 31
0.0
  0
LINE
  5
194
330
1F
100
AcDbEntity
  8
0
  6
CONTINUOUS
 62
     6
100
AcDbLine
 10
154.349941
 20
170.184326
 30
0.0
 11
154.349941
 21
171.984326
 31
0.0
  0
LINE
  5
195
330
1F
100
AcDbEntity
  8
0
  6
CONTINUOUS
 62
     6
100
AcDbLine
 10
154.349941
 20
127.384326
 30
0.0
 11
154.349941
 21
129.184326
 31
0.0
  0
LINE
  5
196
330
1F
100
AcDbEntity
  8
0
  6
CONTINUOUS
 62
     6
100
AcDbLine
 10
154.349941
 20
127.384326
 30
0.0
 11
154.349941
 21
127.184326
 31
0.0
  0
LINE
  5
197
330
1F
100
AcDbEntity
  8
0
  6
CONTINUOUS
 62
     6
100
AcDbLine
 10
154.349941
 20
171.984326
 30
0.0
 11
154.349941
 21
172.184326
 31
0.0
  0
LINE
  5
198
330
1F
100
AcDbEntity
  8
0
  6
CONTINUOUS
 62
     5
100
AcDbLine
 10
97.74994
 20
131.684326
 30
0.0
 11
97.74994
 21
132.459303
 31
0.0
  0
LINE
  5
199
330
1F
100
AcDbEntity
  8
0
  6
CONTINUOUS
 62
     5
100
AcDbLine
 10
99.84994
 20
132.459303
 30
0.0
 11
97.74994
 21
132.459303
 31
0.0
  0
LINE
  5
19A
330
1F
100
AcDbEntity
  8
0
  6
CONTINUOUS
 62
     4
100
AcDbLine
 10
99.84994
 20
102.834326
 30
0.0
 11
99.84994
 21
103.259079
 31
0.0
  0
LINE
  5
19B
330
1F
100
AcDbEntity
  8
0
  6
CONTINUOUS
 62
     4
100
AcDbLine
 10
99.84994
 20
103.259079
 30
0.0
 11
99.84994
 21
104.334326
 31
0.0
  0
LINE
  5
19C
330
1F
100
AcDbEntity
  8
0
  6
CONTINUOUS
 62
     4
100
AcDbLine
 10
99.84994
 20
104.334326
 30
0.0
 11
99.84994
 21
105.134326
 31
0.0
  0
LINE
  5
19D
330
1F
100
AcDbEntity
  8
0
  6
CONTINUOUS
 62
     4
100
AcDbLine
 10
96.04994
 20
102.834326
 30
0.0
 11
96.04994
 21
103.259079
 31
0.0
  0
LINE
  5
19E
330
1F
100
AcDbEntity
  8
0
  6
CONTINUOUS
 62
     4
100
AcDbLine
 10
96.04994
 20
103.259079
 30
0.0
 11
96.04994
 21
104.334326
 31
0.0
  0
LINE
  5
19F
330
1F
100
AcDbEntity
  8
0
  6
CONTINUOUS
 62
     5
100
AcDbLine
 10
99.84994
 20
104.334326
 30
0.0
 11
96.04994
 21
104.334326
 31
0.0
  0
LINE
  5
1A0
330
1F
100
AcDbEntity
  8
0
  6
CONTINUOUS
 62
     4
100
AcDbLine
 10
96.04994
 20
104.334326
 30
0.0
 11
96.04994
 21
105.134326
 31
0.0
  0
LINE
  5
1A1
330
1F
100
AcDbEntity
  8
0
  6
CONTINUOUS
 62
     4
100
AcDbLine
 10
96.04994
 20
105.134326
 30
0.0
 11
96.04994
 21
107.684326
 31
0.0
  0
LINE
  5
1A2
330
1F
100
AcDbEntity
  8
0
  6
CONTINUOUS
 62
     4
100
AcDbLine
 10
99.84994
 20
107.684326
 30
0.0
 11
99.84994
 21
105.134326
 31
0.0
  0
LINE
  5
1A3
330
1F
100
AcDbEntity
  8
0
  6
CONTINUOUS
 62
     4
100
AcDbLine
 10
98.248017
 20
134.884341
 30
0.0
 11
98.64994
 21
133.384341
 31
0.0
  0
LINE
  5
1A4
330
1F
100
AcDbEntity
  8
0
  6
CONTINUOUS
 62
     4
100
AcDbLine
 10
99.84994
 20
133.384341
 30
0.0
 11
98.64994
 21
133.384341
 31
0.0
  0
LINE
  5
1A5
330
1F
100
AcDbEntity
  8
0
  6
CONTINUOUS
 62
     4
100
AcDbLine
 10
96.04994
 20
131.684339
 30
0.0
 11
98.248017
 21
134.884341
 31
0.0
  0
LINE
  5
1A6
330
1F
100
AcDbEntity
  8
0
  6
CONTINUOUS
 62
     4
100
AcDbLine
 10
99.84994
 20
102.834326
 30
0.0
 11
96.04994
 21
102.834326
 31
0.0
  0
LINE
  5
1A7
330
1F
100
AcDbEntity
  8
0
  6
CONTINUOUS
 62
     5
100
AcDbLine
 10
101.849729
 20
117.096856
 30
0.0
 11
103.349729
 21
116.965623
 31
0.0
  0
LINE
  5
1A8
330
1F
100
AcDbEntity
  8
0
  6
CONTINUOUS
 62
     5
100
AcDbLine
 10
101.849729
 20
117.096856
 30
0.0
 11
100.849941
 21
117.184326
 31
0.0
  0
LINE
  5
1A9
330
1F
100
AcDbEntity
  8
0
  6
CONTINUOUS
 62
     5
100
AcDbLine
 10
101.849729
 20
112.271796
 30
0.0
 11
103.349729
 21
112.403029
 31
0.0
  0
LINE
  5
1AA
330
1F
100
AcDbEntity
  8
0
  6
CONTINUOUS
 62
     5
100
AcDbLine
 10
101.849729
 20
112.271796
 30
0.0
 11
101.849729
 21
117.096856
 31
0.0
  0
LINE
  5
1AB
330
1F
100
AcDbEntity
  8
0
  6
CONTINUOUS
 62
     5
100
AcDbLine
 10
100.849941
 20
112.184326
 30
0.0
 11
101.849729
 21
112.271796
 31
0.0
  0
LINE
  5
1AC
330
1F
100
AcDbEntity
  8
0
  6
CONTINUOUS
 62
     5
100
AcDbLine
 10
101.849729
 20
182.271796
 30
0.0
 11
103.349729
 21
182.403029
 31
0.0
  0
LINE
  5
1AD
330
1F
100
AcDbEntity
  8
0
  6
CONTINUOUS
 62
     5
100
AcDbLine
 10
100.849941
 20
182.184326
 30
0.0
 11
101.849729
 21
182.271796
 31
0.0
  0
LINE
  5
1AE
330
1F
100
AcDbEntity
  8
0
  6
CONTINUOUS
 62
     5
100
AcDbLine
 10
101.849729
 20
187.096856
 30
0.0
 11
103.349729
 21
186.965623
 31
0.0
  0
LINE
  5
1AF
330
1F
100
AcDbEntity
  8
0
  6
CONTINUOUS
 62
     5
100
AcDbLine
 10
101.849729
 20
182.271796
 30
0.0
 11
101.849729
 21
187.096856
 31
0.0
  0
LINE
  5
1B0
330
1F
100
AcDbEntity
  8
0
  6
CONTINUOUS
 62
     5
100
AcDbLine
 10
101.849729
 20
187.096856
 30
0.0
 11
100.849941
 21
187.184326
 31
0.0
  0
LINE
  5
1B1
330
1F
100
AcDbEntity
  8
0
  6
CONTINUOUS
 62
     4
100
AcDbLine
 10
74.597711
 20
129.184326
 30
0.0
 11
74.397711
 21
129.184326
 31
0.0
  0
LINE
  5
1B2
330
1F
100
AcDbEntity
  8
0
  6
CONTINUOUS
 62
     4
100
AcDbLine
 10
74.597711
 20
170.184326
 30
0.0
 11
74.397711
 21
170.184326
 31
0.0
  0
LINE
  5
1B3
330
1F
100
AcDbEntity
  8
0
  6
CONTINUOUS
 62
     4
100
AcDbLine
 10
39.597711
 20
129.184326
 30
0.0
 11
39.797711
 21
129.184326
 31
0.0
  0
LINE
  5
1B4
330
1F
100
AcDbEntity
  8
0
  6
CONTINUOUS
 62
     4
100
AcDbLine
 10
39.597711
 20
170.184326
 30
0.0
 11
39.797711
 21
170.184326
 31
0.0
  0
LINE
  5
1B5
330
1F
100
AcDbEntity
  8
0
  6
CONTINUOUS
 62
     4
100
AcDbLine
 10
39.597711
 20
170.184326
 30
0.0
 11
39.597711
 21
129.184326
 31
0.0
  0
LINE
  5
1B6
330
1F
100
AcDbEntity
  8
0
  6
CONTINUOUS
 62
     4
100
AcDbLine
 10
74.597711
 20
129.184326
 30
0.0
 11
74.597711
 21
170.184326
 31
0.0
  0
LINE
  5
1B7
330
1F
100
AcDbEntity
  8
0
  6
CONTINUOUS
 62
     4
100
AcDbLine
 10
39.797711
 20
120.684326
 30
0.0
 11
39.797711
 21
120.184326
 31
0.0
  0
LINE
  5
1B8
330
1F
100
AcDbEntity
  8
0
  6
CONTINUOUS
 62
     4
100
AcDbLine
 10
74.397711
 20
120.684326
 30
0.0
 11
74.397711
 21
120.184326
 31
0.0
  0
LINE
  5
1B9
330
1F
100
AcDbEntity
  8
0
  6
CONTINUOUS
 62
     4
100
AcDbLine
 10
74.397711
 20
178.684326
 30
0.0
 11
74.397711
 21
179.184326
 31
0.0
  0
LINE
  5
1BA
330
1F
100
AcDbEntity
  8
0
  6
CONTINUOUS
 62
     4
100
AcDbLine
 10
39.797711
 20
178.684326
 30
0.0
 11
39.797711
 21
179.184326
 31
0.0
  0
LINE
  5
1BB
330
1F
100
AcDbEntity
  8
0
  6
CONTINUOUS
 62
     4
100
AcDbLine
 10
74.397711
 20
190.184326
 30
0.0
 11
74.397711
 21
189.684326
 31
0.0
  0
LINE
  5
1BC
330
1F
100
AcDbEntity
  8
0
  6
CONTINUOUS
 62
     4
100
AcDbLine
 10
39.797711
 20
190.184326
 30
0.0
 11
39.797711
 21
189.684326
 31
0.0
  0
LINE
  5
1BD
330
1F
100
AcDbEntity
  8
0
  6
CONTINUOUS
 62
     4
100
AcDbLine
 10
74.397711
 20
109.684326
 30
0.0
 11
74.397711
 21
109.184326
 31
0.0
  0
LINE
  5
1BE
330
1F
100
AcDbEntity
  8
0
  6
CONTINUOUS
 62
     4
100
AcDbLine
 10
74.397711
 20
109.184326
 30
0.0
 11
74.397711
 21
107.884326
 31
0.0
  0
LINE
  5
1BF
330
1F
100
AcDbEntity
  8
0
  6
CONTINUOUS
 62
     4
100
AcDbLine
 10
39.797711
 20
109.684326
 30
0.0
 11
39.797711
 21
109.184326
 31
0.0
  0
LINE
  5
1C0
330
1F
100
AcDbEntity
  8
0
  6
CONTINUOUS
 62
     4
100
AcDbLine
 10
39.797711
 20
109.184326
 30
0.0
 11
39.797711
 21
107.884326
 31
0.0
  0
ARC
  5
1C1
330
1F
100
AcDbEntity
  8
0
  6
CONTINUOUS
 62
     4
100
AcDbCircle
 10
74.197711
 20
107.884326
 30
0.0
 40
0.2000000029802322
100
AcDbArc
 50
270.0
 51
0.0
  0
LINE
  5
1C2
330
1F
100
AcDbEntity
  8
0
  6
CONTINUOUS
 62
     4
100
AcDbLine
 10
39.997711
 20
107.684326
 30
0.0
 11
74.197711
 21
107.684326
 31
0.0
  0
ARC
  5
1C3
330
1F
100
AcDbEntity
  8
0
  6
CONTINUOUS
 62
     4
100
AcDbCircle
 10
39.997711
 20
107.884326
 30
0.0
 40
0.2000000029802322
100
AcDbArc
 50
180.0
 51
270.0
  0
LINE
  5
1C4
330
1F
100
AcDbEntity
  8
0
  6
CONTINUOUS
 62
     4
100
AcDbLine
 10
74.397711
 20
120.184326
 30
0.0
 11
74.397711
 21
118.884326
 31
0.0
  0
LINE
  5
1C5
330
1F
100
AcDbEntity
  8
0
  6
CONTINUOUS
 62
     4
100
AcDbLine
 10
39.797711
 20
120.184326
 30
0.0
 11
39.797711
 21
118.884326
 31
0.0
  0
ARC
  5
1C6
330
1F
100
AcDbEntity
  8
0
  6
CONTINUOUS
 62
     6
100
AcDbCircle
 10
-74.197711
 20
118.884326
 30
0.0
 40
0.2000000029802287
210
0.0
220
0.0
230
-1.0
100
AcDbArc
 50
180.0
 51
270.0
  0
LINE
  5
1C7
330
1F
100
AcDbEntity
  8
0
  6
CONTINUOUS
 62
     6
100
AcDbLine
 10
39.997711
 20
118.684326
 30
0.0
 11
74.197711
 21
118.684326
 31
0.0
  0
ARC
  5
1C8
330
1F
100
AcDbEntity
  8
0
  6
CONTINUOUS
 62
     6
100
AcDbCircle
 10
39.997711
 20
118.884326
 30
0.0
 40
0.2000000029802358
100
AcDbArc
 50
180.0
 51
270.0
  0
LINE
  5
1C9
330
1F
100
AcDbEntity
  8
0
  6
CONTINUOUS
 62
     4
100
AcDbLine
 10
74.397711
 20
118.684326
 30
0.0
 11
74.397711
 21
118.884326
 31
0.0
  0
LINE
  5
1CA
330
1F
100
AcDbEntity
  8
0
  6
CONTINUOUS
 62
     4
100
AcDbLine
 10
39.797711
 20
118.684326
 30
0.0
 11
39.797711
 21
118.884326
 31
0.0
  0
LINE
  5
1CB
330
1F
100
AcDbEntity
  8
0
  6
CONTINUOUS
 62
     4
100
AcDbLine
 10
74.397711
 20
127.184326
 30
0.0
 11
74.397711
 21
127.384326
 31
0.0
  0
LINE
  5
1CC
330
1F
100
AcDbEntity
  8
0
  6
CONTINUOUS
 62
     4
100
AcDbLine
 10
39.797711
 20
127.184326
 30
0.0
 11
39.797711
 21
127.384326
 31
0.0
  0
LINE
  5
1CD
330
1F
100
AcDbEntity
  8
0
  6
CONTINUOUS
 62
     4
100
AcDbLine
 10
74.397711
 20
172.184326
 30
0.0
 11
74.397711
 21
171.984326
 31
0.0
  0
LINE
  5
1CE
330
1F
100
AcDbEntity
  8
0
  6
CONTINUOUS
 62
     4
100
AcDbLine
 10
39.797711
 20
172.184326
 30
0.0
 11
39.797711
 21
171.984326
 31
0.0
  0
LINE
  5
1CF
330
1F
100
AcDbEntity
  8
0
  6
CONTINUOUS
 62
     4
100
AcDbLine
 10
74.397711
 20
179.184326
 30
0.0
 11
74.397711
 21
180.484326
 31
0.0
  0
LINE
  5
1D0
330
1F
100
AcDbEntity
  8
0
  6
CONTINUOUS
 62
     4
100
AcDbLine
 10
39.797711
 20
179.184326
 30
0.0
 11
39.797711
 21
180.484326
 31
0.0
  0
LINE
  5
1D1
330
1F
100
AcDbEntity
  8
0
  6
CONTINUOUS
 62
     4
100
AcDbLine
 10
39.797711
 20
190.184326
 30
0.0
 11
39.797711
 21
191.484326
 31
0.0
  0
LINE
  5
1D2
330
1F
100
AcDbEntity
  8
0
  6
CONTINUOUS
 62
     4
100
AcDbLine
 10
74.397711
 20
190.184326
 30
0.0
 11
74.397711
 21
191.484326
 31
0.0
  0
ARC
  5
1D3
330
1F
100
AcDbEntity
  8
0
  6
CONTINUOUS
 62
     6
100
AcDbCircle
 10
74.197711
 20
180.484326
 30
0.0
 40
0.2000000029802322
100
AcDbArc
 50
0.0
 51
90.0
  0
LINE
  5
1D4
330
1F
100
AcDbEntity
  8
0
  6
CONTINUOUS
 62
     6
100
AcDbLine
 10
74.197711
 20
180.684326
 30
0.0
 11
39.997711
 21
180.684326
 31
0.0
  0
ARC
  5
1D5
330
1F
100
AcDbEntity
  8
0
  6
CONTINUOUS
 62
     6
100
AcDbCircle
 10
-39.997711
 20
180.484326
 30
0.0
 40
0.2000000029802322
210
0.0
220
0.0
230
-1.0
100
AcDbArc
 50
0.0
 51
90.0
  0
ARC
  5
1D6
330
1F
100
AcDbEntity
  8
0
  6
CONTINUOUS
 62
     4
100
AcDbCircle
 10
39.997711
 20
191.484326
 30
0.0
 40
0.2000000029802322
100
AcDbArc
 50
90.0
 51
180.0
  0
LINE
  5
1D7
330
1F
100
AcDbEntity
  8
0
  6
CONTINUOUS
 62
     4
100
AcDbLine
 10
74.197711
 20
191.684326
 30
0.0
 11
39.997711
 21
191.684326
 31
0.0
  0
ARC
  5
1D8
330
1F
100
AcDbEntity
  8
0
  6
CONTINUOUS
 62
     4
100
AcDbCircle
 10
-74.197711
 20
191.484326
 30
0.0
 40
0.2000000029802322
210
0.0
220
0.0
230
-1.0
100
AcDbArc
 50
90.0
 51
180.0
  0
LINE
  5
1D9
330
1F
100
AcDbEntity
  8
0
  6
CONTINUOUS
 62
     4
100
AcDbLine
 10
74.597711
 20
109.684326
 30
0.0
 11
74.597711
 21
118.684326
 31
0.0
  0
LINE
  5
1DA
330
1F
100
AcDbEntity
  8
0
  6
CONTINUOUS
 62
     4
100
AcDbLine
 10
74.597711
 20
120.684326
 30
0.0
 11
74.597711
 21
127.184326
 31
0.0
  0
LINE
  5
1DB
330
1F
100
AcDbEntity
  8
0
  6
CONTINUOUS
 62
     4
100
AcDbLine
 10
39.597711
 20
118.684326
 30
0.0
 11
39.597711
 21
109.684326
 31
0.0
  0
LINE
  5
1DC
330
1F
100
AcDbEntity
  8
0
  6
CONTINUOUS
 62
     4
100
AcDbLine
 10
39.597711
 20
127.184326
 30
0.0
 11
39.597711
 21
120.684326
 31
0.0
  0
LINE
  5
1DD
330
1F
100
AcDbEntity
  8
0
  6
CONTINUOUS
 62
     4
100
AcDbLine
 10
39.597711
 20
178.684326
 30
0.0
 11
39.597711
 21
172.184326
 31
0.0
  0
LINE
  5
1DE
330
1F
100
AcDbEntity
  8
0
  6
CONTINUOUS
 62
     4
100
AcDbLine
 10
74.597711
 20
172.184326
 30
0.0
 11
74.597711
 21
178.684326
 31
0.0
  0
LINE
  5
1DF
330
1F
100
AcDbEntity
  8
0
  6
CONTINUOUS
 62
     4
100
AcDbLine
 10
74.597711
 20
180.684326
 30
0.0
 11
74.597711
 21
189.684326
 31
0.0
  0
LINE
  5
1E0
330
1F
100
AcDbEntity
  8
0
  6
CONTINUOUS
 62
     4
100
AcDbLine
 10
39.597711
 20
189.684326
 30
0.0
 11
39.597711
 21
180.684326
 31
0.0
  0
LINE
  5
1E1
330
1F
100
AcDbEntity
  8
0
  6
CONTINUOUS
 62
     4
100
AcDbLine
 10
74.397711
 20
109.684326
 30
0.0
 11
74.597711
 21
109.684326
 31
0.0
  0
LINE
  5
1E2
330
1F
100
AcDbEntity
  8
0
  6
CONTINUOUS
 62
     4
100
AcDbLine
 10
74.397711
 20
118.684326
 30
0.0
 11
74.597711
 21
118.684326
 31
0.0
  0
LINE
  5
1E3
330
1F
100
AcDbEntity
  8
0
  6
CONTINUOUS
 62
     4
100
AcDbLine
 10
74.397711
 20
120.684326
 30
0.0
 11
74.597711
 21
120.684326
 31
0.0
  0
LINE
  5
1E4
330
1F
100
AcDbEntity
  8
0
  6
CONTINUOUS
 62
     4
100
AcDbLine
 10
74.397711
 20
127.184326
 30
0.0
 11
74.597711
 21
127.184326
 31
0.0
  0
LINE
  5
1E5
330
1F
100
AcDbEntity
  8
0
  6
CONTINUOUS
 62
     4
100
AcDbLine
 10
39.797711
 20
118.684326
 30
0.0
 11
39.597711
 21
118.684326
 31
0.0
  0
LINE
  5
1E6
330
1F
100
AcDbEntity
  8
0
  6
CONTINUOUS
 62
     4
100
AcDbLine
 10
39.797711
 20
109.684326
 30
0.0
 11
39.597711
 21
109.684326
 31
0.0
  0
LINE
  5
1E7
330
1F
100
AcDbEntity
  8
0
  6
CONTINUOUS
 62
     4
100
AcDbLine
 10
39.797711
 20
127.184326
 30
0.0
 11
39.597711
 21
127.184326
 31
0.0
  0
LINE
  5
1E8
330
1F
100
AcDbEntity
  8
0
  6
CONTINUOUS
 62
     4
100
AcDbLine
 10
39.797711
 20
120.684326
 30
0.0
 11
39.597711
 21
120.684326
 31
0.0
  0
LINE
  5
1E9
330
1F
100
AcDbEntity
  8
0
  6
CONTINUOUS
 62
     4
100
AcDbLine
 10
39.797711
 20
178.684326
 30
0.0
 11
39.597711
 21
178.684326
 31
0.0
  0
LINE
  5
1EA
330
1F
100
AcDbEntity
  8
0
  6
CONTINUOUS
 62
     4
100
AcDbLine
 10
39.797711
 20
172.184326
 30
0.0
 11
39.597711
 21
172.184326
 31
0.0
  0
LINE
  5
1EB
330
1F
100
AcDbEntity
  8
0
  6
CONTINUOUS
 62
     4
100
AcDbLine
 10
74.397711
 20
172.184326
 30
0.0
 11
74.597711
 21
172.184326
 31
0.0
  0
LINE
  5
1EC
330
1F
100
AcDbEntity
  8
0
  6
CONTINUOUS
 62
     4
100
AcDbLine
 10
74.397711
 20
178.684326
 30
0.0
 11
74.597711
 21
178.684326
 31
0.0
  0
LINE
  5
1ED
330
1F
100
AcDbEntity
  8
0
  6
CONTINUOUS
 62
     4
100
AcDbLine
 10
74.397711
 20
180.684326
 30
0.0
 11
74.597711
 21
180.684326
 31
0.0
  0
LINE
  5
1EE
330
1F
100
AcDbEntity
  8
0
  6
CONTINUOUS
 62
     4
100
AcDbLine
 10
74.397711
 20
189.684326
 30
0.0
 11
74.597711
 21
189.684326
 31
0.0
  0
LINE
  5
1EF
330
1F
100
AcDbEntity
  8
0
  6
CONTINUOUS
 62
     4
100
AcDbLine
 10
39.797711
 20
189.684326
 30
0.0
 11
39.597711
 21
189.684326
 31
0.0
  0
LINE
  5
1F0
330
1F
100
AcDbEntity
  8
0
  6
CONTINUOUS
 62
     4
100
AcDbLine
 10
39.797711
 20
180.684326
 30
0.0
 11
39.597711
 21
180.684326
 31
0.0
  0
LINE
  5
1F1
330
1F
100
AcDbEntity
  8
0
  6
CONTINUOUS
 62
     4
100
AcDbLine
 10
74.397711
 20
180.684326
 30
0.0
 11
74.397711
 21
180.484326
 31
0.0
  0
LINE
  5
1F2
330
1F
100
AcDbEntity
  8
0
  6
CONTINUOUS
 62
     4
100
AcDbLine
 10
39.797711
 20
180.484326
 30
0.0
 11
39.797711
 21
180.684326
 31
0.0
  0
LINE
  5
1F3
330
1F
100
AcDbEntity
  8
0
  6
CONTINUOUS
 62
     4
100
AcDbLine
 10
74.397711
 20
171.184326
 30
0.0
 11
74.397711
 21
171.984326
 31
0.0
  0
LINE
  5
1F4
330
1F
100
AcDbEntity
  8
0
  6
CONTINUOUS
 62
     4
100
AcDbLine
 10
74.397711
 20
129.184326
 30
0.0
 11
74.397711
 21
128.184326
 31
0.0
  0
LINE
  5
1F5
330
1F
100
AcDbEntity
  8
0
  6
CONTINUOUS
 62
     4
100
AcDbLine
 10
74.397711
 20
127.384326
 30
0.0
 11
74.397711
 21
128.184326
 31
0.0
  0
LINE
  5
1F6
330
1F
100
AcDbEntity
  8
0
  6
CONTINUOUS
 62
     4
100
AcDbLine
 10
39.797711
 20
127.384326
 30
0.0
 11
39.797711
 21
128.184326
 31
0.0
  0
LINE
  5
1F7
330
1F
100
AcDbEntity
  8
0
  6
CONTINUOUS
 62
     4
100
AcDbLine
 10
39.797711
 20
170.184326
 30
0.0
 11
39.797711
 21
171.184326
 31
0.0
  0
LINE
  5
1F8
330
1F
100
AcDbEntity
  8
0
  6
CONTINUOUS
 62
     4
100
AcDbLine
 10
39.797711
 20
171.184326
 30
0.0
 11
39.797711
 21
171.984326
 31
0.0
  0
ARC
  5
1F9
330
1F
100
AcDbEntity
  8
0
  6
CONTINUOUS
 62
     6
100
AcDbCircle
 10
74.197711
 20
171.984326
 30
0.0
 40
0.2000000029802358
100
AcDbArc
 50
0.0
 51
90.0
  0
ARC
  5
1FA
330
1F
100
AcDbEntity
  8
0
  6
CONTINUOUS
 62
     6
100
AcDbCircle
 10
-74.197711
 20
127.384326
 30
0.0
 40
0.2000000029802351
210
0.0
220
0.0
230
-1.0
100
AcDbArc
 50
180.0
 51
270.0
  0
LINE
  5
1FB
330
1F
100
AcDbEntity
  8
0
  6
CONTINUOUS
 62
     6
100
AcDbLine
 10
39.997711
 20
127.184326
 30
0.0
 11
74.197711
 21
127.184326
 31
0.0
  0
ARC
  5
1FC
330
1F
100
AcDbEntity
  8
0
  6
CONTINUOUS
 62
     6
100
AcDbCircle
 10
-39.997711
 20
127.384326
 30
0.0
 40
0.2000000029802322
210
0.0
220
0.0
230
-1.0
100
AcDbArc
 50
270.0
 51
0.0
  0
LINE
  5
1FD
330
1F
100
AcDbEntity
  8
0
  6
CONTINUOUS
 62
     6
100
AcDbLine
 10
74.197711
 20
172.184326
 30
0.0
 11
39.997711
 21
172.184326
 31
0.0
  0
ARC
  5
1FE
330
1F
100
AcDbEntity
  8
0
  6
CONTINUOUS
 62
     6
100
AcDbCircle
 10
39.997711
 20
171.984326
 30
0.0
 40
0.2000000029802322
100
AcDbArc
 50
90.0
 51
180.0
  0
ARC
  5
1FF
330
1F
100
AcDbEntity
  8
0
  6
CONTINUOUS
 62
     4
100
AcDbCircle
 10
-61.847711
 20
105.134326
 30
0.0
 40
0.7999999849599999
210
0.0
220
0.0
230
-1.0
100
AcDbArc
 50
180.0
 51
270.0
  0
LINE
  5
200
330
1F
100
AcDbEntity
  8
0
  6
CONTINUOUS
 62
     4
100
AcDbLine
 10
61.847711
 20
104.334326
 30
0.0
 11
60.620805
 21
104.334326
 31
0.0
  0
LINE
  5
201
330
1F
100
AcDbEntity
  8
0
  6
CONTINUOUS
 62
     4
100
AcDbLine
 10
60.620805
 20
104.334326
 30
0.0
 11
58.68787
 21
103.249913
 31
0.0
  0
ARC
  5
202
330
1F
100
AcDbEntity
  8
0
  6
CONTINUOUS
 62
     4
100
AcDbCircle
 10
-57.097711
 20
106.084326
 30
0.0
 40
3.249999938900002
210
0.0
220
0.0
230
-1.0
100
AcDbArc
 50
240.706755
 51
299.621837
  0
LINE
  5
203
330
1F
100
AcDbEntity
  8
0
  6
CONTINUOUS
 62
     4
100
AcDbLine
 10
55.491323
 20
103.259079
 30
0.0
 11
53.600226
 21
104.334326
 31
0.0
  0
LINE
  5
204
330
1F
100
AcDbEntity
  8
0
  6
CONTINUOUS
 62
     4
100
AcDbLine
 10
53.600226
 20
104.334326
 30
0.0
 11
52.347711
 21
104.334326
 31
0.0
  0
ARC
  5
205
330
1F
100
AcDbEntity
  8
0
  6
CONTINUOUS
 62
     4
100
AcDbCircle
 10
-52.347711
 20
105.134326
 30
0.0
 40
0.7999999849600017
210
0.0
220
0.0
230
-1.0
100
AcDbArc
 50
270.0
 51
0.0
  0
LINE
  5
206
330
1F
100
AcDbEntity
  8
0
  6
CONTINUOUS
 62
     6
100
AcDbLine
 10
60.597711
 20
106.834326
 30
0.0
 11
59.219032
 21
106.834326
 31
0.0
  0
ARC
  5
207
330
1F
100
AcDbEntity
  8
0
  6
CONTINUOUS
 62
     6
100
AcDbCircle
 10
57.097711
 20
106.084326
 30
0.0
 40
2.249999957700001
100
AcDbArc
 50
134.674608
 51
160.528779
  0
ARC
  5
208
330
1F
100
AcDbEntity
  8
0
  6
CONTINUOUS
 62
     6
100
AcDbCircle
 10
57.097711
 20
106.084326
 30
0.0
 40
2.249999957700001
100
AcDbArc
 50
19.471215
 51
43.688123
  0
LINE
  5
209
330
1F
100
AcDbEntity
  8
0
  6
CONTINUOUS
 62
     6
100
AcDbLine
 10
54.976391
 20
106.834326
 30
0.0
 11
53.597711
 21
106.834326
 31
0.0
  0
LINE
  5
20A
330
1F
100
AcDbEntity
  8
0
  6
CONTINUOUS
 62
     6
100
AcDbLine
 10
53.597711
 20
106.834326
 30
0.0
 11
53.597711
 21
105.334326
 31
0.0
  0
LINE
  5
20B
330
1F
100
AcDbEntity
  8
0
  6
CONTINUOUS
 62
     6
100
AcDbLine
 10
53.597711
 20
105.334326
 30
0.0
 11
54.976391
 21
105.334326
 31
0.0
  0
ARC
  5
20C
330
1F
100
AcDbEntity
  8
0
  6
CONTINUOUS
 62
     6
100
AcDbCircle
 10
57.097711
 20
106.084326
 30
0.0
 40
2.249999957700001
100
AcDbArc
 50
199.471224
 51
340.528779
  0
LINE
  5
20D
330
1F
100
AcDbEntity
  8
0
  6
CONTINUOUS
 62
     6
100
AcDbLine
 10
59.219031
 20
105.334326
 30
0.0
 11
60.597711
 21
105.334326
 31
0.0
  0
LINE
  5
20E
330
1F
100
AcDbEntity
  8
0
  6
CONTINUOUS
 62
     6
100
AcDbLine
 10
60.597711
 20
105.334326
 30
0.0
 11
60.597711
 21
106.834326
 31
0.0
  0
LINE
  5
20F
330
1F
100
AcDbEntity
  8
0
  6
CONTINUOUS
 62
     4
100
AcDbLine
 10
62.647711
 20
107.684326
 30
0.0
 11
62.647711
 21
105.134326
 31
0.0
  0
LINE
  5
210
330
1F
100
AcDbEntity
  8
0
  6
CONTINUOUS
 62
     4
100
AcDbLine
 10
51.547711
 20
107.684326
 30
0.0
 11
51.547711
 21
105.134326
 31
0.0
  0
LINE
  5
211
330
1F
100
AcDbEntity
  8
0
  6
CONTINUOUS
 62
     4
100
AcDbLine
 10
74.397711
 20
171.184326
 30
0.0
 11
74.397711
 21
170.184326
 31
0.0
  0
LINE
  5
212
330
1F
100
AcDbEntity
  8
0
  6
CONTINUOUS
 62
     4
100
AcDbLine
 10
39.797711
 20
128.184326
 30
0.0
 11
39.797711
 21
129.184326
 31
0.0
  0
LINE
  5
213
330
1F
100
AcDbEntity
  8
0
  6
CONTINUOUS
 62
     4
100
AcDbLine
 10
99.849941
 20
167.184326
 30
0.0
 11
99.849941
 21
166.684326
 31
0.0
  0
LINE
  5
214
330
1F
100
AcDbEntity
  8
0
  6
CONTINUOUS
 62
     4
100
AcDbLine
 10
99.849941
 20
162.684326
 30
0.0
 11
99.849941
 21
133.384341
 31
0.0
  0
LINE
  5
215
330
1F
100
AcDbEntity
  8
0
  6
CONTINUOUS
 62
     5
100
AcDbLine
 10
99.849941
 20
131.684326
 30
0.0
 11
97.74994
 21
131.684326
 31
0.0
  0
LINE
  5
216
330
1F
100
AcDbEntity
  8
DIM
  6
CONTINUOUS
 62
     5
100
AcDbLine
 10
99.849941
 20
132.459303
 30
0.0
 11
99.84994
 21
133.384341
 31
0.0
  0
LINE
  5
217
330
1F
100
AcDbEntity
  8
DIM
  6
CONTINUOUS
 62
     5
100
AcDbLine
 10
96.04994
 20
131.684339
 30
0.0
 11
97.74994
 21
131.684326
 31
0.0
  0
LINE
  5
218
330
1F
100
AcDbEntity
  8
0
  6
CONTINUOUS
 62
     6
100
AcDbLine
 10
60.197681
 20
131.284318
 30
0.0
 11
60.197681
 21
129.084318
 31
0.0
  0
LINE
  5
219
330
1F
100
AcDbEntity
  8
0
  6
CONTINUOUS
 62
     6
100
AcDbLine
 10
60.197681
 20
129.084318
 30
0.0
 11
61.797681
 21
129.084318
 31
0.0
  0
LINE
  5
21A
330
1F
100
AcDbEntity
  8
0
  6
CONTINUOUS
 62
     6
100
AcDbLine
 10
61.797681
 20
129.084318
 30
0.0
 11
61.797681
 21
131.284318
 31
0.0
  0
LINE
  5
21B
330
1F
100
AcDbEntity
  8
0
  6
CONTINUOUS
 62
     6
100
AcDbLine
 10
60.197681
 20
131.284318
 30
0.0
 11
61.797681
 21
131.284318
 31
0.0
  0
LINE
  5
21C
330
1F
100
AcDbEntity
  8
0
  6
CONTINUOUS
 62
     6
100
AcDbLine
 10
69.497681
 20
131.284318
 30
0.0
 11
69.497681
 21
129.084318
 31
0.0
  0
LINE
  5
21D
330
1F
100
AcDbEntity
  8
0
  6
CONTINUOUS
 62
     6
100
AcDbLine
 10
69.497681
 20
129.084318
 30
0.0
 11
71.097681
 21
129.084318
 31
0.0
  0
LINE
  5
21E
330
1F
100
AcDbEntity
  8
0
  6
CONTINUOUS
 62
     6
100
AcDbLine
 10
71.097681
 20
129.084318
 30
0.0
 11
71.097681
 21
131.284318
 31
0.0
  0
LINE
  5
21F
330
1F
100
AcDbEntity
  8
0
  6
CONTINUOUS
 62
     6
100
AcDbLine
 10
69.497681
 20
131.284318
 30
0.0
 11
71.097681
 21
131.284318
 31
0.0
  0
LINE
  5
220
330
1F
100
AcDbEntity
  8
0
  6
CONTINUOUS
 62
     6
100
AcDbLine
 10
67.997681
 20
129.084318
 30
0.0
 11
66.397681
 21
129.084318
 31
0.0
  0
LINE
  5
221
330
1F
100
AcDbEntity
  8
0
  6
CONTINUOUS
 62
     6
100
AcDbLine
 10
66.397681
 20
129.084318
 30
0.0
 11
66.397681
 21
131.284318
 31
0.0
  0
LINE
  5
222
330
1F
100
AcDbEntity
  8
0
  6
CONTINUOUS
 62
     6
100
AcDbLine
 10
66.397681
 20
131.284318
 30
0.0
 11
67.997681
 21
131.284318
 31
0.0
  0
LINE
  5
223
330
1F
100
AcDbEntity
  8
0
  6
CONTINUOUS
 62
     6
100
AcDbLine
 10
67.997681
 20
131.284318
 30
0.0
 11
67.997681
 21
129.084318
 31
0.0
  0
LINE
  5
224
330
1F
100
AcDbEntity
  8
0
  6
CONTINUOUS
 62
     6
100
AcDbLine
 10
64.897681
 20
129.084318
 30
0.0
 11
63.297681
 21
129.084318
 31
0.0
  0
LINE
  5
225
330
1F
100
AcDbEntity
  8
0
  6
CONTINUOUS
 62
     6
100
AcDbLine
 10
63.297681
 20
129.084318
 30
0.0
 11
63.297681
 21
131.284318
 31
0.0
  0
LINE
  5
226
330
1F
100
AcDbEntity
  8
0
  6
CONTINUOUS
 62
     6
100
AcDbLine
 10
63.297681
 20
131.284318
 30
0.0
 11
64.897681
 21
131.284318
 31
0.0
  0
LINE
  5
227
330
1F
100
AcDbEntity
  8
0
  6
CONTINUOUS
 62
     6
100
AcDbLine
 10
64.897681
 20
131.284318
 30
0.0
 11
64.897681
 21
129.084318
 31
0.0
  0
CIRCLE
  5
228
330
1F
100
AcDbEntity
  8
0
  6
CONTINUOUS
 62
     6
100
AcDbCircle
 10
70.222711
 20
185.884326
 30
0.0
 40
2.5
  0
LINE
  5
229
330
1F
100
AcDbEntity
  8
0
  6
CONTINUOUS
 62
     5
100
AcDbLine
 10
70.958406
 20
185.336181
 30
0.0
 11
71.800724
 21
185.459309
 31
0.0
  0
LINE
  5
22A
330
1F
100
AcDbEntity
  8
0
  6
CONTINUOUS
 62
     5
100
AcDbLine
 10
71.800724
 20
185.459309
 30
0.0
 11
71.613058
 21
186.743127
 31
0.0
  0
LINE
  5
22B
330
1F
100
AcDbEntity
  8
0
  6
CONTINUOUS
 62
     5
100
AcDbLine
 10
71.613058
 20
186.743127
 30
0.0
 11
70.77074
 21
186.619999
 31
0.0
  0
LINE
  5
22C
330
1F
100
AcDbEntity
  8
0
  6
CONTINUOUS
 62
     5
100
AcDbLine
 10
70.77074
 20
186.619999
 30
0.0
 11
70.647612
 21
187.462316
 31
0.0
  0
LINE
  5
22D
330
1F
100
AcDbEntity
  8
0
  6
CONTINUOUS
 62
     5
100
AcDbLine
 10
69.363794
 20
187.27465
 30
0.0
 11
69.486923
 21
186.432333
 31
0.0
  0
LINE
  5
22E
330
1F
100
AcDbEntity
  8
0
  6
CONTINUOUS
 62
     5
100
AcDbLine
 10
69.486923
 20
186.432333
 30
0.0
 11
68.644605
 21
186.309204
 31
0.0
  0
LINE
  5
22F
330
1F
100
AcDbEntity
  8
0
  6
CONTINUOUS
 62
     5
100
AcDbLine
 10
68.644605
 20
186.309204
 30
0.0
 11
68.832271
 21
185.025387
 31
0.0
  0
LINE
  5
230
330
1F
100
AcDbEntity
  8
0
  6
CONTINUOUS
 62
     5
100
AcDbLine
 10
68.832271
 20
185.025387
 30
0.0
 11
69.674588
 21
185.148515
 31
0.0
  0
LINE
  5
231
330
1F
100
AcDbEntity
  8
0
  6
CONTINUOUS
 62
     5
100
AcDbLine
 10
69.674588
 20
185.148515
 30
0.0
 11
69.797717
 21
184.306198
 31
0.0
  0
LINE
  5
232
330
1F
100
AcDbEntity
  8
0
  6
CONTINUOUS
 62
     5
100
AcDbLine
 10
71.081534
 20
184.493863
 30
0.0
 11
70.958406
 21
185.336181
 31
0.0
  0
LINE
  5
233
330
1F
100
AcDbEntity
  8
0
  6
CONTINUOUS
 62
     5
100
AcDbLine
 10
69.609965
 20
187.310635
 30
0.0
 11
69.363794
 21
187.27465
 31
0.0
  0
LINE
  5
234
330
1F
100
AcDbEntity
  8
0
  6
CONTINUOUS
 62
     5
100
AcDbLine
 10
70.647612
 20
187.462316
 30
0.0
 11
70.401552
 21
187.426348
 31
0.0
  0
LINE
  5
235
330
1F
100
AcDbEntity
  8
0
  6
CONTINUOUS
 62
     5
100
AcDbLine
 10
69.797717
 20
184.306198
 30
0.0
 11
70.043887
 21
184.342182
 31
0.0
  0
LINE
  5
236
330
1F
100
AcDbEntity
  8
0
  6
CONTINUOUS
 62
     5
100
AcDbLine
 10
70.835475
 20
184.457895
 30
0.0
 11
71.081534
 21
184.493863
 31
0.0
  0
LINE
  5
237
330
1F
100
AcDbEntity
  8
0
  6
CONTINUOUS
 62
     5
100
AcDbLine
 10
69.609965
 20
187.310635
 30
0.0
 11
69.663923
 21
186.941512
 31
0.0
  0
LINE
  5
238
330
1F
100
AcDbEntity
  8
0
  6
CONTINUOUS
 62
     5
100
AcDbLine
 10
70.401552
 20
187.426348
 30
0.0
 11
70.45551
 21
187.057224
 31
0.0
  0
LINE
  5
239
330
1F
100
AcDbEntity
  8
0
  6
CONTINUOUS
 62
     5
100
AcDbLine
 10
69.663923
 20
186.941512
 30
0.0
 11
70.45551
 21
187.057224
 31
0.0
  0
LINE
  5
23A
330
1F
100
AcDbEntity
  8
0
  6
CONTINUOUS
 62
     5
100
AcDbLine
 10
70.043887
 20
184.342182
 30
0.0
 11
69.98993
 21
184.711306
 31
0.0
  0
LINE
  5
23B
330
1F
100
AcDbEntity
  8
0
  6
CONTINUOUS
 62
     5
100
AcDbLine
 10
70.835475
 20
184.457895
 30
0.0
 11
70.781517
 21
184.827018
 31
0.0
  0
LINE
  5
23C
330
1F
100
AcDbEntity
  8
0
  6
CONTINUOUS
 62
     5
100
AcDbLine
 10
69.98993
 20
184.711306
 30
0.0
 11
70.781517
 21
184.827018
 31
0.0
  0
ARC
  5
23D
330
1F
100
AcDbEntity
  8
0
  6
CONTINUOUS
 62
     5
100
AcDbCircle
 10
-70.222711
 20
185.884326
 30
0.0
 40
2.3
210
0.0
220
0.0
230
-1.0
100
AcDbArc
 50
71.668108
 51
81.683513
  0
ARC
  5
23E
330
1F
100
AcDbEntity
  8
0
  6
CONTINUOUS
 62
     5
100
AcDbCircle
 10
-70.222711
 20
185.884326
 30
0.0
 40
2.3
210
0.0
220
0.0
230
-1.0
100
AcDbArc
 50
261.683528
 51
271.698928
  0
ARC
  5
23F
330
1F
100
AcDbEntity
  8
0
  6
CONTINUOUS
 62
     5
100
AcDbCircle
 10
70.222711
 20
185.884326
 30
0.0
 40
2.3
100
AcDbArc
 50
88.301072
 51
98.316487
  0
ARC
  5
240
330
1F
100
AcDbEntity
  8
0
  6
CONTINUOUS
 62
     5
100
AcDbCircle
 10
70.222711
 20
185.884326
 30
0.0
 40
2.3
100
AcDbArc
 50
278.316472
 51
288.331892
  0
ARC
  5
241
330
1F
100
AcDbEntity
  8
0
  6
CONTINUOUS
 62
     5
100
AcDbCircle
 10
70.222711
 20
185.884326
 30
0.0
 40
2.3
100
AcDbArc
 50
288.331892
 51
88.301072
  0
LINE
  5
242
330
1F
100
AcDbEntity
  8
0
  6
CONTINUOUS
 62
     5
100
AcDbLine
 10
70.901942
 20
184.003197
 30
0.0
 11
70.835475
 21
184.457895
 31
0.0
  0
LINE
  5
243
330
1F
100
AcDbEntity
  8
0
  6
CONTINUOUS
 62
     5
100
AcDbLine
 10
70.401552
 20
187.426348
 30
0.0
 11
70.335067
 21
187.881168
 31
0.0
  0
ARC
  5
244
330
1F
100
AcDbEntity
  8
0
  6
CONTINUOUS
 62
     5
100
AcDbCircle
 10
-70.222711
 20
185.884326
 30
0.0
 40
2.3
210
0.0
220
0.0
230
-1.0
100
AcDbArc
 50
271.698928
 51
71.668108
  0
LINE
  5
245
330
1F
100
AcDbEntity
  8
0
  6
CONTINUOUS
 62
     5
100
AcDbLine
 10
70.043887
 20
184.342182
 30
0.0
 11
70.110354
 21
183.887485
 31
0.0
  0
LINE
  5
246
330
1F
100
AcDbEntity
  8
0
  6
CONTINUOUS
 62
     5
100
AcDbLine
 10
69.54348
 20
187.765455
 30
0.0
 11
69.609965
 21
187.310635
 31
0.0
  0
LINE
  5
247
330
1F
100
AcDbEntity
  8
0
  6
CONTINUOUS
 62
     5
100
AcDbLine
 10
70.901942
 20
184.003197
 30
0.0
 11
70.946109
 21
183.70105
 31
0.0
  0
LINE
  5
248
330
1F
100
AcDbEntity
  8
0
  6
CONTINUOUS
 62
     5
100
AcDbLine
 10
70.335067
 20
187.881168
 30
0.0
 11
70.2909
 21
188.183315
 31
0.0
  0
LINE
  5
249
330
1F
100
AcDbEntity
  8
0
  6
CONTINUOUS
 62
     5
100
AcDbLine
 10
70.110354
 20
183.887485
 30
0.0
 11
70.154521
 21
183.585337
 31
0.0
  0
LINE
  5
24A
330
1F
100
AcDbEntity
  8
0
  6
CONTINUOUS
 62
     5
100
AcDbLine
 10
69.499313
 20
188.067603
 30
0.0
 11
69.54348
 21
187.765455
 31
0.0
  0
CIRCLE
  5
24B
330
1F
100
AcDbEntity
  8
0
  6
CONTINUOUS
 62
     6
100
AcDbCircle
 10
43.972711
 20
113.484326
 30
0.0
 40
2.5
  0
LINE
  5
24C
330
1F
100
AcDbEntity
  8
0
  6
CONTINUOUS
 62
     5
100
AcDbLine
 10
44.708406
 20
114.032472
 30
0.0
 11
45.550724
 21
113.909343
 31
0.0
  0
LINE
  5
24D
330
1F
100
AcDbEntity
  8
0
  6
CONTINUOUS
 62
     5
100
AcDbLine
 10
45.550724
 20
113.909343
 30
0.0
 11
45.363058
 21
112.625526
 31
0.0
  0
LINE
  5
24E
330
1F
100
AcDbEntity
  8
0
  6
CONTINUOUS
 62
     5
100
AcDbLine
 10
45.363058
 20
112.625526
 30
0.0
 11
44.52074
 21
112.748654
 31
0.0
  0
LINE
  5
24F
330
1F
100
AcDbEntity
  8
0
  6
CONTINUOUS
 62
     5
100
AcDbLine
 10
44.52074
 20
112.748654
 30
0.0
 11
44.397612
 21
111.906336
 31
0.0
  0
LINE
  5
250
330
1F
100
AcDbEntity
  8
0
  6
CONTINUOUS
 62
     5
100
AcDbLine
 10
43.113794
 20
112.094002
 30
0.0
 11
43.236923
 21
112.93632
 31
0.0
  0
LINE
  5
251
330
1F
100
AcDbEntity
  8
0
  6
CONTINUOUS
 62
     5
100
AcDbLine
 10
43.236923
 20
112.93632
 30
0.0
 11
42.394605
 21
113.059448
 31
0.0
  0
LINE
  5
252
330
1F
100
AcDbEntity
  8
0
  6
CONTINUOUS
 62
     5
100
AcDbLine
 10
42.394605
 20
113.059448
 30
0.0
 11
42.582271
 21
114.343266
 31
0.0
  0
LINE
  5
253
330
1F
100
AcDbEntity
  8
0
  6
CONTINUOUS
 62
     5
100
AcDbLine
 10
42.582271
 20
114.343266
 30
0.0
 11
43.424588
 21
114.220138
 31
0.0
  0
LINE
  5
254
330
1F
100
AcDbEntity
  8
0
  6
CONTINUOUS
 62
     5
100
AcDbLine
 10
43.424588
 20
114.220138
 30
0.0
 11
43.547717
 21
115.062455
 31
0.0
  0
LINE
  5
255
330
1F
100
AcDbEntity
  8
0
  6
CONTINUOUS
 62
     5
100
AcDbLine
 10
44.831534
 20
114.874789
 30
0.0
 11
44.708406
 21
114.032472
 31
0.0
  0
LINE
  5
256
330
1F
100
AcDbEntity
  8
0
  6
CONTINUOUS
 62
     5
100
AcDbLine
 10
43.359965
 20
112.058018
 30
0.0
 11
43.113794
 21
112.094002
 31
0.0
  0
LINE
  5
257
330
1F
100
AcDbEntity
  8
0
  6
CONTINUOUS
 62
     5
100
AcDbLine
 10
44.397612
 20
111.906336
 30
0.0
 11
44.151552
 21
111.942305
 31
0.0
  0
LINE
  5
258
330
1F
100
AcDbEntity
  8
0
  6
CONTINUOUS
 62
     5
100
AcDbLine
 10
43.547717
 20
115.062455
 30
0.0
 11
43.793887
 21
115.02647
 31
0.0
  0
LINE
  5
259
330
1F
100
AcDbEntity
  8
0
  6
CONTINUOUS
 62
     5
100
AcDbLine
 10
44.585475
 20
114.910758
 30
0.0
 11
44.831534
 21
114.874789
 31
0.0
  0
LINE
  5
25A
330
1F
100
AcDbEntity
  8
0
  6
CONTINUOUS
 62
     5
100
AcDbLine
 10
43.359965
 20
112.058018
 30
0.0
 11
43.413923
 21
112.427141
 31
0.0
  0
LINE
  5
25B
330
1F
100
AcDbEntity
  8
0
  6
CONTINUOUS
 62
     5
100
AcDbLine
 10
44.151552
 20
111.942305
 30
0.0
 11
44.20551
 21
112.311428
 31
0.0
  0
LINE
  5
25C
330
1F
100
AcDbEntity
  8
0
  6
CONTINUOUS
 62
     5
100
AcDbLine
 10
43.413923
 20
112.427141
 30
0.0
 11
44.20551
 21
112.311428
 31
0.0
  0
LINE
  5
25D
330
1F
100
AcDbEntity
  8
0
  6
CONTINUOUS
 62
     5
100
AcDbLine
 10
43.793887
 20
115.02647
 30
0.0
 11
43.73993
 21
114.657347
 31
0.0
  0
LINE
  5
25E
330
1F
100
AcDbEntity
  8
0
  6
CONTINUOUS
 62
     5
100
AcDbLine
 10
44.585475
 20
114.910758
 30
0.0
 11
44.531517
 21
114.541634
 31
0.0
  0
LINE
  5
25F
330
1F
100
AcDbEntity
  8
0
  6
CONTINUOUS
 62
     5
100
AcDbLine
 10
43.73993
 20
114.657347
 30
0.0
 11
44.531517
 21
114.541634
 31
0.0
  0
ARC
  5
260
330
1F
100
AcDbEntity
  8
0
  6
CONTINUOUS
 62
     5
100
AcDbCircle
 10
43.972711
 20
113.484326
 30
0.0
 40
2.3
100
AcDbArc
 50
251.668108
 51
261.683513
  0
ARC
  5
261
330
1F
100
AcDbEntity
  8
0
  6
CONTINUOUS
 62
     5
100
AcDbCircle
 10
43.972711
 20
113.484326
 30
0.0
 40
2.3
100
AcDbArc
 50
81.683528
 51
91.698928
  0
ARC
  5
262
330
1F
100
AcDbEntity
  8
0
  6
CONTINUOUS
 62
     5
100
AcDbCircle
 10
-43.972711
 20
113.484326
 30
0.0
 40
2.3
210
0.0
220
0.0
230
-1.0
100
AcDbArc
 50
268.301072
 51
278.316487
  0
ARC
  5
263
330
1F
100
AcDbEntity
  8
0
  6
CONTINUOUS
 62
     5
100
AcDbCircle
 10
-43.972711
 20
113.484326
 30
0.0
 40
2.3
210
0.0
220
0.0
230
-1.0
100
AcDbArc
 50
98.316472
 51
108.331892
  0
ARC
  5
264
330
1F
100
AcDbEntity
  8
0
  6
CONTINUOUS
 62
     5
100
AcDbCircle
 10
-43.972711
 20
113.484326
 30
0.0
 40
2.3
210
0.0
220
0.0
230
-1.0
100
AcDbArc
 50
108.331892
 51
268.301072
  0
LINE
  5
265
330
1F
100
AcDbEntity
  8
0
  6
CONTINUOUS
 62
     5
100
AcDbLine
 10
44.651942
 20
115.365455
 30
0.0
 11
44.585475
 21
114.910758
 31
0.0
  0
LINE
  5
266
330
1F
100
AcDbEntity
  8
0
  6
CONTINUOUS
 62
     5
100
AcDbLine
 10
44.151552
 20
111.942305
 30
0.0
 11
44.085067
 21
111.487485
 31
0.0
  0
ARC
  5
267
330
1F
100
AcDbEntity
  8
0
  6
CONTINUOUS
 62
     5
100
AcDbCircle
 10
43.972711
 20
113.484326
 30
0.0
 40
2.3
100
AcDbArc
 50
91.698928
 51
251.668108
  0
LINE
  5
268
330
1F
100
AcDbEntity
  8
0
  6
CONTINUOUS
 62
     5
100
AcDbLine
 10
43.793887
 20
115.02647
 30
0.0
 11
43.860354
 21
115.481168
 31
0.0
  0
LINE
  5
269
330
1F
100
AcDbEntity
  8
0
  6
CONTINUOUS
 62
     5
100
AcDbLine
 10
43.29348
 20
111.603197
 30
0.0
 11
43.359965
 21
112.058018
 31
0.0
  0
LINE
  5
26A
330
1F
100
AcDbEntity
  8
0
  6
CONTINUOUS
 62
     5
100
AcDbLine
 10
44.651942
 20
115.365455
 30
0.0
 11
44.696109
 21
115.667603
 31
0.0
  0
LINE
  5
26B
330
1F
100
AcDbEntity
  8
0
  6
CONTINUOUS
 62
     5
100
AcDbLine
 10
44.085067
 20
111.487485
 30
0.0
 11
44.0409
 21
111.185337
 31
0.0
  0
LINE
  5
26C
330
1F
100
AcDbEntity
  8
0
  6
CONTINUOUS
 62
     5
100
AcDbLine
 10
43.860354
 20
115.481168
 30
0.0
 11
43.904521
 21
115.783315
 31
0.0
  0
LINE
  5
26D
330
1F
100
AcDbEntity
  8
0
  6
CONTINUOUS
 62
     5
100
AcDbLine
 10
43.249313
 20
111.30105
 30
0.0
 11
43.29348
 21
111.603197
 31
0.0
  0
CIRCLE
  5
26E
330
1F
100
AcDbEntity
  8
0
  6
CONTINUOUS
 62
     6
100
AcDbCircle
 10
49.972711
 20
113.484326
 30
0.0
 40
2.5
  0
LINE
  5
26F
330
1F
100
AcDbEntity
  8
0
  6
CONTINUOUS
 62
     5
100
AcDbLine
 10
50.708406
 20
114.032472
 30
0.0
 11
51.550724
 21
113.909343
 31
0.0
  0
LINE
  5
270
330
1F
100
AcDbEntity
  8
0
  6
CONTINUOUS
 62
     5
100
AcDbLine
 10
51.550724
 20
113.909343
 30
0.0
 11
51.363058
 21
112.625526
 31
0.0
  0
LINE
  5
271
330
1F
100
AcDbEntity
  8
0
  6
CONTINUOUS
 62
     5
100
AcDbLine
 10
51.363058
 20
112.625526
 30
0.0
 11
50.52074
 21
112.748654
 31
0.0
  0
LINE
  5
272
330
1F
100
AcDbEntity
  8
0
  6
CONTINUOUS
 62
     5
100
AcDbLine
 10
50.52074
 20
112.748654
 30
0.0
 11
50.397612
 21
111.906336
 31
0.0
  0
LINE
  5
273
330
1F
100
AcDbEntity
  8
0
  6
CONTINUOUS
 62
     5
100
AcDbLine
 10
49.113794
 20
112.094002
 30
0.0
 11
49.236923
 21
112.93632
 31
0.0
  0
LINE
  5
274
330
1F
100
AcDbEntity
  8
0
  6
CONTINUOUS
 62
     5
100
AcDbLine
 10
49.236923
 20
112.93632
 30
0.0
 11
48.394605
 21
113.059448
 31
0.0
  0
LINE
  5
275
330
1F
100
AcDbEntity
  8
0
  6
CONTINUOUS
 62
     5
100
AcDbLine
 10
48.394605
 20
113.059448
 30
0.0
 11
48.582271
 21
114.343266
 31
0.0
  0
LINE
  5
276
330
1F
100
AcDbEntity
  8
0
  6
CONTINUOUS
 62
     5
100
AcDbLine
 10
48.582271
 20
114.343266
 30
0.0
 11
49.424588
 21
114.220138
 31
0.0
  0
LINE
  5
277
330
1F
100
AcDbEntity
  8
0
  6
CONTINUOUS
 62
     5
100
AcDbLine
 10
49.424588
 20
114.220138
 30
0.0
 11
49.547717
 21
115.062455
 31
0.0
  0
LINE
  5
278
330
1F
100
AcDbEntity
  8
0
  6
CONTINUOUS
 62
     5
100
AcDbLine
 10
50.831534
 20
114.874789
 30
0.0
 11
50.708406
 21
114.032472
 31
0.0
  0
LINE
  5
279
330
1F
100
AcDbEntity
  8
0
  6
CONTINUOUS
 62
     5
100
AcDbLine
 10
49.359965
 20
112.058018
 30
0.0
 11
49.113794
 21
112.094002
 31
0.0
  0
LINE
  5
27A
330
1F
100
AcDbEntity
  8
0
  6
CONTINUOUS
 62
     5
100
AcDbLine
 10
50.397612
 20
111.906336
 30
0.0
 11
50.151552
 21
111.942305
 31
0.0
  0
LINE
  5
27B
330
1F
100
AcDbEntity
  8
0
  6
CONTINUOUS
 62
     5
100
AcDbLine
 10
49.547717
 20
115.062455
 30
0.0
 11
49.793887
 21
115.02647
 31
0.0
  0
LINE
  5
27C
330
1F
100
AcDbEntity
  8
0
  6
CONTINUOUS
 62
     5
100
AcDbLine
 10
50.585475
 20
114.910758
 30
0.0
 11
50.831534
 21
114.874789
 31
0.0
  0
LINE
  5
27D
330
1F
100
AcDbEntity
  8
0
  6
CONTINUOUS
 62
     5
100
AcDbLine
 10
49.359965
 20
112.058018
 30
0.0
 11
49.413923
 21
112.427141
 31
0.0
  0
LINE
  5
27E
330
1F
100
AcDbEntity
  8
0
  6
CONTINUOUS
 62
     5
100
AcDbLine
 10
50.151552
 20
111.942305
 30
0.0
 11
50.20551
 21
112.311428
 31
0.0
  0
LINE
  5
27F
330
1F
100
AcDbEntity
  8
0
  6
CONTINUOUS
 62
     5
100
AcDbLine
 10
49.413923
 20
112.427141
 30
0.0
 11
50.20551
 21
112.311428
 31
0.0
  0
LINE
  5
280
330
1F
100
AcDbEntity
  8
0
  6
CONTINUOUS
 62
     5
100
AcDbLine
 10
49.793887
 20
115.02647
 30
0.0
 11
49.73993
 21
114.657347
 31
0.0
  0
LINE
  5
281
330
1F
100
AcDbEntity
  8
0
  6
CONTINUOUS
 62
     5
100
AcDbLine
 10
50.585475
 20
114.910758
 30
0.0
 11
50.531517
 21
114.541634
 31
0.0
  0
LINE
  5
282
330
1F
100
AcDbEntity
  8
0
  6
CONTINUOUS
 62
     5
100
AcDbLine
 10
49.73993
 20
114.657347
 30
0.0
 11
50.531517
 21
114.541634
 31
0.0
  0
ARC
  5
283
330
1F
100
AcDbEntity
  8
0
  6
CONTINUOUS
 62
     5
100
AcDbCircle
 10
49.972711
 20
113.484326
 30
0.0
 40
2.3
100
AcDbArc
 50
251.668108
 51
261.683513
  0
ARC
  5
284
330
1F
100
AcDbEntity
  8
0
  6
CONTINUOUS
 62
     5
100
AcDbCircle
 10
49.972711
 20
113.484326
 30
0.0
 40
2.3
100
AcDbArc
 50
81.683528
 51
91.698928
  0
ARC
  5
285
330
1F
100
AcDbEntity
  8
0
  6
CONTINUOUS
 62
     5
100
AcDbCircle
 10
-49.972711
 20
113.484326
 30
0.0
 40
2.3
210
0.0
220
0.0
230
-1.0
100
AcDbArc
 50
268.301072
 51
278.316487
  0
ARC
  5
286
330
1F
100
AcDbEntity
  8
0
  6
CONTINUOUS
 62
     5
100
AcDbCircle
 10
-49.972711
 20
113.484326
 30
0.0
 40
2.3
210
0.0
220
0.0
230
-1.0
100
AcDbArc
 50
98.316472
 51
108.331892
  0
ARC
  5
287
330
1F
100
AcDbEntity
  8
0
  6
CONTINUOUS
 62
     5
100
AcDbCircle
 10
-49.972711
 20
113.484326
 30
0.0
 40
2.3
210
0.0
220
0.0
230
-1.0
100
AcDbArc
 50
108.331892
 51
268.301072
  0
LINE
  5
288
330
1F
100
AcDbEntity
  8
0
  6
CONTINUOUS
 62
     5
100
AcDbLine
 10
50.651942
 20
115.365455
 30
0.0
 11
50.585475
 21
114.910758
 31
0.0
  0
LINE
  5
289
330
1F
100
AcDbEntity
  8
0
  6
CONTINUOUS
 62
     5
100
AcDbLine
 10
50.151552
 20
111.942305
 30
0.0
 11
50.085067
 21
111.487485
 31
0.0
  0
ARC
  5
28A
330
1F
100
AcDbEntity
  8
0
  6
CONTINUOUS
 62
     5
100
AcDbCircle
 10
49.972711
 20
113.484326
 30
0.0
 40
2.3
100
AcDbArc
 50
91.698928
 51
251.668108
  0
LINE
  5
28B
330
1F
100
AcDbEntity
  8
0
  6
CONTINUOUS
 62
     5
100
AcDbLine
 10
49.793887
 20
115.02647
 30
0.0
 11
49.860354
 21
115.481168
 31
0.0
  0
LINE
  5
28C
330
1F
100
AcDbEntity
  8
0
  6
CONTINUOUS
 62
     5
100
AcDbLine
 10
49.29348
 20
111.603197
 30
0.0
 11
49.359965
 21
112.058018
 31
0.0
  0
LINE
  5
28D
330
1F
100
AcDbEntity
  8
0
  6
CONTINUOUS
 62
     5
100
AcDbLine
 10
50.651942
 20
115.365455
 30
0.0
 11
50.696109
 21
115.667603
 31
0.0
  0
LINE
  5
28E
330
1F
100
AcDbEntity
  8
0
  6
CONTINUOUS
 62
     5
100
AcDbLine
 10
50.085067
 20
111.487485
 30
0.0
 11
50.0409
 21
111.185337
 31
0.0
  0
LINE
  5
28F
330
1F
100
AcDbEntity
  8
0
  6
CONTINUOUS
 62
     5
100
AcDbLine
 10
49.860354
 20
115.481168
 30
0.0
 11
49.904521
 21
115.783315
 31
0.0
  0
LINE
  5
290
330
1F
100
AcDbEntity
  8
0
  6
CONTINUOUS
 62
     5
100
AcDbLine
 10
49.249313
 20
111.30105
 30
0.0
 11
49.29348
 21
111.603197
 31
0.0
  0
CIRCLE
  5
291
330
1F
100
AcDbEntity
  8
0
  6
CONTINUOUS
 62
     6
100
AcDbCircle
 10
64.222711
 20
113.484326
 30
0.0
 40
2.5
  0
LINE
  5
292
330
1F
100
AcDbEntity
  8
0
  6
CONTINUOUS
 62
     5
100
AcDbLine
 10
64.958406
 20
114.032472
 30
0.0
 11
65.800724
 21
113.909343
 31
0.0
  0
LINE
  5
293
330
1F
100
AcDbEntity
  8
0
  6
CONTINUOUS
 62
     5
100
AcDbLine
 10
65.800724
 20
113.909343
 30
0.0
 11
65.613058
 21
112.625526
 31
0.0
  0
LINE
  5
294
330
1F
100
AcDbEntity
  8
0
  6
CONTINUOUS
 62
     5
100
AcDbLine
 10
65.613058
 20
112.625526
 30
0.0
 11
64.77074
 21
112.748654
 31
0.0
  0
LINE
  5
295
330
1F
100
AcDbEntity
  8
0
  6
CONTINUOUS
 62
     5
100
AcDbLine
 10
64.77074
 20
112.748654
 30
0.0
 11
64.647612
 21
111.906336
 31
0.0
  0
LINE
  5
296
330
1F
100
AcDbEntity
  8
0
  6
CONTINUOUS
 62
     5
100
AcDbLine
 10
63.363794
 20
112.094002
 30
0.0
 11
63.486923
 21
112.93632
 31
0.0
  0
LINE
  5
297
330
1F
100
AcDbEntity
  8
0
  6
CONTINUOUS
 62
     5
100
AcDbLine
 10
63.486923
 20
112.93632
 30
0.0
 11
62.644605
 21
113.059448
 31
0.0
  0
LINE
  5
298
330
1F
100
AcDbEntity
  8
0
  6
CONTINUOUS
 62
     5
100
AcDbLine
 10
62.644605
 20
113.059448
 30
0.0
 11
62.832271
 21
114.343266
 31
0.0
  0
LINE
  5
299
330
1F
100
AcDbEntity
  8
0
  6
CONTINUOUS
 62
     5
100
AcDbLine
 10
62.832271
 20
114.343266
 30
0.0
 11
63.674588
 21
114.220138
 31
0.0
  0
LINE
  5
29A
330
1F
100
AcDbEntity
  8
0
  6
CONTINUOUS
 62
     5
100
AcDbLine
 10
63.674588
 20
114.220138
 30
0.0
 11
63.797717
 21
115.062455
 31
0.0
  0
LINE
  5
29B
330
1F
100
AcDbEntity
  8
0
  6
CONTINUOUS
 62
     5
100
AcDbLine
 10
65.081534
 20
114.874789
 30
0.0
 11
64.958406
 21
114.032472
 31
0.0
  0
LINE
  5
29C
330
1F
100
AcDbEntity
  8
0
  6
CONTINUOUS
 62
     5
100
AcDbLine
 10
63.609965
 20
112.058018
 30
0.0
 11
63.363794
 21
112.094002
 31
0.0
  0
LINE
  5
29D
330
1F
100
AcDbEntity
  8
0
  6
CONTINUOUS
 62
     5
100
AcDbLine
 10
64.647612
 20
111.906336
 30
0.0
 11
64.401552
 21
111.942305
 31
0.0
  0
LINE
  5
29E
330
1F
100
AcDbEntity
  8
0
  6
CONTINUOUS
 62
     5
100
AcDbLine
 10
63.797717
 20
115.062455
 30
0.0
 11
64.043887
 21
115.02647
 31
0.0
  0
LINE
  5
29F
330
1F
100
AcDbEntity
  8
0
  6
CONTINUOUS
 62
     5
100
AcDbLine
 10
64.835475
 20
114.910758
 30
0.0
 11
65.081534
 21
114.874789
 31
0.0
  0
LINE
  5
2A0
330
1F
100
AcDbEntity
  8
0
  6
CONTINUOUS
 62
     5
100
AcDbLine
 10
63.609965
 20
112.058018
 30
0.0
 11
63.663923
 21
112.427141
 31
0.0
  0
LINE
  5
2A1
330
1F
100
AcDbEntity
  8
0
  6
CONTINUOUS
 62
     5
100
AcDbLine
 10
64.401552
 20
111.942305
 30
0.0
 11
64.45551
 21
112.311428
 31
0.0
  0
LINE
  5
2A2
330
1F
100
AcDbEntity
  8
0
  6
CONTINUOUS
 62
     5
100
AcDbLine
 10
63.663923
 20
112.427141
 30
0.0
 11
64.45551
 21
112.311428
 31
0.0
  0
LINE
  5
2A3
330
1F
100
AcDbEntity
  8
0
  6
CONTINUOUS
 62
     5
100
AcDbLine
 10
64.043887
 20
115.02647
 30
0.0
 11
63.98993
 21
114.657347
 31
0.0
  0
LINE
  5
2A4
330
1F
100
AcDbEntity
  8
0
  6
CONTINUOUS
 62
     5
100
AcDbLine
 10
64.835475
 20
114.910758
 30
0.0
 11
64.781517
 21
114.541634
 31
0.0
  0
LINE
  5
2A5
330
1F
100
AcDbEntity
  8
0
  6
CONTINUOUS
 62
     5
100
AcDbLine
 10
63.98993
 20
114.657347
 30
0.0
 11
64.781517
 21
114.541634
 31
0.0
  0
ARC
  5
2A6
330
1F
100
AcDbEntity
  8
0
  6
CONTINUOUS
 62
     5
100
AcDbCircle
 10
64.222711
 20
113.484326
 30
0.0
 40
2.3
100
AcDbArc
 50
251.668108
 51
261.683513
  0
ARC
  5
2A7
330
1F
100
AcDbEntity
  8
0
  6
CONTINUOUS
 62
     5
100
AcDbCircle
 10
64.222711
 20
113.484326
 30
0.0
 40
2.3
100
AcDbArc
 50
81.683528
 51
91.698928
  0
ARC
  5
2A8
330
1F
100
AcDbEntity
  8
0
  6
CONTINUOUS
 62
     5
100
AcDbCircle
 10
-64.222711
 20
113.484326
 30
0.0
 40
2.3
210
0.0
220
0.0
230
-1.0
100
AcDbArc
 50
268.301072
 51
278.316487
  0
ARC
  5
2A9
330
1F
100
AcDbEntity
  8
0
  6
CONTINUOUS
 62
     5
100
AcDbCircle
 10
-64.222711
 20
113.484326
 30
0.0
 40
2.3
210
0.0
220
0.0
230
-1.0
100
AcDbArc
 50
98.316472
 51
108.331892
  0
ARC
  5
2AA
330
1F
100
AcDbEntity
  8
0
  6
CONTINUOUS
 62
     5
100
AcDbCircle
 10
-64.222711
 20
113.484326
 30
0.0
 40
2.3
210
0.0
220
0.0
230
-1.0
100
AcDbArc
 50
108.331892
 51
268.301072
  0
LINE
  5
2AB
330
1F
100
AcDbEntity
  8
0
  6
CONTINUOUS
 62
     5
100
AcDbLine
 10
64.901942
 20
115.365455
 30
0.0
 11
64.835475
 21
114.910758
 31
0.0
  0
LINE
  5
2AC
330
1F
100
AcDbEntity
  8
0
  6
CONTINUOUS
 62
     5
100
AcDbLine
 10
64.401552
 20
111.942305
 30
0.0
 11
64.335067
 21
111.487485
 31
0.0
  0
ARC
  5
2AD
330
1F
100
AcDbEntity
  8
0
  6
CONTINUOUS
 62
     5
100
AcDbCircle
 10
64.222711
 20
113.484326
 30
0.0
 40
2.3
100
AcDbArc
 50
91.698928
 51
251.668108
  0
LINE
  5
2AE
330
1F
100
AcDbEntity
  8
0
  6
CONTINUOUS
 62
     5
100
AcDbLine
 10
64.043887
 20
115.02647
 30
0.0
 11
64.110354
 21
115.481168
 31
0.0
  0
LINE
  5
2AF
330
1F
100
AcDbEntity
  8
0
  6
CONTINUOUS
 62
     5
100
AcDbLine
 10
63.54348
 20
111.603197
 30
0.0
 11
63.609965
 21
112.058018
 31
0.0
  0
LINE
  5
2B0
330
1F
100
AcDbEntity
  8
0
  6
CONTINUOUS
 62
     5
100
AcDbLine
 10
64.901942
 20
115.365455
 30
0.0
 11
64.946109
 21
115.667603
 31
0.0
  0
LINE
  5
2B1
330
1F
100
AcDbEntity
  8
0
  6
CONTINUOUS
 62
     5
100
AcDbLine
 10
64.335067
 20
111.487485
 30
0.0
 11
64.2909
 21
111.185337
 31
0.0
  0
LINE
  5
2B2
330
1F
100
AcDbEntity
  8
0
  6
CONTINUOUS
 62
     5
100
AcDbLine
 10
64.110354
 20
115.481168
 30
0.0
 11
64.154521
 21
115.783315
 31
0.0
  0
LINE
  5
2B3
330
1F
100
AcDbEntity
  8
0
  6
CONTINUOUS
 62
     5
100
AcDbLine
 10
63.499313
 20
111.30105
 30
0.0
 11
63.54348
 21
111.603197
 31
0.0
  0
CIRCLE
  5
2B4
330
1F
100
AcDbEntity
  8
0
  6
CONTINUOUS
 62
     6
100
AcDbCircle
 10
70.222711
 20
113.484326
 30
0.0
 40
2.5
  0
LINE
  5
2B5
330
1F
100
AcDbEntity
  8
0
  6
CONTINUOUS
 62
     5
100
AcDbLine
 10
70.958406
 20
114.032472
 30
0.0
 11
71.800724
 21
113.909343
 31
0.0
  0
LINE
  5
2B6
330
1F
100
AcDbEntity
  8
0
  6
CONTINUOUS
 62
     5
100
AcDbLine
 10
71.800724
 20
113.909343
 30
0.0
 11
71.613058
 21
112.625526
 31
0.0
  0
LINE
  5
2B7
330
1F
100
AcDbEntity
  8
0
  6
CONTINUOUS
 62
     5
100
AcDbLine
 10
71.613058
 20
112.625526
 30
0.0
 11
70.77074
 21
112.748654
 31
0.0
  0
LINE
  5
2B8
330
1F
100
AcDbEntity
  8
0
  6
CONTINUOUS
 62
     5
100
AcDbLine
 10
70.77074
 20
112.748654
 30
0.0
 11
70.647612
 21
111.906336
 31
0.0
  0
LINE
  5
2B9
330
1F
100
AcDbEntity
  8
0
  6
CONTINUOUS
 62
     5
100
AcDbLine
 10
69.363794
 20
112.094002
 30
0.0
 11
69.486923
 21
112.93632
 31
0.0
  0
LINE
  5
2BA
330
1F
100
AcDbEntity
  8
0
  6
CONTINUOUS
 62
     5
100
AcDbLine
 10
69.486923
 20
112.93632
 30
0.0
 11
68.644605
 21
113.059448
 31
0.0
  0
LINE
  5
2BB
330
1F
100
AcDbEntity
  8
0
  6
CONTINUOUS
 62
     5
100
AcDbLine
 10
68.644605
 20
113.059448
 30
0.0
 11
68.832271
 21
114.343266
 31
0.0
  0
LINE
  5
2BC
330
1F
100
AcDbEntity
  8
0
  6
CONTINUOUS
 62
     5
100
AcDbLine
 10
68.832271
 20
114.343266
 30
0.0
 11
69.674588
 21
114.220138
 31
0.0
  0
LINE
  5
2BD
330
1F
100
AcDbEntity
  8
0
  6
CONTINUOUS
 62
     5
100
AcDbLine
 10
69.674588
 20
114.220138
 30
0.0
 11
69.797717
 21
115.062455
 31
0.0
  0
LINE
  5
2BE
330
1F
100
AcDbEntity
  8
0
  6
CONTINUOUS
 62
     5
100
AcDbLine
 10
71.081534
 20
114.874789
 30
0.0
 11
70.958406
 21
114.032472
 31
0.0
  0
LINE
  5
2BF
330
1F
100
AcDbEntity
  8
0
  6
CONTINUOUS
 62
     5
100
AcDbLine
 10
69.609965
 20
112.058018
 30
0.0
 11
69.363794
 21
112.094002
 31
0.0
  0
LINE
  5
2C0
330
1F
100
AcDbEntity
  8
0
  6
CONTINUOUS
 62
     5
100
AcDbLine
 10
70.647612
 20
111.906336
 30
0.0
 11
70.401552
 21
111.942305
 31
0.0
  0
LINE
  5
2C1
330
1F
100
AcDbEntity
  8
0
  6
CONTINUOUS
 62
     5
100
AcDbLine
 10
69.797717
 20
115.062455
 30
0.0
 11
70.043887
 21
115.02647
 31
0.0
  0
LINE
  5
2C2
330
1F
100
AcDbEntity
  8
0
  6
CONTINUOUS
 62
     5
100
AcDbLine
 10
70.835475
 20
114.910758
 30
0.0
 11
71.081534
 21
114.874789
 31
0.0
  0
LINE
  5
2C3
330
1F
100
AcDbEntity
  8
0
  6
CONTINUOUS
 62
     5
100
AcDbLine
 10
69.609965
 20
112.058018
 30
0.0
 11
69.663923
 21
112.427141
 31
0.0
  0
LINE
  5
2C4
330
1F
100
AcDbEntity
  8
0
  6
CONTINUOUS
 62
     5
100
AcDbLine
 10
70.401552
 20
111.942305
 30
0.0
 11
70.45551
 21
112.311428
 31
0.0
  0
LINE
  5
2C5
330
1F
100
AcDbEntity
  8
0
  6
CONTINUOUS
 62
     5
100
AcDbLine
 10
69.663923
 20
112.427141
 30
0.0
 11
70.45551
 21
112.311428
 31
0.0
  0
LINE
  5
2C6
330
1F
100
AcDbEntity
  8
0
  6
CONTINUOUS
 62
     5
100
AcDbLine
 10
70.043887
 20
115.02647
 30
0.0
 11
69.98993
 21
114.657347
 31
0.0
  0
LINE
  5
2C7
330
1F
100
AcDbEntity
  8
0
  6
CONTINUOUS
 62
     5
100
AcDbLine
 10
70.835475
 20
114.910758
 30
0.0
 11
70.781517
 21
114.541634
 31
0.0
  0
LINE
  5
2C8
330
1F
100
AcDbEntity
  8
0
  6
CONTINUOUS
 62
     5
100
AcDbLine
 10
69.98993
 20
114.657347
 30
0.0
 11
70.781517
 21
114.541634
 31
0.0
  0
ARC
  5
2C9
330
1F
100
AcDbEntity
  8
0
  6
CONTINUOUS
 62
     5
100
AcDbCircle
 10
70.222711
 20
113.484326
 30
0.0
 40
2.3
100
AcDbArc
 50
251.668108
 51
261.683513
  0
ARC
  5
2CA
330
1F
100
AcDbEntity
  8
0
  6
CONTINUOUS
 62
     5
100
AcDbCircle
 10
70.222711
 20
113.484326
 30
0.0
 40
2.3
100
AcDbArc
 50
81.683528
 51
91.698928
  0
ARC
  5
2CB
330
1F
100
AcDbEntity
  8
0
  6
CONTINUOUS
 62
     5
100
AcDbCircle
 10
-70.222711
 20
113.484326
 30
0.0
 40
2.3
210
0.0
220
0.0
230
-1.0
100
AcDbArc
 50
268.301072
 51
278.316487
  0
ARC
  5
2CC
330
1F
100
AcDbEntity
  8
0
  6
CONTINUOUS
 62
     5
100
AcDbCircle
 10
-70.222711
 20
113.484326
 30
0.0
 40
2.3
210
0.0
220
0.0
230
-1.0
100
AcDbArc
 50
98.316472
 51
108.331892
  0
ARC
  5
2CD
330
1F
100
AcDbEntity
  8
0
  6
CONTINUOUS
 62
     5
100
AcDbCircle
 10
-70.222711
 20
113.484326
 30
0.0
 40
2.3
210
0.0
220
0.0
230
-1.0
100
AcDbArc
 50
108.331892
 51
268.301072
  0
LINE
  5
2CE
330
1F
100
AcDbEntity
  8
0
  6
CONTINUOUS
 62
     5
100
AcDbLine
 10
70.901942
 20
115.365455
 30
0.0
 11
70.835475
 21
114.910758
 31
0.0
  0
LINE
  5
2CF
330
1F
100
AcDbEntity
  8
0
  6
CONTINUOUS
 62
     5
100
AcDbLine
 10
70.401552
 20
111.942305
 30
0.0
 11
70.335067
 21
111.487485
 31
0.0
  0
ARC
  5
2D0
330
1F
100
AcDbEntity
  8
0
  6
CONTINUOUS
 62
     5
100
AcDbCircle
 10
70.222711
 20
113.484326
 30
0.0
 40
2.3
100
AcDbArc
 50
91.698928
 51
251.668108
  0
LINE
  5
2D1
330
1F
100
AcDbEntity
  8
0
  6
CONTINUOUS
 62
     5
100
AcDbLine
 10
70.043887
 20
115.02647
 30
0.0
 11
70.110354
 21
115.481168
 31
0.0
  0
LINE
  5
2D2
330
1F
100
AcDbEntity
  8
0
  6
CONTINUOUS
 62
     5
100
AcDbLine
 10
69.54348
 20
111.603197
 30
0.0
 11
69.609965
 21
112.058018
 31
0.0
  0
LINE
  5
2D3
330
1F
100
AcDbEntity
  8
0
  6
CONTINUOUS
 62
     5
100
AcDbLine
 10
70.901942
 20
115.365455
 30
0.0
 11
70.946109
 21
115.667603
 31
0.0
  0
LINE
  5
2D4
330
1F
100
AcDbEntity
  8
0
  6
CONTINUOUS
 62
     5
100
AcDbLine
 10
70.335067
 20
111.487485
 30
0.0
 11
70.2909
 21
111.185337
 31
0.0
  0
LINE
  5
2D5
330
1F
100
AcDbEntity
  8
0
  6
CONTINUOUS
 62
     5
100
AcDbLine
 10
70.110354
 20
115.481168
 30
0.0
 11
70.154521
 21
115.783315
 31
0.0
  0
LINE
  5
2D6
330
1F
100
AcDbEntity
  8
0
  6
CONTINUOUS
 62
     5
100
AcDbLine
 10
69.499313
 20
111.30105
 30
0.0
 11
69.54348
 21
111.603197
 31
0.0
  0
CIRCLE
  5
2D7
330
1F
100
AcDbEntity
  8
0
  6
CONTINUOUS
 62
     6
100
AcDbCircle
 10
55.972711
 20
113.484326
 30
0.0
 40
2.5
  0
LINE
  5
2D8
330
1F
100
AcDbEntity
  8
0
  6
CONTINUOUS
 62
     5
100
AcDbLine
 10
56.708406
 20
114.032472
 30
0.0
 11
57.550724
 21
113.909343
 31
0.0
  0
LINE
  5
2D9
330
1F
100
AcDbEntity
  8
0
  6
CONTINUOUS
 62
     5
100
AcDbLine
 10
57.550724
 20
113.909343
 30
0.0
 11
57.363058
 21
112.625526
 31
0.0
  0
LINE
  5
2DA
330
1F
100
AcDbEntity
  8
0
  6
CONTINUOUS
 62
     5
100
AcDbLine
 10
57.363058
 20
112.625526
 30
0.0
 11
56.52074
 21
112.748654
 31
0.0
  0
LINE
  5
2DB
330
1F
100
AcDbEntity
  8
0
  6
CONTINUOUS
 62
     5
100
AcDbLine
 10
56.52074
 20
112.748654
 30
0.0
 11
56.397612
 21
111.906336
 31
0.0
  0
LINE
  5
2DC
330
1F
100
AcDbEntity
  8
0
  6
CONTINUOUS
 62
     5
100
AcDbLine
 10
55.113794
 20
112.094002
 30
0.0
 11
55.236923
 21
112.93632
 31
0.0
  0
LINE
  5
2DD
330
1F
100
AcDbEntity
  8
0
  6
CONTINUOUS
 62
     5
100
AcDbLine
 10
55.236923
 20
112.93632
 30
0.0
 11
54.394605
 21
113.059448
 31
0.0
  0
LINE
  5
2DE
330
1F
100
AcDbEntity
  8
0
  6
CONTINUOUS
 62
     5
100
AcDbLine
 10
54.394605
 20
113.059448
 30
0.0
 11
54.582271
 21
114.343266
 31
0.0
  0
LINE
  5
2DF
330
1F
100
AcDbEntity
  8
0
  6
CONTINUOUS
 62
     5
100
AcDbLine
 10
54.582271
 20
114.343266
 30
0.0
 11
55.424588
 21
114.220138
 31
0.0
  0
LINE
  5
2E0
330
1F
100
AcDbEntity
  8
0
  6
CONTINUOUS
 62
     5
100
AcDbLine
 10
55.424588
 20
114.220138
 30
0.0
 11
55.547717
 21
115.062455
 31
0.0
  0
LINE
  5
2E1
330
1F
100
AcDbEntity
  8
0
  6
CONTINUOUS
 62
     5
100
AcDbLine
 10
56.831534
 20
114.874789
 30
0.0
 11
56.708406
 21
114.032472
 31
0.0
  0
LINE
  5
2E2
330
1F
100
AcDbEntity
  8
0
  6
CONTINUOUS
 62
     5
100
AcDbLine
 10
55.359965
 20
112.058018
 30
0.0
 11
55.113794
 21
112.094002
 31
0.0
  0
LINE
  5
2E3
330
1F
100
AcDbEntity
  8
0
  6
CONTINUOUS
 62
     5
100
AcDbLine
 10
56.397612
 20
111.906336
 30
0.0
 11
56.151552
 21
111.942305
 31
0.0
  0
LINE
  5
2E4
330
1F
100
AcDbEntity
  8
0
  6
CONTINUOUS
 62
     5
100
AcDbLine
 10
55.547717
 20
115.062455
 30
0.0
 11
55.793887
 21
115.02647
 31
0.0
  0
LINE
  5
2E5
330
1F
100
AcDbEntity
  8
0
  6
CONTINUOUS
 62
     5
100
AcDbLine
 10
56.585475
 20
114.910758
 30
0.0
 11
56.831534
 21
114.874789
 31
0.0
  0
LINE
  5
2E6
330
1F
100
AcDbEntity
  8
0
  6
CONTINUOUS
 62
     5
100
AcDbLine
 10
55.359965
 20
112.058018
 30
0.0
 11
55.413923
 21
112.427141
 31
0.0
  0
LINE
  5
2E7
330
1F
100
AcDbEntity
  8
0
  6
CONTINUOUS
 62
     5
100
AcDbLine
 10
56.151552
 20
111.942305
 30
0.0
 11
56.20551
 21
112.311428
 31
0.0
  0
LINE
  5
2E8
330
1F
100
AcDbEntity
  8
0
  6
CONTINUOUS
 62
     5
100
AcDbLine
 10
55.413923
 20
112.427141
 30
0.0
 11
56.20551
 21
112.311428
 31
0.0
  0
LINE
  5
2E9
330
1F
100
AcDbEntity
  8
0
  6
CONTINUOUS
 62
     5
100
AcDbLine
 10
55.793887
 20
115.02647
 30
0.0
 11
55.73993
 21
114.657347
 31
0.0
  0
LINE
  5
2EA
330
1F
100
AcDbEntity
  8
0
  6
CONTINUOUS
 62
     5
100
AcDbLine
 10
56.585475
 20
114.910758
 30
0.0
 11
56.531517
 21
114.541634
 31
0.0
  0
LINE
  5
2EB
330
1F
100
AcDbEntity
  8
0
  6
CONTINUOUS
 62
     5
100
AcDbLine
 10
55.73993
 20
114.657347
 30
0.0
 11
56.531517
 21
114.541634
 31
0.0
  0
ARC
  5
2EC
330
1F
100
AcDbEntity
  8
0
  6
CONTINUOUS
 62
     5
100
AcDbCircle
 10
55.972711
 20
113.484326
 30
0.0
 40
2.3
100
AcDbArc
 50
251.668108
 51
261.683513
  0
ARC
  5
2ED
330
1F
100
AcDbEntity
  8
0
  6
CONTINUOUS
 62
     5
100
AcDbCircle
 10
55.972711
 20
113.484326
 30
0.0
 40
2.3
100
AcDbArc
 50
81.683528
 51
91.698928
  0
ARC
  5
2EE
330
1F
100
AcDbEntity
  8
0
  6
CONTINUOUS
 62
     5
100
AcDbCircle
 10
-55.972711
 20
113.484326
 30
0.0
 40
2.3
210
0.0
220
0.0
230
-1.0
100
AcDbArc
 50
268.301072
 51
278.316487
  0
ARC
  5
2EF
330
1F
100
AcDbEntity
  8
0
  6
CONTINUOUS
 62
     5
100
AcDbCircle
 10
-55.972711
 20
113.484326
 30
0.0
 40
2.3
210
0.0
220
0.0
230
-1.0
100
AcDbArc
 50
98.316472
 51
108.331892
  0
ARC
  5
2F0
330
1F
100
AcDbEntity
  8
0
  6
CONTINUOUS
 62
     5
100
AcDbCircle
 10
-55.972711
 20
113.484326
 30
0.0
 40
2.3
210
0.0
220
0.0
230
-1.0
100
AcDbArc
 50
108.331892
 51
268.301072
  0
LINE
  5
2F1
330
1F
100
AcDbEntity
  8
0
  6
CONTINUOUS
 62
     5
100
AcDbLine
 10
56.651942
 20
115.365455
 30
0.0
 11
56.585475
 21
114.910758
 31
0.0
  0
LINE
  5
2F2
330
1F
100
AcDbEntity
  8
0
  6
CONTINUOUS
 62
     5
100
AcDbLine
 10
56.151552
 20
111.942305
 30
0.0
 11
56.085067
 21
111.487485
 31
0.0
  0
ARC
  5
2F3
330
1F
100
AcDbEntity
  8
0
  6
CONTINUOUS
 62
     5
100
AcDbCircle
 10
55.972711
 20
113.484326
 30
0.0
 40
2.3
100
AcDbArc
 50
91.698928
 51
251.668108
  0
LINE
  5
2F4
330
1F
100
AcDbEntity
  8
0
  6
CONTINUOUS
 62
     5
100
AcDbLine
 10
55.793887
 20
115.02647
 30
0.0
 11
55.860354
 21
115.481168
 31
0.0
  0
LINE
  5
2F5
330
1F
100
AcDbEntity
  8
0
  6
CONTINUOUS
 62
     5
100
AcDbLine
 10
55.29348
 20
111.603197
 30
0.0
 11
55.359965
 21
112.058018
 31
0.0
  0
LINE
  5
2F6
330
1F
100
AcDbEntity
  8
0
  6
CONTINUOUS
 62
     5
100
AcDbLine
 10
56.651942
 20
115.365455
 30
0.0
 11
56.696109
 21
115.667603
 31
0.0
  0
LINE
  5
2F7
330
1F
100
AcDbEntity
  8
0
  6
CONTINUOUS
 62
     5
100
AcDbLine
 10
56.085067
 20
111.487485
 30
0.0
 11
56.0409
 21
111.185337
 31
0.0
  0
LINE
  5
2F8
330
1F
100
AcDbEntity
  8
0
  6
CONTINUOUS
 62
     5
100
AcDbLine
 10
55.860354
 20
115.481168
 30
0.0
 11
55.904521
 21
115.783315
 31
0.0
  0
LINE
  5
2F9
330
1F
100
AcDbEntity
  8
0
  6
CONTINUOUS
 62
     5
100
AcDbLine
 10
55.249313
 20
111.30105
 30
0.0
 11
55.29348
 21
111.603197
 31
0.0
  0
LINE
  5
2FA
330
1F
100
AcDbEntity
  8
0
  6
CONTINUOUS
 62
     6
100
AcDbLine
 10
49.597711
 20
150.684326
 30
0.0
 11
47.597711
 21
150.684326
 31
0.0
  0
LINE
  5
2FB
330
1F
100
AcDbEntity
  8
0
  6
CONTINUOUS
 62
     6
100
AcDbLine
 10
47.597711
 20
150.684326
 30
0.0
 11
47.597711
 21
148.684326
 31
0.0
  0
LINE
  5
2FC
330
1F
100
AcDbEntity
  8
0
  6
CONTINUOUS
 62
     6
100
AcDbLine
 10
47.597711
 20
148.684326
 30
0.0
 11
49.597711
 21
148.684326
 31
0.0
  0
LINE
  5
2FD
330
1F
100
AcDbEntity
  8
0
  6
CONTINUOUS
 62
     6
100
AcDbLine
 10
49.597711
 20
148.684326
 30
0.0
 11
49.597711
 21
150.684326
 31
0.0
  0
LINE
  5
2FE
330
1F
100
AcDbEntity
  8
0
  6
CONTINUOUS
 62
     6
100
AcDbLine
 10
66.597711
 20
150.684326
 30
0.0
 11
64.597711
 21
150.684326
 31
0.0
  0
LINE
  5
2FF
330
1F
100
AcDbEntity
  8
0
  6
CONTINUOUS
 62
     6
100
AcDbLine
 10
64.597711
 20
150.684326
 30
0.0
 11
64.597711
 21
148.684326
 31
0.0
  0
LINE
  5
300
330
1F
100
AcDbEntity
  8
0
  6
CONTINUOUS
 62
     6
100
AcDbLine
 10
64.597711
 20
148.684326
 30
0.0
 11
66.597711
 21
148.684326
 31
0.0
  0
LINE
  5
301
330
1F
100
AcDbEntity
  8
0
  6
CONTINUOUS
 62
     6
100
AcDbLine
 10
66.597711
 20
148.684326
 30
0.0
 11
66.597711
 21
150.684326
 31
0.0
  0
CIRCLE
  5
302
330
1F
100
AcDbEntity
  8
0
  6
CONTINUOUS
 62
     6
100
AcDbCircle
 10
43.972711
 20
185.884326
 30
0.0
 40
2.5
  0
LINE
  5
303
330
1F
100
AcDbEntity
  8
0
  6
CONTINUOUS
 62
     5
100
AcDbLine
 10
44.708406
 20
185.336181
 30
0.0
 11
45.550724
 21
185.459309
 31
0.0
  0
LINE
  5
304
330
1F
100
AcDbEntity
  8
0
  6
CONTINUOUS
 62
     5
100
AcDbLine
 10
45.550724
 20
185.459309
 30
0.0
 11
45.363058
 21
186.743127
 31
0.0
  0
LINE
  5
305
330
1F
100
AcDbEntity
  8
0
  6
CONTINUOUS
 62
     5
100
AcDbLine
 10
45.363058
 20
186.743127
 30
0.0
 11
44.52074
 21
186.619999
 31
0.0
  0
LINE
  5
306
330
1F
100
AcDbEntity
  8
0
  6
CONTINUOUS
 62
     5
100
AcDbLine
 10
44.52074
 20
186.619999
 30
0.0
 11
44.397612
 21
187.462316
 31
0.0
  0
LINE
  5
307
330
1F
100
AcDbEntity
  8
0
  6
CONTINUOUS
 62
     5
100
AcDbLine
 10
43.113794
 20
187.27465
 30
0.0
 11
43.236923
 21
186.432333
 31
0.0
  0
LINE
  5
308
330
1F
100
AcDbEntity
  8
0
  6
CONTINUOUS
 62
     5
100
AcDbLine
 10
43.236923
 20
186.432333
 30
0.0
 11
42.394605
 21
186.309204
 31
0.0
  0
LINE
  5
309
330
1F
100
AcDbEntity
  8
0
  6
CONTINUOUS
 62
     5
100
AcDbLine
 10
42.394605
 20
186.309204
 30
0.0
 11
42.582271
 21
185.025387
 31
0.0
  0
LINE
  5
30A
330
1F
100
AcDbEntity
  8
0
  6
CONTINUOUS
 62
     5
100
AcDbLine
 10
42.582271
 20
185.025387
 30
0.0
 11
43.424588
 21
185.148515
 31
0.0
  0
LINE
  5
30B
330
1F
100
AcDbEntity
  8
0
  6
CONTINUOUS
 62
     5
100
AcDbLine
 10
43.424588
 20
185.148515
 30
0.0
 11
43.547717
 21
184.306198
 31
0.0
  0
LINE
  5
30C
330
1F
100
AcDbEntity
  8
0
  6
CONTINUOUS
 62
     5
100
AcDbLine
 10
44.831534
 20
184.493863
 30
0.0
 11
44.708406
 21
185.336181
 31
0.0
  0
LINE
  5
30D
330
1F
100
AcDbEntity
  8
0
  6
CONTINUOUS
 62
     5
100
AcDbLine
 10
43.359965
 20
187.310635
 30
0.0
 11
43.113794
 21
187.27465
 31
0.0
  0
LINE
  5
30E
330
1F
100
AcDbEntity
  8
0
  6
CONTINUOUS
 62
     5
100
AcDbLine
 10
44.397612
 20
187.462316
 30
0.0
 11
44.151552
 21
187.426348
 31
0.0
  0
LINE
  5
30F
330
1F
100
AcDbEntity
  8
0
  6
CONTINUOUS
 62
     5
100
AcDbLine
 10
43.547717
 20
184.306198
 30
0.0
 11
43.793887
 21
184.342182
 31
0.0
  0
LINE
  5
310
330
1F
100
AcDbEntity
  8
0
  6
CONTINUOUS
 62
     5
100
AcDbLine
 10
44.585475
 20
184.457895
 30
0.0
 11
44.831534
 21
184.493863
 31
0.0
  0
LINE
  5
311
330
1F
100
AcDbEntity
  8
0
  6
CONTINUOUS
 62
     5
100
AcDbLine
 10
43.359965
 20
187.310635
 30
0.0
 11
43.413923
 21
186.941512
 31
0.0
  0
LINE
  5
312
330
1F
100
AcDbEntity
  8
0
  6
CONTINUOUS
 62
     5
100
AcDbLine
 10
44.151552
 20
187.426348
 30
0.0
 11
44.20551
 21
187.057224
 31
0.0
  0
LINE
  5
313
330
1F
100
AcDbEntity
  8
0
  6
CONTINUOUS
 62
     5
100
AcDbLine
 10
43.413923
 20
186.941512
 30
0.0
 11
44.20551
 21
187.057224
 31
0.0
  0
LINE
  5
314
330
1F
100
AcDbEntity
  8
0
  6
CONTINUOUS
 62
     5
100
AcDbLine
 10
43.793887
 20
184.342182
 30
0.0
 11
43.73993
 21
184.711306
 31
0.0
  0
LINE
  5
315
330
1F
100
AcDbEntity
  8
0
  6
CONTINUOUS
 62
     5
100
AcDbLine
 10
44.585475
 20
184.457895
 30
0.0
 11
44.531517
 21
184.827018
 31
0.0
  0
LINE
  5
316
330
1F
100
AcDbEntity
  8
0
  6
CONTINUOUS
 62
     5
100
AcDbLine
 10
43.73993
 20
184.711306
 30
0.0
 11
44.531517
 21
184.827018
 31
0.0
  0
ARC
  5
317
330
1F
100
AcDbEntity
  8
0
  6
CONTINUOUS
 62
     5
100
AcDbCircle
 10
-43.972711
 20
185.884326
 30
0.0
 40
2.3
210
0.0
220
0.0
230
-1.0
100
AcDbArc
 50
71.668108
 51
81.683513
  0
ARC
  5
318
330
1F
100
AcDbEntity
  8
0
  6
CONTINUOUS
 62
     5
100
AcDbCircle
 10
-43.972711
 20
185.884326
 30
0.0
 40
2.3
210
0.0
220
0.0
230
-1.0
100
AcDbArc
 50
261.683528
 51
271.698928
  0
ARC
  5
319
330
1F
100
AcDbEntity
  8
0
  6
CONTINUOUS
 62
     5
100
AcDbCircle
 10
43.972711
 20
185.884326
 30
0.0
 40
2.3
100
AcDbArc
 50
88.301072
 51
98.316487
  0
ARC
  5
31A
330
1F
100
AcDbEntity
  8
0
  6
CONTINUOUS
 62
     5
100
AcDbCircle
 10
43.972711
 20
185.884326
 30
0.0
 40
2.3
100
AcDbArc
 50
278.316472
 51
288.331892
  0
ARC
  5
31B
330
1F
100
AcDbEntity
  8
0
  6
CONTINUOUS
 62
     5
100
AcDbCircle
 10
43.972711
 20
185.884326
 30
0.0
 40
2.3
100
AcDbArc
 50
288.331892
 51
88.301072
  0
LINE
  5
31C
330
1F
100
AcDbEntity
  8
0
  6
CONTINUOUS
 62
     5
100
AcDbLine
 10
44.651942
 20
184.003197
 30
0.0
 11
44.585475
 21
184.457895
 31
0.0
  0
LINE
  5
31D
330
1F
100
AcDbEntity
  8
0
  6
CONTINUOUS
 62
     5
100
AcDbLine
 10
44.151552
 20
187.426348
 30
0.0
 11
44.085067
 21
187.881168
 31
0.0
  0
ARC
  5
31E
330
1F
100
AcDbEntity
  8
0
  6
CONTINUOUS
 62
     5
100
AcDbCircle
 10
-43.972711
 20
185.884326
 30
0.0
 40
2.3
210
0.0
220
0.0
230
-1.0
100
AcDbArc
 50
271.698928
 51
71.668108
  0
LINE
  5
31F
330
1F
100
AcDbEntity
  8
0
  6
CONTINUOUS
 62
     5
100
AcDbLine
 10
43.793887
 20
184.342182
 30
0.0
 11
43.860354
 21
183.887485
 31
0.0
  0
LINE
  5
320
330
1F
100
AcDbEntity
  8
0
  6
CONTINUOUS
 62
     5
100
AcDbLine
 10
43.29348
 20
187.765455
 30
0.0
 11
43.359965
 21
187.310635
 31
0.0
  0
LINE
  5
321
330
1F
100
AcDbEntity
  8
0
  6
CONTINUOUS
 62
     5
100
AcDbLine
 10
44.651942
 20
184.003197
 30
0.0
 11
44.696109
 21
183.70105
 31
0.0
  0
LINE
  5
322
330
1F
100
AcDbEntity
  8
0
  6
CONTINUOUS
 62
     5
100
AcDbLine
 10
44.085067
 20
187.881168
 30
0.0
 11
44.0409
 21
188.183315
 31
0.0
  0
LINE
  5
323
330
1F
100
AcDbEntity
  8
0
  6
CONTINUOUS
 62
     5
100
AcDbLine
 10
43.860354
 20
183.887485
 30
0.0
 11
43.904521
 21
183.585337
 31
0.0
  0
LINE
  5
324
330
1F
100
AcDbEntity
  8
0
  6
CONTINUOUS
 62
     5
100
AcDbLine
 10
43.249313
 20
188.067603
 30
0.0
 11
43.29348
 21
187.765455
 31
0.0
  0
CIRCLE
  5
325
330
1F
100
AcDbEntity
  8
0
  6
CONTINUOUS
 62
     6
100
AcDbCircle
 10
49.972711
 20
185.884326
 30
0.0
 40
2.5
  0
LINE
  5
326
330
1F
100
AcDbEntity
  8
0
  6
CONTINUOUS
 62
     5
100
AcDbLine
 10
50.708406
 20
185.336181
 30
0.0
 11
51.550724
 21
185.459309
 31
0.0
  0
LINE
  5
327
330
1F
100
AcDbEntity
  8
0
  6
CONTINUOUS
 62
     5
100
AcDbLine
 10
51.550724
 20
185.459309
 30
0.0
 11
51.363058
 21
186.743127
 31
0.0
  0
LINE
  5
328
330
1F
100
AcDbEntity
  8
0
  6
CONTINUOUS
 62
     5
100
AcDbLine
 10
51.363058
 20
186.743127
 30
0.0
 11
50.52074
 21
186.619999
 31
0.0
  0
LINE
  5
329
330
1F
100
AcDbEntity
  8
0
  6
CONTINUOUS
 62
     5
100
AcDbLine
 10
50.52074
 20
186.619999
 30
0.0
 11
50.397612
 21
187.462316
 31
0.0
  0
LINE
  5
32A
330
1F
100
AcDbEntity
  8
0
  6
CONTINUOUS
 62
     5
100
AcDbLine
 10
49.113794
 20
187.27465
 30
0.0
 11
49.236923
 21
186.432333
 31
0.0
  0
LINE
  5
32B
330
1F
100
AcDbEntity
  8
0
  6
CONTINUOUS
 62
     5
100
AcDbLine
 10
49.236923
 20
186.432333
 30
0.0
 11
48.394605
 21
186.309204
 31
0.0
  0
LINE
  5
32C
330
1F
100
AcDbEntity
  8
0
  6
CONTINUOUS
 62
     5
100
AcDbLine
 10
48.394605
 20
186.309204
 30
0.0
 11
48.582271
 21
185.025387
 31
0.0
  0
LINE
  5
32D
330
1F
100
AcDbEntity
  8
0
  6
CONTINUOUS
 62
     5
100
AcDbLine
 10
48.582271
 20
185.025387
 30
0.0
 11
49.424588
 21
185.148515
 31
0.0
  0
LINE
  5
32E
330
1F
100
AcDbEntity
  8
0
  6
CONTINUOUS
 62
     5
100
AcDbLine
 10
49.424588
 20
185.148515
 30
0.0
 11
49.547717
 21
184.306198
 31
0.0
  0
LINE
  5
32F
330
1F
100
AcDbEntity
  8
0
  6
CONTINUOUS
 62
     5
100
AcDbLine
 10
50.831534
 20
184.493863
 30
0.0
 11
50.708406
 21
185.336181
 31
0.0
  0
LINE
  5
330
330
1F
100
AcDbEntity
  8
0
  6
CONTINUOUS
 62
     5
100
AcDbLine
 10
49.359965
 20
187.310635
 30
0.0
 11
49.113794
 21
187.27465
 31
0.0
  0
LINE
  5
331
330
1F
100
AcDbEntity
  8
0
  6
CONTINUOUS
 62
     5
100
AcDbLine
 10
50.397612
 20
187.462316
 30
0.0
 11
50.151552
 21
187.426348
 31
0.0
  0
LINE
  5
332
330
1F
100
AcDbEntity
  8
0
  6
CONTINUOUS
 62
     5
100
AcDbLine
 10
49.547717
 20
184.306198
 30
0.0
 11
49.793887
 21
184.342182
 31
0.0
  0
LINE
  5
333
330
1F
100
AcDbEntity
  8
0
  6
CONTINUOUS
 62
     5
100
AcDbLine
 10
50.585475
 20
184.457895
 30
0.0
 11
50.831534
 21
184.493863
 31
0.0
  0
LINE
  5
334
330
1F
100
AcDbEntity
  8
0
  6
CONTINUOUS
 62
     5
100
AcDbLine
 10
49.359965
 20
187.310635
 30
0.0
 11
49.413923
 21
186.941512
 31
0.0
  0
LINE
  5
335
330
1F
100
AcDbEntity
  8
0
  6
CONTINUOUS
 62
     5
100
AcDbLine
 10
50.151552
 20
187.426348
 30
0.0
 11
50.20551
 21
187.057224
 31
0.0
  0
LINE
  5
336
330
1F
100
AcDbEntity
  8
0
  6
CONTINUOUS
 62
     5
100
AcDbLine
 10
49.413923
 20
186.941512
 30
0.0
 11
50.20551
 21
187.057224
 31
0.0
  0
LINE
  5
337
330
1F
100
AcDbEntity
  8
0
  6
CONTINUOUS
 62
     5
100
AcDbLine
 10
49.793887
 20
184.342182
 30
0.0
 11
49.73993
 21
184.711306
 31
0.0
  0
LINE
  5
338
330
1F
100
AcDbEntity
  8
0
  6
CONTINUOUS
 62
     5
100
AcDbLine
 10
50.585475
 20
184.457895
 30
0.0
 11
50.531517
 21
184.827018
 31
0.0
  0
LINE
  5
339
330
1F
100
AcDbEntity
  8
0
  6
CONTINUOUS
 62
     5
100
AcDbLine
 10
49.73993
 20
184.711306
 30
0.0
 11
50.531517
 21
184.827018
 31
0.0
  0
ARC
  5
33A
330
1F
100
AcDbEntity
  8
0
  6
CONTINUOUS
 62
     5
100
AcDbCircle
 10
-49.972711
 20
185.884326
 30
0.0
 40
2.3
210
0.0
220
0.0
230
-1.0
100
AcDbArc
 50
71.668108
 51
81.683513
  0
ARC
  5
33B
330
1F
100
AcDbEntity
  8
0
  6
CONTINUOUS
 62
     5
100
AcDbCircle
 10
-49.972711
 20
185.884326
 30
0.0
 40
2.3
210
0.0
220
0.0
230
-1.0
100
AcDbArc
 50
261.683528
 51
271.698928
  0
ARC
  5
33C
330
1F
100
AcDbEntity
  8
0
  6
CONTINUOUS
 62
     5
100
AcDbCircle
 10
49.972711
 20
185.884326
 30
0.0
 40
2.3
100
AcDbArc
 50
88.301072
 51
98.316487
  0
ARC
  5
33D
330
1F
100
AcDbEntity
  8
0
  6
CONTINUOUS
 62
     5
100
AcDbCircle
 10
49.972711
 20
185.884326
 30
0.0
 40
2.3
100
AcDbArc
 50
278.316472
 51
288.331892
  0
ARC
  5
33E
330
1F
100
AcDbEntity
  8
0
  6
CONTINUOUS
 62
     5
100
AcDbCircle
 10
49.972711
 20
185.884326
 30
0.0
 40
2.3
100
AcDbArc
 50
288.331892
 51
88.301072
  0
LINE
  5
33F
330
1F
100
AcDbEntity
  8
0
  6
CONTINUOUS
 62
     5
100
AcDbLine
 10
50.651942
 20
184.003197
 30
0.0
 11
50.585475
 21
184.457895
 31
0.0
  0
LINE
  5
340
330
1F
100
AcDbEntity
  8
0
  6
CONTINUOUS
 62
     5
100
AcDbLine
 10
50.151552
 20
187.426348
 30
0.0
 11
50.085067
 21
187.881168
 31
0.0
  0
ARC
  5
341
330
1F
100
AcDbEntity
  8
0
  6
CONTINUOUS
 62
     5
100
AcDbCircle
 10
-49.972711
 20
185.884326
 30
0.0
 40
2.3
210
0.0
220
0.0
230
-1.0
100
AcDbArc
 50
271.698928
 51
71.668108
  0
LINE
  5
342
330
1F
100
AcDbEntity
  8
0
  6
CONTINUOUS
 62
     5
100
AcDbLine
 10
49.793887
 20
184.342182
 30
0.0
 11
49.860354
 21
183.887485
 31
0.0
  0
LINE
  5
343
330
1F
100
AcDbEntity
  8
0
  6
CONTINUOUS
 62
     5
100
AcDbLine
 10
49.29348
 20
187.765455
 30
0.0
 11
49.359965
 21
187.310635
 31
0.0
  0
LINE
  5
344
330
1F
100
AcDbEntity
  8
0
  6
CONTINUOUS
 62
     5
100
AcDbLine
 10
50.651942
 20
184.003197
 30
0.0
 11
50.696109
 21
183.70105
 31
0.0
  0
LINE
  5
345
330
1F
100
AcDbEntity
  8
0
  6
CONTINUOUS
 62
     5
100
AcDbLine
 10
50.085067
 20
187.881168
 30
0.0
 11
50.0409
 21
188.183315
 31
0.0
  0
LINE
  5
346
330
1F
100
AcDbEntity
  8
0
  6
CONTINUOUS
 62
     5
100
AcDbLine
 10
49.860354
 20
183.887485
 30
0.0
 11
49.904521
 21
183.585337
 31
0.0
  0
LINE
  5
347
330
1F
100
AcDbEntity
  8
0
  6
CONTINUOUS
 62
     5
100
AcDbLine
 10
49.249313
 20
188.067603
 30
0.0
 11
49.29348
 21
187.765455
 31
0.0
  0
CIRCLE
  5
348
330
1F
100
AcDbEntity
  8
0
  6
CONTINUOUS
 62
     6
100
AcDbCircle
 10
64.222711
 20
185.884326
 30
0.0
 40
2.5
  0
LINE
  5
349
330
1F
100
AcDbEntity
  8
0
  6
CONTINUOUS
 62
     5
100
AcDbLine
 10
64.958406
 20
185.336181
 30
0.0
 11
65.800724
 21
185.459309
 31
0.0
  0
LINE
  5
34A
330
1F
100
AcDbEntity
  8
0
  6
CONTINUOUS
 62
     5
100
AcDbLine
 10
65.800724
 20
185.459309
 30
0.0
 11
65.613058
 21
186.743127
 31
0.0
  0
LINE
  5
34B
330
1F
100
AcDbEntity
  8
0
  6
CONTINUOUS
 62
     5
100
AcDbLine
 10
65.613058
 20
186.743127
 30
0.0
 11
64.77074
 21
186.619999
 31
0.0
  0
LINE
  5
34C
330
1F
100
AcDbEntity
  8
0
  6
CONTINUOUS
 62
     5
100
AcDbLine
 10
64.77074
 20
186.619999
 30
0.0
 11
64.647612
 21
187.462316
 31
0.0
  0
LINE
  5
34D
330
1F
100
AcDbEntity
  8
0
  6
CONTINUOUS
 62
     5
100
AcDbLine
 10
63.363794
 20
187.27465
 30
0.0
 11
63.486923
 21
186.432333
 31
0.0
  0
LINE
  5
34E
330
1F
100
AcDbEntity
  8
0
  6
CONTINUOUS
 62
     5
100
AcDbLine
 10
63.486923
 20
186.432333
 30
0.0
 11
62.644605
 21
186.309204
 31
0.0
  0
LINE
  5
34F
330
1F
100
AcDbEntity
  8
0
  6
CONTINUOUS
 62
     5
100
AcDbLine
 10
62.644605
 20
186.309204
 30
0.0
 11
62.832271
 21
185.025387
 31
0.0
  0
LINE
  5
350
330
1F
100
AcDbEntity
  8
0
  6
CONTINUOUS
 62
     5
100
AcDbLine
 10
62.832271
 20
185.025387
 30
0.0
 11
63.674588
 21
185.148515
 31
0.0
  0
LINE
  5
351
330
1F
100
AcDbEntity
  8
0
  6
CONTINUOUS
 62
     5
100
AcDbLine
 10
63.674588
 20
185.148515
 30
0.0
 11
63.797717
 21
184.306198
 31
0.0
  0
LINE
  5
352
330
1F
100
AcDbEntity
  8
0
  6
CONTINUOUS
 62
     5
100
AcDbLine
 10
65.081534
 20
184.493863
 30
0.0
 11
64.958406
 21
185.336181
 31
0.0
  0
LINE
  5
353
330
1F
100
AcDbEntity
  8
0
  6
CONTINUOUS
 62
     5
100
AcDbLine
 10
63.609965
 20
187.310635
 30
0.0
 11
63.363794
 21
187.27465
 31
0.0
  0
LINE
  5
354
330
1F
100
AcDbEntity
  8
0
  6
CONTINUOUS
 62
     5
100
AcDbLine
 10
64.647612
 20
187.462316
 30
0.0
 11
64.401552
 21
187.426348
 31
0.0
  0
LINE
  5
355
330
1F
100
AcDbEntity
  8
0
  6
CONTINUOUS
 62
     5
100
AcDbLine
 10
63.797717
 20
184.306198
 30
0.0
 11
64.043887
 21
184.342182
 31
0.0
  0
LINE
  5
356
330
1F
100
AcDbEntity
  8
0
  6
CONTINUOUS
 62
     5
100
AcDbLine
 10
64.835475
 20
184.457895
 30
0.0
 11
65.081534
 21
184.493863
 31
0.0
  0
LINE
  5
357
330
1F
100
AcDbEntity
  8
0
  6
CONTINUOUS
 62
     5
100
AcDbLine
 10
63.609965
 20
187.310635
 30
0.0
 11
63.663923
 21
186.941512
 31
0.0
  0
LINE
  5
358
330
1F
100
AcDbEntity
  8
0
  6
CONTINUOUS
 62
     5
100
AcDbLine
 10
64.401552
 20
187.426348
 30
0.0
 11
64.45551
 21
187.057224
 31
0.0
  0
LINE
  5
359
330
1F
100
AcDbEntity
  8
0
  6
CONTINUOUS
 62
     5
100
AcDbLine
 10
63.663923
 20
186.941512
 30
0.0
 11
64.45551
 21
187.057224
 31
0.0
  0
LINE
  5
35A
330
1F
100
AcDbEntity
  8
0
  6
CONTINUOUS
 62
     5
100
AcDbLine
 10
64.043887
 20
184.342182
 30
0.0
 11
63.98993
 21
184.711306
 31
0.0
  0
LINE
  5
35B
330
1F
100
AcDbEntity
  8
0
  6
CONTINUOUS
 62
     5
100
AcDbLine
 10
64.835475
 20
184.457895
 30
0.0
 11
64.781517
 21
184.827018
 31
0.0
  0
LINE
  5
35C
330
1F
100
AcDbEntity
  8
0
  6
CONTINUOUS
 62
     5
100
AcDbLine
 10
63.98993
 20
184.711306
 30
0.0
 11
64.781517
 21
184.827018
 31
0.0
  0
ARC
  5
35D
330
1F
100
AcDbEntity
  8
0
  6
CONTINUOUS
 62
     5
100
AcDbCircle
 10
-64.222711
 20
185.884326
 30
0.0
 40
2.3
210
0.0
220
0.0
230
-1.0
100
AcDbArc
 50
71.668108
 51
81.683513
  0
ARC
  5
35E
330
1F
100
AcDbEntity
  8
0
  6
CONTINUOUS
 62
     5
100
AcDbCircle
 10
-64.222711
 20
185.884326
 30
0.0
 40
2.3
210
0.0
220
0.0
230
-1.0
100
AcDbArc
 50
261.683528
 51
271.698928
  0
ARC
  5
35F
330
1F
100
AcDbEntity
  8
0
  6
CONTINUOUS
 62
     5
100
AcDbCircle
 10
64.222711
 20
185.884326
 30
0.0
 40
2.3
100
AcDbArc
 50
88.301072
 51
98.316487
  0
ARC
  5
360
330
1F
100
AcDbEntity
  8
0
  6
CONTINUOUS
 62
     5
100
AcDbCircle
 10
64.222711
 20
185.884326
 30
0.0
 40
2.3
100
AcDbArc
 50
278.316472
 51
288.331892
  0
ARC
  5
361
330
1F
100
AcDbEntity
  8
0
  6
CONTINUOUS
 62
     5
100
AcDbCircle
 10
64.222711
 20
185.884326
 30
0.0
 40
2.3
100
AcDbArc
 50
288.331892
 51
88.301072
  0
LINE
  5
362
330
1F
100
AcDbEntity
  8
0
  6
CONTINUOUS
 62
     5
100
AcDbLine
 10
64.901942
 20
184.003197
 30
0.0
 11
64.835475
 21
184.457895
 31
0.0
  0
LINE
  5
363
330
1F
100
AcDbEntity
  8
0
  6
CONTINUOUS
 62
     5
100
AcDbLine
 10
64.401552
 20
187.426348
 30
0.0
 11
64.335067
 21
187.881168
 31
0.0
  0
ARC
  5
364
330
1F
100
AcDbEntity
  8
0
  6
CONTINUOUS
 62
     5
100
AcDbCircle
 10
-64.222711
 20
185.884326
 30
0.0
 40
2.3
210
0.0
220
0.0
230
-1.0
100
AcDbArc
 50
271.698928
 51
71.668108
  0
LINE
  5
365
330
1F
100
AcDbEntity
  8
0
  6
CONTINUOUS
 62
     5
100
AcDbLine
 10
64.043887
 20
184.342182
 30
0.0
 11
64.110354
 21
183.887485
 31
0.0
  0
LINE
  5
366
330
1F
100
AcDbEntity
  8
0
  6
CONTINUOUS
 62
     5
100
AcDbLine
 10
63.54348
 20
187.765455
 30
0.0
 11
63.609965
 21
187.310635
 31
0.0
  0
LINE
  5
367
330
1F
100
AcDbEntity
  8
0
  6
CONTINUOUS
 62
     5
100
AcDbLine
 10
64.901942
 20
184.003197
 30
0.0
 11
64.946109
 21
183.70105
 31
0.0
  0
LINE
  5
368
330
1F
100
AcDbEntity
  8
0
  6
CONTINUOUS
 62
     5
100
AcDbLine
 10
64.335067
 20
187.881168
 30
0.0
 11
64.2909
 21
188.183315
 31
0.0
  0
LINE
  5
369
330
1F
100
AcDbEntity
  8
0
  6
CONTINUOUS
 62
     5
100
AcDbLine
 10
64.110354
 20
183.887485
 30
0.0
 11
64.154521
 21
183.585337
 31
0.0
  0
LINE
  5
36A
330
1F
100
AcDbEntity
  8
0
  6
CONTINUOUS
 62
     5
100
AcDbLine
 10
63.499313
 20
188.067603
 30
0.0
 11
63.54348
 21
187.765455
 31
0.0
  0
LINE
  5
36B
330
1F
100
AcDbEntity
  8
0
  6
CONTINUOUS
 62
     6
100
AcDbLine
 10
43.09774
 20
131.284318
 30
0.0
 11
43.09774
 21
129.084318
 31
0.0
  0
LINE
  5
36C
330
1F
100
AcDbEntity
  8
0
  6
CONTINUOUS
 62
     6
100
AcDbLine
 10
43.09774
 20
129.084318
 30
0.0
 11
44.69774
 21
129.084318
 31
0.0
  0
LINE
  5
36D
330
1F
100
AcDbEntity
  8
0
  6
CONTINUOUS
 62
     6
100
AcDbLine
 10
44.69774
 20
129.084318
 30
0.0
 11
44.69774
 21
131.284318
 31
0.0
  0
LINE
  5
36E
330
1F
100
AcDbEntity
  8
0
  6
CONTINUOUS
 62
     6
100
AcDbLine
 10
43.09774
 20
131.284318
 30
0.0
 11
44.69774
 21
131.284318
 31
0.0
  0
LINE
  5
36F
330
1F
100
AcDbEntity
  8
0
  6
CONTINUOUS
 62
     6
100
AcDbLine
 10
52.39774
 20
131.284318
 30
0.0
 11
52.39774
 21
129.084318
 31
0.0
  0
LINE
  5
370
330
1F
100
AcDbEntity
  8
0
  6
CONTINUOUS
 62
     6
100
AcDbLine
 10
52.39774
 20
129.084318
 30
0.0
 11
53.99774
 21
129.084318
 31
0.0
  0
LINE
  5
371
330
1F
100
AcDbEntity
  8
0
  6
CONTINUOUS
 62
     6
100
AcDbLine
 10
53.99774
 20
129.084318
 30
0.0
 11
53.99774
 21
131.284318
 31
0.0
  0
LINE
  5
372
330
1F
100
AcDbEntity
  8
0
  6
CONTINUOUS
 62
     6
100
AcDbLine
 10
52.39774
 20
131.284318
 30
0.0
 11
53.99774
 21
131.284318
 31
0.0
  0
LINE
  5
373
330
1F
100
AcDbEntity
  8
0
  6
CONTINUOUS
 62
     6
100
AcDbLine
 10
50.89774
 20
129.084318
 30
0.0
 11
49.29774
 21
129.084318
 31
0.0
  0
LINE
  5
374
330
1F
100
AcDbEntity
  8
0
  6
CONTINUOUS
 62
     6
100
AcDbLine
 10
49.29774
 20
129.084318
 30
0.0
 11
49.29774
 21
131.284318
 31
0.0
  0
LINE
  5
375
330
1F
100
AcDbEntity
  8
0
  6
CONTINUOUS
 62
     6
100
AcDbLine
 10
49.29774
 20
131.284318
 30
0.0
 11
50.89774
 21
131.284318
 31
0.0
  0
LINE
  5
376
330
1F
100
AcDbEntity
  8
0
  6
CONTINUOUS
 62
     6
100
AcDbLine
 10
50.89774
 20
131.284318
 30
0.0
 11
50.89774
 21
129.084318
 31
0.0
  0
LINE
  5
377
330
1F
100
AcDbEntity
  8
0
  6
CONTINUOUS
 62
     6
100
AcDbLine
 10
47.79774
 20
129.084318
 30
0.0
 11
46.19774
 21
129.084318
 31
0.0
  0
LINE
  5
378
330
1F
100
AcDbEntity
  8
0
  6
CONTINUOUS
 62
     6
100
AcDbLine
 10
46.19774
 20
129.084318
 30
0.0
 11
46.19774
 21
131.284318
 31
0.0
  0
LINE
  5
379
330
1F
100
AcDbEntity
  8
0
  6
CONTINUOUS
 62
     6
100
AcDbLine
 10
46.19774
 20
131.284318
 30
0.0
 11
47.79774
 21
131.284318
 31
0.0
  0
LINE
  5
37A
330
1F
100
AcDbEntity
  8
0
  6
CONTINUOUS
 62
     6
100
AcDbLine
 10
47.79774
 20
131.284318
 30
0.0
 11
47.79774
 21
129.084318
 31
0.0
  0
CIRCLE
  5
37B
330
1F
100
AcDbEntity
  8
0
  6
CONTINUOUS
 62
     6
100
AcDbCircle
 10
65.597711
 20
137.184326
 30
0.0
 40
2.5
  0
ARC
  5
37C
330
1F
100
AcDbEntity
  8
0
  6
CONTINUOUS
 62
     5
100
AcDbCircle
 10
60.983839
 20
138.050532
 30
0.0
 40
3.0
100
AcDbArc
 50
321.014939
 51
17.719243
  0
ARC
  5
37D
330
1F
100
AcDbEntity
  8
0
  6
CONTINUOUS
 62
     5
100
AcDbCircle
 10
66.463917
 20
132.570455
 30
0.0
 40
3.0
100
AcDbArc
 50
72.280757
 51
128.985061
  0
LINE
  5
37E
330
1F
100
AcDbEntity
  8
0
  6
CONTINUOUS
 62
     5
100
AcDbLine
 10
66.941214
 20
137.962144
 30
0.0
 11
67.625546
 21
138.646476
 31
0.0
  0
LINE
  5
37F
330
1F
100
AcDbEntity
  8
0
  6
CONTINUOUS
 62
     5
100
AcDbLine
 10
64.135561
 20
135.156491
 30
0.0
 11
64.819893
 21
135.840823
 31
0.0
  0
LINE
  5
380
330
1F
100
AcDbEntity
  8
0
  6
CONTINUOUS
 62
     5
100
AcDbLine
 10
64.254208
 20
136.406509
 30
0.0
 11
63.569875
 21
135.722176
 31
0.0
  0
LINE
  5
381
330
1F
100
AcDbEntity
  8
0
  6
CONTINUOUS
 62
     5
100
AcDbLine
 10
67.059861
 20
139.212162
 30
0.0
 11
66.375528
 21
138.527829
 31
0.0
  0
LINE
  5
382
330
1F
100
AcDbEntity
  8
0
  6
CONTINUOUS
 62
     5
100
AcDbLine
 10
65.239717
 20
138.175555
 30
0.0
 11
64.606482
 21
137.54232
 31
0.0
  0
LINE
  5
383
330
1F
100
AcDbEntity
  8
0
  6
CONTINUOUS
 62
     5
100
AcDbLine
 10
66.58894
 20
137.54232
 30
0.0
 11
65.955705
 21
138.175555
 31
0.0
  0
LINE
  5
384
330
1F
100
AcDbEntity
  8
0
  6
CONTINUOUS
 62
     5
100
AcDbLine
 10
65.955705
 20
136.193097
 30
0.0
 11
66.58894
 21
136.826332
 31
0.0
  0
LINE
  5
385
330
1F
100
AcDbEntity
  8
0
  6
CONTINUOUS
 62
     5
100
AcDbLine
 10
64.606482
 20
136.826332
 30
0.0
 11
65.239717
 21
136.193097
 31
0.0
  0
LINE
  5
386
330
1F
100
AcDbEntity
  8
0
  6
CONTINUOUS
 62
     5
100
AcDbLine
 10
65.597711
 20
136.49349
 30
0.0
 11
66.375528
 21
135.840823
 31
0.0
  0
LINE
  5
387
330
1F
100
AcDbEntity
  8
0
  6
CONTINUOUS
 62
     5
100
AcDbLine
 10
64.819893
 20
135.840823
 30
0.0
 11
65.597711
 21
136.49349
 31
0.0
  0
LINE
  5
388
330
1F
100
AcDbEntity
  8
0
  6
CONTINUOUS
 62
     5
100
AcDbLine
 10
64.906874
 20
137.184326
 30
0.0
 11
64.254208
 21
136.406509
 31
0.0
  0
LINE
  5
389
330
1F
100
AcDbEntity
  8
0
  6
CONTINUOUS
 62
     5
100
AcDbLine
 10
64.254208
 20
137.962144
 30
0.0
 11
64.906874
 21
137.184326
 31
0.0
  0
LINE
  5
38A
330
1F
100
AcDbEntity
  8
0
  6
CONTINUOUS
 62
     5
100
AcDbLine
 10
66.288547
 20
137.184326
 30
0.0
 11
66.941214
 21
137.962144
 31
0.0
  0
LINE
  5
38B
330
1F
100
AcDbEntity
  8
0
  6
CONTINUOUS
 62
     5
100
AcDbLine
 10
66.941214
 20
136.406509
 30
0.0
 11
66.288547
 21
137.184326
 31
0.0
  0
LINE
  5
38C
330
1F
100
AcDbEntity
  8
0
  6
CONTINUOUS
 62
     5
100
AcDbLine
 10
65.597711
 20
137.875163
 30
0.0
 11
64.819893
 21
138.527829
 31
0.0
  0
LINE
  5
38D
330
1F
100
AcDbEntity
  8
0
  6
CONTINUOUS
 62
     5
100
AcDbLine
 10
66.375528
 20
138.527829
 30
0.0
 11
65.597711
 21
137.875163
 31
0.0
  0
LINE
  5
38E
330
1F
100
AcDbEntity
  8
0
  6
CONTINUOUS
 62
     5
100
AcDbLine
 10
64.819893
 20
138.527829
 30
0.0
 11
64.254208
 21
137.962144
 31
0.0
  0
LINE
  5
38F
330
1F
100
AcDbEntity
  8
0
  6
CONTINUOUS
 62
     5
100
AcDbLine
 10
66.375528
 20
135.840823
 30
0.0
 11
66.941214
 21
136.406509
 31
0.0
  0
CIRCLE
  5
390
330
1F
100
AcDbEntity
  8
0
  6
CONTINUOUS
 62
     6
100
AcDbCircle
 10
65.597711
 20
162.184326
 30
0.0
 40
2.5
  0
ARC
  5
391
330
1F
100
AcDbEntity
  8
0
  6
CONTINUOUS
 62
     5
100
AcDbCircle
 10
60.983839
 20
163.050532
 30
0.0
 40
3.0
100
AcDbArc
 50
321.014939
 51
17.719243
  0
ARC
  5
392
330
1F
100
AcDbEntity
  8
0
  6
CONTINUOUS
 62
     5
100
AcDbCircle
 10
66.463917
 20
157.570455
 30
0.0
 40
3.0
100
AcDbArc
 50
72.280757
 51
128.985061
  0
LINE
  5
393
330
1F
100
AcDbEntity
  8
0
  6
CONTINUOUS
 62
     5
100
AcDbLine
 10
66.941214
 20
162.962144
 30
0.0
 11
67.625546
 21
163.646476
 31
0.0
  0
LINE
  5
394
330
1F
100
AcDbEntity
  8
0
  6
CONTINUOUS
 62
     5
100
AcDbLine
 10
64.135561
 20
160.156491
 30
0.0
 11
64.819893
 21
160.840823
 31
0.0
  0
LINE
  5
395
330
1F
100
AcDbEntity
  8
0
  6
CONTINUOUS
 62
     5
100
AcDbLine
 10
64.254208
 20
161.406509
 30
0.0
 11
63.569875
 21
160.722176
 31
0.0
  0
LINE
  5
396
330
1F
100
AcDbEntity
  8
0
  6
CONTINUOUS
 62
     5
100
AcDbLine
 10
67.059861
 20
164.212162
 30
0.0
 11
66.375528
 21
163.527829
 31
0.0
  0
LINE
  5
397
330
1F
100
AcDbEntity
  8
0
  6
CONTINUOUS
 62
     5
100
AcDbLine
 10
65.239717
 20
163.175555
 30
0.0
 11
64.606482
 21
162.54232
 31
0.0
  0
LINE
  5
398
330
1F
100
AcDbEntity
  8
0
  6
CONTINUOUS
 62
     5
100
AcDbLine
 10
66.58894
 20
162.54232
 30
0.0
 11
65.955705
 21
163.175555
 31
0.0
  0
LINE
  5
399
330
1F
100
AcDbEntity
  8
0
  6
CONTINUOUS
 62
     5
100
AcDbLine
 10
65.955705
 20
161.193097
 30
0.0
 11
66.58894
 21
161.826332
 31
0.0
  0
LINE
  5
39A
330
1F
100
AcDbEntity
  8
0
  6
CONTINUOUS
 62
     5
100
AcDbLine
 10
64.606482
 20
161.826332
 30
0.0
 11
65.239717
 21
161.193097
 31
0.0
  0
LINE
  5
39B
330
1F
100
AcDbEntity
  8
0
  6
CONTINUOUS
 62
     5
100
AcDbLine
 10
65.597711
 20
161.49349
 30
0.0
 11
66.375528
 21
160.840823
 31
0.0
  0
LINE
  5
39C
330
1F
100
AcDbEntity
  8
0
  6
CONTINUOUS
 62
     5
100
AcDbLine
 10
64.819893
 20
160.840823
 30
0.0
 11
65.597711
 21
161.49349
 31
0.0
  0
LINE
  5
39D
330
1F
100
AcDbEntity
  8
0
  6
CONTINUOUS
 62
     5
100
AcDbLine
 10
64.906874
 20
162.184326
 30
0.0
 11
64.254208
 21
161.406509
 31
0.0
  0
LINE
  5
39E
330
1F
100
AcDbEntity
  8
0
  6
CONTINUOUS
 62
     5
100
AcDbLine
 10
64.254208
 20
162.962144
 30
0.0
 11
64.906874
 21
162.184326
 31
0.0
  0
LINE
  5
39F
330
1F
100
AcDbEntity
  8
0
  6
CONTINUOUS
 62
     5
100
AcDbLine
 10
66.288547
 20
162.184326
 30
0.0
 11
66.941214
 21
162.962144
 31
0.0
  0
LINE
  5
3A0
330
1F
100
AcDbEntity
  8
0
  6
CONTINUOUS
 62
     5
100
AcDbLine
 10
66.941214
 20
161.406509
 30
0.0
 11
66.288547
 21
162.184326
 31
0.0
  0
LINE
  5
3A1
330
1F
100
AcDbEntity
  8
0
  6
CONTINUOUS
 62
     5
100
AcDbLine
 10
65.597711
 20
162.875163
 30
0.0
 11
64.819893
 21
163.527829
 31
0.0
  0
LINE
  5
3A2
330
1F
100
AcDbEntity
  8
0
  6
CONTINUOUS
 62
     5
100
AcDbLine
 10
66.375528
 20
163.527829
 30
0.0
 11
65.597711
 21
162.875163
 31
0.0
  0
LINE
  5
3A3
330
1F
100
AcDbEntity
  8
0
  6
CONTINUOUS
 62
     5
100
AcDbLine
 10
64.819893
 20
163.527829
 30
0.0
 11
64.254208
 21
162.962144
 31
0.0
  0
LINE
  5
3A4
330
1F
100
AcDbEntity
  8
0
  6
CONTINUOUS
 62
     5
100
AcDbLine
 10
66.375528
 20
160.840823
 30
0.0
 11
66.941214
 21
161.406509
 31
0.0
  0
DIMENSION
  5
3A5
330
1F
100
AcDbEntity
  8
DIM
  6
CONTINUOUS
 62
     6
100
AcDbDimension
  2
*D3
 10
74.597711
 20
198.643829
 30
0.0
 11
57.097711
 21
202.861135
 31
0.0
 70
    33
  1
<>
  3
FINDER
100
AcDbAlignedDimension
 13
39.597711
 23
189.684326
 33
0.0
 14
74.597711
 24
189.684326
 34
0.0
1001
ACAD
1000
DSTYLE
1002
{
1070
     5
1000
CLOSED
1070
    41
1040
1.2
1070
   176
1070
     3
1070
   177
1070
     3
1070
   271
1070
     1
1070
    42
1040
1.111111
1002
}
  0
DIMENSION
  5
3B2
330
1F
100
AcDbEntity
  8
DIM
  6
CONTINUOUS
 62
     6
100
AcDbDimension
  2
*D4
 10
156.349941
 20
198.643829
 30
0.0
 11
125.949941
 21
202.861135
 31
0.0
 70
    32
  1
<>
  3
FINDER
100
AcDbAlignedDimension
 13
95.549941
 23
179.684326
 33
0.0
 14
156.349941
 24
171.184326
 34
0.0
100
AcDbRotatedDimension
1001
ACAD
1000
DSTYLE
1002
{
1070
     5
1000
CLOSED
1070
    41
1040
1.2
1070
   176
1070
     3
1070
   177
1070
     3
1070
   271
1070
     1
1070
    42
1040
1.111111
1002
}
  0
DIMENSION
  5
3BF
330
1F
100
AcDbEntity
  8
DIM
  6
CONTINUOUS
 62
     6
100
AcDbDimension
  2
*D5
 10
174.638367
 20
107.684326
 30
0.0
 11
170.421061
 21
149.684326
 31
0.0
 70
    33
  1
<>
  3
FINDER
100
AcDbAlignedDimension
 13
123.349941
 23
191.684326
 33
0.0
 14
123.349941
 24
107.684326
 34
0.0
1001
ACAD
1000
DSTYLE
1002
{
1070
     7
1000

1070
     6
1000

1070
     5
1000
CLOSED
1070
   280
1070
     0
1070
    76
1070
     0
1070
    75
1070
     0
1070
    41
1040
1.2
1070
   176
1070
     3
1070
   177
1070
     3
1070
   271
1070
     1
1070
    42
1040
1.111111
1002
}
  0
DIMENSION
  5
3CC
330
1F
100
AcDbEntity
  8
DIM
  6
CONTINUOUS
 62
     6
100
AcDbDimension
  2
*D6
 10
164.496033
 20
172.184326
 30
0.0
 11
160.285727
 21
149.684326
 31
0.0
 70
    32
  1
<>
  3
FINDER
100
AcDbAlignedDimension
 13
154.349941
 23
127.184326
 33
0.0
 14
148.849941
 24
172.184326
 34
0.0
 50
90.0
100
AcDbRotatedDimension
1001
ACAD
1000
DSTYLE
1002
{
1070
     5
1000
CLOSED
1070
    41
1040
1.2
1070
   176
1070
     3
1070
   177
1070
     3
1070
   271
1070
     1
1070
    42
1040
1.111111
1002
}
  0
DIMENSION
  5
3D9
330
1F
100
AcDbEntity
  8
DIM
  6
CONTINUOUS
 62
     5
100
AcDbDimension
  2
*D7
 10
90.246208
 20
133.384341
 30
0.0
 11
86.028902
 21
118.109334
 31
0.0
 70
    32
  1
30.5
  3
FINDER
100
AcDbAlignedDimension
 13
96.04994
 23
102.834326
 33
0.0
 14
99.24994
 24
133.384341
 34
0.0
 50
90.0
100
AcDbRotatedDimension
1001
ACAD
1000
DSTYLE
1002
{
1070
     5
1000
CLOSED
1070
    41
1040
1.2
1070
   176
1070
     3
1070
   177
1070
     3
1070
   271
1070
     1
1070
    42
1040
1.111111
1002
}
  0
DIMENSION
  5
3E6
330
1F
100
AcDbEntity
  8
DIM
  6
CONTINUOUS
 62
     5
100
AcDbDimension
  2
*D8
 10
90.246208
 20
167.184326
 30
0.0
 11
86.028902
 21
150.284334
 31
0.0
 70
    32
  1
<>
  3
FINDER
100
AcDbAlignedDimension
 13
99.24994
 23
133.384341
 33
0.0
 14
99.199941
 24
167.184326
 34
0.0
 50
90.0
100
AcDbRotatedDimension
1001
ACAD
1000
DSTYLE
1002
{
1070
     5
1000
CLOSED
1070
    41
1040
1.2
1070
   176
1070
     3
1070
   177
1070
     3
1070
   271
1070
     1
1070
    42
1040
1.111111
1002
}
  0
DIMENSION
  5
3F3
330
1F
100
AcDbEntity
  8
DIM
  6
CONTINUOUS
 62
     5
100
AcDbDimension
  2
*D9
 10
32.92028
 20
102.834339
 30
0.0
 11
28.702974
 21
147.259333
 31
0.0
 70
    32
  1
<>
  3
FINDER
100
AcDbAlignedDimension
 13
39.997711
 23
191.684326
 33
0.0
 14
57.088392
 24
102.834339
 34
0.0
 50
90.0
100
AcDbRotatedDimension
1001
ACAD
1000
DSTYLE
1002
{
1070
     7
1000

1070
     6
1000

1070
     5
1000
CLOSED
1070
   280
1070
     0
1070
    76
1070
     0
1070
    75
1070
     0
1070
    41
1040
1.2
1070
   176
1070
     3
1070
   177
1070
     3
1070
   271
1070
     1
1070
    42
1040
1.111111
1002
}
  0
INSERT
  5
408
330
1F
100
AcDbEntity
  8
CARTOUCHE
  6
CONTINUOUS
 62
     7
100
AcDbBlockReference
  2
LW_POLYLINE_11
 10
200.000031
 20
287.000183
 30
0.0
  0
ENDSEC
  0
SECTION
  2
OBJECTS
  0
DICTIONARY
  5
C
330
0
100
AcDbDictionary
  3
ACAD_GROUP
350
D
  3
ACAD_LAYOUT
350
1A
  3
ACAD_MLINESTYLE
350
17
  3
ACAD_PLOTSETTINGS
350
19
  3
ACAD_TABLESTYLE
350
429
  3
ACAD_VISUALSTYLE
350
2A
  3
ACDBHEADERROUNDTRIPXREC
350
409
  3
ACDBVARIABLEDICTIONARY
350
42A
  0
DICTIONARY
  5
D
102
{ACAD_REACTORS
330
C
102
}
330
C
100
AcDbDictionary
  0
DICTIONARY
  5
1A
102
{ACAD_REACTORS
330
C
102
}
330
C
100
AcDbDictionary
  0
DICTIONARY
  5
17
102
{ACAD_REACTORS
330
C
102
}
330
C
100
AcDbDictionary
  3
STANDARD
350
18
  0
DICTIONARY
  5
19
102
{ACAD_REACTORS
330
C
102
}
330
C
100
AcDbDictionary
  0
DICTIONARY
  5
429
102
{ACAD_REACTORS
330
C
102
}
330
C
100
AcDbDictionary
  0
DICTIONARY
  5
2A
102
{ACAD_REACTORS
330
C
102
}
330
C
100
AcDbDictionary
  3
2DWIREFRAME
350
2F
  3
3D_HIDDEN
350
31
  3
3DWIREFRAME
350
30
  3
BASIC
350
32
  3
BRIGHTEN
350
36
  3
COLORCHANGE
350
3A
  3
CONCEPTUAL
350
34
  3
DIM
350
35
  3
FACEPATTERN
350
39
  3
FLAT
350
2B
  3
FLATWITHEDGES
350
2C
  3
GOURAUD
350
2D
  3
GOURAUDWITHEDGES
350
2E
  3
LINEPATTERN
350
38
  3
REALISTIC
350
33
  3
THICKEN
350
37
  0
DICTIONARY
  5
409
102
{ACAD_REACTORS
330
C
102
}
330
C
100
AcDbDictionary
  3
CEPSNTYPE
350
412
  3
DIMSTYLEDATA
350
428
  3
FINGERPRINTGUID
350
413
  3
HYPERLINKBASE
350
40C
  3
INSUNITS
350
411
  3
LAYOUTDICT
350
40E
  3
LWETCUNION
350
410
  3
PLOTSETDICT
350
40F
  3
PSVPSCALE
350
415
  3
PUCSBASE
350
418
  3
PUCSORGBACK
350
41E
  3
PUCSORGBOTTOM
350
41A
  3
PUCSORGFRONT
350
41D
  3
PUCSORGLEFT
350
41B
  3
PUCSORGRIGHT
350
41C
  3
PUCSORGTOP
350
419
  3
PUCSORTHOREF
350
416
  3
PUCSORTHOVIEW
350
417
  3
STYLESHEET
350
40D
  3
TSTACKALIGN
350
40A
  3
TSTACKSIZE
350
40B
  3
UCSBASE
350
421
  3
UCSORGBACK
350
427
  3
UCSORGBOTTOM
350
423
  3
UCSORGFRONT
350
426
  3
UCSORGLEFT
350
424
  3
UCSORGRIGHT
350
425
  3
UCSORGTOP
350
422
  3
UCSORTHOREF
350
41F
  3
UCSORTHOVIEW
350
420
  3
VERSIONGUID
350
414
  0
DICTIONARY
  5
42A
102
{ACAD_REACTORS
330
C
102
}
330
C
100
AcDbDictionary
  3
PSOLHEIGHT
350
42C
  3
PSOLWIDTH
350
42B
  0
MLINESTYLE
  5
18
102
{ACAD_REACTORS
330
17
102
}
330
17
100
AcDbMlineStyle
  2
Standard
 70
     0
  3

 62
   256
 51
90.0
 52
90.0
 71
     2
 49
0.5
 62
   256
  6
BYLAYER
 49
-0.5
 62
   256
  6
BYLAYER
  0
VISUALSTYLE
  5
2F
102
{ACAD_REACTORS
330
2A
102
}
330
2A
100
AcDbVisualStyle
  2
2dWireframe
 70
     4
 71
     0
 72
     2
 73
     0
 90
        0
 40
-0.6
 41
-30.0
 62
     5
 63
     7
 74
     1
 91
        4
 64
     7
 65
   257
 75
     1
175
     1
 42
1.0
 92
        0
 66
   257
 43
1.0
 76
     1
 77
     6
 78
     2
 67
     7
 79
     5
170
     0
171
     0
290
     0
174
     0
 93
        1
 44
0.0
173
     0
291
     0
 45
0.0
1001
ACAD
1000
AcDbSavedByObjectVersion
1070
     0
  0
VISUALSTYLE
  5
31
102
{ACAD_REACTORS
330
2A
102
}
330
2A
100
AcDbVisualStyle
  2
3D Hidden
 70
     6
 71
     1
 72
     2
 73
     2
 90
        0
 40
-0.6
 41
-30.0
 62
     5
 63
     7
 74
     2
 91
        2
 64
     7
 65
   257
 75
     2
175
     1
 42
40.0
 92
        0
 66
   257
 43
1.0
 76
     1
 77
     6
 78
     2
 67
     7
 79
     3
170
     0
171
     0
290
     0
174
     0
 93
        1
 44
0.0
173
     0
291
     0
 45
0.0
1001
ACAD
1000
AcDbSavedByObjectVersion
1070
     0
  0
VISUALSTYLE
  5
30
102
{ACAD_REACTORS
330
2A
102
}
330
2A
100
AcDbVisualStyle
  2
3dWireframe
 70
     5
 71
     0
 72
     2
 73
     0
 90
        0
 40
-0.6
 41
-30.0
 62
     5
 63
     7
 74
     1
 91
        4
 64
     7
 65
   257
 75
     1
175
     1
 42
1.0
 92
        0
 66
   257
 43
1.0
 76
     1
 77
     6
 78
     2
 67
     7
 79
     5
170
     0
171
     0
290
     0
174
     0
 93
        1
 44
0.0
173
     0
291
     0
 45
0.0
1001
ACAD
1000
AcDbSavedByObjectVersion
1070
     0
  0
VISUALSTYLE
  5
32
102
{ACAD_REACTORS
330
2A
102
}
330
2A
100
AcDbVisualStyle
  2
Basic
 70
     7
 71
     1
 72
     0
 73
     1
 90
        0
 40
-0.6
 41
-30.0
 62
     5
 63
     7
 74
     0
 91
        4
 64
     7
 65
   257
 75
     1
175
     1
 42
1.0
 92
        8
 66
     7
 43
1.0
 76
     1
 77
     6
 78
     2
 67
     7
 79
     5
170
     0
171
     0
290
     0
174
     0
 93
        1
 44
0.0
173
     0
291
     1
 45
0.0
1001
ACAD
1000
AcDbSavedByObjectVersion
1070
     0
  0
VISUALSTYLE
  5
36
102
{ACAD_REACTORS
330
2A
102
}
330
2A
100
AcDbVisualStyle
  2
Brighten
 70
    12
 71
     2
 72
     2
 73
     0
 90
        0
 40
-0.6
 41
-30.0
 62
     5
 63
     7
 74
     1
 91
        4
 64
     7
 65
   257
 75
     1
175
     1
 42
1.0
 92
        8
 66
     7
 43
1.0
 76
     1
 77
     6
 78
     2
 67
     7
 79
     5
170
     0
171
     0
290
     0
174
     0
 93
        1
 44
50.0
173
     0
291
     1
 45
0.0
1001
ACAD
1000
AcDbSavedByObjectVersion
1070
     0
  0
VISUALSTYLE
  5
3A
102
{ACAD_REACTORS
330
2A
102
}
330
2A
100
AcDbVisualStyle
  2
ColorChange
 70
    16
 71
     2
 72
     2
 73
     3
 90
        0
 40
-0.6
 41
-30.0
 62
     5
 63
     8
 74
     1
 91
        4
 64
     7
 65
   257
 75
     1
175
     1
 42
1.0
 92
        8
 66
     8
 43
1.0
 76
     1
 77
     6
 78
     2
 67
     7
 79
     5
170
     0
171
     0
290
     0
174
     0
 93
        1
 44
0.0
173
     0
291
     1
 45
0.0
1001
ACAD
1000
AcDbSavedByObjectVersion
1070
     0
  0
VISUALSTYLE
  5
34
102
{ACAD_REACTORS
330
2A
102
}
330
2A
100
AcDbVisualStyle
  2
Conceptual
 70
     9
 71
     3
 72
     2
 73
     0
 90
        0
 40
-0.6
 41
-30.0
 62
     5
 63
     7
 74
     2
 91
        2
 64
     7
 65
   257
 75
     1
175
     1
 42
40.0
 92
        8
 66
     7
 43
1.0
 76
     1
 77
     6
 78
     2
 67
     7
 79
     3
170
     0
171
     0
290
     0
174
     0
 93
        1
 44
0.0
173
     0
291
     0
 45
0.0
1001
ACAD
1000
AcDbSavedByObjectVersion
1070
     0
  0
VISUALSTYLE
  5
35
102
{ACAD_REACTORS
330
2A
102
}
330
2A
100
AcDbVisualStyle
  2
Dim
 70
    11
 71
     2
 72
     2
 73
     0
 90
        0
 40
-0.6
 41
-30.0
 62
     5
 63
     7
 74
     1
 91
        4
 64
     7
 65
   257
 75
     1
175
     1
 42
1.0
 92
        8
 66
     7
 43
1.0
 76
     1
 77
     6
 78
     2
 67
     7
 79
     5
170
     0
171
     0
290
     0
174
     0
 93
        1
 44
-50.0
173
     0
291
     1
 45
0.0
1001
ACAD
1000
AcDbSavedByObjectVersion
1070
     0
  0
VISUALSTYLE
  5
39
102
{ACAD_REACTORS
330
2A
102
}
330
2A
100
AcDbVisualStyle
  2
Facepattern
 70
    15
 71
     2
 72
     2
 73
     0
 90
        0
 40
-0.6
 41
-30.0
 62
     5
 63
     7
 74
     1
 91
        4
 64
     7
 65
   257
 75
     1
175
     1
 42
1.0
 92
        8
 66
     7
 43
1.0
 76
     1
 77
     6
 78
     2
 67
     7
 79
     5
170
     0
171
     0
290
     0
174
     0
 93
        1
 44
0.0
173
     0
291
     1
 45
0.0
1001
ACAD
1000
AcDbSavedByObjectVersion
1070
     0
  0
VISUALSTYLE
  5
2B
102
{ACAD_REACTORS
330
2A
102
}
330
2A
100
AcDbVisualStyle
  2
Flat
 70
     0
 71
     2
 72
     1
 73
     1
 90
        2
 40
-0.6
 41
30.0
 62
     5
 63
     7
 74
     0
 91
        4
 64
     7
 65
   257
 75
     1
175
     1
 42
1.0
 92
        8
 66
     7
 43
1.0
 76
     1
 77
     6
 78
     2
 67
     7
 79
     5
170
     0
171
     0
290
     0
174
     0
 93
       13
 44
0.0
173
     0
291
     1
 45
0.0
1001
ACAD
1000
AcDbSavedByObjectVersion
1070
     0
  0
VISUALSTYLE
  5
2C
102
{ACAD_REACTORS
330
2A
102
}
330
2A
100
AcDbVisualStyle
  2
FlatWithEdges
 70
     1
 71
     2
 72
     1
 73
     1
 90
        2
 40
-0.6
 41
30.0
 62
     5
 63
     7
 74
     1
 91
        4
 64
     7
 65
   257
 75
     1
175
     1
 42
1.0
 92
        0
 66
   257
 43
1.0
 76
     1
 77
     6
 78
     2
 67
     7
 79
     5
170
     0
171
     0
290
     0
174
     0
 93
       13
 44
0.0
173
     0
291
     1
 45
0.0
1001
ACAD
1000
AcDbSavedByObjectVersion
1070
     0
  0
VISUALSTYLE
  5
2D
102
{ACAD_REACTORS
330
2A
102
}
330
2A
100
AcDbVisualStyle
  2
Gouraud
 70
     2
 71
     2
 72
     2
 73
     1
 90
        2
 40
-0.6
 41
30.0
 62
     5
 63
     7
 74
     0
 91
        4
 64
     7
 65
   257
 75
     1
175
     1
 42
1.0
 92
        0
 66
     7
 43
1.0
 76
     1
 77
     6
 78
     2
 67
     7
 79
     5
170
     0
171
     0
290
     0
174
     0
 93
       13
 44
0.0
173
     0
291
     1
 45
0.0
1001
ACAD
1000
AcDbSavedByObjectVersion
1070
     0
  0
VISUALSTYLE
  5
2E
102
{ACAD_REACTORS
330
2A
102
}
330
2A
100
AcDbVisualStyle
  2
GouraudWithEdges
 70
     3
 71
     2
 72
     2
 73
     1
 90
        2
 40
-0.6
 41
30.0
 62
     5
 63
     7
 74
     1
 91
        4
 64
     7
 65
   257
 75
     1
175
     1
 42
1.0
 92
        0
 66
   257
 43
1.0
 76
     1
 77
     6
 78
     2
 67
     7
 79
     5
170
     0
171
     0
290
     0
174
     0
 93
       13
 44
0.0
173
     0
291
     1
 45
0.0
1001
ACAD
1000
AcDbSavedByObjectVersion
1070
     0
  0
VISUALSTYLE
  5
38
102
{ACAD_REACTORS
330
2A
102
}
330
2A
100
AcDbVisualStyle
  2
Linepattern
 70
    14
 71
     2
 72
     2
 73
     0
 90
        0
 40
-0.6
 41
-30.0
 62
     5
 63
     7
 74
     1
 91
        4
 64
     7
 65
   257
 75
     7
175
     7
 42
1.0
 92
        8
 66
     7
 43
1.0
 76
     1
 77
     6
 78
     2
 67
     7
 79
     5
170
     0
171
     0
290
     0
174
     0
 93
        1
 44
0.0
173
     0
291
     1
 45
0.0
1001
ACAD
1000
AcDbSavedByObjectVersion
1070
     0
  0
VISUALSTYLE
  5
33
102
{ACAD_REACTORS
330
2A
102
}
330
2A
100
AcDbVisualStyle
  2
Realistic
 70
     8
 71
     2
 72
     2
 73
     0
 90
        0
 40
-0.6
 41
-30.0
 62
     5
 63
     7
 74
     1
 91
        0
 64
     7
 65
   257
 75
     1
175
     1
 42
1.0
 92
        8
 66
     8
 43
1.0
 76
     1
 77
     6
 78
     2
 67
     7
 79
     5
170
     0
171
     0
290
     0
174
     0
 93
       13
 44
0.0
173
     0
291
     0
 45
0.0
1001
ACAD
1000
AcDbSavedByObjectVersion
1070
     0
  0
VISUALSTYLE
  5
37
102
{ACAD_REACTORS
330
2A
102
}
330
2A
100
AcDbVisualStyle
  2
Thicken
 70
    13
 71
     2
 72
     2
 73
     0
 90
        0
 40
-0.6
 41
-30.0
 62
     5
 63
     7
 74
     1
 91
        4
 64
     7
 65
   257
 75
     1
175
     1
 42
1.0
 92
       12
 66
     7
 43
1.0
 76
     1
 77
     6
 78
     2
 67
     7
 79
     5
170
     0
171
     0
290
     0
174
     0
 93
        1
 44
0.0
173
     0
291
     1
 45
0.0
1001
ACAD
1000
AcDbSavedByObjectVersion
1070
     0
  0
XRECORD
  5
412
102
{ACAD_REACTORS
330
409
102
}
330
409
100
AcDbXrecord
 90
        0
  0
XRECORD
  5
428
102
{ACAD_REACTORS
330
409
102
}
330
409
100
AcDbXrecord
1000
DSTYLE
1002
{
1070
   340
340
11
1002
}
  0
XRECORD
  5
413
102
{ACAD_REACTORS
330
409
102
}
330
409
100
AcDbXrecord
  1
{54EF8C2B-B56E-410F-8DFC-8D1F0BACC963}
  0
XRECORD
  5
40C
102
{ACAD_REACTORS
330
409
102
}
330
409
100
AcDbXrecord
  1

  0
XRECORD
  5
411
102
{ACAD_REACTORS
330
409
102
}
330
409
100
AcDbXrecord
 90
        4
  0
XRECORD
  5
40E
102
{ACAD_REACTORS
330
409
102
}
330
409
100
AcDbXrecord
340
1A
  0
XRECORD
  5
410
102
{ACAD_REACTORS
330
409
102
}
330
409
100
AcDbXrecord
 90
    10781
  0
XRECORD
  5
40F
102
{ACAD_REACTORS
330
409
102
}
330
409
100
AcDbXrecord
340
19
  0
XRECORD
  5
415
102
{ACAD_REACTORS
330
409
102
}
330
409
100
AcDbXrecord
 40
0.0
  0
XRECORD
  5
418
102
{ACAD_REACTORS
330
409
102
}
330
409
100
AcDbXrecord
340
0
  0
XRECORD
  5
41E
102
{ACAD_REACTORS
330
409
102
}
330
409
100
AcDbXrecord
 10
0.0
 20
0.0
 30
0.0
  0
XRECORD
  5
41A
102
{ACAD_REACTORS
330
409
102
}
330
409
100
AcDbXrecord
 10
0.0
 20
0.0
 30
0.0
  0
XRECORD
  5
41D
102
{ACAD_REACTORS
330
409
102
}
330
409
100
AcDbXrecord
 10
0.0
 20
0.0
 30
0.0
  0
XRECORD
  5
41B
102
{ACAD_REACTORS
330
409
102
}
330
409
100
AcDbXrecord
 10
0.0
 20
0.0
 30
0.0
  0
XRECORD
  5
41C
102
{ACAD_REACTORS
330
409
102
}
330
409
100
AcDbXrecord
 10
0.0
 20
0.0
 30
0.0
  0
XRECORD
  5
419
102
{ACAD_REACTORS
330
409
102
}
330
409
100
AcDbXrecord
 10
0.0
 20
0.0
 30
0.0
  0
XRECORD
  5
416
102
{ACAD_REACTORS
330
409
102
}
330
409
100
AcDbXrecord
340
0
  0
XRECORD
  5
417
102
{ACAD_REACTORS
330
409
102
}
330
409
100
AcDbXrecord
 70
     0
  0
XRECORD
  5
40D
102
{ACAD_REACTORS
330
409
102
}
330
409
100
AcDbXrecord
  1

  0
XRECORD
  5
40A
102
{ACAD_REACTORS
330
409
102
}
330
409
100
AcDbXrecord
 90
        1
  0
XRECORD
  5
40B
102
{ACAD_REACTORS
330
409
102
}
330
409
100
AcDbXrecord
 90
       70
  0
XRECORD
  5
421
102
{ACAD_REACTORS
330
409
102
}
330
409
100
AcDbXrecord
340
0
  0
XRECORD
  5
427
102
{ACAD_REACTORS
330
409
102
}
330
409
100
AcDbXrecord
 10
0.0
 20
0.0
 30
0.0
  0
XRECORD
  5
423
102
{ACAD_REACTORS
330
409
102
}
330
409
100
AcDbXrecord
 10
0.0
 20
0.0
 30
0.0
  0
XRECORD
  5
426
102
{ACAD_REACTORS
330
409
102
}
330
409
100
AcDbXrecord
 10
0.0
 20
0.0
 30
0.0
  0
XRECORD
  5
424
102
{ACAD_REACTORS
330
409
102
}
330
409
100
AcDbXrecord
 10
0.0
 20
0.0
 30
0.0
  0
XRECORD
  5
425
102
{ACAD_REACTORS
330
409
102
}
330
409
100
AcDbXrecord
 10
0.0
 20
0.0
 30
0.0
  0
XRECORD
  5
422
102
{ACAD_REACTORS
330
409
102
}
330
409
100
AcDbXrecord
 10
0.0
 20
0.0
 30
0.0
  0
XRECORD
  5
41F
102
{ACAD_REACTORS
330
409
102
}
330
409
100
AcDbXrecord
340
0
  0
XRECORD
  5
420
102
{ACAD_REACTORS
330
409
102
}
330
409
100
AcDbXrecord
 70
     0
  0
XRECORD
  5
414
102
{ACAD_REACTORS
330
409
102
}
330
409
100
AcDbXrecord
  1
{FAEB1C32-E019-11D5-929B-00C0DF256EC4}
  0
DICTIONARYVAR
  5
42C
102
{ACAD_REACTORS
330
42A
102
}
330
42A
100
DictionaryVariables
280
     0
  1
80.000000
  0
DICTIONARYVAR
  5
42B
102
{ACAD_REACTORS
330
42A
102
}
330
42A
100
DictionaryVariables
280
     0
  1
5.000000
  0
ENDSEC
  0
EOF
