  0
SECTION
  2
HEADER
  9
$ACADVER
  1
AC1014
  9
$ACADMAINTVER
 70
     9
  9
$DWGCODEPAGE
  3
ANSI_1252
  9
$INSBASE
 10
0.0
 20
0.0
 30
0.0
  9
$EXTMIN
 10
1.000000E+20
 20
1.000000E+20
 30
1.000000E+20
  9
$EXTMAX
 10
-1.000000E+20
 20
-1.000000E+20
 30
-1.000000E+20
  9
$LIMMIN
 10
0.0
 20
0.0
  9
$LIMMAX
 10
420.0
 20
297.0
  9
$ORTHOMODE
 70
     0
  9
$REGENMODE
 70
     1
  9
$FILLMODE
 70
     1
  9
$QTEXTMODE
 70
     0
  9
$MIRRTEXT
 70
     1
  9
$DRAGMODE
 70
     2
  9
$LTSCALE
 40
1.0
  9
$OSMODE
 70
    37
  9
$ATTMODE
 70
     1
  9
$TEXTSIZE
 40
2.5
  9
$TRACEWID
 40
1.0
  9
$TEXTSTYLE
  7
STANDARD
  9
$CLAYER
  8
0
  9
$CELTYPE
  6
BYLAYER
  9
$CECOLOR
 62
   256
  9
$CELTSCALE
 40
1.0
  9
$DELOBJ
 70
     1
  9
$DISPSILH
 70
     0
  9
$DIMSCALE
 40
1.0
  9
$DIMASZ
 40
2.5
  9
$DIMEXO
 40
0.625
  9
$DIMDLI
 40
3.75
  9
$DIMRND
 40
0.0
  9
$DIMDLE
 40
0.0
  9
$DIMEXE
 40
1.25
  9
$DIMTP
 40
0.0
  9
$DIMTM
 40
0.0
  9
$DIMTXT
 40
2.5
  9
$DIMCEN
 40
2.5
  9
$DIMTSZ
 40
0.0
  9
$DIMTOL
 70
     0
  9
$DIMLIM
 70
     0
  9
$DIMTIH
 70
     0
  9
$DIMTOH
 70
     0
  9
$DIMSE1
 70
     0
  9
$DIMSE2
 70
     0
  9
$DIMTAD
 70
     1
  9
$DIMZIN
 70
     8
  9
$DIMBLK
  1

  9
$DIMASO
 70
     1
  9
$DIMSHO
 70
     1
  9
$DIMPOST
  1

  9
$DIMAPOST
  1

  9
$DIMALT
 70
     0
  9
$DIMALTD
 70
     3
  9
$DIMALTF
 40
0.03937
  9
$DIMLFAC
 40
1.0
  9
$DIMTOFL
 70
     1
  9
$DIMTVP
 40
0.0
  9
$DIMTIX
 70
     0
  9
$DIMSOXD
 70
     0
  9
$DIMSAH
 70
     0
  9
$DIMBLK1
  1

  9
$DIMBLK2
  1

  9
$DIMSTYLE
  2
ISO-25
  9
$DIMCLRD
 70
     0
  9
$DIMCLRE
 70
     0
  9
$DIMCLRT
 70
     0
  9
$DIMTFAC
 40
1.0
  9
$DIMGAP
 40
0.625
  9
$DIMJUST
 70
     0
  9
$DIMSD1
 70
     0
  9
$DIMSD2
 70
     0
  9
$DIMTOLJ
 70
     0
  9
$DIMTZIN
 70
     8
  9
$DIMALTZ
 70
     0
  9
$DIMALTTZ
 70
     0
  9
$DIMFIT
 70
     3
  9
$DIMUPT
 70
     0
  9
$DIMUNIT
 70
     2
  9
$DIMDEC
 70
     2
  9
$DIMTDEC
 70
     2
  9
$DIMALTU
 70
     2
  9
$DIMALTTD
 70
     3
  9
$DIMTXSTY
  7
STANDARD
  9
$DIMAUNIT
 70
     0
  9
$LUNITS
 70
     2
  9
$LUPREC
 70
     4
  9
$SKETCHINC
 40
1.0
  9
$FILLETRAD
 40
10.0
  9
$AUNITS
 70
     0
  9
$AUPREC
 70
     0
  9
$MENU
  1
.
  9
$ELEVATION
 40
0.0
  9
$PELEVATION
 40
0.0
  9
$THICKNESS
 40
0.0
  9
$LIMCHECK
 70
     0
  9
$CHAMFERA
 40
10.0
  9
$CHAMFERB
 40
10.0
  9
$CHAMFERC
 40
20.0
  9
$CHAMFERD
 40
0.0
  9
$SKPOLY
 70
     0
  9
$TDCREATE
 40
2456137.386789109
  9
$TDUPDATE
 40
2456137.38678912
  9
$TDINDWG
 40
0.0000000116
  9
$TDUSRTIMER
 40
0.0000000116
  9
$USRTIMER
 70
     1
  9
$ANGBASE
 50
0.0
  9
$ANGDIR
 70
     0
  9
$PDMODE
 70
     0
  9
$PDSIZE
 40
0.0
  9
$PLINEWID
 40
0.0
  9
$COORDS
 70
     1
  9
$SPLFRAME
 70
     0
  9
$SPLINETYPE
 70
     6
  9
$SPLINESEGS
 70
     8
  9
$ATTDIA
 70
     0
  9
$ATTREQ
 70
     1
  9
$HANDLING
 70
     1
  9
$HANDSEED
  5
62A
  9
$SURFTAB1
 70
     6
  9
$SURFTAB2
 70
     6
  9
$SURFTYPE
 70
     6
  9
$SURFU
 70
     6
  9
$SURFV
 70
     6
  9
$UCSNAME
  2

  9
$UCSORG
 10
0.0
 20
0.0
 30
0.0
  9
$UCSXDIR
 10
1.0
 20
0.0
 30
0.0
  9
$UCSYDIR
 10
0.0
 20
1.0
 30
0.0
  9
$PUCSNAME
  2

  9
$PUCSORG
 10
0.0
 20
0.0
 30
0.0
  9
$PUCSXDIR
 10
1.0
 20
0.0
 30
0.0
  9
$PUCSYDIR
 10
0.0
 20
1.0
 30
0.0
  9
$USERI1
 70
     0
  9
$USERI2
 70
     0
  9
$USERI3
 70
     0
  9
$USERI4
 70
     0
  9
$USERI5
 70
     0
  9
$USERR1
 40
0.0
  9
$USERR2
 40
0.0
  9
$USERR3
 40
0.0
  9
$USERR4
 40
0.0
  9
$USERR5
 40
0.0
  9
$WORLDVIEW
 70
     1
  9
$SHADEDGE
 70
     3
  9
$SHADEDIF
 70
    70
  9
$TILEMODE
 70
     1
  9
$MAXACTVP
 70
    64
  9
$PINSBASE
 10
0.0
 20
0.0
 30
0.0
  9
$PLIMCHECK
 70
     0
  9
$PEXTMIN
 10
1.000000E+20
 20
1.000000E+20
 30
1.000000E+20
  9
$PEXTMAX
 10
-1.000000E+20
 20
-1.000000E+20
 30
-1.000000E+20
  9
$PLIMMIN
 10
0.0
 20
0.0
  9
$PLIMMAX
 10
420.0
 20
297.0
  9
$UNITMODE
 70
     0
  9
$VISRETAIN
 70
     1
  9
$PLINEGEN
 70
     0
  9
$PSLTSCALE
 70
     1
  9
$TREEDEPTH
 70
  3020
  9
$PICKSTYLE
 70
     1
  9
$CMLSTYLE
  2
STANDARD
  9
$CMLJUST
 70
     0
  9
$CMLSCALE
 40
20.0
  9
$PROXYGRAPHICS
 70
     1
  9
$MEASUREMENT
 70
     1
  0
ENDSEC
  0
SECTION
  2
CLASSES
  0
CLASS
  1
ACDBDICTIONARYWDFLT
  2
AcDbDictionaryWithDefault
  3
ObjectDBX Classes
 90
        0
280
     0
281
     0
  0
CLASS
  1
VISUALSTYLE
  2
AcDbVisualStyle
  3
ObjectDBX Classes
 90
     4095
280
     0
281
     0
  0
CLASS
  1
DICTIONARYVAR
  2
AcDbDictionaryVar
  3
ObjectDBX Classes
 90
        0
280
     0
281
     0
  0
CLASS
  1
XRECORD
  2
AcDbXrecord
  3
AutoCAD 2000
 90
        0
280
     0
281
     0
  0
CLASS
  1
LWPOLYLINE
  2
AcDbPolyline
  3
AutoCAD 2000
 90
        0
280
     0
281
     1
  0
CLASS
  1
HATCH
  2
AcDbHatch
  3
AutoCAD 2000
 90
        0
280
     0
281
     1
  0
CLASS
  1
ACDBPLACEHOLDER
  2
AcDbPlaceHolder
  3
ObjectDBX Classes
 90
        0
280
     0
281
     0
  0
CLASS
  1
LAYOUT
  2
AcDbLayout
  3
ObjectDBX Classes
 90
        0
280
     0
281
     0
  0
ENDSEC
  0
SECTION
  2
TABLES
  0
TABLE
  2
VPORT
  5
8
330
0
100
AcDbSymbolTable
 70
     1
  0
VPORT
  5
29
330
8
100
AcDbSymbolTableRecord
100
AcDbViewportTableRecord
  2
*ACTIVE
 70
     0
 10
0.0
 20
0.0
 11
1.0
 21
1.0
 12
344.186916
 22
148.5
 13
0.0
 23
0.0
 14
10.0
 24
10.0
 15
10.0
 25
10.0
 16
0.0
 26
0.0
 36
1.0
 17
0.0
 27
0.0
 37
0.0
 40
297.0
 41
1.972973
 42
50.0
 43
0.0
 44
0.0
 50
0.0
 51
0.0
 71
     0
 72
   100
 73
     1
 74
     3
 75
     0
 76
     0
 77
     0
 78
     0
  0
ENDTAB
  0
TABLE
  2
LTYPE
  5
5
330
0
100
AcDbSymbolTable
 70
     2
  0
LTYPE
  5
14
330
5
100
AcDbSymbolTableRecord
100
AcDbLinetypeTableRecord
  2
BYBLOCK
 70
     0
  3

 72
    65
 73
     0
 40
0.0
  0
LTYPE
  5
15
330
5
100
AcDbSymbolTableRecord
100
AcDbLinetypeTableRecord
  2
BYLAYER
 70
     0
  3

 72
    65
 73
     0
 40
0.0
  0
LTYPE
  5
16
330
5
100
AcDbSymbolTableRecord
100
AcDbLinetypeTableRecord
  2
CONTINUOUS
 70
     0
  3
Solid line
 72
    65
 73
     0
 40
0.0
  0
LTYPE
  5
46C
330
5
100
AcDbSymbolTableRecord
100
AcDbLinetypeTableRecord
  2
CENTER2
 70
     0
  3
Center (.5x) ___ _ ___ _ ___ _ ___ _ ___ _ ___
 72
    65
 73
     4
 40
28.575
 49
19.05
 74
     0
 49
-3.175
 74
     0
 49
3.175
 74
     0
 49
-3.175
 74
     0
  0
ENDTAB
  0
TABLE
  2
LAYER
  5
2
330
0
100
AcDbSymbolTable
 70
     6
  0
LAYER
  5
10
330
2
100
AcDbSymbolTableRecord
100
AcDbLayerTableRecord
  2
0
 70
     0
 62
     7
  6
CONTINUOUS
  0
LAYER
  5
3B
330
2
100
AcDbSymbolTableRecord
100
AcDbLayerTableRecord
  2
DIM
 70
     0
 62
     7
  6
CONTINUOUS
  0
LAYER
  5
3C
330
2
100
AcDbSymbolTableRecord
100
AcDbLayerTableRecord
  2
DRAW
 70
     0
 62
     7
  6
CONTINUOUS
  0
LAYER
  5
3D
330
2
100
AcDbSymbolTableRecord
100
AcDbLayerTableRecord
  2
CARTOUCHE
 70
     0
 62
     7
  6
CONTINUOUS
  0
LAYER
  5
3E
330
2
100
AcDbSymbolTableRecord
100
AcDbLayerTableRecord
  2
DRAW-TEXT
 70
     0
 62
     7
  6
CONTINUOUS
  0
LAYER
  5
3F
330
2
100
AcDbSymbolTableRecord
100
AcDbLayerTableRecord
  2
DEFPOINTS
 70
     0
 62
     7
  6
CONTINUOUS
  0
ENDTAB
  0
TABLE
  2
STYLE
  5
3
330
0
100
AcDbSymbolTable
 70
    21
  0
STYLE
  5
11
330
3
100
AcDbSymbolTableRecord
100
AcDbTextStyleTableRecord
  2
STANDARD
 70
     0
 40
0.0
 41
1.0
 50
0.0
 71
     0
 42
2.5
  3
txt
  4

1001
ACAD
1000
txt
1071
        0
  0
STYLE
  5
40
330
3
100
AcDbSymbolTableRecord
100
AcDbTextStyleTableRecord
  2
DEFAULT
 70
     0
 40
0.0
 41
1.0
 50
0.0
 71
     0
 42
0.2
  3

  4

1001
ACAD
1000
txt
1071
        0
  0
STYLE
  5
41
330
3
100
AcDbSymbolTableRecord
100
AcDbTextStyleTableRecord
  2
FINDER
 70
     0
 40
0.0
 41
1.0
 50
0.0
 71
     0
 42
0.2
  3

  4

1001
ACAD
1000
Arial
1071
        0
  0
STYLE
  5
42
330
3
100
AcDbSymbolTableRecord
100
AcDbTextStyleTableRecord
  2
ISO_FINDER
 70
     0
 40
0.0
 41
1.0
 50
0.0
 71
     0
 42
0.2
  3

  4

1001
ACAD
1000
Arial
1071
        0
  0
STYLE
  5
43
330
3
100
AcDbSymbolTableRecord
100
AcDbTextStyleTableRecord
  2
TSTYLE1
 70
     0
 40
0.0
 41
1.0
 50
0.0
 71
     0
 42
0.2
  3

  4

1001
ACAD
1000
Arial
1071
        0
  0
STYLE
  5
44
330
3
100
AcDbSymbolTableRecord
100
AcDbTextStyleTableRecord
  2
TSTYLE2
 70
     0
 40
0.0
 41
1.0
 50
0.0
 71
     0
 42
0.2
  3

  4

1001
ACAD
1000
Arial
1071
        0
  0
STYLE
  5
45
330
3
100
AcDbSymbolTableRecord
100
AcDbTextStyleTableRecord
  2
TSTYLE3
 70
     0
 40
0.0
 41
1.0
 50
0.0
 71
     0
 42
0.2
  3

  4

1001
ACAD
1000
Arial
1071
        0
  0
STYLE
  5
46
330
3
100
AcDbSymbolTableRecord
100
AcDbTextStyleTableRecord
  2
TSTYLE4
 70
     0
 40
0.0
 41
1.0
 50
0.0
 71
     0
 42
0.2
  3

  4

1001
ACAD
1000
Arial
1071
        0
  0
STYLE
  5
47
330
3
100
AcDbSymbolTableRecord
100
AcDbTextStyleTableRecord
  2
TSTYLE5
 70
     0
 40
0.0
 41
1.0
 50
0.0
 71
     0
 42
0.2
  3

  4

1001
ACAD
1000
Arial
1071
        0
  0
STYLE
  5
48
330
3
100
AcDbSymbolTableRecord
100
AcDbTextStyleTableRecord
  2
TSTYLE11
 70
     0
 40
0.0
 41
1.0
 50
0.0
 71
     0
 42
0.2
  3

  4

1001
ACAD
1000
Arial
1071
        0
  0
STYLE
  5
49
330
3
100
AcDbSymbolTableRecord
100
AcDbTextStyleTableRecord
  2
TSTYLE23
 70
     0
 40
0.0
 41
1.0
 50
0.0
 71
     0
 42
0.2
  3

  4

1001
ACAD
1000
Arial
1071
        0
  0
STYLE
  5
4A
330
3
100
AcDbSymbolTableRecord
100
AcDbTextStyleTableRecord
  2
TSTYLE22
 70
     0
 40
0.0
 41
1.0
 50
0.0
 71
     0
 42
0.2
  3

  4

1001
ACAD
1000
Arial
1071
        0
  0
STYLE
  5
4B
330
3
100
AcDbSymbolTableRecord
100
AcDbTextStyleTableRecord
  2
ISO
 70
     0
 40
0.0
 41
1.0
 50
0.0
 71
     0
 42
0.2
  3

  4

1001
ACAD
1000
ISOCP
1071
        0
  0
STYLE
  5
4C
330
3
100
AcDbSymbolTableRecord
100
AcDbTextStyleTableRecord
  2
HELVETICAR
 70
     0
 40
0.0
 41
1.0
 50
0.0
 71
     0
 42
0.2
  3

  4

1001
ACAD
1000
Swis721 Cn BT
1071
        0
  0
STYLE
  5
4D
330
3
100
AcDbSymbolTableRecord
100
AcDbTextStyleTableRecord
  2
ROMANS
 70
     0
 40
0.0
 41
1.0
 50
0.0
 71
     0
 42
0.2
  3

  4

1001
ACAD
1000
romans
1071
        0
  0
STYLE
  5
4E
330
3
100
AcDbSymbolTableRecord
100
AcDbTextStyleTableRecord
  2
STD
 70
     0
 40
0.0
 41
1.0
 50
0.0
 71
     0
 42
0.2
  3

  4

1001
ACAD
1000
txt
1071
        0
  0
STYLE
  5
4F
330
3
100
AcDbSymbolTableRecord
100
AcDbTextStyleTableRecord
  2
STYLE1
 70
     0
 40
0.0
 41
1.0
 50
0.0
 71
     0
 42
0.2
  3

  4

1001
ACAD
1000
Arial Black
1071
        0
  0
STYLE
  5
50
330
3
100
AcDbSymbolTableRecord
100
AcDbTextStyleTableRecord
  2
ANSI
 70
     0
 40
0.0
 41
1.0
 50
0.0
 71
     0
 42
0.2
  3

  4

1001
ACAD
1000
txt
1071
        0
  0
STYLE
  5
51
330
3
100
AcDbSymbolTableRecord
100
AcDbTextStyleTableRecord
  2
SEACAD_ARIALB
 70
     0
 40
0.0
 41
1.0
 50
0.0
 71
     0
 42
0.2
  3

  4

1001
ACAD
1000
Arial
1071
 33554432
  0
STYLE
  5
52
330
3
100
AcDbSymbolTableRecord
100
AcDbTextStyleTableRecord
  2
SEACAD_ARIAL
 70
     0
 40
0.0
 41
1.0
 50
0.0
 71
     0
 42
0.2
  3

  4

1001
ACAD
1000
Arial
1071
        0
  0
STYLE
  5
53
330
3
100
AcDbSymbolTableRecord
100
AcDbTextStyleTableRecord
  2
SEACAD_ARIALBI
 70
     0
 40
0.0
 41
1.0
 50
0.0
 71
     0
 42
0.2
  3

  4

1001
ACAD
1000
Arial
1071
 50331648
  0
ENDTAB
  0
TABLE
  2
VIEW
  5
6
330
0
100
AcDbSymbolTable
 70
     0
  0
ENDTAB
  0
TABLE
  2
UCS
  5
7
330
0
100
AcDbSymbolTable
 70
     0
  0
ENDTAB
  0
TABLE
  2
APPID
  5
9
330
0
100
AcDbSymbolTable
 70
     1
  0
APPID
  5
12
330
9
100
AcDbSymbolTableRecord
100
AcDbRegAppTableRecord
  2
ACAD
 70
     0
  0
ENDTAB
  0
TABLE
  2
DIMSTYLE
  5
A
330
0
100
AcDbSymbolTable
 70
    12
  0
DIMSTYLE
105
27
330
A
100
AcDbSymbolTableRecord
100
AcDbDimStyleTableRecord
  2
ISO-25
 70
     0
  3

  4

  5

  6

  7

 40
1.0
 41
2.5
 42
0.625
 43
3.75
 44
1.25
 45
0.0
 46
0.0
 47
0.0
 48
0.0
140
2.5
141
2.5
142
0.0
143
0.03937
144
1.0
145
0.0
146
1.0
147
0.625
 71
     0
 72
     0
 73
     0
 74
     0
 75
     0
 76
     0
 77
     1
 78
     8
170
     0
171
     3
172
     1
173
     0
174
     0
175
     0
176
     0
177
     0
178
     0
270
     2
271
     2
272
     2
273
     2
274
     3
340
11
275
     0
280
     0
281
     0
282
     0
283
     0
284
     8
285
     0
286
     0
287
     3
288
     0
  0
DIMSTYLE
105
54
330
A
100
AcDbSymbolTableRecord
100
AcDbDimStyleTableRecord
  2
DEFAULT
 70
     0
  3
<>
  4

  5
CLOSED
  6

  7

 40
1.0
 41
4.375
 42
1.05
 43
0.38
 44
2.1
 45
0.0
 46
0.0
 47
0.0
 48
0.0
140
3.5
141
0.09
142
0.0
143
25.4
144
1.0
145
0.0
146
0.4
147
1.75
 71
     0
 72
     0
 73
     0
 74
     0
 75
     0
 76
     0
 77
     1
 78
     8
170
     0
171
     2
172
     0
173
     0
174
     0
175
     0
176
     0
177
     0
178
     2
270
     2
271
     2
272
     3
273
     2
274
     2
340
40
275
     0
280
     0
281
     0
282
     0
283
     1
284
     8
285
     0
286
     0
287
     3
288
     0
  0
DIMSTYLE
105
5C
330
A
100
AcDbSymbolTableRecord
100
AcDbDimStyleTableRecord
  2
DEFAULTDIMENSIONSTYLE
 70
     0
  3
<>
  4

  5

  6

  7

 40
1.0
 41
2.5
 42
0.875
 43
0.38
 44
1.75
 45
0.0
 46
0.0
 47
0.0
 48
0.0
140
3.5
141
0.09
142
0.0
143
25.4
144
1.0
145
0.0
146
1.0
147
1.75
 71
     0
 72
     0
 73
     0
 74
     0
 75
     0
 76
     0
 77
     1
 78
     8
170
     0
171
     2
172
     0
173
     0
174
     0
175
     0
176
     0
177
     0
178
     2
270
     2
271
     2
272
     2
273
     2
274
     2
340
11
275
     0
280
     0
281
     0
282
     0
283
     1
284
     8
285
     0
286
     0
287
     3
288
     0
  0
DIMSTYLE
105
5D
102
{ACAD_REACTORS
330
5D0
330
5DD
330
5EA
330
5F7
102
}
330
A
100
AcDbSymbolTableRecord
100
AcDbDimStyleTableRecord
  2
FINDER
 70
     0
  3
<>
  4

  5

  6

  7

 40
1.0
 41
2.5
 42
3.888889
 43
0.38
 44
2.430556
 45
0.0
 46
0.0
 47
0.0
 48
0.0
140
3.5
141
0.09
142
0.0
143
25.4
144
1.0
145
0.0
146
1.0
147
2.430556
 71
     0
 72
     0
 73
     0
 74
     0
 75
     0
 76
     0
 77
     1
 78
     8
170
     0
171
     2
172
     0
173
     0
174
     0
175
     0
176
     0
177
     0
178
     2
270
     2
271
     2
272
     2
273
     2
274
     2
340
41
275
     0
280
     0
281
     0
282
     0
283
     1
284
     8
285
     0
286
     0
287
     3
288
     0
  0
DIMSTYLE
105
5E
330
A
100
AcDbSymbolTableRecord
100
AcDbDimStyleTableRecord
  2
ISO_FINDER
 70
     0
  3
<>
  4

  5
CLOSED
  6

  7

 40
1.0
 41
1.0
 42
1.05
 43
0.38
 44
1.75
 45
0.0
 46
0.0
 47
0.0
 48
0.0
140
3.5
141
0.09
142
0.0
143
25.4
144
1.0
145
0.0
146
0.6
147
3.5
 71
     0
 72
     0
 73
     0
 74
     0
 75
     0
 76
     0
 77
     1
 78
     8
170
     0
171
     2
172
     0
173
     0
174
     0
175
     0
176
     0
177
     0
178
     2
270
     2
271
     2
272
     3
273
     2
274
     2
340
42
275
     0
280
     0
281
     0
282
     0
283
     1
284
     8
285
     0
286
     0
287
     3
288
     0
  0
DIMSTYLE
105
5F
330
A
100
AcDbSymbolTableRecord
100
AcDbDimStyleTableRecord
  2
DSTYLE1
 70
     0
  3
<>
  4

  5

  6

  7

 40
1.0
 41
1.35
 42
0.35
 43
0.38
 44
1.166667
 45
0.0
 46
0.0
 47
0.0
 48
0.0
140
3.5
141
0.09
142
0.0
143
25.4
144
1.0
145
0.0
146
0.6
147
2.45
 71
     0
 72
     0
 73
     0
 74
     0
 75
     0
 76
     0
 77
     1
 78
     8
170
     0
171
     2
172
     0
173
     0
174
     0
175
     0
176
     0
177
     0
178
     2
270
     2
271
     2
272
     4
273
     2
274
     2
340
49
275
     0
280
     0
281
     0
282
     0
283
     1
284
     0
285
     0
286
     0
287
     3
288
     0
  0
DIMSTYLE
105
60
330
A
100
AcDbSymbolTableRecord
100
AcDbDimStyleTableRecord
  2
DSTYLE2
 70
     0
  3
<>
  4

  5

  6

  7

 40
1.0
 41
1.35
 42
0.35
 43
0.38
 44
1.166667
 45
0.0
 46
0.0
 47
0.0
 48
0.0
140
3.5
141
0.09
142
0.0
143
25.4
144
1.0
145
0.0
146
0.6
147
2.45
 71
     0
 72
     0
 73
     0
 74
     0
 75
     0
 76
     0
 77
     1
 78
     8
170
     0
171
     2
172
     0
173
     0
174
     0
175
     0
176
     0
177
     0
178
     2
270
     2
271
     2
272
     4
273
     2
274
     2
340
49
275
     0
280
     0
281
     0
282
     0
283
     1
284
     0
285
     0
286
     0
287
     3
288
     0
  0
DIMSTYLE
105
61
330
A
100
AcDbSymbolTableRecord
100
AcDbDimStyleTableRecord
  2
DSTYLE3
 70
     0
  3
<>
  4

  5

  6

  7

 40
1.0
 41
1.35
 42
0.233333
 43
0.38
 44
1.166667
 45
0.0
 46
0.0
 47
0.0
 48
0.0
140
3.5
141
0.09
142
0.0
143
25.4
144
1.0
145
0.0
146
0.6
147
2.45
 71
     0
 72
     0
 73
     0
 74
     0
 75
     0
 76
     0
 77
     1
 78
     8
170
     0
171
     2
172
     0
173
     0
174
     0
175
     0
176
     0
177
     0
178
     2
270
     2
271
     2
272
     4
273
     2
274
     2
340
49
275
     0
280
     0
281
     0
282
     0
283
     1
284
     0
285
     0
286
     0
287
     3
288
     0
  0
DIMSTYLE
105
62
330
A
100
AcDbSymbolTableRecord
100
AcDbDimStyleTableRecord
  2
DSTYLE4
 70
     0
  3
<>
  4

  5

  6

  7

 40
1.0
 41
1.35
 42
0.233333
 43
0.38
 44
1.166667
 45
0.0
 46
0.0
 47
0.0
 48
0.0
140
3.5
141
0.09
142
0.0
143
25.4
144
1.0
145
0.0
146
0.6
147
2.45
 71
     0
 72
     0
 73
     0
 74
     0
 75
     0
 76
     0
 77
     1
 78
     8
170
     0
171
     2
172
     0
173
     0
174
     0
175
     0
176
     0
177
     0
178
     2
270
     2
271
     2
272
     4
273
     2
274
     2
340
49
275
     0
280
     0
281
     0
282
     0
283
     1
284
     0
285
     0
286
     0
287
     3
288
     0
  0
DIMSTYLE
105
63
330
A
100
AcDbSymbolTableRecord
100
AcDbDimStyleTableRecord
  2
DSTYLE5
 70
     0
  3
<>
  4

  5

  6

  7

 40
1.0
 41
1.35
 42
0.000147
 43
0.38
 44
1.166667
 45
0.0
 46
0.0
 47
0.0
 48
0.0
140
3.5
141
0.09
142
0.0
143
25.4
144
1.0
145
0.0
146
0.6
147
2.45
 71
     0
 72
     0
 73
     0
 74
     0
 75
     0
 76
     0
 77
     1
 78
     8
170
     0
171
     2
172
     0
173
     0
174
     0
175
     0
176
     0
177
     0
178
     2
270
     2
271
     2
272
     4
273
     2
274
     2
340
49
275
     0
280
     0
281
     0
282
     0
283
     1
284
     0
285
     0
286
     0
287
     3
288
     0
  0
DIMSTYLE
105
64
330
A
100
AcDbSymbolTableRecord
100
AcDbDimStyleTableRecord
  2
ST0
 70
     0
  3
<>
  4

  5

  6

  7

 40
1.0
 41
1.4
 42
0.6125
 43
0.38
 44
0.6125
 45
0.0
 46
0.0
 47
0.0
 48
0.0
140
3.5
141
0.09
142
0.0
143
25.4
144
1.0
145
0.0
146
0.5
147
1.458333
 71
     0
 72
     0
 73
     0
 74
     0
 75
     0
 76
     0
 77
     1
 78
     8
170
     0
171
     2
172
     0
173
     0
174
     0
175
     0
176
     0
177
     0
178
     2
270
     2
271
     1
272
     2
273
     2
274
     2
340
4B
275
     0
280
     0
281
     0
282
     0
283
     1
284
     0
285
     0
286
     0
287
     3
288
     0
  0
DIMSTYLE
105
65
330
A
100
AcDbSymbolTableRecord
100
AcDbDimStyleTableRecord
  2
PUNTI
 70
     0
  3
<>
  4

  5
DOT
  6

  7

 40
1.0
 41
1.05
 42
0.6125
 43
0.38
 44
0.30625
 45
0.0
 46
0.0
 47
0.0
 48
0.0
140
3.5
141
0.09
142
0.0
143
25.4
144
1.0
145
0.0
146
0.5
147
0.8575
 71
     0
 72
     0
 73
     0
 74
     0
 75
     0
 76
     0
 77
     1
 78
     8
170
     0
171
     2
172
     0
173
     0
174
     0
175
     0
176
     0
177
     0
178
     2
270
     2
271
     4
272
     4
273
     2
274
     2
340
4B
275
     0
280
     0
281
     0
282
     0
283
     1
284
     0
285
     0
286
     0
287
     3
288
     0
  0
ENDTAB
  0
TABLE
  2
BLOCK_RECORD
  5
1
330
0
100
AcDbSymbolTable
 70
    34
  0
BLOCK_RECORD
  5
1F
330
1
100
AcDbSymbolTableRecord
100
AcDbBlockTableRecord
  2
*MODEL_SPACE
  0
BLOCK_RECORD
  5
1B
330
1
100
AcDbSymbolTableRecord
100
AcDbBlockTableRecord
  2
*PAPER_SPACE
  0
BLOCK_RECORD
  5
55
330
1
100
AcDbSymbolTableRecord
100
AcDbBlockTableRecord
  2
_CLOSED
  0
BLOCK_RECORD
  5
66
330
1
100
AcDbSymbolTableRecord
100
AcDbBlockTableRecord
  2
_DOT
  0
BLOCK_RECORD
  5
6E
330
1
100
AcDbSymbolTableRecord
100
AcDbBlockTableRecord
  2
SOLID_1
  0
BLOCK_RECORD
  5
453
330
1
100
AcDbSymbolTableRecord
100
AcDbBlockTableRecord
  2
LW_POLYLINE_1
  0
BLOCK_RECORD
  5
46E
330
1
100
AcDbSymbolTableRecord
100
AcDbBlockTableRecord
  2
SE9
  0
BLOCK_RECORD
  5
476
330
1
100
AcDbSymbolTableRecord
100
AcDbBlockTableRecord
  2
SE16
  0
BLOCK_RECORD
  5
4C6
330
1
100
AcDbSymbolTableRecord
100
AcDbBlockTableRecord
  2
SE17
  0
BLOCK_RECORD
  5
4CB
330
1
100
AcDbSymbolTableRecord
100
AcDbBlockTableRecord
  2
SE18
  0
BLOCK_RECORD
  5
4D0
330
1
100
AcDbSymbolTableRecord
100
AcDbBlockTableRecord
  2
SE21
  0
BLOCK_RECORD
  5
4E5
330
1
100
AcDbSymbolTableRecord
100
AcDbBlockTableRecord
  2
SE22
  0
BLOCK_RECORD
  5
4EA
330
1
100
AcDbSymbolTableRecord
100
AcDbBlockTableRecord
  2
SE23
  0
BLOCK_RECORD
  5
4FC
330
1
100
AcDbSymbolTableRecord
100
AcDbBlockTableRecord
  2
SE24
  0
BLOCK_RECORD
  5
501
330
1
100
AcDbSymbolTableRecord
100
AcDbBlockTableRecord
  2
SE25
  0
BLOCK_RECORD
  5
506
330
1
100
AcDbSymbolTableRecord
100
AcDbBlockTableRecord
  2
SE27
  0
BLOCK_RECORD
  5
50B
330
1
100
AcDbSymbolTableRecord
100
AcDbBlockTableRecord
  2
SE28
  0
BLOCK_RECORD
  5
510
330
1
100
AcDbSymbolTableRecord
100
AcDbBlockTableRecord
  2
SE30
  0
BLOCK_RECORD
  5
515
330
1
100
AcDbSymbolTableRecord
100
AcDbBlockTableRecord
  2
SE31
  0
BLOCK_RECORD
  5
52A
330
1
100
AcDbSymbolTableRecord
100
AcDbBlockTableRecord
  2
SE34
  0
BLOCK_RECORD
  5
577
330
1
100
AcDbSymbolTableRecord
100
AcDbBlockTableRecord
  2
SE41
  0
BLOCK_RECORD
  5
57C
330
1
100
AcDbSymbolTableRecord
100
AcDbBlockTableRecord
  2
SE42
  0
BLOCK_RECORD
  5
589
330
1
100
AcDbSymbolTableRecord
100
AcDbBlockTableRecord
  2
SE43
  0
BLOCK_RECORD
  5
596
330
1
100
AcDbSymbolTableRecord
100
AcDbBlockTableRecord
  2
SE44
  0
BLOCK_RECORD
  5
59B
330
1
100
AcDbSymbolTableRecord
100
AcDbBlockTableRecord
  2
SE45
  0
BLOCK_RECORD
  5
5AD
330
1
100
AcDbSymbolTableRecord
100
AcDbBlockTableRecord
  2
SE48
  0
BLOCK_RECORD
  5
5B2
330
1
100
AcDbSymbolTableRecord
100
AcDbBlockTableRecord
  2
SE49
  0
BLOCK_RECORD
  5
5B7
330
1
100
AcDbSymbolTableRecord
100
AcDbBlockTableRecord
  2
SE51
  0
BLOCK_RECORD
  5
5BC
330
1
100
AcDbSymbolTableRecord
100
AcDbBlockTableRecord
  2
SE52
  0
BLOCK_RECORD
  5
5C1
330
1
100
AcDbSymbolTableRecord
100
AcDbBlockTableRecord
  2
SE251
  0
BLOCK_RECORD
  5
5C6
330
1
100
AcDbSymbolTableRecord
100
AcDbBlockTableRecord
  2
SE281
  0
BLOCK_RECORD
  5
5D1
330
1
100
AcDbSymbolTableRecord
100
AcDbBlockTableRecord
  2
*D30
  0
BLOCK_RECORD
  5
5DE
330
1
100
AcDbSymbolTableRecord
100
AcDbBlockTableRecord
  2
*D31
  0
BLOCK_RECORD
  5
5EB
330
1
100
AcDbSymbolTableRecord
100
AcDbBlockTableRecord
  2
*D32
  0
BLOCK_RECORD
  5
5F8
330
1
100
AcDbSymbolTableRecord
100
AcDbBlockTableRecord
  2
*D33
  0
ENDTAB
  0
ENDSEC
  0
SECTION
  2
BLOCKS
  0
BLOCK
  5
20
330
1F
100
AcDbEntity
  8
0
100
AcDbBlockBegin
  2
*MODEL_SPACE
 70
     0
 71
     0
 10
0.0
 20
0.0
 30
0.0
  3
*MODEL_SPACE
  1

  0
ENDBLK
  5
21
330
1F
100
AcDbEntity
  8
0
100
AcDbBlockEnd
  0
BLOCK
  5
1C
330
1B
100
AcDbEntity
 67
     1
  8
0
100
AcDbBlockBegin
  2
*PAPER_SPACE
 70
     0
 71
     0
 10
0.0
 20
0.0
 30
0.0
  3
*PAPER_SPACE
  1

  0
ENDBLK
  5
1D
330
1B
100
AcDbEntity
 67
     1
  8
0
100
AcDbBlockEnd
  0
BLOCK
  5
56
330
55
100
AcDbEntity
  8
0
100
AcDbBlockBegin
  2
_CLOSED
 70
     0
 71
     0
 10
0.0
 20
0.0
 30
0.0
  3
_CLOSED
  1

  0
LINE
  5
58
330
55
100
AcDbEntity
  8
0
  6
BYBLOCK
 62
     0
100
AcDbLine
 10
-1.0
 20
0.166667
 30
0.0
 11
0.0
 21
0.0
 31
0.0
  0
LINE
  5
59
330
55
100
AcDbEntity
  8
0
  6
BYBLOCK
 62
     0
100
AcDbLine
 10
0.0
 20
0.0
 30
0.0
 11
-1.0
 21
-0.166667
 31
0.0
  0
LINE
  5
5A
330
55
100
AcDbEntity
  8
0
  6
BYBLOCK
 62
     0
100
AcDbLine
 10
-1.0
 20
0.166667
 30
0.0
 11
-1.0
 21
-0.166667
 31
0.0
  0
LINE
  5
5B
330
55
100
AcDbEntity
  8
0
  6
BYBLOCK
 62
     0
100
AcDbLine
 10
0.0
 20
0.0
 30
0.0
 11
-1.0
 21
0.0
 31
0.0
  0
ENDBLK
  5
57
330
55
100
AcDbEntity
  8
0
100
AcDbBlockEnd
  0
BLOCK
  5
67
330
66
100
AcDbEntity
  8
0
100
AcDbBlockBegin
  2
_DOT
 70
     0
 71
     0
 10
0.0
 20
0.0
 30
0.0
  3
_DOT
  1

  0
POLYLINE
  5
69
330
66
100
AcDbEntity
  8
0
  6
BYBLOCK
 62
     0
100
AcDb2dPolyline
 66
     1
 10
0.0
 20
0.0
 30
0.0
 70
     1
 40
0.5
 41
0.5
  0
VERTEX
  5
6C
330
69
100
AcDbEntity
  8
0
  6
BYBLOCK
 62
     0
100
AcDbVertex
100
AcDb2dVertex
 10
-0.25
 20
0.0
 30
0.0
 42
1.0
  0
VERTEX
  5
6D
330
69
100
AcDbEntity
  8
0
  6
BYBLOCK
 62
     0
100
AcDbVertex
100
AcDb2dVertex
 10
0.25
 20
0.0
 30
0.0
 42
1.0
  0
SEQEND
  5
6B
330
69
100
AcDbEntity
  8
0
  6
BYBLOCK
 62
     0
  0
LINE
  5
6A
330
66
100
AcDbEntity
  8
0
  6
BYBLOCK
 62
     0
100
AcDbLine
 10
-0.5
 20
0.0
 30
0.0
 11
-1.0
 21
0.0
 31
0.0
  0
ENDBLK
  5
68
330
66
100
AcDbEntity
  8
0
100
AcDbBlockEnd
  0
BLOCK
  5
6F
330
6E
100
AcDbEntity
  8
0
100
AcDbBlockBegin
  2
SOLID_1
 70
     0
 71
     0
 10
0.0
 20
0.0
 30
0.0
  3
SOLID_1
  1

  0
LINE
  5
71
330
6E
100
AcDbEntity
  8
0
  6
CONTINUOUS
 62
     0
100
AcDbLine
 10
463.610741
 20
113.000082
 30
0.0
 11
463.610741
 21
105.000082
 31
0.0
  0
LINE
  5
72
330
6E
100
AcDbEntity
  8
0
  6
CONTINUOUS
 62
     0
100
AcDbLine
 10
463.610741
 20
105.000082
 30
0.0
 11
455.860741
 21
105.000082
 31
0.0
  0
LINE
  5
73
330
6E
100
AcDbEntity
  8
0
  6
CONTINUOUS
 62
     0
100
AcDbLine
 10
455.860741
 20
105.000082
 30
0.0
 11
455.860741
 21
113.000082
 31
0.0
  0
LINE
  5
74
330
6E
100
AcDbEntity
  8
0
  6
CONTINUOUS
 62
     0
100
AcDbLine
 10
455.860741
 20
113.000082
 30
0.0
 11
463.610741
 21
113.000082
 31
0.0
  0
HATCH
  5
75
330
6E
100
AcDbEntity
  8
0
  6
CONTINUOUS
 62
     0
100
AcDbHatch
 10
0.0
 20
0.0
 30
0.0
210
0.0
220
0.0
230
1.0
  2
ANSI_31
 70
     0
 71
     0
 91
        1
 92
        1
 93
        4
 72
     1
 10
463.6107008808178
 20
112.9997218900662
 11
463.6107008808178
 21
104.9997218900662
 72
     1
 10
463.6107008808178
 20
104.9997218900662
 11
455.8607008808178
 21
104.9997218900662
 72
     1
 10
455.8607008808178
 20
104.9997218900662
 11
455.8607008808178
 21
112.9997218900662
 72
     1
 10
455.8607008808178
 20
112.9997218900662
 11
463.6107008808178
 21
112.9997218900662
 97
        0
 75
     0
 76
     2
 52
315.0
 41
0.314961
 77
     0
 78
     1
 53
359.999999999107
 43
0.0
 44
0.0
 45
0.0000000003958848
 46
25.40002874627709
 79
     0
 98
        0
  0
ENDBLK
  5
70
330
6E
100
AcDbEntity
  8
0
100
AcDbBlockEnd
  0
BLOCK
  5
459
330
453
100
AcDbEntity
  8
0
100
AcDbBlockBegin
  2
LW_POLYLINE_1
 70
     0
 71
     0
 10
-87.000153
 20
200.000214
 30
0.0
  3
LW_POLYLINE_1
  1

  0
LINE
  5
454
330
453
100
AcDbEntity
  8
CARTOUCHE
  6
CONTINUOUS
 62
     0
100
AcDbLine
 10
-87.000153
 20
200.000214
 30
0.0
 11
199.999847
 21
200.000214
 31
0.0
  0
LINE
  5
455
330
453
100
AcDbEntity
  8
CARTOUCHE
  6
CONTINUOUS
 62
     0
100
AcDbLine
 10
199.999847
 20
200.000214
 30
0.0
 11
200.00003
 21
0.000177
 31
0.0
  0
LINE
  5
456
330
453
100
AcDbEntity
  8
CARTOUCHE
  6
CONTINUOUS
 62
     0
100
AcDbLine
 10
200.00003
 20
0.000177
 30
0.0
 11
-86.99997
 21
0.000177
 31
0.0
  0
LINE
  5
457
330
453
100
AcDbEntity
  8
CARTOUCHE
  6
CONTINUOUS
 62
     0
100
AcDbLine
 10
-86.99997
 20
0.000177
 30
0.0
 11
-87.000153
 21
199.999951
 31
0.0
  0
LINE
  5
458
330
453
100
AcDbEntity
  8
CARTOUCHE
  6
CONTINUOUS
 62
     0
100
AcDbLine
 10
-87.000153
 20
199.999951
 30
0.0
 11
-87.000153
 21
200.000214
 31
0.0
  0
ENDBLK
  5
45A
330
453
100
AcDbEntity
  8
0
100
AcDbBlockEnd
  0
BLOCK
  5
473
330
46E
100
AcDbEntity
  8
0
100
AcDbBlockBegin
  2
SE9
 70
     0
 71
     0
 10
-893.023412
 20
561.094796
 30
0.0
  3
SE9
  1

  0
LINE
  5
46F
330
46E
100
AcDbEntity
  8
DEFPOINTS
  6
CONTINUOUS
 62
     0
100
AcDbLine
 10
-58.479668
 20
125.910229
 30
0.0
 11
-59.759668
 21
119.403563
 31
0.0
  0
LINE
  5
470
330
46E
100
AcDbEntity
  8
DEFPOINTS
  6
CONTINUOUS
 62
     0
100
AcDbLine
 10
-59.759668
 20
119.403563
 30
0.0
 11
-57.093001
 21
116.096896
 31
0.0
  0
LINE
  5
471
330
46E
100
AcDbEntity
  8
DEFPOINTS
  6
CONTINUOUS
 62
     0
100
AcDbLine
 10
-57.093001
 20
116.096896
 30
0.0
 11
-59.013001
 21
111.723563
 31
0.0
  0
LINE
  5
472
330
46E
100
AcDbEntity
  8
DEFPOINTS
  6
CONTINUOUS
 62
     0
100
AcDbLine
 10
-59.013001
 20
111.723563
 30
0.0
 11
-57.413001
 21
106.496896
 31
0.0
  0
ENDBLK
  5
474
330
46E
100
AcDbEntity
  8
0
100
AcDbBlockEnd
  0
BLOCK
  5
4C3
330
476
100
AcDbEntity
  8
0
100
AcDbBlockBegin
  2
SE16
 70
     0
 71
     0
 10
-918.463412
 20
561.094796
 30
0.0
  3
SE16
  1

  0
LINE
  5
477
330
476
100
AcDbEntity
  8
DEFPOINTS
  6
CONTINUOUS
 62
     0
100
AcDbLine
 10
144.812202
 20
94.230229
 30
0.0
 11
144.598869
 21
93.483563
 31
0.0
  0
LINE
  5
478
330
476
100
AcDbEntity
  8
DEFPOINTS
  6
CONTINUOUS
 62
     0
100
AcDbLine
 10
144.598869
 20
93.483563
 30
0.0
 11
144.385536
 21
92.843563
 31
0.0
  0
LINE
  5
479
330
476
100
AcDbEntity
  8
DEFPOINTS
  6
CONTINUOUS
 62
     0
100
AcDbLine
 10
144.385536
 20
92.843563
 30
0.0
 11
144.065536
 21
92.096896
 31
0.0
  0
LINE
  5
47A
330
476
100
AcDbEntity
  8
DEFPOINTS
  6
CONTINUOUS
 62
     0
100
AcDbLine
 10
144.065536
 20
92.096896
 30
0.0
 11
143.745536
 21
91.456896
 31
0.0
  0
LINE
  5
47B
330
476
100
AcDbEntity
  8
DEFPOINTS
  6
CONTINUOUS
 62
     0
100
AcDbLine
 10
143.745536
 20
91.456896
 30
0.0
 11
143.532202
 21
90.710229
 31
0.0
  0
LINE
  5
47C
330
476
100
AcDbEntity
  8
DEFPOINTS
  6
CONTINUOUS
 62
     0
100
AcDbLine
 10
143.532202
 20
90.710229
 30
0.0
 11
143.212202
 21
90.070229
 31
0.0
  0
LINE
  5
47D
330
476
100
AcDbEntity
  8
DEFPOINTS
  6
CONTINUOUS
 62
     0
100
AcDbLine
 10
143.212202
 20
90.070229
 30
0.0
 11
142.892202
 21
89.430229
 31
0.0
  0
LINE
  5
47E
330
476
100
AcDbEntity
  8
DEFPOINTS
  6
CONTINUOUS
 62
     0
100
AcDbLine
 10
142.892202
 20
89.430229
 30
0.0
 11
142.572202
 21
88.790229
 31
0.0
  0
LINE
  5
47F
330
476
100
AcDbEntity
  8
DEFPOINTS
  6
CONTINUOUS
 62
     0
100
AcDbLine
 10
142.572202
 20
88.790229
 30
0.0
 11
142.252202
 21
88.150229
 31
0.0
  0
LINE
  5
480
330
476
100
AcDbEntity
  8
DEFPOINTS
  6
CONTINUOUS
 62
     0
100
AcDbLine
 10
142.252202
 20
88.150229
 30
0.0
 11
141.825536
 21
87.510229
 31
0.0
  0
LINE
  5
481
330
476
100
AcDbEntity
  8
DEFPOINTS
  6
CONTINUOUS
 62
     0
100
AcDbLine
 10
141.825536
 20
87.510229
 30
0.0
 11
141.505536
 21
86.870229
 31
0.0
  0
LINE
  5
482
330
476
100
AcDbEntity
  8
DEFPOINTS
  6
CONTINUOUS
 62
     0
100
AcDbLine
 10
141.505536
 20
86.870229
 30
0.0
 11
141.185536
 21
86.230229
 31
0.0
  0
LINE
  5
483
330
476
100
AcDbEntity
  8
DEFPOINTS
  6
CONTINUOUS
 62
     0
100
AcDbLine
 10
141.185536
 20
86.230229
 30
0.0
 11
140.758869
 21
85.590229
 31
0.0
  0
LINE
  5
484
330
476
100
AcDbEntity
  8
DEFPOINTS
  6
CONTINUOUS
 62
     0
100
AcDbLine
 10
140.758869
 20
85.590229
 30
0.0
 11
140.332202
 21
84.950229
 31
0.0
  0
LINE
  5
485
330
476
100
AcDbEntity
  8
DEFPOINTS
  6
CONTINUOUS
 62
     0
100
AcDbLine
 10
140.332202
 20
84.950229
 30
0.0
 11
140.012202
 21
84.310229
 31
0.0
  0
LINE
  5
486
330
476
100
AcDbEntity
  8
DEFPOINTS
  6
CONTINUOUS
 62
     0
100
AcDbLine
 10
140.012202
 20
84.310229
 30
0.0
 11
139.585536
 21
83.776896
 31
0.0
  0
LINE
  5
487
330
476
100
AcDbEntity
  8
DEFPOINTS
  6
CONTINUOUS
 62
     0
100
AcDbLine
 10
139.585536
 20
83.776896
 30
0.0
 11
139.158869
 21
83.136896
 31
0.0
  0
LINE
  5
488
330
476
100
AcDbEntity
  8
DEFPOINTS
  6
CONTINUOUS
 62
     0
100
AcDbLine
 10
139.158869
 20
83.136896
 30
0.0
 11
138.732202
 21
82.603563
 31
0.0
  0
LINE
  5
489
330
476
100
AcDbEntity
  8
DEFPOINTS
  6
CONTINUOUS
 62
     0
100
AcDbLine
 10
138.732202
 20
82.603563
 30
0.0
 11
138.305536
 21
81.963563
 31
0.0
  0
LINE
  5
48A
330
476
100
AcDbEntity
  8
DEFPOINTS
  6
CONTINUOUS
 62
     0
100
AcDbLine
 10
138.305536
 20
81.963563
 30
0.0
 11
137.878869
 21
81.323563
 31
0.0
  0
LINE
  5
48B
330
476
100
AcDbEntity
  8
DEFPOINTS
  6
CONTINUOUS
 62
     0
100
AcDbLine
 10
137.878869
 20
81.323563
 30
0.0
 11
137.345536
 21
80.790229
 31
0.0
  0
LINE
  5
48C
330
476
100
AcDbEntity
  8
DEFPOINTS
  6
CONTINUOUS
 62
     0
100
AcDbLine
 10
137.345536
 20
80.790229
 30
0.0
 11
136.918869
 21
80.256896
 31
0.0
  0
LINE
  5
48D
330
476
100
AcDbEntity
  8
DEFPOINTS
  6
CONTINUOUS
 62
     0
100
AcDbLine
 10
136.918869
 20
80.256896
 30
0.0
 11
136.492202
 21
79.723563
 31
0.0
  0
LINE
  5
48E
330
476
100
AcDbEntity
  8
DEFPOINTS
  6
CONTINUOUS
 62
     0
100
AcDbLine
 10
136.492202
 20
79.723563
 30
0.0
 11
135.958869
 21
79.083563
 31
0.0
  0
LINE
  5
48F
330
476
100
AcDbEntity
  8
DEFPOINTS
  6
CONTINUOUS
 62
     0
100
AcDbLine
 10
135.958869
 20
79.083563
 30
0.0
 11
135.532202
 21
78.550229
 31
0.0
  0
LINE
  5
490
330
476
100
AcDbEntity
  8
DEFPOINTS
  6
CONTINUOUS
 62
     0
100
AcDbLine
 10
135.532202
 20
78.550229
 30
0.0
 11
134.998869
 21
78.016896
 31
0.0
  0
LINE
  5
491
330
476
100
AcDbEntity
  8
DEFPOINTS
  6
CONTINUOUS
 62
     0
100
AcDbLine
 10
134.998869
 20
78.016896
 30
0.0
 11
134.465536
 21
77.483563
 31
0.0
  0
LINE
  5
492
330
476
100
AcDbEntity
  8
DEFPOINTS
  6
CONTINUOUS
 62
     0
100
AcDbLine
 10
134.465536
 20
77.483563
 30
0.0
 11
134.038869
 21
77.056896
 31
0.0
  0
LINE
  5
493
330
476
100
AcDbEntity
  8
DEFPOINTS
  6
CONTINUOUS
 62
     0
100
AcDbLine
 10
134.038869
 20
77.056896
 30
0.0
 11
133.505536
 21
76.523563
 31
0.0
  0
LINE
  5
494
330
476
100
AcDbEntity
  8
DEFPOINTS
  6
CONTINUOUS
 62
     0
100
AcDbLine
 10
133.505536
 20
76.523563
 30
0.0
 11
132.972202
 21
75.990229
 31
0.0
  0
LINE
  5
495
330
476
100
AcDbEntity
  8
DEFPOINTS
  6
CONTINUOUS
 62
     0
100
AcDbLine
 10
132.972202
 20
75.990229
 30
0.0
 11
132.438869
 21
75.563563
 31
0.0
  0
LINE
  5
496
330
476
100
AcDbEntity
  8
DEFPOINTS
  6
CONTINUOUS
 62
     0
100
AcDbLine
 10
132.438869
 20
75.563563
 30
0.0
 11
131.798869
 21
75.030229
 31
0.0
  0
LINE
  5
497
330
476
100
AcDbEntity
  8
DEFPOINTS
  6
CONTINUOUS
 62
     0
100
AcDbLine
 10
131.798869
 20
75.030229
 30
0.0
 11
131.265536
 21
74.603563
 31
0.0
  0
LINE
  5
498
330
476
100
AcDbEntity
  8
DEFPOINTS
  6
CONTINUOUS
 62
     0
100
AcDbLine
 10
131.265536
 20
74.603563
 30
0.0
 11
130.732202
 21
74.176896
 31
0.0
  0
LINE
  5
499
330
476
100
AcDbEntity
  8
DEFPOINTS
  6
CONTINUOUS
 62
     0
100
AcDbLine
 10
130.732202
 20
74.176896
 30
0.0
 11
130.198869
 21
73.643563
 31
0.0
  0
LINE
  5
49A
330
476
100
AcDbEntity
  8
DEFPOINTS
  6
CONTINUOUS
 62
     0
100
AcDbLine
 10
130.198869
 20
73.643563
 30
0.0
 11
129.558869
 21
73.216896
 31
0.0
  0
LINE
  5
49B
330
476
100
AcDbEntity
  8
DEFPOINTS
  6
CONTINUOUS
 62
     0
100
AcDbLine
 10
129.558869
 20
73.216896
 30
0.0
 11
129.025536
 21
72.790229
 31
0.0
  0
LINE
  5
49C
330
476
100
AcDbEntity
  8
DEFPOINTS
  6
CONTINUOUS
 62
     0
100
AcDbLine
 10
129.025536
 20
72.790229
 30
0.0
 11
128.385536
 21
72.256896
 31
0.0
  0
LINE
  5
49D
330
476
100
AcDbEntity
  8
DEFPOINTS
  6
CONTINUOUS
 62
     0
100
AcDbLine
 10
128.385536
 20
72.256896
 30
0.0
 11
127.745536
 21
71.936896
 31
0.0
  0
LINE
  5
49E
330
476
100
AcDbEntity
  8
DEFPOINTS
  6
CONTINUOUS
 62
     0
100
AcDbLine
 10
127.745536
 20
71.936896
 30
0.0
 11
127.212202
 21
71.510229
 31
0.0
  0
LINE
  5
49F
330
476
100
AcDbEntity
  8
DEFPOINTS
  6
CONTINUOUS
 62
     0
100
AcDbLine
 10
127.212202
 20
71.510229
 30
0.0
 11
126.572202
 21
71.083563
 31
0.0
  0
LINE
  5
4A0
330
476
100
AcDbEntity
  8
DEFPOINTS
  6
CONTINUOUS
 62
     0
100
AcDbLine
 10
126.572202
 20
71.083563
 30
0.0
 11
125.932202
 21
70.656896
 31
0.0
  0
LINE
  5
4A1
330
476
100
AcDbEntity
  8
DEFPOINTS
  6
CONTINUOUS
 62
     0
100
AcDbLine
 10
125.932202
 20
70.656896
 30
0.0
 11
125.292202
 21
70.336896
 31
0.0
  0
LINE
  5
4A2
330
476
100
AcDbEntity
  8
DEFPOINTS
  6
CONTINUOUS
 62
     0
100
AcDbLine
 10
125.292202
 20
70.336896
 30
0.0
 11
124.758869
 21
70.016896
 31
0.0
  0
LINE
  5
4A3
330
476
100
AcDbEntity
  8
DEFPOINTS
  6
CONTINUOUS
 62
     0
100
AcDbLine
 10
124.758869
 20
70.016896
 30
0.0
 11
124.012202
 21
69.590229
 31
0.0
  0
LINE
  5
4A4
330
476
100
AcDbEntity
  8
DEFPOINTS
  6
CONTINUOUS
 62
     0
100
AcDbLine
 10
124.012202
 20
69.590229
 30
0.0
 11
123.372202
 21
69.270229
 31
0.0
  0
LINE
  5
4A5
330
476
100
AcDbEntity
  8
DEFPOINTS
  6
CONTINUOUS
 62
     0
100
AcDbLine
 10
123.372202
 20
69.270229
 30
0.0
 11
122.838869
 21
68.950229
 31
0.0
  0
LINE
  5
4A6
330
476
100
AcDbEntity
  8
DEFPOINTS
  6
CONTINUOUS
 62
     0
100
AcDbLine
 10
122.838869
 20
68.950229
 30
0.0
 11
122.092202
 21
68.630229
 31
0.0
  0
LINE
  5
4A7
330
476
100
AcDbEntity
  8
DEFPOINTS
  6
CONTINUOUS
 62
     0
100
AcDbLine
 10
122.092202
 20
68.630229
 30
0.0
 11
121.452202
 21
68.310229
 31
0.0
  0
LINE
  5
4A8
330
476
100
AcDbEntity
  8
DEFPOINTS
  6
CONTINUOUS
 62
     0
100
AcDbLine
 10
121.452202
 20
68.310229
 30
0.0
 11
120.812202
 21
67.990229
 31
0.0
  0
LINE
  5
4A9
330
476
100
AcDbEntity
  8
DEFPOINTS
  6
CONTINUOUS
 62
     0
100
AcDbLine
 10
120.812202
 20
67.990229
 30
0.0
 11
120.065536
 21
67.670229
 31
0.0
  0
LINE
  5
4AA
330
476
100
AcDbEntity
  8
DEFPOINTS
  6
CONTINUOUS
 62
     0
100
AcDbLine
 10
120.065536
 20
67.670229
 30
0.0
 11
119.425536
 21
67.350229
 31
0.0
  0
LINE
  5
4AB
330
476
100
AcDbEntity
  8
DEFPOINTS
  6
CONTINUOUS
 62
     0
100
AcDbLine
 10
119.425536
 20
67.350229
 30
0.0
 11
118.785536
 21
67.136896
 31
0.0
  0
LINE
  5
4AC
330
476
100
AcDbEntity
  8
DEFPOINTS
  6
CONTINUOUS
 62
     0
100
AcDbLine
 10
118.785536
 20
67.136896
 30
0.0
 11
118.145536
 21
66.816896
 31
0.0
  0
LINE
  5
4AD
330
476
100
AcDbEntity
  8
DEFPOINTS
  6
CONTINUOUS
 62
     0
100
AcDbLine
 10
118.145536
 20
66.816896
 30
0.0
 11
117.398869
 21
66.603563
 31
0.0
  0
LINE
  5
4AE
330
476
100
AcDbEntity
  8
DEFPOINTS
  6
CONTINUOUS
 62
     0
100
AcDbLine
 10
117.398869
 20
66.603563
 30
0.0
 11
116.758869
 21
66.390229
 31
0.0
  0
LINE
  5
4AF
330
476
100
AcDbEntity
  8
DEFPOINTS
  6
CONTINUOUS
 62
     0
100
AcDbLine
 10
116.758869
 20
66.390229
 30
0.0
 11
116.012202
 21
66.176896
 31
0.0
  0
LINE
  5
4B0
330
476
100
AcDbEntity
  8
DEFPOINTS
  6
CONTINUOUS
 62
     0
100
AcDbLine
 10
116.012202
 20
66.176896
 30
0.0
 11
115.372202
 21
65.963563
 31
0.0
  0
LINE
  5
4B1
330
476
100
AcDbEntity
  8
DEFPOINTS
  6
CONTINUOUS
 62
     0
100
AcDbLine
 10
115.372202
 20
65.963563
 30
0.0
 11
114.625536
 21
65.643563
 31
0.0
  0
LINE
  5
4B2
330
476
100
AcDbEntity
  8
DEFPOINTS
  6
CONTINUOUS
 62
     0
100
AcDbLine
 10
114.625536
 20
65.643563
 30
0.0
 11
113.878869
 21
65.536896
 31
0.0
  0
LINE
  5
4B3
330
476
100
AcDbEntity
  8
DEFPOINTS
  6
CONTINUOUS
 62
     0
100
AcDbLine
 10
113.878869
 20
65.536896
 30
0.0
 11
113.238869
 21
65.323563
 31
0.0
  0
LINE
  5
4B4
330
476
100
AcDbEntity
  8
DEFPOINTS
  6
CONTINUOUS
 62
     0
100
AcDbLine
 10
113.238869
 20
65.323563
 30
0.0
 11
112.492202
 21
65.110229
 31
0.0
  0
LINE
  5
4B5
330
476
100
AcDbEntity
  8
DEFPOINTS
  6
CONTINUOUS
 62
     0
100
AcDbLine
 10
112.492202
 20
65.110229
 30
0.0
 11
111.852202
 21
65.003563
 31
0.0
  0
LINE
  5
4B6
330
476
100
AcDbEntity
  8
DEFPOINTS
  6
CONTINUOUS
 62
     0
100
AcDbLine
 10
111.852202
 20
65.003563
 30
0.0
 11
110.998869
 21
64.896896
 31
0.0
  0
LINE
  5
4B7
330
476
100
AcDbEntity
  8
DEFPOINTS
  6
CONTINUOUS
 62
     0
100
AcDbLine
 10
110.998869
 20
64.896896
 30
0.0
 11
110.358869
 21
64.683563
 31
0.0
  0
LINE
  5
4B8
330
476
100
AcDbEntity
  8
DEFPOINTS
  6
CONTINUOUS
 62
     0
100
AcDbLine
 10
110.358869
 20
64.683563
 30
0.0
 11
109.612202
 21
64.576896
 31
0.0
  0
LINE
  5
4B9
330
476
100
AcDbEntity
  8
DEFPOINTS
  6
CONTINUOUS
 62
     0
100
AcDbLine
 10
109.612202
 20
64.576896
 30
0.0
 11
108.865536
 21
64.470229
 31
0.0
  0
LINE
  5
4BA
330
476
100
AcDbEntity
  8
DEFPOINTS
  6
CONTINUOUS
 62
     0
100
AcDbLine
 10
108.865536
 20
64.470229
 30
0.0
 11
108.225536
 21
64.363563
 31
0.0
  0
LINE
  5
4BB
330
476
100
AcDbEntity
  8
DEFPOINTS
  6
CONTINUOUS
 62
     0
100
AcDbLine
 10
108.225536
 20
64.363563
 30
0.0
 11
107.478869
 21
64.256896
 31
0.0
  0
LINE
  5
4BC
330
476
100
AcDbEntity
  8
DEFPOINTS
  6
CONTINUOUS
 62
     0
100
AcDbLine
 10
107.478869
 20
64.256896
 30
0.0
 11
106.732202
 21
64.150229
 31
0.0
  0
LINE
  5
4BD
330
476
100
AcDbEntity
  8
DEFPOINTS
  6
CONTINUOUS
 62
     0
100
AcDbLine
 10
106.732202
 20
64.150229
 30
0.0
 11
105.985536
 21
64.043563
 31
0.0
  0
LINE
  5
4BE
330
476
100
AcDbEntity
  8
DEFPOINTS
  6
CONTINUOUS
 62
     0
100
AcDbLine
 10
105.985536
 20
64.043563
 30
0.0
 11
105.238869
 21
64.043563
 31
0.0
  0
LINE
  5
4BF
330
476
100
AcDbEntity
  8
DEFPOINTS
  6
CONTINUOUS
 62
     0
100
AcDbLine
 10
105.238869
 20
64.043563
 30
0.0
 11
104.492202
 21
64.043563
 31
0.0
  0
LINE
  5
4C0
330
476
100
AcDbEntity
  8
DEFPOINTS
  6
CONTINUOUS
 62
     0
100
AcDbLine
 10
104.492202
 20
64.043563
 30
0.0
 11
103.852202
 21
64.043563
 31
0.0
  0
LINE
  5
4C1
330
476
100
AcDbEntity
  8
DEFPOINTS
  6
CONTINUOUS
 62
     0
100
AcDbLine
 10
103.852202
 20
64.043563
 30
0.0
 11
102.998869
 21
63.936896
 31
0.0
  0
LINE
  5
4C2
330
476
100
AcDbEntity
  8
DEFPOINTS
  6
CONTINUOUS
 62
     0
100
AcDbLine
 10
102.998869
 20
63.936896
 30
0.0
 11
103.105536
 21
63.936896
 31
0.0
  0
ENDBLK
  5
4C4
330
476
100
AcDbEntity
  8
0
100
AcDbBlockEnd
  0
BLOCK
  5
4C8
330
4C6
100
AcDbEntity
  8
0
100
AcDbBlockBegin
  2
SE17
 70
     0
 71
     0
 10
-918.463412
 20
561.094796
 30
0.0
  3
SE17
  1

  0
LINE
  5
4C7
330
4C6
100
AcDbEntity
  8
DEFPOINTS
  6
CONTINUOUS
 62
     0
100
AcDbLine
 10
90.412202
 20
170.816896
 30
0.0
 11
90.412202
 21
61.590229
 31
0.0
  0
ENDBLK
  5
4C9
330
4C6
100
AcDbEntity
  8
0
100
AcDbBlockEnd
  0
BLOCK
  5
4CD
330
4CB
100
AcDbEntity
  8
0
100
AcDbBlockBegin
  2
SE18
 70
     0
 71
     0
 10
-918.463412
 20
561.094796
 30
0.0
  3
SE18
  1

  0
LINE
  5
4CC
330
4CB
100
AcDbEntity
  8
DEFPOINTS
  6
CONTINUOUS
 62
     0
100
AcDbLine
 10
100.545536
 20
170.816896
 30
0.0
 11
100.545536
 21
61.590229
 31
0.0
  0
ENDBLK
  5
4CE
330
4CB
100
AcDbEntity
  8
0
100
AcDbBlockEnd
  0
BLOCK
  5
4E2
330
4D0
100
AcDbEntity
  8
0
100
AcDbBlockBegin
  2
SE21
 70
     0
 71
     0
 10
-918.463412
 20
561.094796
 30
0.0
  3
SE21
  1

  0
LINE
  5
4D1
330
4D0
100
AcDbEntity
  8
DEFPOINTS
  6
CONTINUOUS
 62
     0
100
AcDbLine
 10
69.078869
 20
65.963563
 30
0.0
 11
68.225536
 21
66.070229
 31
0.0
  0
LINE
  5
4D2
330
4D0
100
AcDbEntity
  8
DEFPOINTS
  6
CONTINUOUS
 62
     0
100
AcDbLine
 10
68.225536
 20
66.070229
 30
0.0
 11
67.478869
 21
66.283563
 31
0.0
  0
LINE
  5
4D3
330
4D0
100
AcDbEntity
  8
DEFPOINTS
  6
CONTINUOUS
 62
     0
100
AcDbLine
 10
67.478869
 20
66.283563
 30
0.0
 11
66.732202
 21
66.496896
 31
0.0
  0
LINE
  5
4D4
330
4D0
100
AcDbEntity
  8
DEFPOINTS
  6
CONTINUOUS
 62
     0
100
AcDbLine
 10
66.732202
 20
66.496896
 30
0.0
 11
65.985536
 21
66.603563
 31
0.0
  0
LINE
  5
4D5
330
4D0
100
AcDbEntity
  8
DEFPOINTS
  6
CONTINUOUS
 62
     0
100
AcDbLine
 10
65.985536
 20
66.603563
 30
0.0
 11
65.238869
 21
66.816896
 31
0.0
  0
LINE
  5
4D6
330
4D0
100
AcDbEntity
  8
DEFPOINTS
  6
CONTINUOUS
 62
     0
100
AcDbLine
 10
65.238869
 20
66.816896
 30
0.0
 11
64.385536
 21
67.030229
 31
0.0
  0
LINE
  5
4D7
330
4D0
100
AcDbEntity
  8
DEFPOINTS
  6
CONTINUOUS
 62
     0
100
AcDbLine
 10
64.385536
 20
67.030229
 30
0.0
 11
63.638869
 21
67.243563
 31
0.0
  0
LINE
  5
4D8
330
4D0
100
AcDbEntity
  8
DEFPOINTS
  6
CONTINUOUS
 62
     0
100
AcDbLine
 10
63.638869
 20
67.243563
 30
0.0
 11
62.892202
 21
67.456896
 31
0.0
  0
LINE
  5
4D9
330
4D0
100
AcDbEntity
  8
DEFPOINTS
  6
CONTINUOUS
 62
     0
100
AcDbLine
 10
62.892202
 20
67.456896
 30
0.0
 11
62.145536
 21
67.670229
 31
0.0
  0
LINE
  5
4DA
330
4D0
100
AcDbEntity
  8
DEFPOINTS
  6
CONTINUOUS
 62
     0
100
AcDbLine
 10
62.145536
 20
67.670229
 30
0.0
 11
61.398869
 21
67.883563
 31
0.0
  0
LINE
  5
4DB
330
4D0
100
AcDbEntity
  8
DEFPOINTS
  6
CONTINUOUS
 62
     0
100
AcDbLine
 10
61.398869
 20
67.883563
 30
0.0
 11
60.652202
 21
68.203563
 31
0.0
  0
LINE
  5
4DC
330
4D0
100
AcDbEntity
  8
DEFPOINTS
  6
CONTINUOUS
 62
     0
100
AcDbLine
 10
60.652202
 20
68.203563
 30
0.0
 11
59.905536
 21
68.416896
 31
0.0
  0
LINE
  5
4DD
330
4D0
100
AcDbEntity
  8
DEFPOINTS
  6
CONTINUOUS
 62
     0
100
AcDbLine
 10
59.905536
 20
68.416896
 30
0.0
 11
59.158869
 21
68.736896
 31
0.0
  0
LINE
  5
4DE
330
4D0
100
AcDbEntity
  8
DEFPOINTS
  6
CONTINUOUS
 62
     0
100
AcDbLine
 10
59.158869
 20
68.736896
 30
0.0
 11
58.412202
 21
68.950229
 31
0.0
  0
LINE
  5
4DF
330
4D0
100
AcDbEntity
  8
DEFPOINTS
  6
CONTINUOUS
 62
     0
100
AcDbLine
 10
58.412202
 20
68.950229
 30
0.0
 11
57.665536
 21
69.270229
 31
0.0
  0
LINE
  5
4E0
330
4D0
100
AcDbEntity
  8
DEFPOINTS
  6
CONTINUOUS
 62
     0
100
AcDbLine
 10
57.665536
 20
69.270229
 30
0.0
 11
56.918869
 21
69.590229
 31
0.0
  0
LINE
  5
4E1
330
4D0
100
AcDbEntity
  8
DEFPOINTS
  6
CONTINUOUS
 62
     0
100
AcDbLine
 10
56.918869
 20
69.590229
 30
0.0
 11
56.172202
 21
70.016896
 31
0.0
  0
ENDBLK
  5
4E3
330
4D0
100
AcDbEntity
  8
0
100
AcDbBlockEnd
  0
BLOCK
  5
4E7
330
4E5
100
AcDbEntity
  8
0
100
AcDbBlockBegin
  2
SE22
 70
     0
 71
     0
 10
-918.463412
 20
561.094796
 30
0.0
  3
SE22
  1

  0
LINE
  5
4E6
330
4E5
100
AcDbEntity
  8
DEFPOINTS
  6
CONTINUOUS
 62
     0
100
AcDbLine
 10
90.412202
 20
61.590229
 30
0.0
 11
87.958869
 21
62.656896
 31
0.0
  0
ENDBLK
  5
4E8
330
4E5
100
AcDbEntity
  8
0
100
AcDbBlockEnd
  0
BLOCK
  5
4F9
330
4EA
100
AcDbEntity
  8
0
100
AcDbBlockBegin
  2
SE23
 70
     0
 71
     0
 10
-918.463412
 20
561.094796
 30
0.0
  3
SE23
  1

  0
LINE
  5
4EB
330
4EA
100
AcDbEntity
  8
DEFPOINTS
  6
CONTINUOUS
 62
     0
100
AcDbLine
 10
87.958869
 20
63.936896
 30
0.0
 11
86.572202
 21
64.043563
 31
0.0
  0
LINE
  5
4EC
330
4EA
100
AcDbEntity
  8
DEFPOINTS
  6
CONTINUOUS
 62
     0
100
AcDbLine
 10
86.572202
 20
64.043563
 30
0.0
 11
85.185536
 21
64.043563
 31
0.0
  0
LINE
  5
4ED
330
4EA
100
AcDbEntity
  8
DEFPOINTS
  6
CONTINUOUS
 62
     0
100
AcDbLine
 10
85.185536
 20
64.043563
 30
0.0
 11
83.798869
 21
64.150229
 31
0.0
  0
LINE
  5
4EE
330
4EA
100
AcDbEntity
  8
DEFPOINTS
  6
CONTINUOUS
 62
     0
100
AcDbLine
 10
83.798869
 20
64.150229
 30
0.0
 11
82.518869
 21
64.363563
 31
0.0
  0
LINE
  5
4EF
330
4EA
100
AcDbEntity
  8
DEFPOINTS
  6
CONTINUOUS
 62
     0
100
AcDbLine
 10
82.518869
 20
64.363563
 30
0.0
 11
81.132202
 21
64.363563
 31
0.0
  0
LINE
  5
4F0
330
4EA
100
AcDbEntity
  8
DEFPOINTS
  6
CONTINUOUS
 62
     0
100
AcDbLine
 10
81.132202
 20
64.363563
 30
0.0
 11
79.852202
 21
64.576896
 31
0.0
  0
LINE
  5
4F1
330
4EA
100
AcDbEntity
  8
DEFPOINTS
  6
CONTINUOUS
 62
     0
100
AcDbLine
 10
79.852202
 20
64.576896
 30
0.0
 11
78.465536
 21
64.683563
 31
0.0
  0
LINE
  5
4F2
330
4EA
100
AcDbEntity
  8
DEFPOINTS
  6
CONTINUOUS
 62
     0
100
AcDbLine
 10
78.465536
 20
64.683563
 30
0.0
 11
77.078869
 21
64.896896
 31
0.0
  0
LINE
  5
4F3
330
4EA
100
AcDbEntity
  8
DEFPOINTS
  6
CONTINUOUS
 62
     0
100
AcDbLine
 10
77.078869
 20
64.896896
 30
0.0
 11
75.798869
 21
65.003563
 31
0.0
  0
LINE
  5
4F4
330
4EA
100
AcDbEntity
  8
DEFPOINTS
  6
CONTINUOUS
 62
     0
100
AcDbLine
 10
75.798869
 20
65.003563
 30
0.0
 11
74.412202
 21
65.110229
 31
0.0
  0
LINE
  5
4F5
330
4EA
100
AcDbEntity
  8
DEFPOINTS
  6
CONTINUOUS
 62
     0
100
AcDbLine
 10
74.412202
 20
65.110229
 30
0.0
 11
73.132202
 21
65.323563
 31
0.0
  0
LINE
  5
4F6
330
4EA
100
AcDbEntity
  8
DEFPOINTS
  6
CONTINUOUS
 62
     0
100
AcDbLine
 10
73.132202
 20
65.323563
 30
0.0
 11
71.745536
 21
65.536896
 31
0.0
  0
LINE
  5
4F7
330
4EA
100
AcDbEntity
  8
DEFPOINTS
  6
CONTINUOUS
 62
     0
100
AcDbLine
 10
71.745536
 20
65.536896
 30
0.0
 11
70.358869
 21
65.750229
 31
0.0
  0
LINE
  5
4F8
330
4EA
100
AcDbEntity
  8
DEFPOINTS
  6
CONTINUOUS
 62
     0
100
AcDbLine
 10
70.358869
 20
65.750229
 30
0.0
 11
69.078869
 21
65.963563
 31
0.0
  0
ENDBLK
  5
4FA
330
4EA
100
AcDbEntity
  8
0
100
AcDbBlockEnd
  0
BLOCK
  5
4FE
330
4FC
100
AcDbEntity
  8
0
100
AcDbBlockBegin
  2
SE24
 70
     0
 71
     0
 10
-918.463412
 20
561.094796
 30
0.0
  3
SE24
  1

  0
LINE
  5
4FD
330
4FC
100
AcDbEntity
  8
DEFPOINTS
  6
CONTINUOUS
 62
     0
100
AcDbLine
 10
100.545536
 20
61.590229
 30
0.0
 11
95.532202
 21
61.270229
 31
0.0
  0
ENDBLK
  5
4FF
330
4FC
100
AcDbEntity
  8
0
100
AcDbBlockEnd
  0
BLOCK
  5
503
330
501
100
AcDbEntity
  8
0
100
AcDbBlockBegin
  2
SE25
 70
     0
 71
     0
 10
-920.916745
 20
561.201462
 30
0.0
  3
SE25
  1

  0
LINE
  5
502
330
501
100
AcDbEntity
  8
DEFPOINTS
  6
CONTINUOUS
 62
     0
100
AcDbLine
 10
87.958869
 20
62.656896
 30
0.0
 11
87.958869
 21
63.936896
 31
0.0
  0
ENDBLK
  5
504
330
501
100
AcDbEntity
  8
0
100
AcDbBlockEnd
  0
BLOCK
  5
508
330
506
100
AcDbEntity
  8
0
100
AcDbBlockBegin
  2
SE27
 70
     0
 71
     0
 10
-918.463412
 20
561.094796
 30
0.0
  3
SE27
  1

  0
LINE
  5
507
330
506
100
AcDbEntity
  8
DEFPOINTS
  6
CONTINUOUS
 62
     0
100
AcDbLine
 10
90.412202
 20
61.590229
 30
0.0
 11
95.532202
 21
61.270229
 31
0.0
  0
ENDBLK
  5
509
330
506
100
AcDbEntity
  8
0
100
AcDbBlockEnd
  0
BLOCK
  5
50D
330
50B
100
AcDbEntity
  8
0
100
AcDbBlockBegin
  2
SE28
 70
     0
 71
     0
 10
-916.010079
 20
561.201462
 30
0.0
  3
SE28
  1

  0
LINE
  5
50C
330
50B
100
AcDbEntity
  8
DEFPOINTS
  6
CONTINUOUS
 62
     0
100
AcDbLine
 10
102.998869
 20
62.656896
 30
0.0
 11
102.998869
 21
63.936896
 31
0.0
  0
ENDBLK
  5
50E
330
50B
100
AcDbEntity
  8
0
100
AcDbBlockEnd
  0
BLOCK
  5
512
330
510
100
AcDbEntity
  8
0
100
AcDbBlockBegin
  2
SE30
 70
     0
 71
     0
 10
-918.463412
 20
561.094796
 30
0.0
  3
SE30
  1

  0
LINE
  5
511
330
510
100
AcDbEntity
  8
DEFPOINTS
  6
CONTINUOUS
 62
     0
100
AcDbLine
 10
100.545536
 20
61.590229
 30
0.0
 11
102.998869
 21
62.656896
 31
0.0
  0
ENDBLK
  5
513
330
510
100
AcDbEntity
  8
0
100
AcDbBlockEnd
  0
BLOCK
  5
527
330
515
100
AcDbEntity
  8
0
100
AcDbBlockBegin
  2
SE31
 70
     0
 71
     0
 10
-918.463412
 20
561.094796
 30
0.0
  3
SE31
  1

  0
LINE
  5
516
330
515
100
AcDbEntity
  8
DEFPOINTS
  6
CONTINUOUS
 62
     0
100
AcDbLine
 10
69.078869
 20
166.443563
 30
0.0
 11
68.225536
 21
166.336896
 31
0.0
  0
LINE
  5
517
330
515
100
AcDbEntity
  8
DEFPOINTS
  6
CONTINUOUS
 62
     0
100
AcDbLine
 10
68.225536
 20
166.336896
 30
0.0
 11
67.478869
 21
166.123563
 31
0.0
  0
LINE
  5
518
330
515
100
AcDbEntity
  8
DEFPOINTS
  6
CONTINUOUS
 62
     0
100
AcDbLine
 10
67.478869
 20
166.123563
 30
0.0
 11
66.732202
 21
166.016896
 31
0.0
  0
LINE
  5
519
330
515
100
AcDbEntity
  8
DEFPOINTS
  6
CONTINUOUS
 62
     0
100
AcDbLine
 10
66.732202
 20
166.016896
 30
0.0
 11
65.985536
 21
165.803563
 31
0.0
  0
LINE
  5
51A
330
515
100
AcDbEntity
  8
DEFPOINTS
  6
CONTINUOUS
 62
     0
100
AcDbLine
 10
65.985536
 20
165.803563
 30
0.0
 11
65.238869
 21
165.590229
 31
0.0
  0
LINE
  5
51B
330
515
100
AcDbEntity
  8
DEFPOINTS
  6
CONTINUOUS
 62
     0
100
AcDbLine
 10
65.238869
 20
165.590229
 30
0.0
 11
64.385536
 21
165.376896
 31
0.0
  0
LINE
  5
51C
330
515
100
AcDbEntity
  8
DEFPOINTS
  6
CONTINUOUS
 62
     0
100
AcDbLine
 10
64.385536
 20
165.376896
 30
0.0
 11
63.638869
 21
165.270229
 31
0.0
  0
LINE
  5
51D
330
515
100
AcDbEntity
  8
DEFPOINTS
  6
CONTINUOUS
 62
     0
100
AcDbLine
 10
63.638869
 20
165.270229
 30
0.0
 11
62.892202
 21
164.950229
 31
0.0
  0
LINE
  5
51E
330
515
100
AcDbEntity
  8
DEFPOINTS
  6
CONTINUOUS
 62
     0
100
AcDbLine
 10
62.892202
 20
164.950229
 30
0.0
 11
62.145536
 21
164.736896
 31
0.0
  0
LINE
  5
51F
330
515
100
AcDbEntity
  8
DEFPOINTS
  6
CONTINUOUS
 62
     0
100
AcDbLine
 10
62.145536
 20
164.736896
 30
0.0
 11
61.398869
 21
164.416896
 31
0.0
  0
LINE
  5
520
330
515
100
AcDbEntity
  8
DEFPOINTS
  6
CONTINUOUS
 62
     0
100
AcDbLine
 10
61.398869
 20
164.416896
 30
0.0
 11
60.652202
 21
164.203563
 31
0.0
  0
LINE
  5
521
330
515
100
AcDbEntity
  8
DEFPOINTS
  6
CONTINUOUS
 62
     0
100
AcDbLine
 10
60.652202
 20
164.203563
 30
0.0
 11
59.905536
 21
163.883563
 31
0.0
  0
LINE
  5
522
330
515
100
AcDbEntity
  8
DEFPOINTS
  6
CONTINUOUS
 62
     0
100
AcDbLine
 10
59.905536
 20
163.883563
 30
0.0
 11
59.158869
 21
163.670229
 31
0.0
  0
LINE
  5
523
330
515
100
AcDbEntity
  8
DEFPOINTS
  6
CONTINUOUS
 62
     0
100
AcDbLine
 10
59.158869
 20
163.670229
 30
0.0
 11
58.412202
 21
163.350229
 31
0.0
  0
LINE
  5
524
330
515
100
AcDbEntity
  8
DEFPOINTS
  6
CONTINUOUS
 62
     0
100
AcDbLine
 10
58.412202
 20
163.350229
 30
0.0
 11
57.665536
 21
163.030229
 31
0.0
  0
LINE
  5
525
330
515
100
AcDbEntity
  8
DEFPOINTS
  6
CONTINUOUS
 62
     0
100
AcDbLine
 10
57.665536
 20
163.030229
 30
0.0
 11
56.918869
 21
162.816896
 31
0.0
  0
LINE
  5
526
330
515
100
AcDbEntity
  8
DEFPOINTS
  6
CONTINUOUS
 62
     0
100
AcDbLine
 10
56.918869
 20
162.816896
 30
0.0
 11
56.172202
 21
162.496896
 31
0.0
  0
ENDBLK
  5
528
330
515
100
AcDbEntity
  8
0
100
AcDbBlockEnd
  0
BLOCK
  5
574
330
52A
100
AcDbEntity
  8
0
100
AcDbBlockBegin
  2
SE34
 70
     0
 71
     0
 10
-918.463412
 20
561.094796
 30
0.0
  3
SE34
  1

  0
LINE
  5
52B
330
52A
100
AcDbEntity
  8
DEFPOINTS
  6
CONTINUOUS
 62
     0
100
AcDbLine
 10
144.812202
 20
138.283563
 30
0.0
 11
144.598869
 21
138.923563
 31
0.0
  0
LINE
  5
52C
330
52A
100
AcDbEntity
  8
DEFPOINTS
  6
CONTINUOUS
 62
     0
100
AcDbLine
 10
144.598869
 20
138.923563
 30
0.0
 11
144.385536
 21
139.670229
 31
0.0
  0
LINE
  5
52D
330
52A
100
AcDbEntity
  8
DEFPOINTS
  6
CONTINUOUS
 62
     0
100
AcDbLine
 10
144.385536
 20
139.670229
 30
0.0
 11
144.065536
 21
140.310229
 31
0.0
  0
LINE
  5
52E
330
52A
100
AcDbEntity
  8
DEFPOINTS
  6
CONTINUOUS
 62
     0
100
AcDbLine
 10
144.065536
 20
140.310229
 30
0.0
 11
143.745536
 21
140.950229
 31
0.0
  0
LINE
  5
52F
330
52A
100
AcDbEntity
  8
DEFPOINTS
  6
CONTINUOUS
 62
     0
100
AcDbLine
 10
143.745536
 20
140.950229
 30
0.0
 11
143.532202
 21
141.696896
 31
0.0
  0
LINE
  5
530
330
52A
100
AcDbEntity
  8
DEFPOINTS
  6
CONTINUOUS
 62
     0
100
AcDbLine
 10
143.532202
 20
141.696896
 30
0.0
 11
143.105536
 21
142.336896
 31
0.0
  0
LINE
  5
531
330
52A
100
AcDbEntity
  8
DEFPOINTS
  6
CONTINUOUS
 62
     0
100
AcDbLine
 10
143.105536
 20
142.336896
 30
0.0
 11
142.785536
 21
142.976896
 31
0.0
  0
LINE
  5
532
330
52A
100
AcDbEntity
  8
DEFPOINTS
  6
CONTINUOUS
 62
     0
100
AcDbLine
 10
142.785536
 20
142.976896
 30
0.0
 11
142.572202
 21
143.616896
 31
0.0
  0
LINE
  5
533
330
52A
100
AcDbEntity
  8
DEFPOINTS
  6
CONTINUOUS
 62
     0
100
AcDbLine
 10
142.572202
 20
143.616896
 30
0.0
 11
142.252202
 21
144.256896
 31
0.0
  0
LINE
  5
534
330
52A
100
AcDbEntity
  8
DEFPOINTS
  6
CONTINUOUS
 62
     0
100
AcDbLine
 10
142.252202
 20
144.256896
 30
0.0
 11
141.825536
 21
145.003563
 31
0.0
  0
LINE
  5
535
330
52A
100
AcDbEntity
  8
DEFPOINTS
  6
CONTINUOUS
 62
     0
100
AcDbLine
 10
141.825536
 20
145.003563
 30
0.0
 11
141.505536
 21
145.536896
 31
0.0
  0
LINE
  5
536
330
52A
100
AcDbEntity
  8
DEFPOINTS
  6
CONTINUOUS
 62
     0
100
AcDbLine
 10
141.505536
 20
145.536896
 30
0.0
 11
141.185536
 21
146.176896
 31
0.0
  0
LINE
  5
537
330
52A
100
AcDbEntity
  8
DEFPOINTS
  6
CONTINUOUS
 62
     0
100
AcDbLine
 10
141.185536
 20
146.176896
 30
0.0
 11
140.758869
 21
146.923563
 31
0.0
  0
LINE
  5
538
330
52A
100
AcDbEntity
  8
DEFPOINTS
  6
CONTINUOUS
 62
     0
100
AcDbLine
 10
140.758869
 20
146.923563
 30
0.0
 11
140.332202
 21
147.456896
 31
0.0
  0
LINE
  5
539
330
52A
100
AcDbEntity
  8
DEFPOINTS
  6
CONTINUOUS
 62
     0
100
AcDbLine
 10
140.332202
 20
147.456896
 30
0.0
 11
139.905536
 21
148.096896
 31
0.0
  0
LINE
  5
53A
330
52A
100
AcDbEntity
  8
DEFPOINTS
  6
CONTINUOUS
 62
     0
100
AcDbLine
 10
139.905536
 20
148.096896
 30
0.0
 11
139.478869
 21
148.736896
 31
0.0
  0
LINE
  5
53B
330
52A
100
AcDbEntity
  8
DEFPOINTS
  6
CONTINUOUS
 62
     0
100
AcDbLine
 10
139.478869
 20
148.736896
 30
0.0
 11
139.158869
 21
149.376896
 31
0.0
  0
LINE
  5
53C
330
52A
100
AcDbEntity
  8
DEFPOINTS
  6
CONTINUOUS
 62
     0
100
AcDbLine
 10
139.158869
 20
149.376896
 30
0.0
 11
138.732202
 21
149.910229
 31
0.0
  0
LINE
  5
53D
330
52A
100
AcDbEntity
  8
DEFPOINTS
  6
CONTINUOUS
 62
     0
100
AcDbLine
 10
138.732202
 20
149.910229
 30
0.0
 11
138.198869
 21
150.443563
 31
0.0
  0
LINE
  5
53E
330
52A
100
AcDbEntity
  8
DEFPOINTS
  6
CONTINUOUS
 62
     0
100
AcDbLine
 10
138.198869
 20
150.443563
 30
0.0
 11
137.878869
 21
151.083563
 31
0.0
  0
LINE
  5
53F
330
52A
100
AcDbEntity
  8
DEFPOINTS
  6
CONTINUOUS
 62
     0
100
AcDbLine
 10
137.878869
 20
151.083563
 30
0.0
 11
137.345536
 21
151.616896
 31
0.0
  0
LINE
  5
540
330
52A
100
AcDbEntity
  8
DEFPOINTS
  6
CONTINUOUS
 62
     0
100
AcDbLine
 10
137.345536
 20
151.616896
 30
0.0
 11
136.812202
 21
152.150229
 31
0.0
  0
LINE
  5
541
330
52A
100
AcDbEntity
  8
DEFPOINTS
  6
CONTINUOUS
 62
     0
100
AcDbLine
 10
136.812202
 20
152.150229
 30
0.0
 11
136.385536
 21
152.790229
 31
0.0
  0
LINE
  5
542
330
52A
100
AcDbEntity
  8
DEFPOINTS
  6
CONTINUOUS
 62
     0
100
AcDbLine
 10
136.385536
 20
152.790229
 30
0.0
 11
135.958869
 21
153.323563
 31
0.0
  0
LINE
  5
543
330
52A
100
AcDbEntity
  8
DEFPOINTS
  6
CONTINUOUS
 62
     0
100
AcDbLine
 10
135.958869
 20
153.323563
 30
0.0
 11
135.425536
 21
153.856896
 31
0.0
  0
LINE
  5
544
330
52A
100
AcDbEntity
  8
DEFPOINTS
  6
CONTINUOUS
 62
     0
100
AcDbLine
 10
135.425536
 20
153.856896
 30
0.0
 11
134.892202
 21
154.390229
 31
0.0
  0
LINE
  5
545
330
52A
100
AcDbEntity
  8
DEFPOINTS
  6
CONTINUOUS
 62
     0
100
AcDbLine
 10
134.892202
 20
154.390229
 30
0.0
 11
134.358869
 21
154.923563
 31
0.0
  0
LINE
  5
546
330
52A
100
AcDbEntity
  8
DEFPOINTS
  6
CONTINUOUS
 62
     0
100
AcDbLine
 10
134.358869
 20
154.923563
 30
0.0
 11
133.932202
 21
155.456896
 31
0.0
  0
LINE
  5
547
330
52A
100
AcDbEntity
  8
DEFPOINTS
  6
CONTINUOUS
 62
     0
100
AcDbLine
 10
133.932202
 20
155.456896
 30
0.0
 11
133.398869
 21
155.883563
 31
0.0
  0
LINE
  5
548
330
52A
100
AcDbEntity
  8
DEFPOINTS
  6
CONTINUOUS
 62
     0
100
AcDbLine
 10
133.398869
 20
155.883563
 30
0.0
 11
132.865536
 21
156.523563
 31
0.0
  0
LINE
  5
549
330
52A
100
AcDbEntity
  8
DEFPOINTS
  6
CONTINUOUS
 62
     0
100
AcDbLine
 10
132.865536
 20
156.523563
 30
0.0
 11
132.332202
 21
156.950229
 31
0.0
  0
LINE
  5
54A
330
52A
100
AcDbEntity
  8
DEFPOINTS
  6
CONTINUOUS
 62
     0
100
AcDbLine
 10
132.332202
 20
156.950229
 30
0.0
 11
131.692202
 21
157.483563
 31
0.0
  0
LINE
  5
54B
330
52A
100
AcDbEntity
  8
DEFPOINTS
  6
CONTINUOUS
 62
     0
100
AcDbLine
 10
131.692202
 20
157.483563
 30
0.0
 11
131.158869
 21
157.910229
 31
0.0
  0
LINE
  5
54C
330
52A
100
AcDbEntity
  8
DEFPOINTS
  6
CONTINUOUS
 62
     0
100
AcDbLine
 10
131.158869
 20
157.910229
 30
0.0
 11
130.625536
 21
158.443563
 31
0.0
  0
LINE
  5
54D
330
52A
100
AcDbEntity
  8
DEFPOINTS
  6
CONTINUOUS
 62
     0
100
AcDbLine
 10
130.625536
 20
158.443563
 30
0.0
 11
129.985536
 21
158.870229
 31
0.0
  0
LINE
  5
54E
330
52A
100
AcDbEntity
  8
DEFPOINTS
  6
CONTINUOUS
 62
     0
100
AcDbLine
 10
129.985536
 20
158.870229
 30
0.0
 11
129.452202
 21
159.296896
 31
0.0
  0
LINE
  5
54F
330
52A
100
AcDbEntity
  8
DEFPOINTS
  6
CONTINUOUS
 62
     0
100
AcDbLine
 10
129.452202
 20
159.296896
 30
0.0
 11
128.812202
 21
159.723563
 31
0.0
  0
LINE
  5
550
330
52A
100
AcDbEntity
  8
DEFPOINTS
  6
CONTINUOUS
 62
     0
100
AcDbLine
 10
128.812202
 20
159.723563
 30
0.0
 11
128.278869
 21
160.150229
 31
0.0
  0
LINE
  5
551
330
52A
100
AcDbEntity
  8
DEFPOINTS
  6
CONTINUOUS
 62
     0
100
AcDbLine
 10
128.278869
 20
160.150229
 30
0.0
 11
127.638869
 21
160.576896
 31
0.0
  0
LINE
  5
552
330
52A
100
AcDbEntity
  8
DEFPOINTS
  6
CONTINUOUS
 62
     0
100
AcDbLine
 10
127.638869
 20
160.576896
 30
0.0
 11
126.998869
 21
161.003563
 31
0.0
  0
LINE
  5
553
330
52A
100
AcDbEntity
  8
DEFPOINTS
  6
CONTINUOUS
 62
     0
100
AcDbLine
 10
126.998869
 20
161.003563
 30
0.0
 11
126.358869
 21
161.430229
 31
0.0
  0
LINE
  5
554
330
52A
100
AcDbEntity
  8
DEFPOINTS
  6
CONTINUOUS
 62
     0
100
AcDbLine
 10
126.358869
 20
161.430229
 30
0.0
 11
125.825536
 21
161.750229
 31
0.0
  0
LINE
  5
555
330
52A
100
AcDbEntity
  8
DEFPOINTS
  6
CONTINUOUS
 62
     0
100
AcDbLine
 10
125.825536
 20
161.750229
 30
0.0
 11
125.185536
 21
162.176896
 31
0.0
  0
LINE
  5
556
330
52A
100
AcDbEntity
  8
DEFPOINTS
  6
CONTINUOUS
 62
     0
100
AcDbLine
 10
125.185536
 20
162.176896
 30
0.0
 11
124.545536
 21
162.496896
 31
0.0
  0
LINE
  5
557
330
52A
100
AcDbEntity
  8
DEFPOINTS
  6
CONTINUOUS
 62
     0
100
AcDbLine
 10
124.545536
 20
162.496896
 30
0.0
 11
123.905536
 21
162.816896
 31
0.0
  0
LINE
  5
558
330
52A
100
AcDbEntity
  8
DEFPOINTS
  6
CONTINUOUS
 62
     0
100
AcDbLine
 10
123.905536
 20
162.816896
 30
0.0
 11
123.265536
 21
163.243563
 31
0.0
  0
LINE
  5
559
330
52A
100
AcDbEntity
  8
DEFPOINTS
  6
CONTINUOUS
 62
     0
100
AcDbLine
 10
123.265536
 20
163.243563
 30
0.0
 11
122.518869
 21
163.563563
 31
0.0
  0
LINE
  5
55A
330
52A
100
AcDbEntity
  8
DEFPOINTS
  6
CONTINUOUS
 62
     0
100
AcDbLine
 10
122.518869
 20
163.563563
 30
0.0
 11
121.985536
 21
163.883563
 31
0.0
  0
LINE
  5
55B
330
52A
100
AcDbEntity
  8
DEFPOINTS
  6
CONTINUOUS
 62
     0
100
AcDbLine
 10
121.985536
 20
163.883563
 30
0.0
 11
121.238869
 21
164.203563
 31
0.0
  0
LINE
  5
55C
330
52A
100
AcDbEntity
  8
DEFPOINTS
  6
CONTINUOUS
 62
     0
100
AcDbLine
 10
121.238869
 20
164.203563
 30
0.0
 11
120.598869
 21
164.523563
 31
0.0
  0
LINE
  5
55D
330
52A
100
AcDbEntity
  8
DEFPOINTS
  6
CONTINUOUS
 62
     0
100
AcDbLine
 10
120.598869
 20
164.523563
 30
0.0
 11
119.958869
 21
164.843563
 31
0.0
  0
LINE
  5
55E
330
52A
100
AcDbEntity
  8
DEFPOINTS
  6
CONTINUOUS
 62
     0
100
AcDbLine
 10
119.958869
 20
164.843563
 30
0.0
 11
119.212202
 21
165.056896
 31
0.0
  0
LINE
  5
55F
330
52A
100
AcDbEntity
  8
DEFPOINTS
  6
CONTINUOUS
 62
     0
100
AcDbLine
 10
119.212202
 20
165.056896
 30
0.0
 11
118.572202
 21
165.376896
 31
0.0
  0
LINE
  5
560
330
52A
100
AcDbEntity
  8
DEFPOINTS
  6
CONTINUOUS
 62
     0
100
AcDbLine
 10
118.572202
 20
165.376896
 30
0.0
 11
117.825536
 21
165.590229
 31
0.0
  0
LINE
  5
561
330
52A
100
AcDbEntity
  8
DEFPOINTS
  6
CONTINUOUS
 62
     0
100
AcDbLine
 10
117.825536
 20
165.590229
 30
0.0
 11
117.185536
 21
165.803563
 31
0.0
  0
LINE
  5
562
330
52A
100
AcDbEntity
  8
DEFPOINTS
  6
CONTINUOUS
 62
     0
100
AcDbLine
 10
117.185536
 20
165.803563
 30
0.0
 11
116.438869
 21
166.123563
 31
0.0
  0
LINE
  5
563
330
52A
100
AcDbEntity
  8
DEFPOINTS
  6
CONTINUOUS
 62
     0
100
AcDbLine
 10
116.438869
 20
166.123563
 30
0.0
 11
115.798869
 21
166.336896
 31
0.0
  0
LINE
  5
564
330
52A
100
AcDbEntity
  8
DEFPOINTS
  6
CONTINUOUS
 62
     0
100
AcDbLine
 10
115.798869
 20
166.336896
 30
0.0
 11
115.158869
 21
166.550229
 31
0.0
  0
LINE
  5
565
330
52A
100
AcDbEntity
  8
DEFPOINTS
  6
CONTINUOUS
 62
     0
100
AcDbLine
 10
115.158869
 20
166.550229
 30
0.0
 11
114.305536
 21
166.763563
 31
0.0
  0
LINE
  5
566
330
52A
100
AcDbEntity
  8
DEFPOINTS
  6
CONTINUOUS
 62
     0
100
AcDbLine
 10
114.305536
 20
166.763563
 30
0.0
 11
113.665536
 21
166.976896
 31
0.0
  0
LINE
  5
567
330
52A
100
AcDbEntity
  8
DEFPOINTS
  6
CONTINUOUS
 62
     0
100
AcDbLine
 10
113.665536
 20
166.976896
 30
0.0
 11
112.918869
 21
167.190229
 31
0.0
  0
LINE
  5
568
330
52A
100
AcDbEntity
  8
DEFPOINTS
  6
CONTINUOUS
 62
     0
100
AcDbLine
 10
112.918869
 20
167.190229
 30
0.0
 11
112.278869
 21
167.296896
 31
0.0
  0
LINE
  5
569
330
52A
100
AcDbEntity
  8
DEFPOINTS
  6
CONTINUOUS
 62
     0
100
AcDbLine
 10
112.278869
 20
167.296896
 30
0.0
 11
111.532202
 21
167.403563
 31
0.0
  0
LINE
  5
56A
330
52A
100
AcDbEntity
  8
DEFPOINTS
  6
CONTINUOUS
 62
     0
100
AcDbLine
 10
111.532202
 20
167.403563
 30
0.0
 11
110.785536
 21
167.616896
 31
0.0
  0
LINE
  5
56B
330
52A
100
AcDbEntity
  8
DEFPOINTS
  6
CONTINUOUS
 62
     0
100
AcDbLine
 10
110.785536
 20
167.616896
 30
0.0
 11
110.038869
 21
167.723563
 31
0.0
  0
LINE
  5
56C
330
52A
100
AcDbEntity
  8
DEFPOINTS
  6
CONTINUOUS
 62
     0
100
AcDbLine
 10
110.038869
 20
167.723563
 30
0.0
 11
109.398869
 21
167.936896
 31
0.0
  0
LINE
  5
56D
330
52A
100
AcDbEntity
  8
DEFPOINTS
  6
CONTINUOUS
 62
     0
100
AcDbLine
 10
109.398869
 20
167.936896
 30
0.0
 11
108.652202
 21
168.043563
 31
0.0
  0
LINE
  5
56E
330
52A
100
AcDbEntity
  8
DEFPOINTS
  6
CONTINUOUS
 62
     0
100
AcDbLine
 10
108.652202
 20
168.043563
 30
0.0
 11
107.905536
 21
168.043563
 31
0.0
  0
LINE
  5
56F
330
52A
100
AcDbEntity
  8
DEFPOINTS
  6
CONTINUOUS
 62
     0
100
AcDbLine
 10
107.905536
 20
168.043563
 30
0.0
 11
107.158869
 21
168.150229
 31
0.0
  0
LINE
  5
570
330
52A
100
AcDbEntity
  8
DEFPOINTS
  6
CONTINUOUS
 62
     0
100
AcDbLine
 10
107.158869
 20
168.150229
 30
0.0
 11
106.412202
 21
168.256896
 31
0.0
  0
LINE
  5
571
330
52A
100
AcDbEntity
  8
DEFPOINTS
  6
CONTINUOUS
 62
     0
100
AcDbLine
 10
106.412202
 20
168.256896
 30
0.0
 11
105.665536
 21
168.256896
 31
0.0
  0
LINE
  5
572
330
52A
100
AcDbEntity
  8
DEFPOINTS
  6
CONTINUOUS
 62
     0
100
AcDbLine
 10
105.665536
 20
168.256896
 30
0.0
 11
104.918869
 21
168.363563
 31
0.0
  0
LINE
  5
573
330
52A
100
AcDbEntity
  8
DEFPOINTS
  6
CONTINUOUS
 62
     0
100
AcDbLine
 10
104.918869
 20
168.363563
 30
0.0
 11
104.172202
 21
168.470229
 31
0.0
  0
ENDBLK
  5
575
330
52A
100
AcDbEntity
  8
0
100
AcDbBlockEnd
  0
BLOCK
  5
579
330
577
100
AcDbEntity
  8
0
100
AcDbBlockBegin
  2
SE41
 70
     0
 71
     0
 10
-918.463412
 20
561.094796
 30
0.0
  3
SE41
  1

  0
LINE
  5
578
330
577
100
AcDbEntity
  8
DEFPOINTS
  6
CONTINUOUS
 62
     0
100
AcDbLine
 10
145.452202
 20
134.870229
 30
0.0
 11
145.452202
 21
97.536896
 31
0.0
  0
ENDBLK
  5
57A
330
577
100
AcDbEntity
  8
0
100
AcDbBlockEnd
  0
BLOCK
  5
586
330
57C
100
AcDbEntity
  8
0
100
AcDbBlockBegin
  2
SE42
 70
     0
 71
     0
 10
-918.463412
 20
561.094796
 30
0.0
  3
SE42
  1

  0
LINE
  5
57D
330
57C
100
AcDbEntity
  8
DEFPOINTS
  6
CONTINUOUS
 62
     0
100
AcDbLine
 10
144.812202
 20
94.230229
 30
0.0
 11
145.025536
 21
94.443563
 31
0.0
  0
LINE
  5
57E
330
57C
100
AcDbEntity
  8
DEFPOINTS
  6
CONTINUOUS
 62
     0
100
AcDbLine
 10
145.025536
 20
94.443563
 30
0.0
 11
145.025536
 21
94.763563
 31
0.0
  0
LINE
  5
57F
330
57C
100
AcDbEntity
  8
DEFPOINTS
  6
CONTINUOUS
 62
     0
100
AcDbLine
 10
145.025536
 20
94.763563
 30
0.0
 11
145.132202
 21
95.083563
 31
0.0
  0
LINE
  5
580
330
57C
100
AcDbEntity
  8
DEFPOINTS
  6
CONTINUOUS
 62
     0
100
AcDbLine
 10
145.132202
 20
95.083563
 30
0.0
 11
145.238869
 21
95.510229
 31
0.0
  0
LINE
  5
581
330
57C
100
AcDbEntity
  8
DEFPOINTS
  6
CONTINUOUS
 62
     0
100
AcDbLine
 10
145.238869
 20
95.510229
 30
0.0
 11
145.238869
 21
95.830229
 31
0.0
  0
LINE
  5
582
330
57C
100
AcDbEntity
  8
DEFPOINTS
  6
CONTINUOUS
 62
     0
100
AcDbLine
 10
145.238869
 20
95.830229
 30
0.0
 11
145.345536
 21
96.150229
 31
0.0
  0
LINE
  5
583
330
57C
100
AcDbEntity
  8
DEFPOINTS
  6
CONTINUOUS
 62
     0
100
AcDbLine
 10
145.345536
 20
96.150229
 30
0.0
 11
145.345536
 21
96.896896
 31
0.0
  0
LINE
  5
584
330
57C
100
AcDbEntity
  8
DEFPOINTS
  6
CONTINUOUS
 62
     0
100
AcDbLine
 10
145.345536
 20
96.896896
 30
0.0
 11
145.452202
 21
97.216896
 31
0.0
  0
LINE
  5
585
330
57C
100
AcDbEntity
  8
DEFPOINTS
  6
CONTINUOUS
 62
     0
100
AcDbLine
 10
145.452202
 20
97.216896
 30
0.0
 11
145.452202
 21
97.536896
 31
0.0
  0
ENDBLK
  5
587
330
57C
100
AcDbEntity
  8
0
100
AcDbBlockEnd
  0
BLOCK
  5
593
330
589
100
AcDbEntity
  8
0
100
AcDbBlockBegin
  2
SE43
 70
     0
 71
     0
 10
-918.463412
 20
561.094796
 30
0.0
  3
SE43
  1

  0
LINE
  5
58A
330
589
100
AcDbEntity
  8
DEFPOINTS
  6
CONTINUOUS
 62
     0
100
AcDbLine
 10
145.452202
 20
134.870229
 30
0.0
 11
145.452202
 21
135.190229
 31
0.0
  0
LINE
  5
58B
330
589
100
AcDbEntity
  8
DEFPOINTS
  6
CONTINUOUS
 62
     0
100
AcDbLine
 10
145.452202
 20
135.190229
 30
0.0
 11
145.345536
 21
135.616896
 31
0.0
  0
LINE
  5
58C
330
589
100
AcDbEntity
  8
DEFPOINTS
  6
CONTINUOUS
 62
     0
100
AcDbLine
 10
145.345536
 20
135.616896
 30
0.0
 11
145.345536
 21
136.256896
 31
0.0
  0
LINE
  5
58D
330
589
100
AcDbEntity
  8
DEFPOINTS
  6
CONTINUOUS
 62
     0
100
AcDbLine
 10
145.345536
 20
136.256896
 30
0.0
 11
145.238869
 21
136.576896
 31
0.0
  0
LINE
  5
58E
330
589
100
AcDbEntity
  8
DEFPOINTS
  6
CONTINUOUS
 62
     0
100
AcDbLine
 10
145.238869
 20
136.576896
 30
0.0
 11
145.238869
 21
136.896896
 31
0.0
  0
LINE
  5
58F
330
589
100
AcDbEntity
  8
DEFPOINTS
  6
CONTINUOUS
 62
     0
100
AcDbLine
 10
145.238869
 20
136.896896
 30
0.0
 11
145.132202
 21
137.323563
 31
0.0
  0
LINE
  5
590
330
589
100
AcDbEntity
  8
DEFPOINTS
  6
CONTINUOUS
 62
     0
100
AcDbLine
 10
145.132202
 20
137.323563
 30
0.0
 11
145.025536
 21
137.536896
 31
0.0
  0
LINE
  5
591
330
589
100
AcDbEntity
  8
DEFPOINTS
  6
CONTINUOUS
 62
     0
100
AcDbLine
 10
145.025536
 20
137.536896
 30
0.0
 11
145.025536
 21
137.856896
 31
0.0
  0
LINE
  5
592
330
589
100
AcDbEntity
  8
DEFPOINTS
  6
CONTINUOUS
 62
     0
100
AcDbLine
 10
145.025536
 20
137.856896
 30
0.0
 11
144.812202
 21
138.283563
 31
0.0
  0
ENDBLK
  5
594
330
589
100
AcDbEntity
  8
0
100
AcDbBlockEnd
  0
BLOCK
  5
598
330
596
100
AcDbEntity
  8
0
100
AcDbBlockBegin
  2
SE44
 70
     0
 71
     0
 10
-918.463412
 20
561.094796
 30
0.0
  3
SE44
  1

  0
LINE
  5
597
330
596
100
AcDbEntity
  8
DEFPOINTS
  6
CONTINUOUS
 62
     0
100
AcDbLine
 10
87.958869
 20
169.750229
 30
0.0
 11
90.412202
 21
170.816896
 31
0.0
  0
ENDBLK
  5
599
330
596
100
AcDbEntity
  8
0
100
AcDbBlockEnd
  0
BLOCK
  5
5AA
330
59B
100
AcDbEntity
  8
0
100
AcDbBlockBegin
  2
SE45
 70
     0
 71
     0
 10
-918.463412
 20
561.094796
 30
0.0
  3
SE45
  1

  0
LINE
  5
59C
330
59B
100
AcDbEntity
  8
DEFPOINTS
  6
CONTINUOUS
 62
     0
100
AcDbLine
 10
87.958869
 20
168.470229
 30
0.0
 11
86.572202
 21
168.363563
 31
0.0
  0
LINE
  5
59D
330
59B
100
AcDbEntity
  8
DEFPOINTS
  6
CONTINUOUS
 62
     0
100
AcDbLine
 10
86.572202
 20
168.363563
 30
0.0
 11
85.185536
 21
168.256896
 31
0.0
  0
LINE
  5
59E
330
59B
100
AcDbEntity
  8
DEFPOINTS
  6
CONTINUOUS
 62
     0
100
AcDbLine
 10
85.185536
 20
168.256896
 30
0.0
 11
83.798869
 21
168.256896
 31
0.0
  0
LINE
  5
59F
330
59B
100
AcDbEntity
  8
DEFPOINTS
  6
CONTINUOUS
 62
     0
100
AcDbLine
 10
83.798869
 20
168.256896
 30
0.0
 11
82.518869
 21
168.043563
 31
0.0
  0
LINE
  5
5A0
330
59B
100
AcDbEntity
  8
DEFPOINTS
  6
CONTINUOUS
 62
     0
100
AcDbLine
 10
82.518869
 20
168.043563
 30
0.0
 11
81.132202
 21
168.043563
 31
0.0
  0
LINE
  5
5A1
330
59B
100
AcDbEntity
  8
DEFPOINTS
  6
CONTINUOUS
 62
     0
100
AcDbLine
 10
81.132202
 20
168.043563
 30
0.0
 11
79.852202
 21
167.830229
 31
0.0
  0
LINE
  5
5A2
330
59B
100
AcDbEntity
  8
DEFPOINTS
  6
CONTINUOUS
 62
     0
100
AcDbLine
 10
79.852202
 20
167.830229
 30
0.0
 11
78.465536
 21
167.723563
 31
0.0
  0
LINE
  5
5A3
330
59B
100
AcDbEntity
  8
DEFPOINTS
  6
CONTINUOUS
 62
     0
100
AcDbLine
 10
78.465536
 20
167.723563
 30
0.0
 11
77.078869
 21
167.616896
 31
0.0
  0
LINE
  5
5A4
330
59B
100
AcDbEntity
  8
DEFPOINTS
  6
CONTINUOUS
 62
     0
100
AcDbLine
 10
77.078869
 20
167.616896
 30
0.0
 11
75.798869
 21
167.403563
 31
0.0
  0
LINE
  5
5A5
330
59B
100
AcDbEntity
  8
DEFPOINTS
  6
CONTINUOUS
 62
     0
100
AcDbLine
 10
75.798869
 20
167.403563
 30
0.0
 11
74.412202
 21
167.190229
 31
0.0
  0
LINE
  5
5A6
330
59B
100
AcDbEntity
  8
DEFPOINTS
  6
CONTINUOUS
 62
     0
100
AcDbLine
 10
74.412202
 20
167.190229
 30
0.0
 11
73.132202
 21
167.083563
 31
0.0
  0
LINE
  5
5A7
330
59B
100
AcDbEntity
  8
DEFPOINTS
  6
CONTINUOUS
 62
     0
100
AcDbLine
 10
73.132202
 20
167.083563
 30
0.0
 11
71.745536
 21
166.870229
 31
0.0
  0
LINE
  5
5A8
330
59B
100
AcDbEntity
  8
DEFPOINTS
  6
CONTINUOUS
 62
     0
100
AcDbLine
 10
71.745536
 20
166.870229
 30
0.0
 11
70.358869
 21
166.656896
 31
0.0
  0
LINE
  5
5A9
330
59B
100
AcDbEntity
  8
DEFPOINTS
  6
CONTINUOUS
 62
     0
100
AcDbLine
 10
70.358869
 20
166.656896
 30
0.0
 11
69.078869
 21
166.443563
 31
0.0
  0
ENDBLK
  5
5AB
330
59B
100
AcDbEntity
  8
0
100
AcDbBlockEnd
  0
BLOCK
  5
5AF
330
5AD
100
AcDbEntity
  8
0
100
AcDbBlockBegin
  2
SE48
 70
     0
 71
     0
 10
-918.463412
 20
561.094796
 30
0.0
  3
SE48
  1

  0
LINE
  5
5AE
330
5AD
100
AcDbEntity
  8
DEFPOINTS
  6
CONTINUOUS
 62
     0
100
AcDbLine
 10
100.545536
 20
170.816896
 30
0.0
 11
95.532202
 21
171.136896
 31
0.0
  0
ENDBLK
  5
5B0
330
5AD
100
AcDbEntity
  8
0
100
AcDbBlockEnd
  0
BLOCK
  5
5B4
330
5B2
100
AcDbEntity
  8
0
100
AcDbBlockBegin
  2
SE49
 70
     0
 71
     0
 10
-918.463412
 20
561.094796
 30
0.0
  3
SE49
  1

  0
LINE
  5
5B3
330
5B2
100
AcDbEntity
  8
DEFPOINTS
  6
CONTINUOUS
 62
     0
100
AcDbLine
 10
90.412202
 20
170.816896
 30
0.0
 11
95.532202
 21
171.136896
 31
0.0
  0
ENDBLK
  5
5B5
330
5B2
100
AcDbEntity
  8
0
100
AcDbBlockEnd
  0
BLOCK
  5
5B9
330
5B7
100
AcDbEntity
  8
0
100
AcDbBlockBegin
  2
SE51
 70
     0
 71
     0
 10
-918.463412
 20
561.094796
 30
0.0
  3
SE51
  1

  0
LINE
  5
5B8
330
5B7
100
AcDbEntity
  8
DEFPOINTS
  6
CONTINUOUS
 62
     0
100
AcDbLine
 10
100.545536
 20
170.816896
 30
0.0
 11
102.998869
 21
169.750229
 31
0.0
  0
ENDBLK
  5
5BA
330
5B7
100
AcDbEntity
  8
0
100
AcDbBlockEnd
  0
BLOCK
  5
5BE
330
5BC
100
AcDbEntity
  8
0
100
AcDbBlockBegin
  2
SE52
 70
     0
 71
     0
 10
-918.463412
 20
561.094796
 30
0.0
  3
SE52
  1

  0
LINE
  5
5BD
330
5BC
100
AcDbEntity
  8
DEFPOINTS
  6
CONTINUOUS
 62
     0
100
AcDbLine
 10
104.172202
 20
168.470229
 30
0.0
 11
102.998869
 21
168.470229
 31
0.0
  0
ENDBLK
  5
5BF
330
5BC
100
AcDbEntity
  8
0
100
AcDbBlockEnd
  0
BLOCK
  5
5C3
330
5C1
100
AcDbEntity
  8
0
100
AcDbBlockBegin
  2
SE251
 70
     0
 71
     0
 10
-920.916745
 20
-328.794337
 30
0.0
  3
SE251
  1

  0
LINE
  5
5C2
330
5C1
100
AcDbEntity
  8
DEFPOINTS
  6
CONTINUOUS
 62
     0
100
AcDbLine
 10
87.958869
 20
169.750229
 30
0.0
 11
87.958869
 21
168.470229
 31
0.0
  0
ENDBLK
  5
5C4
330
5C1
100
AcDbEntity
  8
0
100
AcDbBlockEnd
  0
BLOCK
  5
5C8
330
5C6
100
AcDbEntity
  8
0
100
AcDbBlockBegin
  2
SE281
 70
     0
 71
     0
 10
-916.010079
 20
-328.794337
 30
0.0
  3
SE281
  1

  0
LINE
  5
5C7
330
5C6
100
AcDbEntity
  8
DEFPOINTS
  6
CONTINUOUS
 62
     0
100
AcDbLine
 10
102.998869
 20
169.750229
 30
0.0
 11
102.998869
 21
168.470229
 31
0.0
  0
ENDBLK
  5
5C9
330
5C6
100
AcDbEntity
  8
0
100
AcDbBlockEnd
  0
BLOCK
  5
5DB
330
5D1
100
AcDbEntity
  8
0
100
AcDbBlockBegin
  2
*D30
 70
     1
 71
     0
 10
0.0
 20
0.0
 30
0.0
  3
*D30
  1

  0
LINE
  5
5D2
330
5D1
100
AcDbEntity
  8
DIM
  6
CONTINUOUS
 62
     3
100
AcDbLine
 10
96.582202
 20
61.270229
 30
0.0
 11
163.685347
 21
61.270229
 31
0.0
  0
LINE
  5
5D3
330
5D1
100
AcDbEntity
  8
DIM
  6
CONTINUOUS
 62
     3
100
AcDbLine
 10
96.582202
 20
171.136896
 30
0.0
 11
163.685347
 21
171.136896
 31
0.0
  0
LINE
  5
5D4
330
5D1
100
AcDbEntity
  8
DIM
  6
CONTINUOUS
 62
     3
100
AcDbLine
 10
161.254791
 20
62.470229
 30
0.0
 11
161.254791
 21
169.936896
 31
0.0
  0
INSERT
  5
5D5
330
5D1
100
AcDbEntity
  8
DIM
 62
     3
100
AcDbBlockReference
  2
_CLOSED
 10
161.254791
 20
61.270229
 30
0.0
 41
1.2
 42
1.2
 43
1.2
 50
270.0
  0
INSERT
  5
5D6
330
5D1
100
AcDbEntity
  8
DIM
 62
     3
100
AcDbBlockReference
  2
_CLOSED
 10
161.254791
 20
171.136896
 30
0.0
 41
1.2
 42
1.2
 43
1.2
 50
90.0
  0
MTEXT
  5
5D7
330
5D1
100
AcDbEntity
  8
DIM
 62
     2
100
AcDbMText
 10
157.621791
 20
116.203563
 30
0.0
 40
3.5
 41
0.0
 71
     5
 72
     1
  1
\A1;Ø109
  7
FINDER
 11
0.0
 21
1.0
 31
0.0
  0
POINT
  5
5D8
330
5D1
100
AcDbEntity
  8
DEFPOINTS
 62
     0
100
AcDbPoint
 10
95.532202
 20
61.270229
 30
0.0
  0
POINT
  5
5D9
330
5D1
100
AcDbEntity
  8
DEFPOINTS
 62
     0
100
AcDbPoint
 10
95.532202
 20
171.136896
 30
0.0
  0
POINT
  5
5DA
330
5D1
100
AcDbEntity
  8
DEFPOINTS
 62
     0
100
AcDbPoint
 10
161.254791
 20
171.136896
 30
0.0
  0
ENDBLK
  5
5DC
330
5D1
100
AcDbEntity
  8
0
100
AcDbBlockEnd
  0
BLOCK
  5
5E8
330
5DE
100
AcDbEntity
  8
0
100
AcDbBlockBegin
  2
*D31
 70
     1
 71
     0
 10
0.0
 20
0.0
 30
0.0
  3
*D31
  1

  0
LINE
  5
5DF
330
5DE
100
AcDbEntity
  8
DIM
  6
CONTINUOUS
 62
     3
100
AcDbLine
 10
-35.401131
 20
122.722392
 30
0.0
 11
-35.401131
 21
187.063124
 31
0.0
  0
LINE
  5
5E0
330
5DE
100
AcDbEntity
  8
DIM
  6
CONTINUOUS
 62
     3
100
AcDbLine
 10
-23.395068
 20
124.819592
 30
0.0
 11
-23.395068
 21
187.063124
 31
0.0
  0
LINE
  5
5E1
330
5DE
100
AcDbEntity
  8
DIM
  6
CONTINUOUS
 62
     3
100
AcDbLine
 10
-34.201131
 20
184.632568
 30
0.0
 11
-24.595068
 21
184.632568
 31
0.0
  0
INSERT
  5
5E2
330
5DE
100
AcDbEntity
  8
DIM
 62
     3
100
AcDbBlockReference
  2
_CLOSED
 10
-35.401131
 20
184.632568
 30
0.0
 41
1.2
 42
1.2
 43
1.2
 50
180.0
  0
INSERT
  5
5E3
330
5DE
100
AcDbEntity
  8
DIM
 62
     3
100
AcDbBlockReference
  2
_CLOSED
 10
-23.395068
 20
184.632568
 30
0.0
 41
1.2
 42
1.2
 43
1.2
  0
MTEXT
  5
5E4
330
5DE
100
AcDbEntity
  8
DIM
 62
     2
100
AcDbMText
 10
-29.398099
 20
188.139568
 30
0.0
 40
3.5
 41
0.0
 71
     5
 72
     1
  1
\A1;12
  7
FINDER
  0
POINT
  5
5E5
330
5DE
100
AcDbEntity
  8
DEFPOINTS
 62
     0
100
AcDbPoint
 10
-35.401131
 20
121.672392
 30
0.0
  0
POINT
  5
5E6
330
5DE
100
AcDbEntity
  8
DEFPOINTS
 62
     0
100
AcDbPoint
 10
-23.395068
 20
123.769592
 30
0.0
  0
POINT
  5
5E7
330
5DE
100
AcDbEntity
  8
DEFPOINTS
 62
     0
100
AcDbPoint
 10
-23.395068
 20
184.632568
 30
0.0
  0
ENDBLK
  5
5E9
330
5DE
100
AcDbEntity
  8
0
100
AcDbBlockEnd
  0
BLOCK
  5
5F5
330
5EB
100
AcDbEntity
  8
0
100
AcDbBlockBegin
  2
*D32
 70
     1
 71
     0
 10
0.0
 20
0.0
 30
0.0
  3
*D32
  1

  0
LINE
  5
5EC
330
5EB
100
AcDbEntity
  8
DIM
  6
CONTINUOUS
 62
     3
100
AcDbLine
 10
145.452202
 20
135.920229
 30
0.0
 11
145.452202
 21
186.928664
 31
0.0
  0
LINE
  5
5ED
330
5EB
100
AcDbEntity
  8
DIM
  6
CONTINUOUS
 62
     3
100
AcDbLine
 10
-23.401131
 20
123.939971
 30
0.0
 11
-23.401131
 21
186.928664
 31
0.0
  0
LINE
  5
5EE
330
5EB
100
AcDbEntity
  8
DIM
  6
CONTINUOUS
 62
     3
100
AcDbLine
 10
144.252202
 20
184.498108
 30
0.0
 11
-22.201131
 21
184.498108
 31
0.0
  0
INSERT
  5
5EF
330
5EB
100
AcDbEntity
  8
DIM
 62
     3
100
AcDbBlockReference
  2
_CLOSED
 10
145.452202
 20
184.498108
 30
0.0
 41
1.2
 42
1.2
 43
1.2
  0
INSERT
  5
5F0
330
5EB
100
AcDbEntity
  8
DIM
 62
     3
100
AcDbBlockReference
  2
_CLOSED
 10
-23.401131
 20
184.498108
 30
0.0
 41
1.2
 42
1.2
 43
1.2
 50
180.0
  0
MTEXT
  5
5F1
330
5EB
100
AcDbEntity
  8
DIM
 62
     2
100
AcDbMText
 10
61.025536
 20
188.034858
 30
0.0
 40
3.5
 41
0.0
 71
     5
 72
     1
  1
\A1;167.5
  7
FINDER
  0
POINT
  5
5F2
330
5EB
100
AcDbEntity
  8
DEFPOINTS
 62
     0
100
AcDbPoint
 10
145.452202
 20
134.870229
 30
0.0
  0
POINT
  5
5F3
330
5EB
100
AcDbEntity
  8
DEFPOINTS
 62
     0
100
AcDbPoint
 10
-23.401131
 20
122.889971
 30
0.0
  0
POINT
  5
5F4
330
5EB
100
AcDbEntity
  8
DEFPOINTS
 62
     0
100
AcDbPoint
 10
-23.401131
 20
184.498108
 30
0.0
  0
ENDBLK
  5
5F6
330
5EB
100
AcDbEntity
  8
0
100
AcDbBlockEnd
  0
BLOCK
  5
602
330
5F8
100
AcDbEntity
  8
0
100
AcDbBlockBegin
  2
*D33
 70
     1
 71
     0
 10
0.0
 20
0.0
 30
0.0
  3
*D33
  1

  0
LINE
  5
5F9
330
5F8
100
AcDbEntity
  8
DIM
  6
CONTINUOUS
 62
     3
100
AcDbLine
 10
102.998869
 20
61.606896
 30
0.0
 11
102.998869
 21
41.007737
 31
0.0
  0
LINE
  5
5FA
330
5F8
100
AcDbEntity
  8
DIM
  6
CONTINUOUS
 62
     3
100
AcDbLine
 10
87.958869
 20
61.606896
 30
0.0
 11
87.958869
 21
41.007737
 31
0.0
  0
LINE
  5
5FB
330
5F8
100
AcDbEntity
  8
DIM
  6
CONTINUOUS
 62
     3
100
AcDbLine
 10
101.798869
 20
43.438293
 30
0.0
 11
89.158869
 21
43.438293
 31
0.0
  0
INSERT
  5
5FC
330
5F8
100
AcDbEntity
  8
DIM
 62
     3
100
AcDbBlockReference
  2
_CLOSED
 10
102.998869
 20
43.438293
 30
0.0
 41
1.2
 42
1.2
 43
1.2
  0
INSERT
  5
5FD
330
5F8
100
AcDbEntity
  8
DIM
 62
     3
100
AcDbBlockReference
  2
_CLOSED
 10
87.958869
 20
43.438293
 30
0.0
 41
1.2
 42
1.2
 43
1.2
 50
180.0
  0
MTEXT
  5
5FE
330
5F8
100
AcDbEntity
  8
DIM
 62
     2
100
AcDbMText
 10
95.478869
 20
46.975043
 30
0.0
 40
3.5
 41
0.0
 71
     5
 72
     1
  1
\A1;15
  7
FINDER
  0
POINT
  5
5FF
330
5F8
100
AcDbEntity
  8
DEFPOINTS
 62
     0
100
AcDbPoint
 10
102.998869
 20
62.656896
 30
0.0
  0
POINT
  5
600
330
5F8
100
AcDbEntity
  8
DEFPOINTS
 62
     0
100
AcDbPoint
 10
87.958869
 20
62.656896
 30
0.0
  0
POINT
  5
601
330
5F8
100
AcDbEntity
  8
DEFPOINTS
 62
     0
100
AcDbPoint
 10
87.958869
 20
43.438293
 30
0.0
  0
ENDBLK
  5
603
330
5F8
100
AcDbEntity
  8
0
100
AcDbBlockEnd
  0
ENDSEC
  0
SECTION
  2
ENTITIES
  0
INSERT
  5
76
330
1F
100
AcDbEntity
  8
0
  6
CONTINUOUS
 62
     1
 60
     1
100
AcDbBlockReference
  2
SOLID_1
 10
-392.068726
 20
178.319595
 30
0.0
  0
LINE
  5
77
330
1F
100
AcDbEntity
  8
0
  6
CONTINUOUS
 62
     5
 60
     1
100
AcDbLine
 10
419.414612
 20
259.112094
 30
0.0
 11
419.414612
 21
222.712094
 31
0.0
  0
ARC
  5
78
330
1F
100
AcDbEntity
  8
0
  6
CONTINUOUS
 62
     5
 60
     1
100
AcDbCircle
 10
442.714612
 20
281.412094
 30
0.0
 40
1.299999997019768
100
AcDbArc
 50
0.0
 51
90.0
  0
LINE
  5
79
330
1F
100
AcDbEntity
  8
0
  6
CONTINUOUS
 62
     5
 60
     1
100
AcDbLine
 10
444.014612
 20
281.412094
 30
0.0
 11
444.014612
 21
280.912094
 31
0.0
  0
LINE
  5
7A
330
1F
100
AcDbEntity
  8
0
  6
CONTINUOUS
 62
     5
 60
     1
100
AcDbLine
 10
444.014612
 20
280.912094
 30
0.0
 11
444.014612
 21
271.912094
 31
0.0
  0
LINE
  5
7B
330
1F
100
AcDbEntity
  8
0
  6
CONTINUOUS
 62
     5
 60
     1
100
AcDbLine
 10
442.714612
 20
282.912094
 30
0.0
 11
442.714612
 21
282.712094
 31
0.0
  0
LINE
  5
7C
330
1F
100
AcDbEntity
  8
0
  6
CONTINUOUS
 62
     5
 60
     1
100
AcDbLine
 10
444.014612
 20
281.412094
 30
0.0
 11
444.214612
 21
281.412094
 31
0.0
  0
LINE
  5
7D
330
1F
100
AcDbEntity
  8
0
  6
CONTINUOUS
 62
     5
 60
     1
100
AcDbLine
 10
414.914612
 20
222.912094
 30
0.0
 11
415.114612
 21
222.712094
 31
0.0
  0
LINE
  5
7E
330
1F
100
AcDbEntity
  8
0
  6
CONTINUOUS
 62
     5
 60
     1
100
AcDbLine
 10
415.114612
 20
222.712094
 30
0.0
 11
415.114612
 21
198.912094
 31
0.0
  0
LINE
  5
7F
330
1F
100
AcDbEntity
  8
0
  6
CONTINUOUS
 62
     5
 60
     1
100
AcDbLine
 10
415.114612
 20
222.712094
 30
0.0
 11
419.414612
 21
222.712094
 31
0.0
  0
LINE
  5
80
330
1F
100
AcDbEntity
  8
0
  6
CONTINUOUS
 62
     5
 60
     1
100
AcDbLine
 10
419.214612
 20
222.912094
 30
0.0
 11
419.414612
 21
222.712094
 31
0.0
  0
LINE
  5
81
330
1F
100
AcDbEntity
  8
0
  6
CONTINUOUS
 62
     5
 60
     1
100
AcDbLine
 10
419.214612
 20
258.912094
 30
0.0
 11
419.414612
 21
259.112094
 31
0.0
  0
LINE
  5
82
330
1F
100
AcDbEntity
  8
0
  6
CONTINUOUS
 62
     5
 60
     1
100
AcDbLine
 10
417.198356
 20
282.712094
 30
0.0
 11
417.030536
 21
282.912094
 31
0.0
  0
LINE
  5
83
330
1F
100
AcDbEntity
  8
0
  6
CONTINUOUS
 62
     5
 60
     1
100
AcDbLine
 10
417.198356
 20
282.712094
 30
0.0
 11
442.714612
 21
282.712094
 31
0.0
  0
LINE
  5
84
330
1F
100
AcDbEntity
  8
0
  6
CONTINUOUS
 62
     5
 60
     1
100
AcDbLine
 10
417.198356
 20
282.712094
 30
0.0
 11
415.114612
 21
270.894596
 31
0.0
  0
LINE
  5
85
330
1F
100
AcDbEntity
  8
0
  6
CONTINUOUS
 62
     5
 60
     1
100
AcDbLine
 10
444.214612
 20
271.712094
 30
0.0
 11
461.214612
 21
271.712094
 31
0.0
  0
ARC
  5
86
330
1F
100
AcDbEntity
  8
0
  6
CONTINUOUS
 62
     5
 60
     1
100
AcDbCircle
 10
461.214612
 20
270.412094
 30
0.0
 40
1.299999997019768
100
AcDbArc
 50
0.0
 51
90.0
  0
LINE
  5
87
330
1F
100
AcDbEntity
  8
0
  6
CONTINUOUS
 62
     5
 60
     1
100
AcDbLine
 10
462.514612
 20
270.412094
 30
0.0
 11
462.514612
 21
269.912094
 31
0.0
  0
LINE
  5
88
330
1F
100
AcDbEntity
  8
0
  6
CONTINUOUS
 62
     5
 60
     1
100
AcDbLine
 10
462.514612
 20
269.912094
 30
0.0
 11
462.514612
 21
263.412094
 31
0.0
  0
LINE
  5
89
330
1F
100
AcDbEntity
  8
0
  6
CONTINUOUS
 62
     5
 60
     1
100
AcDbLine
 10
462.714612
 20
263.212094
 30
0.0
 11
473.714612
 21
263.212094
 31
0.0
  0
LINE
  5
8A
330
1F
100
AcDbEntity
  8
0
  6
CONTINUOUS
 62
     5
 60
     1
100
AcDbLine
 10
461.214612
 20
271.712094
 30
0.0
 11
461.214612
 21
271.912094
 31
0.0
  0
LINE
  5
8B
330
1F
100
AcDbEntity
  8
0
  6
CONTINUOUS
 62
     5
 60
     1
100
AcDbLine
 10
462.514612
 20
270.412094
 30
0.0
 11
462.714612
 21
270.412094
 31
0.0
  0
LINE
  5
8C
330
1F
100
AcDbEntity
  8
0
  6
CONTINUOUS
 62
     5
 60
     1
100
AcDbLine
 10
444.214612
 20
271.912094
 30
0.0
 11
444.214612
 21
271.712094
 31
0.0
  0
LINE
  5
8D
330
1F
100
AcDbEntity
  8
0
  6
CONTINUOUS
 62
     5
 60
     1
100
AcDbLine
 10
462.714612
 20
263.412094
 30
0.0
 11
462.714612
 21
263.212094
 31
0.0
  0
LINE
  5
8E
330
1F
100
AcDbEntity
  8
0
  6
CONTINUOUS
 62
     5
 60
     1
100
AcDbLine
 10
473.714612
 20
263.212094
 30
0.0
 11
473.714612
 21
263.412094
 31
0.0
  0
LINE
  5
8F
330
1F
100
AcDbEntity
  8
0
  6
CONTINUOUS
 62
     5
 60
     1
100
AcDbLine
 10
444.014612
 20
209.912094
 30
0.0
 11
444.014612
 21
200.912094
 31
0.0
  0
LINE
  5
90
330
1F
100
AcDbEntity
  8
0
  6
CONTINUOUS
 62
     5
 60
     1
100
AcDbLine
 10
461.214612
 20
210.112094
 30
0.0
 11
444.214612
 21
210.112094
 31
0.0
  0
ARC
  5
91
330
1F
100
AcDbEntity
  8
0
  6
CONTINUOUS
 62
     5
 60
     1
100
AcDbCircle
 10
-461.214612
 20
211.412094
 30
0.0
 40
1.299999997019768
210
0.0
220
0.0
230
-1.0
100
AcDbArc
 50
180.0
 51
270.0
  0
LINE
  5
92
330
1F
100
AcDbEntity
  8
0
  6
CONTINUOUS
 62
     5
 60
     1
100
AcDbLine
 10
462.514612
 20
211.912094
 30
0.0
 11
462.514612
 21
211.412094
 31
0.0
  0
LINE
  5
93
330
1F
100
AcDbEntity
  8
0
  6
CONTINUOUS
 62
     5
 60
     1
100
AcDbLine
 10
461.214612
 20
210.112094
 30
0.0
 11
461.214612
 21
209.912094
 31
0.0
  0
LINE
  5
94
330
1F
100
AcDbEntity
  8
0
  6
CONTINUOUS
 62
     5
 60
     1
100
AcDbLine
 10
462.714612
 20
211.412094
 30
0.0
 11
462.514612
 21
211.412094
 31
0.0
  0
LINE
  5
95
330
1F
100
AcDbEntity
  8
0
  6
CONTINUOUS
 62
     5
 60
     1
100
AcDbLine
 10
444.214612
 20
209.912094
 30
0.0
 11
444.214612
 21
210.112094
 31
0.0
  0
LINE
  5
96
330
1F
100
AcDbEntity
  8
0
  6
CONTINUOUS
 62
     5
 60
     1
100
AcDbLine
 10
462.514612
 20
218.412094
 30
0.0
 11
462.514612
 21
211.912094
 31
0.0
  0
LINE
  5
97
330
1F
100
AcDbEntity
  8
0
  6
CONTINUOUS
 62
     5
 60
     1
100
AcDbLine
 10
473.714612
 20
218.612094
 30
0.0
 11
462.714612
 21
218.612094
 31
0.0
  0
LINE
  5
98
330
1F
100
AcDbEntity
  8
0
  6
CONTINUOUS
 62
     5
 60
     1
100
AcDbLine
 10
462.714612
 20
218.412094
 30
0.0
 11
462.714612
 21
218.612094
 31
0.0
  0
LINE
  5
99
330
1F
100
AcDbEntity
  8
0
  6
CONTINUOUS
 62
     5
 60
     1
100
AcDbLine
 10
415.114612
 20
270.894596
 30
0.0
 11
415.114612
 21
259.912094
 31
0.0
  0
LINE
  5
9A
330
1F
100
AcDbEntity
  8
0
  6
CONTINUOUS
 62
     5
 60
     1
100
AcDbLine
 10
415.114612
 20
259.912094
 30
0.0
 11
414.914612
 21
259.912094
 31
0.0
  0
SPLINE
  5
9B
330
1F
100
AcDbEntity
  8
0
  6
CONTINUOUS
 62
     5
 60
     1
100
AcDbSpline
210
0.0
220
0.0
230
1.0
 70
     8
 71
     3
 72
    11
 73
     7
 74
     0
 42
0.0
 43
0.0
 40
0.0
 40
0.0
 40
0.0
 40
0.0
 40
0.0943349937770686
 40
0.1974563032859944
 40
0.2511245542329391
 40
0.3560914451970822
 40
0.3560914451970822
 40
0.3560914451970822
 40
0.3560914451970822
 10
418.0146123721313
 20
258.9120936393738
 30
0.0
 10
418.0146123734886
 20
258.9120936393738
 30
0.0
 10
418.0020168888383
 20
258.9285083969842
 30
0.0
 10
417.96308498869
 20
258.9792454362608
 30
0.0
 10
417.9147317036799
 20
259.0422606611664
 30
0.0
 10
417.8823478806942
 20
259.0844640780449
 30
0.0
 10
417.8611469686255
 20
259.1120936423541
 30
0.0
  0
LINE
  5
9C
330
1F
100
AcDbEntity
  8
0
  6
CONTINUOUS
 62
     5
 60
     1
100
AcDbLine
 10
414.914612
 20
258.912094
 30
0.0
 11
415.114612
 21
258.965683
 31
0.0
  0
LINE
  5
9D
330
1F
100
AcDbEntity
  8
0
  6
CONTINUOUS
 62
     5
 60
     1
100
AcDbLine
 10
415.114612
 20
258.965683
 30
0.0
 11
415.114612
 21
259.912094
 31
0.0
  0
LINE
  5
9E
330
1F
100
AcDbEntity
  8
0
  6
CONTINUOUS
 62
     5
 60
     1
100
AcDbLine
 10
416.069313
 20
256.912094
 30
0.0
 11
416.184783
 21
257.112094
 31
0.0
  0
LINE
  5
9F
330
1F
100
AcDbEntity
  8
0
  6
CONTINUOUS
 62
     5
 60
     1
100
AcDbLine
 10
416.184783
 20
257.112094
 30
0.0
 11
415.114612
 21
258.965683
 31
0.0
  0
SPLINE
  5
A0
330
1F
100
AcDbEntity
  8
0
  6
CONTINUOUS
 62
     5
 60
     1
100
AcDbSpline
210
0.0
220
0.0
230
1.0
 70
     8
 71
     3
 72
    11
 73
     7
 74
     0
 42
0.0
 43
0.0
 40
0.0
 40
0.0
 40
0.0
 40
0.0
 40
0.09433499565699
 40
0.1974563056986761
 40
0.2511245557539986
 40
0.3560914389597161
 40
0.3560914389597161
 40
0.3560914389597161
 40
0.3560914389597161
 10
417.4787141888082
 20
256.9120937688905
 30
0.0
 10
417.4787141901655
 20
256.9120937688905
 30
0.0
 10
417.4661187048835
 20
256.9285085260017
 30
0.0
 10
417.4271868026062
 20
256.9792455639645
 30
0.0
 10
417.3788335165242
 20
257.0422607851896
 30
0.0
 10
417.3464496936831
 20
257.0844641984791
 30
0.0
 10
417.325248782102
 20
257.1120937599266
 30
0.0
  0
LINE
  5
A1
330
1F
100
AcDbEntity
  8
0
  6
CONTINUOUS
 62
     5
 60
     1
100
AcDbLine
 10
417.325249
 20
257.112094
 30
0.0
 11
416.184783
 21
257.112094
 31
0.0
  0
LINE
  5
A2
330
1F
100
AcDbEntity
  8
0
  6
CONTINUOUS
 62
     5
 60
     1
100
AcDbLine
 10
417.861147
 20
259.112094
 30
0.0
 11
417.325249
 21
257.112094
 31
0.0
  0
LINE
  5
A3
330
1F
100
AcDbEntity
  8
0
  6
CONTINUOUS
 62
     5
 60
     1
100
AcDbLine
 10
419.414612
 20
259.112094
 30
0.0
 11
417.861147
 21
259.112094
 31
0.0
  0
LINE
  5
A4
330
1F
100
AcDbEntity
  8
0
  6
CONTINUOUS
 62
     5
 60
     1
100
AcDbLine
 10
473.714612
 20
263.212094
 30
0.0
 11
474.714612
 21
263.212094
 31
0.0
  0
ARC
  5
A5
330
1F
100
AcDbEntity
  8
0
  6
CONTINUOUS
 62
     5
 60
     1
100
AcDbCircle
 10
-474.714612
 20
262.412094
 30
0.0
 40
0.7999999970197678
210
0.0
220
0.0
230
-1.0
100
AcDbArc
 50
90.0
 51
180.0
  0
LINE
  5
A6
330
1F
100
AcDbEntity
  8
0
  6
CONTINUOUS
 62
     5
 60
     1
100
AcDbLine
 10
475.514612
 20
219.412094
 30
0.0
 11
475.514612
 21
262.412094
 31
0.0
  0
ARC
  5
A7
330
1F
100
AcDbEntity
  8
0
  6
CONTINUOUS
 62
     5
 60
     1
100
AcDbCircle
 10
474.714612
 20
219.412094
 30
0.0
 40
0.7999999970197678
100
AcDbArc
 50
270.0
 51
0.0
  0
LINE
  5
A8
330
1F
100
AcDbEntity
  8
0
  6
CONTINUOUS
 62
     5
 60
     1
100
AcDbLine
 10
473.714612
 20
218.612094
 30
0.0
 11
474.714612
 21
218.612094
 31
0.0
  0
LINE
  5
A9
330
1F
100
AcDbEntity
  8
0
  6
CONTINUOUS
 62
     5
 60
     1
100
AcDbLine
 10
474.714612
 20
263.412094
 30
0.0
 11
474.714612
 21
263.212094
 31
0.0
  0
LINE
  5
AA
330
1F
100
AcDbEntity
  8
0
  6
CONTINUOUS
 62
     5
 60
     1
100
AcDbLine
 10
475.714612
 20
262.412094
 30
0.0
 11
475.514612
 21
262.412094
 31
0.0
  0
LINE
  5
AB
330
1F
100
AcDbEntity
  8
0
  6
CONTINUOUS
 62
     5
 60
     1
100
AcDbLine
 10
475.714612
 20
219.412094
 30
0.0
 11
475.514612
 21
219.412094
 31
0.0
  0
LINE
  5
AC
330
1F
100
AcDbEntity
  8
0
  6
CONTINUOUS
 62
     5
 60
     1
100
AcDbLine
 10
474.714612
 20
218.412094
 30
0.0
 11
474.714612
 21
218.612094
 31
0.0
  0
LINE
  5
AD
330
1F
100
AcDbEntity
  8
0
  6
CONTINUOUS
 62
     6
 60
     1
100
AcDbLine
 10
400.397918
 20
281.412094
 30
0.0
 11
400.397918
 21
282.912094
 31
0.0
  0
LINE
  5
AE
330
1F
100
AcDbEntity
  8
0
  6
CONTINUOUS
 62
     6
 60
     1
100
AcDbLine
 10
400.397918
 20
281.412094
 30
0.0
 11
400.397918
 21
280.912094
 31
0.0
  0
LINE
  5
AF
330
1F
100
AcDbEntity
  8
0
  6
CONTINUOUS
 62
     6
 60
     1
100
AcDbLine
 10
400.597918
 20
280.912094
 30
0.0
 11
400.597918
 21
271.912094
 31
0.0
  0
LINE
  5
B0
330
1F
100
AcDbEntity
  8
0
  6
CONTINUOUS
 62
     6
 60
     1
100
AcDbLine
 10
400.597918
 20
280.912094
 30
0.0
 11
400.397918
 21
280.912094
 31
0.0
  0
LINE
  5
B1
330
1F
100
AcDbEntity
  8
0
  6
CONTINUOUS
 62
     6
 60
     1
100
AcDbLine
 10
383.697917
 20
281.412094
 30
0.0
 11
383.697917
 21
282.912094
 31
0.0
  0
LINE
  5
B2
330
1F
100
AcDbEntity
  8
0
  6
CONTINUOUS
 62
     6
 60
     1
100
AcDbLine
 10
383.697917
 20
281.412094
 30
0.0
 11
383.697917
 21
280.912094
 31
0.0
  0
LINE
  5
B3
330
1F
100
AcDbEntity
  8
0
  6
CONTINUOUS
 62
     6
 60
     1
100
AcDbLine
 10
383.497918
 20
280.912094
 30
0.0
 11
383.497918
 21
271.912094
 31
0.0
  0
LINE
  5
B4
330
1F
100
AcDbEntity
  8
0
  6
CONTINUOUS
 62
     6
 60
     1
100
AcDbLine
 10
383.497917
 20
280.912094
 30
0.0
 11
383.697917
 21
280.912094
 31
0.0
  0
LINE
  5
B5
330
1F
100
AcDbEntity
  8
0
  6
CONTINUOUS
 62
     6
 60
     1
100
AcDbLine
 10
383.697917
 20
270.412094
 30
0.0
 11
383.697917
 21
271.912094
 31
0.0
  0
LINE
  5
B6
330
1F
100
AcDbEntity
  8
0
  6
CONTINUOUS
 62
     6
 60
     1
100
AcDbLine
 10
383.697917
 20
270.412094
 30
0.0
 11
383.697917
 21
269.912094
 31
0.0
  0
LINE
  5
B7
330
1F
100
AcDbEntity
  8
0
  6
CONTINUOUS
 62
     6
 60
     1
100
AcDbLine
 10
383.497918
 20
269.912094
 30
0.0
 11
383.497918
 21
263.412094
 31
0.0
  0
LINE
  5
B8
330
1F
100
AcDbEntity
  8
0
  6
CONTINUOUS
 62
     6
 60
     1
100
AcDbLine
 10
383.497917
 20
269.912094
 30
0.0
 11
383.697917
 21
269.912094
 31
0.0
  0
LINE
  5
B9
330
1F
100
AcDbEntity
  8
0
  6
CONTINUOUS
 62
     6
 60
     1
100
AcDbLine
 10
400.397918
 20
270.412094
 30
0.0
 11
400.397918
 21
271.912094
 31
0.0
  0
LINE
  5
BA
330
1F
100
AcDbEntity
  8
0
  6
CONTINUOUS
 62
     6
 60
     1
100
AcDbLine
 10
400.397918
 20
270.412094
 30
0.0
 11
400.397918
 21
269.912094
 31
0.0
  0
LINE
  5
BB
330
1F
100
AcDbEntity
  8
0
  6
CONTINUOUS
 62
     6
 60
     1
100
AcDbLine
 10
400.597918
 20
269.912094
 30
0.0
 11
400.597918
 21
263.412094
 31
0.0
  0
LINE
  5
BC
330
1F
100
AcDbEntity
  8
0
  6
CONTINUOUS
 62
     6
 60
     1
100
AcDbLine
 10
400.597918
 20
269.912094
 30
0.0
 11
400.397918
 21
269.912094
 31
0.0
  0
LINE
  5
BD
330
1F
100
AcDbEntity
  8
0
  6
CONTINUOUS
 62
     6
 60
     1
100
AcDbLine
 10
400.597918
 20
218.412094
 30
0.0
 11
400.597918
 21
211.912094
 31
0.0
  0
LINE
  5
BE
330
1F
100
AcDbEntity
  8
0
  6
CONTINUOUS
 62
     6
 60
     1
100
AcDbLine
 10
400.397918
 20
211.912094
 30
0.0
 11
400.397918
 21
211.412094
 31
0.0
  0
LINE
  5
BF
330
1F
100
AcDbEntity
  8
0
  6
CONTINUOUS
 62
     6
 60
     1
100
AcDbLine
 10
400.397918
 20
211.412094
 30
0.0
 11
400.397918
 21
209.912094
 31
0.0
  0
LINE
  5
C0
330
1F
100
AcDbEntity
  8
0
  6
CONTINUOUS
 62
     6
 60
     1
100
AcDbLine
 10
400.597918
 20
211.912094
 30
0.0
 11
400.397918
 21
211.912094
 31
0.0
  0
LINE
  5
C1
330
1F
100
AcDbEntity
  8
0
  6
CONTINUOUS
 62
     6
 60
     1
100
AcDbLine
 10
383.497918
 20
209.912094
 30
0.0
 11
383.497918
 21
200.912094
 31
0.0
  0
LINE
  5
C2
330
1F
100
AcDbEntity
  8
0
  6
CONTINUOUS
 62
     6
 60
     1
100
AcDbLine
 10
383.697917
 20
211.412094
 30
0.0
 11
383.697917
 21
209.912094
 31
0.0
  0
LINE
  5
C3
330
1F
100
AcDbEntity
  8
0
  6
CONTINUOUS
 62
     6
 60
     1
100
AcDbLine
 10
383.697917
 20
211.912094
 30
0.0
 11
383.697917
 21
211.412094
 31
0.0
  0
LINE
  5
C4
330
1F
100
AcDbEntity
  8
0
  6
CONTINUOUS
 62
     6
 60
     1
100
AcDbLine
 10
383.497918
 20
211.912094
 30
0.0
 11
383.697917
 21
211.912094
 31
0.0
  0
LINE
  5
C5
330
1F
100
AcDbEntity
  8
0
  6
CONTINUOUS
 62
     6
 60
     1
100
AcDbLine
 10
383.497918
 20
218.412094
 30
0.0
 11
383.497918
 21
211.912094
 31
0.0
  0
LINE
  5
C6
330
1F
100
AcDbEntity
  8
0
  6
CONTINUOUS
 62
     6
 60
     1
100
AcDbLine
 10
400.397918
 20
219.412094
 30
0.0
 11
400.397918
 21
218.412094
 31
0.0
  0
LINE
  5
C7
330
1F
100
AcDbEntity
  8
0
  6
CONTINUOUS
 62
     6
 60
     1
100
AcDbLine
 10
400.397918
 20
262.412094
 30
0.0
 11
400.397918
 21
219.412094
 31
0.0
  0
LINE
  5
C8
330
1F
100
AcDbEntity
  8
0
  6
CONTINUOUS
 62
     6
 60
     1
100
AcDbLine
 10
400.397918
 20
262.412094
 30
0.0
 11
400.397918
 21
263.412094
 31
0.0
  0
LINE
  5
C9
330
1F
100
AcDbEntity
  8
0
  6
CONTINUOUS
 62
     6
 60
     1
100
AcDbLine
 10
400.597918
 20
219.412094
 30
0.0
 11
400.397918
 21
219.412094
 31
0.0
  0
LINE
  5
CA
330
1F
100
AcDbEntity
  8
0
  6
CONTINUOUS
 62
     6
 60
     1
100
AcDbLine
 10
400.597918
 20
262.412094
 30
0.0
 11
400.397918
 21
262.412094
 31
0.0
  0
LINE
  5
CB
330
1F
100
AcDbEntity
  8
0
  6
CONTINUOUS
 62
     6
 60
     1
100
AcDbLine
 10
383.697917
 20
262.412094
 30
0.0
 11
383.697917
 21
263.412094
 31
0.0
  0
LINE
  5
CC
330
1F
100
AcDbEntity
  8
0
  6
CONTINUOUS
 62
     6
 60
     1
100
AcDbLine
 10
383.497917
 20
219.412094
 30
0.0
 11
383.497917
 21
262.412094
 31
0.0
  0
LINE
  5
CD
330
1F
100
AcDbEntity
  8
0
  6
CONTINUOUS
 62
     6
 60
     1
100
AcDbLine
 10
383.697917
 20
219.412094
 30
0.0
 11
383.697917
 21
262.412094
 31
0.0
  0
LINE
  5
CE
330
1F
100
AcDbEntity
  8
0
  6
CONTINUOUS
 62
     6
 60
     1
100
AcDbLine
 10
383.697917
 20
219.412094
 30
0.0
 11
383.697917
 21
218.412094
 31
0.0
  0
LINE
  5
CF
330
1F
100
AcDbEntity
  8
0
  6
CONTINUOUS
 62
     6
 60
     1
100
AcDbLine
 10
400.397918
 20
262.412094
 30
0.0
 11
383.697917
 21
262.412094
 31
0.0
  0
LINE
  5
D0
330
1F
100
AcDbEntity
  8
0
  6
CONTINUOUS
 62
     6
 60
     1
100
AcDbLine
 10
383.697917
 20
262.412094
 30
0.0
 11
383.497917
 21
262.412094
 31
0.0
  0
LINE
  5
D1
330
1F
100
AcDbEntity
  8
0
  6
CONTINUOUS
 62
     6
 60
     1
100
AcDbLine
 10
383.697917
 20
219.412094
 30
0.0
 11
400.397918
 21
219.412094
 31
0.0
  0
LINE
  5
D2
330
1F
100
AcDbEntity
  8
0
  6
CONTINUOUS
 62
     6
 60
     1
100
AcDbLine
 10
383.697917
 20
219.412094
 30
0.0
 11
383.497917
 21
219.412094
 31
0.0
  0
LINE
  5
D3
330
1F
100
AcDbEntity
  8
0
  6
CONTINUOUS
 62
     6
 60
     1
100
AcDbLine
 10
388.975494
 20
274.978248
 30
0.0
 11
388.947554
 21
275.297596
 31
0.0
  0
LINE
  5
D4
330
1F
100
AcDbEntity
  8
0
  6
CONTINUOUS
 62
     6
 60
     1
100
AcDbLine
 10
386.398282
 20
275.297596
 30
0.0
 11
386.370342
 21
274.978248
 31
0.0
  0
ARC
  5
D5
330
1F
100
AcDbEntity
  8
0
  6
CONTINUOUS
 62
     6
 60
     1
100
AcDbCircle
 10
387.672918
 20
277.212094
 30
0.0
 40
1.999999988079071
100
AcDbArc
 50
201.313823
 51
358.239905
  0
ARC
  5
D6
330
1F
100
AcDbEntity
  8
0
  6
CONTINUOUS
 62
     6
 60
     1
100
AcDbCircle
 10
-387.672918
 20
277.212094
 30
0.0
 40
1.999999988079071
210
0.0
220
0.0
230
-1.0
100
AcDbArc
 50
1.760095
 51
158.686177
  0
LINE
  5
D7
330
1F
100
AcDbEntity
  8
0
  6
CONTINUOUS
 62
     6
 60
     1
100
AcDbLine
 10
397.725494
 20
274.978249
 30
0.0
 11
397.697555
 21
275.297596
 31
0.0
  0
LINE
  5
D8
330
1F
100
AcDbEntity
  8
0
  6
CONTINUOUS
 62
     6
 60
     1
100
AcDbLine
 10
395.148283
 20
275.297596
 30
0.0
 11
395.120343
 21
274.978248
 31
0.0
  0
ARC
  5
D9
330
1F
100
AcDbEntity
  8
0
  6
CONTINUOUS
 62
     6
 60
     1
100
AcDbCircle
 10
396.422919
 20
277.212094
 30
0.0
 40
1.999999988079071
100
AcDbArc
 50
201.313823
 51
358.239905
  0
ARC
  5
DA
330
1F
100
AcDbEntity
  8
0
  6
CONTINUOUS
 62
     6
 60
     1
100
AcDbCircle
 10
-396.422919
 20
277.212094
 30
0.0
 40
1.999999988079071
210
0.0
220
0.0
230
-1.0
100
AcDbArc
 50
1.760095
 51
158.686177
  0
LINE
  5
DB
330
1F
100
AcDbEntity
  8
0
  6
CONTINUOUS
 62
     6
 60
     1
100
AcDbLine
 10
398.172918
 20
263.612094
 30
0.0
 11
399.047918
 21
263.612094
 31
0.0
  0
LINE
  5
DC
330
1F
100
AcDbEntity
  8
0
  6
CONTINUOUS
 62
     6
 60
     1
100
AcDbLine
 10
393.797918
 20
263.612094
 30
0.0
 11
394.672918
 21
263.612094
 31
0.0
  0
LINE
  5
DD
330
1F
100
AcDbEntity
  8
0
  6
CONTINUOUS
 62
     6
 60
     1
100
AcDbLine
 10
390.297917
 20
263.612094
 30
0.0
 11
389.422917
 21
263.612094
 31
0.0
  0
LINE
  5
DE
330
1F
100
AcDbEntity
  8
0
  6
CONTINUOUS
 62
     6
 60
     1
100
AcDbLine
 10
385.922917
 20
263.612094
 30
0.0
 11
385.047917
 21
263.612094
 31
0.0
  0
LINE
  5
DF
330
1F
100
AcDbEntity
  8
0
  6
CONTINUOUS
 62
     6
 60
     1
100
AcDbLine
 10
398.172918
 20
263.412094
 30
0.0
 11
398.172918
 21
263.612094
 31
0.0
  0
LINE
  5
E0
330
1F
100
AcDbEntity
  8
0
  6
CONTINUOUS
 62
     6
 60
     1
100
AcDbLine
 10
394.672918
 20
263.412094
 30
0.0
 11
394.672918
 21
263.612094
 31
0.0
  0
LINE
  5
E1
330
1F
100
AcDbEntity
  8
0
  6
CONTINUOUS
 62
     6
 60
     1
100
AcDbLine
 10
389.422917
 20
263.412094
 30
0.0
 11
389.422917
 21
263.612094
 31
0.0
  0
LINE
  5
E2
330
1F
100
AcDbEntity
  8
0
  6
CONTINUOUS
 62
     6
 60
     1
100
AcDbLine
 10
385.922917
 20
263.412094
 30
0.0
 11
385.922917
 21
263.612094
 31
0.0
  0
LINE
  5
E3
330
1F
100
AcDbEntity
  8
0
  6
CONTINUOUS
 62
     6
 60
     1
100
AcDbLine
 10
390.107916
 20
266.222093
 30
0.0
 11
390.107916
 21
266.202094
 31
0.0
  0
LINE
  5
E4
330
1F
100
AcDbEntity
  8
0
  6
CONTINUOUS
 62
     6
 60
     1
100
AcDbLine
 10
390.097917
 20
266.212094
 30
0.0
 11
390.107916
 21
266.222093
 31
0.0
  0
LINE
  5
E5
330
1F
100
AcDbEntity
  8
0
  6
CONTINUOUS
 62
     6
 60
     1
100
AcDbLine
 10
390.107916
 20
266.222093
 30
0.0
 11
390.297917
 21
266.412094
 31
0.0
  0
LINE
  5
E6
330
1F
100
AcDbEntity
  8
0
  6
CONTINUOUS
 62
     6
 60
     1
100
AcDbLine
 10
390.097917
 20
266.212094
 30
0.0
 11
390.107916
 21
266.202094
 31
0.0
  0
LINE
  5
E7
330
1F
100
AcDbEntity
  8
0
  6
CONTINUOUS
 62
     6
 60
     1
100
AcDbLine
 10
390.107916
 20
266.202094
 30
0.0
 11
390.297917
 21
266.012094
 31
0.0
  0
LINE
  5
E8
330
1F
100
AcDbEntity
  8
0
  6
CONTINUOUS
 62
     6
 60
     1
100
AcDbLine
 10
393.987917
 20
266.202093
 30
0.0
 11
393.987917
 21
266.222094
 31
0.0
  0
LINE
  5
E9
330
1F
100
AcDbEntity
  8
0
  6
CONTINUOUS
 62
     6
 60
     1
100
AcDbLine
 10
393.997918
 20
266.212094
 30
0.0
 11
393.987917
 21
266.222094
 31
0.0
  0
LINE
  5
EA
330
1F
100
AcDbEntity
  8
0
  6
CONTINUOUS
 62
     6
 60
     1
100
AcDbLine
 10
393.987917
 20
266.222094
 30
0.0
 11
393.797918
 21
266.412094
 31
0.0
  0
LINE
  5
EB
330
1F
100
AcDbEntity
  8
0
  6
CONTINUOUS
 62
     6
 60
     1
100
AcDbLine
 10
393.997918
 20
266.212094
 30
0.0
 11
393.987917
 21
266.202093
 31
0.0
  0
LINE
  5
EC
330
1F
100
AcDbEntity
  8
0
  6
CONTINUOUS
 62
     6
 60
     1
100
AcDbLine
 10
393.987917
 20
266.202093
 30
0.0
 11
393.797918
 21
266.012094
 31
0.0
  0
LINE
  5
ED
330
1F
100
AcDbEntity
  8
0
  6
CONTINUOUS
 62
     6
 60
     1
100
AcDbLine
 10
389.297917
 20
263.612094
 30
0.0
 11
389.422917
 21
263.612094
 31
0.0
  0
LINE
  5
EE
330
1F
100
AcDbEntity
  8
0
  6
CONTINUOUS
 62
     6
 60
     1
100
AcDbLine
 10
387.172917
 20
263.612094
 30
0.0
 11
388.172917
 21
263.612094
 31
0.0
  0
LINE
  5
EF
330
1F
100
AcDbEntity
  8
0
  6
CONTINUOUS
 62
     6
 60
     1
100
AcDbLine
 10
385.922918
 20
263.612094
 30
0.0
 11
386.047917
 21
263.612094
 31
0.0
  0
LINE
  5
F0
330
1F
100
AcDbEntity
  8
0
  6
CONTINUOUS
 62
     6
 60
     1
100
AcDbLine
 10
398.047918
 20
263.612094
 30
0.0
 11
398.172917
 21
263.612094
 31
0.0
  0
LINE
  5
F1
330
1F
100
AcDbEntity
  8
0
  6
CONTINUOUS
 62
     6
 60
     1
100
AcDbLine
 10
395.922918
 20
263.612094
 30
0.0
 11
396.922918
 21
263.612094
 31
0.0
  0
LINE
  5
F2
330
1F
100
AcDbEntity
  8
0
  6
CONTINUOUS
 62
     6
 60
     1
100
AcDbLine
 10
394.672918
 20
263.612094
 30
0.0
 11
394.797918
 21
263.612094
 31
0.0
  0
LINE
  5
F3
330
1F
100
AcDbEntity
  8
0
  6
CONTINUOUS
 62
     6
 60
     1
100
AcDbLine
 10
385.997889
 20
263.612094
 30
0.0
 11
385.997889
 21
263.412094
 31
0.0
  0
LINE
  5
F4
330
1F
100
AcDbEntity
  8
0
  6
CONTINUOUS
 62
     6
 60
     1
100
AcDbLine
 10
385.997889
 20
218.212095
 30
0.0
 11
385.997889
 21
218.412094
 31
0.0
  0
ARC
  5
F5
330
1F
100
AcDbEntity
  8
0
  6
CONTINUOUS
 62
     6
 60
     1
100
AcDbCircle
 10
-392.047918
 20
198.512101
 30
0.0
 40
1.025
210
0.0
220
0.0
230
-1.0
100
AcDbArc
 50
157.030773
 51
0.0
  0
ARC
  5
F6
330
1F
100
AcDbEntity
  8
0
  6
CONTINUOUS
 62
     6
 60
     1
100
AcDbCircle
 10
-392.047918
 20
198.512101
 30
0.0
 40
1.025
210
0.0
220
0.0
230
-1.0
100
AcDbArc
 50
0.0
 51
22.969227
  0
LINE
  5
F7
330
1F
100
AcDbEntity
  8
0
  6
CONTINUOUS
 62
     6
 60
     1
100
AcDbLine
 10
397.42292
 20
196.712101
 30
0.0
 11
386.997919
 21
196.712102
 31
0.0
  0
LINE
  5
F8
330
1F
100
AcDbEntity
  8
0
  6
CONTINUOUS
 62
     6
 60
     1
100
AcDbLine
 10
397.422919
 20
198.912094
 30
0.0
 11
397.42292
 21
196.712101
 31
0.0
  0
LINE
  5
F9
330
1F
100
AcDbEntity
  8
0
  6
CONTINUOUS
 62
     6
 60
     1
100
AcDbLine
 10
386.997919
 20
198.912094
 30
0.0
 11
386.997919
 21
196.712102
 31
0.0
  0
LINE
  5
FA
330
1F
100
AcDbEntity
  8
0
  6
CONTINUOUS
 62
     6
 60
     1
100
AcDbLine
 10
385.922917
 20
218.212095
 30
0.0
 11
385.047917
 21
218.212095
 31
0.0
  0
LINE
  5
FB
330
1F
100
AcDbEntity
  8
0
  6
CONTINUOUS
 62
     6
 60
     1
100
AcDbLine
 10
390.297917
 20
218.212095
 30
0.0
 11
389.422917
 21
218.212095
 31
0.0
  0
LINE
  5
FC
330
1F
100
AcDbEntity
  8
0
  6
CONTINUOUS
 62
     6
 60
     1
100
AcDbLine
 10
393.797918
 20
218.212095
 30
0.0
 11
394.672918
 21
218.212095
 31
0.0
  0
LINE
  5
FD
330
1F
100
AcDbEntity
  8
0
  6
CONTINUOUS
 62
     6
 60
     1
100
AcDbLine
 10
398.172918
 20
218.212095
 30
0.0
 11
399.047918
 21
218.212095
 31
0.0
  0
LINE
  5
FE
330
1F
100
AcDbEntity
  8
0
  6
CONTINUOUS
 62
     6
 60
     1
100
AcDbLine
 10
385.922917
 20
218.412094
 30
0.0
 11
385.922917
 21
218.212095
 31
0.0
  0
LINE
  5
FF
330
1F
100
AcDbEntity
  8
0
  6
CONTINUOUS
 62
     6
 60
     1
100
AcDbLine
 10
389.422917
 20
218.412094
 30
0.0
 11
389.422917
 21
218.212095
 31
0.0
  0
LINE
  5
100
330
1F
100
AcDbEntity
  8
0
  6
CONTINUOUS
 62
     6
 60
     1
100
AcDbLine
 10
394.672918
 20
218.412094
 30
0.0
 11
394.672918
 21
218.212095
 31
0.0
  0
LINE
  5
101
330
1F
100
AcDbEntity
  8
0
  6
CONTINUOUS
 62
     6
 60
     1
100
AcDbLine
 10
398.172918
 20
218.412094
 30
0.0
 11
398.172918
 21
218.212095
 31
0.0
  0
LINE
  5
102
330
1F
100
AcDbEntity
  8
0
  6
CONTINUOUS
 62
     6
 60
     1
100
AcDbLine
 10
393.987918
 20
215.602095
 30
0.0
 11
393.987918
 21
215.622094
 31
0.0
  0
LINE
  5
103
330
1F
100
AcDbEntity
  8
0
  6
CONTINUOUS
 62
     6
 60
     1
100
AcDbLine
 10
393.997918
 20
215.612095
 30
0.0
 11
393.987918
 21
215.602095
 31
0.0
  0
LINE
  5
104
330
1F
100
AcDbEntity
  8
0
  6
CONTINUOUS
 62
     6
 60
     1
100
AcDbLine
 10
393.987918
 20
215.602095
 30
0.0
 11
393.797918
 21
215.412095
 31
0.0
  0
LINE
  5
105
330
1F
100
AcDbEntity
  8
0
  6
CONTINUOUS
 62
     6
 60
     1
100
AcDbLine
 10
393.997918
 20
215.612095
 30
0.0
 11
393.987918
 21
215.622094
 31
0.0
  0
LINE
  5
106
330
1F
100
AcDbEntity
  8
0
  6
CONTINUOUS
 62
     6
 60
     1
100
AcDbLine
 10
393.987918
 20
215.622094
 30
0.0
 11
393.797918
 21
215.812095
 31
0.0
  0
LINE
  5
107
330
1F
100
AcDbEntity
  8
0
  6
CONTINUOUS
 62
     6
 60
     1
100
AcDbLine
 10
390.107917
 20
215.622095
 30
0.0
 11
390.107917
 21
215.602094
 31
0.0
  0
LINE
  5
108
330
1F
100
AcDbEntity
  8
0
  6
CONTINUOUS
 62
     6
 60
     1
100
AcDbLine
 10
390.097917
 20
215.612095
 30
0.0
 11
390.107917
 21
215.602094
 31
0.0
  0
LINE
  5
109
330
1F
100
AcDbEntity
  8
0
  6
CONTINUOUS
 62
     6
 60
     1
100
AcDbLine
 10
390.107917
 20
215.602094
 30
0.0
 11
390.297917
 21
215.412095
 31
0.0
  0
LINE
  5
10A
330
1F
100
AcDbEntity
  8
0
  6
CONTINUOUS
 62
     6
 60
     1
100
AcDbLine
 10
390.097917
 20
215.612095
 30
0.0
 11
390.107917
 21
215.622095
 31
0.0
  0
LINE
  5
10B
330
1F
100
AcDbEntity
  8
0
  6
CONTINUOUS
 62
     6
 60
     1
100
AcDbLine
 10
390.107917
 20
215.622095
 30
0.0
 11
390.297917
 21
215.812095
 31
0.0
  0
LINE
  5
10C
330
1F
100
AcDbEntity
  8
0
  6
CONTINUOUS
 62
     6
 60
     1
100
AcDbLine
 10
394.797918
 20
218.212095
 30
0.0
 11
394.672918
 21
218.212095
 31
0.0
  0
LINE
  5
10D
330
1F
100
AcDbEntity
  8
0
  6
CONTINUOUS
 62
     6
 60
     1
100
AcDbLine
 10
396.922918
 20
218.212095
 30
0.0
 11
395.922918
 21
218.212095
 31
0.0
  0
LINE
  5
10E
330
1F
100
AcDbEntity
  8
0
  6
CONTINUOUS
 62
     6
 60
     1
100
AcDbLine
 10
398.172917
 20
218.212095
 30
0.0
 11
398.047918
 21
218.212095
 31
0.0
  0
LINE
  5
10F
330
1F
100
AcDbEntity
  8
0
  6
CONTINUOUS
 62
     6
 60
     1
100
AcDbLine
 10
386.047917
 20
218.212095
 30
0.0
 11
385.922918
 21
218.212095
 31
0.0
  0
LINE
  5
110
330
1F
100
AcDbEntity
  8
0
  6
CONTINUOUS
 62
     6
 60
     1
100
AcDbLine
 10
388.172917
 20
218.212095
 30
0.0
 11
387.172917
 21
218.212095
 31
0.0
  0
LINE
  5
111
330
1F
100
AcDbEntity
  8
0
  6
CONTINUOUS
 62
     6
 60
     1
100
AcDbLine
 10
389.422917
 20
218.212095
 30
0.0
 11
389.297917
 21
218.212095
 31
0.0
  0
LINE
  5
112
330
1F
100
AcDbEntity
  8
0
  6
CONTINUOUS
 62
     6
 60
     1
100
AcDbLine
 10
395.120341
 20
206.845939
 30
0.0
 11
395.14828
 21
206.526592
 31
0.0
  0
LINE
  5
113
330
1F
100
AcDbEntity
  8
0
  6
CONTINUOUS
 62
     6
 60
     1
100
AcDbLine
 10
397.697553
 20
206.526593
 30
0.0
 11
397.725492
 21
206.84594
 31
0.0
  0
ARC
  5
114
330
1F
100
AcDbEntity
  8
0
  6
CONTINUOUS
 62
     6
 60
     1
100
AcDbCircle
 10
396.422917
 20
204.612095
 30
0.0
 40
1.999999988079071
100
AcDbArc
 50
21.313823
 51
178.239905
  0
ARC
  5
115
330
1F
100
AcDbEntity
  8
0
  6
CONTINUOUS
 62
     6
 60
     1
100
AcDbCircle
 10
-396.422917
 20
204.612095
 30
0.0
 40
1.999999988079071
210
0.0
220
0.0
230
-1.0
100
AcDbArc
 50
181.760095
 51
338.686177
  0
LINE
  5
116
330
1F
100
AcDbEntity
  8
0
  6
CONTINUOUS
 62
     6
 60
     1
100
AcDbLine
 10
386.37034
 20
206.845938
 30
0.0
 11
386.39828
 21
206.526592
 31
0.0
  0
LINE
  5
117
330
1F
100
AcDbEntity
  8
0
  6
CONTINUOUS
 62
     6
 60
     1
100
AcDbLine
 10
388.947552
 20
206.526593
 30
0.0
 11
388.975491
 21
206.84594
 31
0.0
  0
ARC
  5
118
330
1F
100
AcDbEntity
  8
0
  6
CONTINUOUS
 62
     6
 60
     1
100
AcDbCircle
 10
387.672916
 20
204.612095
 30
0.0
 40
1.999999988079071
100
AcDbArc
 50
21.313823
 51
178.239905
  0
ARC
  5
119
330
1F
100
AcDbEntity
  8
0
  6
CONTINUOUS
 62
     6
 60
     1
100
AcDbCircle
 10
-387.672916
 20
204.612095
 30
0.0
 40
1.999999988079071
210
0.0
220
0.0
230
-1.0
100
AcDbArc
 50
181.760095
 51
338.686177
  0
ARC
  5
11A
330
1F
100
AcDbEntity
  8
0
  6
CONTINUOUS
 62
     6
 60
     1
100
AcDbCircle
 10
394.047919
 20
225.912092
 30
0.0
 40
2.399999999999999
100
AcDbArc
 50
215.715529
 51
297.426848
  0
ARC
  5
11B
330
1F
100
AcDbEntity
  8
0
  6
CONTINUOUS
 62
     6
 60
     1
100
AcDbCircle
 10
394.047919
 20
225.912092
 30
0.0
 40
2.399999999999999
100
AcDbArc
 50
136.614984
 51
149.426499
  0
ARC
  5
11C
330
1F
100
AcDbEntity
  8
0
  6
CONTINUOUS
 62
     6
 60
     1
100
AcDbCircle
 10
394.047919
 20
225.912092
 30
0.0
 40
2.399999999999999
100
AcDbArc
 50
104.615333
 51
117.426848
  0
ARC
  5
11D
330
1F
100
AcDbEntity
  8
0
  6
CONTINUOUS
 62
     6
 60
     1
100
AcDbCircle
 10
394.047919
 20
225.912092
 30
0.0
 40
2.399999999999999
100
AcDbArc
 50
316.614984
 51
38.326303
  0
ARC
  5
11E
330
1F
100
AcDbEntity
  8
0
  6
CONTINUOUS
 62
     6
 60
     1
100
AcDbCircle
 10
394.047919
 20
225.912092
 30
0.0
 40
2.48
100
AcDbArc
 50
297.739117
 51
316.302715
  0
ARC
  5
11F
330
1F
100
AcDbEntity
  8
0
  6
CONTINUOUS
 62
     6
 60
     1
100
AcDbCircle
 10
394.047919
 20
225.912092
 30
0.0
 40
2.48
100
AcDbArc
 50
117.81402
 51
136.302715
  0
ARC
  5
120
330
1F
100
AcDbEntity
  8
0
  6
CONTINUOUS
 62
     6
 60
     1
100
AcDbCircle
 10
394.047919
 20
225.912092
 30
0.0
 40
2.48
100
AcDbArc
 50
37.263161
 51
105.678475
  0
ARC
  5
121
330
1F
100
AcDbEntity
  8
0
  6
CONTINUOUS
 62
     6
 60
     1
100
AcDbCircle
 10
394.047919
 20
225.912092
 30
0.0
 40
2.48
100
AcDbArc
 50
148.363357
 51
216.778671
  0
LINE
  5
122
330
1F
100
AcDbEntity
  8
0
  6
CONTINUOUS
 62
     4
 60
     1
100
AcDbLine
 10
482.410449
 20
382.948872
 30
0.0
 11
483.410449
 21
382.948872
 31
0.0
  0
ARC
  5
123
330
1F
100
AcDbEntity
  8
0
  6
CONTINUOUS
 62
     4
 60
     1
100
AcDbCircle
 10
-483.410449
 20
382.148872
 30
0.0
 40
0.7999999970197678
210
0.0
220
0.0
230
-1.0
100
AcDbArc
 50
90.0
 51
180.0
  0
LINE
  5
124
330
1F
100
AcDbEntity
  8
0
  6
CONTINUOUS
 62
     4
 60
     1
100
AcDbLine
 10
484.210449
 20
339.148872
 30
0.0
 11
484.210449
 21
382.148872
 31
0.0
  0
ARC
  5
125
330
1F
100
AcDbEntity
  8
0
  6
CONTINUOUS
 62
     4
 60
     1
100
AcDbCircle
 10
483.410449
 20
339.148872
 30
0.0
 40
0.7999999970197678
100
AcDbArc
 50
270.0
 51
0.0
  0
LINE
  5
126
330
1F
100
AcDbEntity
  8
0
  6
CONTINUOUS
 62
     4
 60
     1
100
AcDbLine
 10
482.410449
 20
338.348872
 30
0.0
 11
483.410449
 21
338.348872
 31
0.0
  0
LINE
  5
127
330
1F
100
AcDbEntity
  8
0
  6
CONTINUOUS
 62
     4
 60
     1
100
AcDbLine
 10
483.410449
 20
383.148872
 30
0.0
 11
483.410449
 21
382.948872
 31
0.0
  0
LINE
  5
128
330
1F
100
AcDbEntity
  8
0
  6
CONTINUOUS
 62
     4
 60
     1
100
AcDbLine
 10
484.410449
 20
382.148872
 30
0.0
 11
484.210449
 21
382.148872
 31
0.0
  0
LINE
  5
129
330
1F
100
AcDbEntity
  8
0
  6
CONTINUOUS
 62
     4
 60
     1
100
AcDbLine
 10
484.410449
 20
339.148872
 30
0.0
 11
484.210449
 21
339.148872
 31
0.0
  0
LINE
  5
12A
330
1F
100
AcDbEntity
  8
0
  6
CONTINUOUS
 62
     4
 60
     1
100
AcDbLine
 10
483.410449
 20
338.148872
 30
0.0
 11
483.410449
 21
338.348872
 31
0.0
  0
LINE
  5
12B
330
1F
100
AcDbEntity
  8
0
  6
CONTINUOUS
 62
     4
 60
     1
100
AcDbLine
 10
427.91045
 20
314.223612
 30
0.0
 11
424.11045
 21
314.223612
 31
0.0
  0
LINE
  5
12C
330
1F
100
AcDbEntity
  8
0
  6
CONTINUOUS
 62
     4
 60
     1
100
AcDbLine
 10
427.91045
 20
316.098859
 30
0.0
 11
424.11045
 21
316.098858
 31
0.0
  0
LINE
  5
12D
330
1F
100
AcDbEntity
  8
0
  6
CONTINUOUS
 62
     4
 60
     1
100
AcDbLine
 10
428.110449
 20
378.848872
 30
0.0
 11
428.110449
 21
342.448872
 31
0.0
  0
ARC
  5
12E
330
1F
100
AcDbEntity
  8
0
  6
CONTINUOUS
 62
     4
 60
     1
100
AcDbCircle
 10
451.410449
 20
401.148872
 30
0.0
 40
1.299999997019768
100
AcDbArc
 50
0.0
 51
90.0
  0
LINE
  5
12F
330
1F
100
AcDbEntity
  8
0
  6
CONTINUOUS
 62
     4
 60
     1
100
AcDbLine
 10
452.710449
 20
401.148872
 30
0.0
 11
452.710449
 21
400.648872
 31
0.0
  0
LINE
  5
130
330
1F
100
AcDbEntity
  8
0
  6
CONTINUOUS
 62
     4
 60
     1
100
AcDbLine
 10
452.710449
 20
400.648872
 30
0.0
 11
452.710449
 21
391.648872
 31
0.0
  0
LINE
  5
131
330
1F
100
AcDbEntity
  8
0
  6
CONTINUOUS
 62
     4
 60
     1
100
AcDbLine
 10
451.410449
 20
402.648872
 30
0.0
 11
451.410449
 21
402.448872
 31
0.0
  0
LINE
  5
132
330
1F
100
AcDbEntity
  8
0
  6
CONTINUOUS
 62
     4
 60
     1
100
AcDbLine
 10
452.710449
 20
401.148872
 30
0.0
 11
452.910449
 21
401.148872
 31
0.0
  0
LINE
  5
133
330
1F
100
AcDbEntity
  8
0
  6
CONTINUOUS
 62
     1
 60
     1
100
AcDbLine
 10
423.610449
 20
342.648872
 30
0.0
 11
423.810449
 21
342.448872
 31
0.0
  0
LINE
  5
134
330
1F
100
AcDbEntity
  8
0
  6
CONTINUOUS
 62
     4
 60
     1
100
AcDbLine
 10
423.810449
 20
342.448872
 30
0.0
 11
423.810449
 21
318.648872
 31
0.0
  0
LINE
  5
135
330
1F
100
AcDbEntity
  8
0
  6
CONTINUOUS
 62
     4
 60
     1
100
AcDbLine
 10
423.810449
 20
342.448872
 30
0.0
 11
428.110449
 21
342.448872
 31
0.0
  0
LINE
  5
136
330
1F
100
AcDbEntity
  8
0
  6
CONTINUOUS
 62
     1
 60
     1
100
AcDbLine
 10
427.910449
 20
342.648872
 30
0.0
 11
428.110449
 21
342.448872
 31
0.0
  0
LINE
  5
137
330
1F
100
AcDbEntity
  8
0
  6
CONTINUOUS
 62
     1
 60
     1
100
AcDbLine
 10
427.910449
 20
378.648872
 30
0.0
 11
428.110449
 21
378.848872
 31
0.0
  0
LINE
  5
138
330
1F
100
AcDbEntity
  8
0
  6
CONTINUOUS
 62
     1
 60
     1
100
AcDbLine
 10
423.810449
 20
390.631374
 30
0.0
 11
423.610449
 21
390.648872
 31
0.0
  0
LINE
  5
139
330
1F
100
AcDbEntity
  8
0
  6
CONTINUOUS
 62
     1
 60
     1
100
AcDbLine
 10
425.894193
 20
402.448872
 30
0.0
 11
425.726373
 21
402.648872
 31
0.0
  0
LINE
  5
13A
330
1F
100
AcDbEntity
  8
0
  6
CONTINUOUS
 62
     4
 60
     1
100
AcDbLine
 10
425.894193
 20
402.448872
 30
0.0
 11
451.410449
 21
402.448872
 31
0.0
  0
LINE
  5
13B
330
1F
100
AcDbEntity
  8
0
  6
CONTINUOUS
 62
     4
 60
     1
100
AcDbLine
 10
425.894193
 20
402.448872
 30
0.0
 11
423.810449
 21
390.631374
 31
0.0
  0
LINE
  5
13C
330
1F
100
AcDbEntity
  8
0
  6
CONTINUOUS
 62
     4
 60
     1
100
AcDbLine
 10
452.910449
 20
391.448872
 30
0.0
 11
469.910449
 21
391.448872
 31
0.0
  0
ARC
  5
13D
330
1F
100
AcDbEntity
  8
0
  6
CONTINUOUS
 62
     4
 60
     1
100
AcDbCircle
 10
469.910449
 20
390.148872
 30
0.0
 40
1.299999997019768
100
AcDbArc
 50
0.0
 51
90.0
  0
LINE
  5
13E
330
1F
100
AcDbEntity
  8
0
  6
CONTINUOUS
 62
     4
 60
     1
100
AcDbLine
 10
471.210449
 20
390.148872
 30
0.0
 11
471.210449
 21
389.648872
 31
0.0
  0
LINE
  5
13F
330
1F
100
AcDbEntity
  8
0
  6
CONTINUOUS
 62
     4
 60
     1
100
AcDbLine
 10
471.210449
 20
389.648872
 30
0.0
 11
471.210449
 21
383.148872
 31
0.0
  0
LINE
  5
140
330
1F
100
AcDbEntity
  8
0
  6
CONTINUOUS
 62
     4
 60
     1
100
AcDbLine
 10
471.410449
 20
382.948872
 30
0.0
 11
482.410449
 21
382.948872
 31
0.0
  0
LINE
  5
141
330
1F
100
AcDbEntity
  8
0
  6
CONTINUOUS
 62
     4
 60
     1
100
AcDbLine
 10
469.910449
 20
391.448872
 30
0.0
 11
469.910449
 21
391.648872
 31
0.0
  0
LINE
  5
142
330
1F
100
AcDbEntity
  8
0
  6
CONTINUOUS
 62
     4
 60
     1
100
AcDbLine
 10
471.210449
 20
390.148872
 30
0.0
 11
471.410449
 21
390.148872
 31
0.0
  0
LINE
  5
143
330
1F
100
AcDbEntity
  8
0
  6
CONTINUOUS
 62
     1
 60
     1
100
AcDbLine
 10
452.910449
 20
391.648872
 30
0.0
 11
452.910449
 21
391.448872
 31
0.0
  0
LINE
  5
144
330
1F
100
AcDbEntity
  8
0
  6
CONTINUOUS
 62
     1
 60
     1
100
AcDbLine
 10
471.410449
 20
383.148872
 30
0.0
 11
471.410449
 21
382.948872
 31
0.0
  0
LINE
  5
145
330
1F
100
AcDbEntity
  8
0
  6
CONTINUOUS
 62
     4
 60
     1
100
AcDbLine
 10
452.710449
 20
329.648872
 30
0.0
 11
452.710449
 21
320.648872
 31
0.0
  0
LINE
  5
146
330
1F
100
AcDbEntity
  8
0
  6
CONTINUOUS
 62
     4
 60
     1
100
AcDbLine
 10
469.910449
 20
329.848872
 30
0.0
 11
452.910449
 21
329.848872
 31
0.0
  0
ARC
  5
147
330
1F
100
AcDbEntity
  8
0
  6
CONTINUOUS
 62
     4
 60
     1
100
AcDbCircle
 10
-469.910449
 20
331.148872
 30
0.0
 40
1.299999997019768
210
0.0
220
0.0
230
-1.0
100
AcDbArc
 50
180.0
 51
270.0
  0
LINE
  5
148
330
1F
100
AcDbEntity
  8
0
  6
CONTINUOUS
 62
     4
 60
     1
100
AcDbLine
 10
471.210449
 20
331.648872
 30
0.0
 11
471.210449
 21
331.148872
 31
0.0
  0
LINE
  5
149
330
1F
100
AcDbEntity
  8
0
  6
CONTINUOUS
 62
     4
 60
     1
100
AcDbLine
 10
469.910449
 20
329.848872
 30
0.0
 11
469.910449
 21
329.648872
 31
0.0
  0
LINE
  5
14A
330
1F
100
AcDbEntity
  8
0
  6
CONTINUOUS
 62
     4
 60
     1
100
AcDbLine
 10
471.410449
 20
331.148872
 30
0.0
 11
471.210449
 21
331.148872
 31
0.0
  0
LINE
  5
14B
330
1F
100
AcDbEntity
  8
0
  6
CONTINUOUS
 62
     1
 60
     1
100
AcDbLine
 10
452.910449
 20
329.648872
 30
0.0
 11
452.910449
 21
329.848872
 31
0.0
  0
LINE
  5
14C
330
1F
100
AcDbEntity
  8
0
  6
CONTINUOUS
 62
     4
 60
     1
100
AcDbLine
 10
471.210449
 20
338.148872
 30
0.0
 11
471.210449
 21
331.648872
 31
0.0
  0
LINE
  5
14D
330
1F
100
AcDbEntity
  8
0
  6
CONTINUOUS
 62
     4
 60
     1
100
AcDbLine
 10
482.410449
 20
338.348872
 30
0.0
 11
471.410449
 21
338.348872
 31
0.0
  0
LINE
  5
14E
330
1F
100
AcDbEntity
  8
0
  6
CONTINUOUS
 62
     1
 60
     1
100
AcDbLine
 10
471.410449
 20
338.148872
 30
0.0
 11
471.410449
 21
338.348872
 31
0.0
  0
LINE
  5
14F
330
1F
100
AcDbEntity
  8
0
  6
CONTINUOUS
 62
     4
 60
     1
100
AcDbLine
 10
423.810449
 20
390.631374
 30
0.0
 11
423.810449
 21
379.648872
 31
0.0
  0
LINE
  5
150
330
1F
100
AcDbEntity
  8
0
  6
CONTINUOUS
 62
     4
 60
     1
100
AcDbLine
 10
423.810449
 20
379.648872
 30
0.0
 11
423.610449
 21
379.648872
 31
0.0
  0
SPLINE
  5
151
330
1F
100
AcDbEntity
  8
0
  6
CONTINUOUS
 62
     1
 60
     1
100
AcDbSpline
210
0.0
220
0.0
230
1.0
 70
     8
 71
     3
 72
    11
 73
     7
 74
     0
 42
0.0
 43
0.0
 40
0.0
 40
0.0
 40
0.0
 40
0.0
 40
0.0943349937770686
 40
0.1974563032859944
 40
0.2511245542329391
 40
0.3560914451970822
 40
0.3560914451970822
 40
0.3560914451970822
 40
0.3560914451970822
 10
426.7104493930053
 20
378.6488718986512
 30
0.0
 10
426.7104493943626
 20
378.6488718986512
 30
0.0
 10
426.6978539097123
 20
378.6652866562616
 30
0.0
 10
426.6589220095639
 20
378.7160236955382
 30
0.0
 10
426.6105687245538
 20
378.7790389204438
 30
0.0
 10
426.5781849015682
 20
378.8212423373222
 30
0.0
 10
426.5569839894994
 20
378.8488719016314
 30
0.0
  0
LINE
  5
152
330
1F
100
AcDbEntity
  8
0
  6
CONTINUOUS
 62
     1
 60
     1
100
AcDbLine
 10
423.610449
 20
378.648872
 30
0.0
 11
423.810449
 21
378.702462
 31
0.0
  0
LINE
  5
153
330
1F
100
AcDbEntity
  8
0
  6
CONTINUOUS
 62
     4
 60
     1
100
AcDbLine
 10
423.810449
 20
378.702462
 30
0.0
 11
423.810449
 21
379.648872
 31
0.0
  0
LINE
  5
154
330
1F
100
AcDbEntity
  8
0
  6
CONTINUOUS
 62
     1
 60
     1
100
AcDbLine
 10
424.76515
 20
376.648872
 30
0.0
 11
424.88062
 21
376.848872
 31
0.0
  0
LINE
  5
155
330
1F
100
AcDbEntity
  8
0
  6
CONTINUOUS
 62
     4
 60
     1
100
AcDbLine
 10
424.88062
 20
376.848872
 30
0.0
 11
423.810449
 21
378.702462
 31
0.0
  0
SPLINE
  5
156
330
1F
100
AcDbEntity
  8
0
  6
CONTINUOUS
 62
     1
 60
     1
100
AcDbSpline
210
0.0
220
0.0
230
1.0
 70
     8
 71
     3
 72
    11
 73
     7
 74
     0
 42
0.0
 43
0.0
 40
0.0
 40
0.0
 40
0.0
 40
0.0
 40
0.09433499565699
 40
0.1974563056986761
 40
0.2511245557539986
 40
0.3560914389597161
 40
0.3560914389597161
 40
0.3560914389597161
 40
0.3560914389597161
 10
426.1745512096822
 20
376.6488720281678
 30
0.0
 10
426.1745512110396
 20
376.6488720281678
 30
0.0
 10
426.1619557257574
 20
376.6652867852791
 30
0.0
 10
426.1230238234803
 20
376.7160238232418
 30
0.0
 10
426.0746705373982
 20
376.779039044467
 30
0.0
 10
426.0422867145571
 20
376.8212424577565
 30
0.0
 10
426.021085802976
 20
376.8488720192039
 30
0.0
  0
LINE
  5
157
330
1F
100
AcDbEntity
  8
0
  6
CONTINUOUS
 62
     4
 60
     1
100
AcDbLine
 10
426.021086
 20
376.848872
 30
0.0
 11
424.88062
 21
376.848872
 31
0.0
  0
LINE
  5
158
330
1F
100
AcDbEntity
  8
0
  6
CONTINUOUS
 62
     4
 60
     1
100
AcDbLine
 10
426.556984
 20
378.848872
 30
0.0
 11
426.021086
 21
376.848872
 31
0.0
  0
LINE
  5
159
330
1F
100
AcDbEntity
  8
0
  6
CONTINUOUS
 62
     4
 60
     1
100
AcDbLine
 10
428.110449
 20
378.848872
 30
0.0
 11
426.556984
 21
378.848872
 31
0.0
  0
LINE
  5
15A
330
1F
100
AcDbEntity
  8
0
  6
CONTINUOUS
 62
     4
 60
     1
100
AcDbLine
 10
401.183643
 20
339.148872
 30
0.0
 11
401.183643
 21
338.148872
 31
0.0
  0
LINE
  5
15B
330
1F
100
AcDbEntity
  8
0
  6
CONTINUOUS
 62
     4
 60
     1
100
AcDbLine
 10
401.183643
 20
382.148872
 30
0.0
 11
401.183643
 21
339.148872
 31
0.0
  0
LINE
  5
15C
330
1F
100
AcDbEntity
  8
0
  6
CONTINUOUS
 62
     4
 60
     1
100
AcDbLine
 10
401.183643
 20
382.148872
 30
0.0
 11
401.183643
 21
383.148872
 31
0.0
  0
LINE
  5
15D
330
1F
100
AcDbEntity
  8
0
  6
CONTINUOUS
 62
     4
 60
     1
100
AcDbLine
 10
401.383643
 20
382.148872
 30
0.0
 11
401.183643
 21
382.148872
 31
0.0
  0
LINE
  5
15E
330
1F
100
AcDbEntity
  8
0
  6
CONTINUOUS
 62
     4
 60
     1
100
AcDbLine
 10
384.483642
 20
382.148872
 30
0.0
 11
384.483642
 21
383.148872
 31
0.0
  0
LINE
  5
15F
330
1F
100
AcDbEntity
  8
0
  6
CONTINUOUS
 62
     4
 60
     1
100
AcDbLine
 10
384.483642
 20
339.148872
 30
0.0
 11
384.483642
 21
382.148872
 31
0.0
  0
LINE
  5
160
330
1F
100
AcDbEntity
  8
0
  6
CONTINUOUS
 62
     4
 60
     1
100
AcDbLine
 10
384.483642
 20
339.148872
 30
0.0
 11
384.483642
 21
338.148872
 31
0.0
  0
LINE
  5
161
330
1F
100
AcDbEntity
  8
0
  6
CONTINUOUS
 62
     4
 60
     1
100
AcDbLine
 10
401.183643
 20
382.148872
 30
0.0
 11
384.483642
 21
382.148872
 31
0.0
  0
LINE
  5
162
330
1F
100
AcDbEntity
  8
0
  6
CONTINUOUS
 62
     4
 60
     1
100
AcDbLine
 10
384.483642
 20
382.148872
 30
0.0
 11
384.283642
 21
382.148872
 31
0.0
  0
LINE
  5
163
330
1F
100
AcDbEntity
  8
0
  6
CONTINUOUS
 62
     6
 60
     1
100
AcDbLine
 10
389.761219
 20
394.715026
 30
0.0
 11
389.73328
 21
395.034374
 31
0.0
  0
LINE
  5
164
330
1F
100
AcDbEntity
  8
0
  6
CONTINUOUS
 62
     6
 60
     1
100
AcDbLine
 10
387.184007
 20
395.034374
 30
0.0
 11
387.156068
 21
394.715026
 31
0.0
  0
ARC
  5
165
330
1F
100
AcDbEntity
  8
0
  6
CONTINUOUS
 62
     4
 60
     1
100
AcDbCircle
 10
388.458643
 20
396.948872
 30
0.0
 40
1.999999988079071
100
AcDbArc
 50
201.313823
 51
358.239905
  0
ARC
  5
166
330
1F
100
AcDbEntity
  8
0
  6
CONTINUOUS
 62
     4
 60
     1
100
AcDbCircle
 10
-388.458643
 20
396.948872
 30
0.0
 40
1.999999988079071
210
0.0
220
0.0
230
-1.0
100
AcDbArc
 50
1.760095
 51
158.686177
  0
LINE
  5
167
330
1F
100
AcDbEntity
  8
0
  6
CONTINUOUS
 62
     6
 60
     1
100
AcDbLine
 10
398.51122
 20
394.715027
 30
0.0
 11
398.483281
 21
395.034374
 31
0.0
  0
LINE
  5
168
330
1F
100
AcDbEntity
  8
0
  6
CONTINUOUS
 62
     6
 60
     1
100
AcDbLine
 10
395.934008
 20
395.034374
 30
0.0
 11
395.906069
 21
394.715026
 31
0.0
  0
ARC
  5
169
330
1F
100
AcDbEntity
  8
0
  6
CONTINUOUS
 62
     4
 60
     1
100
AcDbCircle
 10
397.208644
 20
396.948872
 30
0.0
 40
1.999999988079071
100
AcDbArc
 50
201.313823
 51
358.239905
  0
ARC
  5
16A
330
1F
100
AcDbEntity
  8
0
  6
CONTINUOUS
 62
     4
 60
     1
100
AcDbCircle
 10
-397.208644
 20
396.948872
 30
0.0
 40
1.999999988079071
210
0.0
220
0.0
230
-1.0
100
AcDbArc
 50
1.760095
 51
158.686177
  0
LINE
  5
16B
330
1F
100
AcDbEntity
  8
0
  6
CONTINUOUS
 62
     4
 60
     1
100
AcDbLine
 10
401.183643
 20
401.148872
 30
0.0
 11
401.183643
 21
402.648872
 31
0.0
  0
LINE
  5
16C
330
1F
100
AcDbEntity
  8
0
  6
CONTINUOUS
 62
     4
 60
     1
100
AcDbLine
 10
401.183643
 20
401.148872
 30
0.0
 11
401.183643
 21
400.648872
 31
0.0
  0
LINE
  5
16D
330
1F
100
AcDbEntity
  8
0
  6
CONTINUOUS
 62
     4
 60
     1
100
AcDbLine
 10
401.383643
 20
400.648872
 30
0.0
 11
401.383643
 21
391.648872
 31
0.0
  0
LINE
  5
16E
330
1F
100
AcDbEntity
  8
0
  6
CONTINUOUS
 62
     1
 60
     1
100
AcDbLine
 10
401.383643
 20
400.648872
 30
0.0
 11
401.183643
 21
400.648872
 31
0.0
  0
LINE
  5
16F
330
1F
100
AcDbEntity
  8
0
  6
CONTINUOUS
 62
     4
 60
     1
100
AcDbLine
 10
384.483642
 20
401.148872
 30
0.0
 11
384.483642
 21
402.648872
 31
0.0
  0
LINE
  5
170
330
1F
100
AcDbEntity
  8
0
  6
CONTINUOUS
 62
     4
 60
     1
100
AcDbLine
 10
384.483642
 20
401.148872
 30
0.0
 11
384.483642
 21
400.648872
 31
0.0
  0
LINE
  5
171
330
1F
100
AcDbEntity
  8
0
  6
CONTINUOUS
 62
     4
 60
     1
100
AcDbLine
 10
384.283643
 20
400.648872
 30
0.0
 11
384.283643
 21
391.648872
 31
0.0
  0
LINE
  5
172
330
1F
100
AcDbEntity
  8
0
  6
CONTINUOUS
 62
     1
 60
     1
100
AcDbLine
 10
384.283642
 20
400.648872
 30
0.0
 11
384.483642
 21
400.648872
 31
0.0
  0
LINE
  5
173
330
1F
100
AcDbEntity
  8
0
  6
CONTINUOUS
 62
     4
 60
     1
100
AcDbLine
 10
384.483642
 20
390.148872
 30
0.0
 11
384.483642
 21
391.648872
 31
0.0
  0
LINE
  5
174
330
1F
100
AcDbEntity
  8
0
  6
CONTINUOUS
 62
     4
 60
     1
100
AcDbLine
 10
384.483642
 20
390.148872
 30
0.0
 11
384.483642
 21
389.648872
 31
0.0
  0
LINE
  5
175
330
1F
100
AcDbEntity
  8
0
  6
CONTINUOUS
 62
     4
 60
     1
100
AcDbLine
 10
384.283643
 20
389.648872
 30
0.0
 11
384.283643
 21
383.148872
 31
0.0
  0
LINE
  5
176
330
1F
100
AcDbEntity
  8
0
  6
CONTINUOUS
 62
     1
 60
     1
100
AcDbLine
 10
384.283642
 20
389.648872
 30
0.0
 11
384.483642
 21
389.648872
 31
0.0
  0
LINE
  5
177
330
1F
100
AcDbEntity
  8
0
  6
CONTINUOUS
 62
     4
 60
     1
100
AcDbLine
 10
401.183643
 20
390.148872
 30
0.0
 11
401.183643
 21
391.648872
 31
0.0
  0
LINE
  5
178
330
1F
100
AcDbEntity
  8
0
  6
CONTINUOUS
 62
     4
 60
     1
100
AcDbLine
 10
401.183643
 20
390.148872
 30
0.0
 11
401.183643
 21
389.648872
 31
0.0
  0
LINE
  5
179
330
1F
100
AcDbEntity
  8
0
  6
CONTINUOUS
 62
     4
 60
     1
100
AcDbLine
 10
401.383643
 20
389.648872
 30
0.0
 11
401.383643
 21
383.148872
 31
0.0
  0
LINE
  5
17A
330
1F
100
AcDbEntity
  8
0
  6
CONTINUOUS
 62
     1
 60
     1
100
AcDbLine
 10
401.383643
 20
389.648872
 30
0.0
 11
401.183643
 21
389.648872
 31
0.0
  0
LINE
  5
17B
330
1F
100
AcDbEntity
  8
0
  6
CONTINUOUS
 62
     4
 60
     1
100
AcDbLine
 10
401.383643
 20
338.148872
 30
0.0
 11
401.383643
 21
331.648872
 31
0.0
  0
LINE
  5
17C
330
1F
100
AcDbEntity
  8
0
  6
CONTINUOUS
 62
     4
 60
     1
100
AcDbLine
 10
401.183643
 20
331.648872
 30
0.0
 11
401.183643
 21
331.148872
 31
0.0
  0
LINE
  5
17D
330
1F
100
AcDbEntity
  8
0
  6
CONTINUOUS
 62
     4
 60
     1
100
AcDbLine
 10
401.183643
 20
331.148872
 30
0.0
 11
401.183643
 21
329.648872
 31
0.0
  0
LINE
  5
17E
330
1F
100
AcDbEntity
  8
0
  6
CONTINUOUS
 62
     1
 60
     1
100
AcDbLine
 10
401.383643
 20
331.648872
 30
0.0
 11
401.183643
 21
331.648872
 31
0.0
  0
LINE
  5
17F
330
1F
100
AcDbEntity
  8
0
  6
CONTINUOUS
 62
     7
 60
     1
100
AcDbLine
 10
384.283643
 20
329.648872
 30
0.0
 11
384.283643
 21
320.648872
 31
0.0
  0
LINE
  5
180
330
1F
100
AcDbEntity
  8
0
  6
CONTINUOUS
 62
     4
 60
     1
100
AcDbLine
 10
384.483642
 20
331.148872
 30
0.0
 11
384.483642
 21
329.648872
 31
0.0
  0
LINE
  5
181
330
1F
100
AcDbEntity
  8
0
  6
CONTINUOUS
 62
     4
 60
     1
100
AcDbLine
 10
384.483642
 20
331.648872
 30
0.0
 11
384.483642
 21
331.148872
 31
0.0
  0
LINE
  5
182
330
1F
100
AcDbEntity
  8
0
  6
CONTINUOUS
 62
     1
 60
     1
100
AcDbLine
 10
384.283643
 20
331.648872
 30
0.0
 11
384.483642
 21
331.648872
 31
0.0
  0
LINE
  5
183
330
1F
100
AcDbEntity
  8
0
  6
CONTINUOUS
 62
     4
 60
     1
100
AcDbLine
 10
384.283643
 20
338.148872
 30
0.0
 11
384.283643
 21
331.648872
 31
0.0
  0
LINE
  5
184
330
1F
100
AcDbEntity
  8
0
  6
CONTINUOUS
 62
     6
 60
     1
100
AcDbLine
 10
387.156066
 20
337.582716
 30
0.0
 11
387.184005
 21
337.263371
 31
0.0
  0
LINE
  5
185
330
1F
100
AcDbEntity
  8
0
  6
CONTINUOUS
 62
     6
 60
     1
100
AcDbLine
 10
389.733278
 20
337.263371
 30
0.0
 11
389.761217
 21
337.582719
 31
0.0
  0
ARC
  5
186
330
1F
100
AcDbEntity
  8
0
  6
CONTINUOUS
 62
     4
 60
     1
100
AcDbCircle
 10
388.458641
 20
335.348873
 30
0.0
 40
1.999999988079071
100
AcDbArc
 50
21.313823
 51
178.239905
  0
ARC
  5
187
330
1F
100
AcDbEntity
  8
0
  6
CONTINUOUS
 62
     4
 60
     1
100
AcDbCircle
 10
-388.458641
 20
335.348873
 30
0.0
 40
1.999999988079071
210
0.0
220
0.0
230
-1.0
100
AcDbArc
 50
181.760095
 51
338.686177
  0
LINE
  5
188
330
1F
100
AcDbEntity
  8
0
  6
CONTINUOUS
 62
     6
 60
     1
100
AcDbLine
 10
395.906067
 20
337.582717
 30
0.0
 11
395.934006
 21
337.263371
 31
0.0
  0
LINE
  5
189
330
1F
100
AcDbEntity
  8
0
  6
CONTINUOUS
 62
     6
 60
     1
100
AcDbLine
 10
398.483279
 20
337.263371
 30
0.0
 11
398.511218
 21
337.582718
 31
0.0
  0
ARC
  5
18A
330
1F
100
AcDbEntity
  8
0
  6
CONTINUOUS
 62
     4
 60
     1
100
AcDbCircle
 10
397.208642
 20
335.348873
 30
0.0
 40
1.999999988079071
100
AcDbArc
 50
21.313823
 51
178.239905
  0
ARC
  5
18B
330
1F
100
AcDbEntity
  8
0
  6
CONTINUOUS
 62
     4
 60
     1
100
AcDbCircle
 10
-397.208642
 20
335.348873
 30
0.0
 40
1.999999988079071
210
0.0
220
0.0
230
-1.0
100
AcDbArc
 50
181.760095
 51
338.686177
  0
LINE
  5
18C
330
1F
100
AcDbEntity
  8
0
  6
CONTINUOUS
 62
     6
 60
     1
100
AcDbLine
 10
389.761218
 20
383.715027
 30
0.0
 11
389.73328
 21
384.034364
 31
0.0
  0
LINE
  5
18D
330
1F
100
AcDbEntity
  8
0
  6
CONTINUOUS
 62
     6
 60
     1
100
AcDbLine
 10
387.184007
 20
384.034363
 30
0.0
 11
387.156069
 21
383.715027
 31
0.0
  0
ARC
  5
18E
330
1F
100
AcDbEntity
  8
0
  6
CONTINUOUS
 62
     4
 60
     1
100
AcDbCircle
 10
388.458643
 20
385.948861
 30
0.0
 40
1.999999988079071
100
AcDbArc
 50
201.313823
 51
358.239905
  0
ARC
  5
18F
330
1F
100
AcDbEntity
  8
0
  6
CONTINUOUS
 62
     4
 60
     1
100
AcDbCircle
 10
-388.458643
 20
385.948861
 30
0.0
 40
1.999999988079071
210
0.0
220
0.0
230
-1.0
100
AcDbArc
 50
1.760095
 51
158.686177
  0
ARC
  5
190
330
1F
100
AcDbEntity
  8
0
  6
CONTINUOUS
 62
     1
 60
     1
100
AcDbCircle
 10
394.833603
 20
348.119449
 30
0.0
 40
2.48
100
AcDbArc
 50
270.242245
 51
338.657559
  0
ARC
  5
191
330
1F
100
AcDbEntity
  8
0
  6
CONTINUOUS
 62
     1
 60
     1
100
AcDbCircle
 10
394.833603
 20
348.119449
 30
0.0
 40
2.48
100
AcDbArc
 50
21.342441
 51
89.757755
  0
ARC
  5
192
330
1F
100
AcDbEntity
  8
0
  6
CONTINUOUS
 62
     6
 60
     1
100
AcDbCircle
 10
397.496457
 20
344.237706
 30
0.0
 40
3.0
100
AcDbArc
 50
96.324396
 51
97.311676
  0
ARC
  5
193
330
1F
100
AcDbEntity
  8
0
  6
CONTINUOUS
 62
     6
 60
     1
100
AcDbCircle
 10
-397.496457
 20
352.001191
 30
0.0
 40
3.0
210
0.0
220
0.0
230
-1.0
100
AcDbArc
 50
276.324396
 51
277.311678
  0
ARC
  5
194
330
1F
100
AcDbEntity
  8
0
  6
CONTINUOUS
 62
     4
 60
     1
100
AcDbCircle
 10
-396.233476
 20
348.138332
 30
0.0
 40
0.2000000029802323
210
0.0
220
0.0
230
-1.0
100
AcDbArc
 50
185.417691
 51
252.058603
  0
ARC
  5
195
330
1F
100
AcDbEntity
  8
0
  6
CONTINUOUS
 62
     4
 60
     1
100
AcDbCircle
 10
-397.496456
 20
344.237707
 30
0.0
 40
3.899999998509884
210
0.0
220
0.0
230
-1.0
100
AcDbArc
 50
39.041593
 51
72.058603
  0
ARC
  5
196
330
1F
100
AcDbEntity
  8
0
  6
CONTINUOUS
 62
     4
 60
     1
100
AcDbCircle
 10
-394.312032
 20
346.820233
 30
0.0
 40
0.2000000029802323
210
0.0
220
0.0
230
-1.0
100
AcDbArc
 50
219.041593
 51
291.873023
  0
ARC
  5
197
330
1F
100
AcDbEntity
  8
0
  6
CONTINUOUS
 62
     4
 60
     1
100
AcDbCircle
 10
394.833603
 20
348.119449
 30
0.0
 40
1.600000001490116
100
AcDbArc
 50
111.873023
 51
248.126977
  0
ARC
  5
198
330
1F
100
AcDbEntity
  8
0
  6
CONTINUOUS
 62
     4
 60
     1
100
AcDbCircle
 10
-394.312032
 20
349.418666
 30
0.0
 40
0.2000000029802321
210
0.0
220
0.0
230
-1.0
100
AcDbArc
 50
68.126977
 51
140.958407
  0
ARC
  5
199
330
1F
100
AcDbEntity
  8
0
  6
CONTINUOUS
 62
     4
 60
     1
100
AcDbCircle
 10
-397.496456
 20
352.001192
 30
0.0
 40
3.899999998509883
210
0.0
220
0.0
230
-1.0
100
AcDbArc
 50
287.941397
 51
320.958407
  0
ARC
  5
19A
330
1F
100
AcDbEntity
  8
0
  6
CONTINUOUS
 62
     4
 60
     1
100
AcDbCircle
 10
-396.233476
 20
348.100566
 30
0.0
 40
0.2000000029802319
210
0.0
220
0.0
230
-1.0
100
AcDbArc
 50
107.941397
 51
174.582309
  0
LINE
  5
19B
330
1F
100
AcDbEntity
  8
0
  6
CONTINUOUS
 62
     4
 60
     1
100
AcDbLine
 10
394.46737
 20
346.694256
 30
0.0
 11
394.389701
 21
346.757244
 31
0.0
  0
LINE
  5
19C
330
1F
100
AcDbEntity
  8
0
  6
CONTINUOUS
 62
     4
 60
     1
100
AcDbLine
 10
396.26428
 20
348.043195
 30
0.0
 11
396.295084
 21
347.948058
 31
0.0
  0
LINE
  5
19D
330
1F
100
AcDbEntity
  8
0
  6
CONTINUOUS
 62
     4
 60
     1
100
AcDbLine
 10
394.237522
 20
349.604268
 30
0.0
 11
394.274777
 21
349.511467
 31
0.0
  0
LINE
  5
19E
330
1F
100
AcDbEntity
  8
0
  6
CONTINUOUS
 62
     4
 60
     1
100
AcDbLine
 10
394.274777
 20
346.727432
 30
0.0
 11
394.237522
 21
346.63463
 31
0.0
  0
LINE
  5
19F
330
1F
100
AcDbEntity
  8
0
  6
CONTINUOUS
 62
     4
 60
     1
100
AcDbLine
 10
396.295084
 20
348.290841
 30
0.0
 11
396.26428
 21
348.195703
 31
0.0
  0
LINE
  5
1A0
330
1F
100
AcDbEntity
  8
0
  6
CONTINUOUS
 62
     4
 60
     1
100
AcDbLine
 10
394.389701
 20
349.481654
 30
0.0
 11
394.46737
 21
349.544643
 31
0.0
  0
LINE
  5
1A1
330
1F
100
AcDbEntity
  8
0
  6
CONTINUOUS
 62
     6
 60
     1
100
AcDbLine
 10
392.45304
 20
347.814622
 30
0.0
 11
392.757867
 21
348.119449
 31
0.0
  0
LINE
  5
1A2
330
1F
100
AcDbEntity
  8
0
  6
CONTINUOUS
 62
     6
 60
     1
100
AcDbLine
 10
392.841949
 20
347.534646
 30
0.0
 11
392.46359
 21
347.741246
 31
0.0
  0
LINE
  5
1A3
330
1F
100
AcDbEntity
  8
0
  6
CONTINUOUS
 62
     6
 60
     1
100
AcDbLine
 10
392.841949
 20
347.534646
 30
0.0
 11
392.706256
 21
347.494803
 31
0.0
  0
LINE
  5
1A4
330
1F
100
AcDbEntity
  8
0
  6
CONTINUOUS
 62
     6
 60
     1
100
AcDbLine
 10
392.635349
 20
347.156287
 30
0.0
 11
392.841949
 21
347.534646
 31
0.0
  0
LINE
  5
1A5
330
1F
100
AcDbEntity
  8
0
  6
CONTINUOUS
 62
     6
 60
     1
100
AcDbLine
 10
393.087383
 20
346.997222
 30
0.0
 11
392.666144
 21
347.088857
 31
0.0
  0
LINE
  5
1A6
330
1F
100
AcDbEntity
  8
0
  6
CONTINUOUS
 62
     6
 60
     1
100
AcDbLine
 10
393.087383
 20
346.997222
 30
0.0
 11
392.968411
 21
346.920764
 31
0.0
  0
LINE
  5
1A7
330
1F
100
AcDbEntity
  8
0
  6
CONTINUOUS
 62
     6
 60
     1
100
AcDbLine
 10
392.995748
 20
346.575983
 30
0.0
 11
393.087383
 21
346.997222
 31
0.0
  0
LINE
  5
1A8
330
1F
100
AcDbEntity
  8
0
  6
CONTINUOUS
 62
     6
 60
     1
100
AcDbLine
 10
393.474285
 20
346.550713
 30
0.0
 11
393.044293
 21
346.519959
 31
0.0
  0
LINE
  5
1A9
330
1F
100
AcDbEntity
  8
0
  6
CONTINUOUS
 62
     6
 60
     1
100
AcDbLine
 10
393.474285
 20
346.550713
 30
0.0
 11
393.381674
 21
346.443833
 31
0.0
  0
LINE
  5
1AA
330
1F
100
AcDbEntity
  8
0
  6
CONTINUOUS
 62
     6
 60
     1
100
AcDbLine
 10
393.505039
 20
346.120721
 30
0.0
 11
393.474285
 21
346.550713
 31
0.0
  0
LINE
  5
1AB
330
1F
100
AcDbEntity
  8
0
  6
CONTINUOUS
 62
     6
 60
     1
100
AcDbLine
 10
393.971312
 20
346.231293
 30
0.0
 11
393.567401
 21
346.080642
 31
0.0
  0
LINE
  5
1AC
330
1F
100
AcDbEntity
  8
0
  6
CONTINUOUS
 62
     6
 60
     1
100
AcDbLine
 10
393.971312
 20
346.231293
 30
0.0
 11
393.912563
 21
346.102652
 31
0.0
  0
LINE
  5
1AD
330
1F
100
AcDbEntity
  8
0
  6
CONTINUOUS
 62
     6
 60
     1
100
AcDbLine
 10
394.121962
 20
345.827383
 30
0.0
 11
393.971312
 21
346.231293
 31
0.0
  0
LINE
  5
1AE
330
1F
100
AcDbEntity
  8
0
  6
CONTINUOUS
 62
     6
 60
     1
100
AcDbLine
 10
394.538195
 20
346.064841
 30
0.0
 11
394.193089
 21
345.806498
 31
0.0
  0
LINE
  5
1AF
330
1F
100
AcDbEntity
  8
0
  6
CONTINUOUS
 62
     6
 60
     1
100
AcDbLine
 10
394.538195
 20
346.064841
 30
0.0
 11
394.518068
 21
345.924859
 31
0.0
  0
LINE
  5
1B0
330
1F
100
AcDbEntity
  8
0
  6
CONTINUOUS
 62
     6
 60
     1
100
AcDbLine
 10
396.958479
 20
347.290669
 30
0.0
 11
397.114656
 21
347.213312
 31
0.0
  0
LINE
  5
1B1
330
1F
100
AcDbEntity
  8
0
  6
CONTINUOUS
 62
     6
 60
     1
100
AcDbLine
 10
396.825257
 20
347.534647
 30
0.0
 11
396.958479
 21
347.290669
 31
0.0
  0
LINE
  5
1B2
330
1F
100
AcDbEntity
  8
0
  6
CONTINUOUS
 62
     6
 60
     1
100
AcDbLine
 10
396.825257
 20
347.534647
 30
0.0
 11
396.96095
 21
347.494804
 31
0.0
  0
LINE
  5
1B3
330
1F
100
AcDbEntity
  8
0
  6
CONTINUOUS
 62
     6
 60
     1
100
AcDbLine
 10
397.203616
 20
347.741247
 30
0.0
 11
396.825257
 21
347.534647
 31
0.0
  0
LINE
  5
1B4
330
1F
100
AcDbEntity
  8
0
  6
CONTINUOUS
 62
     6
 60
     1
100
AcDbLine
 10
396.909339
 20
348.119449
 30
0.0
 11
397.214166
 21
347.814622
 31
0.0
  0
LINE
  5
1B5
330
1F
100
AcDbEntity
  8
0
  6
CONTINUOUS
 62
     6
 60
     1
100
AcDbLine
 10
396.909339
 20
348.119449
 30
0.0
 11
397.05076
 21
348.119449
 31
0.0
  0
LINE
  5
1B6
330
1F
100
AcDbEntity
  8
0
  6
CONTINUOUS
 62
     6
 60
     1
100
AcDbLine
 10
397.214166
 20
348.424277
 30
0.0
 11
396.909339
 21
348.119449
 31
0.0
  0
LINE
  5
1B7
330
1F
100
AcDbEntity
  8
0
  6
CONTINUOUS
 62
     6
 60
     1
100
AcDbLine
 10
396.825257
 20
348.704252
 30
0.0
 11
397.203616
 21
348.497652
 31
0.0
  0
LINE
  5
1B8
330
1F
100
AcDbEntity
  8
0
  6
CONTINUOUS
 62
     6
 60
     1
100
AcDbLine
 10
396.825257
 20
348.704252
 30
0.0
 11
396.96095
 21
348.744095
 31
0.0
  0
LINE
  5
1B9
330
1F
100
AcDbEntity
  8
0
  6
CONTINUOUS
 62
     6
 60
     1
100
AcDbLine
 10
396.958479
 20
348.948229
 30
0.0
 11
397.114656
 21
349.025586
 31
0.0
  0
LINE
  5
1BA
330
1F
100
AcDbEntity
  8
0
  6
CONTINUOUS
 62
     6
 60
     1
100
AcDbLine
 10
396.958479
 20
348.948229
 30
0.0
 11
396.825257
 21
348.704252
 31
0.0
  0
LINE
  5
1BB
330
1F
100
AcDbEntity
  8
0
  6
CONTINUOUS
 62
     6
 60
     1
100
AcDbLine
 10
394.538195
 20
350.174057
 30
0.0
 11
394.518069
 21
350.314039
 31
0.0
  0
LINE
  5
1BC
330
1F
100
AcDbEntity
  8
0
  6
CONTINUOUS
 62
     6
 60
     1
100
AcDbLine
 10
394.193089
 20
350.4324
 30
0.0
 11
394.21421
 21
350.541505
 31
0.0
  0
LINE
  5
1BD
330
1F
100
AcDbEntity
  8
0
  6
CONTINUOUS
 62
     6
 60
     1
100
AcDbLine
 10
394.193089
 20
350.4324
 30
0.0
 11
394.538195
 21
350.174057
 31
0.0
  0
LINE
  5
1BE
330
1F
100
AcDbEntity
  8
0
  6
CONTINUOUS
 62
     6
 60
     1
100
AcDbLine
 10
394.121962
 20
350.411515
 30
0.0
 11
394.045207
 21
350.491881
 31
0.0
  0
LINE
  5
1BF
330
1F
100
AcDbEntity
  8
0
  6
CONTINUOUS
 62
     6
 60
     1
100
AcDbLine
 10
393.971311
 20
350.007605
 30
0.0
 11
394.121962
 21
350.411515
 31
0.0
  0
ARC
  5
1C0
330
1F
100
AcDbEntity
  8
0
  6
CONTINUOUS
 62
     6
 60
     1
100
AcDbCircle
 10
394.833603
 20
348.119449
 30
0.0
 40
2.399999998509883
100
AcDbArc
 50
105.478742
 51
107.248542
  0
LINE
  5
1C1
330
1F
100
AcDbEntity
  8
0
  6
CONTINUOUS
 62
     6
 60
     1
100
AcDbLine
 10
393.971311
 20
350.007605
 30
0.0
 11
393.912562
 21
350.136246
 31
0.0
  0
LINE
  5
1C2
330
1F
100
AcDbEntity
  8
0
  6
CONTINUOUS
 62
     6
 60
     1
100
AcDbLine
 10
393.567401
 20
350.158256
 30
0.0
 11
393.556928
 21
350.268891
 31
0.0
  0
LINE
  5
1C3
330
1F
100
AcDbEntity
  8
0
  6
CONTINUOUS
 62
     6
 60
     1
100
AcDbLine
 10
393.567401
 20
350.158256
 30
0.0
 11
393.971311
 21
350.007605
 31
0.0
  0
LINE
  5
1C4
330
1F
100
AcDbEntity
  8
0
  6
CONTINUOUS
 62
     6
 60
     1
100
AcDbLine
 10
393.505039
 20
350.118178
 30
0.0
 11
393.408752
 21
350.173664
 31
0.0
  0
LINE
  5
1C5
330
1F
100
AcDbEntity
  8
0
  6
CONTINUOUS
 62
     6
 60
     1
100
AcDbLine
 10
393.474285
 20
349.688186
 30
0.0
 11
393.505039
 21
350.118178
 31
0.0
  0
ARC
  5
1C6
330
1F
100
AcDbEntity
  8
0
  6
CONTINUOUS
 62
     6
 60
     1
100
AcDbCircle
 10
394.833603
 20
348.119449
 30
0.0
 40
2.399999998509883
100
AcDbArc
 50
121.84238
 51
123.612179
  0
LINE
  5
1C7
330
1F
100
AcDbEntity
  8
0
  6
CONTINUOUS
 62
     6
 60
     1
100
AcDbLine
 10
393.474285
 20
349.688186
 30
0.0
 11
393.381674
 21
349.795065
 31
0.0
  0
LINE
  5
1C8
330
1F
100
AcDbEntity
  8
0
  6
CONTINUOUS
 62
     6
 60
     1
100
AcDbLine
 10
393.044293
 20
349.718939
 30
0.0
 11
393.474285
 21
349.688186
 31
0.0
  0
LINE
  5
1C9
330
1F
100
AcDbEntity
  8
0
  6
CONTINUOUS
 62
     6
 60
     1
100
AcDbLine
 10
393.087383
 20
349.241677
 30
0.0
 11
392.995748
 21
349.662915
 31
0.0
  0
LINE
  5
1CA
330
1F
100
AcDbEntity
  8
0
  6
CONTINUOUS
 62
     6
 60
     1
100
AcDbLine
 10
393.087383
 20
349.241677
 30
0.0
 11
392.968412
 21
349.318135
 31
0.0
  0
LINE
  5
1CB
330
1F
100
AcDbEntity
  8
0
  6
CONTINUOUS
 62
     6
 60
     1
100
AcDbLine
 10
392.666144
 20
349.150042
 30
0.0
 11
393.087383
 21
349.241677
 31
0.0
  0
LINE
  5
1CC
330
1F
100
AcDbEntity
  8
0
  6
CONTINUOUS
 62
     6
 60
     1
100
AcDbLine
 10
392.841949
 20
348.704252
 30
0.0
 11
392.635349
 21
349.082611
 31
0.0
  0
LINE
  5
1CD
330
1F
100
AcDbEntity
  8
0
  6
CONTINUOUS
 62
     6
 60
     1
100
AcDbLine
 10
392.841949
 20
348.704252
 30
0.0
 11
392.706256
 21
348.744095
 31
0.0
  0
LINE
  5
1CE
330
1F
100
AcDbEntity
  8
0
  6
CONTINUOUS
 62
     6
 60
     1
100
AcDbLine
 10
392.46359
 20
348.497652
 30
0.0
 11
392.841949
 21
348.704252
 31
0.0
  0
LINE
  5
1CF
330
1F
100
AcDbEntity
  8
0
  6
CONTINUOUS
 62
     6
 60
     1
100
AcDbLine
 10
392.757867
 20
348.119449
 30
0.0
 11
392.45304
 21
348.424276
 31
0.0
  0
LINE
  5
1D0
330
1F
100
AcDbEntity
  8
0
  6
CONTINUOUS
 62
     6
 60
     1
100
AcDbLine
 10
392.616446
 20
348.119449
 30
0.0
 11
392.757867
 21
348.119449
 31
0.0
  0
LINE
  5
1D1
330
1F
100
AcDbEntity
  8
0
  6
CONTINUOUS
 62
     6
 60
     1
100
AcDbLine
 10
394.786062
 20
350.539679
 30
0.0
 11
394.783338
 21
350.50153
 31
0.0
  0
LINE
  5
1D2
330
1F
100
AcDbEntity
  8
0
  6
CONTINUOUS
 62
     6
 60
     1
100
AcDbLine
 10
394.538195
 20
350.174057
 30
0.0
 11
394.783338
 21
350.50153
 31
0.0
  0
ARC
  5
1D3
330
1F
100
AcDbEntity
  8
0
  6
CONTINUOUS
 62
     6
 60
     1
100
AcDbCircle
 10
-397.496457
 20
352.001192
 30
0.0
 40
3.100000001490117
210
0.0
220
0.0
230
-1.0
100
AcDbArc
 50
279.993774
 51
331.068608
  0
LINE
  5
1D4
330
1F
100
AcDbEntity
  8
0
  6
CONTINUOUS
 62
     6
 60
     1
100
AcDbLine
 10
394.786064
 20
345.699224
 30
0.0
 11
394.783338
 21
345.737369
 31
0.0
  0
ARC
  5
1D5
330
1F
100
AcDbEntity
  8
0
  6
CONTINUOUS
 62
     6
 60
     1
100
AcDbCircle
 10
-397.496457
 20
344.237707
 30
0.0
 40
3.100000001490117
210
0.0
220
0.0
230
-1.0
100
AcDbArc
 50
28.931388
 51
80.006227
  0
LINE
  5
1D6
330
1F
100
AcDbEntity
  8
0
  6
CONTINUOUS
 62
     6
 60
     1
100
AcDbLine
 10
394.783338
 20
345.737369
 30
0.0
 11
394.538195
 21
346.064841
 31
0.0
  0
ARC
  5
1D7
330
1F
100
AcDbEntity
  8
0
  6
CONTINUOUS
 62
     4
 60
     1
100
AcDbCircle
 10
394.833603
 20
348.119449
 30
0.0
 40
1.399999998509883
100
AcDbArc
 50
111.873023
 51
248.126977
  0
LINE
  5
1D8
330
1F
100
AcDbEntity
  8
0
  6
CONTINUOUS
 62
     4
 60
     1
100
AcDbLine
 10
394.389701
 20
349.481654
 30
0.0
 11
394.312032
 21
349.418665
 31
0.0
  0
LINE
  5
1D9
330
1F
100
AcDbEntity
  8
0
  6
CONTINUOUS
 62
     4
 60
     1
100
AcDbLine
 10
394.312032
 20
349.418665
 30
0.0
 11
394.274777
 21
349.511466
 31
0.0
  0
LINE
  5
1DA
330
1F
100
AcDbEntity
  8
0
  6
CONTINUOUS
 62
     4
 60
     1
100
AcDbLine
 10
394.274777
 20
346.727431
 30
0.0
 11
394.312032
 21
346.820232
 31
0.0
  0
LINE
  5
1DB
330
1F
100
AcDbEntity
  8
0
  6
CONTINUOUS
 62
     4
 60
     1
100
AcDbLine
 10
394.312032
 20
346.820232
 30
0.0
 11
394.389701
 21
346.757244
 31
0.0
  0
ARC
  5
1DC
330
1F
100
AcDbEntity
  8
0
  6
CONTINUOUS
 62
     4
 60
     1
100
AcDbCircle
 10
-397.496456
 20
344.237706
 30
0.0
 40
4.100000001490116
210
0.0
220
0.0
230
-1.0
100
AcDbArc
 50
39.041593
 51
71.220845
  0
LINE
  5
1DD
330
1F
100
AcDbEntity
  8
0
  6
CONTINUOUS
 62
     4
 60
     1
100
AcDbLine
 10
396.26428
 20
348.043195
 30
0.0
 11
396.23959
 21
348.119449
 31
0.0
  0
ARC
  5
1DE
330
1F
100
AcDbEntity
  8
0
  6
CONTINUOUS
 62
     4
 60
     1
100
AcDbCircle
 10
-397.496456
 20
352.001191
 30
0.0
 40
4.100000001490116
210
0.0
220
0.0
230
-1.0
100
AcDbArc
 50
288.779155
 51
320.958407
  0
LINE
  5
1DF
330
1F
100
AcDbEntity
  8
0
  6
CONTINUOUS
 62
     4
 60
     1
100
AcDbLine
 10
396.23959
 20
348.119449
 30
0.0
 11
396.26428
 21
348.195703
 31
0.0
  0
LINE
  5
1E0
330
1F
100
AcDbEntity
  8
0
  6
CONTINUOUS
 62
     6
 60
     1
100
AcDbLine
 10
396.73636
 20
347.692636
 30
0.0
 11
396.869582
 21
347.448658
 31
0.0
  0
LINE
  5
1E1
330
1F
100
AcDbEntity
  8
0
  6
CONTINUOUS
 62
     4
 60
     1
100
AcDbLine
 10
400.148567
 20
447.115016
 30
0.0
 11
383.048566
 21
447.115016
 31
0.0
  0
LINE
  5
1E2
330
1F
100
AcDbEntity
  8
0
  6
CONTINUOUS
 62
     4
 60
     1
100
AcDbLine
 10
399.948567
 20
528.115016
 30
0.0
 11
399.948567
 21
529.615016
 31
0.0
  0
LINE
  5
1E3
330
1F
100
AcDbEntity
  8
0
  6
CONTINUOUS
 62
     4
 60
     1
100
AcDbLine
 10
399.948567
 20
528.115016
 30
0.0
 11
399.948567
 21
527.615016
 31
0.0
  0
LINE
  5
1E4
330
1F
100
AcDbEntity
  8
0
  6
CONTINUOUS
 62
     4
 60
     1
100
AcDbLine
 10
400.148567
 20
527.615016
 30
0.0
 11
400.148567
 21
518.615016
 31
0.0
  0
LINE
  5
1E5
330
1F
100
AcDbEntity
  8
0
  6
CONTINUOUS
 62
     4
 60
     1
100
AcDbLine
 10
399.948567
 20
528.115016
 30
0.0
 11
400.148567
 21
528.115016
 31
0.0
  0
LINE
  5
1E6
330
1F
100
AcDbEntity
  8
0
  6
CONTINUOUS
 62
     4
 60
     1
100
AcDbLine
 10
383.248566
 20
528.115016
 30
0.0
 11
383.248566
 21
529.615016
 31
0.0
  0
LINE
  5
1E7
330
1F
100
AcDbEntity
  8
0
  6
CONTINUOUS
 62
     4
 60
     1
100
AcDbLine
 10
383.248566
 20
528.115016
 30
0.0
 11
383.248566
 21
527.615016
 31
0.0
  0
LINE
  5
1E8
330
1F
100
AcDbEntity
  8
0
  6
CONTINUOUS
 62
     4
 60
     1
100
AcDbLine
 10
383.048567
 20
527.615016
 30
0.0
 11
383.048567
 21
518.615016
 31
0.0
  0
LINE
  5
1E9
330
1F
100
AcDbEntity
  8
0
  6
CONTINUOUS
 62
     4
 60
     1
100
AcDbLine
 10
399.948567
 20
528.115016
 30
0.0
 11
383.248566
 21
528.115016
 31
0.0
  0
LINE
  5
1EA
330
1F
100
AcDbEntity
  8
0
  6
CONTINUOUS
 62
     4
 60
     1
100
AcDbLine
 10
383.248566
 20
528.115016
 30
0.0
 11
383.048566
 21
528.115016
 31
0.0
  0
LINE
  5
1EB
330
1F
100
AcDbEntity
  8
0
  6
CONTINUOUS
 62
     4
 60
     1
100
AcDbLine
 10
383.248566
 20
517.115016
 30
0.0
 11
383.248566
 21
518.615016
 31
0.0
  0
LINE
  5
1EC
330
1F
100
AcDbEntity
  8
0
  6
CONTINUOUS
 62
     4
 60
     1
100
AcDbLine
 10
383.248566
 20
517.115016
 30
0.0
 11
383.248566
 21
516.615016
 31
0.0
  0
LINE
  5
1ED
330
1F
100
AcDbEntity
  8
0
  6
CONTINUOUS
 62
     4
 60
     1
100
AcDbLine
 10
383.048567
 20
516.615016
 30
0.0
 11
383.048567
 21
510.115016
 31
0.0
  0
LINE
  5
1EE
330
1F
100
AcDbEntity
  8
0
  6
CONTINUOUS
 62
     4
 60
     1
100
AcDbLine
 10
383.248566
 20
517.115016
 30
0.0
 11
383.048566
 21
517.115016
 31
0.0
  0
LINE
  5
1EF
330
1F
100
AcDbEntity
  8
0
  6
CONTINUOUS
 62
     4
 60
     1
100
AcDbLine
 10
399.948567
 20
517.115016
 30
0.0
 11
399.948567
 21
518.615016
 31
0.0
  0
LINE
  5
1F0
330
1F
100
AcDbEntity
  8
0
  6
CONTINUOUS
 62
     4
 60
     1
100
AcDbLine
 10
399.948567
 20
517.115016
 30
0.0
 11
399.948567
 21
516.615016
 31
0.0
  0
LINE
  5
1F1
330
1F
100
AcDbEntity
  8
0
  6
CONTINUOUS
 62
     4
 60
     1
100
AcDbLine
 10
399.948567
 20
517.115016
 30
0.0
 11
383.248566
 21
517.115016
 31
0.0
  0
LINE
  5
1F2
330
1F
100
AcDbEntity
  8
0
  6
CONTINUOUS
 62
     4
 60
     1
100
AcDbLine
 10
399.948567
 20
517.115016
 30
0.0
 11
400.148567
 21
517.115016
 31
0.0
  0
LINE
  5
1F3
330
1F
100
AcDbEntity
  8
0
  6
CONTINUOUS
 62
     4
 60
     1
100
AcDbLine
 10
400.148567
 20
516.615016
 30
0.0
 11
400.148567
 21
510.115016
 31
0.0
  0
LINE
  5
1F4
330
1F
100
AcDbEntity
  8
0
  6
CONTINUOUS
 62
     4
 60
     1
100
AcDbLine
 10
400.148567
 20
465.115016
 30
0.0
 11
400.148567
 21
458.615016
 31
0.0
  0
LINE
  5
1F5
330
1F
100
AcDbEntity
  8
0
  6
CONTINUOUS
 62
     4
 60
     1
100
AcDbLine
 10
399.948567
 20
458.615016
 30
0.0
 11
399.948567
 21
458.115016
 31
0.0
  0
LINE
  5
1F6
330
1F
100
AcDbEntity
  8
0
  6
CONTINUOUS
 62
     4
 60
     1
100
AcDbLine
 10
399.948567
 20
458.115016
 30
0.0
 11
399.948567
 21
456.615016
 31
0.0
  0
LINE
  5
1F7
330
1F
100
AcDbEntity
  8
0
  6
CONTINUOUS
 62
     4
 60
     1
100
AcDbLine
 10
399.948567
 20
458.115016
 30
0.0
 11
400.148567
 21
458.115016
 31
0.0
  0
LINE
  5
1F8
330
1F
100
AcDbEntity
  8
0
  6
CONTINUOUS
 62
     4
 60
     1
100
AcDbLine
 10
383.048567
 20
456.615016
 30
0.0
 11
383.048567
 21
447.615016
 31
0.0
  0
LINE
  5
1F9
330
1F
100
AcDbEntity
  8
0
  6
CONTINUOUS
 62
     4
 60
     1
100
AcDbLine
 10
383.248566
 20
458.115016
 30
0.0
 11
383.248566
 21
456.615016
 31
0.0
  0
LINE
  5
1FA
330
1F
100
AcDbEntity
  8
0
  6
CONTINUOUS
 62
     4
 60
     1
100
AcDbLine
 10
383.248566
 20
458.615016
 30
0.0
 11
383.248566
 21
458.115016
 31
0.0
  0
LINE
  5
1FB
330
1F
100
AcDbEntity
  8
0
  6
CONTINUOUS
 62
     4
 60
     1
100
AcDbLine
 10
399.948567
 20
458.115016
 30
0.0
 11
383.248566
 21
458.115016
 31
0.0
  0
LINE
  5
1FC
330
1F
100
AcDbEntity
  8
0
  6
CONTINUOUS
 62
     4
 60
     1
100
AcDbLine
 10
383.248566
 20
458.115016
 30
0.0
 11
383.048566
 21
458.115016
 31
0.0
  0
LINE
  5
1FD
330
1F
100
AcDbEntity
  8
0
  6
CONTINUOUS
 62
     4
 60
     1
100
AcDbLine
 10
383.048567
 20
465.115016
 30
0.0
 11
383.048567
 21
458.615016
 31
0.0
  0
LINE
  5
1FE
330
1F
100
AcDbEntity
  8
0
  6
CONTINUOUS
 62
     4
 60
     1
100
AcDbLine
 10
399.948567
 20
466.115016
 30
0.0
 11
399.948567
 21
465.115016
 31
0.0
  0
LINE
  5
1FF
330
1F
100
AcDbEntity
  8
0
  6
CONTINUOUS
 62
     4
 60
     1
100
AcDbLine
 10
399.948567
 20
509.115016
 30
0.0
 11
399.948567
 21
466.115016
 31
0.0
  0
LINE
  5
200
330
1F
100
AcDbEntity
  8
0
  6
CONTINUOUS
 62
     4
 60
     1
100
AcDbLine
 10
399.948567
 20
509.115016
 30
0.0
 11
399.948567
 21
510.115016
 31
0.0
  0
LINE
  5
201
330
1F
100
AcDbEntity
  8
0
  6
CONTINUOUS
 62
     4
 60
     1
100
AcDbLine
 10
400.148567
 20
466.115016
 30
0.0
 11
399.948567
 21
466.115016
 31
0.0
  0
LINE
  5
202
330
1F
100
AcDbEntity
  8
0
  6
CONTINUOUS
 62
     4
 60
     1
100
AcDbLine
 10
400.148567
 20
509.115016
 30
0.0
 11
399.948567
 21
509.115016
 31
0.0
  0
LINE
  5
203
330
1F
100
AcDbEntity
  8
0
  6
CONTINUOUS
 62
     4
 60
     1
100
AcDbLine
 10
383.248566
 20
509.115016
 30
0.0
 11
383.248566
 21
510.115016
 31
0.0
  0
LINE
  5
204
330
1F
100
AcDbEntity
  8
0
  6
CONTINUOUS
 62
     4
 60
     1
100
AcDbLine
 10
383.248566
 20
466.115016
 30
0.0
 11
383.248566
 21
509.115016
 31
0.0
  0
LINE
  5
205
330
1F
100
AcDbEntity
  8
0
  6
CONTINUOUS
 62
     4
 60
     1
100
AcDbLine
 10
383.248566
 20
466.115016
 30
0.0
 11
383.248566
 21
465.115016
 31
0.0
  0
LINE
  5
206
330
1F
100
AcDbEntity
  8
0
  6
CONTINUOUS
 62
     4
 60
     1
100
AcDbLine
 10
399.948567
 20
509.115016
 30
0.0
 11
383.248566
 21
509.115016
 31
0.0
  0
LINE
  5
207
330
1F
100
AcDbEntity
  8
0
  6
CONTINUOUS
 62
     4
 60
     1
100
AcDbLine
 10
383.248566
 20
509.115016
 30
0.0
 11
383.048566
 21
509.115016
 31
0.0
  0
LINE
  5
208
330
1F
100
AcDbEntity
  8
0
  6
CONTINUOUS
 62
     4
 60
     1
100
AcDbLine
 10
397.598595
 20
466.115016
 30
0.0
 11
399.948567
 21
466.115016
 31
0.0
  0
LINE
  5
209
330
1F
100
AcDbEntity
  8
0
  6
CONTINUOUS
 62
     4
 60
     1
100
AcDbLine
 10
383.248566
 20
466.115016
 30
0.0
 11
385.598595
 21
466.115016
 31
0.0
  0
LINE
  5
20A
330
1F
100
AcDbEntity
  8
0
  6
CONTINUOUS
 62
     4
 60
     1
100
AcDbLine
 10
383.248566
 20
466.115016
 30
0.0
 11
383.048566
 21
466.115016
 31
0.0
  0
LINE
  5
20B
330
1F
100
AcDbEntity
  8
CARTOUCHE
  6
CONTINUOUS
 62
     7
100
AcDbLine
 10
200.000037
 20
5.000793
 30
0.0
 11
0.0
 21
5.001068
 31
0.0
  0
LINE
  5
20C
330
1F
100
AcDbEntity
  8
CARTOUCHE
  6
CONTINUOUS
 62
     7
100
AcDbLine
 10
45.000001
 20
31.845393
 30
0.0
 11
45.000001
 21
0.000041
 31
0.0
  0
TEXT
  5
20D
330
1F
100
AcDbEntity
  8
CARTOUCHE
  6
CONTINUOUS
 62
     7
100
AcDbText
 10
114.72242
 20
27.435966
 30
0.0
 40
1.8
  1
PRODUCT TYPE
 50
359.999908
 41
0.57
  7
FINDER
100
AcDbText
  0
TEXT
  5
20E
330
1F
100
AcDbEntity
  8
CARTOUCHE
  6
CONTINUOUS
 62
     2
100
AcDbText
 10
14.493931
 20
1.600975
 30
0.0
 40
1.8
  1
MOD. UT 902
 50
359.999908
 41
0.74
  7
FINDER
100
AcDbText
  0
LINE
  5
20F
330
1F
100
AcDbEntity
  8
CARTOUCHE
  6
CONTINUOUS
 62
     7
100
AcDbLine
 10
200.000008
 20
15.002808
 30
0.0
 11
44.999973
 21
15.003045
 31
0.0
  0
TEXT
  5
210
330
1F
100
AcDbEntity
  8
CARTOUCHE
  6
CONTINUOUS
 62
     7
100
AcDbText
 10
68.494064
 20
11.624306
 30
0.0
 40
1.8
  1
REV.
 50
359.999908
 41
0.65
  7
FINDER
100
AcDbText
  0
TEXT
  5
211
330
1F
100
AcDbEntity
  8
CARTOUCHE
  6
CONTINUOUS
 62
     1
100
AcDbText
 10
70.188141
 20
6.776279
 30
0.0
 40
2.1
  1
0
 50
359.999908
  7
FINDER
100
AcDbText
  0
LINE
  5
212
330
1F
100
AcDbEntity
  8
CARTOUCHE
  6
CONTINUOUS
 62
     7
100
AcDbLine
 10
96.666651
 20
15.002966
 30
0.0
 11
96.666651
 21
5.001024
 31
0.0
  0
LINE
  5
213
330
1F
100
AcDbEntity
  8
CARTOUCHE
  6
CONTINUOUS
 62
     4
100
AcDbLine
 10
7.362923
 20
22.655485
 30
0.0
 11
7.362923
 21
16.810194
 31
0.0
  0
LINE
  5
214
330
1F
100
AcDbEntity
  8
CARTOUCHE
  6
CONTINUOUS
 62
     4
100
AcDbLine
 10
7.362923
 20
16.810194
 30
0.0
 11
5.887823
 21
18.410844
 31
0.0
  0
LINE
  5
215
330
1F
100
AcDbEntity
  8
CARTOUCHE
  6
CONTINUOUS
 62
     4
100
AcDbLine
 10
5.887823
 20
18.410844
 30
0.0
 11
6.116423
 21
18.410844
 31
0.0
  0
LINE
  5
216
330
1F
100
AcDbEntity
  8
CARTOUCHE
  6
CONTINUOUS
 62
     4
100
AcDbLine
 10
6.413873
 20
18.766514
 30
0.0
 11
6.413873
 21
22.652621
 31
0.0
  0
LINE
  5
217
330
1F
100
AcDbEntity
  8
CARTOUCHE
  6
CONTINUOUS
 62
     4
100
AcDbLine
 10
5.464823
 20
22.399506
 30
0.0
 11
5.464823
 21
19.428744
 31
0.0
  0
LINE
  5
218
330
1F
100
AcDbEntity
  8
CARTOUCHE
  6
CONTINUOUS
 62
     4
100
AcDbLine
 10
5.464823
 20
19.428744
 30
0.0
 11
3.174776
 21
19.428744
 31
0.0
  0
LINE
  5
219
330
1F
100
AcDbEntity
  8
CARTOUCHE
  6
CONTINUOUS
 62
     4
100
AcDbLine
 10
3.176313
 20
18.410844
 30
0.0
 11
4.378523
 21
18.410844
 31
0.0
  0
LINE
  5
21A
330
1F
100
AcDbEntity
  8
CARTOUCHE
  6
CONTINUOUS
 62
     4
100
AcDbLine
 10
4.378523
 20
18.410844
 30
0.0
 11
7.173699
 21
15.668328
 31
0.0
  0
LINE
  5
21B
330
1F
100
AcDbEntity
  8
CARTOUCHE
  6
CONTINUOUS
 62
     4
100
AcDbLine
 10
8.323223
 20
16.169844
 30
0.0
 11
8.323223
 21
19.508394
 31
0.0
  0
LINE
  5
21C
330
1F
100
AcDbEntity
  8
CARTOUCHE
  6
CONTINUOUS
 62
     4
100
AcDbLine
 10
8.323223
 20
19.508394
 30
0.0
 11
9.455423
 21
19.508394
 31
0.0
  0
LINE
  5
21D
330
1F
100
AcDbEntity
  8
CARTOUCHE
  6
CONTINUOUS
 62
     4
100
AcDbLine
 10
9.353656
 20
20.503344
 30
0.0
 11
8.323223
 21
20.503344
 31
0.0
  0
LINE
  5
21E
330
1F
100
AcDbEntity
  8
CARTOUCHE
  6
CONTINUOUS
 62
     4
100
AcDbLine
 10
8.323223
 20
20.503344
 30
0.0
 11
8.323223
 21
22.404134
 31
0.0
  0
LINE
  5
21F
330
1F
100
AcDbEntity
  8
CARTOUCHE
  6
CONTINUOUS
 62
     4
100
AcDbLine
 10
23.108423
 20
17.479034
 30
0.0
 11
23.108423
 21
15.632094
 31
0.0
  0
LINE
  5
220
330
1F
100
AcDbEntity
  8
CARTOUCHE
  6
CONTINUOUS
 62
     4
100
AcDbLine
 10
23.108423
 20
15.632094
 30
0.0
 11
24.892223
 21
15.632094
 31
0.0
  0
LINE
  5
221
330
1F
100
AcDbEntity
  8
CARTOUCHE
  6
CONTINUOUS
 62
     4
100
AcDbLine
 10
24.892223
 20
15.632094
 30
0.0
 11
24.892223
 21
18.324553
 31
0.0
  0
LINE
  5
222
330
1F
100
AcDbEntity
  8
CARTOUCHE
  6
CONTINUOUS
 62
     4
100
AcDbLine
 10
21.289973
 20
19.074144
 30
0.0
 11
21.289973
 21
19.508394
 31
0.0
  0
LINE
  5
223
330
1F
100
AcDbEntity
  8
CARTOUCHE
  6
CONTINUOUS
 62
     4
100
AcDbLine
 10
21.289973
 20
19.508394
 30
0.0
 11
19.494923
 21
19.508394
 31
0.0
  0
LINE
  5
224
330
1F
100
AcDbEntity
  8
CARTOUCHE
  6
CONTINUOUS
 62
     4
100
AcDbLine
 10
19.494923
 20
19.508394
 30
0.0
 11
19.494923
 21
15.632094
 31
0.0
  0
LINE
  5
225
330
1F
100
AcDbEntity
  8
CARTOUCHE
  6
CONTINUOUS
 62
     4
100
AcDbLine
 10
19.494923
 20
15.632094
 30
0.0
 11
21.289973
 21
15.632094
 31
0.0
  0
LINE
  5
226
330
1F
100
AcDbEntity
  8
CARTOUCHE
  6
CONTINUOUS
 62
     4
100
AcDbLine
 10
21.289973
 20
15.632094
 30
0.0
 11
21.289973
 21
17.433499
 31
0.0
  0
LINE
  5
227
330
1F
100
AcDbEntity
  8
CARTOUCHE
  6
CONTINUOUS
 62
     4
100
AcDbLine
 10
30.986573
 20
20.823744
 30
0.0
 11
30.986573
 21
15.620844
 31
0.0
  0
LINE
  5
228
330
1F
100
AcDbEntity
  8
CARTOUCHE
  6
CONTINUOUS
 62
     4
100
AcDbLine
 10
30.986573
 20
15.620844
 30
0.0
 11
29.191523
 21
15.620844
 31
0.0
  0
LINE
  5
229
330
1F
100
AcDbEntity
  8
CARTOUCHE
  6
CONTINUOUS
 62
     4
100
AcDbLine
 10
29.191523
 20
19.319904
 30
0.0
 11
29.191523
 21
20.823744
 31
0.0
  0
LINE
  5
22A
330
1F
100
AcDbEntity
  8
CARTOUCHE
  6
CONTINUOUS
 62
     4
100
AcDbLine
 10
29.191523
 20
20.823744
 30
0.0
 11
30.986573
 21
20.823744
 31
0.0
  0
LINE
  5
22B
330
1F
100
AcDbEntity
  8
CARTOUCHE
  6
CONTINUOUS
 62
     4
100
AcDbLine
 10
37.732973
 20
19.508394
 30
0.0
 11
39.459623
 21
19.508394
 31
0.0
  0
LINE
  5
22C
330
1F
100
AcDbEntity
  8
CARTOUCHE
  6
CONTINUOUS
 62
     4
100
AcDbLine
 10
39.459623
 20
19.508394
 30
0.0
 11
39.459623
 21
19.165494
 31
0.0
  0
LINE
  5
22D
330
1F
100
AcDbEntity
  8
CARTOUCHE
  6
CONTINUOUS
 62
     4
100
AcDbLine
 10
42.283823
 20
17.587794
 30
0.0
 11
40.454573
 21
17.587794
 31
0.0
  0
LINE
  5
22E
330
1F
100
AcDbEntity
  8
CARTOUCHE
  6
CONTINUOUS
 62
     4
100
AcDbLine
 10
40.454573
 20
17.587794
 30
0.0
 11
40.454573
 21
17.827644
 31
0.0
  0
LINE
  5
22F
330
1F
100
AcDbEntity
  8
CARTOUCHE
  6
CONTINUOUS
 62
     4
100
AcDbLine
 10
39.459623
 20
17.782194
 30
0.0
 11
39.459623
 21
15.632094
 31
0.0
  0
LINE
  5
230
330
1F
100
AcDbEntity
  8
CARTOUCHE
  6
CONTINUOUS
 62
     4
100
AcDbLine
 10
39.459623
 20
15.632094
 30
0.0
 11
37.732973
 21
15.632094
 31
0.0
  0
LINE
  5
231
330
1F
100
AcDbEntity
  8
CARTOUCHE
  6
CONTINUOUS
 62
     4
100
AcDbLine
 10
37.732973
 20
15.632094
 30
0.0
 11
37.732973
 21
19.508394
 31
0.0
  0
LINE
  5
232
330
1F
100
AcDbEntity
  8
CARTOUCHE
  6
CONTINUOUS
 62
     4
100
AcDbLine
 10
34.154123
 20
17.244444
 30
0.0
 11
34.051073
 21
17.244444
 31
0.0
  0
LINE
  5
233
330
1F
100
AcDbEntity
  8
CARTOUCHE
  6
CONTINUOUS
 62
     4
100
AcDbLine
 10
34.051073
 20
17.244444
 30
0.0
 11
33.364823
 21
17.244444
 31
0.0
  0
LINE
  5
234
330
1F
100
AcDbEntity
  8
CARTOUCHE
  6
CONTINUOUS
 62
     4
100
AcDbLine
 10
35.343023
 20
16.855644
 30
0.0
 11
37.103873
 21
16.855644
 31
0.0
  0
LINE
  5
235
330
1F
100
AcDbEntity
  8
CARTOUCHE
  6
CONTINUOUS
 62
     4
100
AcDbLine
 10
37.206923
 20
17.256144
 30
0.0
 11
34.154123
 21
17.244444
 31
0.0
  0
LINE
  5
236
330
1F
100
AcDbEntity
  8
CARTOUCHE
  6
CONTINUOUS
 62
     4
100
AcDbLine
 10
34.154123
 20
18.079194
 30
0.0
 11
35.343023
 21
18.079194
 31
0.0
  0
LINE
  5
237
330
1F
100
AcDbEntity
  8
CARTOUCHE
  6
CONTINUOUS
 62
     4
100
AcDbLine
 10
33.364823
 20
18.079194
 30
0.0
 11
34.154123
 21
18.079194
 31
0.0
  0
LINE
  5
238
330
1F
100
AcDbEntity
  8
CARTOUCHE
  6
CONTINUOUS
 62
     4
100
AcDbLine
 10
16.087523
 20
19.931844
 30
0.0
 11
16.087523
 21
20.834994
 31
0.0
  0
LINE
  5
239
330
1F
100
AcDbEntity
  8
CARTOUCHE
  6
CONTINUOUS
 62
     4
100
AcDbLine
 10
16.087523
 20
20.834994
 30
0.0
 11
14.589473
 21
20.834994
 31
0.0
  0
LINE
  5
23A
330
1F
100
AcDbEntity
  8
CARTOUCHE
  6
CONTINUOUS
 62
     4
100
AcDbLine
 10
13.674623
 20
19.931844
 30
0.0
 11
13.674623
 21
19.508394
 31
0.0
  0
LINE
  5
23B
330
1F
100
AcDbEntity
  8
CARTOUCHE
  6
CONTINUOUS
 62
     4
100
AcDbLine
 10
13.674623
 20
19.508394
 30
0.0
 11
13.137323
 21
19.508394
 31
0.0
  0
LINE
  5
23C
330
1F
100
AcDbEntity
  8
CARTOUCHE
  6
CONTINUOUS
 62
     4
100
AcDbLine
 10
13.137323
 20
19.508394
 30
0.0
 11
13.137323
 21
18.410844
 31
0.0
  0
LINE
  5
23D
330
1F
100
AcDbEntity
  8
CARTOUCHE
  6
CONTINUOUS
 62
     4
100
AcDbLine
 10
13.137323
 20
18.410844
 30
0.0
 11
13.674623
 21
18.410844
 31
0.0
  0
LINE
  5
23E
330
1F
100
AcDbEntity
  8
CARTOUCHE
  6
CONTINUOUS
 62
     4
100
AcDbLine
 10
13.674623
 20
18.410844
 30
0.0
 11
13.674623
 21
15.632094
 31
0.0
  0
LINE
  5
23F
330
1F
100
AcDbEntity
  8
CARTOUCHE
  6
CONTINUOUS
 62
     4
100
AcDbLine
 10
13.674623
 20
15.632094
 30
0.0
 11
15.470123
 21
15.632094
 31
0.0
  0
LINE
  5
240
330
1F
100
AcDbEntity
  8
CARTOUCHE
  6
CONTINUOUS
 62
     4
100
AcDbLine
 10
15.470123
 20
15.632094
 30
0.0
 11
15.470123
 21
18.410844
 31
0.0
  0
LINE
  5
241
330
1F
100
AcDbEntity
  8
CARTOUCHE
  6
CONTINUOUS
 62
     4
100
AcDbLine
 10
15.470123
 20
18.410844
 30
0.0
 11
16.087523
 21
18.410844
 31
0.0
  0
LINE
  5
242
330
1F
100
AcDbEntity
  8
CARTOUCHE
  6
CONTINUOUS
 62
     4
100
AcDbLine
 10
16.087523
 20
18.410844
 30
0.0
 11
16.087523
 21
19.508394
 31
0.0
  0
LINE
  5
243
330
1F
100
AcDbEntity
  8
CARTOUCHE
  6
CONTINUOUS
 62
     4
100
AcDbLine
 10
16.087523
 20
19.508394
 30
0.0
 11
15.412973
 21
19.508394
 31
0.0
  0
LINE
  5
244
330
1F
100
AcDbEntity
  8
CARTOUCHE
  6
CONTINUOUS
 62
     4
100
AcDbLine
 10
15.412973
 20
19.508394
 30
0.0
 11
15.461079
 21
19.768622
 31
0.0
  0
LINE
  5
245
330
1F
100
AcDbEntity
  8
CARTOUCHE
  6
CONTINUOUS
 62
     4
100
AcDbLine
 10
15.679053
 20
19.931844
 30
0.0
 11
16.087523
 21
19.931844
 31
0.0
  0
LINE
  5
246
330
1F
100
AcDbEntity
  8
CARTOUCHE
  6
CONTINUOUS
 62
     4
100
AcDbLine
 10
16.807973
 20
15.632094
 30
0.0
 11
16.807973
 21
19.508394
 31
0.0
  0
LINE
  5
247
330
1F
100
AcDbEntity
  8
CARTOUCHE
  6
CONTINUOUS
 62
     4
100
AcDbLine
 10
16.807973
 20
19.508394
 30
0.0
 11
18.625973
 21
19.508394
 31
0.0
  0
LINE
  5
248
330
1F
100
AcDbEntity
  8
CARTOUCHE
  6
CONTINUOUS
 62
     4
100
AcDbLine
 10
18.625973
 20
19.508394
 30
0.0
 11
18.625973
 21
15.632094
 31
0.0
  0
LINE
  5
249
330
1F
100
AcDbEntity
  8
CARTOUCHE
  6
CONTINUOUS
 62
     4
100
AcDbLine
 10
18.625973
 20
15.632094
 30
0.0
 11
16.807973
 21
15.632094
 31
0.0
  0
LINE
  5
24A
330
1F
100
AcDbEntity
  8
CARTOUCHE
  6
CONTINUOUS
 62
     4
100
AcDbLine
 10
16.807973
 20
19.943094
 30
0.0
 11
16.807973
 21
20.834994
 31
0.0
  0
LINE
  5
24B
330
1F
100
AcDbEntity
  8
CARTOUCHE
  6
CONTINUOUS
 62
     4
100
AcDbLine
 10
16.807973
 20
20.834994
 30
0.0
 11
18.625973
 21
20.834994
 31
0.0
  0
LINE
  5
24C
330
1F
100
AcDbEntity
  8
CARTOUCHE
  6
CONTINUOUS
 62
     4
100
AcDbLine
 10
18.625973
 20
20.834994
 30
0.0
 11
18.625973
 21
19.943094
 31
0.0
  0
LINE
  5
24D
330
1F
100
AcDbEntity
  8
CARTOUCHE
  6
CONTINUOUS
 62
     4
100
AcDbLine
 10
18.625973
 20
19.943094
 30
0.0
 11
16.807973
 21
19.943094
 31
0.0
  0
ARC
  5
24E
330
1F
100
AcDbEntity
  8
CARTOUCHE
  6
CONTINUOUS
 62
     4
100
AcDbCircle
 10
14.580259
 20
19.929401
 30
0.0
 40
0.905639
100
AcDbArc
 50
90.0
 51
180.0
  0
ARC
  5
24F
330
1F
100
AcDbEntity
  8
CARTOUCHE
  6
CONTINUOUS
 62
     4
100
AcDbCircle
 10
15.705988
 20
19.668716
 30
0.0
 40
0.264503
100
AcDbArc
 50
95.844673
 51
157.807812
  0
ARC
  5
250
330
1F
100
AcDbEntity
  8
CARTOUCHE
  6
CONTINUOUS
 62
     4
100
AcDbCircle
 10
23.675028
 20
18.264873
 30
0.0
 40
1.218658
100
AcDbArc
 50
2.806997
 51
66.545781
  0
ARC
  5
251
330
1F
100
AcDbEntity
  8
CARTOUCHE
  6
CONTINUOUS
 62
     4
100
AcDbCircle
 10
23.067403
 20
16.045261
 30
0.0
 40
3.511892
100
AcDbArc
 50
71.872392
 51
120.405557
  0
ARC
  5
252
330
1F
100
AcDbEntity
  8
CARTOUCHE
  6
CONTINUOUS
 62
     4
100
AcDbCircle
 10
22.457324
 20
17.479034
 30
0.0
 40
0.651124
100
AcDbArc
 50
0.0
 51
97.150683
  0
ARC
  5
253
330
1F
100
AcDbEntity
  8
CARTOUCHE
  6
CONTINUOUS
 62
     4
100
AcDbCircle
 10
22.44381
 20
16.820079
 30
0.0
 40
1.306761
100
AcDbArc
 50
92.962513
 51
152.003324
  0
CIRCLE
  5
254
330
1F
100
AcDbEntity
  8
CARTOUCHE
  6
CONTINUOUS
 62
     4
100
AcDbCircle
 10
6.899646
 20
18.925422
 30
0.0
 40
4.756723
  0
ARC
  5
255
330
1F
100
AcDbEntity
  8
CARTOUCHE
  6
CONTINUOUS
 62
     4
100
AcDbCircle
 10
6.899651
 20
18.925417
 30
0.0
 40
3.758727
100
AcDbArc
 50
112.441032
 51
172.30447
  0
ARC
  5
256
330
1F
100
AcDbEntity
  8
CARTOUCHE
  6
CONTINUOUS
 62
     4
100
AcDbCircle
 10
6.899651
 20
18.925417
 30
0.0
 40
3.758727
100
AcDbArc
 50
82.920154
 51
97.425676
  0
ARC
  5
257
330
1F
100
AcDbEntity
  8
CARTOUCHE
  6
CONTINUOUS
 62
     4
100
AcDbCircle
 10
6.899651
 20
18.925417
 30
0.0
 40
3.758727
100
AcDbArc
 50
187.868554
 51
67.744476
  0
SPLINE
  5
258
330
1F
100
AcDbEntity
  8
CARTOUCHE
  6
CONTINUOUS
 62
     4
100
AcDbSpline
210
0.0
220
0.0
230
1.0
 70
     8
 71
     3
 72
    36
 73
    32
 74
     0
 42
0.0
 43
0.0
 40
0.0
 40
0.0
 40
0.0
 40
0.0
 40
0.1780767830136681
 40
0.3550421473332519
 40
0.5343453484092107
 40
0.7146565399102437
 40
1.070969665796742
 40
1.425797276482804
 40
1.782601621641158
 40
2.138604507529012
 40
2.494665694350761
 40
2.851054992366518
 40
3.206893612592711
 40
3.563376496270243
 40
3.919394399374822
 40
4.275489906300407
 40
4.631810709934304
 40
4.987969559364683
 40
5.34408211860129
 40
5.700399378588028
 40
6.056403899471826
 40
6.412686420078558
 40
6.768554714070927
 40
7.124994803535126
 40
7.480919478161396
 40
7.837065786048822
 40
8.193227339653797
 40
8.54915435091597
 40
8.90592851958123
 40
9.261828936493906
 40
9.970559377486843
 40
9.970559377486843
 40
9.970559377486843
 40
9.970559377486843
 10
29.19152297621247
 20
19.31990419713179
 30
0.0
 10
29.1470811456694
 20
19.35925398737595
 30
0.0
 10
29.05217101571805
 20
19.43173556621809
 30
0.0
 10
28.88702486192653
 20
19.50226756380448
 30
0.0
 10
28.71305131556232
 20
19.54495666942722
 30
0.0
 10
28.47834845644468
 20
19.58798269645786
 30
0.0
 10
28.18518117017913
 20
19.6380071954232
 30
0.0
 10
27.82899646784813
 20
19.65936914144959
 30
0.0
 10
27.47326672482029
 20
19.64621384628077
 30
0.0
 10
27.11757491729929
 20
19.61242874303616
 30
0.0
 10
26.77299200399079
 20
19.51557094953318
 30
0.0
 10
26.44749864205448
 20
19.36660662833782
 30
0.0
 10
26.15775694326908
 20
19.15567807341921
 30
0.0
 10
25.90609476451141
 20
18.90204678516807
 30
0.0
 10
25.69450118247778
 20
18.61346836368199
 30
0.0
 10
25.53862581202111
 20
18.29089603326815
 30
0.0
 10
25.44277681566371
 20
17.94623295105322
 30
0.0
 10
25.4051588730083
 20
17.58968055220072
 30
0.0
 10
25.44352328414163
 20
17.23351806607326
 30
0.0
 10
25.5330884282904
 20
16.88748872605868
 30
0.0
 10
25.68157849234228
 20
16.56148488761744
 30
0.0
 10
25.88917684075068
 20
16.26919453242289
 30
0.0
 10
26.1522127749239
 20
16.02575896079475
 30
0.0
 10
26.45092519319712
 20
15.8297346257055
 30
0.0
 10
26.77615878588608
 20
15.68002644669815
 30
0.0
 10
27.12459823011875
 20
15.59680869955605
 30
0.0
 10
27.48036210823477
 20
15.56921438733917
 30
0.0
 10
27.83671943981153
 20
15.56880338564122
 30
0.0
 10
28.19288691357406
 20
15.5809601144162
 30
0.0
 10
28.6641908177113
 20
15.63797081704081
 30
0.0
 10
28.99993188968324
 20
15.78862697439314
 30
0.0
 10
29.19152297621247
 20
15.92684360711667
 30
0.0
  0
SPLINE
  5
259
330
1F
100
AcDbEntity
  8
CARTOUCHE
  6
CONTINUOUS
 62
     4
100
AcDbSpline
210
0.0
220
0.0
230
1.0
 70
     8
 71
     3
 72
    32
 73
    28
 74
     0
 42
0.0
 43
0.0
 40
0.0
 40
0.0
 40
0.0
 40
0.0
 40
0.1932877580521157
 40
0.3866798787325882
 40
0.5800722507134989
 40
0.772333729456475
 40
0.9658523902015594
 40
1.159368918637214
 40
1.351212480188305
 40
1.544294116240269
 40
1.738458877748041
 40
1.931765051105018
 40
2.315248221342022
 40
2.698534908932237
 40
2.891497325006418
 40
3.086240061673468
 40
3.27934698460621
 40
3.47149554917474
 40
3.665362297658928
 40
3.858867169137039
 40
4.051425425593018
 40
4.244517993884934
 40
4.629048396203631
 40
4.822527042047698
 40
5.015999172173861
 40
5.208857197714148
 40
5.402321103694232
 40
5.402321103694232
 40
5.402321103694232
 40
5.402321103694232
 10
29.19152297621247
 20
17.75924360711667
 30
0.0
 10
29.18288243399775
 20
17.82309084379659
 30
0.0
 10
29.14698925229231
 20
17.9492309949249
 30
0.0
 10
29.03863033600135
 20
18.11295896718002
 30
0.0
 10
28.88808593421186
 20
18.23750555169801
 30
0.0
 10
28.71390236835975
 20
18.32349619385565
 30
0.0
 10
28.52952277004852
 20
18.38166686509658
 30
0.0
 10
28.34290479514243
 20
18.43125946356719
 30
0.0
 10
28.15005836734326
 20
18.45345660720096
 30
0.0
 10
27.9567652835641
 20
18.43192422737053
 30
0.0
 10
27.77055996307331
 20
18.37588631632258
 30
0.0
 10
27.54005543090193
 20
18.25927888814988
 30
0.0
 10
27.30431979796026
 20
18.02895633252871
 30
0.0
 10
27.19918224735056
 20
17.70410852264934
 30
0.0
 10
27.2556090006949
 20
17.44863354719075
 30
0.0
 10
27.34552826919219
 20
17.27538536050071
 30
0.0
 10
27.47312092641039
 20
17.12730558305736
 30
0.0
 10
27.63483015622103
 20
17.01829625364087
 30
0.0
 10
27.81425994030428
 20
16.94472673420569
 30
0.0
 10
28.00144289742559
 20
16.89441464262615
 30
0.0
 10
28.19428201703386
 20
16.87304307862473
 30
0.0
 10
28.45148699611309
 20
16.8893478994068
 30
0.0
 10
28.70119669040025
 20
16.97262918726352
 30
0.0
 10
28.91655264301392
 20
17.11456090216899
 30
0.0
 10
29.05836036639801
 20
17.24858543450057
 30
0.0
 10
29.15639747778994
 20
17.41858950885381
 30
0.0
 10
29.18558227182314
 20
17.546079853658
 30
0.0
 10
29.19152297621247
 20
17.61029360711666
 30
0.0
  0
LINE
  5
25A
330
1F
100
AcDbEntity
  8
CARTOUCHE
  6
CONTINUOUS
 62
     4
100
AcDbLine
 10
29.191523
 20
17.610294
 30
0.0
 11
29.191523
 21
17.759244
 31
0.0
  0
LINE
  5
25B
330
1F
100
AcDbEntity
  8
CARTOUCHE
  6
CONTINUOUS
 62
     4
100
AcDbLine
 10
29.191523
 20
15.620844
 30
0.0
 11
29.191523
 21
15.926844
 31
0.0
  0
SPLINE
  5
25C
330
1F
100
AcDbEntity
  8
CARTOUCHE
  6
CONTINUOUS
 62
     4
100
AcDbSpline
210
0.0
220
0.0
230
1.0
 70
     8
 71
     3
 72
    46
 73
    42
 74
     0
 42
0.0
 43
0.0
 40
0.0
 40
0.0
 40
0.0
 40
0.0
 40
0.2811760796502946
 40
0.5640898973250563
 40
0.8489971748537003
 40
1.131205009177211
 40
1.693847543907712
 40
2.256883126992217
 40
2.539006962714906
 40
2.820697028678528
 40
3.102988717666822
 40
3.385255369055035
 40
3.948537474972731
 40
4.512595302147443
 40
5.076291358232317
 40
5.639939427570669
 40
6.203885740903807
 40
6.766738495431309
 40
7.329351108981916
 40
7.892323841237688
 40
8.45514866590555
 40
8.737355288896866
 40
9.018966908742904
 40
9.581781624582574
 40
9.86403908982524
 40
10.14660944492419
 40
10.42765695915669
 40
10.7104453671154
 40
11.27439772862129
 40
11.83782241902082
 40
12.40155022911231
 40
12.96488140450844
 40
13.53013698036286
 40
13.81230410617875
 40
14.09372936703951
 40
14.37575719238146
 40
14.65757020519361
 40
14.93943603583764
 40
15.22120144973326
 40
15.50299703910228
 40
15.78483944550847
 40
15.78483944550847
 40
15.78483944550847
 40
15.78483944550847
 10
37.20692297621247
 20
17.25614360711671
 30
0.0
 10
37.23203420692107
 20
17.3464423843929
 30
0.0
 10
37.26336484409046
 20
17.53399353514692
 30
0.0
 10
37.24149612352574
 20
17.81801411254952
 30
0.0
 10
37.17836723535868
 20
18.09483488905607
 30
0.0
 10
37.05825107130295
 20
18.45212671536387
 30
0.0
 10
36.82306595169769
 20
18.86725058477685
 30
0.0
 10
36.46781589545185
 20
19.18453429852832
 30
0.0
 10
36.14761072222359
 20
19.38196329151134
 30
0.0
 10
35.88897462899058
 20
19.49665832798303
 30
0.0
 10
35.61969295726612
 20
19.58173403519248
 30
0.0
 10
35.2543140411176
 20
19.67112584450371
 30
0.0
 10
34.78716946498412
 20
19.73491758839327
 30
0.0
 10
34.22286115907593
 20
19.74314626209986
 30
0.0
 10
33.65911994648309
 20
19.70776759135032
 30
0.0
 10
33.10430878015268
 20
19.60055504764404
 30
0.0
 10
32.56703323781767
 20
19.41975332166317
 30
0.0
 10
32.09128315197597
 20
19.10132458254378
 30
0.0
 10
31.74193800490184
 20
18.64941378404785
 30
0.0
 10
31.52262068232574
 20
18.12465110892418
 30
0.0
 10
31.46286140999609
 20
17.65237452681703
 30
0.0
 10
31.49897098284839
 20
17.27677370178463
 30
0.0
 10
31.60138451349223
 20
16.91447857233737
 30
0.0
 10
31.76185376327498
 20
16.56953956862208
 30
0.0
 10
31.99184431742594
 20
16.27135451108103
 30
0.0
 10
32.18412083772114
 20
16.06372980713053
 30
0.0
 10
32.41499014005785
 20
15.89810997038029
 30
0.0
 10
32.7523317509042
 20
15.73108000815063
 30
0.0
 10
33.19505414301852
 20
15.56630096045467
 30
0.0
 10
33.75227372266897
 20
15.46845437614093
 30
0.0
 10
34.31516350933748
 20
15.42686252978586
 30
0.0
 10
34.8797846612523
 20
15.45310416565457
 30
0.0
 10
35.34636121692427
 20
15.51793254831694
 30
0.0
 10
35.71316921960886
 20
15.60361847371956
 30
0.0
 10
35.98020693492333
 20
15.69575649055218
 30
0.0
 10
36.23634011737818
 20
15.81337070818239
 30
0.0
 10
36.48756104735048
 20
15.94257867459993
 30
0.0
 10
36.71131096251793
 20
16.11779577915576
 30
0.0
 10
36.89210320202199
 20
16.33577430529641
 30
0.0
 10
37.03705328185708
 20
16.57968837892793
 30
0.0
 10
37.08874532982247
 20
16.76292208205905
 30
0.0
 10
37.10387297621253
 20
16.85564360711669
 30
0.0
  0
SPLINE
  5
25D
330
1F
100
AcDbEntity
  8
CARTOUCHE
  6
CONTINUOUS
 62
     4
100
AcDbSpline
210
0.0
220
0.0
230
1.0
 70
     8
 71
     3
 72
    15
 73
    11
 74
     0
 42
0.0
 43
0.0
 40
0.0
 40
0.0
 40
0.0
 40
0.0
 40
0.3371530624456519
 40
0.6743134103473634
 40
1.011742195803972
 40
1.348774234605689
 40
1.687275239821948
 40
1.856093664733062
 40
2.024672439731733
 40
2.36171424272068
 40
2.36171424272068
 40
2.36171424272068
 40
2.36171424272068
 10
33.36482297621251
 20
17.24444360711669
 30
0.0
 10
33.3858778215025
 20
17.13404914825571
 30
0.0
 10
33.47908858652352
 20
16.91720193038532
 30
0.0
 10
33.75430938453144
 20
16.70644926418299
 30
0.0
 10
34.06998675418981
 20
16.58180999970011
 30
0.0
 10
34.40539517918739
 20
16.52556263807151
 30
0.0
 10
34.68949469675783
 20
16.54062536220022
 30
0.0
 10
34.90812694138117
 20
16.59887374482219
 30
0.0
 10
35.11328271453908
 20
16.69222545658818
 30
0.0
 10
35.25572769673465
 20
16.78492272807648
 30
0.0
 10
35.34302297621252
 20
16.85564360711669
 30
0.0
  0
SPLINE
  5
25E
330
1F
100
AcDbEntity
  8
CARTOUCHE
  6
CONTINUOUS
 62
     4
100
AcDbSpline
210
0.0
220
0.0
230
1.0
 70
     8
 71
     3
 72
    21
 73
    17
 74
     0
 42
0.0
 43
0.0
 40
0.0
 40
0.0
 40
0.0
 40
0.0
 40
0.1868562426648683
 40
0.3735753311188897
 40
0.561385244331366
 40
0.7484499710535985
 40
0.9355894656463413
 40
1.123113048870195
 40
1.311429068188788
 40
1.500242837337345
 40
1.686444243009907
 40
1.873057665252352
 40
2.059520356870873
 40
2.246467921108978
 40
2.434628805645711
 40
2.621194974095634
 40
2.621194974095634
 40
2.621194974095634
 40
2.621194974095634
 10
35.34302297621252
 20
18.07919360711668
 30
0.0
 10
35.33827402300517
 20
18.14129771542036
 30
0.0
 10
35.31098590801867
 20
18.26532167893515
 30
0.0
 10
35.21176932408082
 20
18.4274393651603
 30
0.0
 10
35.07410472232061
 20
18.55667707405826
 30
0.0
 10
34.91380074337155
 20
18.65566347451573
 30
0.0
 10
34.73873424931833
 20
18.72452207485077
 30
0.0
 10
34.55489940604025
 20
18.76544162614522
 30
0.0
 10
34.36639704794266
 20
18.77885835001854
 30
0.0
 10
34.17902209853401
 20
18.76782273359754
 30
0.0
 10
33.99274798283
 20
18.72746022546607
 30
0.0
 10
33.83748785500461
 20
18.62068130925581
 30
0.0
 10
33.66640581764318
 20
18.54392880021908
 30
0.0
 10
33.52524874688265
 20
18.41621721231661
 30
0.0
 10
33.42100493506643
 20
18.25892401888791
 30
0.0
 10
33.37822029988172
 20
18.13992209272328
 30
0.0
 10
33.36482297621251
 20
18.07919360711668
 30
0.0
  0
SPLINE
  5
25F
330
1F
100
AcDbEntity
  8
CARTOUCHE
  6
CONTINUOUS
 62
     4
100
AcDbSpline
210
0.0
220
0.0
230
1.0
 70
     8
 71
     3
 72
    14
 73
    10
 74
     0
 42
0.0
 43
0.0
 40
0.0
 40
0.0
 40
0.0
 40
0.0
 40
0.2162148910594536
 40
0.4333935378504982
 40
0.6499506618299267
 40
0.8697440506435969
 40
1.087238867261143
 40
1.304828920110255
 40
1.52231799513657
 40
1.52231799513657
 40
1.52231799513657
 40
1.52231799513657
 10
40.45457297621249
 20
17.82764360711667
 30
0.0
 10
40.4585708245022
 20
17.89960427075187
 30
0.0
 10
40.42640871477511
 20
18.04880797988181
 30
0.0
 10
40.27439512155047
 20
18.21580578301359
 30
0.0
 10
40.06187418874424
 20
18.29256657103895
 30
0.0
 10
39.83996012736452
 20
18.27349259239088
 30
0.0
 10
39.63539374842924
 20
18.1792790871346
 30
0.0
 10
39.50069166663809
 20
17.99888001181955
 30
0.0
 10
39.46300588566658
 20
17.85461099381689
 30
0.0
 10
39.45962297621247
 20
17.78219360711671
 30
0.0
  0
SPLINE
  5
260
330
1F
100
AcDbEntity
  8
CARTOUCHE
  6
CONTINUOUS
 62
     4
100
AcDbSpline
210
0.0
220
0.0
230
1.0
 70
     8
 71
     3
 72
    20
 73
    16
 74
     0
 42
0.0
 43
0.0
 40
0.0
 40
0.0
 40
0.0
 40
0.0
 40
0.3099173987996669
 40
0.6201169005603266
 40
0.9308839291328165
 40
1.240783325707781
 40
1.55095939565128
 40
1.86184239372724
 40
2.170990040564945
 40
2.482795387658576
 40
2.792567816778102
 40
3.102413185111548
 40
3.413424630920254
 40
3.723772126664227
 40
4.34241605336301
 40
4.34241605336301
 40
4.34241605336301
 40
4.34241605336301
 10
42.28382297621249
 20
17.58779360711668
 30
0.0
 10
42.29785819041342
 20
17.69014154795241
 30
0.0
 10
42.31442439810405
 20
17.89677002490993
 30
0.0
 10
42.30093033884827
 20
18.20747684710312
 30
0.0
 10
42.25565509292562
 20
18.51474506996465
 30
0.0
 10
42.17620497908092
 20
18.81641720416798
 30
0.0
 10
42.02732884775901
 20
19.09240930675497
 30
0.0
 10
41.81020925681196
 20
19.32073989851239
 30
0.0
 10
41.53096645435983
 20
19.46673633765892
 30
0.0
 10
41.2307622884091
 20
19.54812226604332
 30
0.0
 10
40.92302870824335
 20
19.59724701034366
 30
0.0
 10
40.61155045095131
 20
19.58971136447536
 30
0.0
 10
40.30365712496848
 20
19.54593387513313
 30
0.0
 10
39.90384924168495
 20
19.43649512043618
 30
0.0
 10
39.62714716375797
 20
19.28574386806645
 30
0.0
 10
39.45962297621247
 20
19.16549360711667
 30
0.0
  0
ARC
  5
261
330
1F
100
AcDbEntity
  8
CARTOUCHE
  6
CONTINUOUS
 62
     4
100
AcDbCircle
 10
5.950954
 20
18.851493
 30
0.0
 40
0.470607
100
AcDbArc
 50
290.581791
 51
349.597912
  0
SPLINE
  5
262
330
1F
100
AcDbEntity
  8
CARTOUCHE
  6
CONTINUOUS
 62
     4
100
AcDbSpline
210
0.0
220
0.0
230
1.0
 70
     8
 71
     3
 72
    14
 73
    10
 74
     0
 42
0.0
 43
0.0
 40
0.0
 40
0.0
 40
0.0
 40
0.0
 40
0.218061519141428
 40
0.4363611552766655
 40
0.6537290224029619
 40
0.8729556978994847
 40
1.089089148588595
 40
1.305404600578318
 40
1.523281343816881
 40
1.523281343816881
 40
1.523281343816881
 40
1.523281343816881
 10
8.323222976212492
 20
16.16984360711672
 30
0.0
 10
8.318288214417635
 20
16.09732413902975
 30
0.0
 10
8.284441201709
 20
15.95301240567483
 30
0.0
 10
8.169483084717058
 20
15.76307331566505
 30
0.0
 10
7.996385400748409
 20
15.62406236269834
 30
0.0
 10
7.795574627707992
 20
15.53567944687768
 30
0.0
 10
7.57604694575457
 20
15.50360567386355
 30
0.0
 10
7.361945471922013
 20
15.55796082330824
 30
0.0
 10
7.233255854035747
 20
15.62676542598342
 30
0.0
 10
7.173698979108963
 20
15.66832807359032
 30
0.0
  0
ARC
  5
263
330
1F
100
AcDbEntity
  8
CARTOUCHE
  6
CONTINUOUS
 62
     4
100
AcDbCircle
 10
9.404539
 20
20.005869
 30
0.0
 40
0.500071
100
AcDbArc
 50
275.840125
 51
95.840125
  0
HATCH
  5
264
330
1F
100
AcDbEntity
  8
CARTOUCHE
  6
CONTINUOUS
 62
     4
100
AcDbHatch
 10
0.0
 20
0.0
 30
0.0
210
0.0
220
0.0
230
1.0
  2
ANSI_31
 70
     0
 71
     0
 91
        4
 92
        1
 93
        3
 72
     1
 10
5.464823000000024
 20
22.39950599999997
 11
5.464823000000024
 21
19.42874399999999
 72
     1
 10
5.464823000000024
 20
19.42874399999999
 11
3.174775999999952
 21
19.42874399999999
 72
     2
 10
6.899650999999952
 20
18.92541699999997
 40
3.758727000000005
 50
187.6955481858978
 51
247.5589807620792
 73
     0
 97
        0
 92
        0
 93
        6
 72
     1
 10
6.413872999999967
 20
22.65262100000001
 11
6.413872999999967
 21
18.76651400000003
 72
     2
 10
5.950954000000016
 20
18.85149300000001
 40
0.4706070000000082
 50
10.40206637069416
 51
69.41820895943546
 73
     0
 72
     1
 10
6.116423000000054
 20
18.410844
 11
5.887823000000026
 21
18.410844
 72
     1
 10
5.887823000000026
 20
18.410844
 11
7.362923000000023
 21
16.81019400000002
 72
     1
 10
7.362923000000023
 20
16.81019400000002
 11
7.362923000000023
 21
22.655485
 72
     2
 10
6.899650999999941
 20
18.92541699999985
 40
3.758727000000134
 50
82.92017098471825
 51
97.4256861882653
 73
     1
 97
        0
 92
        0
 93
       40
 72
     1
 10
9.353656
 20
20.50334399999997
 11
8.323222999999984
 21
20.50334399999997
 72
     1
 10
8.323222999999984
 20
20.50334399999997
 11
8.323222999999984
 21
22.404134
 72
     2
 10
6.899650999999949
 20
18.92541699999998
 40
3.758726999999999
 50
292.2555505518877
 51
532.1314361600666
 73
     0
 72
     1
 10
3.17631300000005
 20
18.410844
 11
4.378522999999973
 21
18.410844
 72
     1
 10
4.378522999999973
 20
18.410844
 11
7.173698999999942
 21
15.66832799999997
 72
     1
 10
7.173698999999942
 20
15.66832799999997
 11
7.228616999999986
 21
15.63285300000001
 72
     1
 10
7.228616999999986
 20
15.63285300000001
 11
7.286013000000025
 21
15.60136299999999
 72
     1
 10
7.286013000000025
 20
15.60136299999999
 11
7.36599799999999
 21
15.565901
 72
     1
 10
7.36599799999999
 20
15.565901
 11
7.407007000000021
 21
15.55122899999998
 72
     1
 10
7.407007000000021
 20
15.55122899999998
 11
7.448736000000054
 21
15.53879699999999
 72
     1
 10
7.448736000000054
 20
15.53879699999999
 11
7.491052999999965
 21
15.528907
 72
     1
 10
7.491052999999965
 20
15.528907
 11
7.533828999999969
 21
15.52186
 72
     1
 10
7.533828999999969
 20
15.52186
 11
7.576934000000051
 21
15.51796000000002
 72
     1
 10
7.576934000000051
 20
15.51796000000002
 11
7.620190999999977
 21
15.51741600000003
 72
     1
 10
7.620190999999977
 20
15.51741600000003
 11
7.663455999999996
 21
15.52006999999998
 72
     1
 10
7.663455999999996
 20
15.52006999999998
 11
7.706539000000021
 21
15.52567799999997
 72
     1
 10
7.706539000000021
 20
15.52567799999997
 11
7.749248999999963
 21
15.53399400000001
 72
     1
 10
7.749248999999963
 20
15.53399400000001
 11
7.791397999999958
 21
15.54477500000002
 72
     1
 10
7.791397999999958
 20
15.54477500000002
 11
7.833399999999983
 21
15.55801000000002
 72
     1
 10
7.833399999999983
 20
15.55801000000002
 11
7.874554999999987
 21
15.57347900000002
 72
     1
 10
7.874554999999987
 20
15.57347900000002
 11
7.914787000000047
 21
15.59112900000002
 72
     1
 10
7.914787000000047
 20
15.59112900000002
 11
7.992186999999944
 21
15.63277499999998
 72
     1
 10
7.992186999999944
 20
15.63277499999998
 11
8.028870999999981
 21
15.65646700000002
 72
     1
 10
8.028870999999981
 20
15.65646700000002
 11
8.064194000000043
 21
15.682164
 72
     1
 10
8.064194000000043
 20
15.682164
 11
8.097920000000045
 21
15.70987400000001
 72
     1
 10
8.097920000000045
 20
15.70987400000001
 11
8.129815000000008
 21
15.73960499999998
 72
     1
 10
8.129815000000008
 20
15.73960499999998
 11
8.15964299999996
 21
15.771365
 72
     1
 10
8.15964299999996
 20
15.771365
 11
8.18731200000002
 21
15.80527799999999
 72
     1
 10
8.18731200000002
 20
15.80527799999999
 11
8.212608000000046
 21
15.84104500000001
 72
     1
 10
8.212608000000046
 20
15.84104500000001
 11
8.235480000000052
 21
15.878466
 72
     1
 10
8.235480000000052
 20
15.878466
 11
8.255877000000055
 21
15.91734000000002
 72
     1
 10
8.255877000000055
 20
15.91734000000002
 11
8.27374999999995
 21
15.95746800000001
 72
     1
 10
8.27374999999995
 20
15.95746800000001
 11
8.289029000000028
 21
15.998605
 72
     1
 10
8.289029000000028
 20
15.998605
 11
8.30167700000004
 21
16.04060199999998
 72
     1
 10
8.30167700000004
 20
16.04060199999998
 11
8.311632000000031
 21
16.08326799999998
 72
     1
 10
8.311632000000031
 20
16.08326799999998
 11
8.318835000000036
 21
16.12641200000002
 72
     1
 10
8.318835000000036
 20
16.12641200000002
 11
8.323222999999984
 21
16.16984400000001
 72
     1
 10
8.323222999999984
 20
16.16984400000001
 11
8.323222999999984
 21
19.50839400000001
 72
     1
 10
8.323222999999984
 20
19.50839400000001
 11
9.455422999999996
 21
19.50839400000001
 72
     2
 10
9.404538999999996
 20
20.00586900000002
 40
0.500071000000002
 50
275.8401026338638
 51
455.840122481706
 73
     1
 97
        0
 92
        0
 93
        1
 72
     2
 10
6.899645999999962
 20
18.925422003831
 40
4.756723
 50
359.9999999538551
 51
719.9999823537613
 73
     1
 97
        0
 75
     0
 76
     2
 52
0.0
 41
0.062992
 77
     0
 78
     1
 53
44.99999999988837
 43
0.0
 44
0.0
 45
-3.592095212307267
 46
3.592095212321264
 79
     0
 98
        0
  0
HATCH
  5
265
330
1F
100
AcDbEntity
  8
CARTOUCHE
  6
CONTINUOUS
 62
     4
100
AcDbHatch
 10
0.0
 20
0.0
 30
0.0
210
0.0
220
0.0
230
1.0
  2
ANSI_31
 70
     0
 71
     0
 91
        1
 92
        1
 93
       16
 72
     1
 10
15.67905299999995
 20
19.93184400000001
 11
16.08752300000003
 21
19.93184400000001
 72
     1
 10
16.08752300000003
 20
19.93184400000001
 11
16.08752300000003
 21
20.83499399999999
 72
     1
 10
16.08752300000003
 20
20.83499399999999
 11
14.58025899999996
 21
20.83499399999999
 72
     2
 10
14.58025899999995
 20
19.929401
 40
0.9056389999999958
 50
89.99998127603119
 51
180.0000198478432
 73
     1
 72
     1
 10
13.674623
 20
19.92940099999998
 11
13.674623
 21
19.50839400000001
 72
     1
 10
13.674623
 20
19.50839400000001
 11
13.13732300000004
 21
19.50839400000001
 72
     1
 10
13.13732300000004
 20
19.50839400000001
 11
13.13732300000004
 21
18.410844
 72
     1
 10
13.13732300000004
 20
18.410844
 11
13.674623
 21
18.410844
 72
     1
 10
13.674623
 20
18.410844
 11
13.674623
 21
15.632094
 72
     1
 10
13.674623
 20
15.632094
 11
15.47012300000006
 21
15.632094
 72
     1
 10
15.47012300000006
 20
15.632094
 11
15.47012300000006
 21
18.410844
 72
     1
 10
15.47012300000006
 20
18.410844
 11
16.08752300000003
 21
18.410844
 72
     1
 10
16.08752300000003
 20
18.410844
 11
16.08752300000003
 21
19.50839400000001
 72
     1
 10
16.08752300000003
 20
19.50839400000001
 11
15.41297299999997
 21
19.50839400000001
 72
     1
 10
15.41297299999997
 20
19.50839400000001
 11
15.46107900000004
 21
19.76862199999999
 72
     2
 10
15.70598800000005
 20
19.668716
 40
0.2645030000000168
 50
202.1921825436233
 51
264.1553335516165
 73
     0
 97
        0
 75
     0
 76
     2
 52
0.0
 41
0.062992
 77
     0
 78
     1
 53
44.99999999988837
 43
0.0
 44
0.0
 45
-3.592095212307267
 46
3.592095212321264
 79
     0
 98
        0
  0
HATCH
  5
266
330
1F
100
AcDbEntity
  8
CARTOUCHE
  6
CONTINUOUS
 62
     4
100
AcDbHatch
 10
0.0
 20
0.0
 30
0.0
210
0.0
220
0.0
230
1.0
  2
ANSI_31
 70
     0
 71
     0
 91
        1
 92
        1
 93
        4
 72
     1
 10
16.80797299999995
 20
20.83499399999999
 11
16.80797299999995
 21
19.94309399999997
 72
     1
 10
16.80797299999995
 20
19.94309399999997
 11
18.62597300000004
 21
19.94309399999997
 72
     1
 10
18.62597300000004
 20
19.94309399999997
 11
18.62597300000004
 21
20.83499399999999
 72
     1
 10
18.62597300000004
 20
20.83499399999999
 11
16.80797299999995
 21
20.83499399999999
 97
        0
 75
     0
 76
     2
 52
0.0
 41
0.062992
 77
     0
 78
     1
 53
44.99999999988837
 43
0.0
 44
0.0
 45
-3.592095212307267
 46
3.592095212321264
 79
     0
 98
        0
  0
HATCH
  5
267
330
1F
100
AcDbEntity
  8
CARTOUCHE
  6
CONTINUOUS
 62
     4
100
AcDbHatch
 10
0.0
 20
0.0
 30
0.0
210
0.0
220
0.0
230
1.0
  2
ANSI_31
 70
     0
 71
     0
 91
        1
 92
        1
 93
        4
 72
     1
 10
16.80797299999995
 20
19.50839400000001
 11
16.80797299999995
 21
15.632094
 72
     1
 10
16.80797299999995
 20
15.632094
 11
18.62597300000004
 21
15.632094
 72
     1
 10
18.62597300000004
 20
15.632094
 11
18.62597300000004
 21
19.50839400000001
 72
     1
 10
18.62597300000004
 20
19.50839400000001
 11
16.80797299999995
 21
19.50839400000001
 97
        0
 75
     0
 76
     2
 52
0.0
 41
0.062992
 77
     0
 78
     1
 53
44.99999999988837
 43
0.0
 44
0.0
 45
-3.592095212307267
 46
3.592095212321264
 79
     0
 98
        0
  0
HATCH
  5
268
330
1F
100
AcDbEntity
  8
CARTOUCHE
  6
CONTINUOUS
 62
     4
100
AcDbHatch
 10
0.0
 20
0.0
 30
0.0
210
0.0
220
0.0
230
1.0
  2
ANSI_31
 70
     0
 71
     0
 91
        1
 92
        1
 93
       12
 72
     2
 10
22.45732399999997
 20
17.47903400000001
 40
0.6511239999999975
 50
262.8493335533972
 51
360.0000000000003
 73
     0
 72
     1
 10
23.10842300000002
 20
17.47903400000001
 11
23.10842300000002
 21
15.632094
 72
     1
 10
23.10842300000002
 20
15.632094
 11
24.89222300000006
 21
15.632094
 72
     1
 10
24.89222300000006
 20
15.632094
 11
24.89222300000006
 21
18.32455299999998
 72
     2
 10
23.67502799999998
 20
18.26487300000003
 40
1.21865800000001
 50
2.806977534125369
 51
66.54578204501243
 73
     1
 72
     2
 10
23.06740300000001
 20
16.04526099999996
 40
3.511892000000026
 50
71.87239877900578
 51
120.4055336606954
 73
     1
 72
     1
 10
21.28997300000003
 20
19.07414399999999
 11
21.28997300000003
 21
19.50839400000001
 72
     1
 10
21.28997300000003
 20
19.50839400000001
 11
19.49492299999997
 21
19.50839400000001
 72
     1
 10
19.49492299999997
 20
19.50839400000001
 11
19.49492299999997
 21
15.632094
 72
     1
 10
19.49492299999997
 20
15.632094
 11
21.28997300000003
 21
15.632094
 72
     1
 10
21.28997300000003
 20
15.632094
 11
21.28997300000003
 21
17.43349899999998
 72
     2
 10
22.44380999999998
 20
16.82007900000005
 40
1.306760999999984
 50
207.9967033745316
 51
267.0374831484652
 73
     0
 97
        0
 75
     0
 76
     2
 52
0.0
 41
0.062992
 77
     0
 78
     1
 53
44.99999999988837
 43
0.0
 44
0.0
 45
-3.592095212307267
 46
3.592095212321264
 79
     0
 98
        0
  0
LINE
  5
269
330
1F
100
AcDbEntity
  8
CARTOUCHE
  6
CONTINUOUS
 62
     4
100
AcDbLine
 10
29.191523
 20
19.319904
 30
0.0
 11
29.136639
 21
19.365465
 31
0.0
  0
LINE
  5
26A
330
1F
100
AcDbEntity
  8
CARTOUCHE
  6
CONTINUOUS
 62
     4
100
AcDbLine
 10
29.136639
 20
19.365465
 30
0.0
 11
29.093353
 21
19.396952
 31
0.0
  0
LINE
  5
26B
330
1F
100
AcDbEntity
  8
CARTOUCHE
  6
CONTINUOUS
 62
     4
100
AcDbLine
 10
29.093353
 20
19.396952
 30
0.0
 11
29.048146
 21
19.425518
 31
0.0
  0
LINE
  5
26C
330
1F
100
AcDbEntity
  8
CARTOUCHE
  6
CONTINUOUS
 62
     4
100
AcDbLine
 10
29.048146
 20
19.425518
 30
0.0
 11
28.985315
 21
19.458243
 31
0.0
  0
LINE
  5
26D
330
1F
100
AcDbEntity
  8
CARTOUCHE
  6
CONTINUOUS
 62
     4
100
AcDbLine
 10
28.985315
 20
19.458243
 30
0.0
 11
28.936415
 21
19.479183
 31
0.0
  0
LINE
  5
26E
330
1F
100
AcDbEntity
  8
CARTOUCHE
  6
CONTINUOUS
 62
     4
100
AcDbLine
 10
28.936415
 20
19.479183
 30
0.0
 11
28.886414
 21
19.497349
 31
0.0
  0
LINE
  5
26F
330
1F
100
AcDbEntity
  8
CARTOUCHE
  6
CONTINUOUS
 62
     4
100
AcDbLine
 10
28.886414
 20
19.497349
 30
0.0
 11
28.800369
 21
19.52267
 31
0.0
  0
LINE
  5
270
330
1F
100
AcDbEntity
  8
CARTOUCHE
  6
CONTINUOUS
 62
     4
100
AcDbLine
 10
28.800369
 20
19.52267
 30
0.0
 11
28.713056
 21
19.543137
 31
0.0
  0
LINE
  5
271
330
1F
100
AcDbEntity
  8
CARTOUCHE
  6
CONTINUOUS
 62
     4
100
AcDbLine
 10
28.713056
 20
19.543137
 30
0.0
 11
28.535985
 21
19.577164
 31
0.0
  0
LINE
  5
272
330
1F
100
AcDbEntity
  8
CARTOUCHE
  6
CONTINUOUS
 62
     4
100
AcDbLine
 10
28.535985
 20
19.577164
 30
0.0
 11
28.183861
 21
19.631643
 31
0.0
  0
LINE
  5
273
330
1F
100
AcDbEntity
  8
CARTOUCHE
  6
CONTINUOUS
 62
     4
100
AcDbLine
 10
28.183861
 20
19.631643
 30
0.0
 11
27.829714
 21
19.653611
 31
0.0
  0
LINE
  5
274
330
1F
100
AcDbEntity
  8
CARTOUCHE
  6
CONTINUOUS
 62
     4
100
AcDbLine
 10
27.829714
 20
19.653611
 30
0.0
 11
27.473075
 21
19.642759
 31
0.0
  0
LINE
  5
275
330
1F
100
AcDbEntity
  8
CARTOUCHE
  6
CONTINUOUS
 62
     4
100
AcDbLine
 10
27.473075
 20
19.642759
 30
0.0
 11
27.295535
 21
19.627567
 31
0.0
  0
LINE
  5
276
330
1F
100
AcDbEntity
  8
CARTOUCHE
  6
CONTINUOUS
 62
     4
100
AcDbLine
 10
27.295535
 20
19.627567
 30
0.0
 11
27.119422
 21
19.601922
 31
0.0
  0
LINE
  5
277
330
1F
100
AcDbEntity
  8
CARTOUCHE
  6
CONTINUOUS
 62
     4
100
AcDbLine
 10
27.119422
 20
19.601922
 30
0.0
 11
26.980393
 21
19.570874
 31
0.0
  0
LINE
  5
278
330
1F
100
AcDbEntity
  8
CARTOUCHE
  6
CONTINUOUS
 62
     4
100
AcDbLine
 10
26.980393
 20
19.570874
 30
0.0
 11
26.776269
 21
19.506919
 31
0.0
  0
LINE
  5
279
330
1F
100
AcDbEntity
  8
CARTOUCHE
  6
CONTINUOUS
 62
     4
100
AcDbLine
 10
26.776269
 20
19.506919
 30
0.0
 11
26.643857
 21
19.453442
 31
0.0
  0
LINE
  5
27A
330
1F
100
AcDbEntity
  8
CARTOUCHE
  6
CONTINUOUS
 62
     4
100
AcDbLine
 10
26.643857
 20
19.453442
 30
0.0
 11
26.547199
 21
19.407478
 31
0.0
  0
LINE
  5
27B
330
1F
100
AcDbEntity
  8
CARTOUCHE
  6
CONTINUOUS
 62
     4
100
AcDbLine
 10
26.547199
 20
19.407478
 30
0.0
 11
26.453318
 21
19.3562
 31
0.0
  0
LINE
  5
27C
330
1F
100
AcDbEntity
  8
CARTOUCHE
  6
CONTINUOUS
 62
     4
100
AcDbLine
 10
26.453318
 20
19.3562
 30
0.0
 11
26.333276
 21
19.279541
 31
0.0
  0
LINE
  5
27D
330
1F
100
AcDbEntity
  8
CARTOUCHE
  6
CONTINUOUS
 62
     4
100
AcDbLine
 10
26.333276
 20
19.279541
 30
0.0
 11
26.164251
 21
19.148688
 31
0.0
  0
LINE
  5
27E
330
1F
100
AcDbEntity
  8
CARTOUCHE
  6
CONTINUOUS
 62
     4
100
AcDbLine
 10
26.164251
 20
19.148688
 30
0.0
 11
26.058938
 21
19.052358
 31
0.0
  0
LINE
  5
27F
330
1F
100
AcDbEntity
  8
CARTOUCHE
  6
CONTINUOUS
 62
     4
100
AcDbLine
 10
26.058938
 20
19.052358
 30
0.0
 11
25.912683
 21
18.896114
 31
0.0
  0
LINE
  5
280
330
1F
100
AcDbEntity
  8
CARTOUCHE
  6
CONTINUOUS
 62
     4
100
AcDbLine
 10
25.912683
 20
18.896114
 30
0.0
 11
25.823445
 21
18.784931
 31
0.0
  0
LINE
  5
281
330
1F
100
AcDbEntity
  8
CARTOUCHE
  6
CONTINUOUS
 62
     4
100
AcDbLine
 10
25.823445
 20
18.784931
 30
0.0
 11
25.703793
 21
18.607819
 31
0.0
  0
LINE
  5
282
330
1F
100
AcDbEntity
  8
CARTOUCHE
  6
CONTINUOUS
 62
     4
100
AcDbLine
 10
25.703793
 20
18.607819
 30
0.0
 11
25.634816
 21
18.48302
 31
0.0
  0
LINE
  5
283
330
1F
100
AcDbEntity
  8
CARTOUCHE
  6
CONTINUOUS
 62
     4
100
AcDbLine
 10
25.634816
 20
18.48302
 30
0.0
 11
25.589096
 21
18.38631
 31
0.0
  0
LINE
  5
284
330
1F
100
AcDbEntity
  8
CARTOUCHE
  6
CONTINUOUS
 62
     4
100
AcDbLine
 10
25.589096
 20
18.38631
 30
0.0
 11
25.548661
 21
18.287292
 31
0.0
  0
LINE
  5
285
330
1F
100
AcDbEntity
  8
CARTOUCHE
  6
CONTINUOUS
 62
     4
100
AcDbLine
 10
25.548661
 20
18.287292
 30
0.0
 11
25.503077
 21
18.152132
 31
0.0
  0
LINE
  5
286
330
1F
100
AcDbEntity
  8
CARTOUCHE
  6
CONTINUOUS
 62
     4
100
AcDbLine
 10
25.503077
 20
18.152132
 30
0.0
 11
25.452473
 21
17.944199
 31
0.0
  0
LINE
  5
287
330
1F
100
AcDbEntity
  8
CARTOUCHE
  6
CONTINUOUS
 62
     4
100
AcDbLine
 10
25.452473
 20
17.944199
 30
0.0
 11
25.430632
 21
17.80315
 31
0.0
  0
LINE
  5
288
330
1F
100
AcDbEntity
  8
CARTOUCHE
  6
CONTINUOUS
 62
     4
100
AcDbLine
 10
25.430632
 20
17.80315
 30
0.0
 11
25.421047
 21
17.696588
 31
0.0
  0
LINE
  5
289
330
1F
100
AcDbEntity
  8
CARTOUCHE
  6
CONTINUOUS
 62
     4
100
AcDbLine
 10
25.421047
 20
17.696588
 30
0.0
 11
25.41782
 21
17.58973
 31
0.0
  0
LINE
  5
28A
330
1F
100
AcDbEntity
  8
CARTOUCHE
  6
CONTINUOUS
 62
     4
100
AcDbLine
 10
25.41782
 20
17.58973
 30
0.0
 11
25.423783
 21
17.447355
 31
0.0
  0
LINE
  5
28B
330
1F
100
AcDbEntity
  8
CARTOUCHE
  6
CONTINUOUS
 62
     4
100
AcDbLine
 10
25.423783
 20
17.447355
 30
0.0
 11
25.452047
 21
17.235266
 31
0.0
  0
LINE
  5
28C
330
1F
100
AcDbEntity
  8
CARTOUCHE
  6
CONTINUOUS
 62
     4
100
AcDbLine
 10
25.452047
 20
17.235266
 30
0.0
 11
25.481823
 21
17.095683
 31
0.0
  0
LINE
  5
28D
330
1F
100
AcDbEntity
  8
CARTOUCHE
  6
CONTINUOUS
 62
     4
100
AcDbLine
 10
25.481823
 20
17.095683
 30
0.0
 11
25.542941
 21
16.890737
 31
0.0
  0
LINE
  5
28E
330
1F
100
AcDbEntity
  8
CARTOUCHE
  6
CONTINUOUS
 62
     4
100
AcDbLine
 10
25.542941
 20
16.890737
 30
0.0
 11
25.595245
 21
16.758144
 31
0.0
  0
LINE
  5
28F
330
1F
100
AcDbEntity
  8
CARTOUCHE
  6
CONTINUOUS
 62
     4
100
AcDbLine
 10
25.595245
 20
16.758144
 30
0.0
 11
25.640663
 21
16.661326
 31
0.0
  0
LINE
  5
290
330
1F
100
AcDbEntity
  8
CARTOUCHE
  6
CONTINUOUS
 62
     4
100
AcDbLine
 10
25.640663
 20
16.661326
 30
0.0
 11
25.691396
 21
16.567163
 31
0.0
  0
LINE
  5
291
330
1F
100
AcDbEntity
  8
CARTOUCHE
  6
CONTINUOUS
 62
     4
100
AcDbLine
 10
25.691396
 20
16.567163
 30
0.0
 11
25.767341
 21
16.446302
 31
0.0
  0
LINE
  5
292
330
1F
100
AcDbEntity
  8
CARTOUCHE
  6
CONTINUOUS
 62
     4
100
AcDbLine
 10
25.767341
 20
16.446302
 30
0.0
 11
25.830371
 21
16.359778
 31
0.0
  0
LINE
  5
293
330
1F
100
AcDbEntity
  8
CARTOUCHE
  6
CONTINUOUS
 62
     4
100
AcDbLine
 10
25.830371
 20
16.359778
 30
0.0
 11
25.89849
 21
16.27725
 31
0.0
  0
LINE
  5
294
330
1F
100
AcDbEntity
  8
CARTOUCHE
  6
CONTINUOUS
 62
     4
100
AcDbLine
 10
25.89849
 20
16.27725
 30
0.0
 11
25.996767
 21
16.17408
 31
0.0
  0
LINE
  5
295
330
1F
100
AcDbEntity
  8
CARTOUCHE
  6
CONTINUOUS
 62
     4
100
AcDbLine
 10
25.996767
 20
16.17408
 30
0.0
 11
26.158025
 21
16.033767
 31
0.0
  0
LINE
  5
296
330
1F
100
AcDbEntity
  8
CARTOUCHE
  6
CONTINUOUS
 62
     4
100
AcDbLine
 10
26.158025
 20
16.033767
 30
0.0
 11
26.273232
 21
15.949577
 31
0.0
  0
LINE
  5
297
330
1F
100
AcDbEntity
  8
CARTOUCHE
  6
CONTINUOUS
 62
     4
100
AcDbLine
 10
26.273232
 20
15.949577
 30
0.0
 11
26.455483
 21
15.837379
 31
0.0
  0
LINE
  5
298
330
1F
100
AcDbEntity
  8
CARTOUCHE
  6
CONTINUOUS
 62
     4
100
AcDbLine
 10
26.455483
 20
15.837379
 30
0.0
 11
26.582285
 21
15.772196
 31
0.0
  0
LINE
  5
299
330
1F
100
AcDbEntity
  8
CARTOUCHE
  6
CONTINUOUS
 62
     4
100
AcDbLine
 10
26.582285
 20
15.772196
 30
0.0
 11
26.680038
 21
15.728943
 31
0.0
  0
LINE
  5
29A
330
1F
100
AcDbEntity
  8
CARTOUCHE
  6
CONTINUOUS
 62
     4
100
AcDbLine
 10
26.680038
 20
15.728943
 30
0.0
 11
26.77997
 21
15.691125
 31
0.0
  0
LINE
  5
29B
330
1F
100
AcDbEntity
  8
CARTOUCHE
  6
CONTINUOUS
 62
     4
100
AcDbLine
 10
26.77997
 20
15.691125
 30
0.0
 11
26.916406
 21
15.649737
 31
0.0
  0
LINE
  5
29C
330
1F
100
AcDbEntity
  8
CARTOUCHE
  6
CONTINUOUS
 62
     4
100
AcDbLine
 10
26.916406
 20
15.649737
 30
0.0
 11
27.125814
 21
15.606082
 31
0.0
  0
LINE
  5
29D
330
1F
100
AcDbEntity
  8
CARTOUCHE
  6
CONTINUOUS
 62
     4
100
AcDbLine
 10
27.125814
 20
15.606082
 30
0.0
 11
27.302677
 21
15.584734
 31
0.0
  0
LINE
  5
29E
330
1F
100
AcDbEntity
  8
CARTOUCHE
  6
CONTINUOUS
 62
     4
100
AcDbLine
 10
27.302677
 20
15.584734
 30
0.0
 11
27.480504
 21
15.573741
 31
0.0
  0
LINE
  5
29F
330
1F
100
AcDbEntity
  8
CARTOUCHE
  6
CONTINUOUS
 62
     4
100
AcDbLine
 10
27.480504
 20
15.573741
 30
0.0
 11
27.83642
 21
15.570894
 31
0.0
  0
LINE
  5
2A0
330
1F
100
AcDbEntity
  8
CARTOUCHE
  6
CONTINUOUS
 62
     4
100
AcDbLine
 10
27.83642
 20
15.570894
 30
0.0
 11
28.19287
 21
15.586102
 31
0.0
  0
LINE
  5
2A1
330
1F
100
AcDbEntity
  8
CARTOUCHE
  6
CONTINUOUS
 62
     4
100
AcDbLine
 10
28.19287
 20
15.586102
 30
0.0
 11
28.334597
 21
15.6
 31
0.0
  0
LINE
  5
2A2
330
1F
100
AcDbEntity
  8
CARTOUCHE
  6
CONTINUOUS
 62
     4
100
AcDbLine
 10
28.334597
 20
15.6
 30
0.0
 11
28.545271
 21
15.635884
 31
0.0
  0
LINE
  5
2A3
330
1F
100
AcDbEntity
  8
CARTOUCHE
  6
CONTINUOUS
 62
     4
100
AcDbLine
 10
28.545271
 20
15.635884
 30
0.0
 11
28.682853
 21
15.673016
 31
0.0
  0
LINE
  5
2A4
330
1F
100
AcDbEntity
  8
CARTOUCHE
  6
CONTINUOUS
 62
     4
100
AcDbLine
 10
28.682853
 20
15.673016
 30
0.0
 11
28.817433
 21
15.721154
 31
0.0
  0
LINE
  5
2A5
330
1F
100
AcDbEntity
  8
CARTOUCHE
  6
CONTINUOUS
 62
     4
100
AcDbLine
 10
28.817433
 20
15.721154
 30
0.0
 11
28.947848
 21
15.779822
 31
0.0
  0
LINE
  5
2A6
330
1F
100
AcDbEntity
  8
CARTOUCHE
  6
CONTINUOUS
 62
     4
100
AcDbLine
 10
28.947848
 20
15.779822
 30
0.0
 11
29.072933
 21
15.848544
 31
0.0
  0
LINE
  5
2A7
330
1F
100
AcDbEntity
  8
CARTOUCHE
  6
CONTINUOUS
 62
     4
100
AcDbLine
 10
29.072933
 20
15.848544
 30
0.0
 11
29.191523
 21
15.926844
 31
0.0
  0
LINE
  5
2A8
330
1F
100
AcDbEntity
  8
CARTOUCHE
  6
CONTINUOUS
 62
     4
100
AcDbLine
 10
29.191523
 20
15.926844
 30
0.0
 11
29.191523
 21
15.620844
 31
0.0
  0
LINE
  5
2A9
330
1F
100
AcDbEntity
  8
CARTOUCHE
  6
CONTINUOUS
 62
     4
100
AcDbLine
 10
29.191523
 20
15.620844
 30
0.0
 11
30.986573
 21
15.620844
 31
0.0
  0
LINE
  5
2AA
330
1F
100
AcDbEntity
  8
CARTOUCHE
  6
CONTINUOUS
 62
     4
100
AcDbLine
 10
30.986573
 20
15.620844
 30
0.0
 11
30.986573
 21
20.823744
 31
0.0
  0
LINE
  5
2AB
330
1F
100
AcDbEntity
  8
CARTOUCHE
  6
CONTINUOUS
 62
     4
100
AcDbLine
 10
30.986573
 20
20.823744
 30
0.0
 11
29.191523
 21
20.823744
 31
0.0
  0
LINE
  5
2AC
330
1F
100
AcDbEntity
  8
CARTOUCHE
  6
CONTINUOUS
 62
     4
100
AcDbLine
 10
29.191523
 20
20.823744
 30
0.0
 11
29.191523
 21
19.319904
 31
0.0
  0
LINE
  5
2AD
330
1F
100
AcDbEntity
  8
CARTOUCHE
  6
CONTINUOUS
 62
     4
100
AcDbLine
 10
29.191523
 20
17.759244
 30
0.0
 11
29.185224
 21
17.797429
 31
0.0
  0
LINE
  5
2AE
330
1F
100
AcDbEntity
  8
CARTOUCHE
  6
CONTINUOUS
 62
     4
100
AcDbLine
 10
29.185224
 20
17.797429
 30
0.0
 11
29.176704
 21
17.835258
 31
0.0
  0
LINE
  5
2AF
330
1F
100
AcDbEntity
  8
CARTOUCHE
  6
CONTINUOUS
 62
     4
100
AcDbLine
 10
29.176704
 20
17.835258
 30
0.0
 11
29.165972
 21
17.872565
 31
0.0
  0
LINE
  5
2B0
330
1F
100
AcDbEntity
  8
CARTOUCHE
  6
CONTINUOUS
 62
     4
100
AcDbLine
 10
29.165972
 20
17.872565
 30
0.0
 11
29.153041
 21
17.909184
 31
0.0
  0
LINE
  5
2B1
330
1F
100
AcDbEntity
  8
CARTOUCHE
  6
CONTINUOUS
 62
     4
100
AcDbLine
 10
29.153041
 20
17.909184
 30
0.0
 11
29.137919
 21
17.94495
 31
0.0
  0
LINE
  5
2B2
330
1F
100
AcDbEntity
  8
CARTOUCHE
  6
CONTINUOUS
 62
     4
100
AcDbLine
 10
29.137919
 20
17.94495
 30
0.0
 11
29.120622
 21
17.979724
 31
0.0
  0
LINE
  5
2B3
330
1F
100
AcDbEntity
  8
CARTOUCHE
  6
CONTINUOUS
 62
     4
100
AcDbLine
 10
29.120622
 20
17.979724
 30
0.0
 11
29.101241
 21
18.01337
 31
0.0
  0
LINE
  5
2B4
330
1F
100
AcDbEntity
  8
CARTOUCHE
  6
CONTINUOUS
 62
     4
100
AcDbLine
 10
29.101241
 20
18.01337
 30
0.0
 11
29.079871
 21
18.045781
 31
0.0
  0
LINE
  5
2B5
330
1F
100
AcDbEntity
  8
CARTOUCHE
  6
CONTINUOUS
 62
     4
100
AcDbLine
 10
29.079871
 20
18.045781
 30
0.0
 11
29.05661
 21
18.076848
 31
0.0
  0
LINE
  5
2B6
330
1F
100
AcDbEntity
  8
CARTOUCHE
  6
CONTINUOUS
 62
     4
100
AcDbLine
 10
29.05661
 20
18.076848
 30
0.0
 11
29.031554
 21
18.106464
 31
0.0
  0
LINE
  5
2B7
330
1F
100
AcDbEntity
  8
CARTOUCHE
  6
CONTINUOUS
 62
     4
100
AcDbLine
 10
29.031554
 20
18.106464
 30
0.0
 11
29.004808
 21
18.13454
 31
0.0
  0
LINE
  5
2B8
330
1F
100
AcDbEntity
  8
CARTOUCHE
  6
CONTINUOUS
 62
     4
100
AcDbLine
 10
29.004808
 20
18.13454
 30
0.0
 11
28.976513
 21
18.161059
 31
0.0
  0
LINE
  5
2B9
330
1F
100
AcDbEntity
  8
CARTOUCHE
  6
CONTINUOUS
 62
     4
100
AcDbLine
 10
28.976513
 20
18.161059
 30
0.0
 11
28.931497
 21
18.19792
 31
0.0
  0
LINE
  5
2BA
330
1F
100
AcDbEntity
  8
CARTOUCHE
  6
CONTINUOUS
 62
     4
100
AcDbLine
 10
28.931497
 20
18.19792
 30
0.0
 11
28.883839
 21
18.231288
 31
0.0
  0
LINE
  5
2BB
330
1F
100
AcDbEntity
  8
CARTOUCHE
  6
CONTINUOUS
 62
     4
100
AcDbLine
 10
28.883839
 20
18.231288
 30
0.0
 11
28.817408
 21
18.270254
 31
0.0
  0
LINE
  5
2BC
330
1F
100
AcDbEntity
  8
CARTOUCHE
  6
CONTINUOUS
 62
     4
100
AcDbLine
 10
28.817408
 20
18.270254
 30
0.0
 11
28.7126
 21
18.318705
 31
0.0
  0
LINE
  5
2BD
330
1F
100
AcDbEntity
  8
CARTOUCHE
  6
CONTINUOUS
 62
     4
100
AcDbLine
 10
28.7126
 20
18.318705
 30
0.0
 11
28.529126
 21
18.38024
 31
0.0
  0
LINE
  5
2BE
330
1F
100
AcDbEntity
  8
CARTOUCHE
  6
CONTINUOUS
 62
     4
100
AcDbLine
 10
28.529126
 20
18.38024
 30
0.0
 11
28.341295
 21
18.426807
 31
0.0
  0
LINE
  5
2BF
330
1F
100
AcDbEntity
  8
CARTOUCHE
  6
CONTINUOUS
 62
     4
100
AcDbLine
 10
28.341295
 20
18.426807
 30
0.0
 11
28.265367
 21
18.43872
 31
0.0
  0
LINE
  5
2C0
330
1F
100
AcDbEntity
  8
CARTOUCHE
  6
CONTINUOUS
 62
     4
100
AcDbLine
 10
28.265367
 20
18.43872
 30
0.0
 11
28.207992
 21
18.444184
 31
0.0
  0
LINE
  5
2C1
330
1F
100
AcDbEntity
  8
CARTOUCHE
  6
CONTINUOUS
 62
     4
100
AcDbLine
 10
28.207992
 20
18.444184
 30
0.0
 11
28.150433
 21
18.446185
 31
0.0
  0
LINE
  5
2C2
330
1F
100
AcDbEntity
  8
CARTOUCHE
  6
CONTINUOUS
 62
     4
100
AcDbLine
 10
28.150433
 20
18.446185
 30
0.0
 11
28.073206
 21
18.442941
 31
0.0
  0
LINE
  5
2C3
330
1F
100
AcDbEntity
  8
CARTOUCHE
  6
CONTINUOUS
 62
     4
100
AcDbLine
 10
28.073206
 20
18.442941
 30
0.0
 11
28.01556
 21
18.436269
 31
0.0
  0
LINE
  5
2C4
330
1F
100
AcDbEntity
  8
CARTOUCHE
  6
CONTINUOUS
 62
     4
100
AcDbLine
 10
28.01556
 20
18.436269
 30
0.0
 11
27.958383
 21
18.426252
 31
0.0
  0
LINE
  5
2C5
330
1F
100
AcDbEntity
  8
CARTOUCHE
  6
CONTINUOUS
 62
     4
100
AcDbLine
 10
27.958383
 20
18.426252
 30
0.0
 11
27.882791
 21
18.40795
 31
0.0
  0
LINE
  5
2C6
330
1F
100
AcDbEntity
  8
CARTOUCHE
  6
CONTINUOUS
 62
     4
100
AcDbLine
 10
27.882791
 20
18.40795
 30
0.0
 11
27.827093
 21
18.390689
 31
0.0
  0
LINE
  5
2C7
330
1F
100
AcDbEntity
  8
CARTOUCHE
  6
CONTINUOUS
 62
     4
100
AcDbLine
 10
27.827093
 20
18.390689
 30
0.0
 11
27.772401
 21
18.370479
 31
0.0
  0
LINE
  5
2C8
330
1F
100
AcDbEntity
  8
CARTOUCHE
  6
CONTINUOUS
 62
     4
100
AcDbLine
 10
27.772401
 20
18.370479
 30
0.0
 11
27.701623
 21
18.339164
 31
0.0
  0
LINE
  5
2C9
330
1F
100
AcDbEntity
  8
CARTOUCHE
  6
CONTINUOUS
 62
     4
100
AcDbLine
 10
27.701623
 20
18.339164
 30
0.0
 11
27.650176
 21
18.312245
 31
0.0
  0
LINE
  5
2CA
330
1F
100
AcDbEntity
  8
CARTOUCHE
  6
CONTINUOUS
 62
     4
100
AcDbLine
 10
27.650176
 20
18.312245
 30
0.0
 11
27.600378
 21
18.2823
 31
0.0
  0
LINE
  5
2CB
330
1F
100
AcDbEntity
  8
CARTOUCHE
  6
CONTINUOUS
 62
     4
100
AcDbLine
 10
27.600378
 20
18.2823
 30
0.0
 11
27.537441
 21
18.23798
 31
0.0
  0
LINE
  5
2CC
330
1F
100
AcDbEntity
  8
CARTOUCHE
  6
CONTINUOUS
 62
     4
100
AcDbLine
 10
27.537441
 20
18.23798
 30
0.0
 11
27.478372
 21
18.188413
 31
0.0
  0
LINE
  5
2CD
330
1F
100
AcDbEntity
  8
CARTOUCHE
  6
CONTINUOUS
 62
     4
100
AcDbLine
 10
27.478372
 20
18.188413
 30
0.0
 11
27.423769
 21
18.133776
 31
0.0
  0
LINE
  5
2CE
330
1F
100
AcDbEntity
  8
CARTOUCHE
  6
CONTINUOUS
 62
     4
100
AcDbLine
 10
27.423769
 20
18.133776
 30
0.0
 11
27.37423
 21
18.074247
 31
0.0
  0
LINE
  5
2CF
330
1F
100
AcDbEntity
  8
CARTOUCHE
  6
CONTINUOUS
 62
     4
100
AcDbLine
 10
27.37423
 20
18.074247
 30
0.0
 11
27.330353
 21
18.010003
 31
0.0
  0
LINE
  5
2D0
330
1F
100
AcDbEntity
  8
CARTOUCHE
  6
CONTINUOUS
 62
     4
100
AcDbLine
 10
27.330353
 20
18.010003
 30
0.0
 11
27.292818
 21
17.941394
 31
0.0
  0
LINE
  5
2D1
330
1F
100
AcDbEntity
  8
CARTOUCHE
  6
CONTINUOUS
 62
     4
100
AcDbLine
 10
27.292818
 20
17.941394
 30
0.0
 11
27.262521
 21
17.869246
 31
0.0
  0
LINE
  5
2D2
330
1F
100
AcDbEntity
  8
CARTOUCHE
  6
CONTINUOUS
 62
     4
100
AcDbLine
 10
27.262521
 20
17.869246
 30
0.0
 11
27.250396
 21
17.832155
 31
0.0
  0
LINE
  5
2D3
330
1F
100
AcDbEntity
  8
CARTOUCHE
  6
CONTINUOUS
 62
     4
100
AcDbLine
 10
27.250396
 20
17.832155
 30
0.0
 11
27.240449
 21
17.794552
 31
0.0
  0
LINE
  5
2D4
330
1F
100
AcDbEntity
  8
CARTOUCHE
  6
CONTINUOUS
 62
     4
100
AcDbLine
 10
27.240449
 20
17.794552
 30
0.0
 11
27.232805
 21
17.756561
 31
0.0
  0
LINE
  5
2D5
330
1F
100
AcDbEntity
  8
CARTOUCHE
  6
CONTINUOUS
 62
     4
100
AcDbLine
 10
27.232805
 20
17.756561
 30
0.0
 11
27.227586
 21
17.718306
 31
0.0
  0
LINE
  5
2D6
330
1F
100
AcDbEntity
  8
CARTOUCHE
  6
CONTINUOUS
 62
     4
100
AcDbLine
 10
27.227586
 20
17.718306
 30
0.0
 11
27.224917
 21
17.679912
 31
0.0
  0
LINE
  5
2D7
330
1F
100
AcDbEntity
  8
CARTOUCHE
  6
CONTINUOUS
 62
     4
100
AcDbLine
 10
27.224917
 20
17.679912
 30
0.0
 11
27.224919
 21
17.641503
 31
0.0
  0
LINE
  5
2D8
330
1F
100
AcDbEntity
  8
CARTOUCHE
  6
CONTINUOUS
 62
     4
100
AcDbLine
 10
27.224919
 20
17.641503
 30
0.0
 11
27.227693
 21
17.60294
 31
0.0
  0
LINE
  5
2D9
330
1F
100
AcDbEntity
  8
CARTOUCHE
  6
CONTINUOUS
 62
     4
100
AcDbLine
 10
27.227693
 20
17.60294
 30
0.0
 11
27.233111
 21
17.564618
 31
0.0
  0
LINE
  5
2DA
330
1F
100
AcDbEntity
  8
CARTOUCHE
  6
CONTINUOUS
 62
     4
100
AcDbLine
 10
27.233111
 20
17.564618
 30
0.0
 11
27.240981
 21
17.526667
 31
0.0
  0
LINE
  5
2DB
330
1F
100
AcDbEntity
  8
CARTOUCHE
  6
CONTINUOUS
 62
     4
100
AcDbLine
 10
27.240981
 20
17.526667
 30
0.0
 11
27.251114
 21
17.489217
 31
0.0
  0
LINE
  5
2DC
330
1F
100
AcDbEntity
  8
CARTOUCHE
  6
CONTINUOUS
 62
     4
100
AcDbLine
 10
27.251114
 20
17.489217
 30
0.0
 11
27.263318
 21
17.4524
 31
0.0
  0
LINE
  5
2DD
330
1F
100
AcDbEntity
  8
CARTOUCHE
  6
CONTINUOUS
 62
     4
100
AcDbLine
 10
27.263318
 20
17.4524
 30
0.0
 11
27.293645
 21
17.380425
 31
0.0
  0
LINE
  5
2DE
330
1F
100
AcDbEntity
  8
CARTOUCHE
  6
CONTINUOUS
 62
     4
100
AcDbLine
 10
27.293645
 20
17.380425
 30
0.0
 11
27.321048
 21
17.328706
 31
0.0
  0
LINE
  5
2DF
330
1F
100
AcDbEntity
  8
CARTOUCHE
  6
CONTINUOUS
 62
     4
100
AcDbLine
 10
27.321048
 20
17.328706
 30
0.0
 11
27.352154
 21
17.2791
 31
0.0
  0
LINE
  5
2E0
330
1F
100
AcDbEntity
  8
CARTOUCHE
  6
CONTINUOUS
 62
     4
100
AcDbLine
 10
27.352154
 20
17.2791
 30
0.0
 11
27.398586
 21
17.217113
 31
0.0
  0
LINE
  5
2E1
330
1F
100
AcDbEntity
  8
CARTOUCHE
  6
CONTINUOUS
 62
     4
100
AcDbLine
 10
27.398586
 20
17.217113
 30
0.0
 11
27.437235
 21
17.173772
 31
0.0
  0
LINE
  5
2E2
330
1F
100
AcDbEntity
  8
CARTOUCHE
  6
CONTINUOUS
 62
     4
100
AcDbLine
 10
27.437235
 20
17.173772
 30
0.0
 11
27.479066
 21
17.133554
 31
0.0
  0
LINE
  5
2E3
330
1F
100
AcDbEntity
  8
CARTOUCHE
  6
CONTINUOUS
 62
     4
100
AcDbLine
 10
27.479066
 20
17.133554
 30
0.0
 11
27.539186
 21
17.085487
 31
0.0
  0
LINE
  5
2E4
330
1F
100
AcDbEntity
  8
CARTOUCHE
  6
CONTINUOUS
 62
     4
100
AcDbLine
 10
27.539186
 20
17.085487
 30
0.0
 11
27.587212
 21
17.053355
 31
0.0
  0
LINE
  5
2E5
330
1F
100
AcDbEntity
  8
CARTOUCHE
  6
CONTINUOUS
 62
     4
100
AcDbLine
 10
27.587212
 20
17.053355
 30
0.0
 11
27.637257
 21
17.024481
 31
0.0
  0
LINE
  5
2E6
330
1F
100
AcDbEntity
  8
CARTOUCHE
  6
CONTINUOUS
 62
     4
100
AcDbLine
 10
27.637257
 20
17.024481
 30
0.0
 11
27.707048
 21
16.990519
 31
0.0
  0
LINE
  5
2E7
330
1F
100
AcDbEntity
  8
CARTOUCHE
  6
CONTINUOUS
 62
     4
100
AcDbLine
 10
27.707048
 20
16.990519
 30
0.0
 11
27.815648
 21
16.948581
 31
0.0
  0
LINE
  5
2E8
330
1F
100
AcDbEntity
  8
CARTOUCHE
  6
CONTINUOUS
 62
     4
100
AcDbLine
 10
27.815648
 20
16.948581
 30
0.0
 11
27.889663
 21
16.925699
 31
0.0
  0
LINE
  5
2E9
330
1F
100
AcDbEntity
  8
CARTOUCHE
  6
CONTINUOUS
 62
     4
100
AcDbLine
 10
27.889663
 20
16.925699
 30
0.0
 11
28.002738
 21
16.899168
 31
0.0
  0
LINE
  5
2EA
330
1F
100
AcDbEntity
  8
CARTOUCHE
  6
CONTINUOUS
 62
     4
100
AcDbLine
 10
28.002738
 20
16.899168
 30
0.0
 11
28.078914
 21
16.887245
 31
0.0
  0
LINE
  5
2EB
330
1F
100
AcDbEntity
  8
CARTOUCHE
  6
CONTINUOUS
 62
     4
100
AcDbLine
 10
28.078914
 20
16.887245
 30
0.0
 11
28.194199
 21
16.878646
 31
0.0
  0
LINE
  5
2EC
330
1F
100
AcDbEntity
  8
CARTOUCHE
  6
CONTINUOUS
 62
     4
100
AcDbLine
 10
28.194199
 20
16.878646
 30
0.0
 11
28.271463
 21
16.879509
 31
0.0
  0
LINE
  5
2ED
330
1F
100
AcDbEntity
  8
CARTOUCHE
  6
CONTINUOUS
 62
     4
100
AcDbLine
 10
28.271463
 20
16.879509
 30
0.0
 11
28.386902
 21
16.8909
 31
0.0
  0
LINE
  5
2EE
330
1F
100
AcDbEntity
  8
CARTOUCHE
  6
CONTINUOUS
 62
     4
100
AcDbLine
 10
28.386902
 20
16.8909
 30
0.0
 11
28.46279
 21
16.905127
 31
0.0
  0
LINE
  5
2EF
330
1F
100
AcDbEntity
  8
CARTOUCHE
  6
CONTINUOUS
 62
     4
100
AcDbLine
 10
28.46279
 20
16.905127
 30
0.0
 11
28.537631
 21
16.924554
 31
0.0
  0
LINE
  5
2F0
330
1F
100
AcDbEntity
  8
CARTOUCHE
  6
CONTINUOUS
 62
     4
100
AcDbLine
 10
28.537631
 20
16.924554
 30
0.0
 11
28.611002
 21
16.949047
 31
0.0
  0
LINE
  5
2F1
330
1F
100
AcDbEntity
  8
CARTOUCHE
  6
CONTINUOUS
 62
     4
100
AcDbLine
 10
28.611002
 20
16.949047
 30
0.0
 11
28.682477
 21
16.978473
 31
0.0
  0
LINE
  5
2F2
330
1F
100
AcDbEntity
  8
CARTOUCHE
  6
CONTINUOUS
 62
     4
100
AcDbLine
 10
28.682477
 20
16.978473
 30
0.0
 11
28.751634
 21
17.012698
 31
0.0
  0
LINE
  5
2F3
330
1F
100
AcDbEntity
  8
CARTOUCHE
  6
CONTINUOUS
 62
     4
100
AcDbLine
 10
28.751634
 20
17.012698
 30
0.0
 11
28.818499
 21
17.051846
 31
0.0
  0
LINE
  5
2F4
330
1F
100
AcDbEntity
  8
CARTOUCHE
  6
CONTINUOUS
 62
     4
100
AcDbLine
 10
28.818499
 20
17.051846
 30
0.0
 11
28.91321
 21
17.119126
 31
0.0
  0
LINE
  5
2F5
330
1F
100
AcDbEntity
  8
CARTOUCHE
  6
CONTINUOUS
 62
     4
100
AcDbLine
 10
28.91321
 20
17.119126
 30
0.0
 11
28.972146
 21
17.169599
 31
0.0
  0
LINE
  5
2F6
330
1F
100
AcDbEntity
  8
CARTOUCHE
  6
CONTINUOUS
 62
     4
100
AcDbLine
 10
28.972146
 20
17.169599
 30
0.0
 11
29.013325
 21
17.210664
 31
0.0
  0
LINE
  5
2F7
330
1F
100
AcDbEntity
  8
CARTOUCHE
  6
CONTINUOUS
 62
     4
100
AcDbLine
 10
29.013325
 20
17.210664
 30
0.0
 11
29.051197
 21
17.254741
 31
0.0
  0
LINE
  5
2F8
330
1F
100
AcDbEntity
  8
CARTOUCHE
  6
CONTINUOUS
 62
     4
100
AcDbLine
 10
29.051197
 20
17.254741
 30
0.0
 11
29.074237
 21
17.285782
 31
0.0
  0
LINE
  5
2F9
330
1F
100
AcDbEntity
  8
CARTOUCHE
  6
CONTINUOUS
 62
     4
100
AcDbLine
 10
29.074237
 20
17.285782
 30
0.0
 11
29.09545
 21
17.318141
 31
0.0
  0
LINE
  5
2FA
330
1F
100
AcDbEntity
  8
CARTOUCHE
  6
CONTINUOUS
 62
     4
100
AcDbLine
 10
29.09545
 20
17.318141
 30
0.0
 11
29.114752
 21
17.351701
 31
0.0
  0
LINE
  5
2FB
330
1F
100
AcDbEntity
  8
CARTOUCHE
  6
CONTINUOUS
 62
     4
100
AcDbLine
 10
29.114752
 20
17.351701
 30
0.0
 11
29.13206
 21
17.386344
 31
0.0
  0
LINE
  5
2FC
330
1F
100
AcDbEntity
  8
CARTOUCHE
  6
CONTINUOUS
 62
     4
100
AcDbLine
 10
29.13206
 20
17.386344
 30
0.0
 11
29.147289
 21
17.421954
 31
0.0
  0
LINE
  5
2FD
330
1F
100
AcDbEntity
  8
CARTOUCHE
  6
CONTINUOUS
 62
     4
100
AcDbLine
 10
29.147289
 20
17.421954
 30
0.0
 11
29.160411
 21
17.458525
 31
0.0
  0
LINE
  5
2FE
330
1F
100
AcDbEntity
  8
CARTOUCHE
  6
CONTINUOUS
 62
     4
100
AcDbLine
 10
29.160411
 20
17.458525
 30
0.0
 11
29.171377
 21
17.495797
 31
0.0
  0
LINE
  5
2FF
330
1F
100
AcDbEntity
  8
CARTOUCHE
  6
CONTINUOUS
 62
     4
100
AcDbLine
 10
29.171377
 20
17.495797
 30
0.0
 11
29.180205
 21
17.533619
 31
0.0
  0
LINE
  5
300
330
1F
100
AcDbEntity
  8
CARTOUCHE
  6
CONTINUOUS
 62
     4
100
AcDbLine
 10
29.180205
 20
17.533619
 30
0.0
 11
29.186914
 21
17.571835
 31
0.0
  0
LINE
  5
301
330
1F
100
AcDbEntity
  8
CARTOUCHE
  6
CONTINUOUS
 62
     4
100
AcDbLine
 10
29.186914
 20
17.571835
 30
0.0
 11
29.191523
 21
17.610294
 31
0.0
  0
LINE
  5
302
330
1F
100
AcDbEntity
  8
CARTOUCHE
  6
CONTINUOUS
 62
     4
100
AcDbLine
 10
29.191523
 20
17.610294
 30
0.0
 11
29.191523
 21
17.759244
 31
0.0
  0
LINE
  5
303
330
1F
100
AcDbEntity
  8
CARTOUCHE
  6
CONTINUOUS
 62
     4
100
AcDbLine
 10
34.051073
 20
17.244444
 30
0.0
 11
34.154123
 21
17.244444
 31
0.0
  0
LINE
  5
304
330
1F
100
AcDbEntity
  8
CARTOUCHE
  6
CONTINUOUS
 62
     4
100
AcDbLine
 10
34.154123
 20
17.244444
 30
0.0
 11
37.206923
 21
17.256144
 31
0.0
  0
LINE
  5
305
330
1F
100
AcDbEntity
  8
CARTOUCHE
  6
CONTINUOUS
 62
     4
100
AcDbLine
 10
37.206923
 20
17.256144
 30
0.0
 11
37.232378
 21
17.365847
 31
0.0
  0
LINE
  5
306
330
1F
100
AcDbEntity
  8
CARTOUCHE
  6
CONTINUOUS
 62
     4
100
AcDbLine
 10
37.232378
 20
17.365847
 30
0.0
 11
37.245048
 21
17.449462
 31
0.0
  0
LINE
  5
307
330
1F
100
AcDbEntity
  8
CARTOUCHE
  6
CONTINUOUS
 62
     4
100
AcDbLine
 10
37.245048
 20
17.449462
 30
0.0
 11
37.251874
 21
17.533703
 31
0.0
  0
LINE
  5
308
330
1F
100
AcDbEntity
  8
CARTOUCHE
  6
CONTINUOUS
 62
     4
100
AcDbLine
 10
37.251874
 20
17.533703
 30
0.0
 11
37.251735
 21
17.646969
 31
0.0
  0
LINE
  5
309
330
1F
100
AcDbEntity
  8
CARTOUCHE
  6
CONTINUOUS
 62
     4
100
AcDbLine
 10
37.251735
 20
17.646969
 30
0.0
 11
37.23471
 21
17.816096
 31
0.0
  0
LINE
  5
30A
330
1F
100
AcDbEntity
  8
CARTOUCHE
  6
CONTINUOUS
 62
     4
100
AcDbLine
 10
37.23471
 20
17.816096
 30
0.0
 11
37.208465
 21
17.956213
 31
0.0
  0
LINE
  5
30B
330
1F
100
AcDbEntity
  8
CARTOUCHE
  6
CONTINUOUS
 62
     4
100
AcDbLine
 10
37.208465
 20
17.956213
 30
0.0
 11
37.173579
 21
18.094368
 31
0.0
  0
LINE
  5
30C
330
1F
100
AcDbEntity
  8
CARTOUCHE
  6
CONTINUOUS
 62
     4
100
AcDbLine
 10
37.173579
 20
18.094368
 30
0.0
 11
37.131795
 21
18.229146
 31
0.0
  0
LINE
  5
30D
330
1F
100
AcDbEntity
  8
CARTOUCHE
  6
CONTINUOUS
 62
     4
100
AcDbLine
 10
37.131795
 20
18.229146
 30
0.0
 11
37.082342
 21
18.361421
 31
0.0
  0
LINE
  5
30E
330
1F
100
AcDbEntity
  8
CARTOUCHE
  6
CONTINUOUS
 62
     4
100
AcDbLine
 10
37.082342
 20
18.361421
 30
0.0
 11
37.036862
 21
18.464716
 31
0.0
  0
LINE
  5
30F
330
1F
100
AcDbEntity
  8
CARTOUCHE
  6
CONTINUOUS
 62
     4
100
AcDbLine
 10
37.036862
 20
18.464716
 30
0.0
 11
36.985861
 21
18.565535
 31
0.0
  0
LINE
  5
310
330
1F
100
AcDbEntity
  8
CARTOUCHE
  6
CONTINUOUS
 62
     4
100
AcDbLine
 10
36.985861
 20
18.565535
 30
0.0
 11
36.92928
 21
18.663323
 31
0.0
  0
LINE
  5
311
330
1F
100
AcDbEntity
  8
CARTOUCHE
  6
CONTINUOUS
 62
     4
100
AcDbLine
 10
36.92928
 20
18.663323
 30
0.0
 11
36.867061
 21
18.757527
 31
0.0
  0
LINE
  5
312
330
1F
100
AcDbEntity
  8
CARTOUCHE
  6
CONTINUOUS
 62
     4
100
AcDbLine
 10
36.867061
 20
18.757527
 30
0.0
 11
36.799145
 21
18.847595
 31
0.0
  0
LINE
  5
313
330
1F
100
AcDbEntity
  8
CARTOUCHE
  6
CONTINUOUS
 62
     4
100
AcDbLine
 10
36.799145
 20
18.847595
 30
0.0
 11
36.725524
 21
18.93313
 31
0.0
  0
LINE
  5
314
330
1F
100
AcDbEntity
  8
CARTOUCHE
  6
CONTINUOUS
 62
     4
100
AcDbLine
 10
36.725524
 20
18.93313
 30
0.0
 11
36.646719
 21
19.014004
 31
0.0
  0
LINE
  5
315
330
1F
100
AcDbEntity
  8
CARTOUCHE
  6
CONTINUOUS
 62
     4
100
AcDbLine
 10
36.646719
 20
19.014004
 30
0.0
 11
36.563309
 21
19.090255
 31
0.0
  0
LINE
  5
316
330
1F
100
AcDbEntity
  8
CARTOUCHE
  6
CONTINUOUS
 62
     4
100
AcDbLine
 10
36.563309
 20
19.090255
 30
0.0
 11
36.384996
 21
19.229026
 31
0.0
  0
LINE
  5
317
330
1F
100
AcDbEntity
  8
CARTOUCHE
  6
CONTINUOUS
 62
     4
100
AcDbLine
 10
36.384996
 20
19.229026
 30
0.0
 11
36.266986
 21
19.306605
 31
0.0
  0
LINE
  5
318
330
1F
100
AcDbEntity
  8
CARTOUCHE
  6
CONTINUOUS
 62
     4
100
AcDbLine
 10
36.266986
 20
19.306605
 30
0.0
 11
36.14445
 21
19.376442
 31
0.0
  0
LINE
  5
319
330
1F
100
AcDbEntity
  8
CARTOUCHE
  6
CONTINUOUS
 62
     4
100
AcDbLine
 10
36.14445
 20
19.376442
 30
0.0
 11
36.017719
 21
19.437986
 31
0.0
  0
LINE
  5
31A
330
1F
100
AcDbEntity
  8
CARTOUCHE
  6
CONTINUOUS
 62
     4
100
AcDbLine
 10
36.017719
 20
19.437986
 30
0.0
 11
35.887396
 21
19.491649
 31
0.0
  0
LINE
  5
31B
330
1F
100
AcDbEntity
  8
CARTOUCHE
  6
CONTINUOUS
 62
     4
100
AcDbLine
 10
35.887396
 20
19.491649
 30
0.0
 11
35.618872
 21
19.578734
 31
0.0
  0
LINE
  5
31C
330
1F
100
AcDbEntity
  8
CARTOUCHE
  6
CONTINUOUS
 62
     4
100
AcDbLine
 10
35.618872
 20
19.578734
 30
0.0
 11
35.344652
 21
19.645649
 31
0.0
  0
LINE
  5
31D
330
1F
100
AcDbEntity
  8
CARTOUCHE
  6
CONTINUOUS
 62
     4
100
AcDbLine
 10
35.344652
 20
19.645649
 30
0.0
 11
35.067005
 21
19.69363
 31
0.0
  0
LINE
  5
31E
330
1F
100
AcDbEntity
  8
CARTOUCHE
  6
CONTINUOUS
 62
     4
100
AcDbLine
 10
35.067005
 20
19.69363
 30
0.0
 11
34.786778
 21
19.723515
 31
0.0
  0
LINE
  5
31F
330
1F
100
AcDbEntity
  8
CARTOUCHE
  6
CONTINUOUS
 62
     4
100
AcDbLine
 10
34.786778
 20
19.723515
 30
0.0
 11
34.222855
 21
19.735874
 31
0.0
  0
LINE
  5
320
330
1F
100
AcDbEntity
  8
CARTOUCHE
  6
CONTINUOUS
 62
     4
100
AcDbLine
 10
34.222855
 20
19.735874
 30
0.0
 11
33.660586
 21
19.695795
 31
0.0
  0
LINE
  5
321
330
1F
100
AcDbEntity
  8
CARTOUCHE
  6
CONTINUOUS
 62
     4
100
AcDbLine
 10
33.660586
 20
19.695795
 30
0.0
 11
33.3823
 21
19.651139
 31
0.0
  0
LINE
  5
322
330
1F
100
AcDbEntity
  8
CARTOUCHE
  6
CONTINUOUS
 62
     4
100
AcDbLine
 10
33.3823
 20
19.651139
 30
0.0
 11
33.107283
 21
19.5883
 31
0.0
  0
LINE
  5
323
330
1F
100
AcDbEntity
  8
CARTOUCHE
  6
CONTINUOUS
 62
     4
100
AcDbLine
 10
33.107283
 20
19.5883
 30
0.0
 11
32.890593
 21
19.52408
 31
0.0
  0
LINE
  5
324
330
1F
100
AcDbEntity
  8
CARTOUCHE
  6
CONTINUOUS
 62
     4
100
AcDbLine
 10
32.890593
 20
19.52408
 30
0.0
 11
32.731586
 21
19.465697
 31
0.0
  0
LINE
  5
325
330
1F
100
AcDbEntity
  8
CARTOUCHE
  6
CONTINUOUS
 62
     4
100
AcDbLine
 10
32.731586
 20
19.465697
 30
0.0
 11
32.57691
 21
19.396625
 31
0.0
  0
LINE
  5
326
330
1F
100
AcDbEntity
  8
CARTOUCHE
  6
CONTINUOUS
 62
     4
100
AcDbLine
 10
32.57691
 20
19.396625
 30
0.0
 11
32.477006
 21
19.343979
 31
0.0
  0
LINE
  5
327
330
1F
100
AcDbEntity
  8
CARTOUCHE
  6
CONTINUOUS
 62
     4
100
AcDbLine
 10
32.477006
 20
19.343979
 30
0.0
 11
32.380067
 21
19.285863
 31
0.0
  0
LINE
  5
328
330
1F
100
AcDbEntity
  8
CARTOUCHE
  6
CONTINUOUS
 62
     4
100
AcDbLine
 10
32.380067
 20
19.285863
 30
0.0
 11
32.286613
 21
19.222306
 31
0.0
  0
LINE
  5
329
330
1F
100
AcDbEntity
  8
CARTOUCHE
  6
CONTINUOUS
 62
     4
100
AcDbLine
 10
32.286613
 20
19.222306
 30
0.0
 11
32.197165
 21
19.15334
 31
0.0
  0
LINE
  5
32A
330
1F
100
AcDbEntity
  8
CARTOUCHE
  6
CONTINUOUS
 62
     4
100
AcDbLine
 10
32.197165
 20
19.15334
 30
0.0
 11
32.112243
 21
19.078995
 31
0.0
  0
LINE
  5
32B
330
1F
100
AcDbEntity
  8
CARTOUCHE
  6
CONTINUOUS
 62
     4
100
AcDbLine
 10
32.112243
 20
19.078995
 30
0.0
 11
32.03232
 21
18.999414
 31
0.0
  0
LINE
  5
32C
330
1F
100
AcDbEntity
  8
CARTOUCHE
  6
CONTINUOUS
 62
     4
100
AcDbLine
 10
32.03232
 20
18.999414
 30
0.0
 11
31.957469
 21
18.914974
 31
0.0
  0
LINE
  5
32D
330
1F
100
AcDbEntity
  8
CARTOUCHE
  6
CONTINUOUS
 62
     4
100
AcDbLine
 10
31.957469
 20
18.914974
 30
0.0
 11
31.887723
 21
18.826164
 31
0.0
  0
LINE
  5
32E
330
1F
100
AcDbEntity
  8
CARTOUCHE
  6
CONTINUOUS
 62
     4
100
AcDbLine
 10
31.887723
 20
18.826164
 30
0.0
 11
31.823113
 21
18.733469
 31
0.0
  0
LINE
  5
32F
330
1F
100
AcDbEntity
  8
CARTOUCHE
  6
CONTINUOUS
 62
     4
100
AcDbLine
 10
31.823113
 20
18.733469
 30
0.0
 11
31.763669
 21
18.637375
 31
0.0
  0
LINE
  5
330
330
1F
100
AcDbEntity
  8
CARTOUCHE
  6
CONTINUOUS
 62
     4
100
AcDbLine
 10
31.763669
 20
18.637375
 30
0.0
 11
31.660491
 21
18.436489
 31
0.0
  0
LINE
  5
331
330
1F
100
AcDbEntity
  8
CARTOUCHE
  6
CONTINUOUS
 62
     4
100
AcDbLine
 10
31.660491
 20
18.436489
 30
0.0
 11
31.617061
 21
18.332299
 31
0.0
  0
LINE
  5
332
330
1F
100
AcDbEntity
  8
CARTOUCHE
  6
CONTINUOUS
 62
     4
100
AcDbLine
 10
31.617061
 20
18.332299
 30
0.0
 11
31.579257
 21
18.225943
 31
0.0
  0
LINE
  5
333
330
1F
100
AcDbEntity
  8
CARTOUCHE
  6
CONTINUOUS
 62
     4
100
AcDbLine
 10
31.579257
 20
18.225943
 30
0.0
 11
31.547222
 21
18.117674
 31
0.0
  0
LINE
  5
334
330
1F
100
AcDbEntity
  8
CARTOUCHE
  6
CONTINUOUS
 62
     4
100
AcDbLine
 10
31.547222
 20
18.117674
 30
0.0
 11
31.521104
 21
18.00779
 31
0.0
  0
LINE
  5
335
330
1F
100
AcDbEntity
  8
CARTOUCHE
  6
CONTINUOUS
 62
     4
100
AcDbLine
 10
31.521104
 20
18.00779
 30
0.0
 11
31.501051
 21
17.896613
 31
0.0
  0
LINE
  5
336
330
1F
100
AcDbEntity
  8
CARTOUCHE
  6
CONTINUOUS
 62
     4
100
AcDbLine
 10
31.501051
 20
17.896613
 30
0.0
 11
31.487223
 21
17.784512
 31
0.0
  0
LINE
  5
337
330
1F
100
AcDbEntity
  8
CARTOUCHE
  6
CONTINUOUS
 62
     4
100
AcDbLine
 10
31.487223
 20
17.784512
 30
0.0
 11
31.479778
 21
17.671856
 31
0.0
  0
LINE
  5
338
330
1F
100
AcDbEntity
  8
CARTOUCHE
  6
CONTINUOUS
 62
     4
100
AcDbLine
 10
31.479778
 20
17.671856
 30
0.0
 11
31.478876
 21
17.559014
 31
0.0
  0
LINE
  5
339
330
1F
100
AcDbEntity
  8
CARTOUCHE
  6
CONTINUOUS
 62
     4
100
AcDbLine
 10
31.478876
 20
17.559014
 30
0.0
 11
31.484758
 21
17.446072
 31
0.0
  0
LINE
  5
33A
330
1F
100
AcDbEntity
  8
CARTOUCHE
  6
CONTINUOUS
 62
     4
100
AcDbLine
 10
31.484758
 20
17.446072
 30
0.0
 11
31.507303
 21
17.278243
 31
0.0
  0
LINE
  5
33B
330
1F
100
AcDbEntity
  8
CARTOUCHE
  6
CONTINUOUS
 62
     4
100
AcDbLine
 10
31.507303
 20
17.278243
 30
0.0
 11
31.531842
 21
17.168363
 31
0.0
  0
LINE
  5
33C
330
1F
100
AcDbEntity
  8
CARTOUCHE
  6
CONTINUOUS
 62
     4
100
AcDbLine
 10
31.531842
 20
17.168363
 30
0.0
 11
31.580661
 21
17.006354
 31
0.0
  0
LINE
  5
33D
330
1F
100
AcDbEntity
  8
CARTOUCHE
  6
CONTINUOUS
 62
     4
100
AcDbLine
 10
31.580661
 20
17.006354
 30
0.0
 11
31.663176
 21
16.796051
 31
0.0
  0
LINE
  5
33E
330
1F
100
AcDbEntity
  8
CARTOUCHE
  6
CONTINUOUS
 62
     4
100
AcDbLine
 10
31.663176
 20
16.796051
 30
0.0
 11
31.738102
 21
16.644243
 31
0.0
  0
LINE
  5
33F
330
1F
100
AcDbEntity
  8
CARTOUCHE
  6
CONTINUOUS
 62
     4
100
AcDbLine
 10
31.738102
 20
16.644243
 30
0.0
 11
31.824876
 21
16.499285
 31
0.0
  0
LINE
  5
340
330
1F
100
AcDbEntity
  8
CARTOUCHE
  6
CONTINUOUS
 62
     4
100
AcDbLine
 10
31.824876
 20
16.499285
 30
0.0
 11
31.906565
 21
16.38422
 31
0.0
  0
LINE
  5
341
330
1F
100
AcDbEntity
  8
CARTOUCHE
  6
CONTINUOUS
 62
     4
100
AcDbLine
 10
31.906565
 20
16.38422
 30
0.0
 11
31.995075
 21
16.274114
 31
0.0
  0
LINE
  5
342
330
1F
100
AcDbEntity
  8
CARTOUCHE
  6
CONTINUOUS
 62
     4
100
AcDbLine
 10
31.995075
 20
16.274114
 30
0.0
 11
32.069976
 21
16.189232
 31
0.0
  0
LINE
  5
343
330
1F
100
AcDbEntity
  8
CARTOUCHE
  6
CONTINUOUS
 62
     4
100
AcDbLine
 10
32.069976
 20
16.189232
 30
0.0
 11
32.190906
 21
16.070408
 31
0.0
  0
LINE
  5
344
330
1F
100
AcDbEntity
  8
CARTOUCHE
  6
CONTINUOUS
 62
     4
100
AcDbLine
 10
32.190906
 20
16.070408
 30
0.0
 11
32.27814
 21
15.999373
 31
0.0
  0
LINE
  5
345
330
1F
100
AcDbEntity
  8
CARTOUCHE
  6
CONTINUOUS
 62
     4
100
AcDbLine
 10
32.27814
 20
15.999373
 30
0.0
 11
32.418207
 21
15.905115
 31
0.0
  0
LINE
  5
346
330
1F
100
AcDbEntity
  8
CARTOUCHE
  6
CONTINUOUS
 62
     4
100
AcDbLine
 10
32.418207
 20
15.905115
 30
0.0
 11
32.541992
 21
15.836757
 31
0.0
  0
LINE
  5
347
330
1F
100
AcDbEntity
  8
CARTOUCHE
  6
CONTINUOUS
 62
     4
100
AcDbLine
 10
32.541992
 20
15.836757
 30
0.0
 11
32.669631
 21
15.775673
 31
0.0
  0
LINE
  5
348
330
1F
100
AcDbEntity
  8
CARTOUCHE
  6
CONTINUOUS
 62
     4
100
AcDbLine
 10
32.669631
 20
15.775673
 30
0.0
 11
32.878008
 21
15.688457
 31
0.0
  0
LINE
  5
349
330
1F
100
AcDbEntity
  8
CARTOUCHE
  6
CONTINUOUS
 62
     4
100
AcDbLine
 10
32.878008
 20
15.688457
 30
0.0
 11
33.199606
 21
15.582881
 31
0.0
  0
LINE
  5
34A
330
1F
100
AcDbEntity
  8
CARTOUCHE
  6
CONTINUOUS
 62
     4
100
AcDbLine
 10
33.199606
 20
15.582881
 30
0.0
 11
33.419015
 21
15.531338
 31
0.0
  0
LINE
  5
34B
330
1F
100
AcDbEntity
  8
CARTOUCHE
  6
CONTINUOUS
 62
     4
100
AcDbLine
 10
33.419015
 20
15.531338
 30
0.0
 11
33.753153
 21
15.477838
 31
0.0
  0
LINE
  5
34C
330
1F
100
AcDbEntity
  8
CARTOUCHE
  6
CONTINUOUS
 62
     4
100
AcDbLine
 10
33.753153
 20
15.477838
 30
0.0
 11
34.03388
 21
15.450243
 31
0.0
  0
LINE
  5
34D
330
1F
100
AcDbEntity
  8
CARTOUCHE
  6
CONTINUOUS
 62
     4
100
AcDbLine
 10
34.03388
 20
15.450243
 30
0.0
 11
34.315482
 21
15.438162
 31
0.0
  0
LINE
  5
34E
330
1F
100
AcDbEntity
  8
CARTOUCHE
  6
CONTINUOUS
 62
     4
100
AcDbLine
 10
34.315482
 20
15.438162
 30
0.0
 11
34.878324
 21
15.461635
 31
0.0
  0
LINE
  5
34F
330
1F
100
AcDbEntity
  8
CARTOUCHE
  6
CONTINUOUS
 62
     4
100
AcDbLine
 10
34.878324
 20
15.461635
 30
0.0
 11
35.159192
 21
15.494468
 31
0.0
  0
LINE
  5
350
330
1F
100
AcDbEntity
  8
CARTOUCHE
  6
CONTINUOUS
 62
     4
100
AcDbLine
 10
35.159192
 20
15.494468
 30
0.0
 11
35.437804
 21
15.542235
 31
0.0
  0
LINE
  5
351
330
1F
100
AcDbEntity
  8
CARTOUCHE
  6
CONTINUOUS
 62
     4
100
AcDbLine
 10
35.437804
 20
15.542235
 30
0.0
 11
35.712118
 21
15.608344
 31
0.0
  0
LINE
  5
352
330
1F
100
AcDbEntity
  8
CARTOUCHE
  6
CONTINUOUS
 62
     4
100
AcDbLine
 10
35.712118
 20
15.608344
 30
0.0
 11
35.978222
 21
15.699934
 31
0.0
  0
LINE
  5
353
330
1F
100
AcDbEntity
  8
CARTOUCHE
  6
CONTINUOUS
 62
     4
100
AcDbLine
 10
35.978222
 20
15.699934
 30
0.0
 11
36.235564
 21
15.815324
 31
0.0
  0
LINE
  5
354
330
1F
100
AcDbEntity
  8
CARTOUCHE
  6
CONTINUOUS
 62
     4
100
AcDbLine
 10
36.235564
 20
15.815324
 30
0.0
 11
36.361299
 21
15.879186
 31
0.0
  0
LINE
  5
355
330
1F
100
AcDbEntity
  8
CARTOUCHE
  6
CONTINUOUS
 62
     4
100
AcDbLine
 10
36.361299
 20
15.879186
 30
0.0
 11
36.48298
 21
15.950245
 31
0.0
  0
LINE
  5
356
330
1F
100
AcDbEntity
  8
CARTOUCHE
  6
CONTINUOUS
 62
     4
100
AcDbLine
 10
36.48298
 20
15.950245
 30
0.0
 11
36.575618
 21
16.014782
 31
0.0
  0
LINE
  5
357
330
1F
100
AcDbEntity
  8
CARTOUCHE
  6
CONTINUOUS
 62
     4
100
AcDbLine
 10
36.575618
 20
16.014782
 30
0.0
 11
36.641621
 21
16.067895
 31
0.0
  0
LINE
  5
358
330
1F
100
AcDbEntity
  8
CARTOUCHE
  6
CONTINUOUS
 62
     4
100
AcDbLine
 10
36.641621
 20
16.067895
 30
0.0
 11
36.704176
 21
16.124947
 31
0.0
  0
LINE
  5
359
330
1F
100
AcDbEntity
  8
CARTOUCHE
  6
CONTINUOUS
 62
     4
100
AcDbLine
 10
36.704176
 20
16.124947
 30
0.0
 11
36.78171
 21
16.206815
 31
0.0
  0
LINE
  5
35A
330
1F
100
AcDbEntity
  8
CARTOUCHE
  6
CONTINUOUS
 62
     4
100
AcDbLine
 10
36.78171
 20
16.206815
 30
0.0
 11
36.886125
 21
16.340089
 31
0.0
  0
LINE
  5
35B
330
1F
100
AcDbEntity
  8
CARTOUCHE
  6
CONTINUOUS
 62
     4
100
AcDbLine
 10
36.886125
 20
16.340089
 30
0.0
 11
36.948068
 21
16.434593
 31
0.0
  0
LINE
  5
35C
330
1F
100
AcDbEntity
  8
CARTOUCHE
  6
CONTINUOUS
 62
     4
100
AcDbLine
 10
36.948068
 20
16.434593
 30
0.0
 11
36.989546
 21
16.508386
 31
0.0
  0
LINE
  5
35D
330
1F
100
AcDbEntity
  8
CARTOUCHE
  6
CONTINUOUS
 62
     4
100
AcDbLine
 10
36.989546
 20
16.508386
 30
0.0
 11
37.02581
 21
16.584828
 31
0.0
  0
LINE
  5
35E
330
1F
100
AcDbEntity
  8
CARTOUCHE
  6
CONTINUOUS
 62
     4
100
AcDbLine
 10
37.02581
 20
16.584828
 30
0.0
 11
37.064953
 21
16.690806
 31
0.0
  0
LINE
  5
35F
330
1F
100
AcDbEntity
  8
CARTOUCHE
  6
CONTINUOUS
 62
     4
100
AcDbLine
 10
37.064953
 20
16.690806
 30
0.0
 11
37.08735
 21
16.7726
 31
0.0
  0
LINE
  5
360
330
1F
100
AcDbEntity
  8
CARTOUCHE
  6
CONTINUOUS
 62
     4
100
AcDbLine
 10
37.08735
 20
16.7726
 30
0.0
 11
37.103873
 21
16.855644
 31
0.0
  0
LINE
  5
361
330
1F
100
AcDbEntity
  8
CARTOUCHE
  6
CONTINUOUS
 62
     4
100
AcDbLine
 10
37.103873
 20
16.855644
 30
0.0
 11
35.343023
 21
16.855644
 31
0.0
  0
LINE
  5
362
330
1F
100
AcDbEntity
  8
CARTOUCHE
  6
CONTINUOUS
 62
     4
100
AcDbLine
 10
35.343023
 20
16.855644
 30
0.0
 11
35.23476
 21
16.775139
 31
0.0
  0
LINE
  5
363
330
1F
100
AcDbEntity
  8
CARTOUCHE
  6
CONTINUOUS
 62
     4
100
AcDbLine
 10
35.23476
 20
16.775139
 30
0.0
 11
35.149342
 21
16.720655
 31
0.0
  0
LINE
  5
364
330
1F
100
AcDbEntity
  8
CARTOUCHE
  6
CONTINUOUS
 62
     4
100
AcDbLine
 10
35.149342
 20
16.720655
 30
0.0
 11
35.060776
 21
16.671433
 31
0.0
  0
LINE
  5
365
330
1F
100
AcDbEntity
  8
CARTOUCHE
  6
CONTINUOUS
 62
     4
100
AcDbLine
 10
35.060776
 20
16.671433
 30
0.0
 11
34.984758
 21
16.634773
 31
0.0
  0
LINE
  5
366
330
1F
100
AcDbEntity
  8
CARTOUCHE
  6
CONTINUOUS
 62
     4
100
AcDbLine
 10
34.984758
 20
16.634773
 30
0.0
 11
34.906576
 21
16.603307
 31
0.0
  0
LINE
  5
367
330
1F
100
AcDbEntity
  8
CARTOUCHE
  6
CONTINUOUS
 62
     4
100
AcDbLine
 10
34.906576
 20
16.603307
 30
0.0
 11
34.842277
 21
16.582635
 31
0.0
  0
LINE
  5
368
330
1F
100
AcDbEntity
  8
CARTOUCHE
  6
CONTINUOUS
 62
     4
100
AcDbLine
 10
34.842277
 20
16.582635
 30
0.0
 11
34.743651
 21
16.559088
 31
0.0
  0
LINE
  5
369
330
1F
100
AcDbEntity
  8
CARTOUCHE
  6
CONTINUOUS
 62
     4
100
AcDbLine
 10
34.743651
 20
16.559088
 30
0.0
 11
34.609337
 21
16.540536
 31
0.0
  0
LINE
  5
36A
330
1F
100
AcDbEntity
  8
CARTOUCHE
  6
CONTINUOUS
 62
     4
100
AcDbLine
 10
34.609337
 20
16.540536
 30
0.0
 11
34.507639
 21
16.535656
 31
0.0
  0
LINE
  5
36B
330
1F
100
AcDbEntity
  8
CARTOUCHE
  6
CONTINUOUS
 62
     4
100
AcDbLine
 10
34.507639
 20
16.535656
 30
0.0
 11
34.405809
 21
16.537981
 31
0.0
  0
LINE
  5
36C
330
1F
100
AcDbEntity
  8
CARTOUCHE
  6
CONTINUOUS
 62
     4
100
AcDbLine
 10
34.405809
 20
16.537981
 30
0.0
 11
34.271392
 21
16.551496
 31
0.0
  0
LINE
  5
36D
330
1F
100
AcDbEntity
  8
CARTOUCHE
  6
CONTINUOUS
 62
     4
100
AcDbLine
 10
34.271392
 20
16.551496
 30
0.0
 11
34.171681
 21
16.569188
 31
0.0
  0
LINE
  5
36E
330
1F
100
AcDbEntity
  8
CARTOUCHE
  6
CONTINUOUS
 62
     4
100
AcDbLine
 10
34.171681
 20
16.569188
 30
0.0
 11
34.073329
 21
16.593186
 31
0.0
  0
LINE
  5
36F
330
1F
100
AcDbEntity
  8
CARTOUCHE
  6
CONTINUOUS
 62
     4
100
AcDbLine
 10
34.073329
 20
16.593186
 30
0.0
 11
33.944884
 21
16.635037
 31
0.0
  0
LINE
  5
370
330
1F
100
AcDbEntity
  8
CARTOUCHE
  6
CONTINUOUS
 62
     4
100
AcDbLine
 10
33.944884
 20
16.635037
 30
0.0
 11
33.851395
 21
16.674301
 31
0.0
  0
LINE
  5
371
330
1F
100
AcDbEntity
  8
CARTOUCHE
  6
CONTINUOUS
 62
     4
100
AcDbLine
 10
33.851395
 20
16.674301
 30
0.0
 11
33.760981
 21
16.720846
 31
0.0
  0
LINE
  5
372
330
1F
100
AcDbEntity
  8
CARTOUCHE
  6
CONTINUOUS
 62
     4
100
AcDbLine
 10
33.760981
 20
16.720846
 30
0.0
 11
33.70284
 21
16.75614
 31
0.0
  0
LINE
  5
373
330
1F
100
AcDbEntity
  8
CARTOUCHE
  6
CONTINUOUS
 62
     4
100
AcDbLine
 10
33.70284
 20
16.75614
 30
0.0
 11
33.647077
 21
16.795104
 31
0.0
  0
LINE
  5
374
330
1F
100
AcDbEntity
  8
CARTOUCHE
  6
CONTINUOUS
 62
     4
100
AcDbLine
 10
33.647077
 20
16.795104
 30
0.0
 11
33.59445
 21
16.837967
 31
0.0
  0
LINE
  5
375
330
1F
100
AcDbEntity
  8
CARTOUCHE
  6
CONTINUOUS
 62
     4
100
AcDbLine
 10
33.59445
 20
16.837967
 30
0.0
 11
33.545719
 21
16.884956
 31
0.0
  0
LINE
  5
376
330
1F
100
AcDbEntity
  8
CARTOUCHE
  6
CONTINUOUS
 62
     4
100
AcDbLine
 10
33.545719
 20
16.884956
 30
0.0
 11
33.501642
 21
16.9363
 31
0.0
  0
LINE
  5
377
330
1F
100
AcDbEntity
  8
CARTOUCHE
  6
CONTINUOUS
 62
     4
100
AcDbLine
 10
33.501642
 20
16.9363
 30
0.0
 11
33.462877
 21
16.99205
 31
0.0
  0
LINE
  5
378
330
1F
100
AcDbEntity
  8
CARTOUCHE
  6
CONTINUOUS
 62
     4
100
AcDbLine
 10
33.462877
 20
16.99205
 30
0.0
 11
33.429669
 21
17.051562
 31
0.0
  0
LINE
  5
379
330
1F
100
AcDbEntity
  8
CARTOUCHE
  6
CONTINUOUS
 62
     4
100
AcDbLine
 10
33.429669
 20
17.051562
 30
0.0
 11
33.402161
 21
17.114013
 31
0.0
  0
LINE
  5
37A
330
1F
100
AcDbEntity
  8
CARTOUCHE
  6
CONTINUOUS
 62
     4
100
AcDbLine
 10
33.402161
 20
17.114013
 30
0.0
 11
33.380498
 21
17.178581
 31
0.0
  0
LINE
  5
37B
330
1F
100
AcDbEntity
  8
CARTOUCHE
  6
CONTINUOUS
 62
     4
100
AcDbLine
 10
33.380498
 20
17.178581
 30
0.0
 11
33.364823
 21
17.244444
 31
0.0
  0
LINE
  5
37C
330
1F
100
AcDbEntity
  8
CARTOUCHE
  6
CONTINUOUS
 62
     4
100
AcDbLine
 10
33.364823
 20
17.244444
 30
0.0
 11
34.051073
 21
17.244444
 31
0.0
  0
LINE
  5
37D
330
1F
100
AcDbEntity
  8
CARTOUCHE
  6
CONTINUOUS
 62
     4
100
AcDbLine
 10
33.364823
 20
18.079194
 30
0.0
 11
34.154123
 21
18.079194
 31
0.0
  0
LINE
  5
37E
330
1F
100
AcDbEntity
  8
CARTOUCHE
  6
CONTINUOUS
 62
     4
100
AcDbLine
 10
34.154123
 20
18.079194
 30
0.0
 11
35.343023
 21
18.079194
 31
0.0
  0
LINE
  5
37F
330
1F
100
AcDbEntity
  8
CARTOUCHE
  6
CONTINUOUS
 62
     4
100
AcDbLine
 10
35.343023
 20
18.079194
 30
0.0
 11
35.339099
 21
18.116416
 31
0.0
  0
LINE
  5
380
330
1F
100
AcDbEntity
  8
CARTOUCHE
  6
CONTINUOUS
 62
     4
100
AcDbLine
 10
35.339099
 20
18.116416
 30
0.0
 11
35.333002
 21
18.153431
 31
0.0
  0
LINE
  5
381
330
1F
100
AcDbEntity
  8
CARTOUCHE
  6
CONTINUOUS
 62
     4
100
AcDbLine
 10
35.333002
 20
18.153431
 30
0.0
 11
35.324692
 21
18.190049
 31
0.0
  0
LINE
  5
382
330
1F
100
AcDbEntity
  8
CARTOUCHE
  6
CONTINUOUS
 62
     4
100
AcDbLine
 10
35.324692
 20
18.190049
 30
0.0
 11
35.314132
 21
18.226078
 31
0.0
  0
LINE
  5
383
330
1F
100
AcDbEntity
  8
CARTOUCHE
  6
CONTINUOUS
 62
     4
100
AcDbLine
 10
35.314132
 20
18.226078
 30
0.0
 11
35.301285
 21
18.261329
 31
0.0
  0
LINE
  5
384
330
1F
100
AcDbEntity
  8
CARTOUCHE
  6
CONTINUOUS
 62
     4
100
AcDbLine
 10
35.301285
 20
18.261329
 30
0.0
 11
35.286156
 21
18.295606
 31
0.0
  0
LINE
  5
385
330
1F
100
AcDbEntity
  8
CARTOUCHE
  6
CONTINUOUS
 62
     4
100
AcDbLine
 10
35.286156
 20
18.295606
 30
0.0
 11
35.268864
 21
18.328846
 31
0.0
  0
LINE
  5
386
330
1F
100
AcDbEntity
  8
CARTOUCHE
  6
CONTINUOUS
 62
     4
100
AcDbLine
 10
35.268864
 20
18.328846
 30
0.0
 11
35.249567
 21
18.360982
 31
0.0
  0
LINE
  5
387
330
1F
100
AcDbEntity
  8
CARTOUCHE
  6
CONTINUOUS
 62
     4
100
AcDbLine
 10
35.249567
 20
18.360982
 30
0.0
 11
35.228425
 21
18.391944
 31
0.0
  0
LINE
  5
388
330
1F
100
AcDbEntity
  8
CARTOUCHE
  6
CONTINUOUS
 62
     4
100
AcDbLine
 10
35.228425
 20
18.391944
 30
0.0
 11
35.205595
 21
18.421664
 31
0.0
  0
LINE
  5
389
330
1F
100
AcDbEntity
  8
CARTOUCHE
  6
CONTINUOUS
 62
     4
100
AcDbLine
 10
35.205595
 20
18.421664
 30
0.0
 11
35.155158
 21
18.477534
 31
0.0
  0
LINE
  5
38A
330
1F
100
AcDbEntity
  8
CARTOUCHE
  6
CONTINUOUS
 62
     4
100
AcDbLine
 10
35.155158
 20
18.477534
 30
0.0
 11
35.113888
 21
18.516059
 31
0.0
  0
LINE
  5
38B
330
1F
100
AcDbEntity
  8
CARTOUCHE
  6
CONTINUOUS
 62
     4
100
AcDbLine
 10
35.113888
 20
18.516059
 30
0.0
 11
35.070149
 21
18.551768
 31
0.0
  0
LINE
  5
38C
330
1F
100
AcDbEntity
  8
CARTOUCHE
  6
CONTINUOUS
 62
     4
100
AcDbLine
 10
35.070149
 20
18.551768
 30
0.0
 11
35.008897
 21
18.594936
 31
0.0
  0
LINE
  5
38D
330
1F
100
AcDbEntity
  8
CARTOUCHE
  6
CONTINUOUS
 62
     4
100
AcDbLine
 10
35.008897
 20
18.594936
 30
0.0
 11
34.960894
 21
18.624144
 31
0.0
  0
LINE
  5
38E
330
1F
100
AcDbEntity
  8
CARTOUCHE
  6
CONTINUOUS
 62
     4
100
AcDbLine
 10
34.960894
 20
18.624144
 30
0.0
 11
34.911351
 21
18.650643
 31
0.0
  0
LINE
  5
38F
330
1F
100
AcDbEntity
  8
CARTOUCHE
  6
CONTINUOUS
 62
     4
100
AcDbLine
 10
34.911351
 20
18.650643
 30
0.0
 11
34.843213
 21
18.681802
 31
0.0
  0
LINE
  5
390
330
1F
100
AcDbEntity
  8
CARTOUCHE
  6
CONTINUOUS
 62
     4
100
AcDbLine
 10
34.843213
 20
18.681802
 30
0.0
 11
34.737463
 21
18.719811
 31
0.0
  0
LINE
  5
391
330
1F
100
AcDbEntity
  8
CARTOUCHE
  6
CONTINUOUS
 62
     4
100
AcDbLine
 10
34.737463
 20
18.719811
 30
0.0
 11
34.665034
 21
18.739546
 31
0.0
  0
LINE
  5
392
330
1F
100
AcDbEntity
  8
CARTOUCHE
  6
CONTINUOUS
 62
     4
100
AcDbLine
 10
34.665034
 20
18.739546
 30
0.0
 11
34.554475
 21
18.760807
 31
0.0
  0
LINE
  5
393
330
1F
100
AcDbEntity
  8
CARTOUCHE
  6
CONTINUOUS
 62
     4
100
AcDbLine
 10
34.554475
 20
18.760807
 30
0.0
 11
34.479582
 21
18.769534
 31
0.0
  0
LINE
  5
394
330
1F
100
AcDbEntity
  8
CARTOUCHE
  6
CONTINUOUS
 62
     4
100
AcDbLine
 10
34.479582
 20
18.769534
 30
0.0
 11
34.366678
 21
18.77477
 31
0.0
  0
LINE
  5
395
330
1F
100
AcDbEntity
  8
CARTOUCHE
  6
CONTINUOUS
 62
     4
100
AcDbLine
 10
34.366678
 20
18.77477
 30
0.0
 11
34.291229
 21
18.773226
 31
0.0
  0
LINE
  5
396
330
1F
100
AcDbEntity
  8
CARTOUCHE
  6
CONTINUOUS
 62
     4
100
AcDbLine
 10
34.291229
 20
18.773226
 30
0.0
 11
34.178244
 21
18.762802
 31
0.0
  0
LINE
  5
397
330
1F
100
AcDbEntity
  8
CARTOUCHE
  6
CONTINUOUS
 62
     4
100
AcDbLine
 10
34.178244
 20
18.762802
 30
0.0
 11
34.104388
 21
18.749824
 31
0.0
  0
LINE
  5
398
330
1F
100
AcDbEntity
  8
CARTOUCHE
  6
CONTINUOUS
 62
     4
100
AcDbLine
 10
34.104388
 20
18.749824
 30
0.0
 11
34.068085
 21
18.740847
 31
0.0
  0
LINE
  5
399
330
1F
100
AcDbEntity
  8
CARTOUCHE
  6
CONTINUOUS
 62
     4
100
AcDbLine
 10
34.068085
 20
18.740847
 30
0.0
 11
34.032514
 21
18.729811
 31
0.0
  0
LINE
  5
39A
330
1F
100
AcDbEntity
  8
CARTOUCHE
  6
CONTINUOUS
 62
     4
100
AcDbLine
 10
34.032514
 20
18.729811
 30
0.0
 11
33.997912
 21
18.716418
 31
0.0
  0
LINE
  5
39B
330
1F
100
AcDbEntity
  8
CARTOUCHE
  6
CONTINUOUS
 62
     4
100
AcDbLine
 10
33.997912
 20
18.716418
 30
0.0
 11
33.964344
 21
18.700508
 31
0.0
  0
LINE
  5
39C
330
1F
100
AcDbEntity
  8
CARTOUCHE
  6
CONTINUOUS
 62
     4
100
AcDbLine
 10
33.964344
 20
18.700508
 30
0.0
 11
33.834843
 21
18.625681
 31
0.0
  0
LINE
  5
39D
330
1F
100
AcDbEntity
  8
CARTOUCHE
  6
CONTINUOUS
 62
     4
100
AcDbLine
 10
33.834843
 20
18.625681
 30
0.0
 11
33.671594
 21
18.535581
 31
0.0
  0
LINE
  5
39E
330
1F
100
AcDbEntity
  8
CARTOUCHE
  6
CONTINUOUS
 62
     4
100
AcDbLine
 10
33.671594
 20
18.535581
 30
0.0
 11
33.640976
 21
18.51416
 31
0.0
  0
LINE
  5
39F
330
1F
100
AcDbEntity
  8
CARTOUCHE
  6
CONTINUOUS
 62
     4
100
AcDbLine
 10
33.640976
 20
18.51416
 30
0.0
 11
33.611625
 21
18.49088
 31
0.0
  0
LINE
  5
3A0
330
1F
100
AcDbEntity
  8
CARTOUCHE
  6
CONTINUOUS
 62
     4
100
AcDbLine
 10
33.611625
 20
18.49088
 30
0.0
 11
33.583591
 21
18.465911
 31
0.0
  0
LINE
  5
3A1
330
1F
100
AcDbEntity
  8
CARTOUCHE
  6
CONTINUOUS
 62
     4
100
AcDbLine
 10
33.583591
 20
18.465911
 30
0.0
 11
33.531681
 21
18.41159
 31
0.0
  0
LINE
  5
3A2
330
1F
100
AcDbEntity
  8
CARTOUCHE
  6
CONTINUOUS
 62
     4
100
AcDbLine
 10
33.531681
 20
18.41159
 30
0.0
 11
33.485341
 21
18.352025
 31
0.0
  0
LINE
  5
3A3
330
1F
100
AcDbEntity
  8
CARTOUCHE
  6
CONTINUOUS
 62
     4
100
AcDbLine
 10
33.485341
 20
18.352025
 30
0.0
 11
33.454621
 21
18.304551
 31
0.0
  0
LINE
  5
3A4
330
1F
100
AcDbEntity
  8
CARTOUCHE
  6
CONTINUOUS
 62
     4
100
AcDbLine
 10
33.454621
 20
18.304551
 30
0.0
 11
33.427457
 21
18.254932
 31
0.0
  0
LINE
  5
3A5
330
1F
100
AcDbEntity
  8
CARTOUCHE
  6
CONTINUOUS
 62
     4
100
AcDbLine
 10
33.427457
 20
18.254932
 30
0.0
 11
33.3972
 21
18.186473
 31
0.0
  0
LINE
  5
3A6
330
1F
100
AcDbEntity
  8
CARTOUCHE
  6
CONTINUOUS
 62
     4
100
AcDbLine
 10
33.3972
 20
18.186473
 30
0.0
 11
33.37898
 21
18.133395
 31
0.0
  0
LINE
  5
3A7
330
1F
100
AcDbEntity
  8
CARTOUCHE
  6
CONTINUOUS
 62
     4
100
AcDbLine
 10
33.37898
 20
18.133395
 30
0.0
 11
33.364823
 21
18.079194
 31
0.0
  0
HATCH
  5
3A8
330
1F
100
AcDbEntity
  8
CARTOUCHE
  6
CONTINUOUS
 62
     4
100
AcDbHatch
 10
0.0
 20
0.0
 30
0.0
210
0.0
220
0.0
230
1.0
  2
ANSI_31
 70
     0
 71
     0
 91
        1
 92
        1
 93
       78
 72
     1
 10
37.73297300000002
 20
19.50839400000001
 11
37.73297300000002
 21
15.632094
 72
     1
 10
37.73297300000002
 20
15.632094
 11
39.45962299999997
 21
15.632094
 72
     1
 10
39.45962299999997
 20
15.632094
 11
39.45962299999997
 21
17.782194
 72
     1
 10
39.45962299999997
 20
17.782194
 11
39.46348799999998
 21
17.82556299999999
 72
     1
 10
39.46348799999998
 20
17.82556299999999
 11
39.47094600000003
 21
17.86858599999999
 72
     1
 10
39.47094600000003
 20
17.86858599999999
 11
39.48187900000005
 21
17.91099100000002
 72
     1
 10
39.48187900000005
 20
17.91099100000002
 11
39.496172
 21
17.95250399999998
 72
     1
 10
39.496172
 20
17.95250399999998
 11
39.51370699999995
 21
17.99285099999997
 72
     1
 10
39.51370699999995
 20
17.99285099999997
 11
39.53438600000004
 21
18.03175499999998
 72
     1
 10
39.53438600000004
 20
18.03175499999998
 11
39.55812200000003
 21
18.06881399999997
 72
     1
 10
39.55812200000003
 20
18.06881399999997
 11
39.58484099999998
 21
18.10362400000002
 72
     1
 10
39.58484099999998
 20
18.10362400000002
 11
39.61447299999998
 21
18.13578000000001
 72
     1
 10
39.61447299999998
 20
18.13578000000001
 11
39.64694299999996
 21
18.16487799999999
 72
     1
 10
39.64694299999996
 20
18.16487799999999
 11
39.68210899999997
 21
18.19058699999999
 72
     1
 10
39.68210899999997
 20
18.19058699999999
 11
39.71962599999995
 21
18.21293300000002
 72
     1
 10
39.71962599999995
 20
18.21293300000002
 11
39.75908300000003
 21
18.232012
 72
     1
 10
39.75908300000003
 20
18.232012
 11
39.80006700000001
 21
18.24792000000002
 72
     1
 10
39.80006700000001
 20
18.24792000000002
 11
39.84216600000002
 21
18.26075500000002
 72
     1
 10
39.84216600000002
 20
18.26075500000002
 11
39.88545499999998
 21
18.27065499999998
 72
     1
 10
39.88545499999998
 20
18.27065499999998
 11
39.92924100000005
 21
18.27734399999997
 72
     1
 10
39.92924100000005
 20
18.27734399999997
 11
39.97330699999998
 21
18.28064899999998
 72
     1
 10
39.97330699999998
 20
18.28064899999998
 11
40.01743299999998
 21
18.28040099999998
 72
     1
 10
40.01743299999998
 20
18.28040099999998
 11
40.06139900000005
 21
18.27642800000001
 72
     1
 10
40.06139900000005
 20
18.27642800000001
 11
40.10431900000003
 21
18.26873599999999
 72
     1
 10
40.10431900000003
 20
18.26873599999999
 11
40.14647100000002
 21
18.257294
 72
     1
 10
40.14647100000002
 20
18.257294
 11
40.187456
 21
18.24213600000002
 72
     1
 10
40.187456
 20
18.24213600000002
 11
40.22687299999996
 21
18.22329300000001
 72
     1
 10
40.22687299999996
 20
18.22329300000001
 11
40.264321
 21
18.20079700000002
 72
     1
 10
40.264321
 20
18.20079700000002
 11
40.29950399999996
 21
18.17464200000001
 72
     1
 10
40.29950399999996
 20
18.17464200000001
 11
40.33194700000001
 21
18.14511900000002
 72
     1
 10
40.33194700000001
 20
18.14511900000002
 11
40.36129100000005
 21
18.11249900000001
 72
     1
 10
40.36129100000005
 20
18.11249900000001
 11
40.38718100000006
 21
18.07705399999998
 72
     1
 10
40.38718100000006
 20
18.07705399999998
 11
40.40925700000003
 21
18.03905600000002
 72
     1
 10
40.40925700000003
 20
18.03905600000002
 11
40.42712900000004
 21
17.999011
 72
     1
 10
40.42712900000004
 20
17.999011
 11
40.44073200000003
 21
17.95727699999998
 72
     1
 10
40.44073200000003
 20
17.95727699999998
 11
40.44992999999999
 21
17.914423
 72
     1
 10
40.44992999999999
 20
17.914423
 11
40.45458899999994
 21
17.87102199999998
 72
     1
 10
40.45458899999994
 20
17.87102199999998
 11
40.45517399999994
 21
17.84929399999999
 72
     1
 10
40.45517399999994
 20
17.84929399999999
 11
40.45457299999998
 21
17.82764400000002
 72
     1
 10
40.45457299999998
 20
17.82764400000002
 11
40.45457299999998
 21
17.58779399999997
 72
     1
 10
40.45457299999998
 20
17.58779399999997
 11
42.28382299999998
 21
17.58779399999997
 72
     1
 10
42.28382299999998
 20
17.58779399999997
 11
42.30047999999999
 21
17.74190099999998
 72
     1
 10
42.30047999999999
 20
17.74190099999998
 11
42.30803400000002
 21
17.89676400000002
 72
     1
 10
42.30803400000002
 20
17.89676400000002
 11
42.30622300000005
 21
18.05192099999999
 72
     1
 10
42.30622300000005
 20
18.05192099999999
 11
42.29564800000003
 21
18.20671600000003
 72
     1
 10
42.29564800000003
 20
18.20671600000003
 11
42.27690800000005
 21
18.360972
 72
     1
 10
42.27690800000005
 20
18.360972
 11
42.24990000000003
 21
18.51409699999999
 72
     1
 10
42.24990000000003
 20
18.51409699999999
 11
42.22187399999996
 21
18.63507199999998
 72
     1
 10
42.22187399999996
 20
18.63507199999998
 11
42.19592
 21
18.724445
 72
     1
 10
42.19592
 20
18.724445
 11
42.16467999999998
 21
18.812049
 72
     1
 10
42.16467999999998
 20
18.812049
 11
42.11349900000005
 21
18.92525000000001
 72
     1
 10
42.11349900000005
 20
18.92525000000001
 11
42.06786699999998
 21
19.00661500000001
 72
     1
 10
42.06786699999998
 20
19.00661500000001
 11
42.01605700000005
 21
19.08429999999998
 72
     1
 10
42.01605700000005
 20
19.08429999999998
 11
41.97801800000002
 21
19.133848
 72
     1
 10
41.97801800000002
 20
19.133848
 11
41.93728699999997
 21
19.18120800000003
 72
     1
 10
41.93728699999997
 20
19.18120800000003
 11
41.89391699999999
 21
19.22609699999998
 72
     1
 10
41.89391699999999
 20
19.22609699999998
 11
41.84796300000005
 21
19.26823000000002
 72
     1
 10
41.84796300000005
 20
19.26823000000002
 11
41.79947600000003
 21
19.30732599999999
 72
     1
 10
41.79947600000003
 20
19.30732599999999
 11
41.74884699999996
 21
19.34298100000001
 72
     1
 10
41.74884699999996
 20
19.34298100000001
 11
41.69608700000003
 21
19.375497
 72
     1
 10
41.69608700000003
 20
19.375497
 11
41.61365699999999
 21
19.41870299999999
 72
     1
 10
41.61365699999999
 20
19.41870299999999
 11
41.52824199999998
 21
19.45566400000001
 72
     1
 10
41.52824199999998
 20
19.45566400000001
 11
41.41028500000004
 21
19.496534
 72
     1
 10
41.41028500000004
 20
19.496534
 11
41.22888
 21
19.54287199999999
 72
     1
 10
41.22888
 20
19.54287199999999
 11
41.10697100000004
 21
19.56607500000001
 72
     1
 10
41.10697100000004
 20
19.56607500000001
 11
40.92238599999996
 21
19.58782100000002
 72
     1
 10
40.92238599999996
 20
19.58782100000002
 11
40.79850399999998
 21
19.59181599999999
 72
     1
 10
40.79850399999998
 20
19.59181599999999
 11
40.61256800000001
 21
19.58370300000001
 72
     1
 10
40.61256800000001
 20
19.58370300000001
 11
40.45792600000004
 21
19.56627400000002
 72
     1
 10
40.45792600000004
 20
19.56627400000002
 11
40.30471599999998
 21
19.53948200000002
 72
     1
 10
40.30471599999998
 20
19.53948200000002
 11
40.18380500000001
 21
19.51113500000002
 72
     1
 10
40.18380500000001
 20
19.51113500000002
 11
40.00579900000002
 21
19.45603
 72
     1
 10
40.00579900000002
 20
19.45603
 11
39.89043400000003
 21
19.41051800000002
 72
     1
 10
39.89043400000003
 20
19.41051800000002
 11
39.77781700000003
 21
19.35819800000002
 72
     1
 10
39.77781700000003
 20
19.35819800000002
 11
39.66826400000002
 21
19.29957999999999
 72
     1
 10
39.66826400000002
 20
19.29957999999999
 11
39.45962299999997
 21
19.16549400000002
 72
     1
 10
39.45962299999997
 20
19.16549400000002
 11
39.45962299999997
 21
19.50839400000001
 72
     1
 10
39.45962299999997
 20
19.50839400000001
 11
37.73297300000002
 21
19.50839400000001
 97
        0
 75
     0
 76
     2
 52
0.0
 41
0.062992
 77
     0
 78
     1
 53
44.99999999988837
 43
0.0
 44
0.0
 45
-3.592095212307267
 46
3.592095212321264
 79
     0
 98
        0
  0
LINE
  5
3A9
330
1F
100
AcDbEntity
  8
CARTOUCHE
  6
CONTINUOUS
 62
     7
100
AcDbLine
 10
200.000037
 20
31.845156
 30
0.0
 11
0.0
 21
31.845462
 31
0.0
  0
LINE
  5
3AA
330
1F
100
AcDbEntity
  8
CARTOUCHE
  6
CONTINUOUS
 62
     7
100
AcDbLine
 10
148.33333
 20
15.002887
 30
0.0
 11
148.33333
 21
5.000945
 31
0.0
  0
TEXT
  5
3AB
330
1F
100
AcDbEntity
  8
CARTOUCHE
  6
CONTINUOUS
 62
     2
100
AcDbText
 10
11.190943
 20
9.308782
 30
0.0
 40
1.8
  1
www.findernet.com
 50
359.999908
 41
0.73
  7
FINDER
100
AcDbText
  0
TEXT
  5
3AC
330
1F
100
AcDbEntity
  8
CARTOUCHE
  6
CONTINUOUS
 62
     7
100
AcDbText
 10
119.919563
 20
11.624226
 30
0.0
 40
1.8
  1
DATE
 50
359.999908
 41
0.61
  7
FINDER
100
AcDbText
  0
TEXT
  5
3AD
330
1F
100
AcDbEntity
  8
CARTOUCHE
  6
CONTINUOUS
 62
     1
100
AcDbText
 10
118.764008
 20
6.846709
 30
0.0
 40
2.1
  1
28/07/12
 50
359.999908
 41
0.58
  7
FINDER
100
AcDbText
  0
TEXT
  5
3AE
330
1F
100
AcDbEntity
  8
CARTOUCHE
  6
CONTINUOUS
 62
     7
100
AcDbText
 10
170.877045
 20
11.624147
 30
0.0
 40
1.8
  1
SCALE
 50
359.999908
 41
0.6
  7
FINDER
100
AcDbText
  0
TEXT
  5
3AF
330
1F
100
AcDbEntity
  8
CARTOUCHE
  6
CONTINUOUS
 62
     1
100
AcDbText
 10
172.623032
 20
6.776122
 30
0.0
 40
2.1
  1
1:1
 50
359.999908
 41
1.24
  7
FINDER
100
AcDbText
  0
TEXT
  5
3B0
330
1F
100
AcDbEntity
  8
CARTOUCHE
  6
CONTINUOUS
 62
     1
100
AcDbText
 10
117.964798
 20
17.611895
 30
0.0
 40
3.0
  1
72B1
 50
359.999908
 41
0.67
  7
FINDER
100
AcDbText
  0
ARC
  5
3B1
330
1F
100
AcDbEntity
  8
CARTOUCHE
  6
CONTINUOUS
 62
     4
 60
     1
100
AcDbCircle
 10
519.965762
 20
578.532441
 30
0.0
 40
0.4999999999980002
100
AcDbArc
 50
0.0
 51
90.0
  0
LINE
  5
3B2
330
1F
100
AcDbEntity
  8
0
  6
CONTINUOUS
 62
     4
 60
     1
100
AcDbLine
 10
512.215762
 20
577.71791
 30
0.0
 11
512.215762
 21
578.81791
 31
0.0
  0
LINE
  5
3B3
330
1F
100
AcDbEntity
  8
0
  6
CONTINUOUS
 62
     4
 60
     1
100
AcDbLine
 10
511.215762
 20
577.71791
 30
0.0
 11
512.215762
 21
577.71791
 31
0.0
  0
ARC
  5
3B4
330
1F
100
AcDbEntity
  8
0
  6
CONTINUOUS
 62
     4
 60
     1
100
AcDbCircle
 10
512.715762
 20
578.81791
 30
0.0
 40
0.4999999999980002
100
AcDbArc
 50
90.0
 51
180.0
  0
ARC
  5
3B5
330
1F
100
AcDbEntity
  8
0
  6
CONTINUOUS
 62
     4
 60
     1
100
AcDbCircle
 10
492.715762
 20
543.821448
 30
0.0
 40
0.4999999999980002
100
AcDbArc
 50
90.0
 51
180.0
  0
LINE
  5
3B6
330
1F
100
AcDbEntity
  8
0
  6
CONTINUOUS
 62
     4
 60
     1
100
AcDbLine
 10
492.215762
 20
542.721448
 30
0.0
 11
492.215762
 21
543.821448
 31
0.0
  0
LINE
  5
3B7
330
1F
100
AcDbEntity
  8
0
  6
CONTINUOUS
 62
     4
 60
     1
100
AcDbLine
 10
491.215762
 20
542.721448
 30
0.0
 11
492.215762
 21
542.721448
 31
0.0
  0
ARC
  5
3B8
330
1F
100
AcDbEntity
  8
0
  6
CONTINUOUS
 62
     4
 60
     1
100
AcDbCircle
 10
503.715762
 20
561.321448
 30
0.0
 40
0.4999999999980002
100
AcDbArc
 50
90.0
 51
180.0
  0
LINE
  5
3B9
330
1F
100
AcDbEntity
  8
0
  6
CONTINUOUS
 62
     4
 60
     1
100
AcDbLine
 10
503.215762
 20
560.221448
 30
0.0
 11
503.215762
 21
561.321448
 31
0.0
  0
LINE
  5
3BA
330
1F
100
AcDbEntity
  8
0
  6
CONTINUOUS
 62
     4
 60
     1
100
AcDbLine
 10
502.215762
 20
560.221448
 30
0.0
 11
503.215762
 21
560.221448
 31
0.0
  0
LINE
  5
3BB
330
1F
100
AcDbEntity
  8
0
  6
CONTINUOUS
 62
     6
 60
     1
100
AcDbLine
 10
574.081416
 20
490.982739
 30
0.0
 11
578.081416
 21
490.982739
 31
0.0
  0
LINE
  5
3BC
330
1F
100
AcDbEntity
  8
0
  6
CONTINUOUS
 62
     6
 60
     1
100
AcDbLine
 10
574.081416
 20
482.582739
 30
0.0
 11
578.081416
 21
482.582739
 31
0.0
  0
LINE
  5
3BD
330
1F
100
AcDbEntity
  8
0
  6
CONTINUOUS
 62
     6
 60
     1
100
AcDbLine
 10
578.081416
 20
490.982739
 30
0.0
 11
578.081416
 21
486.782739
 31
0.0
  0
LINE
  5
3BE
330
1F
100
AcDbEntity
  8
0
  6
CONTINUOUS
 62
     6
 60
     1
100
AcDbLine
 10
578.081416
 20
482.582739
 30
0.0
 11
578.081416
 21
486.782739
 31
0.0
  0
LINE
  5
3BF
330
1F
100
AcDbEntity
  8
0
  6
CONTINUOUS
 62
     6
 60
     1
100
AcDbLine
 10
576.081416
 20
489.032739
 30
0.0
 11
576.081416
 21
486.782739
 31
0.0
  0
LINE
  5
3C0
330
1F
100
AcDbEntity
  8
0
  6
CONTINUOUS
 62
     6
 60
     1
100
AcDbLine
 10
574.081416
 20
484.532739
 30
0.0
 11
576.081416
 21
484.532739
 31
0.0
  0
LINE
  5
3C1
330
1F
100
AcDbEntity
  8
0
  6
CONTINUOUS
 62
     6
 60
     1
100
AcDbLine
 10
576.081416
 20
484.532739
 30
0.0
 11
576.081416
 21
486.782739
 31
0.0
  0
LINE
  5
3C2
330
1F
100
AcDbEntity
  8
0
  6
CONTINUOUS
 62
     6
 60
     1
100
AcDbLine
 10
574.081416
 20
489.032739
 30
0.0
 11
576.081416
 21
489.032739
 31
0.0
  0
LINE
  5
3C3
330
1F
100
AcDbEntity
  8
0
  6
CONTINUOUS
 62
     2
 60
     1
100
AcDbLine
 10
521.965762
 20
578.921448
 30
0.0
 11
521.965762
 21
553.921448
 31
0.0
  0
LINE
  5
3C4
330
1F
100
AcDbEntity
  8
0
  6
CONTINUOUS
 62
     2
 60
     1
100
AcDbLine
 10
550.965762
 20
553.921448
 30
0.0
 11
550.965762
 21
578.921448
 31
0.0
  0
LINE
  5
3C5
330
1F
100
AcDbEntity
  8
0
  6
CONTINUOUS
 62
     2
 60
     1
100
AcDbLine
 10
532.923001
 20
578.921448
 30
0.0
 11
521.965762
 21
578.921448
 31
0.0
  0
LINE
  5
3C6
330
1F
100
AcDbEntity
  8
0
  6
CONTINUOUS
 62
     2
 60
     1
100
AcDbLine
 10
533.896982
 20
578.921448
 30
0.0
 11
550.965762
 21
578.921448
 31
0.0
  0
ARC
  5
3C7
330
1F
100
AcDbEntity
  8
0
  6
CONTINUOUS
 62
     4
 60
     1
100
AcDbCircle
 10
541.388305
 20
552.551056
 30
0.0
 40
0.3249999999987001
100
AcDbArc
 50
74.256283
 51
105.743717
  0
ARC
  5
3C8
330
1F
100
AcDbEntity
  8
0
  6
CONTINUOUS
 62
     4
 60
     1
100
AcDbCircle
 10
541.388305
 20
552.551056
 30
0.0
 40
0.3249999999987001
100
AcDbArc
 50
164.256283
 51
15.743717
  0
LINE
  5
3C9
330
1F
100
AcDbEntity
  8
0
  6
CONTINUOUS
 62
     4
 60
     1
100
AcDbLine
 10
493.19349
 20
340.494632
 30
0.0
 11
493.19349
 21
339.994632
 31
0.0
  0
ARC
  5
3CA
330
1F
100
AcDbEntity
  8
0
  6
CONTINUOUS
 62
     4
 60
     1
100
AcDbCircle
 10
491.89349
 20
339.994632
 30
0.0
 40
1.299999997019768
100
AcDbArc
 50
270.0
 51
0.0
  0
LINE
  5
3CB
330
1F
100
AcDbEntity
  8
0
  6
CONTINUOUS
 62
     4
 60
     1
100
AcDbLine
 10
491.89349
 20
338.694632
 30
0.0
 11
466.09349
 21
338.694632
 31
0.0
  0
LINE
  5
3CC
330
1F
100
AcDbEntity
  8
0
  6
CONTINUOUS
 62
     4
 60
     1
100
AcDbLine
 10
493.39349
 20
339.994632
 30
0.0
 11
493.19349
 21
339.994632
 31
0.0
  0
LINE
  5
3CD
330
1F
100
AcDbEntity
  8
0
  6
CONTINUOUS
 62
     4
 60
     1
100
AcDbLine
 10
491.89349
 20
338.694632
 30
0.0
 11
491.89349
 21
338.494632
 31
0.0
  0
LINE
  5
3CE
330
1F
100
AcDbEntity
  8
0
  6
CONTINUOUS
 62
     4
 60
     1
100
AcDbLine
 10
510.39349
 20
349.694632
 30
0.0
 11
493.39349
 21
349.694632
 31
0.0
  0
ARC
  5
3CF
330
1F
100
AcDbEntity
  8
0
  6
CONTINUOUS
 62
     4
 60
     1
100
AcDbCircle
 10
510.39349
 20
350.994632
 30
0.0
 40
1.299999997019775
100
AcDbArc
 50
270.0
 51
0.0
  0
LINE
  5
3D0
330
1F
100
AcDbEntity
  8
0
  6
CONTINUOUS
 62
     4
 60
     1
100
AcDbLine
 10
510.39349
 20
349.694632
 30
0.0
 11
510.39349
 21
349.494632
 31
0.0
  0
LINE
  5
3D1
330
1F
100
AcDbEntity
  8
0
  6
CONTINUOUS
 62
     4
 60
     1
100
AcDbLine
 10
522.89349
 20
358.194632
 30
0.0
 11
511.89349
 21
358.194632
 31
0.0
  0
LINE
  5
3D2
330
1F
100
AcDbEntity
  8
0
  6
CONTINUOUS
 62
     4
 60
     1
100
AcDbLine
 10
522.89349
 20
402.794632
 30
0.0
 11
511.89349
 21
402.794632
 31
0.0
  0
LINE
  5
3D3
330
1F
100
AcDbEntity
  8
0
  6
CONTINUOUS
 62
     4
 60
     1
100
AcDbLine
 10
510.39349
 20
411.294632
 30
0.0
 11
466.265404
 21
411.294632
 31
0.0
  0
ARC
  5
3D4
330
1F
100
AcDbEntity
  8
0
  6
CONTINUOUS
 62
     4
 60
     1
100
AcDbCircle
 10
510.39349
 20
409.994632
 30
0.0
 40
1.299999997019768
100
AcDbArc
 50
0.0
 51
90.0
  0
LINE
  5
3D5
330
1F
100
AcDbEntity
  8
0
  6
CONTINUOUS
 62
     4
 60
     1
100
AcDbLine
 10
468.205001
 20
422.294632
 30
0.0
 11
491.89349
 21
422.294632
 31
0.0
  0
ARC
  5
3D6
330
1F
100
AcDbEntity
  8
0
  6
CONTINUOUS
 62
     4
 60
     1
100
AcDbCircle
 10
-491.89349
 20
420.994632
 30
0.0
 40
1.299999997019768
210
0.0
220
0.0
230
-1.0
100
AcDbArc
 50
90.0
 51
180.0
  0
LINE
  5
3D7
330
1F
100
AcDbEntity
  8
0
  6
CONTINUOUS
 62
     4
 60
     1
100
AcDbLine
 10
510.39349
 20
411.294632
 30
0.0
 11
510.39349
 21
411.494632
 31
0.0
  0
LINE
  5
3D8
330
1F
100
AcDbEntity
  8
0
  6
CONTINUOUS
 62
     4
 60
     1
100
AcDbLine
 10
491.89349
 20
422.494632
 30
0.0
 11
491.89349
 21
422.294632
 31
0.0
  0
LINE
  5
3D9
330
1F
100
AcDbEntity
  8
0
  6
CONTINUOUS
 62
     4
 60
     1
100
AcDbLine
 10
493.19349
 20
349.494632
 30
0.0
 11
493.19349
 21
340.494632
 31
0.0
  0
LINE
  5
3DA
330
1F
100
AcDbEntity
  8
0
  6
CONTINUOUS
 62
     4
 60
     1
100
AcDbLine
 10
511.69349
 20
357.994632
 30
0.0
 11
511.69349
 21
351.494632
 31
0.0
  0
LINE
  5
3DB
330
1F
100
AcDbEntity
  8
0
  6
CONTINUOUS
 62
     4
 60
     1
100
AcDbLine
 10
511.69349
 20
409.494632
 30
0.0
 11
511.69349
 21
402.994632
 31
0.0
  0
LINE
  5
3DC
330
1F
100
AcDbEntity
  8
0
  6
CONTINUOUS
 62
     4
 60
     1
100
AcDbLine
 10
493.19349
 20
420.494632
 30
0.0
 11
493.19349
 21
411.494632
 31
0.0
  0
LINE
  5
3DD
330
1F
100
AcDbEntity
  8
0
  6
CONTINUOUS
 62
     4
 60
     1
100
AcDbLine
 10
522.89349
 20
358.194632
 30
0.0
 11
523.89349
 21
358.194632
 31
0.0
  0
ARC
  5
3DE
330
1F
100
AcDbEntity
  8
0
  6
CONTINUOUS
 62
     4
 60
     1
100
AcDbCircle
 10
523.89349
 20
358.994632
 30
0.0
 40
0.7999999970197695
100
AcDbArc
 50
270.0
 51
0.0
  0
LINE
  5
3DF
330
1F
100
AcDbEntity
  8
0
  6
CONTINUOUS
 62
     4
 60
     1
100
AcDbLine
 10
524.69349
 20
358.994632
 30
0.0
 11
524.69349
 21
401.994632
 31
0.0
  0
ARC
  5
3E0
330
1F
100
AcDbEntity
  8
0
  6
CONTINUOUS
 62
     4
 60
     1
100
AcDbCircle
 10
-523.89349
 20
401.994632
 30
0.0
 40
0.7999999970197678
210
0.0
220
0.0
230
-1.0
100
AcDbArc
 50
90.0
 51
180.0
  0
LINE
  5
3E1
330
1F
100
AcDbEntity
  8
0
  6
CONTINUOUS
 62
     4
 60
     1
100
AcDbLine
 10
523.89349
 20
402.794632
 30
0.0
 11
522.89349
 21
402.794632
 31
0.0
  0
LINE
  5
3E2
330
1F
100
AcDbEntity
  8
0
  6
CONTINUOUS
 62
     4
 60
     1
100
AcDbLine
 10
523.89349
 20
357.994632
 30
0.0
 11
523.89349
 21
358.194632
 31
0.0
  0
LINE
  5
3E3
330
1F
100
AcDbEntity
  8
0
  6
CONTINUOUS
 62
     4
 60
     1
100
AcDbLine
 10
524.89349
 20
358.994632
 30
0.0
 11
524.69349
 21
358.994632
 31
0.0
  0
LINE
  5
3E4
330
1F
100
AcDbEntity
  8
0
  6
CONTINUOUS
 62
     4
 60
     1
100
AcDbLine
 10
524.69349
 20
401.994632
 30
0.0
 11
524.89349
 21
401.994632
 31
0.0
  0
LINE
  5
3E5
330
1F
100
AcDbEntity
  8
0
  6
CONTINUOUS
 62
     4
 60
     1
100
AcDbLine
 10
523.89349
 20
402.794632
 30
0.0
 11
523.89349
 21
402.994632
 31
0.0
  0
LINE
  5
3E6
330
1F
100
AcDbEntity
  8
0
  6
CONTINUOUS
 62
     4
 60
     1
100
AcDbLine
 10
468.393489
 20
334.069385
 30
0.0
 11
464.593489
 21
334.069385
 31
0.0
  0
LINE
  5
3E7
330
1F
100
AcDbEntity
  8
0
  6
CONTINUOUS
 62
     4
 60
     1
100
AcDbLine
 10
468.393489
 20
335.944631
 30
0.0
 11
464.593489
 21
335.944631
 31
0.0
  0
LINE
  5
3E8
330
1F
100
AcDbEntity
  8
0
  6
CONTINUOUS
 62
     4
 60
     1
100
AcDbLine
 10
436.984541
 20
340.494632
 30
0.0
 11
436.984541
 21
339.994632
 31
0.0
  0
LINE
  5
3E9
330
1F
100
AcDbEntity
  8
0
  6
CONTINUOUS
 62
     4
 60
     1
100
AcDbLine
 10
436.984541
 20
339.994632
 30
0.0
 11
436.984541
 21
338.494632
 31
0.0
  0
LINE
  5
3EA
330
1F
100
AcDbEntity
  8
0
  6
CONTINUOUS
 62
     4
 60
     1
100
AcDbLine
 10
402.784541
 20
340.494632
 30
0.0
 11
402.784541
 21
339.994632
 31
0.0
  0
LINE
  5
3EB
330
1F
100
AcDbEntity
  8
0
  6
CONTINUOUS
 62
     4
 60
     1
100
AcDbLine
 10
402.784541
 20
339.994632
 30
0.0
 11
402.784541
 21
338.494632
 31
0.0
  0
LINE
  5
3EC
330
1F
100
AcDbEntity
  8
0
  6
CONTINUOUS
 62
     4
 60
     1
100
AcDbLine
 10
437.184541
 20
339.994632
 30
0.0
 11
436.984541
 21
339.994632
 31
0.0
  0
LINE
  5
3ED
330
1F
100
AcDbEntity
  8
0
  6
CONTINUOUS
 62
     4
 60
     1
100
AcDbLine
 10
402.784541
 20
339.994632
 30
0.0
 11
436.984541
 21
339.994632
 31
0.0
  0
LINE
  5
3EE
330
1F
100
AcDbEntity
  8
0
  6
CONTINUOUS
 62
     4
 60
     1
100
AcDbLine
 10
402.784541
 20
339.994632
 30
0.0
 11
402.584541
 21
339.994632
 31
0.0
  0
LINE
  5
3EF
330
1F
100
AcDbEntity
  8
0
  6
CONTINUOUS
 62
     4
 60
     1
100
AcDbLine
 10
436.984541
 20
350.994632
 30
0.0
 11
436.984541
 21
349.494632
 31
0.0
  0
LINE
  5
3F0
330
1F
100
AcDbEntity
  8
0
  6
CONTINUOUS
 62
     4
 60
     1
100
AcDbLine
 10
402.784541
 20
350.994632
 30
0.0
 11
402.784541
 21
349.494632
 31
0.0
  0
LINE
  5
3F1
330
1F
100
AcDbEntity
  8
0
  6
CONTINUOUS
 62
     1
 60
     1
100
AcDbLine
 10
436.984541
 20
350.994632
 30
0.0
 11
437.184541
 21
350.994632
 31
0.0
  0
LINE
  5
3F2
330
1F
100
AcDbEntity
  8
0
  6
CONTINUOUS
 62
     1
 60
     1
100
AcDbLine
 10
402.584541
 20
350.994632
 30
0.0
 11
402.784541
 21
350.994632
 31
0.0
  0
LINE
  5
3F3
330
1F
100
AcDbEntity
  8
0
  6
CONTINUOUS
 62
     4
 60
     1
100
AcDbLine
 10
402.784541
 20
350.994632
 30
0.0
 11
436.984541
 21
350.994632
 31
0.0
  0
LINE
  5
3F4
330
1F
100
AcDbEntity
  8
0
  6
CONTINUOUS
 62
     4
 60
     1
100
AcDbLine
 10
402.784541
 20
409.994632
 30
0.0
 11
402.784541
 21
411.494632
 31
0.0
  0
LINE
  5
3F5
330
1F
100
AcDbEntity
  8
0
  6
CONTINUOUS
 62
     4
 60
     1
100
AcDbLine
 10
402.784541
 20
420.994632
 30
0.0
 11
402.784541
 21
422.494632
 31
0.0
  0
LINE
  5
3F6
330
1F
100
AcDbEntity
  8
0
  6
CONTINUOUS
 62
     4
 60
     1
100
AcDbLine
 10
436.984541
 20
420.994632
 30
0.0
 11
436.984541
 21
422.494632
 31
0.0
  0
LINE
  5
3F7
330
1F
100
AcDbEntity
  8
0
  6
CONTINUOUS
 62
     4
 60
     1
100
AcDbLine
 10
436.984541
 20
409.994632
 30
0.0
 11
402.784541
 21
409.994632
 31
0.0
  0
LINE
  5
3F8
330
1F
100
AcDbEntity
  8
0
  6
CONTINUOUS
 62
     1
 60
     1
100
AcDbLine
 10
402.784541
 20
409.994632
 30
0.0
 11
402.584541
 21
409.994632
 31
0.0
  0
LINE
  5
3F9
330
1F
100
AcDbEntity
  8
0
  6
CONTINUOUS
 62
     1
 60
     1
100
AcDbLine
 10
402.784541
 20
420.994632
 30
0.0
 11
402.584541
 21
420.994632
 31
0.0
  0
LINE
  5
3FA
330
1F
100
AcDbEntity
  8
0
  6
CONTINUOUS
 62
     1
 60
     1
100
AcDbLine
 10
437.184541
 20
420.994632
 30
0.0
 11
436.984541
 21
420.994632
 31
0.0
  0
LINE
  5
3FB
330
1F
100
AcDbEntity
  8
0
  6
CONTINUOUS
 62
     4
 60
     1
100
AcDbLine
 10
436.984541
 20
420.994632
 30
0.0
 11
402.784541
 21
420.994632
 31
0.0
  0
LINE
  5
3FC
330
1F
100
AcDbEntity
  8
0
  6
CONTINUOUS
 62
     4
 60
     1
100
AcDbLine
 10
437.184541
 20
340.494632
 30
0.0
 11
437.184541
 21
349.494632
 31
0.0
  0
LINE
  5
3FD
330
1F
100
AcDbEntity
  8
0
  6
CONTINUOUS
 62
     4
 60
     1
100
AcDbLine
 10
437.184541
 20
351.494632
 30
0.0
 11
437.184541
 21
357.994632
 31
0.0
  0
LINE
  5
3FE
330
1F
100
AcDbEntity
  8
0
  6
CONTINUOUS
 62
     4
 60
     1
100
AcDbLine
 10
402.584541
 20
349.494632
 30
0.0
 11
402.584541
 21
340.494632
 31
0.0
  0
LINE
  5
3FF
330
1F
100
AcDbEntity
  8
0
  6
CONTINUOUS
 62
     4
 60
     1
100
AcDbLine
 10
402.584541
 20
357.994632
 30
0.0
 11
402.584541
 21
351.494632
 31
0.0
  0
LINE
  5
400
330
1F
100
AcDbEntity
  8
0
  6
CONTINUOUS
 62
     4
 60
     1
100
AcDbLine
 10
402.584541
 20
409.494632
 30
0.0
 11
402.584541
 21
402.994632
 31
0.0
  0
LINE
  5
401
330
1F
100
AcDbEntity
  8
0
  6
CONTINUOUS
 62
     4
 60
     1
100
AcDbLine
 10
437.184541
 20
402.994632
 30
0.0
 11
437.184541
 21
409.494632
 31
0.0
  0
LINE
  5
402
330
1F
100
AcDbEntity
  8
0
  6
CONTINUOUS
 62
     4
 60
     1
100
AcDbLine
 10
437.184541
 20
411.494632
 30
0.0
 11
437.184541
 21
420.494632
 31
0.0
  0
LINE
  5
403
330
1F
100
AcDbEntity
  8
0
  6
CONTINUOUS
 62
     4
 60
     1
100
AcDbLine
 10
402.584541
 20
420.494632
 30
0.0
 11
402.584541
 21
411.494632
 31
0.0
  0
LINE
  5
404
330
1F
100
AcDbEntity
  8
0
  6
CONTINUOUS
 62
     1
 60
     1
100
AcDbLine
 10
437.184541
 20
340.494632
 30
0.0
 11
436.984541
 21
340.494632
 31
0.0
  0
LINE
  5
405
330
1F
100
AcDbEntity
  8
0
  6
CONTINUOUS
 62
     1
 60
     1
100
AcDbLine
 10
402.584541
 20
340.494632
 30
0.0
 11
402.784541
 21
340.494632
 31
0.0
  0
LINE
  5
406
330
1F
100
AcDbEntity
  8
0
  6
CONTINUOUS
 62
     1
 60
     1
100
AcDbLine
 10
426.984541
 20
414.194757
 30
0.0
 11
426.984541
 21
414.244632
 31
0.0
  0
LINE
  5
407
330
1F
100
AcDbEntity
  8
0
  6
CONTINUOUS
 62
     1
 60
     1
100
AcDbLine
 10
412.784541
 20
414.244632
 30
0.0
 11
412.784541
 21
414.194757
 31
0.0
  0
ARC
  5
408
330
1F
100
AcDbEntity
  8
0
  6
CONTINUOUS
 62
     4
 60
     1
100
AcDbCircle
 10
-419.884541
 20
363.894632
 30
0.0
 40
3.521971076513427
210
0.0
220
0.0
230
-1.0
100
AcDbArc
 50
0.0
 51
180.0
  0
ARC
  5
409
330
1F
100
AcDbEntity
  8
0
  6
CONTINUOUS
 62
     4
 60
     1
100
AcDbCircle
 10
-419.884541
 20
363.894632
 30
0.0
 40
3.521971076513427
210
0.0
220
0.0
230
-1.0
100
AcDbArc
 50
180.0
 51
0.0
  0
LINE
  5
40A
330
1F
100
AcDbEntity
  8
0
  6
CONTINUOUS
 62
     4
 60
     1
100
AcDbLine
 10
423.964447
 20
363.894632
 30
0.0
 11
423.406512
 21
363.894632
 31
0.0
  0
LINE
  5
40B
330
1F
100
AcDbEntity
  8
0
  6
CONTINUOUS
 62
     4
 60
     1
100
AcDbLine
 10
415.804634
 20
363.894632
 30
0.0
 11
416.362569
 21
363.894632
 31
0.0
  0
SPLINE
  5
40C
330
1F
100
AcDbEntity
  8
0
  6
CONTINUOUS
 62
     4
 60
     1
100
AcDbSpline
210
0.0
220
0.0
230
1.0
 70
     8
 71
     3
 72
    15
 73
    11
 74
     0
 42
0.0
 43
0.0
 40
0.0
 40
0.0
 40
0.0
 40
0.0
 40
0.2340718040248117
 40
0.4057364178430903
 40
0.7749356399682671
 40
1.039988205950952
 40
1.697547807914143
 40
2.300745726801987
 40
2.884700582264849
 40
3.560815905726573
 40
3.560815905726573
 40
3.560815905726573
 40
3.560815905726573
 10
416.3223302084452
 20
359.2279651006063
 30
0.0
 10
416.3813969250827
 20
359.182877657484
 30
0.0
 10
416.4932795103855
 20
359.118253688693
 30
0.0
 10
416.7168813440619
 20
359.0207552128987
 30
0.0
 10
416.9579370837461
 20
358.9460996764465
 30
0.0
 10
417.3506766042601
 20
358.8579077379997
 30
0.0
 10
417.8221569055677
 20
358.796127774244
 30
0.0
 10
418.3983849242711
 20
358.7624254462709
 30
0.0
 10
418.9850469101607
 20
358.7517669603627
 30
0.0
 10
419.3843071340468
 20
358.7517745807583
 30
0.0
 10
419.5988277754993
 20
358.7517745807583
 30
0.0
  0
LINE
  5
40D
330
1F
100
AcDbEntity
  8
0
  6
CONTINUOUS
 62
     4
 60
     1
100
AcDbLine
 10
419.598826
 20
358.751775
 30
0.0
 11
420.170255
 21
358.751775
 31
0.0
  0
SPLINE
  5
40E
330
1F
100
AcDbEntity
  8
0
  6
CONTINUOUS
 62
     4
 60
     1
100
AcDbSpline
210
0.0
220
0.0
230
1.0
 70
     8
 71
     3
 72
    15
 73
    11
 74
     0
 42
0.0
 43
0.0
 40
0.0
 40
0.0
 40
0.0
 40
0.0
 40
0.7529489202125729
 40
1.377810906010246
 40
2.001381606045872
 40
2.531191967429613
 40
2.797757452272694
 40
3.170652150341556
 40
3.358118696794875
 40
3.560829300910688
 40
3.560829300910688
 40
3.560829300910688
 40
3.560829300910688
 10
420.170253291955
 20
358.7517745807415
 30
0.0
 10
420.4091520119519
 20
358.7517745807415
 30
0.0
 10
420.8456389418056
 20
358.7516818131191
 30
0.0
 10
421.4750618441657
 20
358.7659450556133
 30
0.0
 10
422.0294807631279
 20
358.8048999161625
 30
0.0
 10
422.4672591672539
 20
358.8683496781704
 30
0.0
 10
422.8225622556773
 20
358.9490876650274
 30
0.0
 10
423.0696470223705
 20
359.026728524391
 30
0.0
 10
423.2890406266833
 20
359.1251359916006
 30
0.0
 10
423.3955979671614
 20
359.1889185231194
 30
0.0
 10
423.4467508595937
 20
359.2279651006063
 30
0.0
  0
ARC
  5
40F
330
1F
100
AcDbEntity
  8
0
  6
CONTINUOUS
 62
     4
 60
     1
100
AcDbCircle
 10
-419.884541
 20
363.894632
 30
0.0
 40
5.870870479018073
210
0.0
220
0.0
230
-1.0
100
AcDbArc
 50
307.355608
 51
180.0
  0
ARC
  5
410
330
1F
100
AcDbEntity
  8
0
  6
CONTINUOUS
 62
     4
 60
     1
100
AcDbCircle
 10
-419.884541
 20
363.894632
 30
0.0
 40
5.870870479018073
210
0.0
220
0.0
230
-1.0
100
AcDbArc
 50
180.0
 51
232.644392
  0
LINE
  5
411
330
1F
100
AcDbEntity
  8
0
  6
CONTINUOUS
 62
     4
 60
     1
100
AcDbLine
 10
416.14422
 20
358.994632
 30
0.0
 11
416.32233
 21
359.227965
 31
0.0
  0
ELLIPSE
  5
412
330
1F
100
AcDbEntity
  8
0
  6
CONTINUOUS
 62
     4
 60
     1
100
AcDbEllipse
 10
419.584542
 20
358.494632
 30
0.0
 11
0.0
 21
0.5
 31
0.0
210
0.0
220
0.0
230
-1.0
 40
0.033315
 41
1.030621803321387
 42
3.141592653589736
  0
ELLIPSE
  5
413
330
1F
100
AcDbEntity
  8
0
  6
CONTINUOUS
 62
     4
 60
     1
100
AcDbEllipse
 10
420.184541
 20
358.494632
 30
0.0
 11
2.960594732331920E-17
 21
0.5000000000000036
 31
0.0
210
0.0
220
0.0
230
1.0
 40
0.033315
 41
1.030621756488317
 42
3.141592653589736
  0
LINE
  5
414
330
1F
100
AcDbEntity
  8
0
  6
CONTINUOUS
 62
     4
 60
     1
100
AcDbLine
 10
423.446751
 20
359.227965
 30
0.0
 11
423.624861
 21
358.994632
 31
0.0
  0
LINE
  5
415
330
1F
100
AcDbEntity
  8
0
  6
CONTINUOUS
 62
     4
 60
     1
100
AcDbLine
 10
425.755411
 20
363.894632
 30
0.0
 11
426.048955
 21
363.894632
 31
0.0
  0
LINE
  5
416
330
1F
100
AcDbEntity
  8
0
  6
CONTINUOUS
 62
     4
 60
     1
100
AcDbLine
 10
436.984541
 20
401.994632
 30
0.0
 11
436.984541
 21
402.994632
 31
0.0
  0
LINE
  5
417
330
1F
100
AcDbEntity
  8
0
  6
CONTINUOUS
 62
     4
 60
     1
100
AcDbLine
 10
436.984541
 20
401.994632
 30
0.0
 11
436.984541
 21
358.994632
 31
0.0
  0
LINE
  5
418
330
1F
100
AcDbEntity
  8
0
  6
CONTINUOUS
 62
     4
 60
     1
100
AcDbLine
 10
436.984541
 20
357.994632
 30
0.0
 11
436.984541
 21
358.994632
 31
0.0
  0
LINE
  5
419
330
1F
100
AcDbEntity
  8
0
  6
CONTINUOUS
 62
     4
 60
     1
100
AcDbLine
 10
402.784541
 20
357.994632
 30
0.0
 11
402.784541
 21
358.994632
 31
0.0
  0
LINE
  5
41A
330
1F
100
AcDbEntity
  8
0
  6
CONTINUOUS
 62
     4
 60
     1
100
AcDbLine
 10
402.784541
 20
358.994632
 30
0.0
 11
402.784541
 21
401.994632
 31
0.0
  0
LINE
  5
41B
330
1F
100
AcDbEntity
  8
0
  6
CONTINUOUS
 62
     4
 60
     1
100
AcDbLine
 10
402.784541
 20
401.994632
 30
0.0
 11
402.784541
 21
402.994632
 31
0.0
  0
LINE
  5
41C
330
1F
100
AcDbEntity
  8
0
  6
CONTINUOUS
 62
     4
 60
     1
100
AcDbLine
 10
437.184541
 20
401.994632
 30
0.0
 11
436.984541
 21
401.994632
 31
0.0
  0
LINE
  5
41D
330
1F
100
AcDbEntity
  8
0
  6
CONTINUOUS
 62
     4
 60
     1
100
AcDbLine
 10
423.624861
 20
358.994632
 30
0.0
 11
436.984541
 21
358.994632
 31
0.0
  0
LINE
  5
41E
330
1F
100
AcDbEntity
  8
0
  6
CONTINUOUS
 62
     4
 60
     1
100
AcDbLine
 10
436.984541
 20
358.994632
 30
0.0
 11
437.184541
 21
358.994632
 31
0.0
  0
LINE
  5
41F
330
1F
100
AcDbEntity
  8
0
  6
CONTINUOUS
 62
     4
 60
     1
100
AcDbLine
 10
416.14422
 20
358.994632
 30
0.0
 11
402.784541
 21
358.994632
 31
0.0
  0
LINE
  5
420
330
1F
100
AcDbEntity
  8
0
  6
CONTINUOUS
 62
     4
 60
     1
100
AcDbLine
 10
402.784541
 20
358.994632
 30
0.0
 11
402.584541
 21
358.994632
 31
0.0
  0
LINE
  5
421
330
1F
100
AcDbEntity
  8
0
  6
CONTINUOUS
 62
     4
 60
     1
100
AcDbLine
 10
436.984541
 20
401.994632
 30
0.0
 11
402.784541
 21
401.994632
 31
0.0
  0
LINE
  5
422
330
1F
100
AcDbEntity
  8
0
  6
CONTINUOUS
 62
     4
 60
     1
100
AcDbLine
 10
402.584541
 20
401.994632
 30
0.0
 11
402.784541
 21
401.994632
 31
0.0
  0
LINE
  5
423
330
1F
100
AcDbEntity
  8
0
  6
CONTINUOUS
 62
     1
 60
     1
100
AcDbLine
 10
433.507034
 20
414.244632
 30
0.0
 11
432.512047
 21
414.244632
 31
0.0
  0
LINE
  5
424
330
1F
100
AcDbEntity
  8
0
  6
CONTINUOUS
 62
     1
 60
     1
100
AcDbLine
 10
434.316268
 20
414.563326
 30
0.0
 11
434.284177
 21
414.930134
 31
0.0
  0
LINE
  5
425
330
1F
100
AcDbEntity
  8
0
  6
CONTINUOUS
 62
     1
 60
     1
100
AcDbLine
 10
431.734904
 20
414.930134
 30
0.0
 11
431.702813
 21
414.563326
 31
0.0
  0
ARC
  5
426
330
1F
100
AcDbEntity
  8
0
  6
CONTINUOUS
 62
     4
 60
     1
100
AcDbCircle
 10
433.009541
 20
416.844632
 30
0.0
 40
1.999999988079071
100
AcDbArc
 50
289.853441
 51
86.779523
  0
ARC
  5
427
330
1F
100
AcDbEntity
  8
0
  6
CONTINUOUS
 62
     4
 60
     1
100
AcDbCircle
 10
-433.009541
 20
416.844632
 30
0.0
 40
1.999999988079071
210
0.0
220
0.0
230
-1.0
100
AcDbArc
 50
273.220477
 51
70.146559
  0
LINE
  5
428
330
1F
100
AcDbEntity
  8
0
  6
CONTINUOUS
 62
     1
 60
     1
100
AcDbLine
 10
427.507034
 20
414.244632
 30
0.0
 11
426.512047
 21
414.244632
 31
0.0
  0
LINE
  5
429
330
1F
100
AcDbEntity
  8
0
  6
CONTINUOUS
 62
     1
 60
     1
100
AcDbLine
 10
428.316268
 20
414.563326
 30
0.0
 11
428.284177
 21
414.930134
 31
0.0
  0
LINE
  5
42A
330
1F
100
AcDbEntity
  8
0
  6
CONTINUOUS
 62
     1
 60
     1
100
AcDbLine
 10
425.734904
 20
414.930134
 30
0.0
 11
425.702813
 21
414.563326
 31
0.0
  0
ARC
  5
42B
330
1F
100
AcDbEntity
  8
0
  6
CONTINUOUS
 62
     4
 60
     1
100
AcDbCircle
 10
427.009541
 20
416.844632
 30
0.0
 40
1.999999988079071
100
AcDbArc
 50
289.853441
 51
86.779523
  0
ARC
  5
42C
330
1F
100
AcDbEntity
  8
0
  6
CONTINUOUS
 62
     4
 60
     1
100
AcDbCircle
 10
-427.009541
 20
416.844632
 30
0.0
 40
1.999999988079071
210
0.0
220
0.0
230
-1.0
100
AcDbArc
 50
273.220477
 51
70.146559
  0
LINE
  5
42D
330
1F
100
AcDbEntity
  8
0
  6
CONTINUOUS
 62
     1
 60
     1
100
AcDbLine
 10
413.257034
 20
414.244632
 30
0.0
 11
412.262047
 21
414.244632
 31
0.0
  0
LINE
  5
42E
330
1F
100
AcDbEntity
  8
0
  6
CONTINUOUS
 62
     1
 60
     1
100
AcDbLine
 10
414.066268
 20
414.563326
 30
0.0
 11
414.034177
 21
414.930134
 31
0.0
  0
LINE
  5
42F
330
1F
100
AcDbEntity
  8
0
  6
CONTINUOUS
 62
     1
 60
     1
100
AcDbLine
 10
411.484904
 20
414.930134
 30
0.0
 11
411.452813
 21
414.563326
 31
0.0
  0
ARC
  5
430
330
1F
100
AcDbEntity
  8
0
  6
CONTINUOUS
 62
     4
 60
     1
100
AcDbCircle
 10
412.759541
 20
416.844632
 30
0.0
 40
1.999999988079071
100
AcDbArc
 50
289.853441
 51
86.779523
  0
ARC
  5
431
330
1F
100
AcDbEntity
  8
0
  6
CONTINUOUS
 62
     4
 60
     1
100
AcDbCircle
 10
-412.759541
 20
416.844632
 30
0.0
 40
1.999999988079071
210
0.0
220
0.0
230
-1.0
100
AcDbArc
 50
273.220477
 51
70.146559
  0
LINE
  5
432
330
1F
100
AcDbEntity
  8
0
  6
CONTINUOUS
 62
     1
 60
     1
100
AcDbLine
 10
407.257034
 20
414.244632
 30
0.0
 11
406.262047
 21
414.244632
 31
0.0
  0
LINE
  5
433
330
1F
100
AcDbEntity
  8
0
  6
CONTINUOUS
 62
     1
 60
     1
100
AcDbLine
 10
408.066268
 20
414.563326
 30
0.0
 11
408.034177
 21
414.930134
 31
0.0
  0
LINE
  5
434
330
1F
100
AcDbEntity
  8
0
  6
CONTINUOUS
 62
     1
 60
     1
100
AcDbLine
 10
405.484904
 20
414.930134
 30
0.0
 11
405.452813
 21
414.563326
 31
0.0
  0
ARC
  5
435
330
1F
100
AcDbEntity
  8
0
  6
CONTINUOUS
 62
     4
 60
     1
100
AcDbCircle
 10
406.759541
 20
416.844632
 30
0.0
 40
1.999999988079071
100
AcDbArc
 50
289.853441
 51
86.779523
  0
ARC
  5
436
330
1F
100
AcDbEntity
  8
0
  6
CONTINUOUS
 62
     4
 60
     1
100
AcDbCircle
 10
-406.759541
 20
416.844632
 30
0.0
 40
1.999999988079071
210
0.0
220
0.0
230
-1.0
100
AcDbArc
 50
273.220477
 51
70.146559
  0
LINE
  5
437
330
1F
100
AcDbEntity
  8
0
  6
CONTINUOUS
 62
     1
 60
     1
100
AcDbLine
 10
406.262047
 20
346.744632
 30
0.0
 11
407.257034
 21
346.744632
 31
0.0
  0
LINE
  5
438
330
1F
100
AcDbEntity
  8
0
  6
CONTINUOUS
 62
     1
 60
     1
100
AcDbLine
 10
405.452813
 20
346.425937
 30
0.0
 11
405.484904
 21
346.05913
 31
0.0
  0
LINE
  5
439
330
1F
100
AcDbEntity
  8
0
  6
CONTINUOUS
 62
     1
 60
     1
100
AcDbLine
 10
408.034177
 20
346.05913
 30
0.0
 11
408.066268
 21
346.425937
 31
0.0
  0
ARC
  5
43A
330
1F
100
AcDbEntity
  8
0
  6
CONTINUOUS
 62
     4
 60
     1
100
AcDbCircle
 10
406.759541
 20
344.144632
 30
0.0
 40
1.999999988079071
100
AcDbArc
 50
109.853441
 51
266.779523
  0
ARC
  5
43B
330
1F
100
AcDbEntity
  8
0
  6
CONTINUOUS
 62
     4
 60
     1
100
AcDbCircle
 10
-406.759541
 20
344.144632
 30
0.0
 40
1.999999988079071
210
0.0
220
0.0
230
-1.0
100
AcDbArc
 50
93.220477
 51
250.146559
  0
LINE
  5
43C
330
1F
100
AcDbEntity
  8
0
  6
CONTINUOUS
 62
     1
 60
     1
100
AcDbLine
 10
412.262047
 20
346.744632
 30
0.0
 11
413.257034
 21
346.744632
 31
0.0
  0
LINE
  5
43D
330
1F
100
AcDbEntity
  8
0
  6
CONTINUOUS
 62
     1
 60
     1
100
AcDbLine
 10
411.452813
 20
346.425937
 30
0.0
 11
411.484904
 21
346.05913
 31
0.0
  0
LINE
  5
43E
330
1F
100
AcDbEntity
  8
0
  6
CONTINUOUS
 62
     1
 60
     1
100
AcDbLine
 10
414.034177
 20
346.05913
 30
0.0
 11
414.066268
 21
346.425937
 31
0.0
  0
ARC
  5
43F
330
1F
100
AcDbEntity
  8
0
  6
CONTINUOUS
 62
     4
 60
     1
100
AcDbCircle
 10
412.759541
 20
344.144632
 30
0.0
 40
1.999999988079071
100
AcDbArc
 50
109.853441
 51
266.779523
  0
ARC
  5
440
330
1F
100
AcDbEntity
  8
0
  6
CONTINUOUS
 62
     4
 60
     1
100
AcDbCircle
 10
-412.759541
 20
344.144632
 30
0.0
 40
1.999999988079071
210
0.0
220
0.0
230
-1.0
100
AcDbArc
 50
93.220477
 51
250.146559
  0
LINE
  5
441
330
1F
100
AcDbEntity
  8
0
  6
CONTINUOUS
 62
     1
 60
     1
100
AcDbLine
 10
418.262047
 20
346.744632
 30
0.0
 11
419.257034
 21
346.744632
 31
0.0
  0
LINE
  5
442
330
1F
100
AcDbEntity
  8
0
  6
CONTINUOUS
 62
     1
 60
     1
100
AcDbLine
 10
417.452813
 20
346.425937
 30
0.0
 11
417.484904
 21
346.05913
 31
0.0
  0
LINE
  5
443
330
1F
100
AcDbEntity
  8
0
  6
CONTINUOUS
 62
     1
 60
     1
100
AcDbLine
 10
420.034177
 20
346.05913
 30
0.0
 11
420.066268
 21
346.425937
 31
0.0
  0
ARC
  5
444
330
1F
100
AcDbEntity
  8
0
  6
CONTINUOUS
 62
     4
 60
     1
100
AcDbCircle
 10
418.759541
 20
344.144632
 30
0.0
 40
1.999999988079071
100
AcDbArc
 50
109.853441
 51
266.779523
  0
ARC
  5
445
330
1F
100
AcDbEntity
  8
0
  6
CONTINUOUS
 62
     4
 60
     1
100
AcDbCircle
 10
-418.759541
 20
344.144632
 30
0.0
 40
1.999999988079071
210
0.0
220
0.0
230
-1.0
100
AcDbArc
 50
93.220477
 51
250.146559
  0
LINE
  5
446
330
1F
100
AcDbEntity
  8
0
  6
CONTINUOUS
 62
     1
 60
     1
100
AcDbLine
 10
426.512047
 20
346.744632
 30
0.0
 11
427.507034
 21
346.744632
 31
0.0
  0
LINE
  5
447
330
1F
100
AcDbEntity
  8
0
  6
CONTINUOUS
 62
     1
 60
     1
100
AcDbLine
 10
425.702813
 20
346.425937
 30
0.0
 11
425.734904
 21
346.05913
 31
0.0
  0
LINE
  5
448
330
1F
100
AcDbEntity
  8
0
  6
CONTINUOUS
 62
     1
 60
     1
100
AcDbLine
 10
428.284177
 20
346.05913
 30
0.0
 11
428.316268
 21
346.425937
 31
0.0
  0
ARC
  5
449
330
1F
100
AcDbEntity
  8
0
  6
CONTINUOUS
 62
     4
 60
     1
100
AcDbCircle
 10
427.009541
 20
344.144632
 30
0.0
 40
1.999999988079071
100
AcDbArc
 50
109.853441
 51
266.779523
  0
ARC
  5
44A
330
1F
100
AcDbEntity
  8
0
  6
CONTINUOUS
 62
     4
 60
     1
100
AcDbCircle
 10
-427.009541
 20
344.144632
 30
0.0
 40
1.999999988079071
210
0.0
220
0.0
230
-1.0
100
AcDbArc
 50
93.220477
 51
250.146559
  0
LINE
  5
44B
330
1F
100
AcDbEntity
  8
0
  6
CONTINUOUS
 62
     1
 60
     1
100
AcDbLine
 10
431.702813
 20
346.425937
 30
0.0
 11
431.734904
 21
346.05913
 31
0.0
  0
LINE
  5
44C
330
1F
100
AcDbEntity
  8
0
  6
CONTINUOUS
 62
     1
 60
     1
100
AcDbLine
 10
434.284177
 20
346.05913
 30
0.0
 11
434.316268
 21
346.425937
 31
0.0
  0
ARC
  5
44D
330
1F
100
AcDbEntity
  8
0
  6
CONTINUOUS
 62
     4
 60
     1
100
AcDbCircle
 10
433.009541
 20
344.144632
 30
0.0
 40
1.999999988079071
100
AcDbArc
 50
109.853441
 51
266.779523
  0
ARC
  5
44E
330
1F
100
AcDbEntity
  8
0
  6
CONTINUOUS
 62
     4
 60
     1
100
AcDbCircle
 10
-433.009541
 20
344.144632
 30
0.0
 40
1.999999988079071
210
0.0
220
0.0
230
-1.0
100
AcDbArc
 50
93.220477
 51
250.146559
  0
CIRCLE
  5
44F
330
1F
100
AcDbEntity
  8
0
  6
CONTINUOUS
 62
     1
 60
     1
100
AcDbCircle
 10
419.884541
 20
363.894632
 30
0.0
 40
1.65
  0
CIRCLE
  5
450
330
1F
100
AcDbEntity
  8
0
  6
CONTINUOUS
 62
     4
 60
     1
100
AcDbCircle
 10
419.884541
 20
363.894632
 30
0.0
 40
1.349999988079071
  0
CIRCLE
  5
451
330
1F
100
AcDbEntity
  8
0
  6
CONTINUOUS
 62
     4
 60
     1
100
AcDbCircle
 10
419.884541
 20
363.894632
 30
0.0
 40
1.300000011920929
  0
LINE
  5
452
330
1F
100
AcDbEntity
  8
CARTOUCHE
  6
CONTINUOUS
 62
     7
100
AcDbLine
 10
0.0
 20
31.845462
 30
0.0
 11
0.0
 21
0.00011
 31
0.0
  0
INSERT
  5
45B
330
1F
100
AcDbEntity
  8
CARTOUCHE
  6
CONTINUOUS
 62
     7
100
AcDbBlockReference
  2
LW_POLYLINE_1
 10
-87.000153
 20
200.000214
 30
0.0
  0
ARC
  5
45C
330
1F
100
AcDbEntity
  8
DRAW-TEXT
  6
CONTINUOUS
 62
     4
100
AcDbCircle
 10
-19.503436
 20
123.55398
 30
0.0
 40
3.897599999999999
100
AcDbArc
 50
90.0
 51
176.82882
  0
LINE
  5
45D
330
1F
100
AcDbEntity
  8
DRAW-TEXT
  6
CONTINUOUS
 62
     4
100
AcDbLine
 10
-19.503436
 20
127.45158
 30
0.0
 11
-17.7708
 21
127.45158
 31
0.0
  0
ARC
  5
45E
330
1F
100
AcDbEntity
  8
DRAW-TEXT
  6
CONTINUOUS
 62
     4
100
AcDbCircle
 10
-19.503436
 20
108.765885
 30
0.0
 40
3.897599999999999
100
AcDbArc
 50
180.0
 51
270.0
  0
LINE
  5
45F
330
1F
100
AcDbEntity
  8
DRAW-TEXT
  6
CONTINUOUS
 62
     4
100
AcDbLine
 10
-19.503436
 20
104.868285
 30
0.0
 11
-17.807958
 21
104.868285
 31
0.0
  0
LINE
  5
460
330
1F
100
AcDbEntity
  8
DRAW-TEXT
  6
CONTINUOUS
 62
     4
100
AcDbLine
 10
-23.395068
 20
123.769592
 30
0.0
 11
-23.401131
 21
123.603046
 31
0.0
  0
LINE
  5
461
330
1F
100
AcDbEntity
  8
DRAW-TEXT
  6
CONTINUOUS
 62
     5
100
AcDbLine
 10
-19.503436
 20
127.45158
 30
0.0
 11
-19.503436
 21
104.868285
 31
0.0
  0
LINE
  5
462
330
1F
100
AcDbEntity
  8
DRAW-TEXT
  6
CONTINUOUS
 62
     5
100
AcDbLine
 10
-17.807958
 20
104.868285
 30
0.0
 11
-17.7708
 21
127.45158
 31
0.0
  0
ARC
  5
463
330
1F
100
AcDbEntity
  8
DRAW-TEXT
  6
CONTINUOUS
 62
     4
100
AcDbCircle
 10
-34.921131
 20
110.630263
 30
0.0
 40
0.48
100
AcDbArc
 50
180.0
 51
269.872833
  0
ARC
  5
464
330
1F
100
AcDbEntity
  8
DRAW-TEXT
  6
CONTINUOUS
 62
     4
100
AcDbCircle
 10
-34.921131
 20
121.672392
 30
0.0
 40
0.4799999999999999
100
AcDbArc
 50
90.127167
 51
180.0
  0
LINE
  5
465
330
1F
100
AcDbEntity
  8
DRAW-TEXT
  6
CONTINUOUS
 62
     5
100
AcDbLine
 10
-23.401131
 20
122.176896
 30
0.0
 11
-23.401131
 21
110.125759
 31
0.0
  0
LINE
  5
466
330
1F
100
AcDbEntity
  8
DRAW-TEXT
  6
CONTINUOUS
 62
     6
100
AcDbLine
 10
-59.691255
 20
119.899563
 30
0.0
 11
-35.401131
 21
119.899563
 31
0.0
  0
LINE
  5
467
330
1F
100
AcDbEntity
  8
DRAW-TEXT
  6
CONTINUOUS
 62
     6
100
AcDbLine
 10
-58.649593
 20
112.503327
 30
0.0
 11
-35.401131
 21
112.503327
 31
0.0
  0
LINE
  5
468
330
1F
100
AcDbEntity
  8
DRAW-TEXT
  6
CONTINUOUS
 62
     4
100
AcDbLine
 10
56.172202
 20
162.496896
 30
0.0
 11
-17.7708
 21
127.45158
 31
0.0
  0
LINE
  5
469
330
1F
100
AcDbEntity
  8
DRAW-TEXT
  6
CONTINUOUS
 62
     4
100
AcDbLine
 10
-17.807958
 20
104.868285
 30
0.0
 11
56.172202
 21
70.016896
 31
0.0
  0
LINE
  5
46A
330
1F
100
AcDbEntity
  8
DRAW-TEXT
  6
CONTINUOUS
 62
     4
100
AcDbLine
 10
-34.922196
 20
122.15239
 30
0.0
 11
-23.401131
 21
122.15239
 31
0.0
  0
LINE
  5
46B
330
1F
100
AcDbEntity
  8
DRAW-TEXT
  6
CONTINUOUS
 62
     4
100
AcDbLine
 10
-34.922196
 20
110.150264
 30
0.0
 11
-23.401131
 21
110.150264
 31
0.0
  0
LINE
  5
46D
330
1F
100
AcDbEntity
  8
DRAW-TEXT
  6
CENTER2
 62
     5
100
AcDbLine
 10
149.833147
 20
116.203563
 30
0.0
 11
-64.188811
 21
116.203563
 31
0.0
  0
INSERT
  5
475
330
1F
100
AcDbEntity
  8
DRAW-TEXT
  6
CONTINUOUS
 62
     5
100
AcDbBlockReference
  2
SE9
 10
-893.023412
 20
561.094796
 30
0.0
  0
INSERT
  5
4C5
330
1F
100
AcDbEntity
  8
DRAW-TEXT
  6
CONTINUOUS
 62
     4
100
AcDbBlockReference
  2
SE16
 10
-918.463412
 20
561.094796
 30
0.0
  0
INSERT
  5
4CA
330
1F
100
AcDbEntity
  8
DRAW-TEXT
  6
CONTINUOUS
 62
     5
100
AcDbBlockReference
  2
SE17
 10
-918.463412
 20
561.094796
 30
0.0
  0
INSERT
  5
4CF
330
1F
100
AcDbEntity
  8
DRAW-TEXT
  6
CONTINUOUS
 62
     5
100
AcDbBlockReference
  2
SE18
 10
-918.463412
 20
561.094796
 30
0.0
  0
INSERT
  5
4E4
330
1F
100
AcDbEntity
  8
DRAW-TEXT
  6
CONTINUOUS
 62
     4
100
AcDbBlockReference
  2
SE21
 10
-918.463412
 20
561.094796
 30
0.0
  0
INSERT
  5
4E9
330
1F
100
AcDbEntity
  8
DRAW-TEXT
  6
CONTINUOUS
 62
     4
100
AcDbBlockReference
  2
SE22
 10
-918.463412
 20
561.094796
 30
0.0
  0
INSERT
  5
4FB
330
1F
100
AcDbEntity
  8
DRAW-TEXT
  6
CONTINUOUS
 62
     4
100
AcDbBlockReference
  2
SE23
 10
-918.463412
 20
561.094796
 30
0.0
  0
INSERT
  5
500
330
1F
100
AcDbEntity
  8
DRAW-TEXT
  6
CONTINUOUS
 62
     4
100
AcDbBlockReference
  2
SE24
 10
-918.463412
 20
561.094796
 30
0.0
  0
INSERT
  5
505
330
1F
100
AcDbEntity
  8
DRAW-TEXT
  6
CONTINUOUS
 62
     4
100
AcDbBlockReference
  2
SE25
 10
-920.916745
 20
561.201462
 30
0.0
  0
INSERT
  5
50A
330
1F
100
AcDbEntity
  8
DRAW-TEXT
  6
CONTINUOUS
 62
     4
100
AcDbBlockReference
  2
SE27
 10
-918.463412
 20
561.094796
 30
0.0
  0
INSERT
  5
50F
330
1F
100
AcDbEntity
  8
DRAW-TEXT
  6
CONTINUOUS
 62
     4
100
AcDbBlockReference
  2
SE28
 10
-916.010079
 20
561.201462
 30
0.0
  0
INSERT
  5
514
330
1F
100
AcDbEntity
  8
DRAW-TEXT
  6
CONTINUOUS
 62
     4
100
AcDbBlockReference
  2
SE30
 10
-918.463412
 20
561.094796
 30
0.0
  0
INSERT
  5
529
330
1F
100
AcDbEntity
  8
DRAW-TEXT
  6
CONTINUOUS
 62
     4
100
AcDbBlockReference
  2
SE31
 10
-918.463412
 20
561.094796
 30
0.0
  0
INSERT
  5
576
330
1F
100
AcDbEntity
  8
DRAW-TEXT
  6
CONTINUOUS
 62
     4
100
AcDbBlockReference
  2
SE34
 10
-918.463412
 20
561.094796
 30
0.0
  0
INSERT
  5
57B
330
1F
100
AcDbEntity
  8
DRAW-TEXT
  6
CONTINUOUS
 62
     4
100
AcDbBlockReference
  2
SE41
 10
-918.463412
 20
561.094796
 30
0.0
  0
INSERT
  5
588
330
1F
100
AcDbEntity
  8
DRAW-TEXT
  6
CONTINUOUS
 62
     4
100
AcDbBlockReference
  2
SE42
 10
-918.463412
 20
561.094796
 30
0.0
  0
INSERT
  5
595
330
1F
100
AcDbEntity
  8
DRAW-TEXT
  6
CONTINUOUS
 62
     4
100
AcDbBlockReference
  2
SE43
 10
-918.463412
 20
561.094796
 30
0.0
  0
INSERT
  5
59A
330
1F
100
AcDbEntity
  8
DRAW-TEXT
  6
CONTINUOUS
 62
     4
100
AcDbBlockReference
  2
SE44
 10
-918.463412
 20
561.094796
 30
0.0
  0
INSERT
  5
5AC
330
1F
100
AcDbEntity
  8
DRAW-TEXT
  6
CONTINUOUS
 62
     4
100
AcDbBlockReference
  2
SE45
 10
-918.463412
 20
561.094796
 30
0.0
  0
INSERT
  5
5B1
330
1F
100
AcDbEntity
  8
DRAW-TEXT
  6
CONTINUOUS
 62
     4
100
AcDbBlockReference
  2
SE48
 10
-918.463412
 20
561.094796
 30
0.0
  0
INSERT
  5
5B6
330
1F
100
AcDbEntity
  8
DRAW-TEXT
  6
CONTINUOUS
 62
     4
100
AcDbBlockReference
  2
SE49
 10
-918.463412
 20
561.094796
 30
0.0
  0
INSERT
  5
5BB
330
1F
100
AcDbEntity
  8
DRAW-TEXT
  6
CONTINUOUS
 62
     4
100
AcDbBlockReference
  2
SE51
 10
-918.463412
 20
561.094796
 30
0.0
  0
INSERT
  5
5C0
330
1F
100
AcDbEntity
  8
DRAW-TEXT
  6
CONTINUOUS
 62
     4
100
AcDbBlockReference
  2
SE52
 10
-918.463412
 20
561.094796
 30
0.0
  0
INSERT
  5
5C5
330
1F
100
AcDbEntity
  8
DRAW-TEXT
  6
CONTINUOUS
 62
     4
100
AcDbBlockReference
  2
SE251
 10
-920.916745
 20
-328.794337
 30
0.0
  0
INSERT
  5
5CA
330
1F
100
AcDbEntity
  8
DRAW-TEXT
  6
CONTINUOUS
 62
     4
100
AcDbBlockReference
  2
SE281
 10
-916.010079
 20
-328.794337
 30
0.0
  0
LINE
  5
5CB
330
1F
100
AcDbEntity
  8
DIM
  6
CONTINUOUS
 62
     4
100
AcDbLine
 10
-23.401131
 20
110.125759
 30
0.0
 11
-23.401036
 21
108.765885
 31
0.0
  0
LINE
  5
5CC
330
1F
100
AcDbEntity
  8
DRAW-TEXT
  6
CONTINUOUS
 62
     4
100
AcDbLine
 10
-23.401131
 20
122.176896
 30
0.0
 11
-23.401131
 21
123.603046
 31
0.0
  0
LINE
  5
5CD
330
1F
100
AcDbEntity
  8
DRAW-TEXT
  6
CONTINUOUS
 62
     4
100
AcDbLine
 10
-35.401131
 20
121.672392
 30
0.0
 11
-35.401131
 21
119.899563
 31
0.0
  0
LINE
  5
5CE
330
1F
100
AcDbEntity
  8
DRAW-TEXT
  6
CONTINUOUS
 62
     4
100
AcDbLine
 10
-35.401131
 20
119.899563
 30
0.0
 11
-35.401131
 21
112.503327
 31
0.0
  0
LINE
  5
5CF
330
1F
100
AcDbEntity
  8
DRAW-TEXT
  6
CONTINUOUS
 62
     4
100
AcDbLine
 10
-35.401131
 20
112.503327
 30
0.0
 11
-35.401131
 21
110.630263
 31
0.0
  0
DIMENSION
  5
5D0
330
1F
100
AcDbEntity
  8
DIM
  6
CONTINUOUS
 62
     3
100
AcDbDimension
  2
*D30
 10
161.254791
 20
171.136896
 30
0.0
 11
157.621791
 21
116.203563
 31
0.0
 70
    33
  1
Ø109
  3
FINDER
100
AcDbAlignedDimension
 13
95.532202
 23
61.270229
 33
0.0
 14
95.532202
 24
171.136896
 34
0.0
1001
ACAD
1000
DSTYLE
1002
{
1070
     5
1000
CLOSED
1070
    41
1040
1.2
1070
   176
1070
     3
1070
   177
1070
     3
1070
   271
1070
     0
1070
    42
1040
1.05
1070
   147
1040
1.75
1002
}
  0
DIMENSION
  5
5DD
330
1F
100
AcDbEntity
  8
DIM
  6
CONTINUOUS
 62
     3
100
AcDbDimension
  2
*D31
 10
-23.395068
 20
184.632568
 30
0.0
 11
-29.398099
 21
188.139568
 31
0.0
 70
    32
  1
<>
  3
FINDER
100
AcDbAlignedDimension
 13
-35.401131
 23
121.672392
 33
0.0
 14
-23.395068
 24
123.769592
 34
0.0
100
AcDbRotatedDimension
1001
ACAD
1000
DSTYLE
1002
{
1070
     5
1000
CLOSED
1070
    41
1040
1.2
1070
   176
1070
     3
1070
   177
1070
     3
1070
   271
1070
     1
1070
    42
1040
1.05
1070
   147
1040
1.75
1002
}
  0
DIMENSION
  5
5EA
330
1F
100
AcDbEntity
  8
DIM
  6
CONTINUOUS
 62
     3
100
AcDbDimension
  2
*D32
 10
-23.401131
 20
184.498108
 30
0.0
 11
61.025536
 21
188.034858
 31
0.0
 70
    32
  1
167.5
  3
FINDER
100
AcDbAlignedDimension
 13
145.452202
 23
134.870229
 33
0.0
 14
-23.401131
 24
122.889971
 34
0.0
100
AcDbRotatedDimension
1001
ACAD
1000
DSTYLE
1002
{
1070
     7
1000

1070
     6
1000

1070
     5
1000
CLOSED
1070
   280
1070
     0
1070
    76
1070
     0
1070
    75
1070
     0
1070
    41
1040
1.2
1070
   176
1070
     3
1070
   177
1070
     3
1070
   271
1070
     3
1070
    42
1040
1.05
1070
   147
1040
1.75
1002
}
  0
DIMENSION
  5
5F7
330
1F
100
AcDbEntity
  8
DIM
  6
CONTINUOUS
 62
     3
100
AcDbDimension
  2
*D33
 10
87.958869
 20
43.438293
 30
0.0
 11
95.478869
 21
46.975043
 31
0.0
 70
    33
  1
<>
  3
FINDER
100
AcDbAlignedDimension
 13
102.998869
 23
62.656896
 33
0.0
 14
87.958869
 24
62.656896
 34
0.0
1001
ACAD
1000
DSTYLE
1002
{
1070
     7
1000

1070
     6
1000

1070
     5
1000
CLOSED
1070
   280
1070
     0
1070
    76
1070
     0
1070
    75
1070
     0
1070
    41
1040
1.2
1070
   176
1070
     3
1070
   177
1070
     3
1070
   271
1070
     1
1070
    42
1040
1.05
1070
   147
1040
1.75
1002
}
  0
LINE
  5
604
330
1F
100
AcDbEntity
  8
DRAW-TEXT
  6
CONTINUOUS
 62
     5
100
AcDbLine
 10
87.958869
 20
168.470229
 30
0.0
 11
87.958869
 21
63.936896
 31
0.0
  0
LINE
  5
605
330
1F
100
AcDbEntity
  8
DRAW-TEXT
  6
CONTINUOUS
 62
     5
100
AcDbLine
 10
102.998869
 20
168.523563
 30
0.0
 11
102.998869
 21
63.990229
 31
0.0
  0
ENDSEC
  0
SECTION
  2
OBJECTS
  0
DICTIONARY
  5
C
330
0
100
AcDbDictionary
  3
ACAD_GROUP
350
D
  3
ACAD_LAYOUT
350
1A
  3
ACAD_MLINESTYLE
350
17
  3
ACAD_PLOTSETTINGS
350
19
  3
ACAD_TABLESTYLE
350
626
  3
ACAD_VISUALSTYLE
350
2A
  3
ACDBHEADERROUNDTRIPXREC
350
606
  3
ACDBVARIABLEDICTIONARY
350
627
  0
DICTIONARY
  5
D
102
{ACAD_REACTORS
330
C
102
}
330
C
100
AcDbDictionary
  0
DICTIONARY
  5
1A
102
{ACAD_REACTORS
330
C
102
}
330
C
100
AcDbDictionary
  0
DICTIONARY
  5
17
102
{ACAD_REACTORS
330
C
102
}
330
C
100
AcDbDictionary
  3
STANDARD
350
18
  0
DICTIONARY
  5
19
102
{ACAD_REACTORS
330
C
102
}
330
C
100
AcDbDictionary
  0
DICTIONARY
  5
626
102
{ACAD_REACTORS
330
C
102
}
330
C
100
AcDbDictionary
  0
DICTIONARY
  5
2A
102
{ACAD_REACTORS
330
C
102
}
330
C
100
AcDbDictionary
  3
2DWIREFRAME
350
2F
  3
3D_HIDDEN
350
31
  3
3DWIREFRAME
350
30
  3
BASIC
350
32
  3
BRIGHTEN
350
36
  3
COLORCHANGE
350
3A
  3
CONCEPTUAL
350
34
  3
DIM
350
35
  3
FACEPATTERN
350
39
  3
FLAT
350
2B
  3
FLATWITHEDGES
350
2C
  3
GOURAUD
350
2D
  3
GOURAUDWITHEDGES
350
2E
  3
LINEPATTERN
350
38
  3
REALISTIC
350
33
  3
THICKEN
350
37
  0
DICTIONARY
  5
606
102
{ACAD_REACTORS
330
C
102
}
330
C
100
AcDbDictionary
  3
CEPSNTYPE
350
60F
  3
DIMSTYLEDATA
350
625
  3
FINGERPRINTGUID
350
610
  3
HYPERLINKBASE
350
609
  3
INSUNITS
350
60E
  3
LAYOUTDICT
350
60B
  3
LWETCUNION
350
60D
  3
PLOTSETDICT
350
60C
  3
PSVPSCALE
350
612
  3
PUCSBASE
350
615
  3
PUCSORGBACK
350
61B
  3
PUCSORGBOTTOM
350
617
  3
PUCSORGFRONT
350
61A
  3
PUCSORGLEFT
350
618
  3
PUCSORGRIGHT
350
619
  3
PUCSORGTOP
350
616
  3
PUCSORTHOREF
350
613
  3
PUCSORTHOVIEW
350
614
  3
STYLESHEET
350
60A
  3
TSTACKALIGN
350
607
  3
TSTACKSIZE
350
608
  3
UCSBASE
350
61E
  3
UCSORGBACK
350
624
  3
UCSORGBOTTOM
350
620
  3
UCSORGFRONT
350
623
  3
UCSORGLEFT
350
621
  3
UCSORGRIGHT
350
622
  3
UCSORGTOP
350
61F
  3
UCSORTHOREF
350
61C
  3
UCSORTHOVIEW
350
61D
  3
VERSIONGUID
350
611
  0
DICTIONARY
  5
627
102
{ACAD_REACTORS
330
C
102
}
330
C
100
AcDbDictionary
  3
PSOLHEIGHT
350
629
  3
PSOLWIDTH
350
628
  0
MLINESTYLE
  5
18
102
{ACAD_REACTORS
330
17
102
}
330
17
100
AcDbMlineStyle
  2
Standard
 70
     0
  3

 62
   256
 51
90.0
 52
90.0
 71
     2
 49
0.5
 62
   256
  6
BYLAYER
 49
-0.5
 62
   256
  6
BYLAYER
  0
VISUALSTYLE
  5
2F
102
{ACAD_REACTORS
330
2A
102
}
330
2A
100
AcDbVisualStyle
  2
2dWireframe
 70
     4
 71
     0
 72
     2
 73
     0
 90
        0
 40
-0.6
 41
-30.0
 62
     5
 63
     7
 74
     1
 91
        4
 64
     7
 65
   257
 75
     1
175
     1
 42
1.0
 92
        0
 66
   257
 43
1.0
 76
     1
 77
     6
 78
     2
 67
     7
 79
     5
170
     0
171
     0
290
     0
174
     0
 93
        1
 44
0.0
173
     0
291
     0
 45
0.0
1001
ACAD
1000
AcDbSavedByObjectVersion
1070
     0
  0
VISUALSTYLE
  5
31
102
{ACAD_REACTORS
330
2A
102
}
330
2A
100
AcDbVisualStyle
  2
3D Hidden
 70
     6
 71
     1
 72
     2
 73
     2
 90
        0
 40
-0.6
 41
-30.0
 62
     5
 63
     7
 74
     2
 91
        2
 64
     7
 65
   257
 75
     2
175
     1
 42
40.0
 92
        0
 66
   257
 43
1.0
 76
     1
 77
     6
 78
     2
 67
     7
 79
     3
170
     0
171
     0
290
     0
174
     0
 93
        1
 44
0.0
173
     0
291
     0
 45
0.0
1001
ACAD
1000
AcDbSavedByObjectVersion
1070
     0
  0
VISUALSTYLE
  5
30
102
{ACAD_REACTORS
330
2A
102
}
330
2A
100
AcDbVisualStyle
  2
3dWireframe
 70
     5
 71
     0
 72
     2
 73
     0
 90
        0
 40
-0.6
 41
-30.0
 62
     5
 63
     7
 74
     1
 91
        4
 64
     7
 65
   257
 75
     1
175
     1
 42
1.0
 92
        0
 66
   257
 43
1.0
 76
     1
 77
     6
 78
     2
 67
     7
 79
     5
170
     0
171
     0
290
     0
174
     0
 93
        1
 44
0.0
173
     0
291
     0
 45
0.0
1001
ACAD
1000
AcDbSavedByObjectVersion
1070
     0
  0
VISUALSTYLE
  5
32
102
{ACAD_REACTORS
330
2A
102
}
330
2A
100
AcDbVisualStyle
  2
Basic
 70
     7
 71
     1
 72
     0
 73
     1
 90
        0
 40
-0.6
 41
-30.0
 62
     5
 63
     7
 74
     0
 91
        4
 64
     7
 65
   257
 75
     1
175
     1
 42
1.0
 92
        8
 66
     7
 43
1.0
 76
     1
 77
     6
 78
     2
 67
     7
 79
     5
170
     0
171
     0
290
     0
174
     0
 93
        1
 44
0.0
173
     0
291
     1
 45
0.0
1001
ACAD
1000
AcDbSavedByObjectVersion
1070
     0
  0
VISUALSTYLE
  5
36
102
{ACAD_REACTORS
330
2A
102
}
330
2A
100
AcDbVisualStyle
  2
Brighten
 70
    12
 71
     2
 72
     2
 73
     0
 90
        0
 40
-0.6
 41
-30.0
 62
     5
 63
     7
 74
     1
 91
        4
 64
     7
 65
   257
 75
     1
175
     1
 42
1.0
 92
        8
 66
     7
 43
1.0
 76
     1
 77
     6
 78
     2
 67
     7
 79
     5
170
     0
171
     0
290
     0
174
     0
 93
        1
 44
50.0
173
     0
291
     1
 45
0.0
1001
ACAD
1000
AcDbSavedByObjectVersion
1070
     0
  0
VISUALSTYLE
  5
3A
102
{ACAD_REACTORS
330
2A
102
}
330
2A
100
AcDbVisualStyle
  2
ColorChange
 70
    16
 71
     2
 72
     2
 73
     3
 90
        0
 40
-0.6
 41
-30.0
 62
     5
 63
     8
 74
     1
 91
        4
 64
     7
 65
   257
 75
     1
175
     1
 42
1.0
 92
        8
 66
     8
 43
1.0
 76
     1
 77
     6
 78
     2
 67
     7
 79
     5
170
     0
171
     0
290
     0
174
     0
 93
        1
 44
0.0
173
     0
291
     1
 45
0.0
1001
ACAD
1000
AcDbSavedByObjectVersion
1070
     0
  0
VISUALSTYLE
  5
34
102
{ACAD_REACTORS
330
2A
102
}
330
2A
100
AcDbVisualStyle
  2
Conceptual
 70
     9
 71
     3
 72
     2
 73
     0
 90
        0
 40
-0.6
 41
-30.0
 62
     5
 63
     7
 74
     2
 91
        2
 64
     7
 65
   257
 75
     1
175
     1
 42
40.0
 92
        8
 66
     7
 43
1.0
 76
     1
 77
     6
 78
     2
 67
     7
 79
     3
170
     0
171
     0
290
     0
174
     0
 93
        1
 44
0.0
173
     0
291
     0
 45
0.0
1001
ACAD
1000
AcDbSavedByObjectVersion
1070
     0
  0
VISUALSTYLE
  5
35
102
{ACAD_REACTORS
330
2A
102
}
330
2A
100
AcDbVisualStyle
  2
Dim
 70
    11
 71
     2
 72
     2
 73
     0
 90
        0
 40
-0.6
 41
-30.0
 62
     5
 63
     7
 74
     1
 91
        4
 64
     7
 65
   257
 75
     1
175
     1
 42
1.0
 92
        8
 66
     7
 43
1.0
 76
     1
 77
     6
 78
     2
 67
     7
 79
     5
170
     0
171
     0
290
     0
174
     0
 93
        1
 44
-50.0
173
     0
291
     1
 45
0.0
1001
ACAD
1000
AcDbSavedByObjectVersion
1070
     0
  0
VISUALSTYLE
  5
39
102
{ACAD_REACTORS
330
2A
102
}
330
2A
100
AcDbVisualStyle
  2
Facepattern
 70
    15
 71
     2
 72
     2
 73
     0
 90
        0
 40
-0.6
 41
-30.0
 62
     5
 63
     7
 74
     1
 91
        4
 64
     7
 65
   257
 75
     1
175
     1
 42
1.0
 92
        8
 66
     7
 43
1.0
 76
     1
 77
     6
 78
     2
 67
     7
 79
     5
170
     0
171
     0
290
     0
174
     0
 93
        1
 44
0.0
173
     0
291
     1
 45
0.0
1001
ACAD
1000
AcDbSavedByObjectVersion
1070
     0
  0
VISUALSTYLE
  5
2B
102
{ACAD_REACTORS
330
2A
102
}
330
2A
100
AcDbVisualStyle
  2
Flat
 70
     0
 71
     2
 72
     1
 73
     1
 90
        2
 40
-0.6
 41
30.0
 62
     5
 63
     7
 74
     0
 91
        4
 64
     7
 65
   257
 75
     1
175
     1
 42
1.0
 92
        8
 66
     7
 43
1.0
 76
     1
 77
     6
 78
     2
 67
     7
 79
     5
170
     0
171
     0
290
     0
174
     0
 93
       13
 44
0.0
173
     0
291
     1
 45
0.0
1001
ACAD
1000
AcDbSavedByObjectVersion
1070
     0
  0
VISUALSTYLE
  5
2C
102
{ACAD_REACTORS
330
2A
102
}
330
2A
100
AcDbVisualStyle
  2
FlatWithEdges
 70
     1
 71
     2
 72
     1
 73
     1
 90
        2
 40
-0.6
 41
30.0
 62
     5
 63
     7
 74
     1
 91
        4
 64
     7
 65
   257
 75
     1
175
     1
 42
1.0
 92
        0
 66
   257
 43
1.0
 76
     1
 77
     6
 78
     2
 67
     7
 79
     5
170
     0
171
     0
290
     0
174
     0
 93
       13
 44
0.0
173
     0
291
     1
 45
0.0
1001
ACAD
1000
AcDbSavedByObjectVersion
1070
     0
  0
VISUALSTYLE
  5
2D
102
{ACAD_REACTORS
330
2A
102
}
330
2A
100
AcDbVisualStyle
  2
Gouraud
 70
     2
 71
     2
 72
     2
 73
     1
 90
        2
 40
-0.6
 41
30.0
 62
     5
 63
     7
 74
     0
 91
        4
 64
     7
 65
   257
 75
     1
175
     1
 42
1.0
 92
        0
 66
     7
 43
1.0
 76
     1
 77
     6
 78
     2
 67
     7
 79
     5
170
     0
171
     0
290
     0
174
     0
 93
       13
 44
0.0
173
     0
291
     1
 45
0.0
1001
ACAD
1000
AcDbSavedByObjectVersion
1070
     0
  0
VISUALSTYLE
  5
2E
102
{ACAD_REACTORS
330
2A
102
}
330
2A
100
AcDbVisualStyle
  2
GouraudWithEdges
 70
     3
 71
     2
 72
     2
 73
     1
 90
        2
 40
-0.6
 41
30.0
 62
     5
 63
     7
 74
     1
 91
        4
 64
     7
 65
   257
 75
     1
175
     1
 42
1.0
 92
        0
 66
   257
 43
1.0
 76
     1
 77
     6
 78
     2
 67
     7
 79
     5
170
     0
171
     0
290
     0
174
     0
 93
       13
 44
0.0
173
     0
291
     1
 45
0.0
1001
ACAD
1000
AcDbSavedByObjectVersion
1070
     0
  0
VISUALSTYLE
  5
38
102
{ACAD_REACTORS
330
2A
102
}
330
2A
100
AcDbVisualStyle
  2
Linepattern
 70
    14
 71
     2
 72
     2
 73
     0
 90
        0
 40
-0.6
 41
-30.0
 62
     5
 63
     7
 74
     1
 91
        4
 64
     7
 65
   257
 75
     7
175
     7
 42
1.0
 92
        8
 66
     7
 43
1.0
 76
     1
 77
     6
 78
     2
 67
     7
 79
     5
170
     0
171
     0
290
     0
174
     0
 93
        1
 44
0.0
173
     0
291
     1
 45
0.0
1001
ACAD
1000
AcDbSavedByObjectVersion
1070
     0
  0
VISUALSTYLE
  5
33
102
{ACAD_REACTORS
330
2A
102
}
330
2A
100
AcDbVisualStyle
  2
Realistic
 70
     8
 71
     2
 72
     2
 73
     0
 90
        0
 40
-0.6
 41
-30.0
 62
     5
 63
     7
 74
     1
 91
        0
 64
     7
 65
   257
 75
     1
175
     1
 42
1.0
 92
        8
 66
     8
 43
1.0
 76
     1
 77
     6
 78
     2
 67
     7
 79
     5
170
     0
171
     0
290
     0
174
     0
 93
       13
 44
0.0
173
     0
291
     0
 45
0.0
1001
ACAD
1000
AcDbSavedByObjectVersion
1070
     0
  0
VISUALSTYLE
  5
37
102
{ACAD_REACTORS
330
2A
102
}
330
2A
100
AcDbVisualStyle
  2
Thicken
 70
    13
 71
     2
 72
     2
 73
     0
 90
        0
 40
-0.6
 41
-30.0
 62
     5
 63
     7
 74
     1
 91
        4
 64
     7
 65
   257
 75
     1
175
     1
 42
1.0
 92
       12
 66
     7
 43
1.0
 76
     1
 77
     6
 78
     2
 67
     7
 79
     5
170
     0
171
     0
290
     0
174
     0
 93
        1
 44
0.0
173
     0
291
     1
 45
0.0
1001
ACAD
1000
AcDbSavedByObjectVersion
1070
     0
  0
XRECORD
  5
60F
102
{ACAD_REACTORS
330
606
102
}
330
606
100
AcDbXrecord
 90
        0
  0
XRECORD
  5
625
102
{ACAD_REACTORS
330
606
102
}
330
606
100
AcDbXrecord
1000
DSTYLE
1002
{
1070
   340
340
11
1002
}
  0
XRECORD
  5
610
102
{ACAD_REACTORS
330
606
102
}
330
606
100
AcDbXrecord
  1
{0B785290-9C86-449B-BAF4-52054258E650}
  0
XRECORD
  5
609
102
{ACAD_REACTORS
330
606
102
}
330
606
100
AcDbXrecord
  1

  0
XRECORD
  5
60E
102
{ACAD_REACTORS
330
606
102
}
330
606
100
AcDbXrecord
 90
        4
  0
XRECORD
  5
60B
102
{ACAD_REACTORS
330
606
102
}
330
606
100
AcDbXrecord
340
1A
  0
XRECORD
  5
60D
102
{ACAD_REACTORS
330
606
102
}
330
606
100
AcDbXrecord
 90
    10781
  0
XRECORD
  5
60C
102
{ACAD_REACTORS
330
606
102
}
330
606
100
AcDbXrecord
340
19
  0
XRECORD
  5
612
102
{ACAD_REACTORS
330
606
102
}
330
606
100
AcDbXrecord
 40
0.0
  0
XRECORD
  5
615
102
{ACAD_REACTORS
330
606
102
}
330
606
100
AcDbXrecord
340
0
  0
XRECORD
  5
61B
102
{ACAD_REACTORS
330
606
102
}
330
606
100
AcDbXrecord
 10
0.0
 20
0.0
 30
0.0
  0
XRECORD
  5
617
102
{ACAD_REACTORS
330
606
102
}
330
606
100
AcDbXrecord
 10
0.0
 20
0.0
 30
0.0
  0
XRECORD
  5
61A
102
{ACAD_REACTORS
330
606
102
}
330
606
100
AcDbXrecord
 10
0.0
 20
0.0
 30
0.0
  0
XRECORD
  5
618
102
{ACAD_REACTORS
330
606
102
}
330
606
100
AcDbXrecord
 10
0.0
 20
0.0
 30
0.0
  0
XRECORD
  5
619
102
{ACAD_REACTORS
330
606
102
}
330
606
100
AcDbXrecord
 10
0.0
 20
0.0
 30
0.0
  0
XRECORD
  5
616
102
{ACAD_REACTORS
330
606
102
}
330
606
100
AcDbXrecord
 10
0.0
 20
0.0
 30
0.0
  0
XRECORD
  5
613
102
{ACAD_REACTORS
330
606
102
}
330
606
100
AcDbXrecord
340
0
  0
XRECORD
  5
614
102
{ACAD_REACTORS
330
606
102
}
330
606
100
AcDbXrecord
 70
     0
  0
XRECORD
  5
60A
102
{ACAD_REACTORS
330
606
102
}
330
606
100
AcDbXrecord
  1

  0
XRECORD
  5
607
102
{ACAD_REACTORS
330
606
102
}
330
606
100
AcDbXrecord
 90
        1
  0
XRECORD
  5
608
102
{ACAD_REACTORS
330
606
102
}
330
606
100
AcDbXrecord
 90
       70
  0
XRECORD
  5
61E
102
{ACAD_REACTORS
330
606
102
}
330
606
100
AcDbXrecord
340
0
  0
XRECORD
  5
624
102
{ACAD_REACTORS
330
606
102
}
330
606
100
AcDbXrecord
 10
0.0
 20
0.0
 30
0.0
  0
XRECORD
  5
620
102
{ACAD_REACTORS
330
606
102
}
330
606
100
AcDbXrecord
 10
0.0
 20
0.0
 30
0.0
  0
XRECORD
  5
623
102
{ACAD_REACTORS
330
606
102
}
330
606
100
AcDbXrecord
 10
0.0
 20
0.0
 30
0.0
  0
XRECORD
  5
621
102
{ACAD_REACTORS
330
606
102
}
330
606
100
AcDbXrecord
 10
0.0
 20
0.0
 30
0.0
  0
XRECORD
  5
622
102
{ACAD_REACTORS
330
606
102
}
330
606
100
AcDbXrecord
 10
0.0
 20
0.0
 30
0.0
  0
XRECORD
  5
61F
102
{ACAD_REACTORS
330
606
102
}
330
606
100
AcDbXrecord
 10
0.0
 20
0.0
 30
0.0
  0
XRECORD
  5
61C
102
{ACAD_REACTORS
330
606
102
}
330
606
100
AcDbXrecord
340
0
  0
XRECORD
  5
61D
102
{ACAD_REACTORS
330
606
102
}
330
606
100
AcDbXrecord
 70
     0
  0
XRECORD
  5
611
102
{ACAD_REACTORS
330
606
102
}
330
606
100
AcDbXrecord
  1
{FAEB1C32-E019-11D5-929B-00C0DF256EC4}
  0
DICTIONARYVAR
  5
629
102
{ACAD_REACTORS
330
627
102
}
330
627
100
DictionaryVariables
280
     0
  1
80.000000
  0
DICTIONARYVAR
  5
628
102
{ACAD_REACTORS
330
627
102
}
330
627
100
DictionaryVariables
280
     0
  1
5.000000
  0
ENDSEC
  0
EOF
