  0
SECTION
  2
HEADER
  9
$ACADVER
  1
AC1014
  9
$ACADMAINTVER
 70
     9
  9
$DWGCODEPAGE
  3
ANSI_1252
  9
$INSBASE
 10
0.0
 20
0.0
 30
0.0
  9
$EXTMIN
 10
421.9299302758972
 20
216.5455844301429
 30
-0.0015258207003583
  9
$EXTMAX
 10
621.9902763890472
 20
503.5647181657716
 30
0.0000000349246037
  9
$LIMMIN
 10
0.0
 20
0.0
  9
$LIMMAX
 10
420.0
 20
297.0
  9
$ORTHOMODE
 70
     0
  9
$REGENMODE
 70
     1
  9
$FILLMODE
 70
     1
  9
$QTEXTMODE
 70
     0
  9
$MIRRTEXT
 70
     1
  9
$DRAGMODE
 70
     2
  9
$LTSCALE
 40
1.0
  9
$OSMODE
 70
    39
  9
$ATTMODE
 70
     1
  9
$TEXTSIZE
 40
2.5
  9
$TRACEWID
 40
1.0
  9
$TEXTSTYLE
  7
STANDARD
  9
$CLAYER
  8
DRAW_TEXT
  9
$CELTYPE
  6
BYLAYER
  9
$CECOLOR
 62
   256
  9
$CELTSCALE
 40
1.0
  9
$DELOBJ
 70
     1
  9
$DISPSILH
 70
     0
  9
$DIMSCALE
 40
1.0
  9
$DIMASZ
 40
2.5
  9
$DIMEXO
 40
0.625
  9
$DIMDLI
 40
3.75
  9
$DIMRND
 40
0.0
  9
$DIMDLE
 40
0.0
  9
$DIMEXE
 40
1.25
  9
$DIMTP
 40
0.0
  9
$DIMTM
 40
0.0
  9
$DIMTXT
 40
2.5
  9
$DIMCEN
 40
2.5
  9
$DIMTSZ
 40
0.0
  9
$DIMTOL
 70
     0
  9
$DIMLIM
 70
     0
  9
$DIMTIH
 70
     0
  9
$DIMTOH
 70
     0
  9
$DIMSE1
 70
     0
  9
$DIMSE2
 70
     0
  9
$DIMTAD
 70
     1
  9
$DIMZIN
 70
     8
  9
$DIMBLK
  1

  9
$DIMASO
 70
     1
  9
$DIMSHO
 70
     1
  9
$DIMPOST
  1

  9
$DIMAPOST
  1

  9
$DIMALT
 70
     0
  9
$DIMALTD
 70
     3
  9
$DIMALTF
 40
0.03937007874016
  9
$DIMLFAC
 40
1.0
  9
$DIMTOFL
 70
     1
  9
$DIMTVP
 40
0.0
  9
$DIMTIX
 70
     0
  9
$DIMSOXD
 70
     0
  9
$DIMSAH
 70
     0
  9
$DIMBLK1
  1

  9
$DIMBLK2
  1

  9
$DIMSTYLE
  2
ISO-25
  9
$DIMCLRD
 70
     0
  9
$DIMCLRE
 70
     0
  9
$DIMCLRT
 70
     0
  9
$DIMTFAC
 40
1.0
  9
$DIMGAP
 40
0.625
  9
$DIMJUST
 70
     0
  9
$DIMSD1
 70
     0
  9
$DIMSD2
 70
     0
  9
$DIMTOLJ
 70
     0
  9
$DIMTZIN
 70
     8
  9
$DIMALTZ
 70
     0
  9
$DIMALTTZ
 70
     0
  9
$DIMFIT
 70
     3
  9
$DIMUPT
 70
     0
  9
$DIMUNIT
 70
     2
  9
$DIMDEC
 70
     2
  9
$DIMTDEC
 70
     2
  9
$DIMALTU
 70
     2
  9
$DIMALTTD
 70
     3
  9
$DIMTXSTY
  7
STANDARD
  9
$DIMAUNIT
 70
     0
  9
$LUNITS
 70
     2
  9
$LUPREC
 70
     4
  9
$SKETCHINC
 40
1.0
  9
$FILLETRAD
 40
10.0
  9
$AUNITS
 70
     0
  9
$AUPREC
 70
     0
  9
$MENU
  1
.
  9
$ELEVATION
 40
0.0
  9
$PELEVATION
 40
0.0
  9
$THICKNESS
 40
0.0
  9
$LIMCHECK
 70
     0
  9
$BLIPMODE
 70
     0
  9
$CHAMFERA
 40
10.0
  9
$CHAMFERB
 40
10.0
  9
$CHAMFERC
 40
20.0
  9
$CHAMFERD
 40
0.0
  9
$SKPOLY
 70
     0
  9
$TDCREATE
 40
2454006.674970150
  9
$TDUPDATE
 40
2454124.462773437
  9
$TDINDWG
 40
0.0119442708
  9
$TDUSRTIMER
 40
0.0119439005
  9
$USRTIMER
 70
     1
  9
$ANGBASE
 50
0.0
  9
$ANGDIR
 70
     0
  9
$PDMODE
 70
     0
  9
$PDSIZE
 40
0.0
  9
$PLINEWID
 40
0.0
  9
$COORDS
 70
     1
  9
$SPLFRAME
 70
     0
  9
$SPLINETYPE
 70
     6
  9
$SPLINESEGS
 70
     8
  9
$ATTDIA
 70
     0
  9
$ATTREQ
 70
     1
  9
$HANDLING
 70
 22529
  9
$HANDSEED
  5
9CA
  9
$SURFTAB1
 70
     6
  9
$SURFTAB2
 70
     6
  9
$SURFTYPE
 70
     6
  9
$SURFU
 70
     6
  9
$SURFV
 70
     6
  9
$UCSNAME
  2

  9
$UCSORG
 10
0.0
 20
0.0
 30
0.0
  9
$UCSXDIR
 10
1.0
 20
0.0
 30
0.0
  9
$UCSYDIR
 10
0.0
 20
1.0
 30
0.0
  9
$PUCSNAME
  2

  9
$PUCSORG
 10
0.0
 20
0.0
 30
0.0
  9
$PUCSXDIR
 10
1.0
 20
0.0
 30
0.0
  9
$PUCSYDIR
 10
0.0
 20
1.0
 30
0.0
  9
$USERI1
 70
     0
  9
$USERI2
 70
     0
  9
$USERI3
 70
     0
  9
$USERI4
 70
     0
  9
$USERI5
 70
     0
  9
$USERR1
 40
0.0
  9
$USERR2
 40
0.0
  9
$USERR3
 40
0.0
  9
$USERR4
 40
0.0
  9
$USERR5
 40
0.0
  9
$WORLDVIEW
 70
     1
  9
$SHADEDGE
 70
     3
  9
$SHADEDIF
 70
    70
  9
$TILEMODE
 70
     1
  9
$MAXACTVP
 70
    64
  9
$PINSBASE
 10
0.0
 20
0.0
 30
0.0
  9
$PLIMCHECK
 70
     0
  9
$PEXTMIN
 10
0.0
 20
0.0
 30
0.0
  9
$PEXTMAX
 10
0.0
 20
0.0
 30
0.0
  9
$PLIMMIN
 10
0.0
 20
0.0
  9
$PLIMMAX
 10
12.0
 20
9.0
  9
$UNITMODE
 70
     0
  9
$VISRETAIN
 70
     1
  9
$PLINEGEN
 70
     0
  9
$PSLTSCALE
 70
     1
  9
$TREEDEPTH
 70
  3020
  9
$PICKSTYLE
 70
     1
  9
$CMLSTYLE
  2
STANDARD
  9
$CMLJUST
 70
     0
  9
$CMLSCALE
 40
20.0
  9
$PROXYGRAPHICS
 70
     1
  9
$MEASUREMENT
 70
     1
  0
ENDSEC
  0
SECTION
  2
CLASSES
  0
CLASS
  1
ACDBDICTIONARYWDFLT
  2
AcDbDictionaryWithDefault
  3
AutoCAD 2000
 90
        0
280
     0
281
     0
  0
CLASS
  1
ACDBPLACEHOLDER
  2
AcDbPlaceHolder
  3
AutoCAD 2000
 90
        0
280
     0
281
     0
  0
CLASS
  1
LAYOUT
  2
AcDbLayout
  3
AutoCAD 2000
 90
        0
280
     0
281
     0
  0
CLASS
  1
DICTIONARYVAR
  2
AcDbDictionaryVar
  3
AutoCAD 2000
 90
        0
280
     0
281
     0
  0
CLASS
  1
LONG_TRANSACTION
  2
AcDbLongTransaction
  3
AutoCAD 2000
 90
        0
280
     0
281
     0
  0
CLASS
  1
LWPOLYLINE
  2
AcDbPolyline
  3
AutoCAD 2000
 90
        0
280
     0
281
     1
  0
CLASS
  1
HATCH
  2
AcDbHatch
  3
AutoCAD 2000
 90
        0
280
     0
281
     1
  0
CLASS
  1
XRECORD
  2
AcDbXrecord
  3
AutoCAD 2000
 90
        0
280
     0
281
     0
  0
CLASS
  1
LONG_TRANSACTION
  2
AcDbLongTransaction
  3
AutoCAD 2000
 90
        0
280
     0
281
     0
  0
CLASS
  1
LWPOLYLINE
  2
AcDbPolyline
  3
AutoCAD 2000
 90
        0
280
     0
281
     1
  0
CLASS
  1
HATCH
  2
AcDbHatch
  3
AutoCAD 2000
 90
        0
280
     0
281
     1
  0
CLASS
  1
XRECORD
  2
AcDbXrecord
  3
AutoCAD 2000
 90
        0
280
     0
281
     0
  0
CLASS
  1
LONG_TRANSACTION
  2
AcDbLongTransaction
  3
AutoCAD 2000
 90
        0
280
     0
281
     0
  0
CLASS
  1
LWPOLYLINE
  2
AcDbPolyline
  3
AutoCAD 2000
 90
        0
280
     0
281
     1
  0
CLASS
  1
HATCH
  2
AcDbHatch
  3
AutoCAD 2000
 90
        0
280
     0
281
     1
  0
CLASS
  1
XRECORD
  2
AcDbXrecord
  3
AutoCAD 2000
 90
        0
280
     0
281
     0
  0
CLASS
  1
LONG_TRANSACTION
  2
AcDbLongTransaction
  3
AutoCAD 2000
 90
        0
280
     0
281
     0
  0
CLASS
  1
LWPOLYLINE
  2
AcDbPolyline
  3
AutoCAD 2000
 90
        0
280
     0
281
     1
  0
CLASS
  1
HATCH
  2
AcDbHatch
  3
AutoCAD 2000
 90
        0
280
     0
281
     1
  0
CLASS
  1
XRECORD
  2
AcDbXrecord
  3
AutoCAD 2000
 90
        0
280
     0
281
     0
  0
ENDSEC
  0
SECTION
  2
TABLES
  0
TABLE
  2
VPORT
  5
8
330
0
100
AcDbSymbolTable
 70
     3
  0
VPORT
  5
9A6
330
8
100
AcDbSymbolTableRecord
100
AcDbViewportTableRecord
  2
*ACTIVE
 70
     0
 10
0.0
 20
0.0
 11
1.0
 21
1.0
 12
521.9601033324722
 22
360.0551512979573
 13
0.0
 23
0.0
 14
10.0
 24
10.0
 15
10.0
 25
10.0
 16
0.0
 26
0.0
 36
1.0
 17
0.0
 27
0.0
 37
0.0
 40
288.8055598792113
 41
1.610591900311526
 42
50.0
 43
0.0
 44
0.0
 50
0.0
 51
0.0
 71
     0
 72
   100
 73
     1
 74
     3
 75
     0
 76
     0
 77
     0
 78
     0
  0
ENDTAB
  0
TABLE
  2
LTYPE
  5
5
330
0
100
AcDbSymbolTable
 70
     1
  0
LTYPE
  5
14
330
5
100
AcDbSymbolTableRecord
100
AcDbLinetypeTableRecord
  2
BYBLOCK
 70
     0
  3

 72
    65
 73
     0
 40
0.0
  0
LTYPE
  5
15
330
5
100
AcDbSymbolTableRecord
100
AcDbLinetypeTableRecord
  2
BYLAYER
 70
     0
  3

 72
    65
 73
     0
 40
0.0
  0
LTYPE
  5
16
330
5
100
AcDbSymbolTableRecord
100
AcDbLinetypeTableRecord
  2
CONTINUOUS
 70
     0
  3
Solid line
 72
    65
 73
     0
 40
0.0
  0
ENDTAB
  0
TABLE
  2
LAYER
  5
2
330
0
100
AcDbSymbolTable
 70
     6
  0
LAYER
  5
10
330
2
100
AcDbSymbolTableRecord
100
AcDbLayerTableRecord
  2
0
 70
     0
 62
     7
  6
CONTINUOUS
  0
LAYER
  5
C0
330
2
100
AcDbSymbolTableRecord
100
AcDbLayerTableRecord
  2
DEFPOINTS
 70
     0
 62
     1
  6
CONTINUOUS
  0
LAYER
  5
C1
330
2
100
AcDbSymbolTableRecord
100
AcDbLayerTableRecord
  2
CARTOUCHE
 70
     0
 62
     7
  6
CONTINUOUS
  0
LAYER
  5
C2
330
2
100
AcDbSymbolTableRecord
100
AcDbLayerTableRecord
  2
DIM
 70
     0
 62
     3
  6
CONTINUOUS
  0
LAYER
  5
C3
330
2
100
AcDbSymbolTableRecord
100
AcDbLayerTableRecord
  2
DRAW
 70
     0
 62
     7
  6
CONTINUOUS
  0
LAYER
  5
8AE
330
2
100
AcDbSymbolTableRecord
100
AcDbLayerTableRecord
  2
DRAW_TEXT
 70
     0
 62
     1
  6
CONTINUOUS
  0
ENDTAB
  0
TABLE
  2
STYLE
  5
3
330
0
100
AcDbSymbolTable
 70
     6
  0
STYLE
  5
11
330
3
100
AcDbSymbolTableRecord
100
AcDbTextStyleTableRecord
  2
STANDARD
 70
     0
 40
0.0
 41
1.0
 50
0.0
 71
     0
 42
2.5
  3
txt
  4

  0
STYLE
  5
C4
330
3
100
AcDbSymbolTableRecord
100
AcDbTextStyleTableRecord
  2
TSTYLE1
 70
     0
 40
1.8
 41
0.4600000000000001
 50
0.0
 71
     0
 42
0.2
  3
ARIAL.TTF
  4

1001
ACAD
1000
Arial
1071
    32000
  0
STYLE
  5
C5
330
3
100
AcDbSymbolTableRecord
100
AcDbTextStyleTableRecord
  2
TSTYLE2
 70
     0
 40
1.8
 41
0.6
 50
0.0
 71
     0
 42
0.2
  3
ARIAL.TTF
  4

1001
ACAD
1000
Arial
1071
    32000
  0
STYLE
  5
C6
330
3
100
AcDbSymbolTableRecord
100
AcDbTextStyleTableRecord
  2
TSTYLE3
 70
     0
 40
2.1
 41
0.4600000000000001
 50
0.0
 71
     0
 42
0.2
  3
ARIAL.TTF
  4

1001
ACAD
1000
Arial
1071
    32000
  0
STYLE
  5
C7
330
3
100
AcDbSymbolTableRecord
100
AcDbTextStyleTableRecord
  2
TSTYLE4
 70
     0
 40
3.0
 41
0.4600000000000001
 50
0.0
 71
     0
 42
0.2
  3
ARIAL.TTF
  4

1001
ACAD
1000
Arial
1071
    32000
  0
STYLE
  5
C8
330
3
100
AcDbSymbolTableRecord
100
AcDbTextStyleTableRecord
  2
TSTYLE5
 70
     0
 40
3.0
 41
0.95
 50
0.0
 71
     0
 42
0.2
  3
ARIAL.TTF
  4

1001
ACAD
1000
Arial
1071
    32000
  0
ENDTAB
  0
TABLE
  2
VIEW
  5
6
330
0
100
AcDbSymbolTable
 70
     0
  0
ENDTAB
  0
TABLE
  2
UCS
  5
7
330
0
100
AcDbSymbolTable
 70
     0
  0
ENDTAB
  0
TABLE
  2
APPID
  5
9
330
0
100
AcDbSymbolTable
 70
     1
  0
APPID
  5
12
330
9
100
AcDbSymbolTableRecord
100
AcDbRegAppTableRecord
  2
ACAD
 70
     0
  0
ENDTAB
  0
TABLE
  2
DIMSTYLE
  5
A
330
0
100
AcDbSymbolTable
 70
     6
  0
DIMSTYLE
105
27
330
A
100
AcDbSymbolTableRecord
100
AcDbDimStyleTableRecord
  2
ISO-25
 70
     0
  3

  4

  5

  6

  7

 40
1.0
 41
2.5
 42
0.625
 43
3.75
 44
1.25
 45
0.0
 46
0.0
 47
0.0
 48
0.0
140
2.5
141
2.5
142
0.0
143
0.03937007874016
144
1.0
145
0.0
146
1.0
147
0.625
 71
     0
 72
     0
 73
     0
 74
     0
 75
     0
 76
     0
 77
     1
 78
     8
170
     0
171
     3
172
     1
173
     0
174
     0
175
     0
176
     0
177
     0
178
     0
270
     2
271
     2
272
     2
273
     2
274
     3
340
11
275
     0
280
     0
281
     0
282
     0
283
     0
284
     8
285
     0
286
     0
287
     3
288
     0
  0
DIMSTYLE
105
C9
330
A
100
AcDbSymbolTableRecord
100
AcDbDimStyleTableRecord
  2
STANDARD
 70
     0
  3

  4

  5

  6

  7

 40
1.0
 41
0.18
 42
0.063
 43
0.38
 44
0.18
 45
0.0
 46
0.0
 47
0.0
 48
0.0
140
0.18
141
0.09
142
0.0
143
25.4
144
1.0
145
0.0
146
1.0
147
0.09
 71
     0
 72
     0
 73
     1
 74
     1
 75
     0
 76
     0
 77
     0
 78
     0
170
     0
171
     2
172
     0
173
     0
174
     0
175
     0
176
     0
177
     0
178
     0
270
     2
271
     4
272
     4
273
     2
274
     2
340
11
275
     0
280
     0
281
     0
282
     0
283
     1
284
     0
285
     0
286
     0
287
     3
288
     0
  0
DIMSTYLE
105
CA
102
{ACAD_REACTORS
330
62A
102
}
330
A
100
AcDbSymbolTableRecord
100
AcDbDimStyleTableRecord
  2
DSTYLE1
 70
     0
  3

  4

  5

  6

  7

 40
1.0
 41
2.5
 42
3.246
 43
0.38
 44
1.0
 45
0.0
 46
0.0
 47
0.0
 48
0.0
140
3.0
141
0.09
142
0.0
143
25.4
144
1.0
145
0.7
146
0.6
147
0.0
 71
     0
 72
     0
 73
     0
 74
     0
 75
     0
 76
     0
 77
     0
 78
     8
170
     0
171
     2
172
     0
173
     0
174
     1
175
     0
176
     0
177
     0
178
     4
270
     2
271
     2
272
     4
273
     2
274
     2
340
C8
275
     0
280
     0
281
     0
282
     0
283
     1
284
     0
285
     0
286
     0
287
     3
288
     0
  0
DIMSTYLE
105
CB
102
{ACAD_REACTORS
330
479
330
47A
330
47C
330
557
102
}
330
A
100
AcDbSymbolTableRecord
100
AcDbDimStyleTableRecord
  2
DSTYLE2
 70
     0
  3

  4

  5

  6

  7

 40
1.0
 41
2.5
 42
1.110999999999997
 43
0.38
 44
1.0
 45
0.0
 46
0.0
 47
0.0
 48
0.0
140
3.0
141
0.09
142
0.0
143
25.4
144
1.0
145
0.7
146
0.6
147
0.0
 71
     0
 72
     0
 73
     0
 74
     0
 75
     0
 76
     0
 77
     0
 78
     8
170
     0
171
     2
172
     0
173
     0
174
     1
175
     0
176
     0
177
     0
178
     4
270
     2
271
     2
272
     4
273
     2
274
     2
340
C8
275
     0
280
     0
281
     0
282
     0
283
     1
284
     0
285
     0
286
     0
287
     3
288
     0
  0
DIMSTYLE
105
CC
102
{ACAD_REACTORS
330
47B
102
}
330
A
100
AcDbSymbolTableRecord
100
AcDbDimStyleTableRecord
  2
DSTYLE3
 70
     0
  3

  4

  5

  6

  7

 40
1.0
 41
2.5
 42
3.623
 43
0.38
 44
1.0
 45
0.0
 46
0.0
 47
0.0
 48
0.0
140
3.0
141
0.09
142
0.0
143
25.4
144
1.0
145
0.7
146
0.6
147
0.0
 71
     0
 72
     0
 73
     0
 74
     0
 75
     0
 76
     0
 77
     0
 78
     8
170
     0
171
     2
172
     0
173
     0
174
     1
175
     0
176
     0
177
     0
178
     4
270
     2
271
     2
272
     4
273
     2
274
     2
340
C8
275
     0
280
     0
281
     0
282
     0
283
     1
284
     0
285
     0
286
     0
287
     3
288
     0
  0
DIMSTYLE
105
CD
102
{ACAD_REACTORS
330
6D9
102
}
330
A
100
AcDbSymbolTableRecord
100
AcDbDimStyleTableRecord
  2
DSTYLE4
 70
     0
  3

  4

  5

  6

  7

 40
1.0
 41
2.5
 42
2.151999999999999
 43
0.38
 44
1.0
 45
0.0
 46
0.0
 47
0.0
 48
0.0
140
3.0
141
0.09
142
0.0
143
25.4
144
1.0
145
0.7
146
0.6
147
0.0
 71
     0
 72
     0
 73
     0
 74
     0
 75
     0
 76
     0
 77
     0
 78
     8
170
     0
171
     2
172
     0
173
     0
174
     1
175
     0
176
     0
177
     0
178
     4
270
     2
271
     2
272
     4
273
     2
274
     2
340
C8
275
     0
280
     0
281
     0
282
     0
283
     1
284
     0
285
     0
286
     0
287
     3
288
     0
  0
ENDTAB
  0
TABLE
  2
BLOCK_RECORD
  5
1
330
0
100
AcDbSymbolTable
 70
    14
  0
BLOCK_RECORD
  5
1F
102
{ACAD_XDICTIONARY
360
8D1
102
}
330
1
100
AcDbSymbolTableRecord
100
AcDbBlockTableRecord
  2
*MODEL_SPACE
  0
BLOCK_RECORD
  5
50
102
{ACAD_XDICTIONARY
360
8D3
102
}
330
1
100
AcDbSymbolTableRecord
100
AcDbBlockTableRecord
  2
*PAPER_SPACE
  0
BLOCK_RECORD
  5
6C
330
1
100
AcDbSymbolTableRecord
100
AcDbBlockTableRecord
  2
*D0
  0
BLOCK_RECORD
  5
78
330
1
100
AcDbSymbolTableRecord
100
AcDbBlockTableRecord
  2
*D1
  0
BLOCK_RECORD
  5
84
330
1
100
AcDbSymbolTableRecord
100
AcDbBlockTableRecord
  2
*D2
  0
BLOCK_RECORD
  5
90
330
1
100
AcDbSymbolTableRecord
100
AcDbBlockTableRecord
  2
*D3
  0
BLOCK_RECORD
  5
9C
330
1
100
AcDbSymbolTableRecord
100
AcDbBlockTableRecord
  2
*D4
  0
BLOCK_RECORD
  5
A8
330
1
100
AcDbSymbolTableRecord
100
AcDbBlockTableRecord
  2
*D5
  0
BLOCK_RECORD
  5
B4
330
1
100
AcDbSymbolTableRecord
100
AcDbBlockTableRecord
  2
*D6
  0
BLOCK_RECORD
  5
81B
330
1
100
AcDbSymbolTableRecord
100
AcDbBlockTableRecord
  2
*D7
  0
BLOCK_RECORD
  5
827
330
1
100
AcDbSymbolTableRecord
100
AcDbBlockTableRecord
  2
*D8
  0
BLOCK_RECORD
  5
833
330
1
100
AcDbSymbolTableRecord
100
AcDbBlockTableRecord
  2
*D9
  0
BLOCK_RECORD
  5
83F
330
1
100
AcDbSymbolTableRecord
100
AcDbBlockTableRecord
  2
*D10
  0
BLOCK_RECORD
  5
84B
330
1
100
AcDbSymbolTableRecord
100
AcDbBlockTableRecord
  2
*D11
  0
BLOCK_RECORD
  5
857
330
1
100
AcDbSymbolTableRecord
100
AcDbBlockTableRecord
  2
*D12
  0
BLOCK_RECORD
  5
863
330
1
100
AcDbSymbolTableRecord
100
AcDbBlockTableRecord
  2
*D13
  0
ENDTAB
  0
ENDSEC
  0
SECTION
  2
BLOCKS
  0
BLOCK
  5
20
330
1F
100
AcDbEntity
  8
0
100
AcDbBlockBegin
  2
*MODEL_SPACE
 70
     0
 10
0.0
 20
0.0
 30
0.0
  3
*MODEL_SPACE
  1

  0
ENDBLK
  5
21
330
1F
100
AcDbEntity
  8
0
100
AcDbBlockEnd
  0
BLOCK
  5
52
330
50
100
AcDbEntity
 67
     1
  8
0
100
AcDbBlockBegin
  2
*PAPER_SPACE
 70
     0
 10
0.0
 20
0.0
 30
0.0
  3
*PAPER_SPACE
  1

  0
ENDBLK
  5
53
330
50
100
AcDbEntity
 67
     1
  8
0
100
AcDbBlockEnd
  0
BLOCK
  5
76
330
6C
100
AcDbEntity
  8
0
100
AcDbBlockBegin
  2
*D0
 70
     1
 10
0.0
 20
0.0
 30
0.0
  3
*D0
  1

  0
LINE
  5
6D
330
6C
100
AcDbEntity
  8
DIM
  6
CONTINUOUS
 62
     0
100
AcDbLine
 10
595.385
 20
172.829
 30
0.0
 11
595.385
 21
180.7809999999999
 31
0.0
  0
LINE
  5
6E
330
6C
100
AcDbEntity
  8
DIM
  6
CONTINUOUS
 62
     0
100
AcDbLine
 10
612.8849999999999
 20
172.829
 30
0.0
 11
612.8849999999999
 21
180.7809999999999
 31
0.0
  0
LINE
  5
6F
330
6C
100
AcDbEntity
  8
DIM
  6
CONTINUOUS
 62
     0
100
AcDbLine
 10
597.885
 20
179.7809999999999
 30
0.0
 11
610.385
 21
179.7809999999999
 31
0.0
  0
SOLID
  5
70
330
6C
100
AcDbEntity
  8
DIM
  6
CONTINUOUS
 62
     0
100
AcDbTrace
 10
597.885
 20
180.1976666666666
 30
0.0
 11
597.885
 21
179.3643333333333
 31
0.0
 12
595.385
 22
179.7809999999999
 32
0.0
 13
595.385
 23
179.7809999999999
 33
0.0
  0
SOLID
  5
71
330
6C
100
AcDbEntity
  8
DIM
  6
CONTINUOUS
 62
     0
100
AcDbTrace
 10
610.385
 20
180.1976666666666
 30
0.0
 11
610.385
 21
179.3643333333333
 31
0.0
 12
612.8849999999999
 22
179.7809999999999
 32
0.0
 13
612.8849999999999
 23
179.7809999999999
 33
0.0
  0
MTEXT
  5
72
330
6C
100
AcDbEntity
  8
DIM
  6
CONTINUOUS
 62
     4
100
AcDbMText
 10
603.9369999999999
 20
181.925406548431
 30
0.0
 40
3.0
 41
0.0
 71
     5
 72
     1
  1
\A1;17.5
  7
TSTYLE5
1001
ACAD
1000
MTEXTBEGIN
1070
    73
1070
     1
1070
    44
1040
1.0
1070
    74
1070
     0
1000
MTEXTEND
1000
MTEXTBEGIN
1070
    73
1070
     1
1070
    44
1040
1.0
1070
    74
1070
     0
1000
MTEXTEND
1000
MTEXTBEGIN
1070
    73
1070
     1
1070
    44
1040
1.0
1070
    74
1070
     0
1000
MTEXTEND
1000
MTEXTBEGIN
1070
    73
1070
     1
1070
    44
1040
1.0
1070
    74
1070
     0
1000
MTEXTEND
  0
POINT
  5
73
330
6C
100
AcDbEntity
  8
DEFPOINTS
  6
CONTINUOUS
 62
     0
100
AcDbPoint
 10
595.385
 20
169.5829999999999
 30
0.0
  0
POINT
  5
74
330
6C
100
AcDbEntity
  8
DEFPOINTS
  6
CONTINUOUS
 62
     0
100
AcDbPoint
 10
612.8849999999999
 20
169.5829999999999
 30
0.0
  0
POINT
  5
75
330
6C
100
AcDbEntity
  8
DEFPOINTS
  6
CONTINUOUS
 62
     0
100
AcDbPoint
 10
612.8849999999999
 20
179.7809999999999
 30
0.0
  0
ENDBLK
  5
77
330
6C
100
AcDbEntity
  8
0
100
AcDbBlockEnd
  0
BLOCK
  5
82
330
78
100
AcDbEntity
  8
0
100
AcDbBlockBegin
  2
*D1
 70
     1
 10
0.0
 20
0.0
 30
0.0
  3
*D1
  1

  0
LINE
  5
79
330
78
100
AcDbEntity
  8
DIM
  6
CONTINUOUS
 62
     0
100
AcDbLine
 10
594.674
 20
171.5829999999999
 30
0.0
 11
586.467
 21
171.5829999999999
 31
0.0
  0
LINE
  5
7A
330
78
100
AcDbEntity
  8
DIM
  6
CONTINUOUS
 62
     0
100
AcDbLine
 10
603.0149999999999
 20
82.73299999999997
 30
0.0
 11
586.467
 21
82.73299999999997
 31
0.0
  0
LINE
  5
7B
330
78
100
AcDbEntity
  8
DIM
  6
CONTINUOUS
 62
     0
100
AcDbLine
 10
587.467
 20
169.083
 30
0.0
 11
587.467
 21
85.23299999999997
 31
0.0
  0
SOLID
  5
7C
330
78
100
AcDbEntity
  8
DIM
  6
CONTINUOUS
 62
     0
100
AcDbTrace
 10
587.0503333333332
 20
169.083
 30
0.0
 11
587.8836666666666
 21
169.083
 31
0.0
 12
587.467
 22
171.5829999999999
 32
0.0
 13
587.467
 23
171.5829999999999
 33
0.0
  0
SOLID
  5
7D
330
78
100
AcDbEntity
  8
DIM
  6
CONTINUOUS
 62
     0
100
AcDbTrace
 10
587.0503333333332
 20
85.23299999999997
 30
0.0
 11
587.8836666666666
 21
85.23299999999997
 31
0.0
 12
587.467
 22
82.73299999999997
 32
0.0
 13
587.467
 23
82.73299999999997
 33
0.0
  0
MTEXT
  5
7E
330
78
100
AcDbEntity
  8
DIM
  6
CONTINUOUS
 62
     4
100
AcDbMText
 10
585.3225934515688
 20
129.8229999999996
 30
0.0
 40
3.0
 41
0.0
 71
     5
 72
     1
  1
\A1;88.8
  7
TSTYLE5
 11
0.0000000000000001
 21
1.0
 31
0.0
1001
ACAD
1000
MTEXTBEGIN
1070
    73
1070
     1
1070
    44
1040
1.0
1070
    74
1070
     0
1000
MTEXTEND
1000
MTEXTBEGIN
1070
    73
1070
     1
1070
    44
1040
1.0
1070
    74
1070
     0
1000
MTEXTEND
1000
MTEXTBEGIN
1070
    73
1070
     1
1070
    44
1040
1.0
1070
    74
1070
     0
1000
MTEXTEND
1000
MTEXTBEGIN
1070
    73
1070
     1
1070
    44
1040
1.0
1070
    74
1070
     0
1000
MTEXTEND
  0
POINT
  5
7F
330
78
100
AcDbEntity
  8
DEFPOINTS
  6
CONTINUOUS
 62
     0
100
AcDbPoint
 10
595.7849999999997
 20
171.5829999999999
 30
0.0
  0
POINT
  5
80
330
78
100
AcDbEntity
  8
DEFPOINTS
  6
CONTINUOUS
 62
     0
100
AcDbPoint
 10
604.126
 20
82.73299999999997
 30
0.0
  0
POINT
  5
81
330
78
100
AcDbEntity
  8
DEFPOINTS
  6
CONTINUOUS
 62
     0
100
AcDbPoint
 10
587.467
 20
82.73299999999997
 30
0.0
  0
ENDBLK
  5
83
330
78
100
AcDbEntity
  8
0
100
AcDbBlockEnd
  0
BLOCK
  5
8E
330
84
100
AcDbEntity
  8
0
100
AcDbBlockBegin
  2
*D2
 70
     1
 10
0.0
 20
0.0
 30
0.0
  3
*D2
  1

  0
LINE
  5
85
330
84
100
AcDbEntity
  8
DIM
  6
CONTINUOUS
 62
     0
100
AcDbLine
 10
626.391
 20
82.73299999999997
 30
0.0
 11
618.9099999999997
 21
82.73299999999997
 31
0.0
  0
LINE
  5
86
330
84
100
AcDbEntity
  8
DIM
  6
CONTINUOUS
 62
     0
100
AcDbLine
 10
629.591
 20
113.283
 30
0.0
 11
618.9099999999997
 21
113.283
 31
0.0
  0
LINE
  5
87
330
84
100
AcDbEntity
  8
DIM
  6
CONTINUOUS
 62
     0
100
AcDbLine
 10
619.9099999999997
 20
85.23299999999997
 30
0.0
 11
619.9099999999997
 21
110.7829999999996
 31
0.0
  0
SOLID
  5
88
330
84
100
AcDbEntity
  8
DIM
  6
CONTINUOUS
 62
     0
100
AcDbTrace
 10
619.4933333333332
 20
85.23299999999997
 30
0.0
 11
620.3266666666666
 21
85.23299999999997
 31
0.0
 12
619.9099999999997
 22
82.73299999999997
 32
0.0
 13
619.9099999999997
 23
82.73299999999997
 33
0.0
  0
SOLID
  5
89
330
84
100
AcDbEntity
  8
DIM
  6
CONTINUOUS
 62
     0
100
AcDbTrace
 10
619.4933333333332
 20
110.7829999999996
 30
0.0
 11
620.3266666666666
 21
110.7829999999996
 31
0.0
 12
619.9099999999997
 22
113.283
 32
0.0
 13
619.9099999999997
 23
113.283
 33
0.0
  0
MTEXT
  5
8A
330
84
100
AcDbEntity
  8
DIM
  6
CONTINUOUS
 62
     4
100
AcDbMText
 10
617.7641609822646
 20
97.78400000000001
 30
0.0
 40
3.0
 41
0.0
 71
     5
 72
     1
  1
\A1;30.5
  7
TSTYLE5
 11
0.0000000000000001
 21
1.0
 31
0.0
1001
ACAD
1000
MTEXTBEGIN
1070
    73
1070
     1
1070
    44
1040
1.0
1070
    74
1070
     0
1000
MTEXTEND
1000
MTEXTBEGIN
1070
    73
1070
     1
1070
    44
1040
1.0
1070
    74
1070
     0
1000
MTEXTEND
1000
MTEXTBEGIN
1070
    73
1070
     1
1070
    44
1040
1.0
1070
    74
1070
     0
1000
MTEXTEND
1000
MTEXTBEGIN
1070
    73
1070
     1
1070
    44
1040
1.0
1070
    74
1070
     0
1000
MTEXTEND
  0
POINT
  5
8B
330
84
100
AcDbEntity
  8
DEFPOINTS
  6
CONTINUOUS
 62
     0
100
AcDbPoint
 10
627.5019999999997
 20
82.73299999999997
 30
0.0
  0
POINT
  5
8C
330
84
100
AcDbEntity
  8
DEFPOINTS
  6
CONTINUOUS
 62
     0
100
AcDbPoint
 10
630.702
 20
113.283
 30
0.0
  0
POINT
  5
8D
330
84
100
AcDbEntity
  8
DEFPOINTS
  6
CONTINUOUS
 62
     0
100
AcDbPoint
 10
619.9099999999997
 20
113.283
 30
0.0
  0
ENDBLK
  5
8F
330
84
100
AcDbEntity
  8
0
100
AcDbBlockEnd
  0
BLOCK
  5
9A
330
90
100
AcDbEntity
  8
0
100
AcDbBlockBegin
  2
*D3
 70
     1
 10
0.0
 20
0.0
 30
0.0
  3
*D3
  1

  0
LINE
  5
91
330
90
100
AcDbEntity
  8
DIM
  6
CONTINUOUS
 62
     0
100
AcDbLine
 10
626.345
 20
147.083
 30
0.0
 11
618.9099999999997
 21
147.083
 31
0.0
  0
LINE
  5
92
330
90
100
AcDbEntity
  8
DIM
  6
CONTINUOUS
 62
     0
100
AcDbLine
 10
627.0789999999997
 20
113.283
 30
0.0
 11
618.9099999999997
 21
113.283
 31
0.0
  0
LINE
  5
93
330
90
100
AcDbEntity
  8
DIM
  6
CONTINUOUS
 62
     0
100
AcDbLine
 10
619.9099999999997
 20
144.5829999999999
 30
0.0
 11
619.9099999999997
 21
115.7829999999999
 31
0.0
  0
SOLID
  5
94
330
90
100
AcDbEntity
  8
DIM
  6
CONTINUOUS
 62
     0
100
AcDbTrace
 10
619.4933333333332
 20
144.5829999999999
 30
0.0
 11
620.3266666666666
 21
144.5829999999999
 31
0.0
 12
619.9099999999997
 22
147.083
 32
0.0
 13
619.9099999999997
 23
147.083
 33
0.0
  0
SOLID
  5
95
330
90
100
AcDbEntity
  8
DIM
  6
CONTINUOUS
 62
     0
100
AcDbTrace
 10
619.4933333333332
 20
115.7829999999999
 30
0.0
 11
620.3266666666666
 21
115.7829999999999
 31
0.0
 12
619.9099999999997
 22
113.283
 32
0.0
 13
619.9099999999997
 23
113.283
 33
0.0
  0
MTEXT
  5
96
330
90
100
AcDbEntity
  8
DIM
  6
CONTINUOUS
 62
     4
100
AcDbMText
 10
617.7641609822646
 20
129.8229999999996
 30
0.0
 40
3.0
 41
0.0
 71
     5
 72
     1
  1
\A1;33.8
  7
TSTYLE5
 11
0.0000000000000001
 21
1.0
 31
0.0
1001
ACAD
1000
MTEXTBEGIN
1070
    73
1070
     1
1070
    44
1040
1.0
1070
    74
1070
     0
1000
MTEXTEND
1000
MTEXTBEGIN
1070
    73
1070
     1
1070
    44
1040
1.0
1070
    74
1070
     0
1000
MTEXTEND
1000
MTEXTBEGIN
1070
    73
1070
     1
1070
    44
1040
1.0
1070
    74
1070
     0
1000
MTEXTEND
1000
MTEXTBEGIN
1070
    73
1070
     1
1070
    44
1040
1.0
1070
    74
1070
     0
1000
MTEXTEND
  0
POINT
  5
97
330
90
100
AcDbEntity
  8
DEFPOINTS
  6
CONTINUOUS
 62
     0
100
AcDbPoint
 10
629.9680000000002
 20
147.083
 30
0.0
  0
POINT
  5
98
330
90
100
AcDbEntity
  8
DEFPOINTS
  6
CONTINUOUS
 62
     0
100
AcDbPoint
 10
630.702
 20
113.283
 30
0.0
  0
POINT
  5
99
330
90
100
AcDbEntity
  8
DEFPOINTS
  6
CONTINUOUS
 62
     0
100
AcDbPoint
 10
619.9099999999997
 20
113.283
 30
0.0
  0
ENDBLK
  5
9B
330
90
100
AcDbEntity
  8
0
100
AcDbBlockEnd
  0
BLOCK
  5
A6
330
9C
100
AcDbEntity
  8
0
100
AcDbBlockBegin
  2
*D4
 70
     1
 10
0.0
 20
0.0
 30
0.0
  3
*D4
  1

  0
LINE
  5
9D
330
9C
100
AcDbEntity
  8
DIM
  6
CONTINUOUS
 62
     0
100
AcDbLine
 10
687.802
 20
153.2349999999999
 30
0.0
 11
687.802
 21
180.7809999999999
 31
0.0
  0
LINE
  5
9E
330
9C
100
AcDbEntity
  8
DIM
  6
CONTINUOUS
 62
     0
100
AcDbLine
 10
627.0019999999997
 20
156.2349999999999
 30
0.0
 11
627.0019999999997
 21
180.7809999999999
 31
0.0
  0
LINE
  5
9F
330
9C
100
AcDbEntity
  8
DIM
  6
CONTINUOUS
 62
     0
100
AcDbLine
 10
685.302
 20
179.7809999999999
 30
0.0
 11
629.502
 21
179.7809999999999
 31
0.0
  0
SOLID
  5
A0
330
9C
100
AcDbEntity
  8
DIM
  6
CONTINUOUS
 62
     0
100
AcDbTrace
 10
685.302
 20
180.1976666666666
 30
0.0
 11
685.302
 21
179.3643333333333
 31
0.0
 12
687.802
 22
179.7809999999999
 32
0.0
 13
687.802
 23
179.7809999999999
 33
0.0
  0
SOLID
  5
A1
330
9C
100
AcDbEntity
  8
DIM
  6
CONTINUOUS
 62
     0
100
AcDbTrace
 10
629.502
 20
180.1976666666666
 30
0.0
 11
629.502
 21
179.3643333333333
 31
0.0
 12
627.0019999999997
 22
179.7809999999999
 32
0.0
 13
627.0019999999997
 23
179.7809999999999
 33
0.0
  0
MTEXT
  5
A2
330
9C
100
AcDbEntity
  8
DIM
  6
CONTINUOUS
 62
     4
100
AcDbMText
 10
656.2519999999997
 20
181.925406548431
 30
0.0
 40
3.0
 41
0.0
 71
     5
 72
     1
  1
\A1;60.8
  7
TSTYLE5
1001
ACAD
1000
MTEXTBEGIN
1070
    73
1070
     1
1070
    44
1040
1.0
1070
    74
1070
     0
1000
MTEXTEND
1000
MTEXTBEGIN
1070
    73
1070
     1
1070
    44
1040
1.0
1070
    74
1070
     0
1000
MTEXTEND
1000
MTEXTBEGIN
1070
    73
1070
     1
1070
    44
1040
1.0
1070
    74
1070
     0
1000
MTEXTEND
1000
MTEXTBEGIN
1070
    73
1070
     1
1070
    44
1040
1.0
1070
    74
1070
     0
1000
MTEXTEND
  0
POINT
  5
A3
330
9C
100
AcDbEntity
  8
DEFPOINTS
  6
CONTINUOUS
 62
     0
100
AcDbPoint
 10
687.802
 20
151.083
 30
0.0
  0
POINT
  5
A4
330
9C
100
AcDbEntity
  8
DEFPOINTS
  6
CONTINUOUS
 62
     0
100
AcDbPoint
 10
627.0019999999997
 20
154.0829999999999
 30
0.0
  0
POINT
  5
A5
330
9C
100
AcDbEntity
  8
DEFPOINTS
  6
CONTINUOUS
 62
     0
100
AcDbPoint
 10
627.0019999999997
 20
179.7809999999999
 30
0.0
  0
ENDBLK
  5
A7
330
9C
100
AcDbEntity
  8
0
100
AcDbBlockEnd
  0
BLOCK
  5
B2
330
A8
100
AcDbEntity
  8
0
100
AcDbBlockBegin
  2
*D5
 70
     1
 10
0.0
 20
0.0
 30
0.0
  3
*D5
  1

  0
LINE
  5
A9
330
A8
100
AcDbEntity
  8
DIM
  6
CONTINUOUS
 62
     0
100
AcDbLine
 10
686.913
 20
152.083
 30
0.0
 11
694.001
 21
152.083
 31
0.0
  0
LINE
  5
AA
330
A8
100
AcDbEntity
  8
DIM
  6
CONTINUOUS
 62
     0
100
AcDbLine
 10
686.913
 20
107.0829999999999
 30
0.0
 11
694.001
 21
107.0829999999999
 31
0.0
  0
LINE
  5
AB
330
A8
100
AcDbEntity
  8
DIM
  6
CONTINUOUS
 62
     0
100
AcDbLine
 10
693.0010000000002
 20
149.5829999999999
 30
0.0
 11
693.0010000000002
 21
109.583
 31
0.0
  0
SOLID
  5
AC
330
A8
100
AcDbEntity
  8
DIM
  6
CONTINUOUS
 62
     0
100
AcDbTrace
 10
692.5843333333334
 20
149.5829999999999
 30
0.0
 11
693.4176666666667
 21
149.5829999999999
 31
0.0
 12
693.0010000000002
 22
152.083
 32
0.0
 13
693.0010000000002
 23
152.083
 33
0.0
  0
SOLID
  5
AD
330
A8
100
AcDbEntity
  8
DIM
  6
CONTINUOUS
 62
     0
100
AcDbTrace
 10
692.5843333333334
 20
109.583
 30
0.0
 11
693.4176666666667
 21
109.583
 31
0.0
 12
693.0010000000002
 22
107.0829999999999
 32
0.0
 13
693.0010000000002
 23
107.0829999999999
 33
0.0
  0
MTEXT
  5
AE
330
A8
100
AcDbEntity
  8
DIM
  6
CONTINUOUS
 62
     4
100
AcDbMText
 10
690.8651882673942
 20
127.8779999999999
 30
0.0
 40
3.0
 41
0.0
 71
     5
 72
     1
  1
\A1;45
  7
TSTYLE5
 11
0.0000000000000001
 21
1.0
 31
0.0
1001
ACAD
1000
MTEXTBEGIN
1070
    73
1070
     1
1070
    44
1040
1.0
1070
    74
1070
     0
1000
MTEXTEND
1000
MTEXTBEGIN
1070
    73
1070
     1
1070
    44
1040
1.0
1070
    74
1070
     0
1000
MTEXTEND
1000
MTEXTBEGIN
1070
    73
1070
     1
1070
    44
1040
1.0
1070
    74
1070
     0
1000
MTEXTEND
1000
MTEXTBEGIN
1070
    73
1070
     1
1070
    44
1040
1.0
1070
    74
1070
     0
1000
MTEXTEND
  0
POINT
  5
AF
330
A8
100
AcDbEntity
  8
DEFPOINTS
  6
CONTINUOUS
 62
     0
100
AcDbPoint
 10
685.802
 20
152.083
 30
0.0
  0
POINT
  5
B0
330
A8
100
AcDbEntity
  8
DEFPOINTS
  6
CONTINUOUS
 62
     0
100
AcDbPoint
 10
685.802
 20
107.0829999999999
 30
0.0
  0
POINT
  5
B1
330
A8
100
AcDbEntity
  8
DEFPOINTS
  6
CONTINUOUS
 62
     0
100
AcDbPoint
 10
693.0010000000002
 20
107.0829999999999
 30
0.0
  0
ENDBLK
  5
B3
330
A8
100
AcDbEntity
  8
0
100
AcDbBlockEnd
  0
BLOCK
  5
BE
330
B4
100
AcDbEntity
  8
0
100
AcDbBlockBegin
  2
*D6
 70
     1
 10
0.0
 20
0.0
 30
0.0
  3
*D6
  1

  0
LINE
  5
B5
330
B4
100
AcDbEntity
  8
DIM
  6
CONTINUOUS
 62
     0
100
AcDbLine
 10
655.913
 20
171.5829999999999
 30
0.0
 11
702.148
 21
171.5829999999999
 31
0.0
  0
LINE
  5
B6
330
B4
100
AcDbEntity
  8
DIM
  6
CONTINUOUS
 62
     0
100
AcDbLine
 10
655.913
 20
87.583
 30
0.0
 11
702.148
 21
87.58299999999998
 31
0.0
  0
LINE
  5
B7
330
B4
100
AcDbEntity
  8
DIM
  6
CONTINUOUS
 62
     0
100
AcDbLine
 10
701.148
 20
169.083
 30
0.0
 11
701.148
 21
90.08299999999998
 31
0.0
  0
SOLID
  5
B8
330
B4
100
AcDbEntity
  8
DIM
  6
CONTINUOUS
 62
     0
100
AcDbTrace
 10
700.7313333333334
 20
169.083
 30
0.0
 11
701.5646666666667
 21
169.083
 31
0.0
 12
701.148
 22
171.5829999999999
 32
0.0
 13
701.148
 23
171.5829999999999
 33
0.0
  0
SOLID
  5
B9
330
B4
100
AcDbEntity
  8
DIM
  6
CONTINUOUS
 62
     0
100
AcDbTrace
 10
700.7313333333334
 20
90.08299999999998
 30
0.0
 11
701.5646666666667
 21
90.08299999999998
 31
0.0
 12
701.148
 22
87.58299999999998
 32
0.0
 13
701.148
 23
87.58299999999998
 33
0.0
  0
MTEXT
  5
BA
330
B4
100
AcDbEntity
  8
DIM
  6
CONTINUOUS
 62
     4
100
AcDbMText
 10
699.0035934515689
 20
128.217
 30
0.0
 40
3.0
 41
0.0
 71
     5
 72
     1
  1
\A1;84
  7
TSTYLE5
 11
0.0000000000000001
 21
1.0
 31
0.0
1001
ACAD
1000
MTEXTBEGIN
1070
    73
1070
     1
1070
    44
1040
1.0
1070
    74
1070
     0
1000
MTEXTEND
1000
MTEXTBEGIN
1070
    73
1070
     1
1070
    44
1040
1.0
1070
    74
1070
     0
1000
MTEXTEND
1000
MTEXTBEGIN
1070
    73
1070
     1
1070
    44
1040
1.0
1070
    74
1070
     0
1000
MTEXTEND
1000
MTEXTBEGIN
1070
    73
1070
     1
1070
    44
1040
1.0
1070
    74
1070
     0
1000
MTEXTEND
  0
POINT
  5
BB
330
B4
100
AcDbEntity
  8
DEFPOINTS
  6
CONTINUOUS
 62
     0
100
AcDbPoint
 10
654.802
 20
171.5829999999999
 30
0.0
  0
POINT
  5
BC
330
B4
100
AcDbEntity
  8
DEFPOINTS
  6
CONTINUOUS
 62
     0
100
AcDbPoint
 10
654.802
 20
87.583
 30
0.0
  0
POINT
  5
BD
330
B4
100
AcDbEntity
  8
DEFPOINTS
  6
CONTINUOUS
 62
     0
100
AcDbPoint
 10
701.148
 20
87.58299999999998
 30
0.0
  0
ENDBLK
  5
BF
330
B4
100
AcDbEntity
  8
0
100
AcDbBlockEnd
  0
BLOCK
  5
825
330
81B
100
AcDbEntity
  8
0
100
AcDbBlockBegin
  2
*D7
 70
     1
 10
0.0
 20
0.0
 30
0.0
  3
*D7
  1

  0
LINE
  5
86F
330
81B
100
AcDbEntity
  8
DIM
  6
CONTINUOUS
 62
     0
100
AcDbLine
 10
475.0922938833329
 20
419.3943498867112
 30
0.0
 11
475.0922938833329
 21
427.3463498867115
 31
0.0
  0
LINE
  5
870
330
81B
100
AcDbEntity
  8
DIM
  6
CONTINUOUS
 62
     0
100
AcDbLine
 10
492.592293883333
 20
419.3943498867112
 30
0.0
 11
492.592293883333
 21
427.3463498867115
 31
0.0
  0
LINE
  5
871
330
81B
100
AcDbEntity
  8
DIM
  6
CONTINUOUS
 62
     0
100
AcDbLine
 10
477.5922938833328
 20
426.3463498867115
 30
0.0
 11
490.0922938833328
 21
426.3463498867115
 31
0.0
  0
SOLID
  5
872
330
81B
100
AcDbEntity
  8
DIM
  6
CONTINUOUS
 62
     0
100
AcDbTrace
 10
477.5922938833328
 20
426.7630165533782
 30
0.0
 11
477.5922938833328
 21
425.9296832200448
 31
0.0
 12
475.0922938833329
 22
426.3463498867115
 32
0.0
 13
475.0922938833329
 23
426.3463498867115
 33
0.0
  0
SOLID
  5
873
330
81B
100
AcDbEntity
  8
DIM
  6
CONTINUOUS
 62
     0
100
AcDbTrace
 10
490.0922938833328
 20
426.7630165533782
 30
0.0
 11
490.0922938833328
 21
425.9296832200448
 31
0.0
 12
492.592293883333
 22
426.3463498867115
 32
0.0
 13
492.592293883333
 23
426.3463498867115
 33
0.0
  0
MTEXT
  5
874
330
81B
100
AcDbEntity
  8
DIM
  6
CONTINUOUS
 62
     4
100
AcDbMText
 10
483.644293883333
 20
428.4907564351426
 30
0.0
 40
3.0
 41
0.0
 71
     5
 72
     1
  1
\A1;17.5
  7
TSTYLE5
1001
ACAD
1000
MTEXTBEGIN
1070
    73
1070
     1
1070
    44
1040
1.0
1070
    74
1070
     0
1000
MTEXTEND
1000
MTEXTBEGIN
1070
    73
1070
     1
1070
    44
1040
1.0
1070
    74
1070
     0
1000
MTEXTEND
1000
MTEXTBEGIN
1070
    73
1070
     1
1070
    44
1040
1.0
1070
    74
1070
     0
1000
MTEXTEND
1000
MTEXTBEGIN
1070
    73
1070
     1
1070
    44
1040
1.0
1070
    74
1070
     0
1000
MTEXTEND
  0
POINT
  5
875
330
81B
100
AcDbEntity
  8
DEFPOINTS
  6
CONTINUOUS
 62
     0
100
AcDbPoint
 10
475.0922938833329
 20
416.1483498867116
 30
0.0
  0
POINT
  5
876
330
81B
100
AcDbEntity
  8
DEFPOINTS
  6
CONTINUOUS
 62
     0
100
AcDbPoint
 10
492.592293883333
 20
416.1483498867116
 30
0.0
  0
POINT
  5
877
330
81B
100
AcDbEntity
  8
DEFPOINTS
  6
CONTINUOUS
 62
     0
100
AcDbPoint
 10
492.592293883333
 20
426.3463498867115
 30
0.0
  0
ENDBLK
  5
826
330
81B
100
AcDbEntity
  8
0
100
AcDbBlockEnd
  0
BLOCK
  5
831
330
827
100
AcDbEntity
  8
0
100
AcDbBlockBegin
  2
*D8
 70
     1
 10
0.0
 20
0.0
 30
0.0
  3
*D8
  1

  0
LINE
  5
878
330
827
100
AcDbEntity
  8
DIM
  6
CONTINUOUS
 62
     0
100
AcDbLine
 10
567.5092938833329
 20
399.8003498867115
 30
0.0
 11
567.5092938833329
 21
427.3463498867115
 31
0.0
  0
LINE
  5
879
330
827
100
AcDbEntity
  8
DIM
  6
CONTINUOUS
 62
     0
100
AcDbLine
 10
506.7092938833329
 20
402.8003498867112
 30
0.0
 11
506.7092938833329
 21
427.3463498867115
 31
0.0
  0
LINE
  5
87A
330
827
100
AcDbEntity
  8
DIM
  6
CONTINUOUS
 62
     0
100
AcDbLine
 10
565.0092938833329
 20
426.3463498867115
 30
0.0
 11
509.209293883333
 21
426.3463498867115
 31
0.0
  0
SOLID
  5
87B
330
827
100
AcDbEntity
  8
DIM
  6
CONTINUOUS
 62
     0
100
AcDbTrace
 10
565.0092938833329
 20
426.7630165533782
 30
0.0
 11
565.0092938833329
 21
425.9296832200448
 31
0.0
 12
567.5092938833329
 22
426.3463498867115
 32
0.0
 13
567.5092938833329
 23
426.3463498867115
 33
0.0
  0
SOLID
  5
87C
330
827
100
AcDbEntity
  8
DIM
  6
CONTINUOUS
 62
     0
100
AcDbTrace
 10
509.209293883333
 20
426.7630165533782
 30
0.0
 11
509.209293883333
 21
425.9296832200448
 31
0.0
 12
506.7092938833329
 22
426.3463498867115
 32
0.0
 13
506.7092938833329
 23
426.3463498867115
 33
0.0
  0
MTEXT
  5
87D
330
827
100
AcDbEntity
  8
DIM
  6
CONTINUOUS
 62
     4
100
AcDbMText
 10
535.9592938833328
 20
428.4907564351426
 30
0.0
 40
3.0
 41
0.0
 71
     5
 72
     1
  1
\A1;60.8
  7
TSTYLE5
1001
ACAD
1000
MTEXTBEGIN
1070
    73
1070
     1
1070
    44
1040
1.0
1070
    74
1070
     0
1000
MTEXTEND
1000
MTEXTBEGIN
1070
    73
1070
     1
1070
    44
1040
1.0
1070
    74
1070
     0
1000
MTEXTEND
1000
MTEXTBEGIN
1070
    73
1070
     1
1070
    44
1040
1.0
1070
    74
1070
     0
1000
MTEXTEND
1000
MTEXTBEGIN
1070
    73
1070
     1
1070
    44
1040
1.0
1070
    74
1070
     0
1000
MTEXTEND
  0
POINT
  5
87E
330
827
100
AcDbEntity
  8
DEFPOINTS
  6
CONTINUOUS
 62
     0
100
AcDbPoint
 10
567.5092938833329
 20
397.6483498867115
 30
0.0
  0
POINT
  5
87F
330
827
100
AcDbEntity
  8
DEFPOINTS
  6
CONTINUOUS
 62
     0
100
AcDbPoint
 10
506.7092938833329
 20
400.6483498867113
 30
0.0
  0
POINT
  5
880
330
827
100
AcDbEntity
  8
DEFPOINTS
  6
CONTINUOUS
 62
     0
100
AcDbPoint
 10
506.7092938833329
 20
426.3463498867115
 30
0.0
  0
ENDBLK
  5
832
330
827
100
AcDbEntity
  8
0
100
AcDbBlockEnd
  0
BLOCK
  5
83D
330
833
100
AcDbEntity
  8
0
100
AcDbBlockBegin
  2
*D9
 70
     1
 10
0.0
 20
0.0
 30
0.0
  3
*D9
  1

  0
LINE
  5
881
330
833
100
AcDbEntity
  8
DIM
  6
CONTINUOUS
 62
     0
100
AcDbLine
 10
535.620293883333
 20
418.1483498867113
 30
0.0
 11
581.8552938833331
 21
418.1483498867113
 31
0.0
  0
LINE
  5
882
330
833
100
AcDbEntity
  8
DIM
  6
CONTINUOUS
 62
     0
100
AcDbLine
 10
535.620293883333
 20
334.1483498867115
 30
0.0
 11
581.8552938833331
 21
334.1483498867115
 31
0.0
  0
LINE
  5
883
330
833
100
AcDbEntity
  8
DIM
  6
CONTINUOUS
 62
     0
100
AcDbLine
 10
580.8552938833331
 20
415.6483498867116
 30
0.0
 11
580.8552938833331
 21
336.6483498867115
 31
0.0
  0
SOLID
  5
884
330
833
100
AcDbEntity
  8
DIM
  6
CONTINUOUS
 62
     0
100
AcDbTrace
 10
580.4386272166665
 20
415.6483498867116
 30
0.0
 11
581.2719605499998
 21
415.6483498867116
 31
0.0
 12
580.8552938833331
 22
418.1483498867113
 32
0.0
 13
580.8552938833331
 23
418.1483498867113
 33
0.0
  0
SOLID
  5
885
330
833
100
AcDbEntity
  8
DIM
  6
CONTINUOUS
 62
     0
100
AcDbTrace
 10
580.4386272166665
 20
336.6483498867115
 30
0.0
 11
581.2719605499998
 21
336.6483498867115
 31
0.0
 12
580.8552938833331
 22
334.1483498867115
 32
0.0
 13
580.8552938833331
 23
334.1483498867115
 33
0.0
  0
MTEXT
  5
886
330
833
100
AcDbEntity
  8
DIM
  6
CONTINUOUS
 62
     4
100
AcDbMText
 10
578.7108873349019
 20
374.7823498867115
 30
0.0
 40
3.0
 41
0.0
 71
     5
 72
     1
  1
\A1;84
  7
TSTYLE5
 11
0.0000000000000001
 21
1.0
 31
0.0
1001
ACAD
1000
MTEXTBEGIN
1070
    73
1070
     1
1070
    44
1040
1.0
1070
    74
1070
     0
1000
MTEXTEND
1000
MTEXTBEGIN
1070
    73
1070
     1
1070
    44
1040
1.0
1070
    74
1070
     0
1000
MTEXTEND
1000
MTEXTBEGIN
1070
    73
1070
     1
1070
    44
1040
1.0
1070
    74
1070
     0
1000
MTEXTEND
1000
MTEXTBEGIN
1070
    73
1070
     1
1070
    44
1040
1.0
1070
    74
1070
     0
1000
MTEXTEND
  0
POINT
  5
887
330
833
100
AcDbEntity
  8
DEFPOINTS
  6
CONTINUOUS
 62
     0
100
AcDbPoint
 10
534.5092938833329
 20
418.1483498867113
 30
0.0
  0
POINT
  5
888
330
833
100
AcDbEntity
  8
DEFPOINTS
  6
CONTINUOUS
 62
     0
100
AcDbPoint
 10
534.5092938833329
 20
334.1483498867115
 30
0.0
  0
POINT
  5
889
330
833
100
AcDbEntity
  8
DEFPOINTS
  6
CONTINUOUS
 62
     0
100
AcDbPoint
 10
580.8552938833331
 20
334.1483498867115
 30
0.0
  0
ENDBLK
  5
83E
330
833
100
AcDbEntity
  8
0
100
AcDbBlockEnd
  0
BLOCK
  5
849
330
83F
100
AcDbEntity
  8
0
100
AcDbBlockBegin
  2
*D10
 70
     1
 10
0.0
 20
0.0
 30
0.0
  3
*D10
  1

  0
LINE
  5
88A
330
83F
100
AcDbEntity
  8
DIM
  6
CONTINUOUS
 62
     0
100
AcDbLine
 10
566.620293883333
 20
398.6483498867115
 30
0.0
 11
573.7082938833331
 21
398.6483498867115
 31
0.0
  0
LINE
  5
88B
330
83F
100
AcDbEntity
  8
DIM
  6
CONTINUOUS
 62
     0
100
AcDbLine
 10
566.620293883333
 20
353.6483498867115
 30
0.0
 11
573.7082938833331
 21
353.6483498867115
 31
0.0
  0
LINE
  5
88C
330
83F
100
AcDbEntity
  8
DIM
  6
CONTINUOUS
 62
     0
100
AcDbLine
 10
572.7082938833332
 20
396.1483498867115
 30
0.0
 11
572.7082938833332
 21
356.1483498867115
 31
0.0
  0
SOLID
  5
88D
330
83F
100
AcDbEntity
  8
DIM
  6
CONTINUOUS
 62
     0
100
AcDbTrace
 10
572.2916272166663
 20
396.1483498867115
 30
0.0
 11
573.1249605499997
 21
396.1483498867115
 31
0.0
 12
572.7082938833332
 22
398.6483498867115
 32
0.0
 13
572.7082938833332
 23
398.6483498867115
 33
0.0
  0
SOLID
  5
88E
330
83F
100
AcDbEntity
  8
DIM
  6
CONTINUOUS
 62
     0
100
AcDbTrace
 10
572.2916272166663
 20
356.1483498867115
 30
0.0
 11
573.1249605499997
 21
356.1483498867115
 31
0.0
 12
572.7082938833332
 22
353.6483498867115
 32
0.0
 13
572.7082938833332
 23
353.6483498867115
 33
0.0
  0
MTEXT
  5
88F
330
83F
100
AcDbEntity
  8
DIM
  6
CONTINUOUS
 62
     4
100
AcDbMText
 10
570.5724821507272
 20
374.4433498867115
 30
0.0
 40
3.0
 41
0.0
 71
     5
 72
     1
  1
\A1;45
  7
TSTYLE5
 11
0.0000000000000001
 21
1.0
 31
0.0
1001
ACAD
1000
MTEXTBEGIN
1070
    73
1070
     1
1070
    44
1040
1.0
1070
    74
1070
     0
1000
MTEXTEND
1000
MTEXTBEGIN
1070
    73
1070
     1
1070
    44
1040
1.0
1070
    74
1070
     0
1000
MTEXTEND
1000
MTEXTBEGIN
1070
    73
1070
     1
1070
    44
1040
1.0
1070
    74
1070
     0
1000
MTEXTEND
1000
MTEXTBEGIN
1070
    73
1070
     1
1070
    44
1040
1.0
1070
    74
1070
     0
1000
MTEXTEND
  0
POINT
  5
890
330
83F
100
AcDbEntity
  8
DEFPOINTS
  6
CONTINUOUS
 62
     0
100
AcDbPoint
 10
565.5092938833329
 20
398.6483498867115
 30
0.0
  0
POINT
  5
891
330
83F
100
AcDbEntity
  8
DEFPOINTS
  6
CONTINUOUS
 62
     0
100
AcDbPoint
 10
565.5092938833329
 20
353.6483498867115
 30
0.0
  0
POINT
  5
892
330
83F
100
AcDbEntity
  8
DEFPOINTS
  6
CONTINUOUS
 62
     0
100
AcDbPoint
 10
572.7082938833332
 20
353.6483498867115
 30
0.0
  0
ENDBLK
  5
84A
330
83F
100
AcDbEntity
  8
0
100
AcDbBlockEnd
  0
BLOCK
  5
855
330
84B
100
AcDbEntity
  8
0
100
AcDbBlockBegin
  2
*D11
 70
     1
 10
0.0
 20
0.0
 30
0.0
  3
*D11
  1

  0
LINE
  5
893
330
84B
100
AcDbEntity
  8
DIM
  6
CONTINUOUS
 62
     0
100
AcDbLine
 10
506.0522938833329
 20
393.6483498867115
 30
0.0
 11
498.617293883333
 21
393.6483498867115
 31
0.0
  0
LINE
  5
894
330
84B
100
AcDbEntity
  8
DIM
  6
CONTINUOUS
 62
     0
100
AcDbLine
 10
506.786293883333
 20
359.8483498867116
 30
0.0
 11
498.617293883333
 21
359.8483498867116
 31
0.0
  0
LINE
  5
895
330
84B
100
AcDbEntity
  8
DIM
  6
CONTINUOUS
 62
     0
100
AcDbLine
 10
499.6172938833331
 20
391.1483498867115
 30
0.0
 11
499.6172938833328
 21
362.3483498867116
 31
0.0
  0
SOLID
  5
896
330
84B
100
AcDbEntity
  8
DIM
  6
CONTINUOUS
 62
     0
100
AcDbTrace
 10
499.2006272166664
 20
391.1483498867115
 30
0.0
 11
500.0339605499998
 21
391.1483498867115
 31
0.0
 12
499.6172938833331
 22
393.6483498867115
 32
0.0
 13
499.6172938833331
 23
393.6483498867115
 33
0.0
  0
SOLID
  5
897
330
84B
100
AcDbEntity
  8
DIM
  6
CONTINUOUS
 62
     0
100
AcDbTrace
 10
499.2006272166663
 20
362.3483498867116
 30
0.0
 11
500.0339605499997
 21
362.3483498867116
 31
0.0
 12
499.6172938833328
 22
359.8483498867116
 32
0.0
 13
499.6172938833328
 23
359.8483498867116
 33
0.0
  0
MTEXT
  5
898
330
84B
100
AcDbEntity
  8
DIM
  6
CONTINUOUS
 62
     4
100
AcDbMText
 10
497.4714548655976
 20
376.3883498867115
 30
0.0
 40
3.0
 41
0.0
 71
     5
 72
     1
  1
\A1;33.8
  7
TSTYLE5
 11
0.0000000000000001
 21
1.0
 31
0.0
1001
ACAD
1000
MTEXTBEGIN
1070
    73
1070
     1
1070
    44
1040
1.0
1070
    74
1070
     0
1000
MTEXTEND
1000
MTEXTBEGIN
1070
    73
1070
     1
1070
    44
1040
1.0
1070
    74
1070
     0
1000
MTEXTEND
1000
MTEXTBEGIN
1070
    73
1070
     1
1070
    44
1040
1.0
1070
    74
1070
     0
1000
MTEXTEND
1000
MTEXTBEGIN
1070
    73
1070
     1
1070
    44
1040
1.0
1070
    74
1070
     0
1000
MTEXTEND
  0
POINT
  5
899
330
84B
100
AcDbEntity
  8
DEFPOINTS
  6
CONTINUOUS
 62
     0
100
AcDbPoint
 10
509.6752938833331
 20
393.6483498867115
 30
0.0
  0
POINT
  5
89A
330
84B
100
AcDbEntity
  8
DEFPOINTS
  6
CONTINUOUS
 62
     0
100
AcDbPoint
 10
510.4092938833328
 20
359.8483498867116
 30
0.0
  0
POINT
  5
89B
330
84B
100
AcDbEntity
  8
DEFPOINTS
  6
CONTINUOUS
 62
     0
100
AcDbPoint
 10
499.6172938833328
 20
359.8483498867116
 30
0.0
  0
ENDBLK
  5
856
330
84B
100
AcDbEntity
  8
0
100
AcDbBlockEnd
  0
BLOCK
  5
861
330
857
100
AcDbEntity
  8
0
100
AcDbBlockBegin
  2
*D12
 70
     1
 10
0.0
 20
0.0
 30
0.0
  3
*D12
  1

  0
LINE
  5
89C
330
857
100
AcDbEntity
  8
DIM
  6
CONTINUOUS
 62
     0
100
AcDbLine
 10
474.381293883333
 20
418.1483498867113
 30
0.0
 11
466.1742938833331
 21
418.1483498867113
 31
0.0
  0
LINE
  5
89D
330
857
100
AcDbEntity
  8
DIM
  6
CONTINUOUS
 62
     0
100
AcDbLine
 10
482.7222938833329
 20
329.2983498867116
 30
0.0
 11
466.1742938833328
 21
329.2983498867116
 31
0.0
  0
LINE
  5
89E
330
857
100
AcDbEntity
  8
DIM
  6
CONTINUOUS
 62
     0
100
AcDbLine
 10
467.1742938833331
 20
415.6483498867116
 30
0.0
 11
467.1742938833331
 21
331.7983498867115
 31
0.0
  0
SOLID
  5
89F
330
857
100
AcDbEntity
  8
DIM
  6
CONTINUOUS
 62
     0
100
AcDbTrace
 10
466.7576272166664
 20
415.6483498867116
 30
0.0
 11
467.5909605499998
 21
415.6483498867116
 31
0.0
 12
467.1742938833331
 22
418.1483498867113
 32
0.0
 13
467.1742938833331
 23
418.1483498867113
 33
0.0
  0
SOLID
  5
8A0
330
857
100
AcDbEntity
  8
DIM
  6
CONTINUOUS
 62
     0
100
AcDbTrace
 10
466.7576272166662
 20
331.7983498867115
 30
0.0
 11
467.5909605499996
 21
331.7983498867115
 31
0.0
 12
467.1742938833331
 22
329.2983498867116
 32
0.0
 13
467.1742938833331
 23
329.2983498867116
 33
0.0
  0
MTEXT
  5
8A1
330
857
100
AcDbEntity
  8
DIM
  6
CONTINUOUS
 62
     4
100
AcDbMText
 10
465.0298873349019
 20
376.3883498867115
 30
0.0
 40
3.0
 41
0.0
 71
     5
 72
     1
  1
\A1;88.8
  7
TSTYLE5
 11
0.0000000000000001
 21
1.0
 31
0.0
1001
ACAD
1000
MTEXTBEGIN
1070
    73
1070
     1
1070
    44
1040
1.0
1070
    74
1070
     0
1000
MTEXTEND
1000
MTEXTBEGIN
1070
    73
1070
     1
1070
    44
1040
1.0
1070
    74
1070
     0
1000
MTEXTEND
1000
MTEXTBEGIN
1070
    73
1070
     1
1070
    44
1040
1.0
1070
    74
1070
     0
1000
MTEXTEND
1000
MTEXTBEGIN
1070
    73
1070
     1
1070
    44
1040
1.0
1070
    74
1070
     0
1000
MTEXTEND
  0
POINT
  5
8A2
330
857
100
AcDbEntity
  8
DEFPOINTS
  6
CONTINUOUS
 62
     0
100
AcDbPoint
 10
475.4922938833328
 20
418.1483498867113
 30
0.0
  0
POINT
  5
8A3
330
857
100
AcDbEntity
  8
DEFPOINTS
  6
CONTINUOUS
 62
     0
100
AcDbPoint
 10
483.833293883333
 20
329.2983498867116
 30
0.0
  0
POINT
  5
8A4
330
857
100
AcDbEntity
  8
DEFPOINTS
  6
CONTINUOUS
 62
     0
100
AcDbPoint
 10
467.1742938833331
 20
329.2983498867116
 30
0.0
  0
ENDBLK
  5
862
330
857
100
AcDbEntity
  8
0
100
AcDbBlockEnd
  0
BLOCK
  5
86D
330
863
100
AcDbEntity
  8
0
100
AcDbBlockBegin
  2
*D13
 70
     1
 10
0.0
 20
0.0
 30
0.0
  3
*D13
  1

  0
LINE
  5
8A5
330
863
100
AcDbEntity
  8
DIM
  6
CONTINUOUS
 62
     0
100
AcDbLine
 10
506.098293883333
 20
329.2983498867116
 30
0.0
 11
498.617293883333
 21
329.2983498867116
 31
0.0
  0
LINE
  5
8A6
330
863
100
AcDbEntity
  8
DIM
  6
CONTINUOUS
 62
     0
100
AcDbLine
 10
509.2982938833329
 20
359.8483498867116
 30
0.0
 11
498.617293883333
 21
359.8483498867116
 31
0.0
  0
LINE
  5
8A7
330
863
100
AcDbEntity
  8
DIM
  6
CONTINUOUS
 62
     0
100
AcDbLine
 10
499.6172938833328
 20
331.7983498867115
 30
0.0
 11
499.6172938833328
 21
357.3483498867116
 31
0.0
  0
SOLID
  5
8A8
330
863
100
AcDbEntity
  8
DIM
  6
CONTINUOUS
 62
     0
100
AcDbTrace
 10
499.2006272166663
 20
331.7983498867115
 30
0.0
 11
500.0339605499997
 21
331.7983498867115
 31
0.0
 12
499.6172938833328
 22
329.2983498867116
 32
0.0
 13
499.6172938833328
 23
329.2983498867116
 33
0.0
  0
SOLID
  5
8A9
330
863
100
AcDbEntity
  8
DIM
  6
CONTINUOUS
 62
     0
100
AcDbTrace
 10
499.2006272166663
 20
357.3483498867116
 30
0.0
 11
500.0339605499997
 21
357.3483498867116
 31
0.0
 12
499.6172938833328
 22
359.8483498867116
 32
0.0
 13
499.6172938833328
 23
359.8483498867116
 33
0.0
  0
MTEXT
  5
8AA
330
863
100
AcDbEntity
  8
DIM
  6
CONTINUOUS
 62
     4
100
AcDbMText
 10
497.4714548655976
 20
344.3493498867116
 30
0.0
 40
3.0
 41
0.0
 71
     5
 72
     1
  1
\A1;30.5
  7
TSTYLE5
 11
0.0000000000000001
 21
1.0
 31
0.0
1001
ACAD
1000
MTEXTBEGIN
1070
    73
1070
     1
1070
    44
1040
1.0
1070
    74
1070
     0
1000
MTEXTEND
1000
MTEXTBEGIN
1070
    73
1070
     1
1070
    44
1040
1.0
1070
    74
1070
     0
1000
MTEXTEND
1000
MTEXTBEGIN
1070
    73
1070
     1
1070
    44
1040
1.0
1070
    74
1070
     0
1000
MTEXTEND
1000
MTEXTBEGIN
1070
    73
1070
     1
1070
    44
1040
1.0
1070
    74
1070
     0
1000
MTEXTEND
  0
POINT
  5
8AB
330
863
100
AcDbEntity
  8
DEFPOINTS
  6
CONTINUOUS
 62
     0
100
AcDbPoint
 10
507.2092938833328
 20
329.2983498867116
 30
0.0
  0
POINT
  5
8AC
330
863
100
AcDbEntity
  8
DEFPOINTS
  6
CONTINUOUS
 62
     0
100
AcDbPoint
 10
510.4092938833328
 20
359.8483498867116
 30
0.0
  0
POINT
  5
8AD
330
863
100
AcDbEntity
  8
DEFPOINTS
  6
CONTINUOUS
 62
     0
100
AcDbPoint
 10
499.6172938833328
 20
359.8483498867116
 30
0.0
  0
ENDBLK
  5
86E
330
863
100
AcDbEntity
  8
0
100
AcDbBlockEnd
  0
ENDSEC
  0
SECTION
  2
ENTITIES
  0
LINE
  5
477
330
1F
100
AcDbEntity
  8
CARTOUCHE
  6
CONTINUOUS
 62
     7
100
AcDbLine
 10
421.9712938833329
 20
216.5493498867113
 30
0.0
 11
421.9712938833329
 21
503.5493498867116
 31
0.0
  0
LINE
  5
478
330
1F
100
AcDbEntity
  8
CARTOUCHE
  6
CONTINUOUS
 62
     7
100
AcDbLine
 10
621.9712938833329
 20
503.5493498867116
 30
0.0
 11
621.9712938833329
 21
216.5493498867113
 31
0.0
  0
DIMENSION
  5
479
330
1F
100
AcDbEntity
  8
DIM
  6
CONTINUOUS
 62
     3
100
AcDbDimension
  2
*D9
 10
580.8552938833331
 20
334.1483498867115
 30
0.0
 11
580.8552938833329
 21
374.7823498867115
 31
0.0
 70
   160
  1
<>
  3
DSTYLE2
100
AcDbAlignedDimension
 13
534.5092938833329
 23
418.1483498867113
 33
0.0
 14
534.5092938833329
 24
334.1483498867115
 34
0.0
 50
90.0
100
AcDbRotatedDimension
  0
DIMENSION
  5
47A
330
1F
100
AcDbEntity
  8
DIM
  6
CONTINUOUS
 62
     3
100
AcDbDimension
  2
*D10
 10
572.7082938833332
 20
353.6483498867115
 30
0.0
 11
572.7082938833331
 21
374.4433498867115
 31
0.0
 70
   160
  1
<>
  3
DSTYLE2
100
AcDbAlignedDimension
 13
565.5092938833329
 23
398.6483498867115
 33
0.0
 14
565.5092938833329
 24
353.6483498867115
 34
0.0
 50
90.0
100
AcDbRotatedDimension
  0
DIMENSION
  5
47B
330
1F
100
AcDbEntity
  8
DIM
  6
CONTINUOUS
 62
     3
100
AcDbDimension
  2
*D11
 10
499.6172938833328
 20
359.8483498867116
 30
0.0
 11
499.6172938833328
 21
376.3883498867115
 31
0.0
 70
   160
  1
<>
  3
DSTYLE3
100
AcDbAlignedDimension
 13
509.6752938833331
 23
393.6483498867115
 33
0.0
 14
510.4092938833328
 24
359.8483498867116
 34
0.0
 50
90.0
100
AcDbRotatedDimension
  0
DIMENSION
  5
47C
330
1F
100
AcDbEntity
  8
DIM
  6
CONTINUOUS
 62
     3
100
AcDbDimension
  2
*D12
 10
467.1742938833331
 20
329.2983498867116
 30
0.0
 11
467.1742938833329
 21
376.3883498867115
 31
0.0
 70
   160
  1
88.8
  3
DSTYLE2
100
AcDbAlignedDimension
 13
475.4922938833328
 23
418.1483498867113
 33
0.0
 14
483.833293883333
 24
329.2983498867116
 34
0.0
 50
90.0
100
AcDbRotatedDimension
  0
LINE
  5
47D
330
1F
100
AcDbEntity
  8
DRAW
  6
CONTINUOUS
 62
     7
100
AcDbLine
 10
507.2092938833328
 20
358.1483498867115
 30
0.0
 11
509.4072938833329
 21
361.3483498867116
 31
0.0
  0
LINE
  5
47E
330
1F
100
AcDbEntity
  8
DRAW
  6
CONTINUOUS
 62
     7
100
AcDbLine
 10
509.4072938833329
 20
361.3483498867116
 30
0.0
 11
509.809293883333
 21
359.8483498867116
 31
0.0
  0
LINE
  5
47F
330
1F
100
AcDbEntity
  8
DRAW
  6
CONTINUOUS
 62
     7
100
AcDbLine
 10
567.5092938833329
 20
354.6483498867115
 30
0.0
 11
567.5092938833329
 21
397.6483498867115
 31
0.0
  0
LINE
  5
480
330
1F
100
AcDbEntity
  8
DRAW
  6
CONTINUOUS
 62
     7
100
AcDbLine
 10
513.0092938833329
 20
373.6483498867115
 30
0.0
 11
513.0092938833329
 21
355.6483498867115
 31
0.0
  0
LINE
  5
481
330
1F
100
AcDbEntity
  8
DRAW
  6
CONTINUOUS
 62
     7
100
AcDbLine
 10
565.5092938833329
 20
396.6483498867115
 30
0.0
 11
565.5092938833329
 21
355.6483498867115
 31
0.0
  0
LINE
  5
482
330
1F
100
AcDbEntity
  8
DRAW
  6
CONTINUOUS
 62
     7
100
AcDbLine
 10
511.009293883333
 20
389.1483498867115
 30
0.0
 11
511.009293883333
 21
359.8483498867116
 31
0.0
  0
LINE
  5
487
330
1F
100
AcDbEntity
  8
DRAW
  6
CONTINUOUS
 62
     7
100
AcDbLine
 10
475.0922938833329
 20
396.6483498867115
 30
0.0
 11
475.0922938833329
 21
355.6483498867115
 31
0.0
  0
LINE
  5
488
330
1F
100
AcDbEntity
  8
DRAW
  6
CONTINUOUS
 62
     7
100
AcDbLine
 10
492.592293883333
 20
355.6483498867115
 30
0.0
 11
492.592293883333
 21
396.6483498867115
 31
0.0
  0
LINE
  5
48E
330
1F
100
AcDbEntity
  8
CARTOUCHE
  6
CONTINUOUS
 62
     7
100
AcDbLine
 10
621.9712938833329
 20
216.5493498867113
 30
0.0
 11
421.9712938833329
 21
216.5493498867113
 31
0.0
  0
LINE
  5
48F
330
1F
100
AcDbEntity
  8
CARTOUCHE
  6
CONTINUOUS
 62
     7
100
AcDbLine
 10
621.9712938833329
 20
248.3943498867116
 30
0.0
 11
421.9712938833329
 21
248.3943498867116
 31
0.0
  0
LINE
  5
490
330
1F
100
AcDbEntity
  8
CARTOUCHE
  6
CONTINUOUS
 62
     7
100
AcDbLine
 10
621.9712938833329
 20
231.5513498867115
 30
0.0
 11
466.9712938833328
 21
231.5523498867114
 31
0.0
  0
LINE
  5
491
330
1F
100
AcDbEntity
  8
CARTOUCHE
  6
CONTINUOUS
 62
     7
100
AcDbLine
 10
621.9712938833329
 20
221.5493498867115
 30
0.0
 11
421.9712938833329
 21
221.5503498867116
 31
0.0
  0
ARC
  5
492
330
1F
100
AcDbEntity
  8
DRAW
  6
CONTINUOUS
 62
     7
100
AcDbCircle
 10
483.8422938833328
 20
332.5483498867116
 30
0.0
 40
2.25
100
AcDbArc
 50
199.4709999999995
 51
340.5290000000001
  0
LINE
  5
493
330
1F
100
AcDbEntity
  8
DRAW
  6
CONTINUOUS
 62
     7
100
AcDbLine
 10
492.1922938833329
 20
345.1483498867115
 30
0.0
 11
475.4922938833328
 21
345.1483498867115
 31
0.0
  0
LINE
  5
494
330
1F
100
AcDbEntity
  8
DRAW
  6
CONTINUOUS
 62
     7
100
AcDbLine
 10
492.1922938833329
 20
334.1483498867115
 30
0.0
 11
475.4922938833328
 21
334.1483498867115
 31
0.0
  0
ARC
  5
495
330
1F
100
AcDbEntity
  8
DRAW
  6
CONTINUOUS
 62
     7
100
AcDbCircle
 10
483.8422938833328
 20
332.5483498867116
 30
0.0
 40
3.25
100
AcDbArc
 50
240.3779999999981
 51
299.2929999999998
  0
LINE
  5
496
330
1F
100
AcDbEntity
  8
DRAW
  6
CONTINUOUS
 62
     7
100
AcDbLine
 10
475.4922938833328
 20
353.6483498867115
 30
0.0
 11
492.1922938833329
 21
353.6483498867115
 31
0.0
  0
TEXT
  5
498
330
1F
100
AcDbEntity
  8
CARTOUCHE
  6
CONTINUOUS
 62
     2
100
AcDbText
 10
433.4592938833329
 20
225.8573498867114
 30
0.0
 40
1.8
  1
www.findernet.com
 41
0.6
  7
TSTYLE2
100
AcDbText
  0
LINE
  5
499
330
1F
100
AcDbEntity
  8
CARTOUCHE
  6
CONTINUOUS
 62
     7
100
AcDbLine
 10
466.9712938833328
 20
248.3943498867116
 30
0.0
 11
466.9712938833328
 21
216.5493498867113
 31
0.0
  0
TEXT
  5
49A
330
1F
100
AcDbEntity
  8
CARTOUCHE
  6
CONTINUOUS
 62
     2
100
AcDbText
 10
436.762293883333
 20
218.1503498867114
 30
0.0
 40
1.8
  1
MOD. UT 902
 41
0.6
  7
TSTYLE2
100
AcDbText
  0
HATCH
  5
49B
330
1F
100
AcDbEntity
  8
CARTOUCHE
  6
CONTINUOUS
 62
     4
100
AcDbHatch
 10
0.0
 20
0.0
 30
0.0
210
0.0
220
0.0
230
1.0
  2
ANSI31
 70
     0
 71
     0
 91
        1
 92
        1
 93
       50
 72
     1
 10
427.4360786753249
 20
238.9484489929813
 11
427.4360786753249
 21
235.9776869929814
 72
     1
 10
427.4360786753249
 20
235.9776869929814
 11
425.146031675325
 21
235.9776869929814
 72
     1
 10
428.3851286753248
 20
239.2015639929814
 11
428.3851286753248
 21
235.3154569929813
 72
     1
 10
428.087678675325
 20
234.9597869929814
 11
427.859078675325
 21
234.9597869929814
 72
     1
 10
427.8590786753252
 20
234.9597869929814
 11
429.3341786753249
 21
233.3591369929814
 72
     1
 10
429.3341786753249
 20
233.3591369929814
 11
429.3341786753249
 21
239.2044279929814
 72
     1
 10
431.3249116753251
 20
237.0522869929814
 11
430.2944786753251
 21
237.0522869929814
 72
     1
 10
430.2944786753251
 20
237.0522869929814
 11
430.2944786753251
 21
238.9530769929814
 72
     1
 10
425.147568675325
 20
234.9597869929814
 11
426.3497786753251
 21
234.9597869929814
 72
     1
 10
426.3497786753251
 20
234.9597869929814
 11
429.144954675325
 21
232.2172709929814
 72
     1
 10
429.144954675325
 20
232.2172709929814
 11
429.199872675325
 21
232.1817959929814
 72
     1
 10
429.199872675325
 20
232.1817959929814
 11
429.2572686753252
 21
232.1503059929811
 72
     1
 10
429.2572686753252
 20
232.1503059929811
 11
429.3372536753251
 21
232.1148439929813
 72
     1
 10
429.3372536753251
 20
232.1148439929813
 11
429.3782626753252
 21
232.1001719929814
 72
     1
 10
429.3782626753252
 20
232.1001719929814
 11
429.419991675325
 21
232.0877399929814
 72
     1
 10
429.419991675325
 20
232.0877399929814
 11
429.4623086753253
 21
232.0778499929814
 72
     1
 10
429.4623086753252
 20
232.0778499929814
 11
429.5050846753252
 21
232.0708029929814
 72
     1
 10
429.5050846753252
 20
232.0708029929814
 11
429.548189675325
 21
232.0669029929814
 72
     1
 10
429.548189675325
 20
232.0669029929814
 11
429.591446675325
 21
232.0663589929814
 72
     1
 10
429.591446675325
 20
232.0663589929814
 11
429.6347116753251
 21
232.0690129929814
 72
     1
 10
429.6347116753251
 20
232.0690129929814
 11
429.677794675325
 21
232.0746209929814
 72
     1
 10
429.677794675325
 20
232.0746209929814
 11
429.720504675325
 21
232.0829369929814
 72
     1
 10
429.720504675325
 20
232.0829369929814
 11
429.762653675325
 21
232.0937179929814
 72
     1
 10
429.762653675325
 20
232.0937179929814
 11
429.8046556753248
 21
232.1069529929814
 72
     1
 10
429.8046556753248
 20
232.1069529929814
 11
429.845810675325
 21
232.1224219929811
 72
     1
 10
429.845810675325
 20
232.1224219929811
 11
429.8860426753249
 21
232.1400719929814
 72
     1
 10
429.8860426753249
 20
232.1400719929814
 11
429.9634426753248
 21
232.1817179929814
 72
     1
 10
429.9634426753249
 20
232.1817179929814
 11
430.0001266753253
 21
232.2054099929814
 72
     1
 10
430.0001266753252
 20
232.2054099929814
 11
430.035449675325
 21
232.2311069929813
 72
     1
 10
430.035449675325
 20
232.2311069929813
 11
430.069175675325
 21
232.2588169929814
 72
     1
 10
430.069175675325
 20
232.2588169929814
 11
430.1010706753252
 21
232.2885479929814
 72
     1
 10
430.1010706753252
 20
232.2885479929814
 11
430.1308986753252
 21
232.3203079929814
 72
     1
 10
430.1308986753252
 20
232.3203079929814
 11
430.158567675325
 21
232.3542209929814
 72
     1
 10
430.158567675325
 20
232.3542209929814
 11
430.1838636753251
 21
232.3899879929814
 72
     1
 10
430.1838636753251
 20
232.3899879929814
 11
430.2067356753251
 21
232.4274089929814
 72
     1
 10
430.2067356753251
 20
232.4274089929814
 11
430.2271326753253
 21
232.4662829929814
 72
     1
 10
430.2271326753253
 20
232.4662829929814
 11
430.2450056753253
 21
232.5064109929814
 72
     1
 10
430.2450056753253
 20
232.5064109929814
 11
430.2602846753249
 21
232.5475479929814
 72
     1
 10
430.2602846753249
 20
232.5475479929814
 11
430.272932675325
 21
232.5895449929814
 72
     1
 10
430.272932675325
 20
232.5895449929814
 11
430.2828876753252
 21
232.6322109929814
 72
     1
 10
430.2828876753252
 20
232.6322109929814
 11
430.2900906753252
 21
232.6753549929814
 72
     1
 10
430.2900906753252
 20
232.6753549929814
 11
430.2944786753251
 21
232.7187869929814
 72
     1
 10
430.2944786753251
 20
232.7187869929814
 11
430.2944786753251
 21
236.0573369929814
 72
     1
 10
430.2944786753251
 20
236.0573369929814
 11
431.426678675325
 21
236.0573369929814
 72
     2
 10
428.8709066753249
 20
235.4743599929814
 40
3.758726999999998
 50
112.441
 51
172.304
 73
     1
 72
     2
 10
427.922209675325
 20
235.4004359929814
 40
0.4706070000000003
 50
290.5819999999999
 51
349.598
 73
     1
 72
     2
 10
428.8709066753249
 20
235.4743599929814
 40
3.758726999999998
 50
82.91999999999999
 51
97.42600000000001
 73
     1
 72
     2
 10
428.8709066753249
 20
235.4743599929814
 40
3.758726999999998
 50
187.869
 51
427.7439999999998
 73
     1
 72
     2
 10
431.375794675325
 20
236.5548119929814
 40
0.5000710000000002
 50
275.8399999999999
 51
455.8399999999998
 73
     1
 72
     2
 10
428.8709016753252
 20
235.4743649929813
 40
4.756723
 50
0.0
 51
360.0
 73
     1
 97
        0
 75
     0
 76
     1
 52
315.0
 41
0.1
 77
     0
 78
     1
 53
0.0
 43
-120.2927061166669
 44
246.5653498867115
 45
0.0000000000000001
 46
0.3175
 79
     0
 98
        1
 10
-120.2927061166669
 20
246.5653498867115
  0
ARC
  5
49C
330
1F
100
AcDbEntity
  8
CARTOUCHE
  6
CONTINUOUS
 62
     4
100
AcDbCircle
 10
428.8712938833328
 20
235.4743498867115
 30
0.0
 40
3.758999999999999
100
AcDbArc
 50
112.4409999999998
 51
172.3040000000006
  0
CIRCLE
  5
49D
330
1F
100
AcDbEntity
  8
CARTOUCHE
  6
CONTINUOUS
 62
     4
100
AcDbCircle
 10
428.8712938833328
 20
235.4743498867115
 30
0.0
 40
4.756999999999997
  0
HATCH
  5
49E
330
1F
100
AcDbEntity
  8
CARTOUCHE
  6
CONTINUOUS
 62
     4
100
AcDbHatch
 10
0.0
 20
0.0
 30
0.0
210
0.0
220
0.0
230
1.0
  2
ANSI31
 70
     0
 71
     0
 91
        1
 92
        1
 93
      165
 72
     1
 10
456.0223286753251
 20
233.7933869929814
 11
456.1253786753248
 21
233.7933869929814
 72
     1
 10
456.1253786753248
 20
233.7933869929814
 11
459.1781786753251
 21
233.8050869929814
 72
     1
 10
459.1781786753251
 20
233.8050869929814
 11
459.2036336753251
 21
233.9147899929814
 72
     1
 10
459.2036336753251
 20
233.9147899929814
 11
459.2163036753251
 21
233.9984049929814
 72
     1
 10
459.2163036753251
 20
233.9984049929814
 11
459.2231296753251
 21
234.0826459929814
 72
     1
 10
459.2231296753251
 20
234.0826459929814
 11
459.222990675325
 21
234.1959119929814
 72
     1
 10
459.222990675325
 20
234.1959119929814
 11
459.2059656753249
 21
234.3650389929814
 72
     1
 10
459.2059656753249
 20
234.3650389929814
 11
459.179720675325
 21
234.5051559929814
 72
     1
 10
459.179720675325
 20
234.5051559929814
 11
459.1448346753251
 21
234.6433109929814
 72
     1
 10
459.1448346753251
 20
234.6433109929814
 11
459.1030506753253
 21
234.7780889929814
 72
     1
 10
459.1030506753253
 20
234.7780889929814
 11
459.053597675325
 21
234.9103639929814
 72
     1
 10
459.053597675325
 20
234.9103639929814
 11
459.008117675325
 21
235.0136589929814
 72
     1
 10
459.008117675325
 20
235.0136589929814
 11
458.9571166753251
 21
235.1144779929814
 72
     1
 10
458.9571166753251
 20
235.1144779929814
 11
458.9005356753252
 21
235.2122659929813
 72
     1
 10
458.9005356753252
 20
235.2122659929813
 11
458.838316675325
 21
235.3064699929814
 72
     1
 10
458.838316675325
 20
235.3064699929814
 11
458.7704006753249
 21
235.3965379929814
 72
     1
 10
458.7704006753249
 20
235.3965379929814
 11
458.6967796753251
 21
235.4820729929814
 72
     1
 10
458.6967796753251
 20
235.4820729929814
 11
458.6179746753251
 21
235.5629469929814
 72
     1
 10
458.6179746753251
 20
235.5629469929814
 11
458.5345646753252
 21
235.6391979929814
 72
     1
 10
458.5345646753251
 20
235.6391979929814
 11
458.3562516753251
 21
235.7779689929814
 72
     1
 10
458.3562516753251
 20
235.7779689929814
 11
458.2382416753252
 21
235.8555479929814
 72
     1
 10
458.2382416753252
 20
235.8555479929814
 11
458.1157056753251
 21
235.9253849929813
 72
     1
 10
458.1157056753251
 20
235.9253849929813
 11
457.988974675325
 21
235.9869289929814
 72
     1
 10
457.988974675325
 20
235.9869289929814
 11
457.8586516753252
 21
236.0405919929814
 72
     1
 10
457.8586516753253
 20
236.0405919929814
 11
457.5901276753253
 21
236.1276769929814
 72
     1
 10
457.5901276753253
 20
236.1276769929814
 11
457.3159076753251
 21
236.1945919929814
 72
     1
 10
457.3159076753251
 20
236.1945919929814
 11
457.038260675325
 21
236.2425729929814
 72
     1
 10
457.038260675325
 20
236.2425729929814
 11
456.758033675325
 21
236.2724579929813
 72
     1
 10
456.758033675325
 20
236.2724579929813
 11
456.194110675325
 21
236.2848169929814
 72
     1
 10
456.194110675325
 20
236.2848169929814
 11
455.6318416753248
 21
236.2447379929814
 72
     1
 10
455.6318416753248
 20
236.2447379929814
 11
455.353555675325
 21
236.2000819929814
 72
     1
 10
455.353555675325
 20
236.2000819929814
 11
455.0785386753251
 21
236.1372429929814
 72
     1
 10
455.0785386753251
 20
236.1372429929814
 11
454.8618486753253
 21
236.0730229929814
 72
     1
 10
454.8618486753253
 20
236.0730229929814
 11
454.7028416753253
 21
236.0146399929814
 72
     1
 10
454.702841675325
 20
236.0146399929814
 11
454.5481656753251
 21
235.9455679929814
 72
     1
 10
454.5481656753251
 20
235.9455679929814
 11
454.4482616753253
 21
235.8929219929814
 72
     1
 10
454.4482616753253
 20
235.8929219929814
 11
454.351322675325
 21
235.8348059929814
 72
     1
 10
454.351322675325
 20
235.8348059929814
 11
454.2578686753251
 21
235.7712489929814
 72
     1
 10
454.2578686753251
 20
235.7712489929814
 11
454.1684206753251
 21
235.7022829929814
 72
     1
 10
454.1684206753251
 20
235.7022829929814
 11
454.083498675325
 21
235.6279379929814
 72
     1
 10
454.083498675325
 20
235.6279379929814
 11
454.0035756753248
 21
235.5483569929814
 72
     1
 10
454.0035756753248
 20
235.5483569929814
 11
453.9287246753251
 21
235.4639169929814
 72
     1
 10
453.9287246753251
 20
235.4639169929814
 11
453.858978675325
 21
235.3751069929814
 72
     1
 10
453.858978675325
 20
235.3751069929814
 11
453.794368675325
 21
235.2824119929814
 72
     1
 10
453.794368675325
 20
235.2824119929814
 11
453.734924675325
 21
235.1863179929813
 72
     1
 10
453.734924675325
 20
235.1863179929813
 11
453.6317466753252
 21
234.9854319929814
 72
     1
 10
453.6317466753252
 20
234.9854319929814
 11
453.588316675325
 21
234.8812419929814
 72
     1
 10
453.588316675325
 20
234.8812419929814
 11
453.5505126753251
 21
234.7748859929814
 72
     1
 10
453.5505126753251
 20
234.7748859929814
 11
453.5184776753251
 21
234.6666169929814
 72
     1
 10
453.5184776753251
 20
234.6666169929814
 11
453.4923596753251
 21
234.5567329929814
 72
     1
 10
453.4923596753251
 20
234.5567329929814
 11
453.4723066753251
 21
234.4455559929814
 72
     1
 10
453.4723066753251
 20
234.4455559929814
 11
453.4584786753248
 21
234.3334549929814
 72
     1
 10
453.4584786753248
 20
234.3334549929814
 11
453.4510336753253
 21
234.2207989929814
 72
     1
 10
453.4510336753253
 20
234.2207989929814
 11
453.4501316753253
 21
234.1079569929814
 72
     1
 10
453.4501316753253
 20
234.1079569929814
 11
453.4560136753251
 21
233.9950149929814
 72
     1
 10
453.4560136753251
 20
233.9950149929814
 11
453.4785586753253
 21
233.8271859929814
 72
     1
 10
453.478558675325
 20
233.8271859929814
 11
453.503097675325
 21
233.7173059929813
 72
     1
 10
453.503097675325
 20
233.7173059929813
 11
453.5519166753251
 21
233.5552969929814
 72
     1
 10
453.5519166753251
 20
233.5552969929814
 11
453.634431675325
 21
233.3449939929814
 72
     1
 10
453.634431675325
 20
233.3449939929814
 11
453.709357675325
 21
233.1931859929814
 72
     1
 10
453.709357675325
 20
233.1931859929814
 11
453.7961316753253
 21
233.0482279929814
 72
     1
 10
453.7961316753253
 20
233.0482279929814
 11
453.877820675325
 21
232.9331629929814
 72
     1
 10
453.877820675325
 20
232.9331629929814
 11
453.9663306753251
 21
232.8230569929814
 72
     1
 10
453.9663306753251
 20
232.8230569929814
 11
454.0412316753251
 21
232.7381749929814
 72
     1
 10
454.0412316753251
 20
232.7381749929814
 11
454.1621616753251
 21
232.6193509929814
 72
     1
 10
454.1621616753251
 20
232.6193509929814
 11
454.2493956753253
 21
232.5483159929814
 72
     1
 10
454.2493956753253
 20
232.5483159929814
 11
454.389462675325
 21
232.4540579929814
 72
     1
 10
454.389462675325
 20
232.4540579929814
 11
454.513247675325
 21
232.3856999929814
 72
     1
 10
454.513247675325
 20
232.3856999929814
 11
454.640886675325
 21
232.3246159929814
 72
     1
 10
454.640886675325
 20
232.3246159929814
 11
454.849263675325
 21
232.2373999929814
 72
     1
 10
454.849263675325
 20
232.2373999929814
 11
455.1708616753253
 21
232.1318239929814
 72
     1
 10
455.1708616753253
 20
232.1318239929814
 11
455.3902706753251
 21
232.0802809929814
 72
     1
 10
455.3902706753251
 20
232.0802809929814
 11
455.724408675325
 21
232.0267809929814
 72
     1
 10
455.724408675325
 20
232.0267809929814
 11
456.0051356753251
 21
231.9991859929813
 72
     1
 10
456.0051356753251
 20
231.9991859929813
 11
456.2867376753252
 21
231.9871049929814
 72
     1
 10
456.2867376753252
 20
231.9871049929814
 11
456.849579675325
 21
232.0105779929814
 72
     1
 10
456.849579675325
 20
232.0105779929814
 11
457.1304476753253
 21
232.0434109929814
 72
     1
 10
457.1304476753253
 20
232.0434109929814
 11
457.4090596753253
 21
232.0911779929814
 72
     1
 10
457.409059675325
 20
232.0911779929814
 11
457.6833736753251
 21
232.1572869929814
 72
     1
 10
457.6833736753251
 20
232.1572869929814
 11
457.9494776753251
 21
232.2488769929814
 72
     1
 10
457.9494776753251
 20
232.2488769929814
 11
458.2068196753251
 21
232.3642669929814
 72
     1
 10
458.2068196753253
 20
232.3642669929814
 11
458.332554675325
 21
232.4281289929813
 72
     1
 10
458.332554675325
 20
232.4281289929813
 11
458.454235675325
 21
232.4991879929814
 72
     1
 10
458.454235675325
 20
232.4991879929814
 11
458.546873675325
 21
232.5637249929814
 72
     1
 10
458.546873675325
 20
232.5637249929814
 11
458.612876675325
 21
232.6168379929814
 72
     1
 10
458.612876675325
 20
232.6168379929814
 11
458.6754316753252
 21
232.6738899929813
 72
     1
 10
458.6754316753252
 20
232.6738899929813
 11
458.7529656753248
 21
232.7557579929814
 72
     1
 10
458.7529656753248
 20
232.7557579929814
 11
458.8573806753251
 21
232.8890319929814
 72
     1
 10
458.8573806753251
 20
232.8890319929814
 11
458.919323675325
 21
232.9835359929814
 72
     1
 10
458.919323675325
 20
232.9835359929814
 11
458.9608016753251
 21
233.0573289929814
 72
     1
 10
458.9608016753251
 20
233.0573289929814
 11
458.997065675325
 21
233.1337709929814
 72
     1
 10
458.997065675325
 20
233.1337709929814
 11
459.0362086753251
 21
233.2397489929814
 72
     1
 10
459.0362086753251
 20
233.2397489929814
 11
459.0586056753253
 21
233.3215429929814
 72
     1
 10
459.0586056753253
 20
233.3215429929814
 11
459.075128675325
 21
233.4045869929814
 72
     1
 10
459.075128675325
 20
233.4045869929814
 11
457.3142786753253
 21
233.4045869929814
 72
     1
 10
457.3142786753253
 20
233.4045869929814
 11
457.206015675325
 21
233.3240819929814
 72
     1
 10
457.206015675325
 20
233.3240819929814
 11
457.120597675325
 21
233.2695979929813
 72
     1
 10
457.120597675325
 20
233.2695979929813
 11
457.032031675325
 21
233.2203759929814
 72
     1
 10
457.032031675325
 20
233.2203759929814
 11
456.9560136753251
 21
233.1837159929813
 72
     1
 10
456.9560136753251
 20
233.1837159929813
 11
456.8778316753252
 21
233.1522499929814
 72
     1
 10
456.8778316753252
 20
233.1522499929814
 11
456.813532675325
 21
233.1315779929814
 72
     1
 10
456.813532675325
 20
233.1315779929814
 11
456.7149066753251
 21
233.1080309929814
 72
     1
 10
456.7149066753251
 20
233.1080309929814
 11
456.5805926753251
 21
233.0894789929814
 72
     1
 10
456.5805926753251
 20
233.0894789929814
 11
456.478894675325
 21
233.0845989929814
 72
     1
 10
456.478894675325
 20
233.0845989929814
 11
456.3770646753248
 21
233.0869239929814
 72
     1
 10
456.3770646753248
 20
233.0869239929814
 11
456.2426476753251
 21
233.1004389929814
 72
     1
 10
456.2426476753251
 20
233.1004389929814
 11
456.1429366753251
 21
233.1181309929814
 72
     1
 10
456.1429366753251
 20
233.1181309929814
 11
456.0445846753252
 21
233.1421289929814
 72
     1
 10
456.0445846753252
 20
233.1421289929814
 11
455.9161396753251
 21
233.1839799929814
 72
     1
 10
455.9161396753251
 20
233.1839799929814
 11
455.822650675325
 21
233.2232439929814
 72
     1
 10
455.822650675325
 20
233.2232439929814
 11
455.7322366753253
 21
233.2697889929814
 72
     1
 10
455.7322366753253
 20
233.2697889929814
 11
455.6740956753251
 21
233.3050829929814
 72
     1
 10
455.6740956753251
 20
233.3050829929814
 11
455.618332675325
 21
233.3440469929814
 72
     1
 10
455.618332675325
 20
233.3440469929814
 11
455.5657056753251
 21
233.3869099929814
 72
     1
 10
455.5657056753251
 20
233.3869099929814
 11
455.5169746753253
 21
233.4338989929814
 72
     1
 10
455.5169746753251
 20
233.4338989929814
 11
455.4728976753251
 21
233.4852429929814
 72
     1
 10
455.4728976753251
 20
233.4852429929814
 11
455.4341326753251
 21
233.5409929929814
 72
     1
 10
455.4341326753251
 20
233.5409929929814
 11
455.4009246753251
 21
233.6005049929814
 72
     1
 10
455.4009246753251
 20
233.6005049929814
 11
455.373416675325
 21
233.6629559929814
 72
     1
 10
455.373416675325
 20
233.6629559929814
 11
455.351753675325
 21
233.7275239929814
 72
     1
 10
455.351753675325
 20
233.7275239929814
 11
455.3360786753251
 21
233.7933869929814
 72
     1
 10
455.3360786753251
 20
233.7933869929814
 11
456.0223286753251
 21
233.7933869929814
 72
     1
 10
455.3360786753251
 20
234.6281369929814
 11
456.1253786753248
 21
234.6281369929814
 72
     1
 10
456.1253786753248
 20
234.6281369929814
 11
457.3142786753253
 21
234.6281369929814
 72
     1
 10
457.3142786753253
 20
234.6281369929814
 11
457.3103546753251
 21
234.6653589929814
 72
     1
 10
457.3103546753251
 20
234.6653589929814
 11
457.3042576753253
 21
234.7023739929814
 72
     1
 10
457.3042576753253
 20
234.7023739929814
 11
457.2959476753251
 21
234.7389919929814
 72
     1
 10
457.2959476753251
 20
234.7389919929814
 11
457.2853876753248
 21
234.7750209929813
 72
     1
 10
457.2853876753248
 20
234.7750209929813
 11
457.2725406753249
 21
234.8102719929814
 72
     1
 10
457.2725406753249
 20
234.8102719929814
 11
457.257411675325
 21
234.8445489929813
 72
     1
 10
457.257411675325
 20
234.8445489929813
 11
457.2401196753253
 21
234.8777889929813
 72
     1
 10
457.2401196753253
 20
234.8777889929813
 11
457.2208226753253
 21
234.9099249929814
 72
     1
 10
457.2208226753253
 20
234.9099249929814
 11
457.1996806753253
 21
234.9408869929813
 72
     1
 10
457.1996806753253
 20
234.9408869929813
 11
457.1768506753253
 21
234.9706069929814
 72
     1
 10
457.1768506753253
 20
234.9706069929814
 11
457.1264136753248
 21
235.0264769929814
 72
     1
 10
457.1264136753248
 20
235.0264769929814
 11
457.085143675325
 21
235.0650019929814
 72
     1
 10
457.085143675325
 20
235.0650019929814
 11
457.0414046753253
 21
235.1007109929814
 72
     1
 10
457.0414046753253
 20
235.1007109929814
 11
456.980152675325
 21
235.1438789929814
 72
     1
 10
456.980152675325
 20
235.1438789929814
 11
456.9321496753251
 21
235.1730869929814
 72
     1
 10
456.9321496753251
 20
235.1730869929814
 11
456.8826066753253
 21
235.1995859929814
 72
     1
 10
456.8826066753252
 20
235.1995859929814
 11
456.814468675325
 21
235.2307449929813
 72
     1
 10
456.814468675325
 20
235.2307449929813
 11
456.708718675325
 21
235.2687539929814
 72
     1
 10
456.708718675325
 20
235.2687539929814
 11
456.6362896753251
 21
235.2884889929814
 72
     1
 10
456.6362896753251
 20
235.2884889929814
 11
456.5257306753251
 21
235.3097499929813
 72
     1
 10
456.5257306753251
 20
235.3097499929813
 11
456.450837675325
 21
235.3184769929814
 72
     1
 10
456.450837675325
 20
235.3184769929814
 11
456.3379336753252
 21
235.3237129929814
 72
     1
 10
456.3379336753252
 20
235.3237129929814
 11
456.2624846753251
 21
235.3221689929814
 72
     1
 10
456.2624846753251
 20
235.3221689929814
 11
456.1494996753252
 21
235.3117449929813
 72
     1
 10
456.1494996753252
 20
235.3117449929813
 11
456.075643675325
 21
235.2987669929814
 72
     1
 10
456.075643675325
 20
235.2987669929814
 11
456.039340675325
 21
235.2897899929814
 72
     1
 10
456.039340675325
 20
235.2897899929814
 11
456.003769675325
 21
235.2787539929814
 72
     1
 10
456.003769675325
 20
235.2787539929814
 11
455.969167675325
 21
235.2653609929814
 72
     1
 10
455.969167675325
 20
235.2653609929814
 11
455.935599675325
 21
235.2494509929814
 72
     1
 10
455.935599675325
 20
235.2494509929814
 11
455.8060986753248
 21
235.1746239929814
 72
     1
 10
455.8060986753248
 20
235.1746239929814
 11
455.642849675325
 21
235.0845239929814
 72
     1
 10
455.642849675325
 20
235.0845239929814
 11
455.612231675325
 21
235.0631029929814
 72
     1
 10
455.612231675325
 20
235.0631029929814
 11
455.5828806753249
 21
235.0398229929814
 72
     1
 10
455.5828806753249
 20
235.0398229929814
 11
455.5548466753251
 21
235.0148539929814
 72
     1
 10
455.5548466753251
 20
235.0148539929814
 11
455.5029366753251
 21
234.9605329929814
 72
     1
 10
455.5029366753251
 20
234.9605329929814
 11
455.456596675325
 21
234.9009679929813
 72
     1
 10
455.456596675325
 20
234.9009679929813
 11
455.4258766753251
 21
234.8534939929814
 72
     1
 10
455.4258766753251
 20
234.8534939929814
 11
455.3987126753249
 21
234.8038749929814
 72
     1
 10
455.3987126753249
 20
234.8038749929814
 11
455.3684556753251
 21
234.7354159929813
 72
     1
 10
455.3684556753251
 20
234.7354159929813
 11
455.3502356753249
 21
234.6823379929814
 72
     1
 10
455.3502356753249
 20
234.6823379929814
 11
455.3360786753251
 21
234.6281369929814
 97
        0
 75
     0
 76
     1
 52
315.0
 41
0.1
 77
     0
 78
     1
 53
0.0
 43
-120.2927061166669
 44
246.5653498867115
 45
0.0000000000000001
 46
0.3175
 79
     0
 98
        1
 10
-120.2927061166669
 20
246.5653498867115
  0
SPLINE
  5
49F
330
1F
100
AcDbEntity
  8
CARTOUCHE
  6
CONTINUOUS
 62
     4
100
AcDbSpline
210
0.0
220
0.0
230
1.0
 70
     8
 71
     3
 72
    48
 73
    44
 74
    42
 42
0.0000000001
 43
0.0000000001
 44
0.000001
 12
0.2679235453443169
 22
0.963440176580846
 32
0.0
 13
0.1610223945671779
 23
0.9869507527976521
 33
0.0
 40
0.0
 40
0.0
 40
0.0
 40
0.0
 40
0.2818680440733342
 40
0.5637438622442406
 40
0.8456206423663187
 40
1.127487549250544
 40
1.410195239570894
 40
1.692701565213625
 40
1.975094154821177
 40
2.25782411495019
 40
2.539701857398134
 40
2.821572029861564
 40
3.103444310957297
 40
3.385316597162778
 40
3.949059070305099
 40
4.512801862640445
 40
5.076549211018162
 40
5.640288698831515
 40
6.204038075969415
 40
6.767777945536589
 40
7.331509982442311
 40
7.895250412814687
 40
8.458987271217525
 40
8.740857414631213
 40
9.022732806849989
 40
9.586464206115392
 40
9.86834044911321
 40
10.1502105520298
 40
10.43208121104817
 40
10.71395548681779
 40
11.27769918093692
 40
11.84144433135717
 40
12.40518731806562
 40
12.96893224997331
 40
13.53267745240232
 40
13.81454988463922
 40
14.09642160850221
 40
14.37829351861349
 40
14.66016601896491
 40
14.94203821121552
 40
15.22390966069242
 40
15.5057818146258
 40
15.78765328968328
 40
15.78765328968328
 40
15.78765328968328
 40
15.78765328968328
 10
459.1781786515378
 20
233.805086600098
 30
0.0
 10
459.2033516801002
 20
233.8956075994828
 30
0.0
 10
459.2346102487693
 20
234.0830583647472
 30
0.0
 10
459.2128050016818
 20
234.3659544485173
 30
0.0
 10
459.1502775948689
 20
234.6413024875132
 30
0.0
 10
459.0605016265944
 20
234.9094079714359
 30
0.0
 10
458.9370500480097
 20
235.1643129063746
 30
0.0
 10
458.778137481681
 20
235.399343790202
 30
0.0
 10
458.5827924953202
 20
235.6051054588355
 30
0.0
 10
458.3612618909436
 20
235.7812591593108
 30
0.0
 10
458.1205986530758
 20
235.9300060537984
 30
0.0
 10
457.862289900292
 20
236.044826857487
 30
0.0
 10
457.593245910749
 20
236.1300343833507
 30
0.0
 10
457.228041440553
 20
236.2196071931269
 30
0.0
 10
456.7610123070637
 20
236.2836905334446
 30
0.0
 10
456.1966409087303
 20
236.2921398547871
 30
0.0
 10
455.6329430872432
 20
236.2570298424654
 30
0.0
 10
455.0780898067963
 20
236.1501301555963
 30
0.0
 10
454.5404342485389
 20
235.9697233864274
 30
0.0
 10
454.0637530876055
 20
235.6515598362118
 30
0.0
 10
453.7135170420741
 20
235.1990934932932
 30
0.0
 10
453.4937710474895
 20
234.6734757551883
 30
0.0
 10
453.434062279881
 20
234.2007056449565
 30
0.0
 10
453.4703984570507
 20
233.8248494542088
 30
0.0
 10
453.573032000921
 20
233.4623228722319
 30
0.0
 10
453.7338478132287
 20
233.1172315137559
 30
0.0
 10
453.9640051172339
 20
232.8192493887209
 30
0.0
 10
454.1563411103058
 20
232.6117987828755
 30
0.0
 10
454.3871538750825
 20
232.4465395276486
 30
0.0
 10
454.7244563167067
 20
232.2796862728351
 30
0.0
 10
455.1669535331861
 20
232.1150645091092
 30
0.0
 10
455.7242332752474
 20
232.0173098890463
 30
0.0
 10
456.2873777518265
 20
231.9757837388875
 30
0.0
 10
456.8516358645828
 20
232.002119763468
 30
0.0
 10
457.3177401667492
 20
232.0669301074705
 30
0.0
 10
457.6841147769297
 20
232.1524718721018
 30
0.0
 10
457.9511660387894
 20
232.2445721451696
 30
0.0
 10
458.2074093727244
 20
232.3622263100229
 30
0.0
 10
458.4586154407847
 20
232.4913953160937
 30
0.0
 10
458.6824414427458
 20
232.6666080174545
 30
0.0
 10
458.8632961815879
 20
232.8846194237493
 30
0.0
 10
459.0082957766973
 20
233.1285875218777
 30
0.0
 10
459.059999444913
 20
233.3118555119312
 30
0.0
 10
459.0751286515376
 20
233.4045866000979
 30
0.0
 11
459.1781786515378
 21
233.805086600098
 31
0.0
 11
459.2231605231734
 21
234.0833427818731
 31
0.0
 11
459.2060171194955
 21
234.3646967406304
 31
0.0
 11
459.1457491719826
 21
234.6400552097386
 31
0.0
 11
459.0550066094976
 21
234.9069161103165
 31
0.0
 11
458.9311167719094
 21
235.1610321158026
 31
0.0
 11
458.7720435012726
 21
235.394496277181
 31
0.0
 11
458.5784826716511
 21
235.6001167427454
 31
0.0
 11
458.3578152223171
 21
235.77687110512
 31
0.0
 11
458.1176139657682
 21
235.9243784510523
 31
0.0
 11
457.8605001751525
 21
236.0398916253191
 31
0.0
 11
457.5924351339612
 21
236.1270301259144
 31
0.0
 11
457.3186395281799
 21
236.1940223193629
 31
0.0
 11
456.7603556064538
 21
236.2722824456076
 31
0.0
 11
456.1967535858936
 21
236.2848803229814
 31
0.0
 11
455.6344139940796
 21
236.245064960094
 31
0.0
 11
455.0809579373956
 21
236.1378800174386
 31
0.0
 11
454.5505925224694
 21
235.9467625137555
 31
0.0
 11
454.084823918829
 21
235.629174298524
 31
0.0
 11
453.7352657129526
 21
235.1869041205993
 31
0.0
 11
453.5184524863963
 21
234.666524119848
 31
0.0
 11
453.4501538414398
 21
234.1069398183083
 31
0.0
 11
453.4786844377816
 21
233.8265172894393
 31
0.0
 11
453.5522224910926
 21
233.5544035223225
 31
0.0
 11
453.7971620303182
 21
233.0466656467645
 31
0.0
 11
453.9672914930297
 21
232.8219209258306
 31
0.0
 11
454.1627528119582
 21
232.618830714975
 31
0.0
 11
454.3908457905864
 21
232.4532267750455
 31
0.0
 11
454.6415217729921
 21
232.3243289061232
 31
0.0
 11
455.1713327868712
 21
232.1316964987746
 31
0.0
 11
455.7252103793119
 21
232.0266812305269
 31
0.0
 11
456.2875617066496
 21
231.9870941202232
 31
0.0
 11
456.8508125076961
 21
232.0106925072252
 31
0.0
 11
457.408790576017
 21
232.0911233972313
 31
0.0
 11
457.682825772703
 21
232.1571292907038
 31
0.0
 11
457.9493636577326
 21
232.2488311059462
 31
0.0
 11
458.2065686276806
 21
232.364145344662
 31
0.0
 11
458.4540512021455
 21
232.4990692915573
 31
0.0
 11
458.6752787659825
 21
232.6737412211158
 31
0.0
 11
458.8573192205465
 21
232.8889452473358
 31
0.0
 11
458.9970541955671
 21
233.1337431513719
 31
0.0
 11
459.0751286515376
 21
233.4045866000979
 31
0.0
  0
HATCH
  5
4A0
330
1F
100
AcDbEntity
  8
CARTOUCHE
  6
CONTINUOUS
 62
     4
100
AcDbHatch
 10
0.0
 20
0.0
 30
0.0
210
0.0
220
0.0
230
1.0
  2
ANSI31
 70
     0
 71
     0
 91
        1
 92
        1
 93
      154
 72
     1
 10
451.1627786753249
 20
235.8688469929814
 11
451.1078946753251
 21
235.9144079929814
 72
     1
 10
451.1078946753253
 20
235.9144079929814
 11
451.0646086753252
 21
235.9458949929813
 72
     1
 10
451.0646086753252
 20
235.9458949929813
 11
451.0194016753252
 21
235.9744609929814
 72
     1
 10
451.0194016753252
 20
235.9744609929814
 11
450.9565706753253
 21
236.0071859929814
 72
     1
 10
450.9565706753253
 20
236.0071859929814
 11
450.9076706753253
 21
236.0281259929814
 72
     1
 10
450.9076706753253
 20
236.0281259929814
 11
450.8576696753253
 21
236.0462919929814
 72
     1
 10
450.8576696753253
 20
236.0462919929814
 11
450.771624675325
 21
236.0716129929814
 72
     1
 10
450.771624675325
 20
236.0716129929814
 11
450.6843116753251
 21
236.0920799929814
 72
     1
 10
450.6843116753251
 20
236.0920799929814
 11
450.5072406753249
 21
236.1261069929814
 72
     1
 10
450.5072406753249
 20
236.1261069929814
 11
450.1551166753252
 21
236.1805859929813
 72
     1
 10
450.1551166753252
 20
236.1805859929813
 11
449.8009696753252
 21
236.2025539929814
 72
     1
 10
449.8009696753252
 20
236.2025539929814
 11
449.444330675325
 21
236.1917019929814
 72
     1
 10
449.444330675325
 20
236.1917019929814
 11
449.2667906753252
 21
236.1765099929814
 72
     1
 10
449.2667906753252
 20
236.1765099929814
 11
449.090677675325
 21
236.1508649929814
 72
     1
 10
449.090677675325
 20
236.1508649929814
 11
448.9516486753251
 21
236.1198169929814
 72
     1
 10
448.9516486753251
 20
236.1198169929814
 11
448.7475246753253
 21
236.0558619929814
 72
     1
 10
448.7475246753251
 20
236.0558619929814
 11
448.6151126753251
 21
236.0023849929814
 72
     1
 10
448.6151126753251
 20
236.0023849929814
 11
448.518454675325
 21
235.9564209929814
 72
     1
 10
448.518454675325
 20
235.9564209929814
 11
448.424573675325
 21
235.9051429929813
 72
     1
 10
448.424573675325
 20
235.9051429929813
 11
448.304531675325
 21
235.8284839929813
 72
     1
 10
448.304531675325
 20
235.8284839929813
 11
448.135506675325
 21
235.6976309929814
 72
     1
 10
448.135506675325
 20
235.6976309929814
 11
448.0301936753253
 21
235.6013009929814
 72
     1
 10
448.0301936753253
 20
235.6013009929814
 11
447.8839386753253
 21
235.4450569929814
 72
     1
 10
447.8839386753253
 20
235.4450569929814
 11
447.794700675325
 21
235.3338739929814
 72
     1
 10
447.794700675325
 20
235.3338739929814
 11
447.6750486753251
 21
235.1567619929814
 72
     1
 10
447.6750486753251
 20
235.1567619929814
 11
447.606071675325
 21
235.0319629929814
 72
     1
 10
447.606071675325
 20
235.0319629929814
 11
447.5603516753251
 21
234.9352529929814
 72
     1
 10
447.5603516753251
 20
234.9352529929814
 11
447.5199166753251
 21
234.8362349929814
 72
     1
 10
447.5199166753251
 20
234.8362349929814
 11
447.4743326753253
 21
234.7010749929814
 72
     1
 10
447.4743326753252
 20
234.7010749929814
 11
447.423728675325
 21
234.4931419929813
 72
     1
 10
447.423728675325
 20
234.4931419929813
 11
447.4018876753253
 21
234.3520929929814
 72
     1
 10
447.4018876753253
 20
234.3520929929814
 11
447.3923026753251
 21
234.2455309929813
 72
     1
 10
447.3923026753251
 20
234.2455309929813
 11
447.3890756753253
 21
234.1386729929814
 72
     1
 10
447.3890756753251
 20
234.1386729929814
 11
447.3950386753251
 21
233.9962979929814
 72
     1
 10
447.3950386753251
 20
233.9962979929814
 11
447.4233026753251
 21
233.7842089929814
 72
     1
 10
447.4233026753251
 20
233.7842089929814
 11
447.4530786753251
 21
233.6446259929814
 72
     1
 10
447.4530786753251
 20
233.6446259929814
 11
447.514196675325
 21
233.4396799929814
 72
     1
 10
447.514196675325
 20
233.4396799929814
 11
447.5665006753252
 21
233.3070869929814
 72
     1
 10
447.5665006753252
 20
233.3070869929814
 11
447.6119186753249
 21
233.2102689929814
 72
     1
 10
447.6119186753249
 20
233.2102689929814
 11
447.6626516753251
 21
233.1161059929814
 72
     1
 10
447.6626516753251
 20
233.1161059929814
 11
447.738596675325
 21
232.9952449929814
 72
     1
 10
447.738596675325
 20
232.9952449929814
 11
447.8016266753253
 21
232.9087209929814
 72
     1
 10
447.8016266753253
 20
232.9087209929814
 11
447.869745675325
 21
232.8261929929814
 72
     1
 10
447.869745675325
 20
232.8261929929814
 11
447.968022675325
 21
232.7230229929813
 72
     1
 10
447.968022675325
 20
232.7230229929813
 11
448.1292806753251
 21
232.5827099929814
 72
     1
 10
448.1292806753251
 20
232.5827099929814
 11
448.2444876753251
 21
232.4985199929814
 72
     1
 10
448.2444876753251
 20
232.4985199929814
 11
448.4267386753251
 21
232.3863219929814
 72
     1
 10
448.4267386753251
 20
232.3863219929814
 11
448.5535406753252
 21
232.3211389929814
 72
     1
 10
448.5535406753252
 20
232.3211389929814
 11
448.6512936753252
 21
232.2778859929814
 72
     1
 10
448.6512936753252
 20
232.2778859929814
 11
448.7512256753251
 21
232.2400679929814
 72
     1
 10
448.7512256753251
 20
232.2400679929814
 11
448.8876616753251
 21
232.1986799929814
 72
     1
 10
448.8876616753251
 20
232.1986799929814
 11
449.097069675325
 21
232.1550249929814
 72
     1
 10
449.097069675325
 20
232.1550249929814
 11
449.2739326753253
 21
232.1336769929814
 72
     1
 10
449.2739326753253
 20
232.1336769929814
 11
449.4517596753251
 21
232.1226839929814
 72
     1
 10
449.4517596753251
 20
232.1226839929814
 11
449.8076756753252
 21
232.1198369929814
 72
     1
 10
449.8076756753252
 20
232.1198369929814
 11
450.1641256753248
 21
232.1350449929814
 72
     1
 10
450.1641256753248
 20
232.1350449929814
 11
450.3058526753251
 21
232.1489429929814
 72
     1
 10
450.3058526753251
 20
232.1489429929814
 11
450.5165266753253
 21
232.1848269929814
 72
     1
 10
450.5165266753251
 20
232.1848269929814
 11
450.6541086753251
 21
232.2219589929814
 72
     1
 10
450.6541086753251
 20
232.2219589929814
 11
450.7886886753251
 21
232.2700969929814
 72
     1
 10
450.7886886753251
 20
232.2700969929814
 11
450.9191036753248
 21
232.3287649929814
 72
     1
 10
450.9191036753248
 20
232.3287649929814
 11
451.044188675325
 21
232.3974869929814
 72
     1
 10
451.044188675325
 20
232.3974869929814
 11
451.1627786753249
 21
232.4757869929814
 72
     1
 10
451.1627786753249
 20
232.4757869929814
 11
451.1627786753249
 21
232.1697869929814
 72
     1
 10
451.1627786753249
 20
232.1697869929814
 11
452.957828675325
 21
232.1697869929814
 72
     1
 10
452.957828675325
 20
232.1697869929814
 11
452.957828675325
 21
237.3726869929814
 72
     1
 10
452.957828675325
 20
237.3726869929814
 11
451.1627786753249
 21
237.3726869929814
 72
     1
 10
451.1627786753249
 20
237.3726869929814
 11
451.1627786753249
 21
235.8688469929814
 72
     1
 10
451.1627786753249
 20
234.3081869929814
 11
451.1564796753249
 21
234.3463719929814
 72
     1
 10
451.1564796753249
 20
234.3463719929814
 11
451.1479596753248
 21
234.3842009929814
 72
     1
 10
451.1479596753248
 20
234.3842009929814
 11
451.1372276753253
 21
234.4215079929814
 72
     1
 10
451.1372276753253
 20
234.4215079929814
 11
451.124296675325
 21
234.4581269929814
 72
     1
 10
451.124296675325
 20
234.4581269929814
 11
451.1091746753253
 21
234.4938929929814
 72
     1
 10
451.1091746753253
 20
234.4938929929814
 11
451.091877675325
 21
234.5286669929814
 72
     1
 10
451.091877675325
 20
234.5286669929814
 11
451.0724966753253
 21
234.5623129929814
 72
     1
 10
451.0724966753253
 20
234.5623129929814
 11
451.0511266753248
 21
234.5947239929814
 72
     1
 10
451.0511266753248
 20
234.5947239929814
 11
451.0278656753253
 21
234.6257909929814
 72
     1
 10
451.0278656753252
 20
234.6257909929814
 11
451.002809675325
 21
234.6554069929814
 72
     1
 10
451.002809675325
 20
234.6554069929814
 11
450.9760636753251
 21
234.6834829929814
 72
     1
 10
450.9760636753251
 20
234.6834829929814
 11
450.9477686753252
 21
234.7100019929813
 72
     1
 10
450.9477686753252
 20
234.7100019929813
 11
450.902752675325
 21
234.7468629929814
 72
     1
 10
450.902752675325
 20
234.7468629929814
 11
450.8550946753253
 21
234.7802309929814
 72
     1
 10
450.8550946753252
 20
234.7802309929814
 11
450.7886636753251
 21
234.8191969929814
 72
     1
 10
450.7886636753251
 20
234.8191969929814
 11
450.6838556753249
 21
234.8676479929811
 72
     1
 10
450.6838556753249
 20
234.8676479929811
 11
450.5003816753251
 21
234.9291829929814
 72
     1
 10
450.5003816753251
 20
234.9291829929814
 11
450.3125506753249
 21
234.9757499929814
 72
     1
 10
450.3125506753248
 20
234.9757499929814
 11
450.2366226753252
 21
234.9876629929814
 72
     1
 10
450.2366226753252
 20
234.9876629929814
 11
450.1792476753251
 21
234.9931269929814
 72
     1
 10
450.1792476753251
 20
234.9931269929814
 11
450.1216886753248
 21
234.9951279929814
 72
     1
 10
450.1216886753248
 20
234.9951279929814
 11
450.0444616753251
 21
234.9918839929814
 72
     1
 10
450.0444616753251
 20
234.9918839929814
 11
449.986815675325
 21
234.9852119929814
 72
     1
 10
449.986815675325
 20
234.9852119929814
 11
449.929638675325
 21
234.9751949929814
 72
     1
 10
449.929638675325
 20
234.9751949929814
 11
449.8540466753251
 21
234.9568929929814
 72
     1
 10
449.8540466753251
 20
234.9568929929814
 11
449.798348675325
 21
234.9396319929814
 72
     1
 10
449.798348675325
 20
234.9396319929814
 11
449.743656675325
 21
234.9194219929814
 72
     1
 10
449.743656675325
 20
234.9194219929814
 11
449.6728786753251
 21
234.8881069929814
 72
     1
 10
449.6728786753251
 20
234.8881069929814
 11
449.6214316753251
 21
234.8611879929814
 72
     1
 10
449.6214316753251
 20
234.8611879929814
 11
449.5716336753248
 21
234.8312429929813
 72
     1
 10
449.5716336753248
 20
234.8312429929813
 11
449.5086966753251
 21
234.7869229929814
 72
     1
 10
449.5086966753251
 20
234.7869229929814
 11
449.4496276753251
 21
234.7373559929814
 72
     1
 10
449.4496276753251
 20
234.7373559929814
 11
449.395024675325
 21
234.6827189929814
 72
     1
 10
449.395024675325
 20
234.6827189929814
 11
449.3454856753253
 21
234.6231899929814
 72
     1
 10
449.3454856753253
 20
234.6231899929814
 11
449.3016086753249
 21
234.5589459929814
 72
     1
 10
449.3016086753249
 20
234.5589459929814
 11
449.2640736753253
 21
234.4903369929814
 72
     1
 10
449.2640736753253
 20
234.4903369929814
 11
449.2337766753251
 21
234.4181889929814
 72
     1
 10
449.2337766753251
 20
234.4181889929814
 11
449.2216516753248
 21
234.3810979929814
 72
     1
 10
449.2216516753248
 20
234.3810979929814
 11
449.2117046753253
 21
234.3434949929814
 72
     1
 10
449.2117046753253
 20
234.3434949929814
 11
449.204060675325
 21
234.3055039929814
 72
     1
 10
449.204060675325
 20
234.3055039929814
 11
449.198841675325
 21
234.2672489929814
 72
     1
 10
449.198841675325
 20
234.2672489929814
 11
449.1961726753251
 21
234.2288549929814
 72
     1
 10
449.1961726753251
 20
234.2288549929814
 11
449.1961746753251
 21
234.1904459929814
 72
     1
 10
449.1961746753251
 20
234.1904459929814
 11
449.1989486753251
 21
234.1518829929814
 72
     1
 10
449.1989486753251
 20
234.1518829929814
 11
449.2043666753253
 21
234.1135609929814
 72
     1
 10
449.2043666753253
 20
234.1135609929814
 11
449.2122366753251
 21
234.0756099929814
 72
     1
 10
449.2122366753251
 20
234.0756099929814
 11
449.2223696753248
 21
234.0381599929814
 72
     1
 10
449.2223696753248
 20
234.0381599929814
 11
449.2345736753248
 21
234.0013429929814
 72
     1
 10
449.2345736753248
 20
234.0013429929814
 11
449.2649006753252
 21
233.9293679929814
 72
     1
 10
449.2649006753252
 20
233.9293679929814
 11
449.2923036753251
 21
233.8776489929814
 72
     1
 10
449.2923036753251
 20
233.8776489929814
 11
449.323409675325
 21
233.8280429929814
 72
     1
 10
449.323409675325
 20
233.8280429929814
 11
449.3698416753248
 21
233.7660559929814
 72
     1
 10
449.3698416753248
 20
233.7660559929814
 11
449.4084906753251
 21
233.7227149929814
 72
     1
 10
449.4084906753251
 20
233.7227149929814
 11
449.450321675325
 21
233.6824969929814
 72
     1
 10
449.450321675325
 20
233.6824969929814
 11
449.5104416753251
 21
233.6344299929814
 72
     1
 10
449.5104416753251
 20
233.6344299929814
 11
449.5584676753248
 21
233.6022979929814
 72
     1
 10
449.5584676753248
 20
233.6022979929814
 11
449.6085126753253
 21
233.5734239929814
 72
     1
 10
449.6085126753252
 20
233.5734239929814
 11
449.6783036753249
 21
233.5394619929814
 72
     1
 10
449.6783036753249
 20
233.5394619929814
 11
449.7869036753253
 21
233.4975239929814
 72
     1
 10
449.7869036753253
 20
233.4975239929814
 11
449.8609186753251
 21
233.4746419929814
 72
     1
 10
449.8609186753251
 20
233.4746419929814
 11
449.973993675325
 21
233.4481109929814
 72
     1
 10
449.973993675325
 20
233.4481109929814
 11
450.0501696753251
 21
233.4361879929814
 72
     1
 10
450.0501696753251
 20
233.4361879929814
 11
450.165454675325
 21
233.4275889929814
 72
     1
 10
450.165454675325
 20
233.4275889929814
 11
450.2427186753251
 21
233.4284519929814
 72
     1
 10
450.2427186753251
 20
233.4284519929814
 11
450.358157675325
 21
233.4398429929814
 72
     1
 10
450.358157675325
 20
233.4398429929814
 11
450.4340456753251
 21
233.4540699929814
 72
     1
 10
450.4340456753251
 20
233.4540699929814
 11
450.5088866753251
 21
233.4734969929814
 72
     1
 10
450.5088866753251
 20
233.4734969929814
 11
450.582257675325
 21
233.4979899929814
 72
     1
 10
450.582257675325
 20
233.4979899929814
 11
450.653732675325
 21
233.5274159929814
 72
     1
 10
450.653732675325
 20
233.5274159929814
 11
450.7228896753253
 21
233.5616409929814
 72
     1
 10
450.7228896753248
 20
233.5616409929814
 11
450.7897546753252
 21
233.6007889929814
 72
     1
 10
450.7897546753252
 20
233.6007889929814
 11
450.884465675325
 21
233.6680689929814
 72
     1
 10
450.884465675325
 20
233.6680689929814
 11
450.943401675325
 21
233.7185419929814
 72
     1
 10
450.943401675325
 20
233.7185419929814
 11
450.9845806753253
 21
233.7596069929814
 72
     1
 10
450.9845806753253
 20
233.7596069929814
 11
451.0224526753249
 21
233.8036839929813
 72
     1
 10
451.0224526753249
 20
233.8036839929813
 11
451.0454926753251
 21
233.8347249929814
 72
     1
 10
451.0454926753251
 20
233.8347249929814
 11
451.0667056753248
 21
233.8670839929814
 72
     1
 10
451.0667056753248
 20
233.8670839929814
 11
451.086007675325
 21
233.9006439929814
 72
     1
 10
451.086007675325
 20
233.9006439929814
 11
451.1033156753248
 21
233.9352869929814
 72
     1
 10
451.1033156753248
 20
233.9352869929814
 11
451.1185446753251
 21
233.9708969929814
 72
     1
 10
451.1185446753251
 20
233.9708969929814
 11
451.1316666753251
 21
234.0074679929814
 72
     1
 10
451.1316666753251
 20
234.0074679929814
 11
451.1426326753253
 21
234.0447399929814
 72
     1
 10
451.1426326753251
 20
234.0447399929814
 11
451.1514606753251
 21
234.0825619929814
 72
     1
 10
451.1514606753251
 20
234.0825619929814
 11
451.1581696753251
 21
234.1207779929811
 72
     1
 10
451.1581696753251
 20
234.1207779929811
 11
451.1627786753249
 21
234.1592369929814
 72
     1
 10
451.1627786753249
 20
234.1592369929814
 11
451.1627786753249
 21
234.3081869929814
 97
        0
 75
     0
 76
     1
 52
315.0
 41
0.1
 77
     0
 78
     1
 53
0.0
 43
-120.2927061166669
 44
246.5653498867115
 45
0.0000000000000001
 46
0.3175
 79
     0
 98
        1
 10
-120.2927061166669
 20
246.5653498867115
  0
HATCH
  5
4A1
330
1F
100
AcDbEntity
  8
CARTOUCHE
  6
CONTINUOUS
 62
     4
100
AcDbHatch
 10
0.0
 20
0.0
 30
0.0
210
0.0
220
0.0
230
1.0
  2
ANSI31
 70
     0
 71
     0
 91
        1
 92
        1
 93
       16
 72
     1
 10
437.6503086753253
 20
236.4807869929814
 11
438.0587786753252
 21
236.4807869929814
 72
     1
 10
438.0587786753252
 20
236.4807869929814
 11
438.0587786753252
 21
237.3839369929814
 72
     1
 10
438.0587786753252
 20
237.3839369929814
 11
436.5515146753251
 21
237.3839369929814
 72
     1
 10
435.645878675325
 20
236.4783439929814
 11
435.645878675325
 21
236.0573369929814
 72
     1
 10
435.645878675325
 20
236.0573369929814
 11
435.1085786753252
 21
236.0573369929814
 72
     1
 10
435.1085786753252
 20
236.0573369929814
 11
435.1085786753252
 21
234.9597869929814
 72
     1
 10
435.1085786753252
 20
234.9597869929814
 11
435.645878675325
 21
234.9597869929814
 72
     1
 10
435.645878675325
 20
234.9597869929814
 11
435.645878675325
 21
232.1810369929814
 72
     1
 10
435.645878675325
 20
232.1810369929814
 11
437.441378675325
 21
232.1810369929814
 72
     1
 10
437.441378675325
 20
232.1810369929814
 11
437.441378675325
 21
234.9597869929814
 72
     1
 10
437.441378675325
 20
234.9597869929814
 11
438.0587786753252
 21
234.9597869929814
 72
     1
 10
438.0587786753252
 20
234.9597869929814
 11
438.0587786753252
 21
236.0573369929814
 72
     1
 10
438.0587786753252
 20
236.0573369929814
 11
437.3842286753252
 21
236.0573369929814
 72
     1
 10
437.3842286753252
 20
236.0573369929814
 11
437.432334675325
 21
236.3175649929813
 72
     2
 10
436.5515146753251
 20
236.4783439929814
 40
0.905639
 50
90.0
 51
180.0
 73
     1
 72
     2
 10
437.677243675325
 20
236.2176589929814
 40
0.264503
 50
95.845
 51
157.8079999999999
 73
     1
 97
        0
 75
     0
 76
     1
 52
315.0
 41
0.1
 77
     0
 78
     1
 53
0.0
 43
-120.2927061166669
 44
246.5653498867115
 45
0.0000000000000001
 46
0.3175
 79
     0
 98
        1
 10
-120.2927061166669
 20
246.5653498867115
  0
ARC
  5
4A2
330
1F
100
AcDbEntity
  8
CARTOUCHE
  6
CONTINUOUS
 62
     4
100
AcDbCircle
 10
431.3762938833328
 20
236.5543498867114
 30
0.0
 40
0.5
100
AcDbArc
 50
275.8399999999983
 51
95.83999999999836
  0
ARC
  5
4A3
330
1F
100
AcDbEntity
  8
CARTOUCHE
  6
CONTINUOUS
 62
     4
100
AcDbCircle
 10
428.8712938833328
 20
235.4743498867115
 30
0.0
 40
3.758999999999999
100
AcDbArc
 50
187.8690000000004
 51
67.743999999997
  0
ARC
  5
4A4
330
1F
100
AcDbEntity
  8
CARTOUCHE
  6
CONTINUOUS
 62
     4
100
AcDbCircle
 10
436.551293883333
 20
236.4783498867115
 30
0.0
 40
0.9059999999999998
100
AcDbArc
 50
90.0
 51
180.0
  0
LINE
  5
4A5
330
1F
100
AcDbEntity
  8
CARTOUCHE
  6
CONTINUOUS
 62
     4
100
AcDbLine
 10
440.5972938833328
 20
237.3843498867115
 30
0.0
 11
440.5972938833328
 21
236.4923498867115
 31
0.0
  0
LINE
  5
4A6
330
1F
100
AcDbEntity
  8
CARTOUCHE
  6
CONTINUOUS
 62
     4
100
AcDbLine
 10
438.7792938833329
 20
236.4923498867115
 30
0.0
 11
438.7792938833329
 21
237.3843498867115
 31
0.0
  0
LINE
  5
4A7
330
1F
100
AcDbEntity
  8
CARTOUCHE
  6
CONTINUOUS
 62
     4
100
AcDbLine
 10
438.0582938833328
 20
236.4803498867114
 30
0.0
 11
438.0582938833328
 21
237.3843498867115
 31
0.0
  0
LINE
  5
4A8
330
1F
100
AcDbEntity
  8
CARTOUCHE
  6
CONTINUOUS
 62
     4
100
AcDbLine
 10
451.1622938833331
 20
235.8683498867115
 30
0.0
 11
451.1622938833331
 21
237.3723498867116
 31
0.0
  0
LINE
  5
4A9
330
1F
100
AcDbEntity
  8
CARTOUCHE
  6
CONTINUOUS
 62
     4
100
AcDbLine
 10
452.9582938833327
 20
237.3723498867116
 30
0.0
 11
452.9582938833327
 21
232.1693498867114
 31
0.0
  0
LINE
  5
4AA
330
1F
100
AcDbEntity
  8
CARTOUCHE
  6
CONTINUOUS
 62
     4
100
AcDbLine
 10
427.4362938833331
 20
238.9483498867114
 30
0.0
 11
427.4362938833331
 21
235.9773498867113
 31
0.0
  0
LINE
  5
4AB
330
1F
100
AcDbEntity
  8
CARTOUCHE
  6
CONTINUOUS
 62
     4
100
AcDbLine
 10
428.3852938833328
 20
235.3153498867115
 30
0.0
 11
428.3852938833328
 21
239.2013498867115
 31
0.0
  0
LINE
  5
4AC
330
1F
100
AcDbEntity
  8
CARTOUCHE
  6
CONTINUOUS
 62
     4
100
AcDbLine
 10
429.334293883333
 20
239.2043498867113
 30
0.0
 11
429.334293883333
 21
233.3593498867116
 31
0.0
  0
HATCH
  5
4AD
330
1F
100
AcDbEntity
  8
CARTOUCHE
  6
CONTINUOUS
 62
     4
100
AcDbHatch
 10
0.0
 20
0.0
 30
0.0
210
0.0
220
0.0
230
1.0
  2
ANSI31
 70
     0
 71
     0
 91
        1
 92
        1
 93
        4
 72
     1
 10
438.7792286753247
 20
236.0573369929814
 11
438.7792286753247
 21
232.1810369929814
 72
     1
 10
438.7792286753247
 20
232.1810369929814
 11
440.597228675325
 21
232.1810369929814
 72
     1
 10
440.597228675325
 20
232.1810369929814
 11
440.597228675325
 21
236.0573369929814
 72
     1
 10
440.597228675325
 20
236.0573369929814
 11
438.7792286753247
 21
236.0573369929814
 97
        0
 75
     0
 76
     1
 52
315.0
 41
0.1
 77
     0
 78
     1
 53
0.0
 43
-120.2927061166669
 44
246.5653498867115
 45
0.0000000000000001
 46
0.3175
 79
     0
 98
        1
 10
-120.2927061166669
 20
246.5653498867115
  0
LINE
  5
4AE
330
1F
100
AcDbEntity
  8
CARTOUCHE
  6
CONTINUOUS
 62
     4
100
AcDbLine
 10
440.5972938833328
 20
236.4923498867115
 30
0.0
 11
438.7792938833329
 21
236.4923498867115
 31
0.0
  0
LINE
  5
4AF
330
1F
100
AcDbEntity
  8
CARTOUCHE
  6
CONTINUOUS
 62
     4
100
AcDbLine
 10
440.5972938833328
 20
232.1813498867113
 30
0.0
 11
438.7792938833329
 21
232.1813498867113
 31
0.0
  0
LINE
  5
4B0
330
1F
100
AcDbEntity
  8
CARTOUCHE
  6
CONTINUOUS
 62
     4
100
AcDbLine
 10
438.7792938833329
 20
236.0573498867116
 30
0.0
 11
440.5972938833328
 21
236.0573498867116
 31
0.0
  0
SPLINE
  5
4B1
330
1F
100
AcDbEntity
  8
CARTOUCHE
  6
CONTINUOUS
 62
     4
100
AcDbSpline
210
0.0
220
0.0
230
1.0
 70
     8
 71
     3
 72
    14
 73
    10
 74
     8
 42
0.0000000001
 43
0.0000000001
 44
0.000001
 12
-0.0678904074542076
 22
-0.9976927846665534
 32
0.0
 13
-0.8200536786282802
 23
0.5722866101598269
 33
0.0
 40
0.0
 40
0.0
 40
0.0
 40
0.0
 40
0.2176135355075252
 40
0.4352355907183464
 40
0.6528409897775144
 40
0.8704569022322367
 40
1.08806822485846
 40
1.305663728345228
 40
1.523275238255972
 40
1.523275238255972
 40
1.523275238255972
 40
1.523275238255972
 10
430.2944786515377
 20
232.718786600098
 30
0.0
 10
430.2895540276733
 20
232.6464161153575
 30
0.0
 10
430.2558367521655
 20
232.5024782700783
 30
0.0
 10
430.1412908353117
 20
232.3126798025585
 30
0.0
 10
429.9689150956526
 20
232.1738350078636
 30
0.0
 10
429.7682885892261
 20
232.0850868001985
 30
0.0
 10
429.5484139389817
 20
232.052312536815
 30
0.0
 10
429.3334082752894
 20
232.1067726052436
 30
0.0
 10
429.2044390275052
 20
232.1757590154588
 30
0.0
 10
429.1449546544338
 20
232.2172710665717
 30
0.0
 11
430.2944786515377
 21
232.718786600098
 31
0.0
 11
430.245176137546
 21
232.5068307588181
 31
0.0
 11
430.131649245641
 21
232.3211670135874
 31
0.0
 11
429.9642093266361
 21
232.182184894943
 31
0.0
 11
429.7650785873755
 21
232.0944144030011
 31
0.0
 11
429.5492199199386
 21
232.0668506377653
 31
0.0
 11
429.3370047423823
 21
232.1149397050846
 31
0.0
 11
429.1449546544338
 21
232.2172710665717
 31
0.0
  0
ARC
  5
4B2
330
1F
100
AcDbEntity
  8
CARTOUCHE
  6
CONTINUOUS
 62
     4
100
AcDbCircle
 10
427.922293883333
 20
235.4003498867113
 30
0.0
 40
0.471
100
AcDbArc
 50
290.582000000001
 51
349.5979999999994
  0
LINE
  5
4B3
330
1F
100
AcDbEntity
  8
CARTOUCHE
  6
CONTINUOUS
 62
     4
100
AcDbLine
 10
430.294293883333
 20
236.0573498867116
 30
0.0
 11
431.4262938833329
 21
236.0573498867116
 31
0.0
  0
LINE
  5
4B4
330
1F
100
AcDbEntity
  8
CARTOUCHE
  6
CONTINUOUS
 62
     4
100
AcDbLine
 10
430.294293883333
 20
232.7183498867114
 30
0.0
 11
430.294293883333
 21
236.0573498867116
 31
0.0
  0
LINE
  5
4B5
330
1F
100
AcDbEntity
  8
CARTOUCHE
  6
CONTINUOUS
 62
     4
100
AcDbLine
 10
426.3492938833328
 20
234.9593498867113
 30
0.0
 11
429.1452938833328
 21
232.2173498867114
 31
0.0
  0
LINE
  5
4B6
330
1F
100
AcDbEntity
  8
CARTOUCHE
  6
CONTINUOUS
 62
     4
100
AcDbLine
 10
425.1472938833328
 20
234.9593498867113
 30
0.0
 11
426.3492938833328
 21
234.9593498867113
 31
0.0
  0
LINE
  5
4B7
330
1F
100
AcDbEntity
  8
CARTOUCHE
  6
CONTINUOUS
 62
     4
100
AcDbLine
 10
427.4362938833331
 20
235.9773498867113
 30
0.0
 11
425.146293883333
 21
235.9773498867113
 31
0.0
  0
LINE
  5
4B8
330
1F
100
AcDbEntity
  8
CARTOUCHE
  6
CONTINUOUS
 62
     4
100
AcDbLine
 10
427.8592938833329
 20
234.9593498867113
 30
0.0
 11
428.0872938833328
 21
234.9593498867113
 31
0.0
  0
LINE
  5
4B9
330
1F
100
AcDbEntity
  8
CARTOUCHE
  6
CONTINUOUS
 62
     4
100
AcDbLine
 10
429.334293883333
 20
233.3593498867116
 30
0.0
 11
427.8592938833329
 21
234.9593498867113
 31
0.0
  0
ARC
  5
4BA
330
1F
100
AcDbEntity
  8
CARTOUCHE
  6
CONTINUOUS
 62
     4
100
AcDbCircle
 10
437.677293883333
 20
236.2173498867115
 30
0.0
 40
0.265
100
AcDbArc
 50
95.84499999999961
 51
157.8079999999983
  0
LINE
  5
4BB
330
1F
100
AcDbEntity
  8
CARTOUCHE
  6
CONTINUOUS
 62
     4
100
AcDbLine
 10
438.7792938833329
 20
232.1813498867113
 30
0.0
 11
438.7792938833329
 21
236.0573498867116
 31
0.0
  0
LINE
  5
4BC
330
1F
100
AcDbEntity
  8
CARTOUCHE
  6
CONTINUOUS
 62
     4
100
AcDbLine
 10
437.6502938833328
 20
236.4803498867114
 30
0.0
 11
438.0582938833328
 21
236.4803498867114
 31
0.0
  0
LINE
  5
4BD
330
1F
100
AcDbEntity
  8
CARTOUCHE
  6
CONTINUOUS
 62
     4
100
AcDbLine
 10
437.3842938833329
 20
236.0573498867116
 30
0.0
 11
437.4322938833328
 21
236.3173498867114
 31
0.0
  0
LINE
  5
4BE
330
1F
100
AcDbEntity
  8
CARTOUCHE
  6
CONTINUOUS
 62
     4
100
AcDbLine
 10
438.0582938833328
 20
236.0573498867116
 30
0.0
 11
437.3842938833329
 21
236.0573498867116
 31
0.0
  0
LINE
  5
4BF
330
1F
100
AcDbEntity
  8
CARTOUCHE
  6
CONTINUOUS
 62
     4
100
AcDbLine
 10
438.0582938833328
 20
234.9593498867113
 30
0.0
 11
438.0582938833328
 21
236.0573498867116
 31
0.0
  0
LINE
  5
4C0
330
1F
100
AcDbEntity
  8
CARTOUCHE
  6
CONTINUOUS
 62
     4
100
AcDbLine
 10
437.4412938833328
 20
234.9593498867113
 30
0.0
 11
438.0582938833328
 21
234.9593498867113
 31
0.0
  0
LINE
  5
4C1
330
1F
100
AcDbEntity
  8
CARTOUCHE
  6
CONTINUOUS
 62
     4
100
AcDbLine
 10
437.4412938833328
 20
232.1813498867113
 30
0.0
 11
437.4412938833328
 21
234.9593498867113
 31
0.0
  0
LINE
  5
4C2
330
1F
100
AcDbEntity
  8
CARTOUCHE
  6
CONTINUOUS
 62
     4
100
AcDbLine
 10
435.6462938833328
 20
232.1813498867113
 30
0.0
 11
437.4412938833328
 21
232.1813498867113
 31
0.0
  0
LINE
  5
4C3
330
1F
100
AcDbEntity
  8
CARTOUCHE
  6
CONTINUOUS
 62
     4
100
AcDbLine
 10
435.6462938833328
 20
234.9593498867113
 30
0.0
 11
435.6462938833328
 21
232.1813498867113
 31
0.0
  0
LINE
  5
4C4
330
1F
100
AcDbEntity
  8
CARTOUCHE
  6
CONTINUOUS
 62
     4
100
AcDbLine
 10
435.108293883333
 20
234.9593498867113
 30
0.0
 11
435.6462938833328
 21
234.9593498867113
 31
0.0
  0
LINE
  5
4C5
330
1F
100
AcDbEntity
  8
CARTOUCHE
  6
CONTINUOUS
 62
     4
100
AcDbLine
 10
435.108293883333
 20
236.0573498867116
 30
0.0
 11
435.108293883333
 21
234.9593498867113
 31
0.0
  0
LINE
  5
4C6
330
1F
100
AcDbEntity
  8
CARTOUCHE
  6
CONTINUOUS
 62
     4
100
AcDbLine
 10
435.6462938833328
 20
236.0573498867116
 30
0.0
 11
435.108293883333
 21
236.0573498867116
 31
0.0
  0
LINE
  5
4C7
330
1F
100
AcDbEntity
  8
CARTOUCHE
  6
CONTINUOUS
 62
     4
100
AcDbLine
 10
435.6462938833328
 20
236.4803498867114
 30
0.0
 11
435.6462938833328
 21
236.0573498867116
 31
0.0
  0
HATCH
  5
4C8
330
1F
100
AcDbEntity
  8
CARTOUCHE
  6
CONTINUOUS
 62
     4
100
AcDbHatch
 10
0.0
 20
0.0
 30
0.0
210
0.0
220
0.0
230
1.0
  2
ANSI31
 70
     0
 71
     0
 91
        1
 92
        1
 93
       12
 72
     1
 10
445.0796786753253
 20
234.0279769929814
 11
445.0796786753253
 21
232.1810369929814
 72
     1
 10
445.0796786753253
 20
232.1810369929814
 11
446.8634786753249
 21
232.1810369929814
 72
     1
 10
446.8634786753249
 20
232.1810369929814
 11
446.8634786753249
 21
234.8734959929814
 72
     1
 10
443.2612286753251
 20
235.6230869929814
 11
443.2612286753251
 21
236.0573369929814
 72
     1
 10
443.2612286753251
 20
236.0573369929814
 11
441.4661786753248
 21
236.0573369929814
 72
     1
 10
441.4661786753248
 20
236.0573369929814
 11
441.4661786753248
 21
232.1810369929814
 72
     1
 10
441.4661786753248
 20
232.1810369929814
 11
443.2612286753251
 21
232.1810369929814
 72
     1
 10
443.2612286753251
 20
232.1810369929814
 11
443.2612286753251
 21
233.9824419929814
 72
     2
 10
444.4285796753248
 20
234.0279769929814
 40
0.6511239999999999
 50
0.0
 51
97.15099999999999
 73
     1
 72
     2
 10
445.646283675325
 20
234.8138159929813
 40
1.218658
 50
2.807
 51
66.54600000000001
 73
     1
 72
     2
 10
445.0386586753253
 20
232.5942039929814
 40
3.511892
 50
71.872
 51
120.406
 73
     1
 72
     2
 10
444.415065675325
 20
233.3690219929814
 40
1.306761
 50
92.963
 51
152.003
 73
     1
 97
        0
 75
     0
 76
     1
 52
315.0
 41
0.1
 77
     0
 78
     1
 53
0.0
 43
-120.2927061166669
 44
246.5653498867115
 45
0.0000000000000001
 46
0.3175
 79
     0
 98
        1
 10
-120.2927061166669
 20
246.5653498867115
  0
ARC
  5
4C9
330
1F
100
AcDbEntity
  8
CARTOUCHE
  6
CONTINUOUS
 62
     4
100
AcDbCircle
 10
445.646293883333
 20
234.8133498867114
 30
0.0
 40
1.219
100
AcDbArc
 50
2.807000000000564
 51
66.54600000000313
  0
LINE
  5
4CA
330
1F
100
AcDbEntity
  8
CARTOUCHE
  6
CONTINUOUS
 62
     4
100
AcDbLine
 10
445.079293883333
 20
232.1813498867113
 30
0.0
 11
446.8632938833329
 21
232.1813498867113
 31
0.0
  0
ARC
  5
4CB
330
1F
100
AcDbEntity
  8
CARTOUCHE
  6
CONTINUOUS
 62
     4
100
AcDbCircle
 10
444.415293883333
 20
233.3693498867113
 30
0.0
 40
1.306999999999999
100
AcDbArc
 50
92.96299999999936
 51
152.0029999999992
  0
ARC
  5
4CC
330
1F
100
AcDbEntity
  8
CARTOUCHE
  6
CONTINUOUS
 62
     4
100
AcDbCircle
 10
444.4282938833329
 20
234.0283498867115
 30
0.0
 40
0.6509999999999999
100
AcDbArc
 50
0.0
 51
97.15100000000305
  0
ARC
  5
4CD
330
1F
100
AcDbEntity
  8
CARTOUCHE
  6
CONTINUOUS
 62
     4
100
AcDbCircle
 10
445.0382938833329
 20
232.5943498867115
 30
0.0
 40
3.512
100
AcDbArc
 50
71.87199999999997
 51
120.4059999999964
  0
LINE
  5
4CE
330
1F
100
AcDbEntity
  8
CARTOUCHE
  6
CONTINUOUS
 62
     4
100
AcDbLine
 10
440.5972938833328
 20
236.0573498867116
 30
0.0
 11
440.5972938833328
 21
232.1813498867113
 31
0.0
  0
LINE
  5
4CF
330
1F
100
AcDbEntity
  8
CARTOUCHE
  6
CONTINUOUS
 62
     4
100
AcDbLine
 10
443.2612938833329
 20
232.1813498867113
 30
0.0
 11
443.2612938833329
 21
233.9823498867115
 31
0.0
  0
LINE
  5
4D0
330
1F
100
AcDbEntity
  8
CARTOUCHE
  6
CONTINUOUS
 62
     4
100
AcDbLine
 10
441.466293883333
 20
232.1813498867113
 30
0.0
 11
443.2612938833329
 21
232.1813498867113
 31
0.0
  0
LINE
  5
4D1
330
1F
100
AcDbEntity
  8
CARTOUCHE
  6
CONTINUOUS
 62
     4
100
AcDbLine
 10
441.466293883333
 20
236.0573498867116
 30
0.0
 11
441.466293883333
 21
232.1813498867113
 31
0.0
  0
LINE
  5
4D2
330
1F
100
AcDbEntity
  8
CARTOUCHE
  6
CONTINUOUS
 62
     4
100
AcDbLine
 10
443.2612938833329
 20
236.0573498867116
 30
0.0
 11
441.466293883333
 21
236.0573498867116
 31
0.0
  0
LINE
  5
4D3
330
1F
100
AcDbEntity
  8
CARTOUCHE
  6
CONTINUOUS
 62
     4
100
AcDbLine
 10
443.2612938833329
 20
235.6233498867115
 30
0.0
 11
443.2612938833329
 21
236.0573498867116
 31
0.0
  0
LINE
  5
4D4
330
1F
100
AcDbEntity
  8
CARTOUCHE
  6
CONTINUOUS
 62
     4
100
AcDbLine
 10
445.079293883333
 20
234.0283498867115
 30
0.0
 11
445.079293883333
 21
232.1813498867113
 31
0.0
  0
LINE
  5
4D5
330
1F
100
AcDbEntity
  8
CARTOUCHE
  6
CONTINUOUS
 62
     4
100
AcDbLine
 10
451.1622938833331
 20
232.1693498867114
 30
0.0
 11
451.1622938833331
 21
232.4753498867115
 31
0.0
  0
LINE
  5
4D6
330
1F
100
AcDbEntity
  8
CARTOUCHE
  6
CONTINUOUS
 62
     4
100
AcDbLine
 10
451.1622938833331
 20
234.1593498867115
 30
0.0
 11
451.1622938833331
 21
234.3083498867115
 31
0.0
  0
SPLINE
  5
4D7
330
1F
100
AcDbEntity
  8
CARTOUCHE
  6
CONTINUOUS
 62
     4
100
AcDbSpline
210
0.0
220
0.0
230
1.0
 70
     8
 71
     3
 72
    32
 73
    28
 74
    26
 42
0.0000000001
 43
0.0000000001
 44
0.000001
 12
-0.134108993271187
 22
0.9909665876929397
 32
0.0
 13
0.0921211275964532
 23
0.9957478083583001
 33
0.0
 40
0.0
 40
0.0
 40
0.0
 40
0.0
 40
0.1929417000059932
 40
0.3858860021873758
 40
0.5788278186578129
 40
0.7717660881769828
 40
0.9647057414615339
 40
1.157646554945183
 40
1.350584760884569
 40
1.543523858803876
 40
1.736468012364869
 40
1.929406376012692
 40
2.315236575975139
 40
2.700991836250714
 40
2.893945905685609
 40
3.086891500294977
 40
3.279831070101848
 40
3.472768464172026
 40
3.665710755763281
 40
3.85865139281417
 40
4.051590391770327
 40
4.244531298888096
 40
4.630394313786915
 40
4.823335345994111
 40
5.016275838958871
 40
5.20921637224815
 40
5.402158865530705
 40
5.402158865530705
 40
5.402158865530705
 40
5.402158865530705
 10
451.1627786515377
 20
234.308186600098
 30
0.0
 10
451.154153579155
 20
234.3719195261241
 30
0.0
 10
451.1183694813647
 20
234.4978018572756
 30
0.0
 10
451.0104020591421
 20
234.661267790136
 30
0.0
 10
450.8601025299856
 20
234.7859821549947
 30
0.0
 10
450.6860870983318
 20
234.8720845622124
 30
0.0
 10
450.5018826754112
 20
234.9302804136966
 30
0.0
 10
450.3153173941269
 20
234.979962077911
 30
0.0
 10
450.1223671936128
 20
235.0024333916779
 30
0.0
 10
449.9291453290786
 20
234.9810601022204
 30
0.0
 10
449.7434389241181
 20
234.9254190636913
 30
0.0
 10
449.5124759623362
 20
234.8091960754921
 30
0.0
 10
449.2751634962823
 20
234.5781238738604
 30
0.0
 10
449.1700671394836
 20
234.2511209117257
 30
0.0
 10
449.2276846903274
 20
233.9956949510365
 30
0.0
 10
449.3175986173183
 20
233.8232503203959
 30
0.0
 10
449.4450803348688
 20
233.6755888696945
 30
0.0
 10
449.6068622826845
 20
233.5668519120752
 30
0.0
 10
449.7861137957392
 20
233.4935045431359
 30
0.0
 10
449.9729442387105
 20
233.4433150499313
 30
0.0
 10
450.1656787222721
 20
233.4219764509881
 30
0.0
 10
450.4233974220547
 20
233.438368409315
 30
0.0
 10
450.6732968076201
 20
233.5219229489439
 30
0.0
 10
450.8885669053857
 20
233.6641335875785
 30
0.0
 10
451.0300109137305
 20
233.7980509425183
 30
0.0
 10
451.1277527404732
 20
233.9678530908174
 30
0.0
 10
451.1568539581899
 20
234.0951959118229
 30
0.0
 10
451.1627786515374
 20
234.159236600098
 30
0.0
 11
451.1627786515377
 21
234.308186600098
 31
0.0
 11
451.1093203723148
 21
234.4935753171754
 31
0.0
 11
451.0033450587335
 21
234.6548102906644
 31
0.0
 11
450.856147726549
 21
234.779547932298
 31
0.0
 11
450.684388347111
 21
234.8674335824195
 31
0.0
 11
450.5014885913306
 21
234.9288614947372
 31
0.0
 11
450.3142513814302
 21
234.9754274130661
 31
0.0
 11
450.1223214250502
 21
234.9951262279887
 31
0.0
 11
449.9303985976077
 21
234.9753493208821
 31
0.0
 11
449.74551500077
 21
234.9201632118275
 31
0.0
 11
449.5736294552898
 21
234.8325243029445
 31
0.0
 11
449.3015916100231
 21
234.5589180148688
 31
0.0
 11
449.1962758113948
 21
234.1878172529975
 31
0.0
 11
449.2354670460827
 21
233.9988851526633
 31
0.0
 11
449.3238605418516
 21
233.827378276434
 31
0.0
 11
449.450796679671
 21
233.6820754626808
 31
0.0
 11
449.6097713986316
 21
233.5727507824286
 31
0.0
 11
449.7873764201901
 21
233.4973638464266
 31
0.0
 11
449.9739278850865
 21
233.448123159378
 31
0.0
 11
450.1657702894272
 21
233.427581665493
 31
0.0
 11
450.3583196371542
 21
233.4398676112841
 31
0.0
 11
450.7242235122332
 21
233.5623609596777
 31
0.0
 11
450.8852307206607
 21
233.6686761411705
 31
0.0
 11
451.0227262742382
 21
233.8040312173975
 31
0.0
 11
451.118736620149
 21
233.971387254007
 31
0.0
 11
451.1627786515374
 21
234.159236600098
 31
0.0
  0
SPLINE
  5
4D8
330
1F
100
AcDbEntity
  8
CARTOUCHE
  6
CONTINUOUS
 62
     4
100
AcDbSpline
210
0.0
220
0.0
230
1.0
 70
     8
 71
     3
 72
    36
 73
    32
 74
    30
 42
0.0000000001
 43
0.0000000001
 44
0.000001
 12
-0.7486966541785744
 22
0.6629127544570314
 32
0.0
 13
0.8109899424984657
 23
0.5850600936368294
 33
0.0
 40
0.0
 40
0.0
 40
0.0
 40
0.0
 40
0.1780452274969128
 40
0.3560877368950059
 40
0.53413420682332
 40
0.7121796397817962
 40
1.068272485405813
 40
1.424362065622577
 40
1.780451368035574
 40
2.13654780388984
 40
2.492633915001045
 40
2.84873080885062
 40
3.204818200236992
 40
3.560910569290135
 40
3.917003179831175
 40
4.273094319389153
 40
4.629183609743286
 40
4.985281207723999
 40
5.341365789049515
 40
5.697461870205732
 40
6.053551079961835
 40
6.4096455823145
 40
6.765733947827947
 40
7.121824762951146
 40
7.477920130638704
 40
7.834009176229215
 40
8.190100012311434
 40
8.546191599297291
 40
8.902283648164431
 40
9.258369457089511
 40
9.970493285481508
 40
9.970493285481508
 40
9.970493285481508
 40
9.970493285481508
 10
451.1627786515377
 20
235.8688471901131
 30
0.0
 10
451.1183446961645
 20
235.9081900075057
 30
0.0
 10
451.0231574483659
 20
235.9808881961943
 30
0.0
 10
450.8580107941088
 20
236.0512776355902
 30
0.0
 10
450.6848376197506
 20
236.0937590651225
 30
0.0
 10
450.4513696219875
 20
236.1366210165118
 30
0.0
 10
450.1586291695301
 20
236.1866844519046
 30
0.0
 10
449.802346521221
 20
236.2083215924135
 30
0.0
 10
449.4463986802523
 20
236.1952501660397
 30
0.0
 10
449.0908880118396
 20
236.1617375832664
 30
0.0
 10
448.7462652068508
 20
236.0652456363426
 30
0.0
 10
448.4206239921962
 20
235.9166327003742
 30
0.0
 10
448.1307479065728
 20
235.7061259831975
 30
0.0
 10
447.8788712117199
 20
235.4527407345611
 30
0.0
 10
447.6670188076665
 20
235.1644909225477
 30
0.0
 10
447.5107567767784
 20
234.8421636895683
 30
0.0
 10
447.4145414159427
 20
234.4977090981708
 30
0.0
 10
447.3764113887762
 20
234.1413234940325
 30
0.0
 10
447.4142718115544
 20
233.7852050007425
 30
0.0
 10
447.5034155940356
 20
233.4391270421431
 30
0.0
 10
447.651368459739
 20
233.1130039153582
 30
0.0
 10
447.8584960102456
 20
232.8203372530094
 30
0.0
 10
448.1210768169833
 20
232.5765510292024
 30
0.0
 10
448.4195603710256
 20
232.3801557645499
 30
0.0
 10
448.7444894979506
 20
232.2299898838642
 30
0.0
 10
449.092811086131
 20
232.1461963809174
 30
0.0
 10
449.4485700246973
 20
232.1182405792757
 30
0.0
 10
449.8047334829579
 20
232.1176925535105
 30
0.0
 10
450.160790164346
 20
232.1297232800599
 30
0.0
 10
450.6331178404012
 20
232.1860941064889
 30
0.0
 10
450.9702702306575
 20
232.3369081888579
 30
0.0
 10
451.1627786515373
 20
232.4757866000979
 30
0.0
 11
451.1627786515377
 21
235.8688471901131
 31
0.0
 11
451.0194282014153
 21
235.9744453672375
 31
0.0
 11
450.8566733971512
 21
236.046625473125
 31
0.0
 11
450.684515311224
 21
236.0920361366816
 31
0.0
 11
450.5096756881491
 21
236.1256707746492
 31
0.0
 11
450.1577946841134
 21
236.180277798582
 31
0.0
 11
449.8024014417222
 21
236.2025366993495
 31
0.0
 11
449.4464727271868
 21
236.1918433763801
 31
0.0
 11
449.0926986841976
 21
236.1512405134269
 31
0.0
 11
448.7494307157833
 21
236.0565599349389
 31
0.0
 11
448.4265814288549
 21
235.9063156938154
 31
0.0
 11
448.1370811926951
 21
235.6989805838923
 31
0.0
 11
447.8855411360616
 21
235.4469302223499
 31
0.0
 11
447.6762825373584
 21
235.1588108034703
 31
0.0
 11
447.5207633890323
 21
234.8384754913413
 31
0.0
 11
447.4242218097851
 21
234.4957229162715
 31
0.0
 11
447.3890754457833
 21
234.1413639792818
 31
0.0
 11
447.4228174186203
 21
233.786881633511
 31
0.0
 11
447.5132167253412
 21
233.4424510749474
 31
0.0
 11
447.6612292535153
 21
233.1185809754318
 31
0.0
 11
447.8677385442182
 21
232.8284823214501
 31
0.0
 11
448.1270589250462
 21
232.5844497825745
 31
0.0
 11
448.4239656560056
 21
232.3878611961601
 31
0.0
 11
448.7483892732183
 21
232.2410510046843
 31
0.0
 11
449.0940492895513
 21
232.155502445267
 31
0.0
 11
449.4486360472176
 21
232.1228083648029
 31
0.0
 11
449.8047148197986
 21
232.1197888971674
 31
0.0
 11
450.1604918087348
 21
232.1347648625187
 31
0.0
 11
450.5131485109024
 21
232.1840634706389
 31
0.0
 11
451.1627786515373
 21
232.4757866000979
 31
0.0
  0
LINE
  5
4D9
330
1F
100
AcDbEntity
  8
CARTOUCHE
  6
CONTINUOUS
 62
     4
100
AcDbLine
 10
452.9582938833327
 20
232.1693498867114
 30
0.0
 11
451.1622938833331
 21
232.1693498867114
 31
0.0
  0
LINE
  5
4DA
330
1F
100
AcDbEntity
  8
CARTOUCHE
  6
CONTINUOUS
 62
     4
100
AcDbLine
 10
446.8632938833329
 20
232.1813498867113
 30
0.0
 11
446.8632938833329
 21
234.8733498867115
 31
0.0
  0
LINE
  5
4DB
330
1F
100
AcDbEntity
  8
CARTOUCHE
  6
CONTINUOUS
 62
     4
100
AcDbLine
 10
438.7792938833329
 20
237.3843498867115
 30
0.0
 11
440.5972938833328
 21
237.3843498867115
 31
0.0
  0
ARC
  5
4DC
330
1F
100
AcDbEntity
  8
CARTOUCHE
  6
CONTINUOUS
 62
     4
100
AcDbCircle
 10
428.8712938833328
 20
235.4743498867115
 30
0.0
 40
3.758999999999999
100
AcDbArc
 50
82.92000000000106
 51
97.42600000000223
  0
LINE
  5
4DD
330
1F
100
AcDbEntity
  8
CARTOUCHE
  6
CONTINUOUS
 62
     4
100
AcDbLine
 10
430.294293883333
 20
237.0523498867115
 30
0.0
 11
430.294293883333
 21
238.9533498867113
 31
0.0
  0
LINE
  5
4DE
330
1F
100
AcDbEntity
  8
CARTOUCHE
  6
CONTINUOUS
 62
     4
100
AcDbLine
 10
431.3252938833328
 20
237.0523498867115
 30
0.0
 11
430.294293883333
 21
237.0523498867115
 31
0.0
  0
LINE
  5
4DF
330
1F
100
AcDbEntity
  8
CARTOUCHE
  6
CONTINUOUS
 62
     4
100
AcDbLine
 10
438.0582938833328
 20
237.3843498867115
 30
0.0
 11
436.5602938833331
 21
237.3843498867115
 31
0.0
  0
LINE
  5
4E0
330
1F
100
AcDbEntity
  8
CARTOUCHE
  6
CONTINUOUS
 62
     4
100
AcDbLine
 10
451.1622938833331
 20
237.3723498867116
 30
0.0
 11
452.9582938833327
 21
237.3723498867116
 31
0.0
  0
HATCH
  5
4E1
330
1F
100
AcDbEntity
  8
CARTOUCHE
  6
CONTINUOUS
 62
     4
100
AcDbHatch
 10
0.0
 20
0.0
 30
0.0
210
0.0
220
0.0
230
1.0
  2
ANSI31
 70
     0
 71
     0
 91
        1
 92
        1
 93
       78
 72
     1
 10
459.7042286753253
 20
236.0573369929814
 11
459.7042286753253
 21
232.1810369929814
 72
     1
 10
459.7042286753253
 20
232.1810369929814
 11
461.4308786753252
 21
232.1810369929814
 72
     1
 10
461.4308786753252
 20
232.1810369929814
 11
461.4308786753252
 21
234.3311369929814
 72
     1
 10
461.4308786753252
 20
234.3311369929814
 11
461.4347436753248
 21
234.3745059929814
 72
     1
 10
461.4347436753248
 20
234.3745059929814
 11
461.442201675325
 21
234.4175289929814
 72
     1
 10
461.442201675325
 20
234.4175289929814
 11
461.4531346753251
 21
234.4599339929814
 72
     1
 10
461.4531346753251
 20
234.4599339929814
 11
461.4674276753251
 21
234.5014469929814
 72
     1
 10
461.4674276753251
 20
234.5014469929814
 11
461.4849626753253
 21
234.5417939929814
 72
     1
 10
461.4849626753253
 20
234.5417939929814
 11
461.505641675325
 21
234.5806979929814
 72
     1
 10
461.505641675325
 20
234.5806979929814
 11
461.5293776753254
 21
234.6177569929813
 72
     1
 10
461.529377675325
 20
234.6177569929813
 11
461.5560966753251
 21
234.6525669929814
 72
     1
 10
461.5560966753251
 20
234.6525669929814
 11
461.5857286753252
 21
234.6847229929814
 72
     1
 10
461.5857286753252
 20
234.6847229929814
 11
461.6181986753248
 21
234.7138209929814
 72
     1
 10
461.6181986753248
 20
234.7138209929814
 11
461.653364675325
 21
234.7395299929813
 72
     1
 10
461.6533646753252
 20
234.7395299929813
 11
461.6908816753253
 21
234.7618759929813
 72
     1
 10
461.6908816753253
 20
234.7618759929813
 11
461.730338675325
 21
234.7809549929813
 72
     1
 10
461.730338675325
 20
234.7809549929813
 11
461.7713226753251
 21
234.7968629929813
 72
     1
 10
461.7713226753253
 20
234.7968629929813
 11
461.8134216753251
 21
234.8096979929814
 72
     1
 10
461.8134216753251
 20
234.8096979929814
 11
461.8567106753252
 21
234.8195979929814
 72
     1
 10
461.8567106753252
 20
234.8195979929814
 11
461.9004966753251
 21
234.8262869929814
 72
     1
 10
461.9004966753251
 20
234.8262869929814
 11
461.9445626753248
 21
234.8295919929814
 72
     1
 10
461.9445626753248
 20
234.8295919929814
 11
461.988688675325
 21
234.8293439929814
 72
     1
 10
461.988688675325
 20
234.8293439929814
 11
462.0326546753251
 21
234.8253709929814
 72
     1
 10
462.0326546753251
 20
234.8253709929814
 11
462.0755746753251
 21
234.8176789929814
 72
     1
 10
462.0755746753251
 20
234.8176789929814
 11
462.117726675325
 21
234.8062369929813
 72
     1
 10
462.117726675325
 20
234.8062369929813
 11
462.1587116753251
 21
234.7910789929814
 72
     1
 10
462.1587116753251
 20
234.7910789929814
 11
462.1981286753253
 21
234.7722359929814
 72
     1
 10
462.1981286753253
 20
234.7722359929814
 11
462.2355766753253
 21
234.7497399929811
 72
     1
 10
462.235576675325
 20
234.7497399929811
 11
462.2707596753253
 21
234.7235849929814
 72
     1
 10
462.2707596753253
 20
234.7235849929814
 11
462.3032026753253
 21
234.6940619929814
 72
     1
 10
462.3032026753253
 20
234.6940619929814
 11
462.332546675325
 21
234.6614419929814
 72
     1
 10
462.332546675325
 20
234.6614419929814
 11
462.3584366753251
 21
234.6259969929814
 72
     1
 10
462.3584366753251
 20
234.6259969929814
 11
462.380512675325
 21
234.5879989929814
 72
     1
 10
462.380512675325
 20
234.5879989929814
 11
462.398384675325
 21
234.5479539929814
 72
     1
 10
462.398384675325
 20
234.5479539929814
 11
462.4119876753248
 21
234.5062199929814
 72
     1
 10
462.4119876753248
 20
234.5062199929814
 11
462.4211856753251
 21
234.4633659929814
 72
     1
 10
462.4211856753251
 20
234.4633659929814
 11
462.4258446753251
 21
234.4199649929814
 72
     1
 10
462.4258446753251
 20
234.4199649929814
 11
462.4264296753251
 21
234.3982369929814
 72
     1
 10
462.4264296753251
 20
234.3982369929814
 11
462.425828675325
 21
234.3765869929814
 72
     1
 10
462.425828675325
 20
234.3765869929814
 11
462.425828675325
 21
234.1367369929814
 72
     1
 10
462.425828675325
 20
234.1367369929814
 11
464.255078675325
 21
234.1367369929814
 72
     1
 10
464.255078675325
 20
234.1367369929814
 11
464.2717356753251
 21
234.2908439929814
 72
     1
 10
464.2717356753251
 20
234.2908439929814
 11
464.279289675325
 21
234.4457069929814
 72
     1
 10
464.279289675325
 20
234.4457069929814
 11
464.2774786753251
 21
234.6008639929813
 72
     1
 10
464.2774786753251
 20
234.6008639929813
 11
464.2669036753248
 21
234.7556589929814
 72
     1
 10
464.2669036753248
 20
234.7556589929814
 11
464.2481636753251
 21
234.9099149929814
 72
     1
 10
464.2481636753251
 20
234.9099149929814
 11
464.2211556753251
 21
235.0630399929813
 72
     1
 10
464.2211556753251
 20
235.0630399929813
 11
464.193129675325
 21
235.1840149929814
 72
     1
 10
464.193129675325
 20
235.1840149929814
 11
464.1671756753253
 21
235.2733879929814
 72
     1
 10
464.1671756753249
 20
235.2733879929814
 11
464.1359356753252
 21
235.3609919929814
 72
     1
 10
464.1359356753252
 20
235.3609919929814
 11
464.084754675325
 21
235.4741929929814
 72
     1
 10
464.084754675325
 20
235.4741929929814
 11
464.039122675325
 21
235.5555579929814
 72
     1
 10
464.039122675325
 20
235.5555579929814
 11
463.9873126753251
 21
235.6332429929814
 72
     1
 10
463.9873126753251
 20
235.6332429929814
 11
463.9492736753251
 21
235.6827909929814
 72
     1
 10
463.9492736753251
 20
235.6827909929814
 11
463.9085426753251
 21
235.7301509929814
 72
     1
 10
463.9085426753251
 20
235.7301509929814
 11
463.865172675325
 21
235.7750399929814
 72
     1
 10
463.865172675325
 20
235.7750399929814
 11
463.8192186753251
 21
235.8171729929814
 72
     1
 10
463.8192186753251
 20
235.8171729929814
 11
463.770731675325
 21
235.8562689929814
 72
     1
 10
463.770731675325
 20
235.8562689929814
 11
463.7201026753253
 21
235.8919239929814
 72
     1
 10
463.7201026753253
 20
235.8919239929814
 11
463.667342675325
 21
235.9244399929814
 72
     1
 10
463.667342675325
 20
235.9244399929814
 11
463.5849126753253
 21
235.9676459929814
 72
     1
 10
463.584912675325
 20
235.9676459929814
 11
463.4994976753252
 21
236.0046069929814
 72
     1
 10
463.4994976753252
 20
236.0046069929814
 11
463.3815406753249
 21
236.0454769929813
 72
     1
 10
463.3815406753249
 20
236.0454769929813
 11
463.2001356753248
 21
236.0918149929814
 72
     1
 10
463.2001356753248
 20
236.0918149929814
 11
463.078226675325
 21
236.1150179929814
 72
     1
 10
463.078226675325
 20
236.1150179929814
 11
462.893641675325
 21
236.1367639929814
 72
     1
 10
462.893641675325
 20
236.1367639929814
 11
462.7697596753248
 21
236.1407589929814
 72
     1
 10
462.7697596753248
 20
236.1407589929814
 11
462.5838236753253
 21
236.1326459929814
 72
     1
 10
462.5838236753253
 20
236.1326459929814
 11
462.4291816753251
 21
236.1152169929813
 72
     1
 10
462.4291816753251
 20
236.1152169929813
 11
462.2759716753253
 21
236.0884249929814
 72
     1
 10
462.2759716753249
 20
236.0884249929814
 11
462.1550606753251
 21
236.0600779929814
 72
     1
 10
462.1550606753251
 20
236.0600779929814
 11
461.977054675325
 21
236.0049729929813
 72
     1
 10
461.977054675325
 20
236.0049729929813
 11
461.861689675325
 21
235.9594609929814
 72
     1
 10
461.861689675325
 20
235.9594609929814
 11
461.749072675325
 21
235.9071409929814
 72
     1
 10
461.749072675325
 20
235.9071409929814
 11
461.6395196753248
 21
235.8485229929814
 72
     1
 10
461.6395196753248
 20
235.8485229929814
 11
461.4308786753252
 21
235.7144369929814
 72
     1
 10
461.4308786753252
 20
235.7144369929814
 11
461.4308786753252
 21
236.0573369929814
 72
     1
 10
461.4308786753252
 20
236.0573369929814
 11
459.7042286753251
 21
236.0573369929814
 97
        0
 75
     0
 76
     1
 52
315.0
 41
0.1
 77
     0
 78
     1
 53
0.0
 43
-120.2927061166669
 44
246.5653498867115
 45
0.0000000000000001
 46
0.3175
 79
     0
 98
        1
 10
-120.2927061166669
 20
246.5653498867115
  0
LINE
  5
4E2
330
1F
100
AcDbEntity
  8
CARTOUCHE
  6
CONTINUOUS
 62
     4
100
AcDbLine
 10
461.4312938833331
 20
232.1813498867113
 30
0.0
 11
459.704293883333
 21
232.1813498867113
 31
0.0
  0
LINE
  5
4E3
330
1F
100
AcDbEntity
  8
CARTOUCHE
  6
CONTINUOUS
 62
     4
100
AcDbLine
 10
459.704293883333
 20
236.0573498867116
 30
0.0
 11
461.4312938833331
 21
236.0573498867116
 31
0.0
  0
SPLINE
  5
4E4
330
1F
100
AcDbEntity
  8
CARTOUCHE
  6
CONTINUOUS
 62
     4
100
AcDbSpline
210
0.0
220
0.0
230
1.0
 70
     8
 71
     3
 72
    21
 73
    17
 74
    15
 42
0.0000000001
 43
0.0000000001
 44
0.000001
 12
-0.0762450288987748
 22
0.9970891111471559
 32
0.0
 13
-0.2154301143726971
 23
-0.9765192603432698
 33
0.0
 40
0.0
 40
0.0
 40
0.0
 40
0.0
 40
0.187223976789626
 40
0.3744488814535107
 40
0.5616797665683116
 40
0.7489072874826438
 40
0.9361354158714377
 40
1.123364231022079
 40
1.310595054581534
 40
1.49781382048718
 40
1.685063469726895
 40
1.872275753859802
 40
2.059506638347991
 40
2.246733387729861
 40
2.433965507953911
 40
2.621189713029924
 40
2.621189713029924
 40
2.621189713029924
 40
2.621189713029924
 10
457.3142786515377
 20
234.628136600098
 30
0.0
 10
457.309520352364
 20
234.6903629296322
 30
0.0
 10
457.2821280349806
 20
234.8146785471145
 30
0.0
 10
457.1826775132045
 20
234.9767864652214
 30
0.0
 10
457.0449163085975
 20
235.1059389506422
 30
0.0
 10
456.8846649301578
 20
235.2048086157407
 30
0.0
 10
456.7095803176898
 20
235.2735834827484
 30
0.0
 10
456.5261585119848
 20
235.3143449170872
 30
0.0
 10
456.3386520308176
 20
235.3277527983225
 30
0.0
 10
456.1518422225365
 20
235.3168834556933
 30
0.0
 10
455.9653730574737
 20
235.277152990521
 30
0.0
 10
455.8093670118155
 20
235.1699679773822
 30
0.0
 10
455.6377938796146
 20
235.0929907649247
 30
0.0
 10
455.4966052207604
 20
234.9652428891535
 30
0.0
 10
455.3923361973834
 20
234.8079875357101
 30
0.0
 10
455.3495232288418
 20
234.689079280851
 30
0.0
 10
455.3360786515375
 20
234.628136600098
 30
0.0
 11
457.3142786515377
 21
234.628136600098
 31
0.0
 11
457.2724009924465
 21
234.8106179711833
 31
0.0
 11
457.176293178794
 21
234.9712929802939
 31
0.0
 11
457.0411664838146
 21
235.1008930829721
 31
0.0
 11
456.8821920859642
 21
235.1997934828913
 31
0.0
 11
456.7081904671388
 21
235.268915161706
 31
0.0
 11
456.5254772129532
 21
235.3097866695278
 31
0.0
 11
456.338764731656
 21
235.3237075544754
 31
0.0
 11
456.1519078576773
 21
235.3120753390264
 31
0.0
 11
455.9704393242331
 21
235.2659068001845
 31
0.0
 11
455.8067772304577
 21
235.175005824044
 31
0.0
 11
455.6428580235817
 21
235.0845297086539
 31
0.0
 11
455.5027595187183
 21
234.9603270370565
 31
0.0
 11
455.3990100242818
 21
234.8044683979029
 31
0.0
 11
455.3360786515375
 21
234.628136600098
 31
0.0
  0
SPLINE
  5
4E5
330
1F
100
AcDbEntity
  8
CARTOUCHE
  6
CONTINUOUS
 62
     4
100
AcDbSpline
210
0.0
220
0.0
230
1.0
 70
     8
 71
     3
 72
    15
 73
    11
 74
     9
 42
0.0000000001
 43
0.0000000001
 44
0.000001
 12
0.1873467659218162
 22
-0.9822938406091308
 32
0.0
 13
0.7770129286963811
 23
0.6294846373333291
 33
0.0
 40
0.0
 40
0.0
 40
0.0
 40
0.0
 40
0.3373811758007879
 40
0.6747694790310776
 40
1.012155313481035
 40
1.349542684605598
 40
1.68693595698265
 40
1.855630980301284
 40
2.024323584144416
 40
2.361710579467362
 40
2.361710579467362
 40
2.361710579467362
 40
2.361710579467362
 10
455.3360786515376
 20
233.7933866000979
 30
0.0
 10
455.3571477422607
 20
233.682917449789
 30
0.0
 10
455.4504679625297
 20
233.4659272610003
 30
0.0
 10
455.7258999509889
 20
233.2552085491665
 30
0.0
 10
456.0417733857843
 20
233.1305949784941
 30
0.0
 10
456.3769513605903
 20
233.0745117142049
 30
0.0
 10
456.6607288106216
 20
233.0896177015554
 30
0.0
 10
456.8790208984142
 20
233.1476865028918
 30
0.0
 10
457.0843098870071
 20
233.2410202819657
 30
0.0
 10
457.2268939657576
 20
233.3337932899673
 30
0.0
 10
457.3142786515377
 20
233.4045866000979
 30
0.0
 11
455.3360786515376
 21
233.7933866000979
 31
0.0
 11
455.4730423286608
 21
233.4850561503801
 31
0.0
 11
455.7326415363267
 21
233.2695587847779
 31
0.0
 11
456.0449909958083
 21
233.1420165820341
 31
0.0
 11
456.3778425858126
 21
233.0868799316623
 31
0.0
 11
456.7145761608601
 21
233.107966597322
 31
0.0
 11
456.8773973159397
 21
233.1520943592639
 31
0.0
 11
457.0317235187193
 21
233.2202164197874
 31
0.0
 11
457.3142786515377
 21
233.4045866000979
 31
0.0
  0
LINE
  5
4E6
330
1F
100
AcDbEntity
  8
CARTOUCHE
  6
CONTINUOUS
 62
     4
100
AcDbLine
 10
455.336293883333
 20
234.6283498867115
 30
0.0
 11
456.1252938833328
 21
234.6283498867115
 31
0.0
  0
LINE
  5
4E7
330
1F
100
AcDbEntity
  8
CARTOUCHE
  6
CONTINUOUS
 62
     4
100
AcDbLine
 10
456.1252938833328
 20
234.6283498867115
 30
0.0
 11
457.314293883333
 21
234.6283498867115
 31
0.0
  0
LINE
  5
4E8
330
1F
100
AcDbEntity
  8
CARTOUCHE
  6
CONTINUOUS
 62
     4
100
AcDbLine
 10
459.1782938833329
 20
233.8053498867115
 30
0.0
 11
456.1252938833328
 21
233.7933498867115
 31
0.0
  0
LINE
  5
4E9
330
1F
100
AcDbEntity
  8
CARTOUCHE
  6
CONTINUOUS
 62
     4
100
AcDbLine
 10
457.314293883333
 20
233.4043498867115
 30
0.0
 11
459.0752938833331
 21
233.4043498867115
 31
0.0
  0
LINE
  5
4EA
330
1F
100
AcDbEntity
  8
CARTOUCHE
  6
CONTINUOUS
 62
     4
100
AcDbLine
 10
456.0222938833328
 20
233.7933498867115
 30
0.0
 11
455.336293883333
 21
233.7933498867115
 31
0.0
  0
LINE
  5
4EB
330
1F
100
AcDbEntity
  8
CARTOUCHE
  6
CONTINUOUS
 62
     4
100
AcDbLine
 10
456.1252938833328
 20
233.7933498867115
 30
0.0
 11
456.0222938833328
 21
233.7933498867115
 31
0.0
  0
LINE
  5
4EC
330
1F
100
AcDbEntity
  8
CARTOUCHE
  6
CONTINUOUS
 62
     4
100
AcDbLine
 10
459.704293883333
 20
232.1813498867113
 30
0.0
 11
459.704293883333
 21
236.0573498867116
 31
0.0
  0
SPLINE
  5
4ED
330
1F
100
AcDbEntity
  8
CARTOUCHE
  6
CONTINUOUS
 62
     4
100
AcDbSpline
210
0.0
220
0.0
230
1.0
 70
     8
 71
     3
 72
    20
 73
    16
 74
    14
 42
0.0000000001
 43
0.0000000001
 44
0.000001
 12
0.1358608544272444
 22
0.9907279284618452
 32
0.0
 13
-0.8123777522852268
 23
-0.5831315354120396
 33
0.0
 40
0.0
 40
0.0
 40
0.0
 40
0.0
 40
0.3101716211152039
 40
0.6203441609814325
 40
0.9305169149356036
 40
1.240689339272239
 40
1.550861576563898
 40
1.861041752688697
 40
2.171205819844119
 40
2.481379890546534
 40
2.791555050226641
 40
3.101724851736032
 40
3.411899428548661
 40
3.722070615832152
 40
4.34240038392283
 40
4.34240038392283
 40
4.34240038392283
 40
4.34240038392283
 10
464.2550786515377
 20
234.1367366000981
 30
0.0
 10
464.2691253786923
 20
234.2391684959831
 30
0.0
 10
464.2856858799101
 20
234.4458745169758
 30
0.0
 10
464.2721715975508
 20
234.7564579291208
 30
0.0
 10
464.2269154986164
 20
235.0636084549748
 30
0.0
 10
464.1475376115667
 20
235.3651894223215
 30
0.0
 10
463.9987482483133
 20
235.6410639387807
 30
0.0
 10
463.7816757399526
 20
235.8695459651167
 30
0.0
 10
463.5028314866323
 20
236.0154229708465
 30
0.0
 10
463.2027403740391
 20
236.096885773497
 30
0.0
 10
462.8953278449787
 20
236.1461354489615
 30
0.0
 10
462.5838795783155
 20
236.1387414813467
 30
0.0
 10
462.2762018505524
 20
236.0951107855399
 30
0.0
 10
461.876098799992
 20
235.9859199137712
 30
0.0
 10
461.5988593524301
 20
235.8350145501408
 30
0.0
 10
461.4308786515378
 20
235.714436600098
 30
0.0
 11
464.2550786515377
 21
234.1367366000981
 31
0.0
 11
464.2792941698417
 21
234.4459621704354
 31
0.0
 11
464.2668820811485
 21
234.7558862926464
 31
0.0
 11
464.2212292731271
 21
235.0626809623246
 31
0.0
 11
464.1359699496543
 21
235.3609053826172
 31
0.0
 11
463.9873695927393
 21
235.6331640828837
 31
0.0
 11
463.7713768545753
 21
235.8557824519583
 31
0.0
 11
463.4992937609947
 21
236.0046870957733
 31
0.0
 11
463.2015212695714
 21
236.0915176114422
 31
0.0
 11
462.8946538862451
 21
236.1366958881824
 31
0.0
 11
462.5845097454289
 21
236.1327030723316
 31
0.0
 11
462.277467345314
 21
236.0887342702733
 31
0.0
 11
461.9786589191674
 21
236.0055493993169
 31
0.0
 11
461.4308786515378
 21
235.714436600098
 31
0.0
  0
SPLINE
  5
4EE
330
1F
100
AcDbEntity
  8
CARTOUCHE
  6
CONTINUOUS
 62
     4
100
AcDbSpline
210
0.0
220
0.0
230
1.0
 70
     8
 71
     3
 72
    14
 73
    10
 74
     8
 42
0.0000000001
 43
0.0000000001
 44
0.000001
 12
0.0554704849902568
 22
0.9984603273515407
 32
0.0
 13
-0.0466631639365102
 23
-0.9989106812580565
 33
0.0
 40
0.0
 40
0.0
 40
0.0
 40
0.0
 40
0.2174460241478015
 40
0.4349107687473822
 40
0.6523648651333691
 40
0.869875419583159
 40
1.087347445116228
 40
1.304824541146865
 40
1.52229787136991
 40
1.52229787136991
 40
1.52229787136991
 40
1.52229787136991
 10
462.4258286515376
 20
234.3765866000981
 30
0.0
 10
462.4298492636772
 20
234.448957009582
 30
0.0
 10
462.3973180958167
 20
234.5987310104308
 30
0.0
 10
462.2441715923854
 20
234.7658380864845
 30
0.0
 10
462.0316209704705
 20
234.8415713831576
 30
0.0
 10
461.8103791725813
 20
234.8220616905651
 30
0.0
 10
461.606567803675
 20
234.7281475371413
 30
0.0
 10
461.4719381529915
 20
234.5477740349312
 30
0.0
 10
461.4342613160906
 20
234.4035487442475
 30
0.0
 10
461.4308786515373
 20
234.331136600098
 30
0.0
 11
462.4258286515376
 21
234.3765866000981
 31
0.0
 11
462.379929286498
 21
234.5891341229072
 31
0.0
 11
462.2342710756665
 21
234.7506105330851
 31
0.0
 11
462.0301913431442
 21
234.8256956981193
 31
0.0
 11
461.8132727544606
 21
234.809658396063
 31
0.0
 11
461.6180971175274
 21
234.7137387198054
 31
0.0
 11
461.4849563630606
 21
234.5417798749589
 31
0.0
 11
461.4308786515373
 21
234.331136600098
 31
0.0
  0
LINE
  5
4EF
330
1F
100
AcDbEntity
  8
CARTOUCHE
  6
CONTINUOUS
 62
     4
100
AcDbLine
 10
461.4312938833331
 20
234.3313498867114
 30
0.0
 11
461.4312938833331
 21
232.1813498867113
 31
0.0
  0
LINE
  5
4F0
330
1F
100
AcDbEntity
  8
CARTOUCHE
  6
CONTINUOUS
 62
     4
100
AcDbLine
 10
462.426293883333
 20
234.1363498867115
 30
0.0
 11
462.426293883333
 21
234.3763498867115
 31
0.0
  0
LINE
  5
4F1
330
1F
100
AcDbEntity
  8
CARTOUCHE
  6
CONTINUOUS
 62
     4
100
AcDbLine
 10
464.2552938833329
 20
234.1363498867115
 30
0.0
 11
462.426293883333
 21
234.1363498867115
 31
0.0
  0
LINE
  5
4F2
330
1F
100
AcDbEntity
  8
CARTOUCHE
  6
CONTINUOUS
 62
     4
100
AcDbLine
 10
461.4312938833331
 20
236.0573498867116
 30
0.0
 11
461.4312938833331
 21
235.7143498867113
 31
0.0
  0
LINE
  5
4F3
330
1F
100
AcDbEntity
  8
DRAW
  6
CONTINUOUS
 62
     7
100
AcDbLine
 10
475.0922938833329
 20
345.1483498867115
 30
0.0
 11
475.0922938833329
 21
336.1483498867115
 31
0.0
  0
LINE
  5
4F4
330
1F
100
AcDbEntity
  8
DRAW
  6
CONTINUOUS
 62
     7
100
AcDbLine
 10
478.292293883333
 20
334.1483498867115
 30
0.0
 11
478.292293883333
 21
331.5983498867116
 31
0.0
  0
LINE
  5
4F5
330
1F
100
AcDbEntity
  8
DRAW
  6
CONTINUOUS
 62
     7
100
AcDbLine
 10
480.3422938833328
 20
333.2983498867116
 30
0.0
 11
480.3422938833328
 21
331.7983498867115
 31
0.0
  0
LINE
  5
4F6
330
1F
100
AcDbEntity
  8
DRAW
  6
CONTINUOUS
 62
     7
100
AcDbLine
 10
480.3422938833328
 20
331.7983498867115
 30
0.0
 11
481.7212938833328
 21
331.7983498867115
 31
0.0
  0
ARC
  5
4F7
330
1F
100
AcDbEntity
  8
DRAW
  6
CONTINUOUS
 62
     7
100
AcDbCircle
 10
479.0922938833329
 20
331.5983498867116
 30
0.0
 40
0.8
100
AcDbArc
 50
180.0
 51
270.0
  0
LINE
  5
4F8
330
1F
100
AcDbEntity
  8
DRAW
  6
CONTINUOUS
 62
     7
100
AcDbLine
 10
480.345293883333
 20
330.7983498867116
 30
0.0
 11
479.0922938833329
 21
330.7983498867116
 31
0.0
  0
LINE
  5
4F9
330
1F
100
AcDbEntity
  8
DRAW
  6
CONTINUOUS
 62
     7
100
AcDbLine
 10
482.2362938833329
 20
329.7233498867116
 30
0.0
 11
480.345293883333
 21
330.7983498867116
 31
0.0
  0
LINE
  5
4FA
330
1F
100
AcDbEntity
  8
DRAW
  6
CONTINUOUS
 62
     7
100
AcDbLine
 10
475.292293883333
 20
336.1483498867115
 30
0.0
 11
475.0922938833329
 21
336.1483498867115
 31
0.0
  0
ARC
  5
4FB
330
1F
100
AcDbEntity
  8
DRAW
  6
CONTINUOUS
 62
     7
100
AcDbCircle
 10
475.4922938833328
 20
334.3483498867116
 30
0.0
 40
0.2
100
AcDbArc
 50
180.0
 51
270.0
  0
LINE
  5
4FC
330
1F
100
AcDbEntity
  8
DRAW
  6
CONTINUOUS
 62
     7
100
AcDbLine
 10
475.292293883333
 20
335.6483498867115
 30
0.0
 11
475.292293883333
 21
334.3483498867116
 31
0.0
  0
LINE
  5
4FD
330
1F
100
AcDbEntity
  8
DRAW
  6
CONTINUOUS
 62
     7
100
AcDbLine
 10
475.292293883333
 20
336.1483498867115
 30
0.0
 11
475.292293883333
 21
335.6483498867115
 31
0.0
  0
LINE
  5
4FE
330
1F
100
AcDbEntity
  8
DRAW
  6
CONTINUOUS
 62
     7
100
AcDbLine
 10
481.7212938833328
 20
333.2983498867116
 30
0.0
 11
480.3422938833328
 21
333.2983498867116
 31
0.0
  0
ARC
  5
4FF
330
1F
100
AcDbEntity
  8
DRAW
  6
CONTINUOUS
 62
     7
100
AcDbCircle
 10
483.8422938833328
 20
332.5483498867116
 30
0.0
 40
2.25
100
AcDbArc
 50
134.6739999999982
 51
160.529
  0
ARC
  5
500
330
1F
100
AcDbEntity
  8
DRAW
  6
CONTINUOUS
 62
     7
100
AcDbCircle
 10
479.4672938833328
 20
350.8483498867116
 30
0.0
 40
2.299999999999998
100
AcDbArc
 50
199.791999999999
 51
359.7610000000001
  0
CIRCLE
  5
501
330
1F
100
AcDbEntity
  8
DRAW
  6
CONTINUOUS
 62
     7
100
AcDbCircle
 10
479.4672938833328
 20
350.9483498867115
 30
0.0
 40
2.5
  0
LINE
  5
502
330
1F
100
AcDbEntity
  8
DRAW
  6
CONTINUOUS
 62
     7
100
AcDbLine
 10
475.0922938833329
 20
353.6483498867115
 30
0.0
 11
475.0922938833329
 21
347.1483498867115
 31
0.0
  0
LINE
  5
503
330
1F
100
AcDbEntity
  8
DRAW
  6
CONTINUOUS
 62
     7
100
AcDbLine
 10
475.292293883333
 20
347.1483498867115
 30
0.0
 11
475.0922938833329
 21
347.1483498867115
 31
0.0
  0
LINE
  5
504
330
1F
100
AcDbEntity
  8
DRAW
  6
CONTINUOUS
 62
     7
100
AcDbLine
 10
475.292293883333
 20
345.1483498867115
 30
0.0
 11
475.292293883333
 21
345.3483498867116
 31
0.0
  0
ARC
  5
505
330
1F
100
AcDbEntity
  8
DRAW
  6
CONTINUOUS
 62
     7
100
AcDbCircle
 10
475.4922938833328
 20
345.3483498867116
 30
0.0
 40
0.2
100
AcDbArc
 50
180.0
 51
270.0
  0
LINE
  5
506
330
1F
100
AcDbEntity
  8
DRAW
  6
CONTINUOUS
 62
     7
100
AcDbLine
 10
475.292293883333
 20
347.1483498867115
 30
0.0
 11
475.292293883333
 21
346.6483498867115
 31
0.0
  0
LINE
  5
507
330
1F
100
AcDbEntity
  8
DRAW
  6
CONTINUOUS
 62
     7
100
AcDbLine
 10
475.292293883333
 20
346.6483498867115
 30
0.0
 11
475.292293883333
 21
345.3483498867116
 31
0.0
  0
LINE
  5
508
330
1F
100
AcDbEntity
  8
DRAW
  6
CONTINUOUS
 62
     7
100
AcDbLine
 10
475.292293883333
 20
345.1483498867115
 30
0.0
 11
475.0922938833329
 21
345.1483498867115
 31
0.0
  0
LINE
  5
509
330
1F
100
AcDbEntity
  8
DRAW
  6
CONTINUOUS
 62
     7
100
AcDbLine
 10
475.292293883333
 20
354.6483498867115
 30
0.0
 11
475.292293883333
 21
353.8483498867116
 31
0.0
  0
LINE
  5
50A
330
1F
100
AcDbEntity
  8
DRAW
  6
CONTINUOUS
 62
     7
100
AcDbLine
 10
475.292293883333
 20
353.6483498867115
 30
0.0
 11
475.292293883333
 21
353.8483498867116
 31
0.0
  0
LINE
  5
50B
330
1F
100
AcDbEntity
  8
DRAW
  6
CONTINUOUS
 62
     7
100
AcDbLine
 10
475.292293883333
 20
353.6483498867115
 30
0.0
 11
475.0922938833329
 21
353.6483498867115
 31
0.0
  0
ARC
  5
50C
330
1F
100
AcDbEntity
  8
DRAW
  6
CONTINUOUS
 62
     7
100
AcDbCircle
 10
475.4922938833328
 20
353.8483498867116
 30
0.0
 40
0.2
100
AcDbArc
 50
180.0
 51
270.0
  0
LINE
  5
50D
330
1F
100
AcDbEntity
  8
DRAW
  6
CONTINUOUS
 62
     7
100
AcDbLine
 10
477.3032938833329
 20
350.0703498867116
 30
0.0
 11
477.6042938833328
 21
350.1213498867115
 31
0.0
  0
LINE
  5
50E
330
1F
100
AcDbEntity
  8
DRAW
  6
CONTINUOUS
 62
     7
100
AcDbLine
 10
481.4662938833329
 20
350.7873498867116
 30
0.0
 11
481.767293883333
 21
350.8393498867115
 31
0.0
  0
LINE
  5
50F
330
1F
100
AcDbEntity
  8
DRAW
  6
CONTINUOUS
 62
     7
100
AcDbLine
 10
477.4682938833328
 20
350.9103498867116
 30
0.0
 11
477.1672938833328
 21
350.8583498867116
 31
0.0
  0
LINE
  5
510
330
1F
100
AcDbEntity
  8
DRAW
  6
CONTINUOUS
 62
     7
100
AcDbLine
 10
481.331293883333
 20
351.5753498867116
 30
0.0
 11
481.6322938833329
 21
351.6273498867116
 31
0.0
  0
LINE
  5
511
330
1F
100
AcDbEntity
  8
DRAW
  6
CONTINUOUS
 62
     7
100
AcDbLine
 10
477.6042938833328
 20
350.1213498867115
 30
0.0
 11
478.0572938833328
 21
350.1993498867116
 31
0.0
  0
LINE
  5
512
330
1F
100
AcDbEntity
  8
DRAW
  6
CONTINUOUS
 62
     7
100
AcDbLine
 10
481.014293883333
 20
350.7093498867116
 30
0.0
 11
481.4662938833329
 21
350.7873498867116
 31
0.0
  0
LINE
  5
513
330
1F
100
AcDbEntity
  8
DRAW
  6
CONTINUOUS
 62
     7
100
AcDbLine
 10
477.9212938833331
 20
350.9883498867115
 30
0.0
 11
477.4682938833328
 21
350.9103498867116
 31
0.0
  0
LINE
  5
514
330
1F
100
AcDbEntity
  8
DRAW
  6
CONTINUOUS
 62
     7
100
AcDbLine
 10
481.331293883333
 20
351.5753498867116
 30
0.0
 11
480.878293883333
 21
351.4973498867116
 31
0.0
  0
ARC
  5
515
330
1F
100
AcDbEntity
  8
DRAW
  6
CONTINUOUS
 62
     7
100
AcDbCircle
 10
479.4672938833328
 20
350.8483498867116
 30
0.0
 40
2.299999999999998
100
AcDbArc
 50
19.79199999999903
 51
179.7609999999999
  0
ARC
  5
516
330
1F
100
AcDbEntity
  8
DRAW
  6
CONTINUOUS
 62
     7
100
AcDbCircle
 10
479.4672938833328
 20
350.8483498867116
 30
0.0
 40
2.299999999999998
100
AcDbArc
 50
9.776999999999333
 51
19.79199999999903
  0
ARC
  5
517
330
1F
100
AcDbEntity
  8
DRAW
  6
CONTINUOUS
 62
     7
100
AcDbCircle
 10
479.4672938833328
 20
350.8483498867116
 30
0.0
 40
2.299999999999998
100
AcDbArc
 50
179.7609999999999
 51
189.7769999999993
  0
ARC
  5
518
330
1F
100
AcDbEntity
  8
DRAW
  6
CONTINUOUS
 62
     7
100
AcDbCircle
 10
479.4672938833328
 20
350.8483498867116
 30
0.0
 40
2.299999999999998
100
AcDbArc
 50
359.7610000000001
 51
9.776999999999333
  0
ARC
  5
519
330
1F
100
AcDbEntity
  8
DRAW
  6
CONTINUOUS
 62
     7
100
AcDbCircle
 10
479.4672938833328
 20
350.8483498867116
 30
0.0
 40
2.299999999999998
100
AcDbArc
 50
189.7769999999993
 51
199.791999999999
  0
LINE
  5
51A
330
1F
100
AcDbEntity
  8
DRAW
  6
CONTINUOUS
 62
     7
100
AcDbLine
 10
480.6462938833329
 20
350.6463498867116
 30
0.0
 11
480.5102938833329
 21
351.4343498867116
 31
0.0
  0
LINE
  5
51B
330
1F
100
AcDbEntity
  8
DRAW
  6
CONTINUOUS
 62
     7
100
AcDbLine
 10
480.878293883333
 20
351.4973498867116
 30
0.0
 11
480.5102938833329
 21
351.4343498867116
 31
0.0
  0
LINE
  5
51C
330
1F
100
AcDbEntity
  8
DRAW
  6
CONTINUOUS
 62
     7
100
AcDbLine
 10
481.014293883333
 20
350.7093498867116
 30
0.0
 11
480.6462938833329
 21
350.6463498867116
 31
0.0
  0
LINE
  5
51D
330
1F
100
AcDbEntity
  8
DRAW
  6
CONTINUOUS
 62
     7
100
AcDbLine
 10
478.4252938833331
 20
350.2633498867115
 30
0.0
 11
478.2892938833328
 21
351.0513498867116
 31
0.0
  0
LINE
  5
51E
330
1F
100
AcDbEntity
  8
DRAW
  6
CONTINUOUS
 62
     7
100
AcDbLine
 10
477.9212938833331
 20
350.9883498867115
 30
0.0
 11
478.2892938833328
 21
351.0513498867116
 31
0.0
  0
LINE
  5
51F
330
1F
100
AcDbEntity
  8
DRAW
  6
CONTINUOUS
 62
     7
100
AcDbLine
 10
478.0572938833328
 20
350.1993498867116
 30
0.0
 11
478.4252938833331
 21
350.2633498867115
 31
0.0
  0
LINE
  5
520
330
1F
100
AcDbEntity
  8
DRAW
  6
CONTINUOUS
 62
     7
100
AcDbLine
 10
480.878293883333
 20
351.4973498867116
 30
0.0
 11
480.8352938833329
 21
351.7423498867116
 31
0.0
  0
LINE
  5
521
330
1F
100
AcDbEntity
  8
DRAW
  6
CONTINUOUS
 62
     7
100
AcDbLine
 10
481.0562938833331
 20
350.4643498867116
 30
0.0
 11
481.014293883333
 21
350.7093498867116
 31
0.0
  0
LINE
  5
522
330
1F
100
AcDbEntity
  8
DRAW
  6
CONTINUOUS
 62
     7
100
AcDbLine
 10
477.879293883333
 20
351.2333498867115
 30
0.0
 11
477.9212938833331
 21
350.9883498867115
 31
0.0
  0
LINE
  5
523
330
1F
100
AcDbEntity
  8
DRAW
  6
CONTINUOUS
 62
     7
100
AcDbLine
 10
478.0572938833328
 20
350.1993498867116
 30
0.0
 11
478.0992938833328
 21
349.9543498867116
 31
0.0
  0
LINE
  5
524
330
1F
100
AcDbEntity
  8
DRAW
  6
CONTINUOUS
 62
     7
100
AcDbLine
 10
480.2492938833329
 20
350.4763498867116
 30
0.0
 11
480.0802938833331
 21
351.4613498867116
 31
0.0
  0
LINE
  5
525
330
1F
100
AcDbEntity
  8
DRAW
  6
CONTINUOUS
 62
     7
100
AcDbLine
 10
480.0452938833331
 20
350.4403498867115
 30
0.0
 11
480.2492938833329
 21
350.4763498867116
 31
0.0
  0
LINE
  5
526
330
1F
100
AcDbEntity
  8
DRAW
  6
CONTINUOUS
 62
     7
100
AcDbLine
 10
481.0562938833331
 20
350.4643498867116
 30
0.0
 11
480.2492938833329
 21
350.4763498867116
 31
0.0
  0
LINE
  5
527
330
1F
100
AcDbEntity
  8
DRAW
  6
CONTINUOUS
 62
     7
100
AcDbLine
 10
480.0802938833331
 20
350.2363498867115
 30
0.0
 11
480.0452938833331
 21
350.4403498867115
 31
0.0
  0
LINE
  5
528
330
1F
100
AcDbEntity
  8
DRAW
  6
CONTINUOUS
 62
     7
100
AcDbLine
 10
480.2172938833328
 20
350.3193498867116
 30
0.0
 11
480.0452938833331
 21
350.4403498867115
 31
0.0
  0
LINE
  5
529
330
1F
100
AcDbEntity
  8
DRAW
  6
CONTINUOUS
 62
     7
100
AcDbLine
 10
479.095293883333
 20
350.0663498867115
 30
0.0
 11
480.0802938833331
 21
350.2363498867115
 31
0.0
  0
LINE
  5
52A
330
1F
100
AcDbEntity
  8
DRAW
  6
CONTINUOUS
 62
     7
100
AcDbLine
 10
480.3612938833329
 20
349.4803498867117
 30
0.0
 11
480.0802938833331
 21
350.2363498867115
 31
0.0
  0
LINE
  5
52B
330
1F
100
AcDbEntity
  8
DRAW
  6
CONTINUOUS
 62
     7
100
AcDbLine
 10
479.0602938833329
 20
350.2713498867116
 30
0.0
 11
479.095293883333
 21
350.0663498867115
 31
0.0
  0
LINE
  5
52C
330
1F
100
AcDbEntity
  8
DRAW
  6
CONTINUOUS
 62
     7
100
AcDbLine
 10
479.083293883333
 20
349.2603498867115
 30
0.0
 11
479.095293883333
 21
350.0663498867115
 31
0.0
  0
LINE
  5
52D
330
1F
100
AcDbEntity
  8
DRAW
  6
CONTINUOUS
 62
     7
100
AcDbLine
 10
478.855293883333
 20
350.2353498867116
 30
0.0
 11
479.0602938833329
 21
350.2713498867116
 31
0.0
  0
LINE
  5
52E
330
1F
100
AcDbEntity
  8
DRAW
  6
CONTINUOUS
 62
     7
100
AcDbLine
 10
478.9382938833329
 20
350.0993498867113
 30
0.0
 11
479.0602938833329
 21
350.2713498867116
 31
0.0
  0
LINE
  5
52F
330
1F
100
AcDbEntity
  8
DRAW
  6
CONTINUOUS
 62
     7
100
AcDbLine
 10
478.6862938833329
 20
351.2213498867116
 30
0.0
 11
478.855293883333
 21
350.2353498867116
 31
0.0
  0
LINE
  5
530
330
1F
100
AcDbEntity
  8
DRAW
  6
CONTINUOUS
 62
     7
100
AcDbLine
 10
478.0992938833328
 20
349.9543498867116
 30
0.0
 11
478.855293883333
 21
350.2353498867116
 31
0.0
  0
LINE
  5
531
330
1F
100
AcDbEntity
  8
DRAW
  6
CONTINUOUS
 62
     7
100
AcDbLine
 10
478.8902938833329
 20
351.2563498867116
 30
0.0
 11
478.6862938833329
 21
351.2213498867116
 31
0.0
  0
LINE
  5
532
330
1F
100
AcDbEntity
  8
DRAW
  6
CONTINUOUS
 62
     7
100
AcDbLine
 10
477.879293883333
 20
351.2333498867115
 30
0.0
 11
478.6862938833329
 21
351.2213498867116
 31
0.0
  0
LINE
  5
533
330
1F
100
AcDbEntity
  8
DRAW
  6
CONTINUOUS
 62
     7
100
AcDbLine
 10
478.855293883333
 20
351.4603498867115
 30
0.0
 11
478.8902938833329
 21
351.2563498867116
 31
0.0
  0
LINE
  5
534
330
1F
100
AcDbEntity
  8
DRAW
  6
CONTINUOUS
 62
     7
100
AcDbLine
 10
478.7182938833328
 20
351.3773498867116
 30
0.0
 11
478.8902938833329
 21
351.2563498867116
 31
0.0
  0
LINE
  5
535
330
1F
100
AcDbEntity
  8
DRAW
  6
CONTINUOUS
 62
     7
100
AcDbLine
 10
479.840293883333
 20
351.6303498867116
 30
0.0
 11
478.855293883333
 21
351.4603498867115
 31
0.0
  0
LINE
  5
536
330
1F
100
AcDbEntity
  8
DRAW
  6
CONTINUOUS
 62
     7
100
AcDbLine
 10
478.5732938833328
 20
352.2163498867115
 30
0.0
 11
478.855293883333
 21
351.4603498867115
 31
0.0
  0
LINE
  5
537
330
1F
100
AcDbEntity
  8
DRAW
  6
CONTINUOUS
 62
     7
100
AcDbLine
 10
479.8752938833329
 20
351.4263498867116
 30
0.0
 11
479.840293883333
 21
351.6303498867116
 31
0.0
  0
LINE
  5
538
330
1F
100
AcDbEntity
  8
DRAW
  6
CONTINUOUS
 62
     7
100
AcDbLine
 10
479.852293883333
 20
352.4373498867116
 30
0.0
 11
479.840293883333
 21
351.6303498867116
 31
0.0
  0
LINE
  5
539
330
1F
100
AcDbEntity
  8
DRAW
  6
CONTINUOUS
 62
     7
100
AcDbLine
 10
480.8352938833329
 20
351.7423498867116
 30
0.0
 11
480.0802938833331
 21
351.4613498867116
 31
0.0
  0
LINE
  5
53A
330
1F
100
AcDbEntity
  8
DRAW
  6
CONTINUOUS
 62
     7
100
AcDbLine
 10
480.0802938833331
 20
351.4613498867116
 30
0.0
 11
479.8752938833329
 21
351.4263498867116
 31
0.0
  0
LINE
  5
53B
330
1F
100
AcDbEntity
  8
DRAW
  6
CONTINUOUS
 62
     7
100
AcDbLine
 10
479.9972938833326
 20
351.5983498867116
 30
0.0
 11
479.8752938833329
 21
351.4263498867116
 31
0.0
  0
LINE
  5
53C
330
1F
100
AcDbEntity
  8
DRAW
  6
CONTINUOUS
 62
     7
100
AcDbLine
 10
480.8352938833329
 20
351.7423498867116
 30
0.0
 11
479.9972938833326
 21
351.5983498867116
 31
0.0
  0
LINE
  5
53D
330
1F
100
AcDbEntity
  8
DRAW
  6
CONTINUOUS
 62
     7
100
AcDbLine
 10
480.2172938833328
 20
350.3193498867116
 30
0.0
 11
481.0562938833331
 21
350.4643498867116
 31
0.0
  0
LINE
  5
53E
330
1F
100
AcDbEntity
  8
DRAW
  6
CONTINUOUS
 62
     7
100
AcDbLine
 10
480.3612938833329
 20
349.4803498867117
 30
0.0
 11
480.2172938833328
 21
350.3193498867116
 31
0.0
  0
LINE
  5
53F
330
1F
100
AcDbEntity
  8
DRAW
  6
CONTINUOUS
 62
     7
100
AcDbLine
 10
479.083293883333
 20
349.2603498867115
 30
0.0
 11
480.3612938833329
 21
349.4803498867117
 31
0.0
  0
LINE
  5
540
330
1F
100
AcDbEntity
  8
DRAW
  6
CONTINUOUS
 62
     7
100
AcDbLine
 10
478.9382938833329
 20
350.0993498867113
 30
0.0
 11
479.083293883333
 21
349.2603498867115
 31
0.0
  0
LINE
  5
541
330
1F
100
AcDbEntity
  8
DRAW
  6
CONTINUOUS
 62
     7
100
AcDbLine
 10
478.0992938833328
 20
349.9543498867116
 30
0.0
 11
478.9382938833329
 21
350.0993498867113
 31
0.0
  0
LINE
  5
542
330
1F
100
AcDbEntity
  8
DRAW
  6
CONTINUOUS
 62
     7
100
AcDbLine
 10
478.7182938833328
 20
351.3773498867116
 30
0.0
 11
477.879293883333
 21
351.2333498867115
 31
0.0
  0
LINE
  5
543
330
1F
100
AcDbEntity
  8
DRAW
  6
CONTINUOUS
 62
     7
100
AcDbLine
 10
478.5732938833328
 20
352.2163498867115
 30
0.0
 11
478.7182938833328
 21
351.3773498867116
 31
0.0
  0
LINE
  5
544
330
1F
100
AcDbEntity
  8
DRAW
  6
CONTINUOUS
 62
     7
100
AcDbLine
 10
479.852293883333
 20
352.4373498867116
 30
0.0
 11
478.5732938833328
 21
352.2163498867115
 31
0.0
  0
LINE
  5
545
330
1F
100
AcDbEntity
  8
DRAW
  6
CONTINUOUS
 62
     7
100
AcDbLine
 10
479.9972938833326
 20
351.5983498867116
 30
0.0
 11
479.852293883333
 21
352.4373498867116
 31
0.0
  0
LINE
  5
546
330
1F
100
AcDbEntity
  8
DRAW
  6
CONTINUOUS
 62
     7
100
AcDbLine
 10
475.292293883333
 20
355.6483498867115
 30
0.0
 11
475.292293883333
 21
354.6483498867115
 31
0.0
  0
LINE
  5
547
330
1F
100
AcDbEntity
  8
DRAW
  6
CONTINUOUS
 62
     7
100
AcDbLine
 10
475.0922938833329
 20
355.6483498867115
 30
0.0
 11
475.292293883333
 21
355.6483498867115
 31
0.0
  0
TEXT
  5
549
330
1F
100
AcDbEntity
  8
CARTOUCHE
  6
CONTINUOUS
 62
     1
100
AcDbText
 10
594.8592938833329
 20
223.3253498867115
 30
0.0
 40
2.1
  1
1:1
 41
0.7
  7
TSTYLE3
100
AcDbText
  0
TEXT
  5
54A
330
1F
100
AcDbEntity
  8
CARTOUCHE
  6
CONTINUOUS
 62
     1
100
AcDbText
 10
540.3972938833328
 20
223.3253498867115
 30
0.0
 40
2.1
  1
22/01/07
 41
0.7
  7
TSTYLE3
100
AcDbText
  0
LINE
  5
54B
330
1F
100
AcDbEntity
  8
CARTOUCHE
  6
CONTINUOUS
 62
     7
100
AcDbLine
 10
570.304293883333
 20
231.5513498867115
 30
0.0
 11
570.304293883333
 21
221.5503498867116
 31
0.0
  0
LINE
  5
54C
330
1F
100
AcDbEntity
  8
CARTOUCHE
  6
CONTINUOUS
 62
     7
100
AcDbLine
 10
518.6382938833332
 20
231.5523498867114
 30
0.0
 11
518.6382938833332
 21
221.5503498867116
 31
0.0
  0
TEXT
  5
54D
330
1F
100
AcDbEntity
  8
CARTOUCHE
  6
CONTINUOUS
 62
     1
100
AcDbText
 10
492.4242938833328
 20
223.3253498867115
 30
0.0
 40
2.1
  1
0
 41
0.7
  7
TSTYLE3
100
AcDbText
  0
TEXT
  5
54E
330
1F
100
AcDbEntity
  8
CARTOUCHE
  6
CONTINUOUS
 62
     1
100
AcDbText
 10
537.5304951308357
 20
236.2317278846803
 30
0.0
 40
3.0
  1
80.41
 41
0.7
  7
TSTYLE4
100
AcDbText
  0
TEXT
  5
54F
330
1F
100
AcDbEntity
  8
CARTOUCHE
  6
CONTINUOUS
 62
     7
100
AcDbText
 10
536.9202938833331
 20
243.9853498867115
 30
0.0
 40
1.8
  1
PRODUCT TYPE
 41
0.4600000000000001
  7
TSTYLE1
100
AcDbText
  0
TEXT
  5
550
330
1F
100
AcDbEntity
  8
CARTOUCHE
  6
CONTINUOUS
 62
     7
100
AcDbText
 10
490.6922938833329
 20
228.1733498867115
 30
0.0
 40
1.8
  1
REV.
 41
0.4600000000000001
  7
TSTYLE1
100
AcDbText
  0
TEXT
  5
551
330
1F
100
AcDbEntity
  8
CARTOUCHE
  6
CONTINUOUS
 62
     7
100
AcDbText
 10
542.1172938833328
 20
228.1733498867115
 30
0.0
 40
1.8
  1
DATE
 41
0.4600000000000001
  7
TSTYLE1
100
AcDbText
  0
TEXT
  5
552
330
1F
100
AcDbEntity
  8
CARTOUCHE
  6
CONTINUOUS
 62
     7
100
AcDbText
 10
593.0752938833331
 20
228.1733498867115
 30
0.0
 40
1.8
  1
SCALE
 41
0.4600000000000001
  7
TSTYLE1
100
AcDbText
  0
LINE
  5
553
330
1F
100
AcDbEntity
  8
DRAW
  6
CONTINUOUS
 62
     7
100
AcDbLine
 10
508.7092938833329
 20
347.1483498867115
 30
0.0
 11
554.3092938833328
 21
347.1483498867115
 31
0.0
  0
LINE
  5
554
330
1F
100
AcDbEntity
  8
DRAW
  6
CONTINUOUS
 62
     7
100
AcDbLine
 10
554.3092938833328
 20
353.6483498867115
 30
0.0
 11
508.7092938833329
 21
353.6483498867115
 31
0.0
  0
LINE
  5
555
330
1F
100
AcDbEntity
  8
DRAW
  6
CONTINUOUS
 62
     7
100
AcDbLine
 10
553.0092938833329
 20
345.1483498867115
 30
0.0
 11
536.0092938833329
 21
345.1483498867115
 31
0.0
  0
LINE
  5
556
330
1F
100
AcDbEntity
  8
DRAW
  6
CONTINUOUS
 62
     7
100
AcDbLine
 10
513.0092938833329
 20
355.6483498867115
 30
0.0
 11
565.5092938833329
 21
355.6483498867115
 31
0.0
  0
DIMENSION
  5
557
330
1F
100
AcDbEntity
  8
DIM
  6
CONTINUOUS
 62
     3
100
AcDbDimension
  2
*D13
 10
499.6172938833328
 20
359.8483498867116
 30
0.0
 11
499.6172938833328
 21
344.3493498867116
 31
0.0
 70
   160
  1
30.5
  3
DSTYLE2
100
AcDbAlignedDimension
 13
507.2092938833328
 23
329.2983498867116
 33
0.0
 14
510.4092938833328
 24
359.8483498867116
 34
0.0
 50
90.0
100
AcDbRotatedDimension
  0
LINE
  5
558
330
1F
100
AcDbEntity
  8
DRAW
  6
CONTINUOUS
 62
     7
100
AcDbLine
 10
536.0092938833329
 20
345.1483498867115
 30
0.0
 11
536.0092938833329
 21
336.1483498867115
 31
0.0
  0
LINE
  5
559
330
1F
100
AcDbEntity
  8
DRAW
  6
CONTINUOUS
 62
     7
100
AcDbLine
 10
506.7092938833329
 20
358.1483498867115
 30
0.0
 11
506.7092938833329
 21
334.1483498867115
 31
0.0
  0
LINE
  5
55A
330
1F
100
AcDbEntity
  8
DRAW
  6
CONTINUOUS
 62
     7
100
AcDbLine
 10
508.7092938833329
 20
345.1483498867115
 30
0.0
 11
508.7092938833329
 21
336.1483498867115
 31
0.0
  0
ARC
  5
55B
330
1F
100
AcDbEntity
  8
DRAW
  6
CONTINUOUS
 62
     7
100
AcDbCircle
 10
488.2172938833329
 20
339.8483498867116
 30
0.0
 40
2.299999999999998
100
AcDbArc
 50
199.791999999999
 51
359.7610000000001
  0
CIRCLE
  5
55C
330
1F
100
AcDbEntity
  8
DRAW
  6
CONTINUOUS
 62
     7
100
AcDbCircle
 10
488.2172938833329
 20
339.9483498867116
 30
0.0
 40
2.5
  0
LINE
  5
55D
330
1F
100
AcDbEntity
  8
DRAW
  6
CONTINUOUS
 62
     7
100
AcDbLine
 10
492.592293883333
 20
345.1483498867115
 30
0.0
 11
492.592293883333
 21
336.1483498867115
 31
0.0
  0
LINE
  5
55E
330
1F
100
AcDbEntity
  8
DRAW
  6
CONTINUOUS
 62
     7
100
AcDbLine
 10
508.7092938833329
 20
336.1483498867115
 30
0.0
 11
535.809293883333
 21
336.1483498867115
 31
0.0
  0
LINE
  5
55F
330
1F
100
AcDbEntity
  8
DRAW
  6
CONTINUOUS
 62
     7
100
AcDbLine
 10
534.5092938833329
 20
334.1483498867115
 30
0.0
 11
506.7092938833329
 21
334.1483498867115
 31
0.0
  0
LINE
  5
560
330
1F
100
AcDbEntity
  8
DRAW
  6
CONTINUOUS
 62
     7
100
AcDbLine
 10
489.392293883333
 20
334.1483498867115
 30
0.0
 11
489.392293883333
 21
331.5983498867116
 31
0.0
  0
LINE
  5
561
330
1F
100
AcDbEntity
  8
DRAW
  6
CONTINUOUS
 62
     7
100
AcDbLine
 10
487.3422938833328
 20
331.7983498867115
 30
0.0
 11
487.3422938833328
 21
333.2983498867116
 31
0.0
  0
POINT
  5
562
330
1F
100
AcDbEntity
  8
DRAW
  6
CONTINUOUS
 62
     7
100
AcDbPoint
 10
483.833293883333
 20
329.2983498867116
 30
0.0
  0
LINE
  5
563
330
1F
100
AcDbEntity
  8
DRAW
  6
CONTINUOUS
 62
     7
100
AcDbLine
 10
485.964293883333
 20
331.7983498867115
 30
0.0
 11
487.3422938833328
 21
331.7983498867115
 31
0.0
  0
LINE
  5
564
330
1F
100
AcDbEntity
  8
DRAW
  6
CONTINUOUS
 62
     7
100
AcDbLine
 10
487.365293883333
 20
330.7983498867116
 30
0.0
 11
485.4332938833329
 21
329.7143498867116
 31
0.0
  0
LINE
  5
565
330
1F
100
AcDbEntity
  8
DRAW
  6
CONTINUOUS
 62
     7
100
AcDbLine
 10
488.592293883333
 20
330.7983498867116
 30
0.0
 11
487.365293883333
 21
330.7983498867116
 31
0.0
  0
ARC
  5
566
330
1F
100
AcDbEntity
  8
DRAW
  6
CONTINUOUS
 62
     7
100
AcDbCircle
 10
488.592293883333
 20
331.5983498867116
 30
0.0
 40
0.8
100
AcDbArc
 50
270.0
 51
0.0
  0
ARC
  5
567
330
1F
100
AcDbEntity
  8
DRAW
  6
CONTINUOUS
 62
     7
100
AcDbCircle
 10
483.8422938833328
 20
332.5483498867116
 30
0.0
 40
2.25
100
AcDbArc
 50
19.47099999999985
 51
45.3260000000015
  0
LINE
  5
568
330
1F
100
AcDbEntity
  8
DRAW
  6
CONTINUOUS
 62
     7
100
AcDbLine
 10
487.3422938833328
 20
333.2983498867116
 30
0.0
 11
485.964293883333
 21
333.2983498867116
 31
0.0
  0
LINE
  5
569
330
1F
100
AcDbEntity
  8
DRAW
  6
CONTINUOUS
 62
     7
100
AcDbLine
 10
492.3922938833329
 20
336.1483498867115
 30
0.0
 11
492.592293883333
 21
336.1483498867115
 31
0.0
  0
ARC
  5
56A
330
1F
100
AcDbEntity
  8
DRAW
  6
CONTINUOUS
 62
     7
100
AcDbCircle
 10
492.1922938833329
 20
334.3483498867116
 30
0.0
 40
0.2
100
AcDbArc
 50
270.0
 51
0.0
  0
LINE
  5
56B
330
1F
100
AcDbEntity
  8
DRAW
  6
CONTINUOUS
 62
     7
100
AcDbLine
 10
492.3922938833329
 20
335.6483498867115
 30
0.0
 11
492.3922938833329
 21
334.3483498867116
 31
0.0
  0
LINE
  5
56C
330
1F
100
AcDbEntity
  8
DRAW
  6
CONTINUOUS
 62
     7
100
AcDbLine
 10
492.3922938833329
 20
336.1483498867115
 30
0.0
 11
492.3922938833329
 21
335.6483498867115
 31
0.0
  0
LINE
  5
56D
330
1F
100
AcDbEntity
  8
DRAW
  6
CONTINUOUS
 62
     7
100
AcDbLine
 10
511.009293883333
 20
334.1483498867115
 30
0.0
 11
511.009293883333
 21
331.5983498867116
 31
0.0
  0
LINE
  5
56E
330
1F
100
AcDbEntity
  8
DRAW
  6
CONTINUOUS
 62
     7
100
AcDbLine
 10
507.2092938833328
 20
331.5983498867116
 30
0.0
 11
507.2092938833328
 21
334.1483498867115
 31
0.0
  0
POINT
  5
56F
330
1F
100
AcDbEntity
  8
DRAW
  6
CONTINUOUS
 62
     7
100
AcDbPoint
 10
507.2092938833328
 20
329.2983498867116
 30
0.0
  0
LINE
  5
570
330
1F
100
AcDbEntity
  8
DRAW
  6
CONTINUOUS
 62
     7
100
AcDbLine
 10
511.009293883333
 20
329.2983498867116
 30
0.0
 11
507.2092938833328
 21
329.2983498867116
 31
0.0
  0
LINE
  5
571
330
1F
100
AcDbEntity
  8
DRAW
  6
CONTINUOUS
 62
     7
100
AcDbLine
 10
507.2092938833328
 20
330.7983498867116
 30
0.0
 11
507.2092938833328
 21
331.5983498867116
 31
0.0
  0
LINE
  5
572
330
1F
100
AcDbEntity
  8
DRAW
  6
CONTINUOUS
 62
     7
100
AcDbLine
 10
511.009293883333
 20
330.7983498867116
 30
0.0
 11
507.2092938833328
 21
330.7983498867116
 31
0.0
  0
LINE
  5
573
330
1F
100
AcDbEntity
  8
DRAW
  6
CONTINUOUS
 62
     7
100
AcDbLine
 10
507.2092938833328
 20
329.7233498867116
 30
0.0
 11
507.2092938833328
 21
330.7983498867116
 31
0.0
  0
LINE
  5
574
330
1F
100
AcDbEntity
  8
DRAW
  6
CONTINUOUS
 62
     7
100
AcDbLine
 10
507.2092938833328
 20
329.2983498867116
 30
0.0
 11
507.2092938833328
 21
329.7233498867116
 31
0.0
  0
LINE
  5
575
330
1F
100
AcDbEntity
  8
DRAW
  6
CONTINUOUS
 62
     7
100
AcDbLine
 10
511.009293883333
 20
330.7983498867116
 30
0.0
 11
511.009293883333
 21
331.5983498867116
 31
0.0
  0
LINE
  5
576
330
1F
100
AcDbEntity
  8
DRAW
  6
CONTINUOUS
 62
     7
100
AcDbLine
 10
511.009293883333
 20
329.7233498867116
 30
0.0
 11
511.009293883333
 21
330.7983498867116
 31
0.0
  0
LINE
  5
577
330
1F
100
AcDbEntity
  8
DRAW
  6
CONTINUOUS
 62
     7
100
AcDbLine
 10
511.009293883333
 20
329.2983498867116
 30
0.0
 11
511.009293883333
 21
329.7233498867116
 31
0.0
  0
POINT
  5
578
330
1F
100
AcDbEntity
  8
DRAW
  6
CONTINUOUS
 62
     7
100
AcDbPoint
 10
534.5092938833329
 20
334.1483498867115
 30
0.0
  0
LINE
  5
579
330
1F
100
AcDbEntity
  8
DRAW
  6
CONTINUOUS
 62
     7
100
AcDbLine
 10
535.809293883333
 20
336.1483498867115
 30
0.0
 11
536.0092938833329
 21
336.1483498867115
 31
0.0
  0
ARC
  5
57A
330
1F
100
AcDbEntity
  8
DRAW
  6
CONTINUOUS
 62
     7
100
AcDbCircle
 10
534.5092938833329
 20
335.6483498867115
 30
0.0
 40
1.5
100
AcDbArc
 50
270.0
 51
0.0
  0
LINE
  5
57B
330
1F
100
AcDbEntity
  8
DRAW
  6
CONTINUOUS
 62
     7
100
AcDbLine
 10
536.0092938833329
 20
336.1483498867115
 30
0.0
 11
536.0092938833329
 21
335.6483498867115
 31
0.0
  0
LINE
  5
57C
330
1F
100
AcDbEntity
  8
DRAW
  6
CONTINUOUS
 62
     7
100
AcDbLine
 10
511.5092938833329
 20
343.0603498867116
 30
0.0
 11
513.5092938833329
 21
342.7083498867115
 31
0.0
  0
LINE
  5
57D
330
1F
100
AcDbEntity
  8
DRAW
  6
CONTINUOUS
 62
     7
100
AcDbLine
 10
511.5092938833329
 20
338.2373498867116
 30
0.0
 11
513.5092938833329
 21
338.5893498867113
 31
0.0
  0
LINE
  5
57E
330
1F
100
AcDbEntity
  8
DRAW
  6
CONTINUOUS
 62
     7
100
AcDbLine
 10
535.809293883333
 20
345.1483498867115
 30
0.0
 11
508.7092938833329
 21
345.1483498867115
 31
0.0
  0
LINE
  5
57F
330
1F
100
AcDbEntity
  8
DRAW
  6
CONTINUOUS
 62
     7
100
AcDbLine
 10
511.009293883333
 20
338.1483498867115
 30
0.0
 11
513.5092938833329
 21
338.1483498867115
 31
0.0
  0
LINE
  5
580
330
1F
100
AcDbEntity
  8
DRAW
  6
CONTINUOUS
 62
     7
100
AcDbLine
 10
513.5092938833329
 20
343.1483498867115
 30
0.0
 11
511.009293883333
 21
343.1483498867115
 31
0.0
  0
LINE
  5
581
330
1F
100
AcDbEntity
  8
DRAW
  6
CONTINUOUS
 62
     7
100
AcDbLine
 10
508.7092938833329
 20
353.6483498867115
 30
0.0
 11
508.7092938833329
 21
347.1483498867115
 31
0.0
  0
ARC
  5
582
330
1F
100
AcDbEntity
  8
DRAW
  6
CONTINUOUS
 62
     7
100
AcDbCircle
 10
488.2172938833329
 20
350.8483498867116
 30
0.0
 40
2.299999999999998
100
AcDbArc
 50
199.791999999999
 51
359.7610000000001
  0
CIRCLE
  5
583
330
1F
100
AcDbEntity
  8
DRAW
  6
CONTINUOUS
 62
     7
100
AcDbCircle
 10
488.2172938833329
 20
350.9483498867115
 30
0.0
 40
2.5
  0
LINE
  5
584
330
1F
100
AcDbEntity
  8
DRAW
  6
CONTINUOUS
 62
     7
100
AcDbLine
 10
492.592293883333
 20
353.6483498867115
 30
0.0
 11
492.592293883333
 21
347.1483498867115
 31
0.0
  0
LINE
  5
585
330
1F
100
AcDbEntity
  8
DRAW
  6
CONTINUOUS
 62
     7
100
AcDbLine
 10
489.7642938833329
 20
339.7093498867115
 30
0.0
 11
490.2162938833328
 21
339.7873498867115
 31
0.0
  0
LINE
  5
586
330
1F
100
AcDbEntity
  8
DRAW
  6
CONTINUOUS
 62
     7
100
AcDbLine
 10
490.081293883333
 20
340.5753498867113
 30
0.0
 11
489.6282938833329
 21
340.4973498867116
 31
0.0
  0
ARC
  5
587
330
1F
100
AcDbEntity
  8
DRAW
  6
CONTINUOUS
 62
     7
100
AcDbCircle
 10
488.2172938833329
 20
339.8483498867116
 30
0.0
 40
2.299999999999998
100
AcDbArc
 50
19.79199999999903
 51
179.7609999999999
  0
LINE
  5
588
330
1F
100
AcDbEntity
  8
DRAW
  6
CONTINUOUS
 62
     7
100
AcDbLine
 10
486.0532938833329
 20
339.0703498867113
 30
0.0
 11
486.3542938833329
 21
339.1213498867116
 31
0.0
  0
LINE
  5
589
330
1F
100
AcDbEntity
  8
DRAW
  6
CONTINUOUS
 62
     7
100
AcDbLine
 10
486.2182938833329
 20
339.9103498867116
 30
0.0
 11
485.9172938833331
 21
339.8583498867115
 31
0.0
  0
LINE
  5
58A
330
1F
100
AcDbEntity
  8
DRAW
  6
CONTINUOUS
 62
     7
100
AcDbLine
 10
486.3542938833329
 20
339.1213498867116
 30
0.0
 11
486.8072938833329
 21
339.1993498867116
 31
0.0
  0
LINE
  5
58B
330
1F
100
AcDbEntity
  8
DRAW
  6
CONTINUOUS
 62
     7
100
AcDbLine
 10
486.6712938833329
 20
339.9883498867116
 30
0.0
 11
486.2182938833329
 21
339.9103498867116
 31
0.0
  0
ARC
  5
58C
330
1F
100
AcDbEntity
  8
DRAW
  6
CONTINUOUS
 62
     7
100
AcDbCircle
 10
488.2172938833329
 20
339.8483498867116
 30
0.0
 40
2.299999999999998
100
AcDbArc
 50
179.7609999999999
 51
189.7769999999993
  0
ARC
  5
58D
330
1F
100
AcDbEntity
  8
DRAW
  6
CONTINUOUS
 62
     7
100
AcDbCircle
 10
488.2172938833329
 20
339.8483498867116
 30
0.0
 40
2.299999999999998
100
AcDbArc
 50
189.7769999999993
 51
199.791999999999
  0
LINE
  5
58E
330
1F
100
AcDbEntity
  8
DRAW
  6
CONTINUOUS
 62
     7
100
AcDbLine
 10
489.396293883333
 20
339.6463498867116
 30
0.0
 11
489.2602938833329
 21
340.4343498867116
 31
0.0
  0
LINE
  5
58F
330
1F
100
AcDbEntity
  8
DRAW
  6
CONTINUOUS
 62
     7
100
AcDbLine
 10
489.6282938833329
 20
340.4973498867116
 30
0.0
 11
489.2602938833329
 21
340.4343498867116
 31
0.0
  0
LINE
  5
590
330
1F
100
AcDbEntity
  8
DRAW
  6
CONTINUOUS
 62
     7
100
AcDbLine
 10
489.7642938833329
 20
339.7093498867115
 30
0.0
 11
489.396293883333
 21
339.6463498867116
 31
0.0
  0
LINE
  5
591
330
1F
100
AcDbEntity
  8
DRAW
  6
CONTINUOUS
 62
     7
100
AcDbLine
 10
487.175293883333
 20
339.2633498867116
 30
0.0
 11
487.039293883333
 21
340.0513498867116
 31
0.0
  0
LINE
  5
592
330
1F
100
AcDbEntity
  8
DRAW
  6
CONTINUOUS
 62
     7
100
AcDbLine
 10
486.6712938833329
 20
339.9883498867116
 30
0.0
 11
487.039293883333
 21
340.0513498867116
 31
0.0
  0
LINE
  5
593
330
1F
100
AcDbEntity
  8
DRAW
  6
CONTINUOUS
 62
     7
100
AcDbLine
 10
486.8072938833329
 20
339.1993498867116
 30
0.0
 11
487.175293883333
 21
339.2633498867116
 31
0.0
  0
LINE
  5
594
330
1F
100
AcDbEntity
  8
DRAW
  6
CONTINUOUS
 62
     7
100
AcDbLine
 10
489.6282938833329
 20
340.4973498867116
 30
0.0
 11
489.5852938833328
 21
340.7423498867116
 31
0.0
  0
LINE
  5
595
330
1F
100
AcDbEntity
  8
DRAW
  6
CONTINUOUS
 62
     7
100
AcDbLine
 10
489.8062938833328
 20
339.4643498867115
 30
0.0
 11
489.7642938833329
 21
339.7093498867115
 31
0.0
  0
LINE
  5
596
330
1F
100
AcDbEntity
  8
DRAW
  6
CONTINUOUS
 62
     7
100
AcDbLine
 10
486.6292938833328
 20
340.2333498867116
 30
0.0
 11
486.6712938833329
 21
339.9883498867116
 31
0.0
  0
LINE
  5
597
330
1F
100
AcDbEntity
  8
DRAW
  6
CONTINUOUS
 62
     7
100
AcDbLine
 10
486.8072938833329
 20
339.1993498867116
 30
0.0
 11
486.849293883333
 21
338.9543498867116
 31
0.0
  0
LINE
  5
598
330
1F
100
AcDbEntity
  8
DRAW
  6
CONTINUOUS
 62
     7
100
AcDbLine
 10
488.9992938833328
 20
339.4763498867116
 30
0.0
 11
488.8302938833328
 21
340.4613498867116
 31
0.0
  0
LINE
  5
599
330
1F
100
AcDbEntity
  8
DRAW
  6
CONTINUOUS
 62
     7
100
AcDbLine
 10
488.7952938833331
 20
339.4403498867116
 30
0.0
 11
488.9992938833328
 21
339.4763498867116
 31
0.0
  0
LINE
  5
59A
330
1F
100
AcDbEntity
  8
DRAW
  6
CONTINUOUS
 62
     7
100
AcDbLine
 10
489.8062938833328
 20
339.4643498867115
 30
0.0
 11
488.9992938833328
 21
339.4763498867116
 31
0.0
  0
LINE
  5
59B
330
1F
100
AcDbEntity
  8
DRAW
  6
CONTINUOUS
 62
     7
100
AcDbLine
 10
488.8302938833328
 20
339.2363498867116
 30
0.0
 11
488.7952938833331
 21
339.4403498867116
 31
0.0
  0
LINE
  5
59C
330
1F
100
AcDbEntity
  8
DRAW
  6
CONTINUOUS
 62
     7
100
AcDbLine
 10
488.9672938833329
 20
339.3193498867116
 30
0.0
 11
488.7952938833331
 21
339.4403498867116
 31
0.0
  0
LINE
  5
59D
330
1F
100
AcDbEntity
  8
DRAW
  6
CONTINUOUS
 62
     7
100
AcDbLine
 10
487.845293883333
 20
339.0663498867116
 30
0.0
 11
488.8302938833328
 21
339.2363498867116
 31
0.0
  0
LINE
  5
59E
330
1F
100
AcDbEntity
  8
DRAW
  6
CONTINUOUS
 62
     7
100
AcDbLine
 10
489.1112938833328
 20
338.4803498867116
 30
0.0
 11
488.8302938833328
 21
339.2363498867116
 31
0.0
  0
LINE
  5
59F
330
1F
100
AcDbEntity
  8
DRAW
  6
CONTINUOUS
 62
     7
100
AcDbLine
 10
487.8102938833331
 20
339.2713498867116
 30
0.0
 11
487.845293883333
 21
339.0663498867116
 31
0.0
  0
LINE
  5
5A0
330
1F
100
AcDbEntity
  8
DRAW
  6
CONTINUOUS
 62
     7
100
AcDbLine
 10
487.833293883333
 20
338.2603498867116
 30
0.0
 11
487.845293883333
 21
339.0663498867116
 31
0.0
  0
LINE
  5
5A1
330
1F
100
AcDbEntity
  8
DRAW
  6
CONTINUOUS
 62
     7
100
AcDbLine
 10
487.6052938833328
 20
339.2353498867116
 30
0.0
 11
487.8102938833331
 21
339.2713498867116
 31
0.0
  0
LINE
  5
5A2
330
1F
100
AcDbEntity
  8
DRAW
  6
CONTINUOUS
 62
     7
100
AcDbLine
 10
487.6882938833329
 20
339.0993498867113
 30
0.0
 11
487.8102938833331
 21
339.2713498867116
 31
0.0
  0
LINE
  5
5A3
330
1F
100
AcDbEntity
  8
DRAW
  6
CONTINUOUS
 62
     7
100
AcDbLine
 10
487.4362938833328
 20
340.2213498867116
 30
0.0
 11
487.6052938833328
 21
339.2353498867116
 31
0.0
  0
LINE
  5
5A4
330
1F
100
AcDbEntity
  8
DRAW
  6
CONTINUOUS
 62
     7
100
AcDbLine
 10
486.849293883333
 20
338.9543498867116
 30
0.0
 11
487.6052938833328
 21
339.2353498867116
 31
0.0
  0
LINE
  5
5A5
330
1F
100
AcDbEntity
  8
DRAW
  6
CONTINUOUS
 62
     7
100
AcDbLine
 10
487.6402938833328
 20
340.2563498867116
 30
0.0
 11
487.4362938833328
 21
340.2213498867116
 31
0.0
  0
LINE
  5
5A6
330
1F
100
AcDbEntity
  8
DRAW
  6
CONTINUOUS
 62
     7
100
AcDbLine
 10
486.6292938833328
 20
340.2333498867116
 30
0.0
 11
487.4362938833328
 21
340.2213498867116
 31
0.0
  0
LINE
  5
5A7
330
1F
100
AcDbEntity
  8
DRAW
  6
CONTINUOUS
 62
     7
100
AcDbLine
 10
487.6052938833328
 20
340.4603498867115
 30
0.0
 11
487.6402938833328
 21
340.2563498867116
 31
0.0
  0
LINE
  5
5A8
330
1F
100
AcDbEntity
  8
DRAW
  6
CONTINUOUS
 62
     7
100
AcDbLine
 10
487.468293883333
 20
340.3773498867116
 30
0.0
 11
487.6402938833328
 21
340.2563498867116
 31
0.0
  0
LINE
  5
5A9
330
1F
100
AcDbEntity
  8
DRAW
  6
CONTINUOUS
 62
     7
100
AcDbLine
 10
488.5902938833329
 20
340.6303498867115
 30
0.0
 11
487.6052938833328
 21
340.4603498867115
 31
0.0
  0
LINE
  5
5AA
330
1F
100
AcDbEntity
  8
DRAW
  6
CONTINUOUS
 62
     7
100
AcDbLine
 10
487.3232938833329
 20
341.2163498867116
 30
0.0
 11
487.6052938833328
 21
340.4603498867115
 31
0.0
  0
LINE
  5
5AB
330
1F
100
AcDbEntity
  8
DRAW
  6
CONTINUOUS
 62
     7
100
AcDbLine
 10
488.625293883333
 20
340.4263498867113
 30
0.0
 11
488.5902938833329
 21
340.6303498867115
 31
0.0
  0
LINE
  5
5AC
330
1F
100
AcDbEntity
  8
DRAW
  6
CONTINUOUS
 62
     7
100
AcDbLine
 10
488.6022938833328
 20
341.4373498867116
 30
0.0
 11
488.5902938833329
 21
340.6303498867115
 31
0.0
  0
LINE
  5
5AD
330
1F
100
AcDbEntity
  8
DRAW
  6
CONTINUOUS
 62
     7
100
AcDbLine
 10
489.5852938833328
 20
340.7423498867116
 30
0.0
 11
488.8302938833328
 21
340.4613498867116
 31
0.0
  0
LINE
  5
5AE
330
1F
100
AcDbEntity
  8
DRAW
  6
CONTINUOUS
 62
     7
100
AcDbLine
 10
488.8302938833328
 20
340.4613498867116
 30
0.0
 11
488.625293883333
 21
340.4263498867113
 31
0.0
  0
LINE
  5
5AF
330
1F
100
AcDbEntity
  8
DRAW
  6
CONTINUOUS
 62
     7
100
AcDbLine
 10
488.747293883333
 20
340.5983498867116
 30
0.0
 11
488.625293883333
 21
340.4263498867113
 31
0.0
  0
LINE
  5
5B0
330
1F
100
AcDbEntity
  8
DRAW
  6
CONTINUOUS
 62
     7
100
AcDbLine
 10
489.5852938833328
 20
340.7423498867116
 30
0.0
 11
488.747293883333
 21
340.5983498867116
 31
0.0
  0
LINE
  5
5B1
330
1F
100
AcDbEntity
  8
DRAW
  6
CONTINUOUS
 62
     7
100
AcDbLine
 10
488.9672938833329
 20
339.3193498867116
 30
0.0
 11
489.8062938833328
 21
339.4643498867115
 31
0.0
  0
LINE
  5
5B2
330
1F
100
AcDbEntity
  8
DRAW
  6
CONTINUOUS
 62
     7
100
AcDbLine
 10
489.1112938833328
 20
338.4803498867116
 30
0.0
 11
488.9672938833329
 21
339.3193498867116
 31
0.0
  0
LINE
  5
5B3
330
1F
100
AcDbEntity
  8
DRAW
  6
CONTINUOUS
 62
     7
100
AcDbLine
 10
487.833293883333
 20
338.2603498867116
 30
0.0
 11
489.1112938833328
 21
338.4803498867116
 31
0.0
  0
LINE
  5
5B4
330
1F
100
AcDbEntity
  8
DRAW
  6
CONTINUOUS
 62
     7
100
AcDbLine
 10
487.6882938833329
 20
339.0993498867113
 30
0.0
 11
487.833293883333
 21
338.2603498867116
 31
0.0
  0
LINE
  5
5B5
330
1F
100
AcDbEntity
  8
DRAW
  6
CONTINUOUS
 62
     7
100
AcDbLine
 10
486.849293883333
 20
338.9543498867116
 30
0.0
 11
487.6882938833329
 21
339.0993498867113
 31
0.0
  0
LINE
  5
5B6
330
1F
100
AcDbEntity
  8
DRAW
  6
CONTINUOUS
 62
     7
100
AcDbLine
 10
487.468293883333
 20
340.3773498867116
 30
0.0
 11
486.6292938833328
 21
340.2333498867116
 31
0.0
  0
LINE
  5
5B7
330
1F
100
AcDbEntity
  8
DRAW
  6
CONTINUOUS
 62
     7
100
AcDbLine
 10
487.3232938833329
 20
341.2163498867116
 30
0.0
 11
487.468293883333
 21
340.3773498867116
 31
0.0
  0
LINE
  5
5B8
330
1F
100
AcDbEntity
  8
DRAW
  6
CONTINUOUS
 62
     7
100
AcDbLine
 10
488.6022938833328
 20
341.4373498867116
 30
0.0
 11
487.3232938833329
 21
341.2163498867116
 31
0.0
  0
LINE
  5
5B9
330
1F
100
AcDbEntity
  8
DRAW
  6
CONTINUOUS
 62
     7
100
AcDbLine
 10
488.747293883333
 20
340.5983498867116
 30
0.0
 11
488.6022938833328
 21
341.4373498867116
 31
0.0
  0
LINE
  5
5BA
330
1F
100
AcDbEntity
  8
DRAW
  6
CONTINUOUS
 62
     7
100
AcDbLine
 10
490.2162938833328
 20
339.7873498867115
 30
0.0
 11
490.5172938833329
 21
339.8393498867116
 31
0.0
  0
LINE
  5
5BB
330
1F
100
AcDbEntity
  8
DRAW
  6
CONTINUOUS
 62
     7
100
AcDbLine
 10
490.081293883333
 20
340.5753498867113
 30
0.0
 11
490.382293883333
 21
340.6273498867116
 31
0.0
  0
ARC
  5
5BC
330
1F
100
AcDbEntity
  8
DRAW
  6
CONTINUOUS
 62
     7
100
AcDbCircle
 10
488.2172938833329
 20
339.8483498867116
 30
0.0
 40
2.299999999999998
100
AcDbArc
 50
9.776999999999333
 51
19.79199999999903
  0
ARC
  5
5BD
330
1F
100
AcDbEntity
  8
DRAW
  6
CONTINUOUS
 62
     7
100
AcDbCircle
 10
488.2172938833329
 20
339.8483498867116
 30
0.0
 40
2.299999999999998
100
AcDbArc
 50
359.7610000000001
 51
9.776999999999333
  0
LINE
  5
5BE
330
1F
100
AcDbEntity
  8
DRAW
  6
CONTINUOUS
 62
     7
100
AcDbLine
 10
492.3922938833329
 20
345.1483498867115
 30
0.0
 11
492.3922938833329
 21
345.3483498867116
 31
0.0
  0
ARC
  5
5BF
330
1F
100
AcDbEntity
  8
DRAW
  6
CONTINUOUS
 62
     7
100
AcDbCircle
 10
492.1922938833329
 20
345.3483498867116
 30
0.0
 40
0.2
100
AcDbArc
 50
270.0
 51
0.0
  0
LINE
  5
5C0
330
1F
100
AcDbEntity
  8
DRAW
  6
CONTINUOUS
 62
     7
100
AcDbLine
 10
492.3922938833329
 20
346.6483498867115
 30
0.0
 11
492.3922938833329
 21
345.3483498867116
 31
0.0
  0
LINE
  5
5C1
330
1F
100
AcDbEntity
  8
DRAW
  6
CONTINUOUS
 62
     7
100
AcDbLine
 10
492.3922938833329
 20
347.1483498867115
 30
0.0
 11
492.3922938833329
 21
346.6483498867115
 31
0.0
  0
LINE
  5
5C2
330
1F
100
AcDbEntity
  8
DRAW
  6
CONTINUOUS
 62
     7
100
AcDbLine
 10
492.3922938833329
 20
347.1483498867115
 30
0.0
 11
492.592293883333
 21
347.1483498867115
 31
0.0
  0
LINE
  5
5C3
330
1F
100
AcDbEntity
  8
DRAW
  6
CONTINUOUS
 62
     7
100
AcDbLine
 10
492.3922938833329
 20
345.1483498867115
 30
0.0
 11
492.592293883333
 21
345.1483498867115
 31
0.0
  0
LINE
  5
5C4
330
1F
100
AcDbEntity
  8
DRAW
  6
CONTINUOUS
 62
     7
100
AcDbLine
 10
511.009293883333
 20
343.1483498867115
 30
0.0
 11
511.5092938833329
 21
343.0603498867116
 31
0.0
  0
LINE
  5
5C5
330
1F
100
AcDbEntity
  8
DRAW
  6
CONTINUOUS
 62
     7
100
AcDbLine
 10
511.5092938833329
 20
343.0603498867116
 30
0.0
 11
511.5092938833329
 21
338.2373498867116
 31
0.0
  0
LINE
  5
5C6
330
1F
100
AcDbEntity
  8
DRAW
  6
CONTINUOUS
 62
     7
100
AcDbLine
 10
511.5092938833329
 20
338.2373498867116
 30
0.0
 11
511.009293883333
 21
338.1483498867115
 31
0.0
  0
LINE
  5
5C7
330
1F
100
AcDbEntity
  8
DRAW
  6
CONTINUOUS
 62
     7
100
AcDbLine
 10
511.009293883333
 20
338.1483498867115
 30
0.0
 11
511.009293883333
 21
343.1483498867115
 31
0.0
  0
LINE
  5
5C8
330
1F
100
AcDbEntity
  8
DRAW
  6
CONTINUOUS
 62
     7
100
AcDbLine
 10
492.3922938833329
 20
354.6483498867115
 30
0.0
 11
492.3922938833329
 21
353.8483498867116
 31
0.0
  0
LINE
  5
5C9
330
1F
100
AcDbEntity
  8
DRAW
  6
CONTINUOUS
 62
     7
100
AcDbLine
 10
489.7642938833329
 20
350.7093498867116
 30
0.0
 11
490.2162938833328
 21
350.7873498867116
 31
0.0
  0
LINE
  5
5CA
330
1F
100
AcDbEntity
  8
DRAW
  6
CONTINUOUS
 62
     7
100
AcDbLine
 10
490.081293883333
 20
351.5753498867116
 30
0.0
 11
489.6282938833329
 21
351.4973498867116
 31
0.0
  0
ARC
  5
5CB
330
1F
100
AcDbEntity
  8
DRAW
  6
CONTINUOUS
 62
     7
100
AcDbCircle
 10
488.2172938833329
 20
350.8483498867116
 30
0.0
 40
2.299999999999998
100
AcDbArc
 50
19.79199999999903
 51
179.7609999999999
  0
LINE
  5
5CC
330
1F
100
AcDbEntity
  8
DRAW
  6
CONTINUOUS
 62
     7
100
AcDbLine
 10
486.0532938833329
 20
350.0703498867116
 30
0.0
 11
486.3542938833329
 21
350.1213498867115
 31
0.0
  0
LINE
  5
5CD
330
1F
100
AcDbEntity
  8
DRAW
  6
CONTINUOUS
 62
     7
100
AcDbLine
 10
486.2182938833329
 20
350.9103498867116
 30
0.0
 11
485.9172938833331
 21
350.8583498867116
 31
0.0
  0
LINE
  5
5CE
330
1F
100
AcDbEntity
  8
DRAW
  6
CONTINUOUS
 62
     7
100
AcDbLine
 10
486.3542938833329
 20
350.1213498867115
 30
0.0
 11
486.8072938833329
 21
350.1993498867116
 31
0.0
  0
LINE
  5
5CF
330
1F
100
AcDbEntity
  8
DRAW
  6
CONTINUOUS
 62
     7
100
AcDbLine
 10
486.6712938833329
 20
350.9883498867115
 30
0.0
 11
486.2182938833329
 21
350.9103498867116
 31
0.0
  0
ARC
  5
5D0
330
1F
100
AcDbEntity
  8
DRAW
  6
CONTINUOUS
 62
     7
100
AcDbCircle
 10
488.2172938833329
 20
350.8483498867116
 30
0.0
 40
2.299999999999998
100
AcDbArc
 50
179.7609999999999
 51
189.7769999999993
  0
ARC
  5
5D1
330
1F
100
AcDbEntity
  8
DRAW
  6
CONTINUOUS
 62
     7
100
AcDbCircle
 10
488.2172938833329
 20
350.8483498867116
 30
0.0
 40
2.299999999999998
100
AcDbArc
 50
189.7769999999993
 51
199.791999999999
  0
LINE
  5
5D2
330
1F
100
AcDbEntity
  8
DRAW
  6
CONTINUOUS
 62
     7
100
AcDbLine
 10
489.396293883333
 20
350.6463498867116
 30
0.0
 11
489.2602938833329
 21
351.4343498867116
 31
0.0
  0
LINE
  5
5D3
330
1F
100
AcDbEntity
  8
DRAW
  6
CONTINUOUS
 62
     7
100
AcDbLine
 10
489.6282938833329
 20
351.4973498867116
 30
0.0
 11
489.2602938833329
 21
351.4343498867116
 31
0.0
  0
LINE
  5
5D4
330
1F
100
AcDbEntity
  8
DRAW
  6
CONTINUOUS
 62
     7
100
AcDbLine
 10
489.7642938833329
 20
350.7093498867116
 30
0.0
 11
489.396293883333
 21
350.6463498867116
 31
0.0
  0
LINE
  5
5D5
330
1F
100
AcDbEntity
  8
DRAW
  6
CONTINUOUS
 62
     7
100
AcDbLine
 10
487.175293883333
 20
350.2633498867115
 30
0.0
 11
487.039293883333
 21
351.0513498867116
 31
0.0
  0
LINE
  5
5D6
330
1F
100
AcDbEntity
  8
DRAW
  6
CONTINUOUS
 62
     7
100
AcDbLine
 10
486.6712938833329
 20
350.9883498867115
 30
0.0
 11
487.039293883333
 21
351.0513498867116
 31
0.0
  0
LINE
  5
5D7
330
1F
100
AcDbEntity
  8
DRAW
  6
CONTINUOUS
 62
     7
100
AcDbLine
 10
486.8072938833329
 20
350.1993498867116
 30
0.0
 11
487.175293883333
 21
350.2633498867115
 31
0.0
  0
LINE
  5
5D8
330
1F
100
AcDbEntity
  8
DRAW
  6
CONTINUOUS
 62
     7
100
AcDbLine
 10
489.6282938833329
 20
351.4973498867116
 30
0.0
 11
489.5852938833328
 21
351.7423498867116
 31
0.0
  0
LINE
  5
5D9
330
1F
100
AcDbEntity
  8
DRAW
  6
CONTINUOUS
 62
     7
100
AcDbLine
 10
489.8062938833328
 20
350.4643498867116
 30
0.0
 11
489.7642938833329
 21
350.7093498867116
 31
0.0
  0
LINE
  5
5DA
330
1F
100
AcDbEntity
  8
DRAW
  6
CONTINUOUS
 62
     7
100
AcDbLine
 10
486.6292938833328
 20
351.2333498867115
 30
0.0
 11
486.6712938833329
 21
350.9883498867115
 31
0.0
  0
LINE
  5
5DB
330
1F
100
AcDbEntity
  8
DRAW
  6
CONTINUOUS
 62
     7
100
AcDbLine
 10
486.8072938833329
 20
350.1993498867116
 30
0.0
 11
486.849293883333
 21
349.9543498867116
 31
0.0
  0
LINE
  5
5DC
330
1F
100
AcDbEntity
  8
DRAW
  6
CONTINUOUS
 62
     7
100
AcDbLine
 10
488.9992938833328
 20
350.4763498867116
 30
0.0
 11
488.8302938833328
 21
351.4613498867116
 31
0.0
  0
LINE
  5
5DD
330
1F
100
AcDbEntity
  8
DRAW
  6
CONTINUOUS
 62
     7
100
AcDbLine
 10
488.7952938833331
 20
350.4403498867115
 30
0.0
 11
488.9992938833328
 21
350.4763498867116
 31
0.0
  0
LINE
  5
5DE
330
1F
100
AcDbEntity
  8
DRAW
  6
CONTINUOUS
 62
     7
100
AcDbLine
 10
489.8062938833328
 20
350.4643498867116
 30
0.0
 11
488.9992938833328
 21
350.4763498867116
 31
0.0
  0
LINE
  5
5DF
330
1F
100
AcDbEntity
  8
DRAW
  6
CONTINUOUS
 62
     7
100
AcDbLine
 10
488.8302938833328
 20
350.2363498867115
 30
0.0
 11
488.7952938833331
 21
350.4403498867115
 31
0.0
  0
LINE
  5
5E0
330
1F
100
AcDbEntity
  8
DRAW
  6
CONTINUOUS
 62
     7
100
AcDbLine
 10
488.9672938833329
 20
350.3193498867116
 30
0.0
 11
488.7952938833331
 21
350.4403498867115
 31
0.0
  0
LINE
  5
5E1
330
1F
100
AcDbEntity
  8
DRAW
  6
CONTINUOUS
 62
     7
100
AcDbLine
 10
487.845293883333
 20
350.0663498867115
 30
0.0
 11
488.8302938833328
 21
350.2363498867115
 31
0.0
  0
LINE
  5
5E2
330
1F
100
AcDbEntity
  8
DRAW
  6
CONTINUOUS
 62
     7
100
AcDbLine
 10
489.1112938833328
 20
349.4803498867117
 30
0.0
 11
488.8302938833328
 21
350.2363498867115
 31
0.0
  0
LINE
  5
5E3
330
1F
100
AcDbEntity
  8
DRAW
  6
CONTINUOUS
 62
     7
100
AcDbLine
 10
487.8102938833331
 20
350.2713498867116
 30
0.0
 11
487.845293883333
 21
350.0663498867115
 31
0.0
  0
LINE
  5
5E4
330
1F
100
AcDbEntity
  8
DRAW
  6
CONTINUOUS
 62
     7
100
AcDbLine
 10
487.833293883333
 20
349.2603498867115
 30
0.0
 11
487.845293883333
 21
350.0663498867115
 31
0.0
  0
LINE
  5
5E5
330
1F
100
AcDbEntity
  8
DRAW
  6
CONTINUOUS
 62
     7
100
AcDbLine
 10
487.6052938833328
 20
350.2353498867116
 30
0.0
 11
487.8102938833331
 21
350.2713498867116
 31
0.0
  0
LINE
  5
5E6
330
1F
100
AcDbEntity
  8
DRAW
  6
CONTINUOUS
 62
     7
100
AcDbLine
 10
487.6882938833329
 20
350.0993498867113
 30
0.0
 11
487.8102938833331
 21
350.2713498867116
 31
0.0
  0
LINE
  5
5E7
330
1F
100
AcDbEntity
  8
DRAW
  6
CONTINUOUS
 62
     7
100
AcDbLine
 10
487.4362938833328
 20
351.2213498867116
 30
0.0
 11
487.6052938833328
 21
350.2353498867116
 31
0.0
  0
LINE
  5
5E8
330
1F
100
AcDbEntity
  8
DRAW
  6
CONTINUOUS
 62
     7
100
AcDbLine
 10
486.849293883333
 20
349.9543498867116
 30
0.0
 11
487.6052938833328
 21
350.2353498867116
 31
0.0
  0
LINE
  5
5E9
330
1F
100
AcDbEntity
  8
DRAW
  6
CONTINUOUS
 62
     7
100
AcDbLine
 10
487.6402938833328
 20
351.2563498867116
 30
0.0
 11
487.4362938833328
 21
351.2213498867116
 31
0.0
  0
LINE
  5
5EA
330
1F
100
AcDbEntity
  8
DRAW
  6
CONTINUOUS
 62
     7
100
AcDbLine
 10
486.6292938833328
 20
351.2333498867115
 30
0.0
 11
487.4362938833328
 21
351.2213498867116
 31
0.0
  0
LINE
  5
5EB
330
1F
100
AcDbEntity
  8
DRAW
  6
CONTINUOUS
 62
     7
100
AcDbLine
 10
487.6052938833328
 20
351.4603498867115
 30
0.0
 11
487.6402938833328
 21
351.2563498867116
 31
0.0
  0
LINE
  5
5EC
330
1F
100
AcDbEntity
  8
DRAW
  6
CONTINUOUS
 62
     7
100
AcDbLine
 10
487.468293883333
 20
351.3773498867116
 30
0.0
 11
487.6402938833328
 21
351.2563498867116
 31
0.0
  0
LINE
  5
5ED
330
1F
100
AcDbEntity
  8
DRAW
  6
CONTINUOUS
 62
     7
100
AcDbLine
 10
488.5902938833329
 20
351.6303498867116
 30
0.0
 11
487.6052938833328
 21
351.4603498867115
 31
0.0
  0
LINE
  5
5EE
330
1F
100
AcDbEntity
  8
DRAW
  6
CONTINUOUS
 62
     7
100
AcDbLine
 10
487.3232938833329
 20
352.2163498867115
 30
0.0
 11
487.6052938833328
 21
351.4603498867115
 31
0.0
  0
LINE
  5
5EF
330
1F
100
AcDbEntity
  8
DRAW
  6
CONTINUOUS
 62
     7
100
AcDbLine
 10
488.625293883333
 20
351.4263498867116
 30
0.0
 11
488.5902938833329
 21
351.6303498867116
 31
0.0
  0
LINE
  5
5F0
330
1F
100
AcDbEntity
  8
DRAW
  6
CONTINUOUS
 62
     7
100
AcDbLine
 10
488.6022938833328
 20
352.4373498867116
 30
0.0
 11
488.5902938833329
 21
351.6303498867116
 31
0.0
  0
LINE
  5
5F1
330
1F
100
AcDbEntity
  8
DRAW
  6
CONTINUOUS
 62
     7
100
AcDbLine
 10
489.5852938833328
 20
351.7423498867116
 30
0.0
 11
488.8302938833328
 21
351.4613498867116
 31
0.0
  0
LINE
  5
5F2
330
1F
100
AcDbEntity
  8
DRAW
  6
CONTINUOUS
 62
     7
100
AcDbLine
 10
488.8302938833328
 20
351.4613498867116
 30
0.0
 11
488.625293883333
 21
351.4263498867116
 31
0.0
  0
LINE
  5
5F3
330
1F
100
AcDbEntity
  8
DRAW
  6
CONTINUOUS
 62
     7
100
AcDbLine
 10
488.747293883333
 20
351.5983498867116
 30
0.0
 11
488.625293883333
 21
351.4263498867116
 31
0.0
  0
LINE
  5
5F4
330
1F
100
AcDbEntity
  8
DRAW
  6
CONTINUOUS
 62
     7
100
AcDbLine
 10
489.5852938833328
 20
351.7423498867116
 30
0.0
 11
488.747293883333
 21
351.5983498867116
 31
0.0
  0
LINE
  5
5F5
330
1F
100
AcDbEntity
  8
DRAW
  6
CONTINUOUS
 62
     7
100
AcDbLine
 10
488.9672938833329
 20
350.3193498867116
 30
0.0
 11
489.8062938833328
 21
350.4643498867116
 31
0.0
  0
LINE
  5
5F6
330
1F
100
AcDbEntity
  8
DRAW
  6
CONTINUOUS
 62
     7
100
AcDbLine
 10
489.1112938833328
 20
349.4803498867117
 30
0.0
 11
488.9672938833329
 21
350.3193498867116
 31
0.0
  0
LINE
  5
5F7
330
1F
100
AcDbEntity
  8
DRAW
  6
CONTINUOUS
 62
     7
100
AcDbLine
 10
487.833293883333
 20
349.2603498867115
 30
0.0
 11
489.1112938833328
 21
349.4803498867117
 31
0.0
  0
LINE
  5
5F8
330
1F
100
AcDbEntity
  8
DRAW
  6
CONTINUOUS
 62
     7
100
AcDbLine
 10
487.6882938833329
 20
350.0993498867113
 30
0.0
 11
487.833293883333
 21
349.2603498867115
 31
0.0
  0
LINE
  5
5F9
330
1F
100
AcDbEntity
  8
DRAW
  6
CONTINUOUS
 62
     7
100
AcDbLine
 10
486.849293883333
 20
349.9543498867116
 30
0.0
 11
487.6882938833329
 21
350.0993498867113
 31
0.0
  0
LINE
  5
5FA
330
1F
100
AcDbEntity
  8
DRAW
  6
CONTINUOUS
 62
     7
100
AcDbLine
 10
487.468293883333
 20
351.3773498867116
 30
0.0
 11
486.6292938833328
 21
351.2333498867115
 31
0.0
  0
LINE
  5
5FB
330
1F
100
AcDbEntity
  8
DRAW
  6
CONTINUOUS
 62
     7
100
AcDbLine
 10
487.3232938833329
 20
352.2163498867115
 30
0.0
 11
487.468293883333
 21
351.3773498867116
 31
0.0
  0
LINE
  5
5FC
330
1F
100
AcDbEntity
  8
DRAW
  6
CONTINUOUS
 62
     7
100
AcDbLine
 10
488.6022938833328
 20
352.4373498867116
 30
0.0
 11
487.3232938833329
 21
352.2163498867115
 31
0.0
  0
LINE
  5
5FD
330
1F
100
AcDbEntity
  8
DRAW
  6
CONTINUOUS
 62
     7
100
AcDbLine
 10
488.747293883333
 20
351.5983498867116
 30
0.0
 11
488.6022938833328
 21
352.4373498867116
 31
0.0
  0
LINE
  5
5FE
330
1F
100
AcDbEntity
  8
DRAW
  6
CONTINUOUS
 62
     7
100
AcDbLine
 10
490.2162938833328
 20
350.7873498867116
 30
0.0
 11
490.5172938833329
 21
350.8393498867115
 31
0.0
  0
LINE
  5
5FF
330
1F
100
AcDbEntity
  8
DRAW
  6
CONTINUOUS
 62
     7
100
AcDbLine
 10
490.081293883333
 20
351.5753498867116
 30
0.0
 11
490.382293883333
 21
351.6273498867116
 31
0.0
  0
ARC
  5
600
330
1F
100
AcDbEntity
  8
DRAW
  6
CONTINUOUS
 62
     7
100
AcDbCircle
 10
488.2172938833329
 20
350.8483498867116
 30
0.0
 40
2.299999999999998
100
AcDbArc
 50
9.776999999999333
 51
19.79199999999903
  0
ARC
  5
601
330
1F
100
AcDbEntity
  8
DRAW
  6
CONTINUOUS
 62
     7
100
AcDbCircle
 10
488.2172938833329
 20
350.8483498867116
 30
0.0
 40
2.299999999999998
100
AcDbArc
 50
359.7610000000001
 51
9.776999999999333
  0
LINE
  5
602
330
1F
100
AcDbEntity
  8
DRAW
  6
CONTINUOUS
 62
     7
100
AcDbLine
 10
492.3922938833329
 20
353.6483498867115
 30
0.0
 11
492.592293883333
 21
353.6483498867115
 31
0.0
  0
LINE
  5
603
330
1F
100
AcDbEntity
  8
DRAW
  6
CONTINUOUS
 62
     7
100
AcDbLine
 10
492.3922938833329
 20
353.6483498867115
 30
0.0
 11
492.3922938833329
 21
353.8483498867116
 31
0.0
  0
ARC
  5
604
330
1F
100
AcDbEntity
  8
DRAW
  6
CONTINUOUS
 62
     7
100
AcDbCircle
 10
492.1922938833329
 20
353.8483498867116
 30
0.0
 40
0.2
100
AcDbArc
 50
270.0
 51
0.0
  0
LINE
  5
606
330
1F
100
AcDbEntity
  8
DRAW
  6
CONTINUOUS
 62
     7
100
AcDbLine
 10
492.3922938833329
 20
355.6483498867115
 30
0.0
 11
492.3922938833329
 21
354.6483498867115
 31
0.0
  0
LINE
  5
607
330
1F
100
AcDbEntity
  8
DRAW
  6
CONTINUOUS
 62
     7
100
AcDbLine
 10
492.592293883333
 20
355.6483498867115
 30
0.0
 11
492.3922938833329
 21
355.6483498867115
 31
0.0
  0
POINT
  5
608
330
1F
100
AcDbEntity
  8
DRAW
  6
CONTINUOUS
 62
     7
100
AcDbPoint
 10
510.4092938833328
 20
359.8483498867116
 30
0.0
  0
POINT
  5
609
330
1F
100
AcDbEntity
  8
DRAW
  6
CONTINUOUS
 62
     7
100
AcDbPoint
 10
510.4092938833328
 20
359.8483498867116
 30
0.0
  0
LINE
  5
60A
330
1F
100
AcDbEntity
  8
DRAW
  6
CONTINUOUS
 62
     7
100
AcDbLine
 10
511.009293883333
 20
359.8483498867116
 30
0.0
 11
509.809293883333
 21
359.8483498867116
 31
0.0
  0
LINE
  5
60B
330
1F
100
AcDbEntity
  8
DRAW
  6
CONTINUOUS
 62
     7
100
AcDbLine
 10
511.009293883333
 20
358.9233498867116
 30
0.0
 11
508.909293883333
 21
358.9233498867116
 31
0.0
  0
LINE
  5
60C
330
1F
100
AcDbEntity
  8
DRAW
  6
CONTINUOUS
 62
     7
100
AcDbLine
 10
508.909293883333
 20
358.1483498867115
 30
0.0
 11
508.909293883333
 21
358.9233498867116
 31
0.0
  0
LINE
  5
60D
330
1F
100
AcDbEntity
  8
DRAW
  6
CONTINUOUS
 62
     7
100
AcDbLine
 10
511.009293883333
 20
359.8483498867116
 30
0.0
 11
511.009293883333
 21
358.1483498867115
 31
0.0
  0
LINE
  5
60E
330
1F
100
AcDbEntity
  8
DRAW
  6
CONTINUOUS
 62
     7
100
AcDbLine
 10
507.2092938833328
 20
358.1483498867115
 30
0.0
 11
511.009293883333
 21
358.1483498867115
 31
0.0
  0
LINE
  5
60F
330
1F
100
AcDbEntity
  8
DRAW
  6
CONTINUOUS
 62
     7
100
AcDbLine
 10
506.7092938833329
 20
358.1483498867115
 30
0.0
 11
507.2092938833328
 21
358.1483498867115
 31
0.0
  0
ARC
  5
610
330
1F
100
AcDbEntity
  8
DRAW
  6
CONTINUOUS
 62
     7
100
AcDbCircle
 10
526.1872938833329
 20
340.5883498867116
 30
0.0
 40
2.5
100
AcDbArc
 50
84.26099999999982
 51
275.739
  0
ARC
  5
611
330
1F
100
AcDbEntity
  8
DRAW
  6
CONTINUOUS
 62
     7
100
AcDbCircle
 10
526.1872938833329
 20
340.5883498867116
 30
0.0
 40
1.75
100
AcDbArc
 50
81.78700000000324
 51
167.6259999999999
  0
ARC
  5
612
330
1F
100
AcDbEntity
  8
DRAW
  6
CONTINUOUS
 62
     7
100
AcDbCircle
 10
526.1872938833329
 20
340.5883498867116
 30
0.0
 40
1.75
100
AcDbArc
 50
192.374
 51
278.2129999999966
  0
LINE
  5
613
330
1F
100
AcDbEntity
  8
DRAW
  6
CONTINUOUS
 62
     7
100
AcDbLine
 10
513.5092938833329
 20
338.1483498867115
 30
0.0
 11
513.5092938833329
 21
343.1483498867115
 31
0.0
  0
LINE
  5
614
330
1F
100
AcDbEntity
  8
DRAW
  6
CONTINUOUS
 62
     7
100
AcDbLine
 10
525.9372938833329
 20
340.9633498867116
 30
0.0
 11
524.478293883333
 21
340.9633498867116
 31
0.0
  0
LINE
  5
615
330
1F
100
AcDbEntity
  8
DRAW
  6
CONTINUOUS
 62
     7
100
AcDbLine
 10
525.9372938833329
 20
340.2133498867116
 30
0.0
 11
525.9372938833329
 21
340.9633498867116
 31
0.0
  0
LINE
  5
616
330
1F
100
AcDbEntity
  8
DRAW
  6
CONTINUOUS
 62
     7
100
AcDbLine
 10
524.478293883333
 20
340.2133498867116
 30
0.0
 11
525.9372938833329
 21
340.2133498867116
 31
0.0
  0
ARC
  5
617
330
1F
100
AcDbEntity
  8
DRAW
  6
CONTINUOUS
 62
     7
100
AcDbCircle
 10
521.9372938833329
 20
340.5883498867116
 30
0.0
 40
2.5
100
AcDbArc
 50
84.26099999999982
 51
275.739
  0
LINE
  5
618
330
1F
100
AcDbEntity
  8
DRAW
  6
CONTINUOUS
 62
     7
100
AcDbLine
 10
522.1872938833329
 20
342.3203498867116
 30
0.0
 11
522.1872938833329
 21
343.0753498867113
 31
0.0
  0
ARC
  5
619
330
1F
100
AcDbEntity
  8
DRAW
  6
CONTINUOUS
 62
     7
100
AcDbCircle
 10
521.9372938833329
 20
340.5883498867116
 30
0.0
 40
1.75
100
AcDbArc
 50
81.78700000000324
 51
278.2129999999966
  0
LINE
  5
61A
330
1F
100
AcDbEntity
  8
DRAW
  6
CONTINUOUS
 62
     7
100
AcDbLine
 10
522.1872938833329
 20
338.1003498867115
 30
0.0
 11
522.1872938833329
 21
338.8563498867116
 31
0.0
  0
LINE
  5
61B
330
1F
100
AcDbEntity
  8
DRAW
  6
CONTINUOUS
 62
     7
100
AcDbLine
 10
526.4372938833329
 20
342.3203498867116
 30
0.0
 11
526.4372938833329
 21
343.0753498867113
 31
0.0
  0
LINE
  5
61C
330
1F
100
AcDbEntity
  8
DRAW
  6
CONTINUOUS
 62
     7
100
AcDbLine
 10
526.4372938833329
 20
338.1003498867115
 30
0.0
 11
526.4372938833329
 21
338.8563498867116
 31
0.0
  0
LINE
  5
61D
330
1F
100
AcDbEntity
  8
DRAW
  6
CONTINUOUS
 62
     7
100
AcDbLine
 10
535.809293883333
 20
345.1483498867115
 30
0.0
 11
536.0092938833329
 21
345.1483498867115
 31
0.0
  0
LINE
  5
61E
330
1F
100
AcDbEntity
  8
DRAW
  6
CONTINUOUS
 62
     7
100
AcDbLine
 10
554.5092938833329
 20
353.6483498867115
 30
0.0
 11
554.5092938833329
 21
347.1483498867115
 31
0.0
  0
LINE
  5
61F
330
1F
100
AcDbEntity
  8
DRAW
  6
CONTINUOUS
 62
     7
100
AcDbLine
 10
554.3092938833328
 20
347.1483498867115
 30
0.0
 11
554.5092938833329
 21
347.1483498867115
 31
0.0
  0
LINE
  5
620
330
1F
100
AcDbEntity
  8
DRAW
  6
CONTINUOUS
 62
     7
100
AcDbLine
 10
554.5092938833329
 20
347.1483498867115
 30
0.0
 11
554.5092938833329
 21
346.6483498867115
 31
0.0
  0
ARC
  5
621
330
1F
100
AcDbEntity
  8
DRAW
  6
CONTINUOUS
 62
     7
100
AcDbCircle
 10
553.0092938833329
 20
346.6483498867115
 30
0.0
 40
1.5
100
AcDbArc
 50
270.0
 51
0.0
  0
LINE
  5
622
330
1F
100
AcDbEntity
  8
DRAW
  6
CONTINUOUS
 62
     7
100
AcDbLine
 10
565.5092938833329
 20
353.6483498867115
 30
0.0
 11
554.5092938833329
 21
353.6483498867115
 31
0.0
  0
LINE
  5
623
330
1F
100
AcDbEntity
  8
DRAW
  6
CONTINUOUS
 62
     7
100
AcDbLine
 10
554.3092938833328
 20
353.6483498867115
 30
0.0
 11
554.5092938833329
 21
353.6483498867115
 31
0.0
  0
LINE
  5
624
330
1F
100
AcDbEntity
  8
DRAW
  6
CONTINUOUS
 62
     7
100
AcDbLine
 10
565.5092938833329
 20
353.8483498867116
 30
0.0
 11
565.5092938833329
 21
355.6483498867115
 31
0.0
  0
ARC
  5
625
330
1F
100
AcDbEntity
  8
DRAW
  6
CONTINUOUS
 62
     7
100
AcDbCircle
 10
566.5092938833329
 20
354.6483498867115
 30
0.0
 40
1.0
100
AcDbArc
 50
270.0
 51
0.0
  0
POINT
  5
626
330
1F
100
AcDbEntity
  8
DRAW
  6
CONTINUOUS
 62
     7
100
AcDbPoint
 10
565.5092938833329
 20
353.6483498867115
 30
0.0
  0
LINE
  5
627
330
1F
100
AcDbEntity
  8
DRAW
  6
CONTINUOUS
 62
     7
100
AcDbLine
 10
565.5092938833329
 20
353.6483498867115
 30
0.0
 11
566.5092938833329
 21
353.6483498867115
 31
0.0
  0
LINE
  5
628
330
1F
100
AcDbEntity
  8
DRAW
  6
CONTINUOUS
 62
     7
100
AcDbLine
 10
565.5092938833329
 20
353.8483498867116
 30
0.0
 11
565.5092938833329
 21
353.6483498867115
 31
0.0
  0
LINE
  5
629
330
1F
100
AcDbEntity
  8
CARTOUCHE
  6
CONTINUOUS
 62
     7
100
AcDbLine
 10
421.9712938833329
 20
503.5493498867116
 30
0.0
 11
621.9712938833329
 21
503.5493498867116
 31
0.0
  0
DIMENSION
  5
62A
330
1F
100
AcDbEntity
  8
DIM
  6
CONTINUOUS
 62
     3
100
AcDbDimension
  2
*D7
 10
492.592293883333
 20
426.3463498867115
 30
0.0
 11
483.644293883333
 21
426.3463498867115
 31
0.0
 70
   160
  1
<>
  3
DSTYLE1
100
AcDbAlignedDimension
 13
475.0922938833329
 23
416.1483498867116
 33
0.0
 14
492.592293883333
 24
416.1483498867116
 34
0.0
100
AcDbRotatedDimension
  0
LINE
  5
62B
330
1F
100
AcDbEntity
  8
DRAW
  6
CONTINUOUS
 62
     7
100
AcDbLine
 10
492.1922938833329
 20
407.1483498867115
 30
0.0
 11
475.4922938833328
 21
407.1483498867115
 31
0.0
  0
LINE
  5
62C
330
1F
100
AcDbEntity
  8
DRAW
  6
CONTINUOUS
 62
     7
100
AcDbLine
 10
492.1922938833329
 20
418.1483498867113
 30
0.0
 11
475.4922938833328
 21
418.1483498867113
 31
0.0
  0
LINE
  5
62D
330
1F
100
AcDbEntity
  8
DRAW
  6
CONTINUOUS
 62
     7
100
AcDbLine
 10
492.1922938833329
 20
398.6483498867115
 30
0.0
 11
475.4922938833328
 21
398.6483498867115
 31
0.0
  0
LINE
  5
62E
330
1F
100
AcDbEntity
  8
DRAW
  6
CONTINUOUS
 62
     7
100
AcDbLine
 10
481.492293883333
 20
369.7983498867116
 30
0.0
 11
483.0922938833329
 21
369.7983498867116
 31
0.0
  0
LINE
  5
62F
330
1F
100
AcDbEntity
  8
DRAW
  6
CONTINUOUS
 62
     7
100
AcDbLine
 10
483.0922938833329
 20
371.9983498867116
 30
0.0
 11
481.492293883333
 21
371.9983498867116
 31
0.0
  0
LINE
  5
631
330
1F
100
AcDbEntity
  8
DRAW
  6
CONTINUOUS
 62
     7
100
AcDbLine
 10
484.1882938833329
 20
393.0233498867115
 30
0.0
 11
480.444293883333
 21
394.7693498867116
 31
0.0
  0
LINE
  5
632
330
1F
100
AcDbEntity
  8
DRAW
  6
CONTINUOUS
 62
     7
100
AcDbLine
 10
484.1882938833329
 20
389.2743498867116
 30
0.0
 11
480.444293883333
 21
387.5283498867115
 31
0.0
  0
LINE
  5
634
330
1F
100
AcDbEntity
  8
DRAW
  6
CONTINUOUS
 62
     7
100
AcDbLine
 10
483.5772938833327
 20
390.0923498867116
 30
0.0
 11
480.8582938833329
 21
388.8243498867116
 31
0.0
  0
LINE
  5
635
330
1F
100
AcDbEntity
  8
DRAW
  6
CONTINUOUS
 62
     7
100
AcDbLine
 10
483.5772938833327
 20
392.2053498867116
 30
0.0
 11
480.8582938833329
 21
393.4733498867116
 31
0.0
  0
CIRCLE
  5
636
330
1F
100
AcDbEntity
  8
DRAW
  6
CONTINUOUS
 62
     7
100
AcDbCircle
 10
483.3422938833328
 20
381.3983498867115
 30
0.0
 40
2.5
  0
LINE
  5
637
330
1F
100
AcDbEntity
  8
DRAW
  6
CONTINUOUS
 62
     7
100
AcDbLine
 10
481.8422938833329
 20
380.9983498867115
 30
0.0
 11
482.8542938833328
 21
380.9103498867116
 31
0.0
  0
LINE
  5
638
330
1F
100
AcDbEntity
  8
DRAW
  6
CONTINUOUS
 62
     7
100
AcDbLine
 10
482.8542938833328
 20
381.8873498867116
 30
0.0
 11
481.8422938833329
 21
381.7983498867116
 31
0.0
  0
ARC
  5
639
330
1F
100
AcDbEntity
  8
DRAW
  6
CONTINUOUS
 62
     7
100
AcDbCircle
 10
483.3422938833328
 20
381.3983498867115
 30
0.0
 40
2.399999999999999
100
AcDbArc
 50
99.59399999999845
 51
112.4060000000009
  0
ARC
  5
63A
330
1F
100
AcDbEntity
  8
DRAW
  6
CONTINUOUS
 62
     7
100
AcDbCircle
 10
483.3422938833328
 20
381.3983498867115
 30
0.0
 40
2.399999999999999
100
AcDbArc
 50
178.6950000000007
 51
260.4060000000016
  0
LINE
  5
63B
330
1F
100
AcDbEntity
  8
DRAW
  6
CONTINUOUS
 62
     7
100
AcDbLine
 10
475.0922938833329
 20
405.1483498867113
 30
0.0
 11
475.0922938833329
 21
398.6483498867115
 31
0.0
  0
ARC
  5
63C
330
1F
100
AcDbEntity
  8
DRAW
  6
CONTINUOUS
 62
     7
100
AcDbCircle
 10
483.3422938833328
 20
381.3983498867115
 30
0.0
 40
2.479999999999999
100
AcDbArc
 50
111.3420000000027
 51
179.7579999999999
  0
ARC
  5
63D
330
1F
100
AcDbEntity
  8
DRAW
  6
CONTINUOUS
 62
     7
100
AcDbCircle
 10
479.461293883333
 20
384.0613498867115
 30
0.0
 40
3.0
100
AcDbArc
 50
299.6120000000008
 51
351.4879999999998
  0
LINE
  5
63E
330
1F
100
AcDbEntity
  8
DRAW
  6
CONTINUOUS
 62
     7
100
AcDbLine
 10
481.492293883333
 20
371.9983498867116
 30
0.0
 11
481.492293883333
 21
369.7983498867116
 31
0.0
  0
LINE
  5
63F
330
1F
100
AcDbEntity
  8
DRAW
  6
CONTINUOUS
 62
     7
100
AcDbLine
 10
478.3922938833327
 20
371.9983498867116
 30
0.0
 11
478.3922938833327
 21
369.7983498867116
 31
0.0
  0
LINE
  5
640
330
1F
100
AcDbEntity
  8
DRAW
  6
CONTINUOUS
 62
     7
100
AcDbLine
 10
479.9922938833326
 20
369.7983498867116
 30
0.0
 11
479.9922938833326
 21
371.9983498867116
 31
0.0
  0
LINE
  5
642
330
1F
100
AcDbEntity
  8
DRAW
  6
CONTINUOUS
 62
     7
100
AcDbLine
 10
478.3922938833327
 20
369.7983498867116
 30
0.0
 11
479.9922938833326
 21
369.7983498867116
 31
0.0
  0
LINE
  5
643
330
1F
100
AcDbEntity
  8
DRAW
  6
CONTINUOUS
 62
     7
100
AcDbLine
 10
478.292293883333
 20
375.1483498867115
 30
0.0
 11
478.292293883333
 21
377.1483498867115
 31
0.0
  0
LINE
  5
644
330
1F
100
AcDbEntity
  8
DRAW
  6
CONTINUOUS
 62
     7
100
AcDbLine
 10
476.2922938833328
 20
377.1483498867115
 30
0.0
 11
476.2922938833328
 21
375.1483498867115
 31
0.0
  0
LINE
  5
645
330
1F
100
AcDbEntity
  8
DRAW
  6
CONTINUOUS
 62
     7
100
AcDbLine
 10
479.9922938833326
 20
371.9983498867116
 30
0.0
 11
478.3922938833327
 21
371.9983498867116
 31
0.0
  0
LINE
  5
646
330
1F
100
AcDbEntity
  8
DRAW
  6
CONTINUOUS
 62
     7
100
AcDbLine
 10
476.2922938833328
 20
375.1483498867115
 30
0.0
 11
478.292293883333
 21
375.1483498867115
 31
0.0
  0
LINE
  5
647
330
1F
100
AcDbEntity
  8
DRAW
  6
CONTINUOUS
 62
     7
100
AcDbLine
 10
478.292293883333
 20
377.1483498867115
 30
0.0
 11
476.2922938833328
 21
377.1483498867115
 31
0.0
  0
LINE
  5
648
330
1F
100
AcDbEntity
  8
DRAW
  6
CONTINUOUS
 62
     7
100
AcDbLine
 10
482.3882938833328
 20
381.8463498867116
 30
0.0
 11
482.3882938833328
 21
380.9513498867115
 31
0.0
  0
LINE
  5
649
330
1F
100
AcDbEntity
  8
DRAW
  6
CONTINUOUS
 62
     7
100
AcDbLine
 10
480.9432938833329
 20
381.4533498867116
 30
0.0
 11
480.8622938833329
 21
381.4093498867116
 31
0.0
  0
LINE
  5
64A
330
1F
100
AcDbEntity
  8
DRAW
  6
CONTINUOUS
 62
     7
100
AcDbLine
 10
481.8422938833329
 20
381.7983498867116
 30
0.0
 11
481.8422938833329
 21
380.9983498867115
 31
0.0
  0
SPLINE
  5
64B
330
1F
100
AcDbEntity
  8
DRAW
  6
CONTINUOUS
 62
     7
100
AcDbSpline
210
0.0
220
0.0
230
1.0
 70
     8
 71
     3
 72
     8
 73
     4
 74
     2
 42
0.0000000001
 43
0.0000000001
 44
0.000001
 12
-0.3420181477410031
 22
0.9396933471169269
 32
0.0
 13
-0.2684085529950863
 23
0.9633051690295676
 33
0.0
 40
0.0
 40
0.0
 40
0.0
 40
0.0
 40
1.360600038774914
 40
1.360600038774914
 40
1.360600038774914
 40
1.360600038774914
 10
480.8579721900913
 20
393.4730925678022
 30
0.0
 10
480.7028555550653
 20
393.8992748359768
 30
0.0
 10
480.5661426324493
 20
394.3324264983134
 30
0.0
 10
480.4444104032452
 20
394.7693175150914
 30
0.0
 11
480.8579721900913
 21
393.4730925678022
 31
0.0
 11
480.4444104032452
 21
394.7693175150914
 31
0.0
  0
ARC
  5
64C
330
1F
100
AcDbEntity
  8
DRAW
  6
CONTINUOUS
 62
     7
100
AcDbCircle
 10
485.8422938833329
 20
391.1483498867115
 30
0.0
 40
6.5
100
AcDbArc
 50
146.1499999999988
 51
213.8500000000011
  0
SPLINE
  5
64D
330
1F
100
AcDbEntity
  8
DRAW
  6
CONTINUOUS
 62
     7
100
AcDbSpline
210
0.0
220
0.0
230
1.0
 70
     8
 71
     3
 72
     8
 73
     4
 74
     2
 42
0.0000000001
 43
0.0000000001
 44
0.000001
 12
-0.3420747085424515
 22
-0.9396727588770447
 32
0.0
 13
-0.2684882142776662
 23
-0.9632829692224346
 33
0.0
 40
0.0
 40
0.0
 40
0.0
 40
0.0
 40
1.360597081775722
 40
1.360597081775722
 40
1.360597081775722
 40
1.360597081775722
 10
480.8579438663796
 20
388.8243020268923
 30
0.0
 10
480.7028019163156
 20
388.3981300223749
 30
0.0
 10
480.5661808043192
 20
387.9649504098778
 30
0.0
 10
480.4444127107068
 20
387.5280704109283
 30
0.0
 11
480.8579438663796
 21
388.8243020268923
 31
0.0
 11
480.4444127107068
 21
387.5280704109283
 31
0.0
  0
LINE
  5
64E
330
1F
100
AcDbEntity
  8
DRAW
  6
CONTINUOUS
 62
     7
100
AcDbLine
 10
482.4402938833331
 20
383.7083498867116
 30
0.0
 11
482.4282938833329
 21
383.6173498867117
 31
0.0
  0
ARC
  5
64F
330
1F
100
AcDbEntity
  8
DRAW
  6
CONTINUOUS
 62
     7
100
AcDbCircle
 10
485.8422938833329
 20
391.1483498867115
 30
0.0
 40
5.5
100
AcDbArc
 50
155.0000000000006
 51
204.9999999999993
  0
ARC
  5
650
330
1F
100
AcDbEntity
  8
DRAW
  6
CONTINUOUS
 62
     7
100
AcDbCircle
 10
479.4672938833328
 20
401.4483498867113
 30
0.0
 40
2.299999999999998
100
AcDbArc
 50
199.791999999999
 51
359.7610000000001
  0
CIRCLE
  5
651
330
1F
100
AcDbEntity
  8
DRAW
  6
CONTINUOUS
 62
     7
100
AcDbCircle
 10
479.4672938833328
 20
401.3483498867116
 30
0.0
 40
2.5
  0
LINE
  5
652
330
1F
100
AcDbEntity
  8
DRAW
  6
CONTINUOUS
 62
     7
100
AcDbLine
 10
475.292293883333
 20
397.6483498867115
 30
0.0
 11
475.292293883333
 21
396.6483498867115
 31
0.0
  0
LINE
  5
653
330
1F
100
AcDbEntity
  8
DRAW
  6
CONTINUOUS
 62
     7
100
AcDbLine
 10
475.292293883333
 20
398.6483498867115
 30
0.0
 11
475.292293883333
 21
398.4483498867115
 31
0.0
  0
LINE
  5
654
330
1F
100
AcDbEntity
  8
DRAW
  6
CONTINUOUS
 62
     7
100
AcDbLine
 10
475.292293883333
 20
398.6483498867115
 30
0.0
 11
475.0922938833329
 21
398.6483498867115
 31
0.0
  0
LINE
  5
655
330
1F
100
AcDbEntity
  8
DRAW
  6
CONTINUOUS
 62
     7
100
AcDbLine
 10
475.0922938833329
 20
396.6483498867115
 30
0.0
 11
475.292293883333
 21
396.6483498867115
 31
0.0
  0
ARC
  5
656
330
1F
100
AcDbEntity
  8
DRAW
  6
CONTINUOUS
 62
     7
100
AcDbCircle
 10
475.4922938833328
 20
398.4483498867115
 30
0.0
 40
0.2
100
AcDbArc
 50
90.0
 51
180.0
  0
LINE
  5
657
330
1F
100
AcDbEntity
  8
DRAW
  6
CONTINUOUS
 62
     7
100
AcDbLine
 10
475.292293883333
 20
397.6483498867115
 30
0.0
 11
475.292293883333
 21
398.4483498867115
 31
0.0
  0
LINE
  5
658
330
1F
100
AcDbEntity
  8
DRAW
  6
CONTINUOUS
 62
     7
100
AcDbLine
 10
481.6322938833329
 20
402.2273498867116
 30
0.0
 11
481.331293883333
 21
402.1753498867115
 31
0.0
  0
LINE
  5
659
330
1F
100
AcDbEntity
  8
DRAW
  6
CONTINUOUS
 62
     7
100
AcDbLine
 10
477.4682938833328
 20
401.5103498867116
 30
0.0
 11
477.1672938833328
 21
401.4583498867116
 31
0.0
  0
LINE
  5
65A
330
1F
100
AcDbEntity
  8
DRAW
  6
CONTINUOUS
 62
     7
100
AcDbLine
 10
481.4662938833329
 20
401.3873498867114
 30
0.0
 11
481.767293883333
 21
401.4393498867116
 31
0.0
  0
LINE
  5
65B
330
1F
100
AcDbEntity
  8
DRAW
  6
CONTINUOUS
 62
     7
100
AcDbLine
 10
477.6042938833328
 20
400.7213498867113
 30
0.0
 11
477.3032938833329
 21
400.6703498867116
 31
0.0
  0
LINE
  5
65C
330
1F
100
AcDbEntity
  8
DRAW
  6
CONTINUOUS
 62
     7
100
AcDbLine
 10
481.331293883333
 20
402.1753498867115
 30
0.0
 11
480.878293883333
 21
402.0973498867116
 31
0.0
  0
LINE
  5
65D
330
1F
100
AcDbEntity
  8
DRAW
  6
CONTINUOUS
 62
     7
100
AcDbLine
 10
477.9212938833331
 20
401.5883498867117
 30
0.0
 11
477.4682938833328
 21
401.5103498867116
 31
0.0
  0
ARC
  5
65E
330
1F
100
AcDbEntity
  8
DRAW
  6
CONTINUOUS
 62
     7
100
AcDbCircle
 10
479.4672938833328
 20
401.4483498867113
 30
0.0
 40
2.299999999999998
100
AcDbArc
 50
19.79199999999903
 51
179.7609999999999
  0
LINE
  5
65F
330
1F
100
AcDbEntity
  8
DRAW
  6
CONTINUOUS
 62
     7
100
AcDbLine
 10
481.0132938833328
 20
401.3093498867116
 30
0.0
 11
481.4662938833329
 21
401.3873498867114
 31
0.0
  0
LINE
  5
660
330
1F
100
AcDbEntity
  8
DRAW
  6
CONTINUOUS
 62
     7
100
AcDbLine
 10
477.6042938833328
 20
400.7213498867113
 30
0.0
 11
478.0572938833328
 21
400.7993498867116
 31
0.0
  0
ARC
  5
661
330
1F
100
AcDbEntity
  8
DRAW
  6
CONTINUOUS
 62
     7
100
AcDbCircle
 10
479.4672938833328
 20
401.4483498867113
 30
0.0
 40
2.299999999999998
100
AcDbArc
 50
189.7769999999993
 51
199.791999999999
  0
ARC
  5
662
330
1F
100
AcDbEntity
  8
DRAW
  6
CONTINUOUS
 62
     7
100
AcDbCircle
 10
479.4672938833328
 20
401.4483498867113
 30
0.0
 40
2.299999999999998
100
AcDbArc
 50
359.7610000000001
 51
9.776999999999333
  0
ARC
  5
663
330
1F
100
AcDbEntity
  8
DRAW
  6
CONTINUOUS
 62
     7
100
AcDbCircle
 10
479.4672938833328
 20
401.4483498867113
 30
0.0
 40
2.299999999999998
100
AcDbArc
 50
179.7609999999999
 51
189.7769999999993
  0
ARC
  5
664
330
1F
100
AcDbEntity
  8
DRAW
  6
CONTINUOUS
 62
     7
100
AcDbCircle
 10
479.4672938833328
 20
401.4483498867113
 30
0.0
 40
2.299999999999998
100
AcDbArc
 50
9.776999999999333
 51
19.79199999999903
  0
LINE
  5
665
330
1F
100
AcDbEntity
  8
DRAW
  6
CONTINUOUS
 62
     7
100
AcDbLine
 10
478.2892938833328
 20
401.6513498867117
 30
0.0
 11
478.4252938833331
 21
400.8633498867117
 31
0.0
  0
LINE
  5
666
330
1F
100
AcDbEntity
  8
DRAW
  6
CONTINUOUS
 62
     7
100
AcDbLine
 10
478.0572938833328
 20
400.7993498867116
 30
0.0
 11
478.4252938833331
 21
400.8633498867117
 31
0.0
  0
LINE
  5
667
330
1F
100
AcDbEntity
  8
DRAW
  6
CONTINUOUS
 62
     7
100
AcDbLine
 10
477.9212938833331
 20
401.5883498867117
 30
0.0
 11
478.2892938833328
 21
401.6513498867117
 31
0.0
  0
LINE
  5
668
330
1F
100
AcDbEntity
  8
DRAW
  6
CONTINUOUS
 62
     7
100
AcDbLine
 10
480.5102938833329
 20
402.0343498867116
 30
0.0
 11
480.6462938833329
 21
401.2463498867116
 31
0.0
  0
LINE
  5
669
330
1F
100
AcDbEntity
  8
DRAW
  6
CONTINUOUS
 62
     7
100
AcDbLine
 10
481.0132938833328
 20
401.3093498867116
 30
0.0
 11
480.6462938833329
 21
401.2463498867116
 31
0.0
  0
LINE
  5
66A
330
1F
100
AcDbEntity
  8
DRAW
  6
CONTINUOUS
 62
     7
100
AcDbLine
 10
480.878293883333
 20
402.0973498867116
 30
0.0
 11
480.5102938833329
 21
402.0343498867116
 31
0.0
  0
LINE
  5
66B
330
1F
100
AcDbEntity
  8
DRAW
  6
CONTINUOUS
 62
     7
100
AcDbLine
 10
478.0572938833328
 20
400.7993498867116
 30
0.0
 11
478.0992938833328
 21
400.5543498867116
 31
0.0
  0
LINE
  5
66C
330
1F
100
AcDbEntity
  8
DRAW
  6
CONTINUOUS
 62
     7
100
AcDbLine
 10
477.879293883333
 20
401.8333498867116
 30
0.0
 11
477.9212938833331
 21
401.5883498867117
 31
0.0
  0
LINE
  5
66D
330
1F
100
AcDbEntity
  8
DRAW
  6
CONTINUOUS
 62
     7
100
AcDbLine
 10
481.0562938833331
 20
401.0643498867116
 30
0.0
 11
481.0132938833328
 21
401.3093498867116
 31
0.0
  0
LINE
  5
66E
330
1F
100
AcDbEntity
  8
DRAW
  6
CONTINUOUS
 62
     7
100
AcDbLine
 10
480.878293883333
 20
402.0973498867116
 30
0.0
 11
480.8352938833329
 21
402.3423498867116
 31
0.0
  0
LINE
  5
66F
330
1F
100
AcDbEntity
  8
DRAW
  6
CONTINUOUS
 62
     7
100
AcDbLine
 10
478.6852938833328
 20
401.8213498867113
 30
0.0
 11
478.855293883333
 21
400.8363498867116
 31
0.0
  0
LINE
  5
670
330
1F
100
AcDbEntity
  8
DRAW
  6
CONTINUOUS
 62
     7
100
AcDbLine
 10
478.8902938833329
 20
401.8563498867115
 30
0.0
 11
478.6852938833328
 21
401.8213498867113
 31
0.0
  0
LINE
  5
671
330
1F
100
AcDbEntity
  8
DRAW
  6
CONTINUOUS
 62
     7
100
AcDbLine
 10
477.879293883333
 20
401.8333498867116
 30
0.0
 11
478.6852938833328
 21
401.8213498867113
 31
0.0
  0
LINE
  5
672
330
1F
100
AcDbEntity
  8
DRAW
  6
CONTINUOUS
 62
     7
100
AcDbLine
 10
478.8542938833328
 20
402.0603498867115
 30
0.0
 11
478.8902938833329
 21
401.8563498867115
 31
0.0
  0
LINE
  5
673
330
1F
100
AcDbEntity
  8
DRAW
  6
CONTINUOUS
 62
     7
100
AcDbLine
 10
478.7182938833328
 20
401.9783498867115
 30
0.0
 11
478.8902938833329
 21
401.8563498867115
 31
0.0
  0
LINE
  5
674
330
1F
100
AcDbEntity
  8
DRAW
  6
CONTINUOUS
 62
     7
100
AcDbLine
 10
479.840293883333
 20
402.2303498867115
 30
0.0
 11
478.8542938833328
 21
402.0603498867115
 31
0.0
  0
LINE
  5
675
330
1F
100
AcDbEntity
  8
DRAW
  6
CONTINUOUS
 62
     7
100
AcDbLine
 10
478.5732938833328
 20
402.8163498867114
 30
0.0
 11
478.8542938833328
 21
402.0603498867115
 31
0.0
  0
LINE
  5
676
330
1F
100
AcDbEntity
  8
DRAW
  6
CONTINUOUS
 62
     7
100
AcDbLine
 10
479.8752938833329
 20
402.0263498867116
 30
0.0
 11
479.840293883333
 21
402.2303498867115
 31
0.0
  0
LINE
  5
677
330
1F
100
AcDbEntity
  8
DRAW
  6
CONTINUOUS
 62
     7
100
AcDbLine
 10
479.852293883333
 20
403.0373498867115
 30
0.0
 11
479.840293883333
 21
402.2303498867115
 31
0.0
  0
LINE
  5
678
330
1F
100
AcDbEntity
  8
DRAW
  6
CONTINUOUS
 62
     7
100
AcDbLine
 10
480.0792938833329
 20
402.0613498867115
 30
0.0
 11
479.8752938833329
 21
402.0263498867116
 31
0.0
  0
LINE
  5
679
330
1F
100
AcDbEntity
  8
DRAW
  6
CONTINUOUS
 62
     7
100
AcDbLine
 10
479.996293883333
 20
402.1983498867116
 30
0.0
 11
479.8752938833329
 21
402.0263498867116
 31
0.0
  0
LINE
  5
67A
330
1F
100
AcDbEntity
  8
DRAW
  6
CONTINUOUS
 62
     7
100
AcDbLine
 10
480.2492938833329
 20
401.0763498867115
 30
0.0
 11
480.0792938833329
 21
402.0613498867115
 31
0.0
  0
LINE
  5
67B
330
1F
100
AcDbEntity
  8
DRAW
  6
CONTINUOUS
 62
     7
100
AcDbLine
 10
480.8352938833329
 20
402.3423498867116
 30
0.0
 11
480.0792938833329
 21
402.0613498867115
 31
0.0
  0
LINE
  5
67C
330
1F
100
AcDbEntity
  8
DRAW
  6
CONTINUOUS
 62
     7
100
AcDbLine
 10
480.0452938833331
 20
401.0413498867116
 30
0.0
 11
480.2492938833329
 21
401.0763498867115
 31
0.0
  0
LINE
  5
67D
330
1F
100
AcDbEntity
  8
DRAW
  6
CONTINUOUS
 62
     7
100
AcDbLine
 10
481.0562938833331
 20
401.0643498867116
 30
0.0
 11
480.2492938833329
 21
401.0763498867115
 31
0.0
  0
LINE
  5
67E
330
1F
100
AcDbEntity
  8
DRAW
  6
CONTINUOUS
 62
     7
100
AcDbLine
 10
480.0802938833331
 20
400.8363498867116
 30
0.0
 11
480.0452938833331
 21
401.0413498867116
 31
0.0
  0
LINE
  5
67F
330
1F
100
AcDbEntity
  8
DRAW
  6
CONTINUOUS
 62
     7
100
AcDbLine
 10
480.2172938833328
 20
400.9193498867116
 30
0.0
 11
480.0452938833331
 21
401.0413498867116
 31
0.0
  0
LINE
  5
680
330
1F
100
AcDbEntity
  8
DRAW
  6
CONTINUOUS
 62
     7
100
AcDbLine
 10
479.095293883333
 20
400.6663498867117
 30
0.0
 11
480.0802938833331
 21
400.8363498867116
 31
0.0
  0
LINE
  5
681
330
1F
100
AcDbEntity
  8
DRAW
  6
CONTINUOUS
 62
     7
100
AcDbLine
 10
480.3612938833329
 20
400.0803498867115
 30
0.0
 11
480.0802938833331
 21
400.8363498867116
 31
0.0
  0
LINE
  5
682
330
1F
100
AcDbEntity
  8
DRAW
  6
CONTINUOUS
 62
     7
100
AcDbLine
 10
479.059293883333
 20
400.8713498867116
 30
0.0
 11
479.095293883333
 21
400.6663498867117
 31
0.0
  0
LINE
  5
683
330
1F
100
AcDbEntity
  8
DRAW
  6
CONTINUOUS
 62
     7
100
AcDbLine
 10
479.083293883333
 20
399.8603498867115
 30
0.0
 11
479.095293883333
 21
400.6663498867117
 31
0.0
  0
LINE
  5
684
330
1F
100
AcDbEntity
  8
DRAW
  6
CONTINUOUS
 62
     7
100
AcDbLine
 10
478.0992938833328
 20
400.5543498867116
 30
0.0
 11
478.855293883333
 21
400.8363498867116
 31
0.0
  0
LINE
  5
685
330
1F
100
AcDbEntity
  8
DRAW
  6
CONTINUOUS
 62
     7
100
AcDbLine
 10
478.855293883333
 20
400.8363498867116
 30
0.0
 11
479.059293883333
 21
400.8713498867116
 31
0.0
  0
LINE
  5
686
330
1F
100
AcDbEntity
  8
DRAW
  6
CONTINUOUS
 62
     7
100
AcDbLine
 10
478.9382938833329
 20
400.6993498867116
 30
0.0
 11
479.059293883333
 21
400.8713498867116
 31
0.0
  0
LINE
  5
687
330
1F
100
AcDbEntity
  8
DRAW
  6
CONTINUOUS
 62
     7
100
AcDbLine
 10
478.0992938833328
 20
400.5543498867116
 30
0.0
 11
478.9382938833329
 21
400.6993498867116
 31
0.0
  0
LINE
  5
688
330
1F
100
AcDbEntity
  8
DRAW
  6
CONTINUOUS
 62
     7
100
AcDbLine
 10
478.7182938833328
 20
401.9783498867115
 30
0.0
 11
477.879293883333
 21
401.8333498867116
 31
0.0
  0
LINE
  5
689
330
1F
100
AcDbEntity
  8
DRAW
  6
CONTINUOUS
 62
     7
100
AcDbLine
 10
478.5732938833328
 20
402.8163498867114
 30
0.0
 11
478.7182938833328
 21
401.9783498867115
 31
0.0
  0
LINE
  5
68A
330
1F
100
AcDbEntity
  8
DRAW
  6
CONTINUOUS
 62
     7
100
AcDbLine
 10
479.852293883333
 20
403.0373498867115
 30
0.0
 11
478.5732938833328
 21
402.8163498867114
 31
0.0
  0
LINE
  5
68B
330
1F
100
AcDbEntity
  8
DRAW
  6
CONTINUOUS
 62
     7
100
AcDbLine
 10
479.996293883333
 20
402.1983498867116
 30
0.0
 11
479.852293883333
 21
403.0373498867115
 31
0.0
  0
LINE
  5
68C
330
1F
100
AcDbEntity
  8
DRAW
  6
CONTINUOUS
 62
     7
100
AcDbLine
 10
480.8352938833329
 20
402.3423498867116
 30
0.0
 11
479.996293883333
 21
402.1983498867116
 31
0.0
  0
LINE
  5
68D
330
1F
100
AcDbEntity
  8
DRAW
  6
CONTINUOUS
 62
     7
100
AcDbLine
 10
480.2172938833328
 20
400.9193498867116
 30
0.0
 11
481.0562938833331
 21
401.0643498867116
 31
0.0
  0
LINE
  5
68E
330
1F
100
AcDbEntity
  8
DRAW
  6
CONTINUOUS
 62
     7
100
AcDbLine
 10
480.3612938833329
 20
400.0803498867115
 30
0.0
 11
480.2172938833328
 21
400.9193498867116
 31
0.0
  0
LINE
  5
68F
330
1F
100
AcDbEntity
  8
DRAW
  6
CONTINUOUS
 62
     7
100
AcDbLine
 10
479.083293883333
 20
399.8603498867115
 30
0.0
 11
480.3612938833329
 21
400.0803498867115
 31
0.0
  0
LINE
  5
690
330
1F
100
AcDbEntity
  8
DRAW
  6
CONTINUOUS
 62
     7
100
AcDbLine
 10
478.9382938833329
 20
400.6993498867116
 30
0.0
 11
479.083293883333
 21
399.8603498867115
 31
0.0
  0
LINE
  5
691
330
1F
100
AcDbEntity
  8
DRAW
  6
CONTINUOUS
 62
     7
100
AcDbLine
 10
475.0922938833329
 20
416.1483498867116
 30
0.0
 11
475.0922938833329
 21
407.1483498867115
 31
0.0
  0
ARC
  5
692
330
1F
100
AcDbEntity
  8
DRAW
  6
CONTINUOUS
 62
     7
100
AcDbCircle
 10
479.4672938833328
 20
412.4483498867116
 30
0.0
 40
2.299999999999998
100
AcDbArc
 50
199.791999999999
 51
359.7610000000001
  0
CIRCLE
  5
693
330
1F
100
AcDbEntity
  8
DRAW
  6
CONTINUOUS
 62
     7
100
AcDbCircle
 10
479.4672938833328
 20
412.3483498867113
 30
0.0
 40
2.5
  0
LINE
  5
694
330
1F
100
AcDbEntity
  8
DRAW
  6
CONTINUOUS
 62
     7
100
AcDbLine
 10
475.292293883333
 20
405.1483498867113
 30
0.0
 11
475.0922938833329
 21
405.1483498867113
 31
0.0
  0
LINE
  5
695
330
1F
100
AcDbEntity
  8
DRAW
  6
CONTINUOUS
 62
     7
100
AcDbLine
 10
475.292293883333
 20
407.1483498867115
 30
0.0
 11
475.292293883333
 21
406.9483498867115
 31
0.0
  0
ARC
  5
696
330
1F
100
AcDbEntity
  8
DRAW
  6
CONTINUOUS
 62
     7
100
AcDbCircle
 10
475.4922938833328
 20
406.9483498867115
 30
0.0
 40
0.2
100
AcDbArc
 50
90.0
 51
180.0
  0
LINE
  5
697
330
1F
100
AcDbEntity
  8
DRAW
  6
CONTINUOUS
 62
     7
100
AcDbLine
 10
475.292293883333
 20
405.6483498867113
 30
0.0
 11
475.292293883333
 21
405.1483498867113
 31
0.0
  0
LINE
  5
698
330
1F
100
AcDbEntity
  8
DRAW
  6
CONTINUOUS
 62
     7
100
AcDbLine
 10
475.292293883333
 20
405.6483498867113
 30
0.0
 11
475.292293883333
 21
406.9483498867115
 31
0.0
  0
LINE
  5
699
330
1F
100
AcDbEntity
  8
DRAW
  6
CONTINUOUS
 62
     7
100
AcDbLine
 10
475.292293883333
 20
407.1483498867115
 30
0.0
 11
475.0922938833329
 21
407.1483498867115
 31
0.0
  0
LINE
  5
69A
330
1F
100
AcDbEntity
  8
DRAW
  6
CONTINUOUS
 62
     7
100
AcDbLine
 10
481.6322938833329
 20
413.2273498867116
 30
0.0
 11
481.331293883333
 21
413.1753498867117
 31
0.0
  0
LINE
  5
69B
330
1F
100
AcDbEntity
  8
DRAW
  6
CONTINUOUS
 62
     7
100
AcDbLine
 10
477.4682938833328
 20
412.5103498867114
 30
0.0
 11
477.1672938833328
 21
412.4583498867115
 31
0.0
  0
LINE
  5
69C
330
1F
100
AcDbEntity
  8
DRAW
  6
CONTINUOUS
 62
     7
100
AcDbLine
 10
481.4662938833329
 20
412.3873498867117
 30
0.0
 11
481.767293883333
 21
412.4393498867116
 31
0.0
  0
LINE
  5
69D
330
1F
100
AcDbEntity
  8
DRAW
  6
CONTINUOUS
 62
     7
100
AcDbLine
 10
477.6042938833328
 20
411.7213498867115
 30
0.0
 11
477.3032938833329
 21
411.6703498867113
 31
0.0
  0
LINE
  5
69E
330
1F
100
AcDbEntity
  8
DRAW
  6
CONTINUOUS
 62
     7
100
AcDbLine
 10
481.331293883333
 20
413.1753498867117
 30
0.0
 11
480.878293883333
 21
413.0973498867116
 31
0.0
  0
LINE
  5
69F
330
1F
100
AcDbEntity
  8
DRAW
  6
CONTINUOUS
 62
     7
100
AcDbLine
 10
477.9212938833331
 20
412.5883498867116
 30
0.0
 11
477.4682938833328
 21
412.5103498867114
 31
0.0
  0
ARC
  5
6A0
330
1F
100
AcDbEntity
  8
DRAW
  6
CONTINUOUS
 62
     7
100
AcDbCircle
 10
479.4672938833328
 20
412.4483498867116
 30
0.0
 40
2.299999999999998
100
AcDbArc
 50
19.79199999999903
 51
179.7609999999999
  0
LINE
  5
6A1
330
1F
100
AcDbEntity
  8
DRAW
  6
CONTINUOUS
 62
     7
100
AcDbLine
 10
481.0132938833328
 20
412.3093498867116
 30
0.0
 11
481.4662938833329
 21
412.3873498867117
 31
0.0
  0
LINE
  5
6A2
330
1F
100
AcDbEntity
  8
DRAW
  6
CONTINUOUS
 62
     7
100
AcDbLine
 10
477.6042938833328
 20
411.7213498867115
 30
0.0
 11
478.0572938833328
 21
411.7993498867116
 31
0.0
  0
ARC
  5
6A3
330
1F
100
AcDbEntity
  8
DRAW
  6
CONTINUOUS
 62
     7
100
AcDbCircle
 10
479.4672938833328
 20
412.4483498867116
 30
0.0
 40
2.299999999999998
100
AcDbArc
 50
189.7769999999993
 51
199.791999999999
  0
ARC
  5
6A4
330
1F
100
AcDbEntity
  8
DRAW
  6
CONTINUOUS
 62
     7
100
AcDbCircle
 10
479.4672938833328
 20
412.4483498867116
 30
0.0
 40
2.299999999999998
100
AcDbArc
 50
359.7610000000001
 51
9.776999999999333
  0
ARC
  5
6A5
330
1F
100
AcDbEntity
  8
DRAW
  6
CONTINUOUS
 62
     7
100
AcDbCircle
 10
479.4672938833328
 20
412.4483498867116
 30
0.0
 40
2.299999999999998
100
AcDbArc
 50
179.7609999999999
 51
189.7769999999993
  0
ARC
  5
6A6
330
1F
100
AcDbEntity
  8
DRAW
  6
CONTINUOUS
 62
     7
100
AcDbCircle
 10
479.4672938833328
 20
412.4483498867116
 30
0.0
 40
2.299999999999998
100
AcDbArc
 50
9.776999999999333
 51
19.79199999999903
  0
LINE
  5
6A7
330
1F
100
AcDbEntity
  8
DRAW
  6
CONTINUOUS
 62
     7
100
AcDbLine
 10
478.2892938833328
 20
412.6513498867116
 30
0.0
 11
478.4252938833331
 21
411.8633498867116
 31
0.0
  0
LINE
  5
6A8
330
1F
100
AcDbEntity
  8
DRAW
  6
CONTINUOUS
 62
     7
100
AcDbLine
 10
478.0572938833328
 20
411.7993498867116
 30
0.0
 11
478.4252938833331
 21
411.8633498867116
 31
0.0
  0
LINE
  5
6A9
330
1F
100
AcDbEntity
  8
DRAW
  6
CONTINUOUS
 62
     7
100
AcDbLine
 10
477.9212938833331
 20
412.5883498867116
 30
0.0
 11
478.2892938833328
 21
412.6513498867116
 31
0.0
  0
LINE
  5
6AA
330
1F
100
AcDbEntity
  8
DRAW
  6
CONTINUOUS
 62
     7
100
AcDbLine
 10
480.5102938833329
 20
413.0343498867116
 30
0.0
 11
480.6462938833329
 21
412.2463498867116
 31
0.0
  0
LINE
  5
6AB
330
1F
100
AcDbEntity
  8
DRAW
  6
CONTINUOUS
 62
     7
100
AcDbLine
 10
481.0132938833328
 20
412.3093498867116
 30
0.0
 11
480.6462938833329
 21
412.2463498867116
 31
0.0
  0
LINE
  5
6AC
330
1F
100
AcDbEntity
  8
DRAW
  6
CONTINUOUS
 62
     7
100
AcDbLine
 10
480.878293883333
 20
413.0973498867116
 30
0.0
 11
480.5102938833329
 21
413.0343498867116
 31
0.0
  0
LINE
  5
6AD
330
1F
100
AcDbEntity
  8
DRAW
  6
CONTINUOUS
 62
     7
100
AcDbLine
 10
478.0572938833328
 20
411.7993498867116
 30
0.0
 11
478.0992938833328
 21
411.5543498867116
 31
0.0
  0
LINE
  5
6AE
330
1F
100
AcDbEntity
  8
DRAW
  6
CONTINUOUS
 62
     7
100
AcDbLine
 10
477.879293883333
 20
412.8333498867116
 30
0.0
 11
477.9212938833331
 21
412.5883498867116
 31
0.0
  0
LINE
  5
6AF
330
1F
100
AcDbEntity
  8
DRAW
  6
CONTINUOUS
 62
     7
100
AcDbLine
 10
481.0562938833331
 20
412.0643498867115
 30
0.0
 11
481.0132938833328
 21
412.3093498867116
 31
0.0
  0
LINE
  5
6B0
330
1F
100
AcDbEntity
  8
DRAW
  6
CONTINUOUS
 62
     7
100
AcDbLine
 10
480.878293883333
 20
413.0973498867116
 30
0.0
 11
480.8352938833329
 21
413.3423498867116
 31
0.0
  0
LINE
  5
6B1
330
1F
100
AcDbEntity
  8
DRAW
  6
CONTINUOUS
 62
     7
100
AcDbLine
 10
478.6852938833328
 20
412.8213498867116
 30
0.0
 11
478.855293883333
 21
411.8363498867116
 31
0.0
  0
LINE
  5
6B2
330
1F
100
AcDbEntity
  8
DRAW
  6
CONTINUOUS
 62
     7
100
AcDbLine
 10
478.8902938833329
 20
412.8563498867116
 30
0.0
 11
478.6852938833328
 21
412.8213498867116
 31
0.0
  0
LINE
  5
6B3
330
1F
100
AcDbEntity
  8
DRAW
  6
CONTINUOUS
 62
     7
100
AcDbLine
 10
477.879293883333
 20
412.8333498867116
 30
0.0
 11
478.6852938833328
 21
412.8213498867116
 31
0.0
  0
LINE
  5
6B4
330
1F
100
AcDbEntity
  8
DRAW
  6
CONTINUOUS
 62
     7
100
AcDbLine
 10
478.8542938833328
 20
413.0603498867116
 30
0.0
 11
478.8902938833329
 21
412.8563498867116
 31
0.0
  0
LINE
  5
6B5
330
1F
100
AcDbEntity
  8
DRAW
  6
CONTINUOUS
 62
     7
100
AcDbLine
 10
478.7182938833328
 20
412.9783498867117
 30
0.0
 11
478.8902938833329
 21
412.8563498867116
 31
0.0
  0
LINE
  5
6B6
330
1F
100
AcDbEntity
  8
DRAW
  6
CONTINUOUS
 62
     7
100
AcDbLine
 10
479.840293883333
 20
413.2303498867115
 30
0.0
 11
478.8542938833328
 21
413.0603498867116
 31
0.0
  0
LINE
  5
6B7
330
1F
100
AcDbEntity
  8
DRAW
  6
CONTINUOUS
 62
     7
100
AcDbLine
 10
478.5732938833328
 20
413.8163498867116
 30
0.0
 11
478.8542938833328
 21
413.0603498867116
 31
0.0
  0
LINE
  5
6B8
330
1F
100
AcDbEntity
  8
DRAW
  6
CONTINUOUS
 62
     7
100
AcDbLine
 10
479.8752938833329
 20
413.0263498867113
 30
0.0
 11
479.840293883333
 21
413.2303498867115
 31
0.0
  0
LINE
  5
6B9
330
1F
100
AcDbEntity
  8
DRAW
  6
CONTINUOUS
 62
     7
100
AcDbLine
 10
479.852293883333
 20
414.0373498867115
 30
0.0
 11
479.840293883333
 21
413.2303498867115
 31
0.0
  0
LINE
  5
6BA
330
1F
100
AcDbEntity
  8
DRAW
  6
CONTINUOUS
 62
     7
100
AcDbLine
 10
480.0792938833329
 20
413.0613498867115
 30
0.0
 11
479.8752938833329
 21
413.0263498867113
 31
0.0
  0
LINE
  5
6BB
330
1F
100
AcDbEntity
  8
DRAW
  6
CONTINUOUS
 62
     7
100
AcDbLine
 10
479.996293883333
 20
413.1983498867115
 30
0.0
 11
479.8752938833329
 21
413.0263498867113
 31
0.0
  0
LINE
  5
6BC
330
1F
100
AcDbEntity
  8
DRAW
  6
CONTINUOUS
 62
     7
100
AcDbLine
 10
480.2492938833329
 20
412.0763498867113
 30
0.0
 11
480.0792938833329
 21
413.0613498867115
 31
0.0
  0
LINE
  5
6BD
330
1F
100
AcDbEntity
  8
DRAW
  6
CONTINUOUS
 62
     7
100
AcDbLine
 10
480.8352938833329
 20
413.3423498867116
 30
0.0
 11
480.0792938833329
 21
413.0613498867115
 31
0.0
  0
LINE
  5
6BE
330
1F
100
AcDbEntity
  8
DRAW
  6
CONTINUOUS
 62
     7
100
AcDbLine
 10
480.0452938833331
 20
412.0413498867113
 30
0.0
 11
480.2492938833329
 21
412.0763498867113
 31
0.0
  0
LINE
  5
6BF
330
1F
100
AcDbEntity
  8
DRAW
  6
CONTINUOUS
 62
     7
100
AcDbLine
 10
481.0562938833331
 20
412.0643498867115
 30
0.0
 11
480.2492938833329
 21
412.0763498867113
 31
0.0
  0
LINE
  5
6C0
330
1F
100
AcDbEntity
  8
DRAW
  6
CONTINUOUS
 62
     7
100
AcDbLine
 10
480.0802938833331
 20
411.8363498867116
 30
0.0
 11
480.0452938833331
 21
412.0413498867113
 31
0.0
  0
LINE
  5
6C1
330
1F
100
AcDbEntity
  8
DRAW
  6
CONTINUOUS
 62
     7
100
AcDbLine
 10
480.2172938833328
 20
411.9193498867116
 30
0.0
 11
480.0452938833331
 21
412.0413498867113
 31
0.0
  0
LINE
  5
6C2
330
1F
100
AcDbEntity
  8
DRAW
  6
CONTINUOUS
 62
     7
100
AcDbLine
 10
479.095293883333
 20
411.6663498867116
 30
0.0
 11
480.0802938833331
 21
411.8363498867116
 31
0.0
  0
LINE
  5
6C3
330
1F
100
AcDbEntity
  8
DRAW
  6
CONTINUOUS
 62
     7
100
AcDbLine
 10
480.3612938833329
 20
411.0803498867116
 30
0.0
 11
480.0802938833331
 21
411.8363498867116
 31
0.0
  0
LINE
  5
6C4
330
1F
100
AcDbEntity
  8
DRAW
  6
CONTINUOUS
 62
     7
100
AcDbLine
 10
479.059293883333
 20
411.8713498867116
 30
0.0
 11
479.095293883333
 21
411.6663498867116
 31
0.0
  0
LINE
  5
6C5
330
1F
100
AcDbEntity
  8
DRAW
  6
CONTINUOUS
 62
     7
100
AcDbLine
 10
479.083293883333
 20
410.8603498867116
 30
0.0
 11
479.095293883333
 21
411.6663498867116
 31
0.0
  0
LINE
  5
6C6
330
1F
100
AcDbEntity
  8
DRAW
  6
CONTINUOUS
 62
     7
100
AcDbLine
 10
478.0992938833328
 20
411.5543498867116
 30
0.0
 11
478.855293883333
 21
411.8363498867116
 31
0.0
  0
LINE
  5
6C7
330
1F
100
AcDbEntity
  8
DRAW
  6
CONTINUOUS
 62
     7
100
AcDbLine
 10
478.855293883333
 20
411.8363498867116
 30
0.0
 11
479.059293883333
 21
411.8713498867116
 31
0.0
  0
LINE
  5
6C8
330
1F
100
AcDbEntity
  8
DRAW
  6
CONTINUOUS
 62
     7
100
AcDbLine
 10
478.9382938833329
 20
411.6993498867116
 30
0.0
 11
479.059293883333
 21
411.8713498867116
 31
0.0
  0
LINE
  5
6C9
330
1F
100
AcDbEntity
  8
DRAW
  6
CONTINUOUS
 62
     7
100
AcDbLine
 10
478.0992938833328
 20
411.5543498867116
 30
0.0
 11
478.9382938833329
 21
411.6993498867116
 31
0.0
  0
LINE
  5
6CA
330
1F
100
AcDbEntity
  8
DRAW
  6
CONTINUOUS
 62
     7
100
AcDbLine
 10
478.7182938833328
 20
412.9783498867117
 30
0.0
 11
477.879293883333
 21
412.8333498867116
 31
0.0
  0
LINE
  5
6CB
330
1F
100
AcDbEntity
  8
DRAW
  6
CONTINUOUS
 62
     7
100
AcDbLine
 10
478.5732938833328
 20
413.8163498867116
 30
0.0
 11
478.7182938833328
 21
412.9783498867117
 31
0.0
  0
LINE
  5
6CC
330
1F
100
AcDbEntity
  8
DRAW
  6
CONTINUOUS
 62
     7
100
AcDbLine
 10
479.852293883333
 20
414.0373498867115
 30
0.0
 11
478.5732938833328
 21
413.8163498867116
 31
0.0
  0
LINE
  5
6CD
330
1F
100
AcDbEntity
  8
DRAW
  6
CONTINUOUS
 62
     7
100
AcDbLine
 10
479.996293883333
 20
413.1983498867115
 30
0.0
 11
479.852293883333
 21
414.0373498867115
 31
0.0
  0
LINE
  5
6CE
330
1F
100
AcDbEntity
  8
DRAW
  6
CONTINUOUS
 62
     7
100
AcDbLine
 10
480.8352938833329
 20
413.3423498867116
 30
0.0
 11
479.996293883333
 21
413.1983498867115
 31
0.0
  0
LINE
  5
6CF
330
1F
100
AcDbEntity
  8
DRAW
  6
CONTINUOUS
 62
     7
100
AcDbLine
 10
480.2172938833328
 20
411.9193498867116
 30
0.0
 11
481.0562938833331
 21
412.0643498867115
 31
0.0
  0
LINE
  5
6D0
330
1F
100
AcDbEntity
  8
DRAW
  6
CONTINUOUS
 62
     7
100
AcDbLine
 10
480.3612938833329
 20
411.0803498867116
 30
0.0
 11
480.2172938833328
 21
411.9193498867116
 31
0.0
  0
LINE
  5
6D1
330
1F
100
AcDbEntity
  8
DRAW
  6
CONTINUOUS
 62
     7
100
AcDbLine
 10
479.083293883333
 20
410.8603498867116
 30
0.0
 11
480.3612938833329
 21
411.0803498867116
 31
0.0
  0
LINE
  5
6D2
330
1F
100
AcDbEntity
  8
DRAW
  6
CONTINUOUS
 62
     7
100
AcDbLine
 10
478.9382938833329
 20
411.6993498867116
 30
0.0
 11
479.083293883333
 21
410.8603498867116
 31
0.0
  0
POINT
  5
6D3
330
1F
100
AcDbEntity
  8
DRAW
  6
CONTINUOUS
 62
     7
100
AcDbPoint
 10
475.4922938833328
 20
418.1483498867113
 30
0.0
  0
POINT
  5
6D4
330
1F
100
AcDbEntity
  8
DRAW
  6
CONTINUOUS
 62
     7
100
AcDbPoint
 10
475.0922938833329
 20
416.1483498867116
 30
0.0
  0
LINE
  5
6D5
330
1F
100
AcDbEntity
  8
DRAW
  6
CONTINUOUS
 62
     7
100
AcDbLine
 10
475.292293883333
 20
416.1483498867116
 30
0.0
 11
475.0922938833329
 21
416.1483498867116
 31
0.0
  0
ARC
  5
6D6
330
1F
100
AcDbEntity
  8
DRAW
  6
CONTINUOUS
 62
     7
100
AcDbCircle
 10
475.4922938833328
 20
417.9483498867115
 30
0.0
 40
0.2
100
AcDbArc
 50
90.0
 51
180.0
  0
LINE
  5
6D7
330
1F
100
AcDbEntity
  8
DRAW
  6
CONTINUOUS
 62
     7
100
AcDbLine
 10
475.292293883333
 20
416.6483498867115
 30
0.0
 11
475.292293883333
 21
416.1483498867116
 31
0.0
  0
LINE
  5
6D8
330
1F
100
AcDbEntity
  8
DRAW
  6
CONTINUOUS
 62
     7
100
AcDbLine
 10
475.292293883333
 20
416.6483498867115
 30
0.0
 11
475.292293883333
 21
417.9483498867115
 31
0.0
  0
DIMENSION
  5
6D9
330
1F
100
AcDbEntity
  8
DIM
  6
CONTINUOUS
 62
     3
100
AcDbDimension
  2
*D8
 10
506.7092938833329
 20
426.3463498867115
 30
0.0
 11
535.9592938833328
 21
426.3463498867115
 31
0.0
 70
   160
  1
<>
  3
DSTYLE4
100
AcDbAlignedDimension
 13
567.5092938833329
 23
397.6483498867115
 33
0.0
 14
506.7092938833329
 24
400.6483498867113
 34
0.0
100
AcDbRotatedDimension
  0
LINE
  5
6DA
330
1F
100
AcDbEntity
  8
DRAW
  6
CONTINUOUS
 62
     7
100
AcDbLine
 10
506.7092938833329
 20
406.1483498867115
 30
0.0
 11
506.7092938833329
 21
395.1483498867115
 31
0.0
  0
LINE
  5
6DB
330
1F
100
AcDbEntity
  8
DRAW
  6
CONTINUOUS
 62
     7
100
AcDbLine
 10
554.5092938833329
 20
405.1483498867113
 30
0.0
 11
554.5092938833329
 21
398.6483498867115
 31
0.0
  0
LINE
  5
6DC
330
1F
100
AcDbEntity
  8
DRAW
  6
CONTINUOUS
 62
     7
100
AcDbLine
 10
508.7092938833329
 20
405.1483498867113
 30
0.0
 11
508.7092938833329
 21
398.6483498867115
 31
0.0
  0
LINE
  5
6DD
330
1F
100
AcDbEntity
  8
DRAW
  6
CONTINUOUS
 62
     7
100
AcDbLine
 10
492.592293883333
 20
405.1483498867113
 30
0.0
 11
492.592293883333
 21
398.6483498867115
 31
0.0
  0
LINE
  5
6DE
330
1F
100
AcDbEntity
  8
DRAW
  6
CONTINUOUS
 62
     7
100
AcDbLine
 10
508.7092938833329
 20
398.6483498867115
 30
0.0
 11
554.3092938833328
 21
398.6483498867115
 31
0.0
  0
LINE
  5
6DF
330
1F
100
AcDbEntity
  8
DRAW
  6
CONTINUOUS
 62
     7
100
AcDbLine
 10
565.5092938833329
 20
396.6483498867115
 30
0.0
 11
513.0092938833329
 21
396.6483498867115
 31
0.0
  0
LINE
  5
6E0
330
1F
100
AcDbEntity
  8
DRAW
  6
CONTINUOUS
 62
     7
100
AcDbLine
 10
513.0092938833329
 20
396.6483498867115
 30
0.0
 11
513.0092938833329
 21
378.6483498867115
 31
0.0
  0
LINE
  5
6E1
330
1F
100
AcDbEntity
  8
DRAW
  6
CONTINUOUS
 62
     7
100
AcDbLine
 10
483.831293883333
 20
381.8873498867116
 30
0.0
 11
483.742293883333
 21
382.8983498867115
 31
0.0
  0
LINE
  5
6E2
330
1F
100
AcDbEntity
  8
DRAW
  6
CONTINUOUS
 62
     7
100
AcDbLine
 10
482.942293883333
 20
382.8983498867115
 30
0.0
 11
482.8542938833328
 21
381.8873498867116
 31
0.0
  0
ARC
  5
6E3
330
1F
100
AcDbEntity
  8
DRAW
  6
CONTINUOUS
 62
     7
100
AcDbCircle
 10
483.3422938833328
 20
381.3983498867115
 30
0.0
 40
2.479999999999999
100
AcDbArc
 50
0.2419999999998077
 51
68.65799999999723
  0
ARC
  5
6E4
330
1F
100
AcDbEntity
  8
DRAW
  6
CONTINUOUS
 62
     7
100
AcDbCircle
 10
487.224293883333
 20
384.0613498867115
 30
0.0
 40
3.0
100
AcDbArc
 50
188.5120000000001
 51
240.3879999999992
  0
LINE
  5
6E5
330
1F
100
AcDbEntity
  8
DRAW
  6
CONTINUOUS
 62
     7
100
AcDbLine
 10
487.6922938833329
 20
371.9983498867116
 30
0.0
 11
487.6922938833329
 21
369.7983498867116
 31
0.0
  0
LINE
  5
6E6
330
1F
100
AcDbEntity
  8
DRAW
  6
CONTINUOUS
 62
     7
100
AcDbLine
 10
489.2922938833328
 20
369.7983498867116
 30
0.0
 11
489.2922938833328
 21
371.9983498867116
 31
0.0
  0
LINE
  5
6E7
330
1F
100
AcDbEntity
  8
DRAW
  6
CONTINUOUS
 62
     7
100
AcDbLine
 10
483.0922938833329
 20
369.7983498867116
 30
0.0
 11
483.0922938833329
 21
371.9983498867116
 31
0.0
  0
LINE
  5
6E8
330
1F
100
AcDbEntity
  8
DRAW
  6
CONTINUOUS
 62
     7
100
AcDbLine
 10
484.592293883333
 20
371.9983498867116
 30
0.0
 11
484.592293883333
 21
369.7983498867116
 31
0.0
  0
LINE
  5
6E9
330
1F
100
AcDbEntity
  8
DRAW
  6
CONTINUOUS
 62
     7
100
AcDbLine
 10
486.192293883333
 20
369.7983498867116
 30
0.0
 11
486.192293883333
 21
371.9983498867116
 31
0.0
  0
LINE
  5
704
330
1F
100
AcDbEntity
  8
DRAW
  6
CONTINUOUS
 62
     7
100
AcDbLine
 10
487.6922938833329
 20
369.7983498867116
 30
0.0
 11
489.2922938833328
 21
369.7983498867116
 31
0.0
  0
LINE
  5
705
330
1F
100
AcDbEntity
  8
DRAW
  6
CONTINUOUS
 62
     7
100
AcDbLine
 10
484.592293883333
 20
369.7983498867116
 30
0.0
 11
486.192293883333
 21
369.7983498867116
 31
0.0
  0
LINE
  5
706
330
1F
100
AcDbEntity
  8
DRAW
  6
CONTINUOUS
 62
     7
100
AcDbLine
 10
489.2922938833328
 20
371.9983498867116
 30
0.0
 11
487.6922938833329
 21
371.9983498867116
 31
0.0
  0
LINE
  5
707
330
1F
100
AcDbEntity
  8
DRAW
  6
CONTINUOUS
 62
     7
100
AcDbLine
 10
486.192293883333
 20
371.9983498867116
 30
0.0
 11
484.592293883333
 21
371.9983498867116
 31
0.0
  0
LINE
  5
708
330
1F
100
AcDbEntity
  8
DRAW
  6
CONTINUOUS
 62
     7
100
AcDbLine
 10
482.8952938833329
 20
380.4443498867115
 30
0.0
 11
483.7902938833329
 21
380.4443498867115
 31
0.0
  0
LINE
  5
709
330
1F
100
AcDbEntity
  8
DRAW
  6
CONTINUOUS
 62
     7
100
AcDbLine
 10
482.9172938833329
 20
380.1903498867113
 30
0.0
 11
483.7682938833331
 21
380.1903498867113
 31
0.0
  0
LINE
  5
70A
330
1F
100
AcDbEntity
  8
DRAW
  6
CONTINUOUS
 62
     7
100
AcDbLine
 10
483.7902938833329
 20
382.3523498867116
 30
0.0
 11
482.8952938833329
 21
382.3523498867116
 31
0.0
  0
LINE
  5
70B
330
1F
100
AcDbEntity
  8
DRAW
  6
CONTINUOUS
 62
     7
100
AcDbLine
 10
484.8422938833329
 20
381.7983498867116
 30
0.0
 11
483.831293883333
 21
381.8873498867116
 31
0.0
  0
LINE
  5
70C
330
1F
100
AcDbEntity
  8
DRAW
  6
CONTINUOUS
 62
     7
100
AcDbLine
 10
483.742293883333
 20
379.8983498867115
 30
0.0
 11
483.831293883333
 21
380.9103498867116
 31
0.0
  0
LINE
  5
70D
330
1F
100
AcDbEntity
  8
DRAW
  6
CONTINUOUS
 62
     7
100
AcDbLine
 10
483.831293883333
 20
380.9103498867116
 30
0.0
 11
484.8422938833329
 21
380.9983498867115
 31
0.0
  0
LINE
  5
70E
330
1F
100
AcDbEntity
  8
DRAW
  6
CONTINUOUS
 62
     7
100
AcDbLine
 10
482.8542938833328
 20
380.9103498867116
 30
0.0
 11
482.942293883333
 21
379.8983498867115
 31
0.0
  0
LINE
  5
70F
330
1F
100
AcDbEntity
  8
DRAW
  6
CONTINUOUS
 62
     7
100
AcDbLine
 10
483.742293883333
 20
379.0323498867115
 30
0.0
 11
483.742293883333
 21
379.8983498867115
 31
0.0
  0
LINE
  5
710
330
1F
100
AcDbEntity
  8
DRAW
  6
CONTINUOUS
 62
     7
100
AcDbLine
 10
482.942293883333
 20
379.8983498867115
 30
0.0
 11
482.942293883333
 21
379.0323498867115
 31
0.0
  0
LINE
  5
711
330
1F
100
AcDbEntity
  8
DRAW
  6
CONTINUOUS
 62
     7
100
AcDbLine
 10
484.2962938833331
 20
380.9513498867115
 30
0.0
 11
484.2962938833331
 21
381.8463498867116
 31
0.0
  0
LINE
  5
712
330
1F
100
AcDbEntity
  8
DRAW
  6
CONTINUOUS
 62
     7
100
AcDbLine
 10
485.7422938833328
 20
381.4533498867116
 30
0.0
 11
485.8222938833328
 21
381.4093498867116
 31
0.0
  0
ARC
  5
713
330
1F
100
AcDbEntity
  8
DRAW
  6
CONTINUOUS
 62
     7
100
AcDbCircle
 10
483.3422938833328
 20
381.3983498867115
 30
0.0
 40
2.479999999999999
100
AcDbArc
 50
260.7180000000013
 51
279.2819999999985
  0
LINE
  5
714
330
1F
100
AcDbEntity
  8
DRAW
  6
CONTINUOUS
 62
     7
100
AcDbLine
 10
483.742293883333
 20
378.9513498867115
 30
0.0
 11
483.742293883333
 21
379.0323498867115
 31
0.0
  0
LINE
  5
715
330
1F
100
AcDbEntity
  8
DRAW
  6
CONTINUOUS
 62
     7
100
AcDbLine
 10
482.942293883333
 20
379.0323498867115
 30
0.0
 11
482.942293883333
 21
378.9513498867115
 31
0.0
  0
ARC
  5
716
330
1F
100
AcDbEntity
  8
DRAW
  6
CONTINUOUS
 62
     7
100
AcDbCircle
 10
483.3422938833328
 20
381.3983498867115
 30
0.0
 40
2.399999999999999
100
AcDbArc
 50
279.5939999999983
 51
1.30499999999926
  0
LINE
  5
717
330
1F
100
AcDbEntity
  8
DRAW
  6
CONTINUOUS
 62
     7
100
AcDbLine
 10
484.8422938833329
 20
380.9983498867115
 30
0.0
 11
484.8422938833329
 21
381.7983498867116
 31
0.0
  0
LINE
  5
718
330
1F
100
AcDbEntity
  8
DRAW
  6
CONTINUOUS
 62
     7
100
AcDbLine
 10
513.5092938833329
 20
378.5603498867116
 30
0.0
 11
513.5092938833329
 21
373.7373498867116
 31
0.0
  0
LINE
  5
719
330
1F
100
AcDbEntity
  8
DRAW
  6
CONTINUOUS
 62
     7
100
AcDbLine
 10
513.0092938833329
 20
373.6483498867115
 30
0.0
 11
513.0092938833329
 21
378.6483498867115
 31
0.0
  0
LINE
  5
71A
330
1F
100
AcDbEntity
  8
DRAW
  6
CONTINUOUS
 62
     7
100
AcDbLine
 10
514.5092938833329
 20
373.6483498867115
 30
0.0
 11
514.5092938833329
 21
378.6483498867115
 31
0.0
  0
LINE
  5
71B
330
1F
100
AcDbEntity
  8
DRAW
  6
CONTINUOUS
 62
     7
100
AcDbLine
 10
513.5092938833329
 20
373.7373498867116
 30
0.0
 11
513.0092938833329
 21
373.6483498867115
 31
0.0
  0
LINE
  5
71C
330
1F
100
AcDbEntity
  8
DRAW
  6
CONTINUOUS
 62
     7
100
AcDbLine
 10
513.5092938833329
 20
373.7373498867116
 30
0.0
 11
514.5092938833329
 21
373.9133498867116
 31
0.0
  0
LINE
  5
71D
330
1F
100
AcDbEntity
  8
DRAW
  6
CONTINUOUS
 62
     7
100
AcDbLine
 10
513.0092938833329
 20
373.6483498867115
 30
0.0
 11
514.5092938833329
 21
373.6483498867115
 31
0.0
  0
LINE
  5
71E
330
1F
100
AcDbEntity
  8
DRAW
  6
CONTINUOUS
 62
     7
100
AcDbLine
 10
513.0092938833329
 20
378.6483498867115
 30
0.0
 11
513.5092938833329
 21
378.5603498867116
 31
0.0
  0
LINE
  5
71F
330
1F
100
AcDbEntity
  8
DRAW
  6
CONTINUOUS
 62
     7
100
AcDbLine
 10
513.5092938833329
 20
378.5603498867116
 30
0.0
 11
514.5092938833329
 21
378.3843498867115
 31
0.0
  0
LINE
  5
720
330
1F
100
AcDbEntity
  8
DRAW
  6
CONTINUOUS
 62
     7
100
AcDbLine
 10
514.5092938833329
 20
378.6483498867115
 30
0.0
 11
513.0092938833329
 21
378.6483498867115
 31
0.0
  0
LINE
  5
721
330
1F
100
AcDbEntity
  8
DRAW
  6
CONTINUOUS
 62
     7
100
AcDbLine
 10
507.8642938833328
 20
392.1483498867115
 30
0.0
 11
506.7092938833329
 21
394.1483498867113
 31
0.0
  0
LINE
  5
722
330
1F
100
AcDbEntity
  8
DRAW
  6
CONTINUOUS
 62
     7
100
AcDbLine
 10
509.809293883333
 20
394.1483498867113
 30
0.0
 11
509.6752938833331
 21
393.6483498867115
 31
0.0
  0
LINE
  5
723
330
1F
100
AcDbEntity
  8
DRAW
  6
CONTINUOUS
 62
     7
100
AcDbLine
 10
511.009293883333
 20
394.1483498867113
 30
0.0
 11
511.009293883333
 21
393.6483498867115
 31
0.0
  0
LINE
  5
724
330
1F
100
AcDbEntity
  8
DRAW
  6
CONTINUOUS
 62
     7
100
AcDbLine
 10
482.9172938833329
 20
382.6073498867116
 30
0.0
 11
483.7682938833331
 21
382.6073498867116
 31
0.0
  0
LINE
  5
725
330
1F
100
AcDbEntity
  8
DRAW
  6
CONTINUOUS
 62
     7
100
AcDbLine
 10
483.742293883333
 20
382.8983498867115
 30
0.0
 11
483.742293883333
 21
383.7653498867116
 31
0.0
  0
LINE
  5
726
330
1F
100
AcDbEntity
  8
DRAW
  6
CONTINUOUS
 62
     7
100
AcDbLine
 10
482.942293883333
 20
383.7653498867116
 30
0.0
 11
482.942293883333
 21
382.8983498867115
 31
0.0
  0
LINE
  5
727
330
1F
100
AcDbEntity
  8
DRAW
  6
CONTINUOUS
 62
     7
100
AcDbLine
 10
484.2452938833329
 20
383.7083498867116
 30
0.0
 11
484.2572938833328
 21
383.6173498867117
 31
0.0
  0
ARC
  5
728
330
1F
100
AcDbEntity
  8
DRAW
  6
CONTINUOUS
 62
     7
100
AcDbCircle
 10
483.3422938833328
 20
381.3983498867115
 30
0.0
 40
2.479999999999999
100
AcDbArc
 50
80.71800000000136
 51
80.79300000000213
  0
ARC
  5
729
330
1F
100
AcDbEntity
  8
DRAW
  6
CONTINUOUS
 62
     7
100
AcDbCircle
 10
483.3422938833328
 20
381.3983498867115
 30
0.0
 40
2.479999999999999
100
AcDbArc
 50
80.79300000000213
 51
99.28199999999868
  0
LINE
  5
72A
330
1F
100
AcDbEntity
  8
DRAW
  6
CONTINUOUS
 62
     7
100
AcDbLine
 10
483.742293883333
 20
383.7653498867116
 30
0.0
 11
483.742293883333
 21
383.8463498867115
 31
0.0
  0
LINE
  5
72B
330
1F
100
AcDbEntity
  8
DRAW
  6
CONTINUOUS
 62
     7
100
AcDbLine
 10
482.942293883333
 20
383.8463498867115
 30
0.0
 11
482.942293883333
 21
383.7653498867116
 31
0.0
  0
ARC
  5
72C
330
1F
100
AcDbEntity
  8
DRAW
  6
CONTINUOUS
 62
     7
100
AcDbCircle
 10
483.3422938833328
 20
381.3983498867115
 30
0.0
 40
2.399999999999999
100
AcDbArc
 50
67.59399999999899
 51
80.40600000000157
  0
LINE
  5
72D
330
1F
100
AcDbEntity
  8
DRAW
  6
CONTINUOUS
 62
     7
100
AcDbLine
 10
486.7962938833328
 20
390.7013498867115
 30
0.0
 11
486.7962938833328
 21
391.5963498867116
 31
0.0
  0
LINE
  5
72E
330
1F
100
AcDbEntity
  8
DRAW
  6
CONTINUOUS
 62
     7
100
AcDbLine
 10
485.3952938833328
 20
390.1943498867116
 30
0.0
 11
486.2902938833331
 21
390.1943498867116
 31
0.0
  0
LINE
  5
72F
330
1F
100
AcDbEntity
  8
DRAW
  6
CONTINUOUS
 62
     7
100
AcDbLine
 10
484.8882938833328
 20
391.5963498867116
 30
0.0
 11
484.8882938833328
 21
390.7013498867115
 31
0.0
  0
LINE
  5
730
330
1F
100
AcDbEntity
  8
DRAW
  6
CONTINUOUS
 62
     7
100
AcDbLine
 10
484.634293883333
 20
390.7233498867116
 30
0.0
 11
484.634293883333
 21
391.5743498867115
 31
0.0
  0
LINE
  5
731
330
1F
100
AcDbEntity
  8
DRAW
  6
CONTINUOUS
 62
     7
100
AcDbLine
 10
487.0512938833329
 20
390.7233498867116
 30
0.0
 11
487.0512938833329
 21
391.5743498867115
 31
0.0
  0
LINE
  5
732
330
1F
100
AcDbEntity
  8
DRAW
  6
CONTINUOUS
 62
     7
100
AcDbLine
 10
485.3542938833329
 20
391.6373498867116
 30
0.0
 11
484.3422938833328
 21
391.5483498867116
 31
0.0
  0
LINE
  5
733
330
1F
100
AcDbEntity
  8
DRAW
  6
CONTINUOUS
 62
     7
100
AcDbLine
 10
485.4422938833329
 20
392.6483498867115
 30
0.0
 11
485.3542938833329
 21
391.6373498867116
 31
0.0
  0
LINE
  5
734
330
1F
100
AcDbEntity
  8
DRAW
  6
CONTINUOUS
 62
     7
100
AcDbLine
 10
486.2422938833326
 20
392.6483498867115
 30
0.0
 11
485.4422938833329
 21
392.6483498867115
 31
0.0
  0
LINE
  5
735
330
1F
100
AcDbEntity
  8
DRAW
  6
CONTINUOUS
 62
     7
100
AcDbLine
 10
486.3312938833328
 20
391.6373498867116
 30
0.0
 11
486.2422938833326
 21
392.6483498867115
 31
0.0
  0
LINE
  5
736
330
1F
100
AcDbEntity
  8
DRAW
  6
CONTINUOUS
 62
     7
100
AcDbLine
 10
487.3422938833328
 20
391.5483498867116
 30
0.0
 11
486.3312938833328
 21
391.6373498867116
 31
0.0
  0
LINE
  5
737
330
1F
100
AcDbEntity
  8
DRAW
  6
CONTINUOUS
 62
     7
100
AcDbLine
 10
486.3312938833328
 20
390.6603498867116
 30
0.0
 11
487.3422938833328
 21
390.7483498867116
 31
0.0
  0
LINE
  5
738
330
1F
100
AcDbEntity
  8
DRAW
  6
CONTINUOUS
 62
     7
100
AcDbLine
 10
486.2422938833326
 20
389.6483498867116
 30
0.0
 11
486.3312938833328
 21
390.6603498867116
 31
0.0
  0
LINE
  5
739
330
1F
100
AcDbEntity
  8
DRAW
  6
CONTINUOUS
 62
     7
100
AcDbLine
 10
485.4422938833329
 20
389.6483498867116
 30
0.0
 11
486.2422938833326
 21
389.6483498867116
 31
0.0
  0
LINE
  5
73A
330
1F
100
AcDbEntity
  8
DRAW
  6
CONTINUOUS
 62
     7
100
AcDbLine
 10
485.3542938833329
 20
390.6603498867116
 30
0.0
 11
485.4422938833329
 21
389.6483498867116
 31
0.0
  0
LINE
  5
73B
330
1F
100
AcDbEntity
  8
DRAW
  6
CONTINUOUS
 62
     7
100
AcDbLine
 10
484.3422938833328
 20
390.7483498867116
 30
0.0
 11
485.3542938833329
 21
390.6603498867116
 31
0.0
  0
ARC
  5
73C
330
1F
100
AcDbEntity
  8
DRAW
  6
CONTINUOUS
 62
     7
100
AcDbCircle
 10
485.8422938833329
 20
391.1483498867115
 30
0.0
 40
2.5
100
AcDbArc
 50
155.0000000000006
 51
204.9999999999993
  0
ARC
  5
73D
330
1F
100
AcDbEntity
  8
DRAW
  6
CONTINUOUS
 62
     7
100
AcDbCircle
 10
485.8422938833329
 20
391.1483498867115
 30
0.0
 40
2.5
100
AcDbArc
 50
204.9999999999993
 51
228.5780000000011
  0
ARC
  5
73E
330
1F
100
AcDbEntity
  8
DRAW
  6
CONTINUOUS
 62
     7
100
AcDbCircle
 10
485.8422938833329
 20
391.1483498867115
 30
0.0
 40
2.5
100
AcDbArc
 50
131.4219999999985
 51
155.0000000000006
  0
ARC
  5
73F
330
1F
100
AcDbEntity
  8
DRAW
  6
CONTINUOUS
 62
     7
100
AcDbCircle
 10
485.8422938833329
 20
391.1483498867115
 30
0.0
 40
2.5
100
AcDbArc
 50
228.5780000000011
 51
131.4219999999985
  0
LINE
  5
740
330
1F
100
AcDbEntity
  8
DRAW
  6
CONTINUOUS
 62
     7
100
AcDbLine
 10
488.209293883333
 20
391.5483498867116
 30
0.0
 11
487.3422938833328
 21
391.5483498867116
 31
0.0
  0
LINE
  5
741
330
1F
100
AcDbEntity
  8
DRAW
  6
CONTINUOUS
 62
     7
100
AcDbLine
 10
484.3422938833328
 20
391.5483498867116
 30
0.0
 11
483.4762938833327
 21
391.5483498867116
 31
0.0
  0
LINE
  5
742
330
1F
100
AcDbEntity
  8
DRAW
  6
CONTINUOUS
 62
     7
100
AcDbLine
 10
483.4762938833327
 20
390.7483498867116
 30
0.0
 11
484.3422938833328
 21
390.7483498867116
 31
0.0
  0
LINE
  5
743
330
1F
100
AcDbEntity
  8
DRAW
  6
CONTINUOUS
 62
     7
100
AcDbLine
 10
487.3422938833328
 20
390.7483498867116
 30
0.0
 11
488.209293883333
 21
390.7483498867116
 31
0.0
  0
ARC
  5
744
330
1F
100
AcDbEntity
  8
DRAW
  6
CONTINUOUS
 62
     7
100
AcDbCircle
 10
485.8422938833329
 20
391.1483498867115
 30
0.0
 40
2.399999999999999
100
AcDbArc
 50
270.0
 51
350.4070000000003
  0
LINE
  5
745
330
1F
100
AcDbEntity
  8
DRAW
  6
CONTINUOUS
 62
     7
100
AcDbLine
 10
488.2902938833331
 20
390.7483498867116
 30
0.0
 11
488.209293883333
 21
390.7483498867116
 31
0.0
  0
ARC
  5
746
330
1F
100
AcDbEntity
  8
DRAW
  6
CONTINUOUS
 62
     7
100
AcDbCircle
 10
485.8422938833329
 20
391.1483498867115
 30
0.0
 40
2.479999999999999
100
AcDbArc
 50
350.7179999999994
 51
9.282000000000506
  0
LINE
  5
747
330
1F
100
AcDbEntity
  8
DRAW
  6
CONTINUOUS
 62
     7
100
AcDbLine
 10
488.2902938833331
 20
391.5483498867116
 30
0.0
 11
488.209293883333
 21
391.5483498867116
 31
0.0
  0
ARC
  5
748
330
1F
100
AcDbEntity
  8
DRAW
  6
CONTINUOUS
 62
     7
100
AcDbCircle
 10
485.8422938833329
 20
391.1483498867115
 30
0.0
 40
2.399999999999999
100
AcDbArc
 50
9.592999999999683
 51
170.4070000000003
  0
LINE
  5
749
330
1F
100
AcDbEntity
  8
DRAW
  6
CONTINUOUS
 62
     7
100
AcDbLine
 10
483.3952938833329
 20
391.5483498867116
 30
0.0
 11
483.4762938833327
 21
391.5483498867116
 31
0.0
  0
ARC
  5
74A
330
1F
100
AcDbEntity
  8
DRAW
  6
CONTINUOUS
 62
     7
100
AcDbCircle
 10
485.8422938833329
 20
391.1483498867115
 30
0.0
 40
2.479999999999999
100
AcDbArc
 50
170.7179999999994
 51
189.2820000000005
  0
LINE
  5
74B
330
1F
100
AcDbEntity
  8
DRAW
  6
CONTINUOUS
 62
     7
100
AcDbLine
 10
483.3952938833329
 20
390.7483498867116
 30
0.0
 11
483.4762938833327
 21
390.7483498867116
 31
0.0
  0
ARC
  5
74C
330
1F
100
AcDbEntity
  8
DRAW
  6
CONTINUOUS
 62
     7
100
AcDbCircle
 10
485.8422938833329
 20
391.1483498867115
 30
0.0
 40
2.399999999999999
100
AcDbArc
 50
189.5929999999994
 51
270.0
  0
LINE
  5
74D
330
1F
100
AcDbEntity
  8
DRAW
  6
CONTINUOUS
 62
     7
100
AcDbLine
 10
486.2902938833331
 20
392.1023498867116
 30
0.0
 11
485.3952938833328
 21
392.1023498867116
 31
0.0
  0
POINT
  5
74E
330
1F
100
AcDbEntity
  8
DRAW
  6
CONTINUOUS
 62
     7
100
AcDbPoint
 10
509.6752938833331
 20
393.6483498867115
 30
0.0
  0
LINE
  5
74F
330
1F
100
AcDbEntity
  8
DRAW
  6
CONTINUOUS
 62
     7
100
AcDbLine
 10
509.6752938833331
 20
393.6483498867115
 30
0.0
 11
511.009293883333
 21
393.6483498867115
 31
0.0
  0
LINE
  5
750
330
1F
100
AcDbEntity
  8
DRAW
  6
CONTINUOUS
 62
     7
100
AcDbLine
 10
511.009293883333
 20
389.1483498867115
 30
0.0
 11
510.5592938833328
 21
391.1483498867115
 31
0.0
  0
LINE
  5
751
330
1F
100
AcDbEntity
  8
DRAW
  6
CONTINUOUS
 62
     7
100
AcDbLine
 10
511.009293883333
 20
393.1483498867115
 30
0.0
 11
510.5592938833328
 21
391.1483498867115
 31
0.0
  0
LINE
  5
752
330
1F
100
AcDbEntity
  8
DRAW
  6
CONTINUOUS
 62
     7
100
AcDbLine
 10
509.6752938833331
 20
393.6483498867115
 30
0.0
 11
509.273293883333
 21
392.1483498867115
 31
0.0
  0
LINE
  5
753
330
1F
100
AcDbEntity
  8
DRAW
  6
CONTINUOUS
 62
     7
100
AcDbLine
 10
509.273293883333
 20
392.1483498867115
 30
0.0
 11
507.8642938833328
 21
392.1483498867115
 31
0.0
  0
LINE
  5
754
330
1F
100
AcDbEntity
  8
DRAW
  6
CONTINUOUS
 62
     7
100
AcDbLine
 10
511.009293883333
 20
393.1483498867115
 30
0.0
 11
511.009293883333
 21
389.1483498867115
 31
0.0
  0
LINE
  5
755
330
1F
100
AcDbEntity
  8
DRAW
  6
CONTINUOUS
 62
     7
100
AcDbLine
 10
511.009293883333
 20
393.6483498867115
 30
0.0
 11
511.009293883333
 21
393.1483498867115
 31
0.0
  0
LINE
  5
756
330
1F
100
AcDbEntity
  8
DRAW
  6
CONTINUOUS
 62
     7
100
AcDbLine
 10
492.3922938833329
 20
397.6483498867115
 30
0.0
 11
492.3922938833329
 21
396.6483498867115
 31
0.0
  0
LINE
  5
757
330
1F
100
AcDbEntity
  8
DRAW
  6
CONTINUOUS
 62
     7
100
AcDbLine
 10
492.3922938833329
 20
398.6483498867115
 30
0.0
 11
492.3922938833329
 21
398.4483498867115
 31
0.0
  0
LINE
  5
758
330
1F
100
AcDbEntity
  8
DRAW
  6
CONTINUOUS
 62
     7
100
AcDbLine
 10
492.3922938833329
 20
398.6483498867115
 30
0.0
 11
492.592293883333
 21
398.6483498867115
 31
0.0
  0
LINE
  5
759
330
1F
100
AcDbEntity
  8
DRAW
  6
CONTINUOUS
 62
     7
100
AcDbLine
 10
492.592293883333
 20
396.6483498867115
 30
0.0
 11
492.3922938833329
 21
396.6483498867115
 31
0.0
  0
ARC
  5
75A
330
1F
100
AcDbEntity
  8
DRAW
  6
CONTINUOUS
 62
     7
100
AcDbCircle
 10
492.1922938833329
 20
398.4483498867115
 30
0.0
 40
0.2
100
AcDbArc
 50
0.0
 51
90.0
  0
LINE
  5
75B
330
1F
100
AcDbEntity
  8
DRAW
  6
CONTINUOUS
 62
     7
100
AcDbLine
 10
492.3922938833329
 20
397.6483498867115
 30
0.0
 11
492.3922938833329
 21
398.4483498867115
 31
0.0
  0
LINE
  5
75C
330
1F
100
AcDbEntity
  8
DRAW
  6
CONTINUOUS
 62
     7
100
AcDbLine
 10
506.7092938833329
 20
394.1483498867113
 30
0.0
 11
506.7092938833329
 21
395.1483498867115
 31
0.0
  0
LINE
  5
75D
330
1F
100
AcDbEntity
  8
DRAW
  6
CONTINUOUS
 62
     7
100
AcDbLine
 10
509.809293883333
 20
394.1483498867113
 30
0.0
 11
511.009293883333
 21
394.1483498867113
 31
0.0
  0
POINT
  5
75E
330
1F
100
AcDbEntity
  8
DRAW
  6
CONTINUOUS
 62
     7
100
AcDbPoint
 10
506.7092938833329
 20
400.6483498867113
 30
0.0
  0
LINE
  5
75F
330
1F
100
AcDbEntity
  8
DRAW
  6
CONTINUOUS
 62
     7
100
AcDbLine
 10
566.2092938833327
 20
369.6483498867115
 30
0.0
 11
566.2092938833327
 21
372.1483498867115
 31
0.0
  0
LINE
  5
760
330
1F
100
AcDbEntity
  8
DRAW
  6
CONTINUOUS
 62
     7
100
AcDbLine
 10
565.5092938833329
 20
369.6483498867115
 30
0.0
 11
566.2092938833327
 21
369.6483498867115
 31
0.0
  0
LINE
  5
761
330
1F
100
AcDbEntity
  8
DRAW
  6
CONTINUOUS
 62
     7
100
AcDbLine
 10
566.2092938833327
 20
372.1483498867115
 30
0.0
 11
565.5092938833329
 21
372.1483498867115
 31
0.0
  0
LINE
  5
762
330
1F
100
AcDbEntity
  8
DRAW
  6
CONTINUOUS
 62
     7
100
AcDbLine
 10
554.5092938833329
 20
398.6483498867115
 30
0.0
 11
565.5092938833329
 21
398.6483498867115
 31
0.0
  0
LINE
  5
763
330
1F
100
AcDbEntity
  8
DRAW
  6
CONTINUOUS
 62
     7
100
AcDbLine
 10
554.3092938833328
 20
398.6483498867115
 30
0.0
 11
554.5092938833329
 21
398.6483498867115
 31
0.0
  0
POINT
  5
764
330
1F
100
AcDbEntity
  8
DRAW
  6
CONTINUOUS
 62
     7
100
AcDbPoint
 10
565.5092938833329
 20
398.6483498867115
 30
0.0
  0
POINT
  5
765
330
1F
100
AcDbEntity
  8
DRAW
  6
CONTINUOUS
 62
     7
100
AcDbPoint
 10
567.5092938833329
 20
397.6483498867115
 30
0.0
  0
LINE
  5
766
330
1F
100
AcDbEntity
  8
DRAW
  6
CONTINUOUS
 62
     7
100
AcDbLine
 10
565.5092938833329
 20
398.4483498867115
 30
0.0
 11
565.5092938833329
 21
396.6483498867115
 31
0.0
  0
ARC
  5
767
330
1F
100
AcDbEntity
  8
DRAW
  6
CONTINUOUS
 62
     7
100
AcDbCircle
 10
566.5092938833329
 20
397.6483498867115
 30
0.0
 40
1.0
100
AcDbArc
 50
0.0
 51
90.0
  0
LINE
  5
768
330
1F
100
AcDbEntity
  8
DRAW
  6
CONTINUOUS
 62
     7
100
AcDbLine
 10
565.5092938833329
 20
398.6483498867115
 30
0.0
 11
566.5092938833329
 21
398.6483498867115
 31
0.0
  0
LINE
  5
769
330
1F
100
AcDbEntity
  8
DRAW
  6
CONTINUOUS
 62
     7
100
AcDbLine
 10
565.5092938833329
 20
398.4483498867115
 30
0.0
 11
565.5092938833329
 21
398.6483498867115
 31
0.0
  0
LINE
  5
76A
330
1F
100
AcDbEntity
  8
DRAW
  6
CONTINUOUS
 62
     7
100
AcDbLine
 10
554.3092938833328
 20
405.1483498867113
 30
0.0
 11
508.7092938833329
 21
405.1483498867113
 31
0.0
  0
LINE
  5
76B
330
1F
100
AcDbEntity
  8
DRAW
  6
CONTINUOUS
 62
     7
100
AcDbLine
 10
536.0092938833329
 20
407.1483498867115
 30
0.0
 11
553.0092938833329
 21
407.1483498867115
 31
0.0
  0
LINE
  5
76C
330
1F
100
AcDbEntity
  8
DRAW
  6
CONTINUOUS
 62
     7
100
AcDbLine
 10
511.5092938833329
 20
409.2373498867116
 30
0.0
 11
513.5092938833329
 21
409.5893498867114
 31
0.0
  0
LINE
  5
76D
330
1F
100
AcDbEntity
  8
DRAW
  6
CONTINUOUS
 62
     7
100
AcDbLine
 10
511.5092938833329
 20
414.0603498867116
 30
0.0
 11
513.5092938833329
 21
413.7083498867116
 31
0.0
  0
LINE
  5
76E
330
1F
100
AcDbEntity
  8
DRAW
  6
CONTINUOUS
 62
     7
100
AcDbLine
 10
508.9162938833331
 20
407.1483498867115
 30
0.0
 11
535.809293883333
 21
407.1483498867115
 31
0.0
  0
LINE
  5
76F
330
1F
100
AcDbEntity
  8
DRAW
  6
CONTINUOUS
 62
     7
100
AcDbLine
 10
535.809293883333
 20
416.1483498867116
 30
0.0
 11
510.5032938833328
 21
416.1483498867116
 31
0.0
  0
LINE
  5
770
330
1F
100
AcDbEntity
  8
DRAW
  6
CONTINUOUS
 62
     7
100
AcDbLine
 10
508.8252938833329
 20
418.1483498867113
 30
0.0
 11
534.5092938833329
 21
418.1483498867113
 31
0.0
  0
LINE
  5
771
330
1F
100
AcDbEntity
  8
DRAW
  6
CONTINUOUS
 62
     7
100
AcDbLine
 10
511.009293883333
 20
409.1483498867113
 30
0.0
 11
513.5092938833329
 21
409.1483498867113
 31
0.0
  0
LINE
  5
772
330
1F
100
AcDbEntity
  8
DRAW
  6
CONTINUOUS
 62
     7
100
AcDbLine
 10
513.5092938833329
 20
414.1483498867115
 30
0.0
 11
511.009293883333
 21
414.1483498867115
 31
0.0
  0
LINE
  5
773
330
1F
100
AcDbEntity
  8
DRAW
  6
CONTINUOUS
 62
     7
100
AcDbLine
 10
508.8252938833329
 20
418.1483498867113
 30
0.0
 11
506.7092938833329
 21
406.1483498867115
 31
0.0
  0
LINE
  5
774
330
1F
100
AcDbEntity
  8
DRAW
  6
CONTINUOUS
 62
     7
100
AcDbLine
 10
510.5032938833328
 20
416.1483498867116
 30
0.0
 11
508.9162938833331
 21
407.1483498867115
 31
0.0
  0
LINE
  5
775
330
1F
100
AcDbEntity
  8
DRAW
  6
CONTINUOUS
 62
     7
100
AcDbLine
 10
492.592293883333
 20
416.1483498867116
 30
0.0
 11
492.592293883333
 21
407.1483498867115
 31
0.0
  0
ARC
  5
776
330
1F
100
AcDbEntity
  8
DRAW
  6
CONTINUOUS
 62
     7
100
AcDbCircle
 10
488.2172938833329
 20
412.4483498867116
 30
0.0
 40
2.299999999999998
100
AcDbArc
 50
199.791999999999
 51
359.7610000000001
  0
CIRCLE
  5
777
330
1F
100
AcDbEntity
  8
DRAW
  6
CONTINUOUS
 62
     7
100
AcDbCircle
 10
488.2172938833329
 20
412.3483498867113
 30
0.0
 40
2.5
  0
LINE
  5
778
330
1F
100
AcDbEntity
  8
DRAW
  6
CONTINUOUS
 62
     7
100
AcDbLine
 10
492.3922938833329
 20
405.1483498867113
 30
0.0
 11
492.592293883333
 21
405.1483498867113
 31
0.0
  0
LINE
  5
779
330
1F
100
AcDbEntity
  8
DRAW
  6
CONTINUOUS
 62
     7
100
AcDbLine
 10
492.3922938833329
 20
407.1483498867115
 30
0.0
 11
492.3922938833329
 21
406.9483498867115
 31
0.0
  0
ARC
  5
77A
330
1F
100
AcDbEntity
  8
DRAW
  6
CONTINUOUS
 62
     7
100
AcDbCircle
 10
492.1922938833329
 20
406.9483498867115
 30
0.0
 40
0.2
100
AcDbArc
 50
0.0
 51
90.0
  0
LINE
  5
77B
330
1F
100
AcDbEntity
  8
DRAW
  6
CONTINUOUS
 62
     7
100
AcDbLine
 10
492.3922938833329
 20
405.6483498867113
 30
0.0
 11
492.3922938833329
 21
405.1483498867113
 31
0.0
  0
LINE
  5
77C
330
1F
100
AcDbEntity
  8
DRAW
  6
CONTINUOUS
 62
     7
100
AcDbLine
 10
492.3922938833329
 20
405.6483498867113
 30
0.0
 11
492.3922938833329
 21
406.9483498867115
 31
0.0
  0
LINE
  5
77D
330
1F
100
AcDbEntity
  8
DRAW
  6
CONTINUOUS
 62
     7
100
AcDbLine
 10
492.3922938833329
 20
407.1483498867115
 30
0.0
 11
492.592293883333
 21
407.1483498867115
 31
0.0
  0
LINE
  5
77E
330
1F
100
AcDbEntity
  8
DRAW
  6
CONTINUOUS
 62
     7
100
AcDbLine
 10
490.081293883333
 20
413.1753498867117
 30
0.0
 11
489.6282938833329
 21
413.0973498867116
 31
0.0
  0
ARC
  5
77F
330
1F
100
AcDbEntity
  8
DRAW
  6
CONTINUOUS
 62
     7
100
AcDbCircle
 10
488.2172938833329
 20
412.4483498867116
 30
0.0
 40
2.299999999999998
100
AcDbArc
 50
19.79199999999903
 51
179.7609999999999
  0
LINE
  5
780
330
1F
100
AcDbEntity
  8
DRAW
  6
CONTINUOUS
 62
     7
100
AcDbLine
 10
489.7632938833329
 20
412.3093498867116
 30
0.0
 11
490.2162938833328
 21
412.3873498867117
 31
0.0
  0
LINE
  5
781
330
1F
100
AcDbEntity
  8
DRAW
  6
CONTINUOUS
 62
     7
100
AcDbLine
 10
486.2182938833329
 20
412.5103498867114
 30
0.0
 11
485.9172938833331
 21
412.4583498867115
 31
0.0
  0
LINE
  5
782
330
1F
100
AcDbEntity
  8
DRAW
  6
CONTINUOUS
 62
     7
100
AcDbLine
 10
486.3542938833329
 20
411.7213498867115
 30
0.0
 11
486.0532938833329
 21
411.6703498867113
 31
0.0
  0
LINE
  5
783
330
1F
100
AcDbEntity
  8
DRAW
  6
CONTINUOUS
 62
     7
100
AcDbLine
 10
486.6712938833329
 20
412.5883498867116
 30
0.0
 11
486.2182938833329
 21
412.5103498867114
 31
0.0
  0
LINE
  5
784
330
1F
100
AcDbEntity
  8
DRAW
  6
CONTINUOUS
 62
     7
100
AcDbLine
 10
486.3542938833329
 20
411.7213498867115
 30
0.0
 11
486.8072938833329
 21
411.7993498867116
 31
0.0
  0
ARC
  5
785
330
1F
100
AcDbEntity
  8
DRAW
  6
CONTINUOUS
 62
     7
100
AcDbCircle
 10
488.2172938833329
 20
412.4483498867116
 30
0.0
 40
2.299999999999998
100
AcDbArc
 50
189.7769999999993
 51
199.791999999999
  0
ARC
  5
786
330
1F
100
AcDbEntity
  8
DRAW
  6
CONTINUOUS
 62
     7
100
AcDbCircle
 10
488.2172938833329
 20
412.4483498867116
 30
0.0
 40
2.299999999999998
100
AcDbArc
 50
179.7609999999999
 51
189.7769999999993
  0
LINE
  5
787
330
1F
100
AcDbEntity
  8
DRAW
  6
CONTINUOUS
 62
     7
100
AcDbLine
 10
487.039293883333
 20
412.6513498867116
 30
0.0
 11
487.175293883333
 21
411.8633498867116
 31
0.0
  0
LINE
  5
788
330
1F
100
AcDbEntity
  8
DRAW
  6
CONTINUOUS
 62
     7
100
AcDbLine
 10
486.8072938833329
 20
411.7993498867116
 30
0.0
 11
487.175293883333
 21
411.8633498867116
 31
0.0
  0
LINE
  5
789
330
1F
100
AcDbEntity
  8
DRAW
  6
CONTINUOUS
 62
     7
100
AcDbLine
 10
486.6712938833329
 20
412.5883498867116
 30
0.0
 11
487.039293883333
 21
412.6513498867116
 31
0.0
  0
LINE
  5
78A
330
1F
100
AcDbEntity
  8
DRAW
  6
CONTINUOUS
 62
     7
100
AcDbLine
 10
489.2602938833329
 20
413.0343498867116
 30
0.0
 11
489.396293883333
 21
412.2463498867116
 31
0.0
  0
LINE
  5
78B
330
1F
100
AcDbEntity
  8
DRAW
  6
CONTINUOUS
 62
     7
100
AcDbLine
 10
489.7632938833329
 20
412.3093498867116
 30
0.0
 11
489.396293883333
 21
412.2463498867116
 31
0.0
  0
LINE
  5
78C
330
1F
100
AcDbEntity
  8
DRAW
  6
CONTINUOUS
 62
     7
100
AcDbLine
 10
489.6282938833329
 20
413.0973498867116
 30
0.0
 11
489.2602938833329
 21
413.0343498867116
 31
0.0
  0
LINE
  5
78D
330
1F
100
AcDbEntity
  8
DRAW
  6
CONTINUOUS
 62
     7
100
AcDbLine
 10
486.8072938833329
 20
411.7993498867116
 30
0.0
 11
486.849293883333
 21
411.5543498867116
 31
0.0
  0
LINE
  5
78E
330
1F
100
AcDbEntity
  8
DRAW
  6
CONTINUOUS
 62
     7
100
AcDbLine
 10
486.6292938833328
 20
412.8333498867116
 30
0.0
 11
486.6712938833329
 21
412.5883498867116
 31
0.0
  0
LINE
  5
78F
330
1F
100
AcDbEntity
  8
DRAW
  6
CONTINUOUS
 62
     7
100
AcDbLine
 10
489.8062938833328
 20
412.0643498867115
 30
0.0
 11
489.7632938833329
 21
412.3093498867116
 31
0.0
  0
LINE
  5
790
330
1F
100
AcDbEntity
  8
DRAW
  6
CONTINUOUS
 62
     7
100
AcDbLine
 10
489.6282938833329
 20
413.0973498867116
 30
0.0
 11
489.5852938833328
 21
413.3423498867116
 31
0.0
  0
LINE
  5
791
330
1F
100
AcDbEntity
  8
DRAW
  6
CONTINUOUS
 62
     7
100
AcDbLine
 10
487.4352938833331
 20
412.8213498867116
 30
0.0
 11
487.6052938833328
 21
411.8363498867116
 31
0.0
  0
LINE
  5
792
330
1F
100
AcDbEntity
  8
DRAW
  6
CONTINUOUS
 62
     7
100
AcDbLine
 10
487.6402938833328
 20
412.8563498867116
 30
0.0
 11
487.4352938833331
 21
412.8213498867116
 31
0.0
  0
LINE
  5
793
330
1F
100
AcDbEntity
  8
DRAW
  6
CONTINUOUS
 62
     7
100
AcDbLine
 10
486.6292938833328
 20
412.8333498867116
 30
0.0
 11
487.4352938833331
 21
412.8213498867116
 31
0.0
  0
LINE
  5
794
330
1F
100
AcDbEntity
  8
DRAW
  6
CONTINUOUS
 62
     7
100
AcDbLine
 10
487.6042938833329
 20
413.0603498867116
 30
0.0
 11
487.6402938833328
 21
412.8563498867116
 31
0.0
  0
LINE
  5
795
330
1F
100
AcDbEntity
  8
DRAW
  6
CONTINUOUS
 62
     7
100
AcDbLine
 10
487.468293883333
 20
412.9783498867117
 30
0.0
 11
487.6402938833328
 21
412.8563498867116
 31
0.0
  0
LINE
  5
796
330
1F
100
AcDbEntity
  8
DRAW
  6
CONTINUOUS
 62
     7
100
AcDbLine
 10
488.5902938833329
 20
413.2303498867115
 30
0.0
 11
487.6042938833329
 21
413.0603498867116
 31
0.0
  0
LINE
  5
797
330
1F
100
AcDbEntity
  8
DRAW
  6
CONTINUOUS
 62
     7
100
AcDbLine
 10
487.3232938833329
 20
413.8163498867116
 30
0.0
 11
487.6042938833329
 21
413.0603498867116
 31
0.0
  0
LINE
  5
798
330
1F
100
AcDbEntity
  8
DRAW
  6
CONTINUOUS
 62
     7
100
AcDbLine
 10
488.625293883333
 20
413.0263498867113
 30
0.0
 11
488.5902938833329
 21
413.2303498867115
 31
0.0
  0
LINE
  5
799
330
1F
100
AcDbEntity
  8
DRAW
  6
CONTINUOUS
 62
     7
100
AcDbLine
 10
488.6022938833328
 20
414.0373498867115
 30
0.0
 11
488.5902938833329
 21
413.2303498867115
 31
0.0
  0
LINE
  5
79A
330
1F
100
AcDbEntity
  8
DRAW
  6
CONTINUOUS
 62
     7
100
AcDbLine
 10
488.829293883333
 20
413.0613498867115
 30
0.0
 11
488.625293883333
 21
413.0263498867113
 31
0.0
  0
LINE
  5
79B
330
1F
100
AcDbEntity
  8
DRAW
  6
CONTINUOUS
 62
     7
100
AcDbLine
 10
488.7462938833329
 20
413.1983498867115
 30
0.0
 11
488.625293883333
 21
413.0263498867113
 31
0.0
  0
LINE
  5
79C
330
1F
100
AcDbEntity
  8
DRAW
  6
CONTINUOUS
 62
     7
100
AcDbLine
 10
488.9992938833328
 20
412.0763498867113
 30
0.0
 11
488.829293883333
 21
413.0613498867115
 31
0.0
  0
LINE
  5
79D
330
1F
100
AcDbEntity
  8
DRAW
  6
CONTINUOUS
 62
     7
100
AcDbLine
 10
489.5852938833328
 20
413.3423498867116
 30
0.0
 11
488.829293883333
 21
413.0613498867115
 31
0.0
  0
LINE
  5
79E
330
1F
100
AcDbEntity
  8
DRAW
  6
CONTINUOUS
 62
     7
100
AcDbLine
 10
488.7952938833331
 20
412.0413498867113
 30
0.0
 11
488.9992938833328
 21
412.0763498867113
 31
0.0
  0
LINE
  5
79F
330
1F
100
AcDbEntity
  8
DRAW
  6
CONTINUOUS
 62
     7
100
AcDbLine
 10
489.8062938833328
 20
412.0643498867115
 30
0.0
 11
488.9992938833328
 21
412.0763498867113
 31
0.0
  0
LINE
  5
7A0
330
1F
100
AcDbEntity
  8
DRAW
  6
CONTINUOUS
 62
     7
100
AcDbLine
 10
488.8302938833328
 20
411.8363498867116
 30
0.0
 11
488.7952938833331
 21
412.0413498867113
 31
0.0
  0
LINE
  5
7A1
330
1F
100
AcDbEntity
  8
DRAW
  6
CONTINUOUS
 62
     7
100
AcDbLine
 10
488.9672938833329
 20
411.9193498867116
 30
0.0
 11
488.7952938833331
 21
412.0413498867113
 31
0.0
  0
LINE
  5
7A2
330
1F
100
AcDbEntity
  8
DRAW
  6
CONTINUOUS
 62
     7
100
AcDbLine
 10
487.845293883333
 20
411.6663498867116
 30
0.0
 11
488.8302938833328
 21
411.8363498867116
 31
0.0
  0
LINE
  5
7A3
330
1F
100
AcDbEntity
  8
DRAW
  6
CONTINUOUS
 62
     7
100
AcDbLine
 10
489.1112938833328
 20
411.0803498867116
 30
0.0
 11
488.8302938833328
 21
411.8363498867116
 31
0.0
  0
LINE
  5
7A4
330
1F
100
AcDbEntity
  8
DRAW
  6
CONTINUOUS
 62
     7
100
AcDbLine
 10
487.8092938833328
 20
411.8713498867116
 30
0.0
 11
487.845293883333
 21
411.6663498867116
 31
0.0
  0
LINE
  5
7A5
330
1F
100
AcDbEntity
  8
DRAW
  6
CONTINUOUS
 62
     7
100
AcDbLine
 10
487.833293883333
 20
410.8603498867116
 30
0.0
 11
487.845293883333
 21
411.6663498867116
 31
0.0
  0
LINE
  5
7A6
330
1F
100
AcDbEntity
  8
DRAW
  6
CONTINUOUS
 62
     7
100
AcDbLine
 10
486.849293883333
 20
411.5543498867116
 30
0.0
 11
487.6052938833328
 21
411.8363498867116
 31
0.0
  0
LINE
  5
7A7
330
1F
100
AcDbEntity
  8
DRAW
  6
CONTINUOUS
 62
     7
100
AcDbLine
 10
487.6052938833328
 20
411.8363498867116
 30
0.0
 11
487.8092938833328
 21
411.8713498867116
 31
0.0
  0
LINE
  5
7A8
330
1F
100
AcDbEntity
  8
DRAW
  6
CONTINUOUS
 62
     7
100
AcDbLine
 10
487.6882938833329
 20
411.6993498867116
 30
0.0
 11
487.8092938833328
 21
411.8713498867116
 31
0.0
  0
LINE
  5
7A9
330
1F
100
AcDbEntity
  8
DRAW
  6
CONTINUOUS
 62
     7
100
AcDbLine
 10
486.849293883333
 20
411.5543498867116
 30
0.0
 11
487.6882938833329
 21
411.6993498867116
 31
0.0
  0
LINE
  5
7AA
330
1F
100
AcDbEntity
  8
DRAW
  6
CONTINUOUS
 62
     7
100
AcDbLine
 10
487.468293883333
 20
412.9783498867117
 30
0.0
 11
486.6292938833328
 21
412.8333498867116
 31
0.0
  0
LINE
  5
7AB
330
1F
100
AcDbEntity
  8
DRAW
  6
CONTINUOUS
 62
     7
100
AcDbLine
 10
487.3232938833329
 20
413.8163498867116
 30
0.0
 11
487.468293883333
 21
412.9783498867117
 31
0.0
  0
LINE
  5
7AC
330
1F
100
AcDbEntity
  8
DRAW
  6
CONTINUOUS
 62
     7
100
AcDbLine
 10
488.6022938833328
 20
414.0373498867115
 30
0.0
 11
487.3232938833329
 21
413.8163498867116
 31
0.0
  0
LINE
  5
7AD
330
1F
100
AcDbEntity
  8
DRAW
  6
CONTINUOUS
 62
     7
100
AcDbLine
 10
488.7462938833329
 20
413.1983498867115
 30
0.0
 11
488.6022938833328
 21
414.0373498867115
 31
0.0
  0
LINE
  5
7AE
330
1F
100
AcDbEntity
  8
DRAW
  6
CONTINUOUS
 62
     7
100
AcDbLine
 10
489.5852938833328
 20
413.3423498867116
 30
0.0
 11
488.7462938833329
 21
413.1983498867115
 31
0.0
  0
LINE
  5
7AF
330
1F
100
AcDbEntity
  8
DRAW
  6
CONTINUOUS
 62
     7
100
AcDbLine
 10
488.9672938833329
 20
411.9193498867116
 30
0.0
 11
489.8062938833328
 21
412.0643498867115
 31
0.0
  0
LINE
  5
7B0
330
1F
100
AcDbEntity
  8
DRAW
  6
CONTINUOUS
 62
     7
100
AcDbLine
 10
489.1112938833328
 20
411.0803498867116
 30
0.0
 11
488.9672938833329
 21
411.9193498867116
 31
0.0
  0
LINE
  5
7B1
330
1F
100
AcDbEntity
  8
DRAW
  6
CONTINUOUS
 62
     7
100
AcDbLine
 10
487.833293883333
 20
410.8603498867116
 30
0.0
 11
489.1112938833328
 21
411.0803498867116
 31
0.0
  0
LINE
  5
7B2
330
1F
100
AcDbEntity
  8
DRAW
  6
CONTINUOUS
 62
     7
100
AcDbLine
 10
487.6882938833329
 20
411.6993498867116
 30
0.0
 11
487.833293883333
 21
410.8603498867116
 31
0.0
  0
LINE
  5
7B3
330
1F
100
AcDbEntity
  8
DRAW
  6
CONTINUOUS
 62
     7
100
AcDbLine
 10
490.382293883333
 20
413.2273498867116
 30
0.0
 11
490.081293883333
 21
413.1753498867117
 31
0.0
  0
LINE
  5
7B4
330
1F
100
AcDbEntity
  8
DRAW
  6
CONTINUOUS
 62
     7
100
AcDbLine
 10
490.2162938833328
 20
412.3873498867117
 30
0.0
 11
490.5172938833329
 21
412.4393498867116
 31
0.0
  0
ARC
  5
7B5
330
1F
100
AcDbEntity
  8
DRAW
  6
CONTINUOUS
 62
     7
100
AcDbCircle
 10
488.2172938833329
 20
412.4483498867116
 30
0.0
 40
2.299999999999998
100
AcDbArc
 50
359.7610000000001
 51
9.776999999999333
  0
ARC
  5
7B6
330
1F
100
AcDbEntity
  8
DRAW
  6
CONTINUOUS
 62
     7
100
AcDbCircle
 10
488.2172938833329
 20
412.4483498867116
 30
0.0
 40
2.299999999999998
100
AcDbArc
 50
9.776999999999333
 51
19.79199999999903
  0
LINE
  5
7B7
330
1F
100
AcDbEntity
  8
DRAW
  6
CONTINUOUS
 62
     7
100
AcDbLine
 10
511.5092938833329
 20
409.2373498867116
 30
0.0
 11
511.5092938833329
 21
414.0603498867116
 31
0.0
  0
LINE
  5
7B8
330
1F
100
AcDbEntity
  8
DRAW
  6
CONTINUOUS
 62
     7
100
AcDbLine
 10
511.009293883333
 20
414.1483498867115
 30
0.0
 11
511.009293883333
 21
409.1483498867113
 31
0.0
  0
LINE
  5
7B9
330
1F
100
AcDbEntity
  8
DRAW
  6
CONTINUOUS
 62
     7
100
AcDbLine
 10
511.009293883333
 20
409.1483498867113
 30
0.0
 11
511.5092938833329
 21
409.2373498867116
 31
0.0
  0
LINE
  5
7BA
330
1F
100
AcDbEntity
  8
DRAW
  6
CONTINUOUS
 62
     7
100
AcDbLine
 10
511.5092938833329
 20
414.0603498867116
 30
0.0
 11
511.009293883333
 21
414.1483498867115
 31
0.0
  0
POINT
  5
7BB
330
1F
100
AcDbEntity
  8
DRAW
  6
CONTINUOUS
 62
     7
100
AcDbPoint
 10
492.592293883333
 20
416.1483498867116
 30
0.0
  0
LINE
  5
7BC
330
1F
100
AcDbEntity
  8
DRAW
  6
CONTINUOUS
 62
     7
100
AcDbLine
 10
492.3922938833329
 20
416.1483498867116
 30
0.0
 11
492.592293883333
 21
416.1483498867116
 31
0.0
  0
ARC
  5
7BD
330
1F
100
AcDbEntity
  8
DRAW
  6
CONTINUOUS
 62
     7
100
AcDbCircle
 10
492.1922938833329
 20
417.9483498867115
 30
0.0
 40
0.2
100
AcDbArc
 50
0.0
 51
90.0
  0
LINE
  5
7BE
330
1F
100
AcDbEntity
  8
DRAW
  6
CONTINUOUS
 62
     7
100
AcDbLine
 10
492.3922938833329
 20
416.6483498867115
 30
0.0
 11
492.3922938833329
 21
416.1483498867116
 31
0.0
  0
LINE
  5
7BF
330
1F
100
AcDbEntity
  8
DRAW
  6
CONTINUOUS
 62
     7
100
AcDbLine
 10
492.3922938833329
 20
416.6483498867115
 30
0.0
 11
492.3922938833329
 21
417.9483498867115
 31
0.0
  0
LINE
  5
7C0
330
1F
100
AcDbEntity
  8
DRAW
  6
CONTINUOUS
 62
     7
100
AcDbLine
 10
536.0092938833329
 20
416.1483498867116
 30
0.0
 11
536.0092938833329
 21
407.1483498867115
 31
0.0
  0
SPLINE
  5
7C1
330
1F
100
AcDbEntity
  8
DRAW
  6
CONTINUOUS
 62
     7
100
AcDbSpline
210
0.0
220
0.0
230
1.0
 70
     8
 71
     3
 72
    27
 73
    23
 74
    21
 42
0.0000000001
 43
0.0000000001
 44
0.000001
 12
-0.7486966541804059
 22
0.6629127544549628
 32
0.0
 13
0.8109899424977948
 23
0.5850600936377594
 33
0.0
 40
0.0
 40
0.0
 40
0.0
 40
0.0
 40
0.0854762267645747
 40
0.1704197167835138
 40
0.3429337828489461
 40
0.5139640086651058
 40
0.684281225573673
 40
0.855547303619182
 40
1.026428697099567
 40
1.367219726291789
 40
1.707974246726338
 40
2.048461961450874
 40
2.389130501226721
 40
2.5600644945975
 40
2.731096744070754
 40
3.071450664383696
 40
3.412124590633026
 40
3.582968427813546
 40
3.753918663460527
 40
4.095427417137145
 40
4.437103160445263
 40
4.777292818725138
 40
4.777292818725138
 40
4.777292818725138
 40
4.777292818725138
 10
527.8692237426612
 20
411.9200423970916
 30
0.0
 10
527.8478918209977
 20
411.9389301573999
 30
0.0
 10
527.8023549767772
 20
411.9737656959972
 30
0.0
 10
527.6962510826092
 20
412.018769396492
 30
0.0
 10
527.5549173896404
 20
412.0434918223022
 30
0.0
 10
527.3862439059639
 20
412.0728439784014
 30
0.0
 10
527.2152108746747
 20
412.0829394629105
 30
0.0
 10
527.0444022677615
 20
412.0767441269505
 30
0.0
 10
526.8175343006912
 20
412.0547338632523
 30
0.0
 10
526.5439076109132
 20
411.9555768279672
 30
0.0
 10
526.2817552588396
 20
411.7280825690022
 30
0.0
 10
526.1017425366002
 20
411.4322640522578
 30
0.0
 10
526.0461480309082
 20
411.1459129529745
 30
0.0
 10
526.0701414840219
 20
410.918574049645
 30
0.0
 10
526.1271710703815
 20
410.6978033229375
 30
0.0
 10
526.2711736557153
 20
410.4437600485828
 30
0.0
 10
526.502534252369
 20
410.2684672485528
 30
0.0
 10
526.7097448621845
 20
410.1728813988757
 30
0.0
 10
526.9329467919553
 20
410.1198443747837
 30
0.0
 10
527.2187039648972
 20
410.1183282735216
 30
0.0
 10
527.5618437470131
 20
410.1296351917684
 30
0.0
 10
527.777260278859
 20
410.2250295161082
 30
0.0
 10
527.8692237426612
 20
410.2913733138842
 30
0.0
 11
527.8692237426612
 21
411.9200423970916
 31
0.0
 11
527.8004026258313
 21
411.9707370394483
 31
0.0
 11
527.7227716416761
 21
412.0052161234553
 31
0.0
 11
527.5545653123973
 21
412.043527098339
 31
0.0
 11
527.3855459763588
 21
412.0696771979304
 31
0.0
 11
527.2155554345945
 21
412.0802215055991
 31
0.0
 11
527.0443685708511
 21
412.0750128796323
 31
0.0
 11
526.874615211933
 21
412.0554107125886
 31
0.0
 11
526.5548853857332
 21
411.937464322589
 31
0.0
 11
526.2953806116155
 21
411.7166229116596
 31
0.0
 11
526.1206498195413
 21
411.4243883060731
 31
0.0
 11
526.0578465264701
 21
411.0895587308968
 31
0.0
 11
526.0742753172235
 21
410.9194160351647
 31
0.0
 11
526.1179041996189
 21
410.75404202553
 31
0.0
 11
526.2885681149302
 21
410.4595684887246
 31
0.0
 11
526.5559245960448
 21
410.2484304730632
 31
0.0
 11
526.7116784212763
 21
410.1782281590184
 31
0.0
 11
526.8776834706565
 21
410.1374077724399
 31
0.0
 11
527.2187742659329
 21
410.1205176081313
 31
0.0
 11
527.5590229870314
 21
410.1517124980496
 31
0.0
 11
527.8692237426612
 21
410.2913733138842
 31
0.0
  0
LINE
  5
7C2
330
1F
100
AcDbEntity
  8
DRAW
  6
CONTINUOUS
 62
     7
100
AcDbLine
 10
521.2832938833328
 20
410.1503498867116
 30
0.0
 11
521.2832938833328
 21
411.4833498867116
 31
0.0
  0
LINE
  5
7C3
330
1F
100
AcDbEntity
  8
DRAW
  6
CONTINUOUS
 62
     7
100
AcDbLine
 10
520.4212938833331
 20
411.4833498867116
 30
0.0
 11
520.4212938833331
 21
410.1503498867116
 31
0.0
  0
LINE
  5
7C4
330
1F
100
AcDbEntity
  8
DRAW
  6
CONTINUOUS
 62
     7
100
AcDbLine
 10
521.9252938833331
 20
412.0103498867115
 30
0.0
 11
521.9252938833331
 21
410.1503498867116
 31
0.0
  0
LINE
  5
7C5
330
1F
100
AcDbEntity
  8
DRAW
  6
CONTINUOUS
 62
     7
100
AcDbLine
 10
522.7972938833329
 20
410.1503498867116
 30
0.0
 11
522.7972938833329
 21
412.0103498867115
 31
0.0
  0
LINE
  5
7C6
330
1F
100
AcDbEntity
  8
DRAW
  6
CONTINUOUS
 62
     7
100
AcDbLine
 10
525.8052938833331
 20
410.1503498867116
 30
0.0
 11
525.8052938833331
 21
411.4423498867116
 31
0.0
  0
LINE
  5
7C7
330
1F
100
AcDbEntity
  8
DRAW
  6
CONTINUOUS
 62
     7
100
AcDbLine
 10
524.949293883333
 20
411.0363498867116
 30
0.0
 11
524.949293883333
 21
410.1503498867116
 31
0.0
  0
LINE
  5
7C8
330
1F
100
AcDbEntity
  8
DRAW
  6
CONTINUOUS
 62
     7
100
AcDbLine
 10
524.0762938833329
 20
410.1503498867116
 30
0.0
 11
524.0762938833329
 21
411.0143498867116
 31
0.0
  0
LINE
  5
7C9
330
1F
100
AcDbEntity
  8
DRAW
  6
CONTINUOUS
 62
     7
100
AcDbLine
 10
523.2152938833329
 20
412.0103498867115
 30
0.0
 11
523.2152938833329
 21
410.1503498867116
 31
0.0
  0
LINE
  5
7CA
330
1F
100
AcDbEntity
  8
DRAW
  6
CONTINUOUS
 62
     7
100
AcDbLine
 10
517.852293883333
 20
410.4083498867113
 30
0.0
 11
517.852293883333
 21
412.0103498867115
 31
0.0
  0
LINE
  5
7CB
330
1F
100
AcDbEntity
  8
DRAW
  6
CONTINUOUS
 62
     7
100
AcDbLine
 10
515.959293883333
 20
411.4833498867116
 30
0.0
 11
517.3002938833331
 21
410.1673498867115
 31
0.0
  0
ARC
  5
7CC
330
1F
100
AcDbEntity
  8
DRAW
  6
CONTINUOUS
 62
     7
100
AcDbCircle
 10
517.169293883333
 20
411.7303498867115
 30
0.0
 40
1.804
100
AcDbArc
 50
187.8690000000004
 51
67.743999999997
  0
CIRCLE
  5
7CD
330
1F
100
AcDbEntity
  8
DRAW
  6
CONTINUOUS
 62
     7
100
AcDbCircle
 10
517.169293883333
 20
411.7303498867115
 30
0.0
 40
2.282999999999999
  0
LINE
  5
7CE
330
1F
100
AcDbEntity
  8
DRAW
  6
CONTINUOUS
 62
     7
100
AcDbLine
 10
513.5092938833329
 20
409.1483498867113
 30
0.0
 11
513.5092938833329
 21
414.1483498867115
 31
0.0
  0
SPLINE
  5
7CF
330
1F
100
AcDbEntity
  8
DRAW
  6
CONTINUOUS
 62
     7
100
AcDbSpline
210
0.0
220
0.0
230
1.0
 70
     8
 71
     3
 72
    14
 73
    10
 74
     8
 42
0.0000000001
 43
0.0000000001
 44
0.000001
 12
0.8200536786294204
 22
-0.572286610158193
 32
0.0
 13
0.06789040745672
 23
0.9976927846663825
 33
0.0
 40
0.0
 40
0.0
 40
0.0
 40
0.0
 40
0.1045804356214544
 40
0.2084117688873036
 40
0.3121557388721108
 40
0.417384484592556
 40
0.5217209552649073
 40
0.6265047282027344
 40
0.7311734171502118
 40
0.7311734171502118
 40
0.7311734171502118
 40
0.7311734171502118
 10
517.3006682240518
 20
410.1672858577916
 30
0.0
 10
517.3292554143664
 20
410.1473358634613
 30
0.0
 10
517.3910269206681
 20
410.1143109249377
 30
0.0
 10
517.4937951845135
 20
410.0882200061845
 30
0.0
 10
517.599168466809
 20
410.1036155457761
 30
0.0
 10
517.6955575221414
 20
410.1460392873122
 30
0.0
 10
517.7786443954127
 20
410.2127645466255
 30
0.0
 10
517.8338237726252
 20
410.3039351055362
 30
0.0
 10
517.8500710760142
 20
410.3732042486364
 30
0.0
 10
517.8524397426611
 20
410.4080133138841
 30
0.0
 11
517.3006682240518
 21
410.1672858577916
 31
0.0
 11
517.3929717029067
 21
410.1181206342337
 31
0.0
 11
517.4942210494699
 21
410.0951090509026
 31
0.0
 11
517.5971635428518
 21
410.1079804253537
 31
0.0
 11
517.6935424729281
 21
410.1502202534645
 31
0.0
 11
517.7739212261093
 21
410.2167437618996
 31
0.0
 11
517.8286925305898
 21
410.3060732321734
 31
0.0
 11
517.8524397426611
 21
410.4080133138841
 31
0.0
  0
LINE
  5
7D0
330
1F
100
AcDbEntity
  8
DRAW
  6
CONTINUOUS
 62
     7
100
AcDbLine
 10
520.4212938833331
 20
410.1503498867116
 30
0.0
 11
521.2832938833328
 21
410.1503498867116
 31
0.0
  0
LINE
  5
7D1
330
1F
100
AcDbEntity
  8
DRAW
  6
CONTINUOUS
 62
     7
100
AcDbLine
 10
521.9252938833331
 20
410.1503498867116
 30
0.0
 11
522.7972938833329
 21
410.1503498867116
 31
0.0
  0
LINE
  5
7D2
330
1F
100
AcDbEntity
  8
DRAW
  6
CONTINUOUS
 62
     7
100
AcDbLine
 10
524.949293883333
 20
410.1503498867116
 30
0.0
 11
525.8052938833331
 21
410.1503498867116
 31
0.0
  0
LINE
  5
7D3
330
1F
100
AcDbEntity
  8
DRAW
  6
CONTINUOUS
 62
     7
100
AcDbLine
 10
523.2152938833329
 20
410.1503498867116
 30
0.0
 11
524.0762938833329
 21
410.1503498867116
 31
0.0
  0
LINE
  5
7D4
330
1F
100
AcDbEntity
  8
DRAW
  6
CONTINUOUS
 62
     7
100
AcDbLine
 10
518.347293883333
 20
412.4883498867117
 30
0.0
 11
517.852293883333
 21
412.4883498867117
 31
0.0
  0
ARC
  5
7D5
330
1F
100
AcDbEntity
  8
DRAW
  6
CONTINUOUS
 62
     7
100
AcDbCircle
 10
518.371293883333
 20
412.2493498867116
 30
0.0
 40
0.24
100
AcDbArc
 50
275.8399999999983
 51
95.83999999999836
  0
LINE
  5
7D6
330
1F
100
AcDbEntity
  8
DRAW
  6
CONTINUOUS
 62
     7
100
AcDbLine
 10
517.852293883333
 20
412.0103498867115
 30
0.0
 11
518.396293883333
 21
412.0103498867115
 31
0.0
  0
LINE
  5
7D7
330
1F
100
AcDbEntity
  8
DRAW
  6
CONTINUOUS
 62
     7
100
AcDbLine
 10
515.382293883333
 20
411.4833498867116
 30
0.0
 11
515.959293883333
 21
411.4833498867116
 31
0.0
  0
LINE
  5
7D8
330
1F
100
AcDbEntity
  8
DRAW
  6
CONTINUOUS
 62
     7
100
AcDbLine
 10
517.852293883333
 20
412.4883498867117
 30
0.0
 11
517.852293883333
 21
413.4003498867116
 31
0.0
  0
LINE
  5
7D9
330
1F
100
AcDbEntity
  8
DRAW
  6
CONTINUOUS
 62
     7
100
AcDbLine
 10
517.3912938833328
 20
413.5213498867113
 30
0.0
 11
517.3912938833328
 21
410.7153498867115
 31
0.0
  0
ARC
  5
7DA
330
1F
100
AcDbEntity
  8
DRAW
  6
CONTINUOUS
 62
     7
100
AcDbCircle
 10
517.169293883333
 20
411.7303498867115
 30
0.0
 40
1.804
100
AcDbArc
 50
82.92000000000106
 51
97.42600000000223
  0
LINE
  5
7DB
330
1F
100
AcDbEntity
  8
DRAW
  6
CONTINUOUS
 62
     7
100
AcDbLine
 10
516.9362938833329
 20
411.6543498867116
 30
0.0
 11
516.9362938833329
 21
413.5193498867113
 31
0.0
  0
ARC
  5
7DC
330
1F
100
AcDbEntity
  8
DRAW
  6
CONTINUOUS
 62
     7
100
AcDbCircle
 10
516.7142938833328
 20
411.6953498867117
 30
0.0
 40
0.226
100
AcDbArc
 50
290.5729999999973
 51
349.6150000000008
  0
LINE
  5
7DD
330
1F
100
AcDbEntity
  8
DRAW
  6
CONTINUOUS
 62
     7
100
AcDbLine
 10
516.683293883333
 20
411.4833498867116
 30
0.0
 11
516.7932938833329
 21
411.4833498867116
 31
0.0
  0
LINE
  5
7DE
330
1F
100
AcDbEntity
  8
DRAW
  6
CONTINUOUS
 62
     7
100
AcDbLine
 10
517.3912938833328
 20
410.7153498867115
 30
0.0
 11
516.683293883333
 21
411.4833498867116
 31
0.0
  0
LINE
  5
7DF
330
1F
100
AcDbEntity
  8
DRAW
  6
CONTINUOUS
 62
     7
100
AcDbLine
 10
516.4802938833329
 20
411.9723498867116
 30
0.0
 11
515.381293883333
 21
411.9723498867116
 31
0.0
  0
LINE
  5
7E0
330
1F
100
AcDbEntity
  8
DRAW
  6
CONTINUOUS
 62
     7
100
AcDbLine
 10
516.4802938833329
 20
413.3983498867115
 30
0.0
 11
516.4802938833329
 21
411.9723498867116
 31
0.0
  0
ARC
  5
7E1
330
1F
100
AcDbEntity
  8
DRAW
  6
CONTINUOUS
 62
     7
100
AcDbCircle
 10
517.169293883333
 20
411.7303498867115
 30
0.0
 40
1.804
100
AcDbArc
 50
112.4409999999998
 51
172.3040000000006
  0
LINE
  5
7E2
330
1F
100
AcDbEntity
  8
DRAW
  6
CONTINUOUS
 62
     7
100
AcDbLine
 10
521.3832938833329
 20
412.2133498867117
 30
0.0
 11
521.5792938833328
 21
412.2133498867117
 31
0.0
  0
ARC
  5
7E3
330
1F
100
AcDbEntity
  8
DRAW
  6
CONTINUOUS
 62
     7
100
AcDbCircle
 10
521.3962938833328
 20
412.0873498867116
 30
0.0
 40
0.127
100
AcDbArc
 50
95.84499999999961
 51
157.8079999999983
  0
LINE
  5
7E4
330
1F
100
AcDbEntity
  8
DRAW
  6
CONTINUOUS
 62
     7
100
AcDbLine
 10
521.255293883333
 20
412.0103498867115
 30
0.0
 11
521.2782938833329
 21
412.1353498867113
 31
0.0
  0
LINE
  5
7E5
330
1F
100
AcDbEntity
  8
DRAW
  6
CONTINUOUS
 62
     7
100
AcDbLine
 10
521.5792938833328
 20
412.0103498867115
 30
0.0
 11
521.255293883333
 21
412.0103498867115
 31
0.0
  0
LINE
  5
7E6
330
1F
100
AcDbEntity
  8
DRAW
  6
CONTINUOUS
 62
     7
100
AcDbLine
 10
521.5792938833328
 20
411.4833498867116
 30
0.0
 11
521.5792938833328
 21
412.0103498867115
 31
0.0
  0
LINE
  5
7E7
330
1F
100
AcDbEntity
  8
DRAW
  6
CONTINUOUS
 62
     7
100
AcDbLine
 10
521.2832938833328
 20
411.4833498867116
 30
0.0
 11
521.5792938833328
 21
411.4833498867116
 31
0.0
  0
LINE
  5
7E8
330
1F
100
AcDbEntity
  8
DRAW
  6
CONTINUOUS
 62
     7
100
AcDbLine
 10
520.1632938833329
 20
411.4833498867116
 30
0.0
 11
520.4212938833331
 21
411.4833498867116
 31
0.0
  0
LINE
  5
7E9
330
1F
100
AcDbEntity
  8
DRAW
  6
CONTINUOUS
 62
     7
100
AcDbLine
 10
520.1632938833329
 20
412.0103498867115
 30
0.0
 11
520.1632938833329
 21
411.4833498867116
 31
0.0
  0
LINE
  5
7EA
330
1F
100
AcDbEntity
  8
DRAW
  6
CONTINUOUS
 62
     7
100
AcDbLine
 10
520.4212938833331
 20
412.0103498867115
 30
0.0
 11
520.1632938833329
 21
412.0103498867115
 31
0.0
  0
LINE
  5
7EB
330
1F
100
AcDbEntity
  8
DRAW
  6
CONTINUOUS
 62
     7
100
AcDbLine
 10
520.4212938833331
 20
412.2123498867116
 30
0.0
 11
520.4212938833331
 21
412.0103498867115
 31
0.0
  0
ARC
  5
7EC
330
1F
100
AcDbEntity
  8
DRAW
  6
CONTINUOUS
 62
     7
100
AcDbCircle
 10
520.856293883333
 20
412.2123498867116
 30
0.0
 40
0.435
100
AcDbArc
 50
89.41700000000253
 51
180.0
  0
LINE
  5
7ED
330
1F
100
AcDbEntity
  8
DRAW
  6
CONTINUOUS
 62
     7
100
AcDbLine
 10
521.5792938833328
 20
412.6473498867116
 30
0.0
 11
520.8602938833329
 21
412.6473498867116
 31
0.0
  0
LINE
  5
7EE
330
1F
100
AcDbEntity
  8
DRAW
  6
CONTINUOUS
 62
     7
100
AcDbLine
 10
521.5792938833328
 20
412.2133498867117
 30
0.0
 11
521.5792938833328
 21
412.6473498867116
 31
0.0
  0
LINE
  5
7EF
330
1F
100
AcDbEntity
  8
DRAW
  6
CONTINUOUS
 62
     7
100
AcDbLine
 10
522.7972938833329
 20
412.6473498867116
 30
0.0
 11
521.9252938833331
 21
412.6473498867116
 31
0.0
  0
LINE
  5
7F0
330
1F
100
AcDbEntity
  8
DRAW
  6
CONTINUOUS
 62
     7
100
AcDbLine
 10
522.7972938833329
 20
412.2193498867114
 30
0.0
 11
522.7972938833329
 21
412.6473498867116
 31
0.0
  0
LINE
  5
7F1
330
1F
100
AcDbEntity
  8
DRAW
  6
CONTINUOUS
 62
     7
100
AcDbLine
 10
521.9252938833331
 20
412.2193498867114
 30
0.0
 11
522.7972938833329
 21
412.2193498867114
 31
0.0
  0
LINE
  5
7F2
330
1F
100
AcDbEntity
  8
DRAW
  6
CONTINUOUS
 62
     7
100
AcDbLine
 10
521.9252938833331
 20
412.6473498867116
 30
0.0
 11
521.9252938833331
 21
412.2193498867114
 31
0.0
  0
LINE
  5
7F3
330
1F
100
AcDbEntity
  8
DRAW
  6
CONTINUOUS
 62
     7
100
AcDbLine
 10
522.7972938833329
 20
412.0103498867115
 30
0.0
 11
521.9252938833331
 21
412.0103498867115
 31
0.0
  0
ARC
  5
7F4
330
1F
100
AcDbEntity
  8
DRAW
  6
CONTINUOUS
 62
     7
100
AcDbCircle
 10
525.221293883333
 20
411.4133498867115
 30
0.0
 40
0.585
100
AcDbArc
 50
2.807000000000564
 51
66.54600000000313
  0
ARC
  5
7F5
330
1F
100
AcDbEntity
  8
DRAW
  6
CONTINUOUS
 62
     7
100
AcDbCircle
 10
524.637293883333
 20
411.0363498867116
 30
0.0
 40
0.313
100
AcDbArc
 50
0.0
 51
97.15100000000305
  0
ARC
  5
7F6
330
1F
100
AcDbEntity
  8
DRAW
  6
CONTINUOUS
 62
     7
100
AcDbCircle
 10
524.630293883333
 20
410.7203498867113
 30
0.0
 40
0.627
100
AcDbArc
 50
92.96299999999936
 51
152.0029999999992
  0
LINE
  5
7F7
330
1F
100
AcDbEntity
  8
DRAW
  6
CONTINUOUS
 62
     7
100
AcDbLine
 10
524.0762938833329
 20
412.0103498867115
 30
0.0
 11
523.2152938833329
 21
412.0103498867115
 31
0.0
  0
LINE
  5
7F8
330
1F
100
AcDbEntity
  8
DRAW
  6
CONTINUOUS
 62
     7
100
AcDbLine
 10
524.0762938833329
 20
411.8023498867115
 30
0.0
 11
524.0762938833329
 21
412.0103498867115
 31
0.0
  0
ARC
  5
7F9
330
1F
100
AcDbEntity
  8
DRAW
  6
CONTINUOUS
 62
     7
100
AcDbCircle
 10
524.9292938833328
 20
410.3483498867117
 30
0.0
 40
1.685999999999999
100
AcDbArc
 50
71.87199999999997
 51
120.4059999999964
  0
SPLINE
  5
7FA
330
1F
100
AcDbEntity
  8
DRAW
  6
CONTINUOUS
 62
     7
100
AcDbSpline
210
0.0
220
0.0
230
1.0
 70
     8
 71
     3
 72
    42
 73
    38
 74
    36
 42
0.0000000001
 43
0.0000000001
 44
0.000001
 12
0.2679235453433256
 22
0.9634401765811217
 32
0.0
 13
0.1610223945650888
 23
0.9869507527979928
 33
0.0
 40
0.0
 40
0.0
 40
0.0
 40
0.0
 40
0.1349640264207451
 40
0.2707627131094532
 40
0.4075182190066749
 40
0.5429779799796948
 40
0.8130464077225473
 40
1.083303499321375
 40
1.35337608456309
 40
1.624177276330945
 40
2.164378421789852
 40
2.704518019720268
 40
2.975212238240348
 40
3.245381537290767
 40
3.5154355562432
 40
3.78566242560841
 40
4.055818297257548
 40
4.191277455196502
 40
4.326451013575841
 40
4.596602043830933
 40
4.732085614159339
 40
4.867719373879012
 40
5.002622174668157
 40
5.138360607938524
 40
5.409057739568575
 40
5.679501591537648
 40
5.950090940742096
 40
6.220489904493655
 40
6.491812581313467
 40
6.627252803583321
 40
6.762336931693426
 40
6.897710294054813
 40
7.032980558547931
 40
7.168276183472284
 40
7.303523607007265
 40
7.438785550368733
 40
7.574069433525772
 40
7.574069433525772
 40
7.574069433525772
 40
7.574069433525772
 10
531.7166157426612
 20
410.9294373138841
 30
0.0
 10
531.7286690894787
 20
410.9727805690331
 30
0.0
 10
531.7437086865624
 20
411.0628044804139
 30
0.0
 10
531.7332127000094
 20
411.1991356203459
 30
0.0
 10
531.7029056777951
 20
411.3320047385731
 30
0.0
 10
531.645275908282
 20
411.5035287278
 30
0.0
 10
531.532189505127
 20
411.7026068484297
 30
0.0
 10
531.3285082665636
 20
411.8860010236578
 30
0.0
 10
531.0864170640059
 20
412.0118218294543
 30
0.0
 10
530.7365746061069
 20
412.1055282388035
 30
0.0
 10
530.2839831339488
 20
412.1363119520159
 30
0.0
 10
529.8329366266907
 20
412.0840367233725
 30
0.0
 10
529.4894900837239
 20
411.9678852973307
 30
0.0
 10
529.2611041210562
 20
411.8151465023197
 30
0.0
 10
529.0934254014636
 20
411.5982007082767
 30
0.0
 10
528.9881512219069
 20
411.3463223893015
 30
0.0
 10
528.959467229638
 20
411.1196277979954
 30
0.0
 10
528.9767997694959
 20
410.9393396748888
 30
0.0
 10
529.0259582821449
 20
410.7654379788185
 30
0.0
 10
529.1029835191785
 20
410.5998673085339
 30
0.0
 10
529.2133789862109
 20
410.4567385007066
 30
0.0
 10
529.3056717175978
 20
410.3570786589918
 30
0.0
 10
529.4164889827357
 20
410.2775811486897
 30
0.0
 10
529.5784129553764
 20
410.1974067739093
 30
0.0
 10
529.7909197040365
 20
410.1183128370273
 30
0.0
 10
530.0583851006911
 20
410.0713464718142
 30
0.0
 10
530.3285721979827
 20
410.051382379335
 30
0.0
 10
530.5995903514485
 20
410.0639783555086
 30
0.0
 10
530.8235470991703
 20
410.0950959798998
 30
0.0
 10
530.999614940019
 20
410.1362252349386
 30
0.0
 10
531.1277930434446
 20
410.1804514920933
 30
0.0
 10
531.2507369785081
 20
410.2369063274482
 30
0.0
 10
531.3713230124924
 20
410.2989261991639
 30
0.0
 10
531.4787229966793
 20
410.3830304474358
 30
0.0
 10
531.5655031528099
 20
410.4876602164589
 30
0.0
 10
531.6350795657516
 20
410.6047387497212
 30
0.0
 10
531.6598904977238
 20
410.6926911371098
 30
0.0
 10
531.6671517426612
 20
410.7371973138842
 30
0.0
 11
531.7166157426612
 21
410.9294373138841
 31
0.0
 11
531.7381920897343
 21
411.062665998591
 31
0.0
 11
531.7299533726655
 21
411.1982144848441
 31
0.0
 11
531.7006105756899
 21
411.3317849351308
 31
0.0
 11
531.6568170327655
 21
411.4599702396948
 31
0.0
 11
531.5208821175635
 21
411.6933340083308
 31
0.0
 11
531.3220907023357
 21
411.8764210435278
 31
0.0
 11
531.0832427400112
 21
412.0024799659772
 31
0.0
 11
530.8227256386758
 21
412.0763997137403
 31
0.0
 11
530.2842633026414
 21
412.1197079922143
 31
0.0
 11
529.7487886495073
 21
412.0488722953681
 31
0.0
 11
529.4942093370062
 21
411.9568682736177
 31
0.0
 11
529.2711694998546
 21
411.8044061678766
 31
0.0
 11
529.103853632198
 21
411.592428355867
 31
0.0
 11
528.9999590788933
 21
411.3429719358591
 31
0.0
 11
528.9671532157223
 21
411.0748152760399
 31
0.0
 11
528.9807981485112
 21
410.9400450827693
 31
0.0
 11
529.0160101941417
 21
410.8095383476799
 31
0.0
 11
529.1332332870631
 21
410.5661449548938
 31
0.0
 11
529.2149285023894
 21
410.4580630732437
 31
0.0
 11
529.308927712707
 21
410.3602844040696
 31
0.0
 11
529.4180321564046
 21
410.2809434458168
 31
0.0
 11
529.5387158138622
 21
410.2188115073182
 31
0.0
 11
529.7931038275406
 21
410.126271372273
 31
0.0
 11
530.0588059658958
 21
410.0758506381551
 31
0.0
 11
530.3287243015891
 21
410.0568062750949
 31
0.0
 11
530.5988884211354
 21
410.0680734107029
 31
0.0
 11
530.8674387176997
 21
410.106761043735
 31
0.0
 11
530.9991091302566
 21
410.1384936099234
 31
0.0
 11
531.1268392240622
 21
410.1824565945922
 31
0.0
 11
531.2503632208471
 21
410.2378440279817
 31
0.0
 11
531.3691232594408
 21
410.3026058433249
 31
0.0
 11
531.4752971812785
 21
410.3864628487078
 31
0.0
 11
531.5626326985241
 21
410.4897312672799
 31
0.0
 11
531.629681636735
 21
410.6072055914943
 31
0.0
 11
531.6671517426612
 21
410.7371973138842
 31
0.0
  0
LINE
  5
7FB
330
1F
100
AcDbEntity
  8
DRAW
  6
CONTINUOUS
 62
     7
100
AcDbLine
 10
532.798293883333
 20
410.1503498867116
 30
0.0
 11
532.798293883333
 21
411.1823498867113
 31
0.0
  0
LINE
  5
7FC
330
1F
100
AcDbEntity
  8
DRAW
  6
CONTINUOUS
 62
     7
100
AcDbLine
 10
531.969293883333
 20
412.0103498867115
 30
0.0
 11
531.969293883333
 21
410.1503498867116
 31
0.0
  0
LINE
  5
7FD
330
1F
100
AcDbEntity
  8
DRAW
  6
CONTINUOUS
 62
     7
100
AcDbLine
 10
528.731293883333
 20
410.1443498867117
 30
0.0
 11
528.731293883333
 21
412.6423498867116
 31
0.0
  0
LINE
  5
7FE
330
1F
100
AcDbEntity
  8
DRAW
  6
CONTINUOUS
 62
     7
100
AcDbLine
 10
531.969293883333
 20
410.1503498867116
 30
0.0
 11
532.798293883333
 21
410.1503498867116
 31
0.0
  0
LINE
  5
7FF
330
1F
100
AcDbEntity
  8
DRAW
  6
CONTINUOUS
 62
     7
100
AcDbLine
 10
527.8692938833329
 20
410.1443498867117
 30
0.0
 11
528.731293883333
 21
410.1443498867117
 31
0.0
  0
LINE
  5
800
330
1F
100
AcDbEntity
  8
DRAW
  6
CONTINUOUS
 62
     7
100
AcDbLine
 10
527.8692938833329
 20
410.2913498867113
 30
0.0
 11
527.8692938833329
 21
410.1443498867117
 31
0.0
  0
LINE
  5
801
330
1F
100
AcDbEntity
  8
DRAW
  6
CONTINUOUS
 62
     7
100
AcDbLine
 10
535.809293883333
 20
407.1483498867115
 30
0.0
 11
536.0092938833329
 21
407.1483498867115
 31
0.0
  0
SPLINE
  5
802
330
1F
100
AcDbEntity
  8
DRAW
  6
CONTINUOUS
 62
     7
100
AcDbSpline
210
0.0
220
0.0
230
1.0
 70
     8
 71
     3
 72
    16
 73
    12
 74
    10
 42
0.0000000001
 43
0.0000000001
 44
0.000001
 12
0.1358608544283039
 22
0.9907279284616999
 32
0.0
 13
-0.8123777522857436
 23
-0.5831315354113196
 33
0.0
 40
0.0
 40
0.0
 40
0.0
 40
0.0
 40
0.2971363241526355
 40
0.4463044868793888
 40
0.5950561608303815
 40
0.8904309768775949
 40
1.186735742017347
 40
1.335426448971833
 40
1.484152188308674
 40
1.781778627249512
 40
2.078727028573385
 40
2.078727028573385
 40
2.078727028573385
 40
2.078727028573385
 10
534.1535277426612
 20
411.0886293138841
 30
0.0
 10
534.1669841409549
 20
411.1867563988504
 30
0.0
 10
534.1692023586847
 20
411.3371989351151
 30
0.0
 10
534.1398696293103
 20
411.5336764722181
 30
0.0
 10
534.0899294054818
 20
411.7251276225148
 30
0.0
 10
533.9394309307383
 20
411.9411365024736
 30
0.0
 10
533.6956580444053
 20
412.0222587521892
 30
0.0
 10
533.5004705993204
 20
412.053107409176
 30
0.0
 10
533.3012903242316
 20
412.0482919878783
 30
0.0
 10
533.055374227274
 20
411.9998006343108
 30
0.0
 10
532.8783231675989
 20
411.9036453062848
 30
0.0
 10
532.7979117426615
 20
411.8459253138841
 30
0.0
 11
534.1535277426612
 21
411.0886293138841
 31
0.0
 11
534.1592037632658
 21
411.3857120667113
 31
0.0
 11
534.1372447100671
 21
411.5332550910536
 31
0.0
 11
534.0963391418373
 21
411.6762718936386
 31
0.0
 11
533.9210411542146
 21
411.9140049543589
 31
0.0
 11
533.6471550958098
 21
412.0270670438721
 31
0.0
 11
533.5000379928958
 21
412.0486425373086
 31
0.0
 11
533.3513253502712
 21
412.046666023088
 31
0.0
 11
533.0600764066448
 21
411.9853830061467
 31
0.0
 11
532.7979117426615
 21
411.8459253138841
 31
0.0
  0
LINE
  5
803
330
1F
100
AcDbEntity
  8
DRAW
  6
CONTINUOUS
 62
     7
100
AcDbLine
 10
533.275293883333
 20
411.0883498867115
 30
0.0
 11
534.1532938833331
 21
411.0883498867115
 31
0.0
  0
LINE
  5
804
330
1F
100
AcDbEntity
  8
DRAW
  6
CONTINUOUS
 62
     7
100
AcDbLine
 10
530.251293883333
 20
411.3243498867117
 30
0.0
 11
529.8722938833329
 21
411.3243498867117
 31
0.0
  0
LINE
  5
805
330
1F
100
AcDbEntity
  8
DRAW
  6
CONTINUOUS
 62
     7
100
AcDbLine
 10
530.822293883333
 20
411.3243498867117
 30
0.0
 11
530.251293883333
 21
411.3243498867117
 31
0.0
  0
SPLINE
  5
806
330
1F
100
AcDbEntity
  8
DRAW
  6
CONTINUOUS
 62
     7
100
AcDbSpline
210
0.0
220
0.0
230
1.0
 70
     8
 71
     3
 72
    18
 73
    14
 74
    12
 42
0.0000000001
 43
0.0000000001
 44
0.000001
 12
0.2154301143750432
 22
0.9765192603427523
 32
0.0
 13
0.0762450289011333
 23
-0.9970891111469754
 33
0.0
 40
0.0
 40
0.0
 40
0.0
 40
0.0
 40
0.1785236027495333
 40
0.2682583514960886
 40
0.3577603737287843
 40
0.4473352639902038
 40
0.5367121282355737
 40
0.6273429215242093
 40
0.7177347205094997
 40
0.8970108307617053
 40
1.075974881889853
 40
1.165600026278382
 40
1.255290028797346
 40
1.255290028797346
 40
1.255290028797346
 40
1.255290028797346
 10
529.8724077426611
 20
411.3245013138842
 30
0.0
 10
529.8852275293808
 20
411.382611892721
 30
0.0
 10
529.9274372325709
 20
411.4665656142586
 30
0.0
 10
530.0171302121834
 20
411.5475065936165
 30
0.0
 10
530.0992963293195
 20
411.584432464564
 30
0.0
 10
530.1738100487035
 20
411.6356636559772
 30
0.0
 10
530.2632213342203
 20
411.6550427972066
 30
0.0
 10
530.3531751692114
 20
411.6603425099466
 30
0.0
 10
530.4733842680994
 20
411.6517614093752
 30
0.0
 10
530.6188060394109
 20
411.608449071078
 30
0.0
 10
530.7431858311936
 20
411.5171747997874
 30
0.0
 10
530.8065781287326
 20
411.4138685376182
 30
0.0
 10
530.8196642703832
 20
411.3543109555143
 30
0.0
 10
530.8219437426612
 20
411.3245013138842
 30
0.0
 11
529.8724077426611
 21
411.3245013138842
 31
0.0
 11
529.9524997236537
 21
411.4840515852867
 31
0.0
 11
530.0196578233314
 21
411.5435673774142
 31
0.0
 11
530.0980175223322
 21
411.5868152911288
 31
0.0
 11
530.1762904942757
 21
411.6303689665647
 31
0.0
 11
530.2628496664935
 21
411.6526332808237
 31
0.0
 11
530.35329802367
 21
411.6583780181088
 31
0.0
 11
530.4434408791002
 21
411.651675548077
 31
0.0
 11
530.6147411377842
 21
411.5987971058204
 31
0.0
 11
530.755978420736
 21
411.4888872541686
 31
0.0
 11
530.8019094277165
 21
411.4119261448768
 31
0.0
 11
530.8219437426612
 21
411.3245013138842
 31
0.0
  0
LINE
  5
807
330
1F
100
AcDbEntity
  8
DRAW
  6
CONTINUOUS
 62
     7
100
AcDbLine
 10
531.6672938833329
 20
410.7373498867116
 30
0.0
 11
530.822293883333
 21
410.7373498867116
 31
0.0
  0
LINE
  5
808
330
1F
100
AcDbEntity
  8
DRAW
  6
CONTINUOUS
 62
     7
100
AcDbLine
 10
530.251293883333
 20
410.9233498867117
 30
0.0
 11
531.7162938833329
 21
410.9293498867116
 31
0.0
  0
LINE
  5
809
330
1F
100
AcDbEntity
  8
DRAW
  6
CONTINUOUS
 62
     7
100
AcDbLine
 10
530.202293883333
 20
410.9233498867117
 30
0.0
 11
530.251293883333
 21
410.9233498867117
 31
0.0
  0
LINE
  5
80A
330
1F
100
AcDbEntity
  8
DRAW
  6
CONTINUOUS
 62
     7
100
AcDbLine
 10
529.8722938833329
 20
410.9233498867117
 30
0.0
 11
530.202293883333
 21
410.9233498867117
 31
0.0
  0
SPLINE
  5
80B
330
1F
100
AcDbEntity
  8
DRAW
  6
CONTINUOUS
 62
     7
100
AcDbSpline
210
0.0
220
0.0
230
1.0
 70
     8
 71
     3
 72
    14
 73
    10
 74
     8
 42
0.0000000001
 43
0.0000000001
 44
0.000001
 12
-0.7770129286961373
 22
-0.6294846373336301
 32
0.0
 13
-0.1873467659228753
 23
0.9822938406089287
 33
0.0
 40
0.0
 40
0.0
 40
0.0
 40
0.0
 40
0.1617803896821627
 40
0.3232697991614976
 40
0.4857503960661259
 40
0.6475257858786913
 40
0.8094916068593461
 40
0.9713285784634944
 40
1.13316107368236
 40
1.13316107368236
 40
1.13316107368236
 40
1.13316107368236
 10
530.8219437426616
 20
410.7371973138842
 30
0.0
 10
530.7800419245307
 20
410.7032512239086
 30
0.0
 10
530.6895537694554
 20
410.6432365474486
 30
0.0
 10
530.5355377310575
 20
410.5866202988504
 30
0.0
 10
530.3718234489138
 20
410.5789737393279
 30
0.0
 10
530.2109009475451
 20
410.6056998396144
 30
0.0
 10
530.059356068682
 20
410.6655998892056
 30
0.0
 10
529.9272560871107
 20
410.7667415404403
 30
0.0
 10
529.882514007528
 20
410.8708322927962
 30
0.0
 10
529.8724077426611
 20
410.9238213138842
 30
0.0
 11
530.8219437426616
 21
410.7371973138842
 31
0.0
 11
530.6864650900477
 21
410.6487760253958
 31
0.0
 11
530.5342453856178
 21
410.5948504296931
 31
0.0
 11
530.3720810705246
 21
410.5847191857015
 31
0.0
 11
530.2124906767057
 21
410.611217852274
 31
0.0
 11
530.0625635900265
 21
410.672494230778
 31
0.0
 11
529.9380809692653
 21
410.7759122225098
 31
0.0
 11
529.8724077426611
 21
410.9238213138842
 31
0.0
  0
LINE
  5
80C
330
1F
100
AcDbEntity
  8
DRAW
  6
CONTINUOUS
 62
     7
100
AcDbLine
 10
532.798293883333
 20
412.0103498867115
 30
0.0
 11
531.969293883333
 21
412.0103498867115
 31
0.0
  0
LINE
  5
80D
330
1F
100
AcDbEntity
  8
DRAW
  6
CONTINUOUS
 62
     7
100
AcDbLine
 10
532.798293883333
 20
411.8463498867113
 30
0.0
 11
532.798293883333
 21
412.0103498867115
 31
0.0
  0
LINE
  5
80E
330
1F
100
AcDbEntity
  8
DRAW
  6
CONTINUOUS
 62
     7
100
AcDbLine
 10
533.275293883333
 20
411.2033498867116
 30
0.0
 11
533.275293883333
 21
411.0883498867115
 31
0.0
  0
SPLINE
  5
80F
330
1F
100
AcDbEntity
  8
DRAW
  6
CONTINUOUS
 62
     7
100
AcDbSpline
210
0.0
220
0.0
230
1.0
 70
     8
 71
     3
 72
    14
 73
    10
 74
     8
 42
0.0000000001
 43
0.0000000001
 44
0.000001
 12
0.0466631639391755
 22
0.998910681257932
 32
0.0
 13
-0.0554704849881243
 23
-0.9984603273516592
 33
0.0
 40
0.0
 40
0.0
 40
0.0
 40
0.0
 40
0.1043939771186674
 40
0.2088371621242226
 40
0.3132346013198425
 40
0.4187353627546017
 40
0.5226827016760449
 40
0.6269283827419063
 40
0.7307105467935527
 40
0.7307105467935527
 40
0.7307105467935527
 40
0.7307105467935527
 10
532.7979117426613
 20
411.1819413138841
 30
0.0
 10
532.7995355270841
 20
411.2167014001518
 30
0.0
 10
532.8176255511023
 20
411.2859500130229
 30
0.0
 10
532.882282003647
 20
411.3725414240892
 30
0.0
 10
532.9804739008353
 20
411.4177638690818
 30
0.0
 10
533.086992548551
 20
411.4269193677554
 30
0.0
 10
533.1890025510651
 20
411.3900741685803
 30
0.0
 10
533.2619686341833
 20
411.3099154263409
 30
0.0
 10
533.2774066916523
 20
411.2382981050482
 30
0.0
 10
533.2754877426613
 20
411.2037573138842
 30
0.0
 11
532.7979117426613
 21
411.1819413138841
 31
0.0
 11
532.8238722245527
 21
411.2830566859249
 31
0.0
 11
532.8878255830268
 21
411.3656300185756
 31
0.0
 11
532.9815321992748
 21
411.411650781044
 31
0.0
 11
533.0867644731483
 21
411.4191736099797
 31
0.0
 11
533.1841667064036
 21
411.3828711172326
 31
0.0
 11
533.2537358716916
 21
411.3052353797785
 31
0.0
 11
533.2754877426613
 21
411.2037573138842
 31
0.0
  0
SPLINE
  5
810
330
1F
100
AcDbEntity
  8
DRAW
  6
CONTINUOUS
 62
     7
100
AcDbSpline
210
0.0
220
0.0
230
1.0
 70
     8
 71
     3
 72
    26
 73
    22
 74
    20
 42
0.0000000001
 43
0.0000000001
 44
0.000001
 12
-0.0921211275965297
 22
-0.9957478083582932
 32
0.0
 13
0.1341089932707814
 23
-0.9909665876929945
 33
0.0
 40
0.0
 40
0.0
 40
0.0
 40
0.0
 40
0.1834757456742014
 40
0.2763423966167195
 40
0.3692121547330513
 40
0.553786747753275
 40
0.7382286006743863
 40
0.8311109261821441
 40
0.9241669499583323
 40
1.016398237760439
 40
1.109089526552591
 40
1.293452461027137
 40
1.477429978414561
 40
1.661501839551553
 40
1.846715556522997
 40
1.939394735860677
 40
2.031479644904115
 40
2.124367578541493
 40
2.217256537705386
 40
2.401152009044686
 40
2.584654690812337
 40
2.584654690812337
 40
2.584654690812337
 40
2.584654690812337
 10
527.8692237426612
 20
411.0994293138841
 30
0.0
 10
527.8635897451351
 20
411.0385307900035
 30
0.0
 10
527.8276378071804
 20
410.9463082766801
 30
0.0
 10
527.7372271376467
 20
410.8615682745225
 30
0.0
 10
527.6338398794653
 20
410.7933273833947
 30
0.0
 10
527.4846030288895
 20
410.7432292670854
 30
0.0
 10
527.3275906342725
 20
410.7476940196639
 30
0.0
 10
527.2081515832892
 20
410.7799888495559
 30
0.0
 10
527.1220279965718
 20
410.8152362200745
 30
0.0
 10
527.0443161145076
 20
410.86770142895
 30
0.0
 10
526.9635621789823
 20
410.961320201926
 30
0.0
 10
526.9031699700713
 20
411.1135229407579
 30
0.0
 10
526.9633187654251
 20
411.3004408755938
 30
0.0
 10
527.0990894216612
 20
411.4327855140794
 30
0.0
 10
527.2460189402153
 20
411.4903227557404
 30
0.0
 10
527.369289469828
 20
411.50415722131
 30
0.0
 10
527.4618827064113
 20
411.4935009542295
 30
0.0
 10
527.5515188033219
 20
411.469644788633
 30
0.0
 10
527.668826625316
 20
411.4328008855351
 30
0.0
 10
527.8059437982235
 20
411.3514203194791
 30
0.0
 10
527.8610206226898
 20
411.2315403226791
 30
0.0
 10
527.8692237426612
 20
411.1709253138845
 30
0.0
 11
527.8692237426612
 21
411.0994293138841
 31
0.0
 11
527.8018670934061
 21
410.928763834539
 31
0.0
 11
527.7356336035503
 21
410.8636690237728
 31
0.0
 11
527.6580769489546
 21
410.8125832547758
 31
0.0
 11
527.4830058850576
 21
410.7541204203536
 31
0.0
 11
527.2986067160603
 21
410.7580889572924
 31
0.0
 11
527.20880370123
 21
410.7818070368365
 31
0.0
 11
527.1231759426386
 21
410.8182393494677
 31
0.0
 11
527.0472444693279
 21
410.8705941590684
 31
0.0
 11
526.9863266955844
 21
410.9404562103056
 31
0.0
 11
526.9252538788158
 21
411.1144097574053
 31
0.0
 11
526.9758622072146
 21
411.2912898243827
 31
0.0
 11
527.1054742982952
 21
411.4219924571373
 31
0.0
 11
527.2773166071429
 21
411.4910891507387
 31
0.0
 11
527.369500584701
 21
411.5006571009024
 31
0.0
 11
527.4611145139807
 21
411.4913555672772
 31
0.0
 11
527.551273055861
 21
411.4690037095559
 31
0.0
 11
527.6393408009148
 21
411.4394667726307
 31
0.0
 11
527.7924385061741
 21
411.3375912435969
 31
0.0
 11
527.8692237426612
 21
411.1709253138845
 31
0.0
  0
LINE
  5
811
330
1F
100
AcDbEntity
  8
DRAW
  6
CONTINUOUS
 62
     7
100
AcDbLine
 10
527.8692938833329
 20
411.1713498867116
 30
0.0
 11
527.8692938833329
 21
411.0993498867116
 31
0.0
  0
LINE
  5
812
330
1F
100
AcDbEntity
  8
DRAW
  6
CONTINUOUS
 62
     7
100
AcDbLine
 10
527.8692938833329
 20
412.6423498867116
 30
0.0
 11
527.8692938833329
 21
411.9203498867117
 31
0.0
  0
LINE
  5
813
330
1F
100
AcDbEntity
  8
DRAW
  6
CONTINUOUS
 62
     7
100
AcDbLine
 10
528.731293883333
 20
412.6423498867116
 30
0.0
 11
527.8692938833329
 21
412.6423498867116
 31
0.0
  0
POINT
  5
814
330
1F
100
AcDbEntity
  8
DRAW
  6
CONTINUOUS
 62
     7
100
AcDbPoint
 10
534.5092938833329
 20
418.1483498867113
 30
0.0
  0
LINE
  5
815
330
1F
100
AcDbEntity
  8
DRAW
  6
CONTINUOUS
 62
     7
100
AcDbLine
 10
535.809293883333
 20
416.1483498867116
 30
0.0
 11
536.0092938833329
 21
416.1483498867116
 31
0.0
  0
LINE
  5
816
330
1F
100
AcDbEntity
  8
DRAW
  6
CONTINUOUS
 62
     7
100
AcDbLine
 10
536.0092938833329
 20
416.6483498867115
 30
0.0
 11
536.0092938833329
 21
416.1483498867116
 31
0.0
  0
ARC
  5
817
330
1F
100
AcDbEntity
  8
DRAW
  6
CONTINUOUS
 62
     7
100
AcDbCircle
 10
534.5092938833329
 20
416.6483498867115
 30
0.0
 40
1.5
100
AcDbArc
 50
0.0
 51
90.0
  0
LINE
  5
818
330
1F
100
AcDbEntity
  8
DRAW
  6
CONTINUOUS
 62
     7
100
AcDbLine
 10
554.3092938833328
 20
405.1483498867113
 30
0.0
 11
554.5092938833329
 21
405.1483498867113
 31
0.0
  0
LINE
  5
819
330
1F
100
AcDbEntity
  8
DRAW
  6
CONTINUOUS
 62
     7
100
AcDbLine
 10
554.5092938833329
 20
405.6483498867113
 30
0.0
 11
554.5092938833329
 21
405.1483498867113
 31
0.0
  0
ARC
  5
81A
330
1F
100
AcDbEntity
  8
DRAW
  6
CONTINUOUS
 62
     7
100
AcDbCircle
 10
553.0092938833329
 20
405.6483498867113
 30
0.0
 40
1.5
100
AcDbArc
 50
0.0
 51
90.0
  0
MTEXT
  5
909
330
1F
100
AcDbEntity
  8
DRAW_TEXT
100
AcDbMText
 10
476.331024739365
 20
417.8160113724327
 30
0.0
 40
2.5
 41
2.553144911197483
 71
     1
 72
     5
  1
A1
1001
ACAD
1000
MTEXTBEGIN
1070
    73
1070
     1
1070
    44
1040
1.0
1070
    74
1070
     0
1000
MTEXTEND
1000
MTEXTBEGIN
1070
    73
1070
     1
1070
    44
1040
1.0
1070
    74
1070
     0
1000
MTEXTEND
  0
MTEXT
  5
910
330
1F
100
AcDbEntity
  8
DRAW_TEXT
100
AcDbMText
 10
488.0861949627175
 20
417.759738824647
 30
0.0
 40
2.5
 41
2.5531
 71
     1
 72
     5
  1
A2
1001
ACAD
1000
MTEXTBEGIN
1070
    73
1070
     1
1070
    44
1040
1.0
1070
    74
1070
     0
1000
MTEXTEND
1000
MTEXTBEGIN
1070
    73
1070
     1
1070
    44
1040
1.0
1070
    74
1070
     0
1000
MTEXTEND
  0
MTEXT
  5
916
330
1F
100
AcDbEntity
  8
DRAW_TEXT
100
AcDbMText
 10
475.8397155889958
 20
406.5775847986183
 30
0.0
 40
2.5
 41
2.5531
 71
     1
 72
     5
  1
B1
1001
ACAD
1000
MTEXTBEGIN
1070
    73
1070
     1
1070
    44
1040
1.0
1070
    74
1070
     0
1000
MTEXTEND
1000
MTEXTBEGIN
1070
    73
1070
     1
1070
    44
1040
1.0
1070
    74
1070
     0
1000
MTEXTEND
  0
MTEXT
  5
91C
330
1F
100
AcDbEntity
  8
DRAW_TEXT
100
AcDbMText
 10
475.8207680945591
 20
348.0530731021119
 30
0.0
 40
2.5
 41
2.5531
 71
     1
 72
     5
  1
15
1001
ACAD
1000
MTEXTBEGIN
1070
    73
1070
     1
1070
    44
1040
1.0
1070
    74
1070
     0
1000
MTEXTEND
1000
MTEXTBEGIN
1070
    73
1070
     1
1070
    44
1040
1.0
1070
    74
1070
     0
1000
MTEXTEND
  0
MTEXT
  5
922
330
1F
100
AcDbEntity
  8
DRAW_TEXT
100
AcDbMText
 10
488.456922598563
 20
348.0616854072664
 30
0.0
 40
2.5
 41
2.5531
 71
     1
 72
     5
  1
18
1001
ACAD
1000
MTEXTBEGIN
1070
    73
1070
     1
1070
    44
1040
1.0
1070
    74
1070
     0
1000
MTEXTEND
1000
MTEXTBEGIN
1070
    73
1070
     1
1070
    44
1040
1.0
1070
    74
1070
     0
1000
MTEXTEND
  0
MTEXT
  5
92E
330
1F
100
AcDbEntity
  8
DRAW_TEXT
100
AcDbMText
 10
488.8987973627318
 20
337.3024710763183
 30
0.0
 40
2.5
 41
2.5531
 71
     1
 72
     5
  1
16
1001
ACAD
1000
MTEXTBEGIN
1070
    73
1070
     1
1070
    44
1040
1.0
1070
    74
1070
     0
1000
MTEXTEND
1000
MTEXTBEGIN
1070
    73
1070
     1
1070
    44
1040
1.0
1070
    74
1070
     0
1000
MTEXTEND
  0
ENDSEC
  0
SECTION
  2
OBJECTS
  0
DICTIONARY
  5
C
330
0
100
AcDbDictionary
  3
ACAD_GROUP
350
D
  3
ACAD_LAYOUT
350
1A
  3
ACAD_MLINESTYLE
350
17
  3
ACAD_PLOTSETTINGS
350
19
  3
ACAD_PLOTSTYLENAME
350
E
  3
ACDBHEADERROUNDTRIPXREC
350
9A7
  3
ACDBVARIABLEDICTIONARY
350
5E
  0
DICTIONARY
  5
8D1
330
1F
100
AcDbDictionary
280
     1
  3
ACAD_LAYOUTSELFREF
360
9C8
  0
DICTIONARY
  5
8D3
330
50
100
AcDbDictionary
280
     1
  3
ACAD_LAYOUTSELFREF
360
9C9
  0
DICTIONARY
  5
D
102
{ACAD_REACTORS
330
C
102
}
330
C
100
AcDbDictionary
  0
DICTIONARY
  5
1A
102
{ACAD_REACTORS
330
C
102
}
330
C
100
AcDbDictionary
  0
DICTIONARY
  5
17
102
{ACAD_REACTORS
330
C
102
}
330
C
100
AcDbDictionary
  3
STANDARD
350
18
  0
DICTIONARY
  5
19
102
{ACAD_REACTORS
330
C
102
}
330
C
100
AcDbDictionary
  0
ACDBDICTIONARYWDFLT
  5
E
102
{ACAD_REACTORS
330
C
102
}
330
C
100
AcDbDictionary
281
     1
  3
Normal
350
F
100
AcDbDictionaryWithDefault
340
F
  0
DICTIONARY
  5
9A7
102
{ACAD_REACTORS
330
C
102
}
330
C
100
AcDbDictionary
  3
CEPSNTYPE
350
9B1
  3
DIMSTYLEDATA
350
9B5
  3
FINGERPRINTGUID
350
9B2
  3
HYPERLINKBASE
350
9AA
  3
INSUNITS
350
9B0
  3
LAYOUTDICT
350
9AC
  3
LWETCUNION
350
9AF
  3
PLOTSETDICT
350
9AD
  3
PLOTSTYLNAMDICT
350
9AE
  3
PSVPSCALE
350
9B4
  3
PUCSBASE
350
9B8
  3
PUCSORGBACK
350
9BE
  3
PUCSORGBOTTOM
350
9BA
  3
PUCSORGFRONT
350
9BD
  3
PUCSORGLEFT
350
9BB
  3
PUCSORGRIGHT
350
9BC
  3
PUCSORGTOP
350
9B9
  3
PUCSORTHOREF
350
9B6
  3
PUCSORTHOVIEW
350
9B7
  3
STYLESHEET
350
9AB
  3
TSTACKALIGN
350
9A8
  3
TSTACKSIZE
350
9A9
  3
UCSBASE
350
9C1
  3
UCSORGBACK
350
9C7
  3
UCSORGBOTTOM
350
9C3
  3
UCSORGFRONT
350
9C6
  3
UCSORGLEFT
350
9C4
  3
UCSORGRIGHT
350
9C5
  3
UCSORGTOP
350
9C2
  3
UCSORTHOREF
350
9BF
  3
UCSORTHOVIEW
350
9C0
  3
VERSIONGUID
350
9B3
  0
DICTIONARY
  5
5E
102
{ACAD_REACTORS
330
C
102
}
330
C
100
AcDbDictionary
  3
DIMASSOC
350
5F
  3
HIDETEXT
350
63
  0
XRECORD
  5
9C8
102
{ACAD_REACTORS
330
8D1
102
}
330
8D1
100
AcDbXrecord
340
1F
  0
XRECORD
  5
9C9
102
{ACAD_REACTORS
330
8D3
102
}
330
8D3
100
AcDbXrecord
340
50
  0
MLINESTYLE
  5
18
102
{ACAD_REACTORS
330
17
102
}
330
17
100
AcDbMlineStyle
  2
STANDARD
 70
     0
  3

 62
   256
 51
90.0
 52
90.0
 71
     2
 49
0.5
 62
   256
  6
BYLAYER
 49
-0.5
 62
   256
  6
BYLAYER
  0
ACDBPLACEHOLDER
  5
F
102
{ACAD_REACTORS
330
E
102
}
330
E
100
AcDbPlaceHolder
280
     0
  0
XRECORD
  5
9B1
102
{ACAD_REACTORS
330
9A7
102
}
330
9A7
100
AcDbXrecord
 90
        0
  0
XRECORD
  5
9B5
102
{ACAD_REACTORS
330
9A7
102
}
330
9A7
100
AcDbXrecord
1000
DSTYLE
1002
{
1070
   278
 70
    44
1002
}
  0
XRECORD
  5
9B2
102
{ACAD_REACTORS
330
9A7
102
}
330
9A7
100
AcDbXrecord
  1
{FDEAD578-A652-11D2-9A35-0060089B3A3F}
  0
XRECORD
  5
9AA
102
{ACAD_REACTORS
330
9A7
102
}
330
9A7
100
AcDbXrecord
  1

  0
XRECORD
  5
9B0
102
{ACAD_REACTORS
330
9A7
102
}
330
9A7
100
AcDbXrecord
 90
        4
  0
XRECORD
  5
9AC
102
{ACAD_REACTORS
330
9A7
102
}
330
9A7
100
AcDbXrecord
340
1A
  0
XRECORD
  5
9AF
102
{ACAD_REACTORS
330
9A7
102
}
330
9A7
100
AcDbXrecord
 90
    10781
  0
XRECORD
  5
9AD
102
{ACAD_REACTORS
330
9A7
102
}
330
9A7
100
AcDbXrecord
340
19
  0
XRECORD
  5
9AE
102
{ACAD_REACTORS
330
9A7
102
}
330
9A7
100
AcDbXrecord
340
E
  0
XRECORD
  5
9B4
102
{ACAD_REACTORS
330
9A7
102
}
330
9A7
100
AcDbXrecord
 40
0.0
  0
XRECORD
  5
9B8
102
{ACAD_REACTORS
330
9A7
102
}
330
9A7
100
AcDbXrecord
340
0
  0
XRECORD
  5
9BE
102
{ACAD_REACTORS
330
9A7
102
}
330
9A7
100
AcDbXrecord
 10
0.0
 20
0.0
 30
0.0
  0
XRECORD
  5
9BA
102
{ACAD_REACTORS
330
9A7
102
}
330
9A7
100
AcDbXrecord
 10
0.0
 20
0.0
 30
0.0
  0
XRECORD
  5
9BD
102
{ACAD_REACTORS
330
9A7
102
}
330
9A7
100
AcDbXrecord
 10
0.0
 20
0.0
 30
0.0
  0
XRECORD
  5
9BB
102
{ACAD_REACTORS
330
9A7
102
}
330
9A7
100
AcDbXrecord
 10
0.0
 20
0.0
 30
0.0
  0
XRECORD
  5
9BC
102
{ACAD_REACTORS
330
9A7
102
}
330
9A7
100
AcDbXrecord
 10
0.0
 20
0.0
 30
0.0
  0
XRECORD
  5
9B9
102
{ACAD_REACTORS
330
9A7
102
}
330
9A7
100
AcDbXrecord
 10
0.0
 20
0.0
 30
0.0
  0
XRECORD
  5
9B6
102
{ACAD_REACTORS
330
9A7
102
}
330
9A7
100
AcDbXrecord
340
0
  0
XRECORD
  5
9B7
102
{ACAD_REACTORS
330
9A7
102
}
330
9A7
100
AcDbXrecord
 70
     0
  0
XRECORD
  5
9AB
102
{ACAD_REACTORS
330
9A7
102
}
330
9A7
100
AcDbXrecord
  1

  0
XRECORD
  5
9A8
102
{ACAD_REACTORS
330
9A7
102
}
330
9A7
100
AcDbXrecord
 90
        1
  0
XRECORD
  5
9A9
102
{ACAD_REACTORS
330
9A7
102
}
330
9A7
100
AcDbXrecord
 90
       70
  0
XRECORD
  5
9C1
102
{ACAD_REACTORS
330
9A7
102
}
330
9A7
100
AcDbXrecord
340
0
  0
XRECORD
  5
9C7
102
{ACAD_REACTORS
330
9A7
102
}
330
9A7
100
AcDbXrecord
 10
0.0
 20
0.0
 30
0.0
  0
XRECORD
  5
9C3
102
{ACAD_REACTORS
330
9A7
102
}
330
9A7
100
AcDbXrecord
 10
0.0
 20
0.0
 30
0.0
  0
XRECORD
  5
9C6
102
{ACAD_REACTORS
330
9A7
102
}
330
9A7
100
AcDbXrecord
 10
0.0
 20
0.0
 30
0.0
  0
XRECORD
  5
9C4
102
{ACAD_REACTORS
330
9A7
102
}
330
9A7
100
AcDbXrecord
 10
0.0
 20
0.0
 30
0.0
  0
XRECORD
  5
9C5
102
{ACAD_REACTORS
330
9A7
102
}
330
9A7
100
AcDbXrecord
 10
0.0
 20
0.0
 30
0.0
  0
XRECORD
  5
9C2
102
{ACAD_REACTORS
330
9A7
102
}
330
9A7
100
AcDbXrecord
 10
0.0
 20
0.0
 30
0.0
  0
XRECORD
  5
9BF
102
{ACAD_REACTORS
330
9A7
102
}
330
9A7
100
AcDbXrecord
340
0
  0
XRECORD
  5
9C0
102
{ACAD_REACTORS
330
9A7
102
}
330
9A7
100
AcDbXrecord
 70
     0
  0
XRECORD
  5
9B3
102
{ACAD_REACTORS
330
9A7
102
}
330
9A7
100
AcDbXrecord
  1
{0C147064-2534-4F33-A6D2-E32A6EAB6DAD}
  0
DICTIONARYVAR
  5
5F
102
{ACAD_REACTORS
330
5E
102
}
330
5E
100
DictionaryVariables
280
     0
  1
2
  0
DICTIONARYVAR
  5
63
102
{ACAD_REACTORS
330
5E
102
}
330
5E
100
DictionaryVariables
280
     0
  1
1
  0
ENDSEC
  0
EOF
