  0
SECTION
  2
HEADER
  9
$ACADVER
  1
AC1012
  9
$DWGCODEPAGE
  3
ANSI_1252
  9
$INSBASE
 10
0.0
 20
0.0
 30
0.0
  9
$EXTMIN
 10
5.0
 20
5.0
 30
0.0
  9
$EXTMAX
 10
205.000037
 20
292.0001829999999
 30
0.0
  9
$LIMMIN
 10
0.0
 20
0.0
  9
$LIMMAX
 10
210.0
 20
296.0
  9
$ORTHOMODE
 70
     0
  9
$REGENMODE
 70
     1
  9
$FILLMODE
 70
     1
  9
$QTEXTMODE
 70
     0
  9
$MIRRTEXT
 70
     1
  9
$DRAGMODE
 70
     2
  9
$LTSCALE
 40
0.5
  9
$OSMODE
 70
   391
  9
$ATTMODE
 70
     1
  9
$TEXTSIZE
 40
0.2
  9
$TRACEWID
 40
0.05
  9
$TEXTSTYLE
  7
FINDER
  9
$CLAYER
  8
0
  9
$CELTYPE
  6
CONTINUOUS
  9
$CECOLOR
 62
   256
  9
$CELTSCALE
 40
1.0
  9
$DELOBJ
 70
     1
  9
$DISPSILH
 70
     0
  9
$DIMSCALE
 40
1.0
  9
$DIMASZ
 40
2.5
  9
$DIMEXO
 40
2.0
  9
$DIMDLI
 40
6.5
  9
$DIMRND
 40
0.0
  9
$DIMDLE
 40
0.0
  9
$DIMEXE
 40
1.25
  9
$DIMTP
 40
0.0
  9
$DIMTM
 40
0.0
  9
$DIMTXT
 40
3.5
  9
$DIMCEN
 40
2.5
  9
$DIMTSZ
 40
0.0
  9
$DIMTOL
 70
     0
  9
$DIMLIM
 70
     0
  9
$DIMTIH
 70
     0
  9
$DIMTOH
 70
     0
  9
$DIMSE1
 70
     0
  9
$DIMSE2
 70
     0
  9
$DIMTAD
 70
     1
  9
$DIMZIN
 70
     8
  9
$DIMBLK
  1

  9
$DIMASO
 70
     1
  9
$DIMSHO
 70
     1
  9
$DIMPOST
  1

  9
$DIMAPOST
  1

  9
$DIMALT
 70
     0
  9
$DIMALTD
 70
     3
  9
$DIMALTF
 40
0.03937
  9
$DIMLFAC
 40
1.0
  9
$DIMTOFL
 70
     1
  9
$DIMTVP
 40
0.0
  9
$DIMTIX
 70
     0
  9
$DIMSOXD
 70
     0
  9
$DIMSAH
 70
     1
  9
$DIMBLK1
  1
DOTSMALL
  9
$DIMBLK2
  1
DOTSMALL
  9
$DIMSTYLE
  2
FINDER1
  9
$DIMCLRD
 70
   256
  9
$DIMCLRE
 70
   256
  9
$DIMCLRT
 70
     2
  9
$DIMTFAC
 40
1.0
  9
$DIMGAP
 40
0.625
  9
$DIMJUST
 70
     0
  9
$DIMSD1
 70
     0
  9
$DIMSD2
 70
     0
  9
$DIMTOLJ
 70
     0
  9
$DIMTZIN
 70
     8
  9
$DIMALTZ
 70
     0
  9
$DIMALTTZ
 70
     0
  9
$DIMFIT
 70
     3
  9
$DIMUPT
 70
     0
  9
$DIMUNIT
 70
     2
  9
$DIMDEC
 70
     2
  9
$DIMTDEC
 70
     2
  9
$DIMALTU
 70
     2
  9
$DIMALTTD
 70
     3
  9
$DIMTXSTY
  7
FINDER
  9
$DIMAUNIT
 70
     0
  9
$LUNITS
 70
     2
  9
$LUPREC
 70
     4
  9
$SKETCHINC
 40
0.1
  9
$FILLETRAD
 40
0.5
  9
$AUNITS
 70
     0
  9
$AUPREC
 70
     3
  9
$MENU
  1
acad
  9
$ELEVATION
 40
0.0
  9
$PELEVATION
 40
0.0
  9
$THICKNESS
 40
0.0
  9
$LIMCHECK
 70
     0
  9
$BLIPMODE
 70
     0
  9
$CHAMFERA
 40
0.0
  9
$CHAMFERB
 40
0.0
  9
$CHAMFERC
 40
0.0
  9
$CHAMFERD
 40
0.0
  9
$SKPOLY
 70
     0
  9
$TDCREATE
 40
2451901.420981018
  9
$TDUPDATE
 40
2452690.469586805
  9
$TDINDWG
 40
0.9497825231
  9
$TDUSRTIMER
 40
0.9497825231
  9
$USRTIMER
 70
     1
  9
$ANGBASE
 50
0.0
  9
$ANGDIR
 70
     0
  9
$PDMODE
 70
     0
  9
$PDSIZE
 40
0.0
  9
$PLINEWID
 40
0.0
  9
$COORDS
 70
     2
  9
$SPLFRAME
 70
     0
  9
$SPLINETYPE
 70
     6
  9
$SPLINESEGS
 70
     8
  9
$ATTDIA
 70
     0
  9
$ATTREQ
 70
     1
  9
$HANDLING
 70
 22529
  9
$HANDSEED
  5
557D
  9
$SURFTAB1
 70
     6
  9
$SURFTAB2
 70
     6
  9
$SURFTYPE
 70
     6
  9
$SURFU
 70
     6
  9
$SURFV
 70
     6
  9
$UCSNAME
  2

  9
$UCSORG
 10
0.0
 20
0.0
 30
0.0
  9
$UCSXDIR
 10
1.0
 20
0.0
 30
0.0
  9
$UCSYDIR
 10
0.0
 20
1.0
 30
0.0
  9
$PUCSNAME
  2

  9
$PUCSORG
 10
0.0
 20
0.0
 30
0.0
  9
$PUCSXDIR
 10
1.0
 20
0.0
 30
0.0
  9
$PUCSYDIR
 10
0.0
 20
1.0
 30
0.0
  9
$USERI1
 70
     0
  9
$USERI2
 70
     0
  9
$USERI3
 70
     0
  9
$USERI4
 70
     0
  9
$USERI5
 70
     0
  9
$USERR1
 40
0.0
  9
$USERR2
 40
0.0
  9
$USERR3
 40
0.0
  9
$USERR4
 40
0.0
  9
$USERR5
 40
0.0
  9
$WORLDVIEW
 70
     1
  9
$SHADEDGE
 70
     3
  9
$SHADEDIF
 70
    70
  9
$TILEMODE
 70
     1
  9
$MAXACTVP
 70
    16
  9
$PINSBASE
 10
0.0
 20
0.0
 30
0.0
  9
$PLIMCHECK
 70
     0
  9
$PEXTMIN
 10
1.000000000000000E+20
 20
1.000000000000000E+20
 30
1.000000000000000E+20
  9
$PEXTMAX
 10
-1.000000000000000E+20
 20
-1.000000000000000E+20
 30
-1.000000000000000E+20
  9
$PLIMMIN
 10
0.0
 20
0.0
  9
$PLIMMAX
 10
100.0
 20
100.0
  9
$UNITMODE
 70
     0
  9
$VISRETAIN
 70
     0
  9
$PLINEGEN
 70
     1
  9
$PSLTSCALE
 70
     0
  9
$TREEDEPTH
 70
  3020
  9
$PICKSTYLE
 70
     1
  9
$CMLSTYLE
  2
STANDARD
  9
$CMLJUST
 70
     0
  9
$CMLSCALE
 40
1.0
  9
$SAVEIMAGES
 70
     1
  0
ENDSEC
  0
SECTION
  2
CLASSES
  0
CLASS
  1
LWPOLYLINE
  2
AcDbPolyline
  3
AutoCAD 2000
 90
    32768
280
     0
281
     1
  0
CLASS
  1
IMAGE
  2
AcDbRasterImage
  3
ISM
 90
    32895
280
     0
281
     1
  0
CLASS
  1
OLE2FRAME
  2
AcDbOle2Frame
  3
AutoCAD 2000
 90
    32768
280
     0
281
     1
  0
CLASS
  1
HATCH
  2
AcDbHatch
  3
AutoCAD 2000
 90
    32768
280
     0
281
     1
  0
CLASS
  1
DICTIONARYVAR
  2
AcDbDictionaryVar
  3
AutoCAD 2000
 90
    32768
280
     0
281
     0
  0
CLASS
  1
RASTERVARIABLES
  2
AcDbRasterVariables
  3
ISM
 90
    32768
280
     0
281
     0
  0
CLASS
  1
IMAGEDEF
  2
AcDbRasterImageDef
  3
ISM
 90
    32768
280
     0
281
     0
  0
CLASS
  1
IMAGEDEF_REACTOR
  2
AcDbRasterImageDefReactor
  3
ISM
 90
    32769
280
     0
281
     0
  0
CLASS
  1
SPATIAL_FILTER
  2
AcDbSpatialFilter
  3
AutoCAD 2000
 90
    32768
280
     0
281
     0
  0
CLASS
  1
XRECORD
  2
AcDbXrecord
  3
AutoCAD 2000
 90
    32768
280
     0
281
     0
  0
CLASS
  1
SORTENTSTABLE
  2
AcDbSortentsTable
  3
AutoCAD 2000
 90
    32768
280
     0
281
     0
  0
CLASS
  1
LAYER_INDEX
  2
AcDbLayerIndex
  3
AutoCAD 2000
 90
    32768
280
     0
281
     0
  0
CLASS
  1
SPATIAL_INDEX
  2
AcDbSpatialIndex
  3
AutoCAD 2000
 90
    32768
280
     0
281
     0
  0
CLASS
  1
OBJECT_PTR
  2
CAseDLPNTableRecord
  3
ASE-LPNTableRecord
 90
    32769
280
     0
281
     0
  0
CLASS
  1
LAYOUT
  2
AcDbLayout
  3
AutoCAD 2000
 90
    32768
280
     0
281
     0
  0
CLASS
  1
PLOTSETTINGS
  2
AcDbPlotSettings
  3
AutoCAD 2000
 90
    32768
280
     0
281
     0
  0
CLASS
  1
ACDBDICTIONARYWDFLT
  2
AcDbDictionaryWithDefault
  3
AutoCAD 2000
 90
    32768
280
     0
281
     0
  0
CLASS
  1
ACDBPLACEHOLDER
  2
AcDbPlaceHolder
  3
AutoCAD 2000
 90
    32768
280
     0
281
     0
  0
CLASS
  1
VBA_PROJECT
  2
AcDbVbaProject
  3
"acadvba"
 90
    32769
280
     0
281
     0
  0
CLASS
  1
WIPEOUT
  2
AcDbWipeout
  3
WipeOut|AutoCAD Express Tool|expresstools@autodesk.com
 90
    32895
280
     0
281
     1
  0
CLASS
  1
WIPEOUTVARIABLES
  2
AcDbWipeoutVariables
  3
WipeOut|AutoCAD Express Tool|expresstools@autodesk.com
 90
    32768
280
     0
281
     0
  0
CLASS
  1
RTEXT
  2
RText
  3
RText|AutoCAD Express Tool|expresstools@autodesk.com
 90
    32768
280
     0
281
     1
  0
CLASS
  1
ARCALIGNEDTEXT
  2
AcDbArcAlignedText
  3
ATEXT|AutoCAD Express Tool|expresstools@autodesk.com
 90
    32768
280
     0
281
     1
  0
CLASS
  1
LONG_TRANSACTION
  2
AcDbLongTransaction
  3
AutoCAD 2000
 90
    32768
280
     0
281
     0
  0
CLASS
  1
LWPOLYLINE
  2
AcDbPolyline
  3
AutoCAD 2000
 90
    32768
280
     0
281
     1
  0
CLASS
  1
HATCH
  2
AcDbHatch
  3
AutoCAD 2000
 90
    32768
280
     0
281
     1
  0
CLASS
  1
XRECORD
  2
AcDbXrecord
  3
AutoCAD 2000
 90
    32768
280
     0
281
     0
  0
ENDSEC
  0
SECTION
  2
TABLES
  0
TABLE
  2
VPORT
  5
7
330
0
100
AcDbSymbolTable
 70
     3
  0
VPORT
  5
5524
330
7
100
AcDbSymbolTableRecord
100
AcDbViewportTableRecord
  2
*ACTIVE
 70
     0
 10
0.0
 20
0.0
 11
1.0
 21
1.0
 12
105.5813234209668
 22
148.0
 13
0.0
 23
0.0
 14
1.0
 24
1.0
 15
2.0
 25
2.0
 16
0.0
 26
0.0
 36
1.0
 17
0.0
 27
0.0
 37
0.0
 40
299.5806451612903
 41
1.921052631578947
 42
50.0
 43
0.0
 44
0.0
 50
0.0
 51
0.0
 71
     0
 72
   100
 73
     1
 74
     1
 75
     0
 76
     0
 77
     0
 78
     0
  0
ENDTAB
  0
TABLE
  2
LTYPE
  5
4
330
0
100
AcDbSymbolTable
 70
     1
  0
LTYPE
  5
11
330
4
100
AcDbSymbolTableRecord
100
AcDbLinetypeTableRecord
  2
BYBLOCK
 70
     0
  3

 72
    65
 73
     0
 40
0.0
  0
LTYPE
  5
12
330
4
100
AcDbSymbolTableRecord
100
AcDbLinetypeTableRecord
  2
BYLAYER
 70
     0
  3

 72
    65
 73
     0
 40
0.0
  0
LTYPE
  5
13
330
4
100
AcDbSymbolTableRecord
100
AcDbLinetypeTableRecord
  2
CONTINUOUS
 70
     0
  3
Solid line
 72
    65
 73
     0
 40
0.0
  0
ENDTAB
  0
TABLE
  2
LAYER
  5
2
330
0
100
AcDbSymbolTable
 70
     6
  0
LAYER
  5
14
330
2
100
AcDbSymbolTableRecord
100
AcDbLayerTableRecord
  2
0
 70
     0
 62
     7
  6
CONTINUOUS
  0
LAYER
  5
B1
330
2
100
AcDbSymbolTableRecord
100
AcDbLayerTableRecord
  2
DIM
 70
     0
 62
     3
  6
CONTINUOUS
  0
LAYER
  5
B2
330
2
100
AcDbSymbolTableRecord
100
AcDbLayerTableRecord
  2
DRAW
 70
     0
 62
     7
  6
CONTINUOUS
  0
LAYER
  5
B3
330
2
100
AcDbSymbolTableRecord
100
AcDbLayerTableRecord
  2
CARTOUCHE
 70
     0
 62
     7
  6
CONTINUOUS
  0
LAYER
  5
B4
330
2
100
AcDbSymbolTableRecord
100
AcDbLayerTableRecord
  2
DRAW-TEXT
 70
     0
 62
     1
  6
CONTINUOUS
  0
LAYER
  5
4C5B
330
2
100
AcDbSymbolTableRecord
100
AcDbLayerTableRecord
  2
DEFPOINTS
 70
     0
 62
     7
  6
CONTINUOUS
  0
ENDTAB
  0
TABLE
  2
STYLE
  5
3
330
0
100
AcDbSymbolTable
 70
     2
  0
STYLE
  5
17
330
3
100
AcDbSymbolTableRecord
100
AcDbTextStyleTableRecord
  2
STANDARD
 70
     0
 40
0.0
 41
1.0
 50
0.0
 71
     0
 42
0.2
  3
txt
  4

  0
STYLE
  5
BE
330
3
100
AcDbSymbolTableRecord
100
AcDbTextStyleTableRecord
  2
FINDER
 70
     0
 40
1.8
 41
1.0
 50
0.0
 71
     0
 42
0.2
  3
ARIAL.TTF
  4

1001
ACAD
1000
Arial
1071
       34
  0
ENDTAB
  0
TABLE
  2
VIEW
  5
5
330
0
100
AcDbSymbolTable
 70
     0
  0
ENDTAB
  0
TABLE
  2
UCS
  5
6
330
0
100
AcDbSymbolTable
 70
     0
  0
ENDTAB
  0
TABLE
  2
APPID
  5
8
330
0
100
AcDbSymbolTable
 70
     1
  0
APPID
  5
16
330
8
100
AcDbSymbolTableRecord
100
AcDbRegAppTableRecord
  2
ACAD
 70
     0
  0
ENDTAB
  0
TABLE
  2
DIMSTYLE
  5
9
330
0
100
AcDbSymbolTable
 70
     3
  0
DIMSTYLE
105
18
330
9
100
AcDbSymbolTableRecord
100
AcDbDimStyleTableRecord
  2
STANDARD
 70
     0
  3

  4

  5

  6

  7

 40
1.0
 41
0.18
 42
0.0625
 43
0.38
 44
0.18
 45
0.0
 46
0.0
 47
0.0
 48
0.0
140
0.18
141
0.09
142
0.0
143
25.4
144
1.0
145
0.0
146
1.0
147
0.09
 71
     0
 72
     0
 73
     1
 74
     1
 75
     0
 76
     0
 77
     0
 78
     0
170
     0
171
     2
172
     0
173
     0
174
     0
175
     0
176
     0
177
     0
178
     0
270
     2
271
     4
272
     4
273
     2
274
     2
340
17
275
     0
280
     0
281
     0
282
     0
283
     1
284
     0
285
     0
286
     0
287
     3
288
     0
  0
DIMSTYLE
105
D1
102
{ACAD_REACTORS
330
4C60
330
4C6D
330
4C97
330
4CA6
330
4CB2
330
4CC1
330
4CCE
330
4EC9
102
}
330
9
100
AcDbSymbolTableRecord
100
AcDbDimStyleTableRecord
  2
FINDER
 70
     0
  3

  4

  5

  6

  7

 40
1.0
 41
2.5
 42
2.0
 43
6.5
 44
1.25
 45
0.0
 46
0.0
 47
0.0
 48
0.0
140
3.5
141
2.5
142
0.0
143
0.03937
144
1.0
145
0.0
146
1.0
147
0.625
 71
     0
 72
     0
 73
     0
 74
     0
 75
     0
 76
     0
 77
     1
 78
     8
170
     0
171
     3
172
     1
173
     0
174
     0
175
     0
176
   256
177
   256
178
     2
270
     2
271
     2
272
     2
273
     2
274
     3
340
BE
275
     0
280
     0
281
     0
282
     0
283
     0
284
     8
285
     0
286
     0
287
     3
288
     0
  0
DIMSTYLE
105
7F2
102
{ACAD_REACTORS
330
4CDB
330
4CE7
330
4CF3
330
4D01
330
4D1A
330
4EC9
102
}
330
9
100
AcDbSymbolTableRecord
100
AcDbDimStyleTableRecord
  2
FINDER1
 70
     0
  3

  4

  5

  6
DOTSMALL
  7
DOTSMALL
 40
1.0
 41
2.5
 42
2.0
 43
6.5
 44
1.25
 45
0.0
 46
0.0
 47
0.0
 48
0.0
140
3.5
141
2.5
142
0.0
143
0.03937
144
1.0
145
0.0
146
1.0
147
0.625
 71
     0
 72
     0
 73
     0
 74
     0
 75
     0
 76
     0
 77
     1
 78
     8
170
     0
171
     3
172
     1
173
     1
174
     0
175
     0
176
   256
177
   256
178
     2
270
     2
271
     2
272
     2
273
     2
274
     3
340
BE
275
     0
280
     0
281
     0
282
     0
283
     0
284
     8
285
     0
286
     0
287
     3
288
     0
  0
ENDTAB
  0
TABLE
  2
BLOCK_RECORD
  5
1
330
0
100
AcDbSymbolTable
 70
    22
  0
BLOCK_RECORD
  5
A
102
{ACAD_XDICTIONARY
360
5525
102
}
330
1
100
AcDbSymbolTableRecord
100
AcDbBlockTableRecord
  2
*MODEL_SPACE
  0
BLOCK_RECORD
  5
B
102
{ACAD_XDICTIONARY
360
5527
102
}
330
1
100
AcDbSymbolTableRecord
100
AcDbBlockTableRecord
  2
*PAPER_SPACE
  0
BLOCK_RECORD
  5
7A1
330
1
100
AcDbSymbolTableRecord
100
AcDbBlockTableRecord
  2
_DOTSMALL
  0
BLOCK_RECORD
  5
4C53
330
1
100
AcDbSymbolTableRecord
100
AcDbBlockTableRecord
  2
*D1
  0
BLOCK_RECORD
  5
4C61
330
1
100
AcDbSymbolTableRecord
100
AcDbBlockTableRecord
  2
*D2
  0
BLOCK_RECORD
  5
4C87
330
1
100
AcDbSymbolTableRecord
100
AcDbBlockTableRecord
  2
*D3
  0
BLOCK_RECORD
  5
4C98
330
1
100
AcDbSymbolTableRecord
100
AcDbBlockTableRecord
  2
*D4
  0
BLOCK_RECORD
  5
4CA7
330
1
100
AcDbSymbolTableRecord
100
AcDbBlockTableRecord
  2
*D5
  0
BLOCK_RECORD
  5
4CB3
330
1
100
AcDbSymbolTableRecord
100
AcDbBlockTableRecord
  2
*D6
  0
BLOCK_RECORD
  5
4CC2
330
1
100
AcDbSymbolTableRecord
100
AcDbBlockTableRecord
  2
*D7
  0
BLOCK_RECORD
  5
4CCF
330
1
100
AcDbSymbolTableRecord
100
AcDbBlockTableRecord
  2
*D8
  0
BLOCK_RECORD
  5
4CDC
330
1
100
AcDbSymbolTableRecord
100
AcDbBlockTableRecord
  2
*D9
  0
BLOCK_RECORD
  5
4CE8
330
1
100
AcDbSymbolTableRecord
100
AcDbBlockTableRecord
  2
*D10
  0
BLOCK_RECORD
  5
4CF4
330
1
100
AcDbSymbolTableRecord
100
AcDbBlockTableRecord
  2
*D11
  0
BLOCK_RECORD
  5
4D0D
330
1
100
AcDbSymbolTableRecord
100
AcDbBlockTableRecord
  2
*D12
  0
BLOCK_RECORD
  5
4EBD
330
1
100
AcDbSymbolTableRecord
100
AcDbBlockTableRecord
  2
*D13
  0
BLOCK_RECORD
  5
5321
330
1
100
AcDbSymbolTableRecord
100
AcDbBlockTableRecord
  2
*X14
  0
BLOCK_RECORD
  5
53B2
330
1
100
AcDbSymbolTableRecord
100
AcDbBlockTableRecord
  2
*X15
  0
BLOCK_RECORD
  5
53D2
330
1
100
AcDbSymbolTableRecord
100
AcDbBlockTableRecord
  2
*X16
  0
BLOCK_RECORD
  5
53DF
330
1
100
AcDbSymbolTableRecord
100
AcDbBlockTableRecord
  2
*X17
  0
BLOCK_RECORD
  5
53F6
330
1
100
AcDbSymbolTableRecord
100
AcDbBlockTableRecord
  2
*X18
  0
BLOCK_RECORD
  5
5420
330
1
100
AcDbSymbolTableRecord
100
AcDbBlockTableRecord
  2
*X19
  0
BLOCK_RECORD
  5
544F
330
1
100
AcDbSymbolTableRecord
100
AcDbBlockTableRecord
  2
*X20
  0
BLOCK_RECORD
  5
5482
330
1
100
AcDbSymbolTableRecord
100
AcDbBlockTableRecord
  2
*X21
  0
ENDTAB
  0
ENDSEC
  0
SECTION
  2
BLOCKS
  0
BLOCK
  5
D
330
A
100
AcDbEntity
  8
0
100
AcDbBlockBegin
  2
*MODEL_SPACE
 70
     0
 10
0.0
 20
0.0
 30
0.0
  3
*MODEL_SPACE
  1

  0
ENDBLK
  5
E
330
A
100
AcDbEntity
  8
0
100
AcDbBlockEnd
  0
BLOCK
  5
F
330
B
100
AcDbEntity
 67
     1
  8
0
100
AcDbBlockBegin
  2
*PAPER_SPACE
 70
     0
 10
0.0
 20
0.0
 30
0.0
  3
*PAPER_SPACE
  1

  0
ENDBLK
  5
10
330
B
100
AcDbEntity
 67
     1
  8
0
100
AcDbBlockEnd
  0
BLOCK
  5
7A2
330
7A1
100
AcDbEntity
  8
0
100
AcDbBlockBegin
  2
_DOTSMALL
 70
     0
 10
0.0
 20
0.0
 30
0.0
  3
_DOTSMALL
  1

  0
POLYLINE
  5
7A3
330
7A1
100
AcDbEntity
  8
0
  6
BYBLOCK
 62
     0
100
AcDb2dPolyline
 66
     1
 10
0.0
 20
0.0
 30
0.0
 70
     1
 40
0.5
 41
0.5
  0
VERTEX
  5
552F
330
7A3
100
AcDbEntity
  8
0
  6
BYBLOCK
 62
     0
100
AcDbVertex
100
AcDb2dVertex
 10
-0.0625
 20
0.0
 30
0.0
 42
1.0
  0
VERTEX
  5
5530
330
7A3
100
AcDbEntity
  8
0
  6
BYBLOCK
 62
     0
100
AcDbVertex
100
AcDb2dVertex
 10
0.0625
 20
0.0
 30
0.0
 42
1.0
  0
SEQEND
  5
5531
330
7A3
100
AcDbEntity
  8
0
  6
BYBLOCK
 62
     0
  0
ENDBLK
  5
7A7
330
7A1
100
AcDbEntity
  8
0
100
AcDbBlockEnd
  0
BLOCK
  5
4F85
330
4C53
100
AcDbEntity
  8
0
100
AcDbBlockBegin
  2
*D1
 70
     1
 10
0.0
 20
0.0
 30
0.0
  3
*D1
  1

  0
LINE
  5
4F86
330
4C53
100
AcDbEntity
  8
0
  6
BYBLOCK
100
AcDbLine
 10
24.75
 20
202.5472319999999
 30
0.0
 11
24.75
 21
206.25
 31
0.0
  0
LINE
  5
4F87
330
4C53
100
AcDbEntity
  8
0
  6
BYBLOCK
100
AcDbLine
 10
45.45
 20
202.5472319999999
 30
0.0
 11
45.45
 21
206.25
 31
0.0
  0
LINE
  5
4F88
330
4C53
100
AcDbEntity
  8
0
  6
BYBLOCK
100
AcDbLine
 10
27.25
 20
205.0
 30
0.0
 11
42.95
 21
205.0
 31
0.0
  0
SOLID
  5
4F89
330
4C53
100
AcDbEntity
  8
0
  6
BYBLOCK
100
AcDbTrace
 10
27.25
 20
205.4166669999999
 30
0.0
 11
27.25
 21
204.583333
 31
0.0
 12
24.75
 22
205.0
 32
0.0
 13
24.75
 23
205.0
 33
0.0
  0
SOLID
  5
4F8A
330
4C53
100
AcDbEntity
  8
0
  6
BYBLOCK
100
AcDbTrace
 10
42.95
 20
205.4166669999999
 30
0.0
 11
42.95
 21
204.583333
 31
0.0
 12
45.45
 22
205.0
 32
0.0
 13
45.45
 23
205.0
 33
0.0
  0
MTEXT
  5
4F8B
330
4C53
100
AcDbEntity
  8
0
  6
BYBLOCK
 62
     2
100
AcDbMText
 10
35.1
 20
206.544031
 30
0.0
 40
1.8
 41
0.0
 71
     5
 72
     1
  1
20.7
  7
FINDER
1001
ACAD
1000
MTEXTBEGIN
1070
    73
1070
     1
1070
    44
1040
1.0
1070
    74
1070
     0
1000
MTEXTEND
  0
POINT
  5
4F8C
330
4C53
100
AcDbEntity
  8
DEFPOINTS
  6
BYBLOCK
 62
     0
100
AcDbPoint
 10
24.75
 20
200.5472319999999
 30
0.0
  0
POINT
  5
4F8D
330
4C53
100
AcDbEntity
  8
DEFPOINTS
  6
BYBLOCK
 62
     0
100
AcDbPoint
 10
45.45
 20
200.5472319999999
 30
0.0
  0
POINT
  5
4F8E
330
4C53
100
AcDbEntity
  8
DEFPOINTS
  6
BYBLOCK
 62
     0
100
AcDbPoint
 10
45.45
 20
205.0
 30
0.0
  0
ENDBLK
  5
4F8F
330
4C53
100
AcDbEntity
  8
0
100
AcDbBlockEnd
  0
BLOCK
  5
4C62
330
4C61
100
AcDbEntity
  8
0
100
AcDbBlockBegin
  2
*D2
 70
     1
 10
0.0
 20
0.0
 30
0.0
  3
*D2
  1

  0
LINE
  5
4C63
330
4C61
100
AcDbEntity
  8
0
  6
BYBLOCK
100
AcDbLine
 10
22.8
 20
200.5472319999999
 30
0.0
 11
18.75
 21
200.5472319999999
 31
0.0
  0
LINE
  5
4C64
330
4C61
100
AcDbEntity
  8
0
  6
BYBLOCK
100
AcDbLine
 10
22.8
 20
172.847232
 30
0.0
 11
18.75
 21
172.847232
 31
0.0
  0
LINE
  5
4C65
330
4C61
100
AcDbEntity
  8
0
  6
BYBLOCK
100
AcDbLine
 10
20.0
 20
198.047232
 30
0.0
 11
20.0
 21
175.347232
 31
0.0
  0
SOLID
  5
4C66
330
4C61
100
AcDbEntity
  8
0
  6
BYBLOCK
100
AcDbTrace
 10
19.58333299999999
 20
198.047232
 30
0.0
 11
20.41666699999999
 21
198.047232
 31
0.0
 12
20.0
 22
200.5472319999999
 32
0.0
 13
20.0
 23
200.5472319999999
 33
0.0
  0
SOLID
  5
4C67
330
4C61
100
AcDbEntity
  8
0
  6
BYBLOCK
100
AcDbTrace
 10
19.58333299999999
 20
175.347232
 30
0.0
 11
20.41666699999999
 21
175.347232
 31
0.0
 12
20.0
 22
172.847232
 32
0.0
 13
20.0
 23
172.847232
 33
0.0
  0
MTEXT
  5
4C68
330
4C61
100
AcDbEntity
  8
0
  6
BYBLOCK
 62
     2
100
AcDbMText
 10
18.471317
 20
186.697232
 30
0.0
 40
1.8
 41
0.0
 71
     5
 72
     1
  1
27.7
  7
FINDER
 11
0.0
 21
1.0
 31
0.0
1001
ACAD
1000
MTEXTBEGIN
1070
    73
1070
     1
1070
    44
1040
1.0
1070
    74
1070
     0
1000
MTEXTEND
  0
POINT
  5
4C69
330
4C61
100
AcDbEntity
  8
DEFPOINTS
  6
BYBLOCK
 62
     0
100
AcDbPoint
 10
24.8
 20
200.5472319999999
 30
0.0
  0
POINT
  5
4C6A
330
4C61
100
AcDbEntity
  8
DEFPOINTS
  6
BYBLOCK
 62
     0
100
AcDbPoint
 10
24.8
 20
172.847232
 30
0.0
  0
POINT
  5
4C6B
330
4C61
100
AcDbEntity
  8
DEFPOINTS
  6
BYBLOCK
 62
     0
100
AcDbPoint
 10
20.0
 20
172.847232
 30
0.0
  0
ENDBLK
  5
4C6C
330
4C61
100
AcDbEntity
  8
0
100
AcDbBlockEnd
  0
BLOCK
  5
52C0
330
4C87
100
AcDbEntity
  8
0
100
AcDbBlockBegin
  2
*D3
 70
     1
 10
0.0
 20
0.0
 30
0.0
  3
*D3
  1

  0
LINE
  5
52C1
330
4C87
100
AcDbEntity
  8
0
  6
BYBLOCK
100
AcDbLine
 10
138.655607
 20
201.4522819999999
 30
0.0
 11
138.655607
 21
206.25
 31
0.0
  0
LINE
  5
52C2
330
4C87
100
AcDbEntity
  8
0
  6
BYBLOCK
100
AcDbLine
 10
142.2556069999999
 20
199.547232
 30
0.0
 11
142.2556069999999
 21
206.25
 31
0.0
  0
LINE
  5
52C3
330
4C87
100
AcDbEntity
  8
0
  6
BYBLOCK
100
AcDbLine
 10
136.155607
 20
205.0
 30
0.0
 11
133.655607
 21
205.0
 31
0.0
  0
LINE
  5
52C4
330
4C87
100
AcDbEntity
  8
0
  6
BYBLOCK
100
AcDbLine
 10
144.755607
 20
205.0
 30
0.0
 11
147.2556069999999
 21
205.0
 31
0.0
  0
LINE
  5
52C5
330
4C87
100
AcDbEntity
  8
0
  6
BYBLOCK
100
AcDbLine
 10
140.455607
 20
205.0
 30
0.0
 11
141.387751
 21
208.107145
 31
0.0
  0
LINE
  5
52C6
330
4C87
100
AcDbEntity
  8
0
  6
BYBLOCK
100
AcDbLine
 10
141.387751
 20
208.107145
 30
0.0
 11
145.912375
 21
208.107145
 31
0.0
  0
MTEXT
  5
52C7
330
4C87
100
AcDbEntity
  8
0
  6
BYBLOCK
 62
     2
100
AcDbMText
 10
142.012751
 20
209.651791
 30
0.0
 40
1.8
 41
0.0
 71
     4
 72
     1
  1
3.6
  7
FINDER
1001
ACAD
1000
MTEXTBEGIN
1070
    73
1070
     1
1070
    44
1040
1.0
1070
    74
1070
     0
1000
MTEXTEND
  0
LINE
  5
52C8
330
4C87
100
AcDbEntity
  8
0
  6
BYBLOCK
100
AcDbLine
 10
138.655607
 20
205.0
 30
0.0
 11
142.2556069999999
 21
205.0
 31
0.0
  0
LINE
  5
52C9
330
4C87
100
AcDbEntity
  8
0
  6
BYBLOCK
100
AcDbLine
 10
138.655607
 20
205.0
 30
0.0
 11
142.2556069999999
 21
205.0
 31
0.0
  0
SOLID
  5
52CA
330
4C87
100
AcDbEntity
  8
0
  6
BYBLOCK
100
AcDbTrace
 10
136.155607
 20
205.4166669999999
 30
0.0
 11
136.155607
 21
204.583333
 31
0.0
 12
138.655607
 22
205.0
 32
0.0
 13
138.655607
 23
205.0
 33
0.0
  0
SOLID
  5
52CB
330
4C87
100
AcDbEntity
  8
0
  6
BYBLOCK
100
AcDbTrace
 10
144.755607
 20
205.4166669999999
 30
0.0
 11
144.755607
 21
204.583333
 31
0.0
 12
142.2556069999999
 22
205.0
 32
0.0
 13
142.2556069999999
 23
205.0
 33
0.0
  0
POINT
  5
52CC
330
4C87
100
AcDbEntity
  8
DEFPOINTS
  6
BYBLOCK
 62
     0
100
AcDbPoint
 10
138.655607
 20
199.452282
 30
0.0
  0
POINT
  5
52CD
330
4C87
100
AcDbEntity
  8
DEFPOINTS
  6
BYBLOCK
 62
     0
100
AcDbPoint
 10
142.2556069999999
 20
197.547232
 30
0.0
  0
POINT
  5
52CE
330
4C87
100
AcDbEntity
  8
DEFPOINTS
  6
BYBLOCK
 62
     0
100
AcDbPoint
 10
142.2556069999999
 20
205.0
 30
0.0
  0
ENDBLK
  5
52CF
330
4C87
100
AcDbEntity
  8
0
100
AcDbBlockEnd
  0
BLOCK
  5
5098
330
4C98
100
AcDbEntity
  8
0
100
AcDbBlockBegin
  2
*D4
 70
     1
 10
0.0
 20
0.0
 30
0.0
  3
*D4
  1

  0
LINE
  5
5099
330
4C98
100
AcDbEntity
  8
0
  6
BYBLOCK
100
AcDbLine
 10
73.55560699999999
 20
177.2921039999999
 30
0.0
 11
73.55560699999999
 21
165.7499999999999
 31
0.0
  0
LINE
  5
509A
330
4C98
100
AcDbEntity
  8
0
  6
BYBLOCK
100
AcDbLine
 10
79.55560699999999
 20
172.636982
 30
0.0
 11
79.55560699999999
 21
165.7499999999999
 31
0.0
  0
LINE
  5
509B
330
4C98
100
AcDbEntity
  8
0
  6
BYBLOCK
100
AcDbLine
 10
71.05560699999999
 20
167.0
 30
0.0
 11
68.55560699999999
 21
167.0
 31
0.0
  0
LINE
  5
509C
330
4C98
100
AcDbEntity
  8
0
  6
BYBLOCK
100
AcDbLine
 10
82.05560699999999
 20
167.0
 30
0.0
 11
84.55560699999999
 21
167.0
 31
0.0
  0
LINE
  5
509D
330
4C98
100
AcDbEntity
  8
0
  6
BYBLOCK
100
AcDbLine
 10
73.55560699999999
 20
167.0
 30
0.0
 11
79.55560699999999
 21
167.0
 31
0.0
  0
SOLID
  5
509E
330
4C98
100
AcDbEntity
  8
0
  6
BYBLOCK
100
AcDbTrace
 10
71.05560699999999
 20
167.4166669999999
 30
0.0
 11
71.05560699999999
 21
166.583333
 31
0.0
 12
73.55560699999999
 22
167.0
 32
0.0
 13
73.55560699999999
 23
167.0
 33
0.0
  0
SOLID
  5
509F
330
4C98
100
AcDbEntity
  8
0
  6
BYBLOCK
100
AcDbTrace
 10
82.05560699999999
 20
167.4166669999999
 30
0.0
 11
82.05560699999999
 21
166.583333
 31
0.0
 12
79.55560699999999
 22
167.0
 32
0.0
 13
79.55560699999999
 23
167.0
 33
0.0
  0
MTEXT
  5
50A0
330
4C98
100
AcDbEntity
  8
0
  6
BYBLOCK
 62
     2
100
AcDbMText
 10
76.55560699999999
 20
168.544031
 30
0.0
 40
1.8
 41
0.0
 71
     5
 72
     1
  1
6
  7
FINDER
1001
ACAD
1000
MTEXTBEGIN
1070
    73
1070
     1
1070
    44
1040
1.0
1070
    74
1070
     0
1000
MTEXTEND
  0
POINT
  5
50A1
330
4C98
100
AcDbEntity
  8
DEFPOINTS
  6
BYBLOCK
 62
     0
100
AcDbPoint
 10
73.55560699999999
 20
179.2921039999999
 30
0.0
  0
POINT
  5
50A2
330
4C98
100
AcDbEntity
  8
DEFPOINTS
  6
BYBLOCK
 62
     0
100
AcDbPoint
 10
79.55560699999999
 20
174.636982
 30
0.0
  0
POINT
  5
50A3
330
4C98
100
AcDbEntity
  8
DEFPOINTS
  6
BYBLOCK
 62
     0
100
AcDbPoint
 10
79.55560699999999
 20
167.0
 30
0.0
  0
ENDBLK
  5
50A4
330
4C98
100
AcDbEntity
  8
0
100
AcDbBlockEnd
  0
BLOCK
  5
52D0
330
4CA7
100
AcDbEntity
  8
0
100
AcDbBlockBegin
  2
*D5
 70
     1
 10
0.0
 20
0.0
 30
0.0
  3
*D5
  1

  0
LINE
  5
52D1
330
4CA7
100
AcDbEntity
  8
0
  6
BYBLOCK
100
AcDbLine
 10
138.655607
 20
177.547232
 30
0.0
 11
138.655607
 21
165.7499999999999
 31
0.0
  0
LINE
  5
52D2
330
4CA7
100
AcDbEntity
  8
0
  6
BYBLOCK
100
AcDbLine
 10
82.05560699999999
 20
167.0
 30
0.0
 11
136.155607
 21
167.0
 31
0.0
  0
SOLID
  5
52D3
330
4CA7
100
AcDbEntity
  8
0
  6
BYBLOCK
100
AcDbTrace
 10
82.05560699999999
 20
167.4166669999999
 30
0.0
 11
82.05560699999999
 21
166.583333
 31
0.0
 12
79.55560699999999
 22
167.0
 32
0.0
 13
79.55560699999999
 23
167.0
 33
0.0
  0
SOLID
  5
52D4
330
4CA7
100
AcDbEntity
  8
0
  6
BYBLOCK
100
AcDbTrace
 10
136.155607
 20
167.4166669999999
 30
0.0
 11
136.155607
 21
166.583333
 31
0.0
 12
138.655607
 22
167.0
 32
0.0
 13
138.655607
 23
167.0
 33
0.0
  0
MTEXT
  5
52D5
330
4CA7
100
AcDbEntity
  8
0
  6
BYBLOCK
 62
     2
100
AcDbMText
 10
109.105607
 20
168.544031
 30
0.0
 40
1.8
 41
0.0
 71
     5
 72
     1
  1
59.1
  7
FINDER
1001
ACAD
1000
MTEXTBEGIN
1070
    73
1070
     1
1070
    44
1040
1.0
1070
    74
1070
     0
1000
MTEXTEND
  0
POINT
  5
52D6
330
4CA7
100
AcDbEntity
  8
DEFPOINTS
  6
BYBLOCK
 62
     0
100
AcDbPoint
 10
79.55560699999999
 20
174.636982
 30
0.0
  0
POINT
  5
52D7
330
4CA7
100
AcDbEntity
  8
DEFPOINTS
  6
BYBLOCK
 62
     0
100
AcDbPoint
 10
138.655607
 20
179.547232
 30
0.0
  0
POINT
  5
52D8
330
4CA7
100
AcDbEntity
  8
DEFPOINTS
  6
BYBLOCK
 62
     0
100
AcDbPoint
 10
138.655607
 20
167.0
 30
0.0
  0
ENDBLK
  5
52D9
330
4CA7
100
AcDbEntity
  8
0
100
AcDbBlockEnd
  0
BLOCK
  5
4CB4
330
4CB3
100
AcDbEntity
  8
0
100
AcDbBlockBegin
  2
*D6
 70
     1
 10
0.0
 20
0.0
 30
0.0
  3
*D6
  1

  0
LINE
  5
4CB5
330
4CB3
100
AcDbEntity
  8
0
  6
BYBLOCK
100
AcDbLine
 10
136.755607
 20
171.9420149999999
 30
0.0
 11
136.755607
 21
168.75
 31
0.0
  0
LINE
  5
4CB6
330
4CB3
100
AcDbEntity
  8
0
  6
BYBLOCK
100
AcDbLine
 10
138.655607
 20
177.547232
 30
0.0
 11
138.655607
 21
168.75
 31
0.0
  0
LINE
  5
4CB7
330
4CB3
100
AcDbEntity
  8
0
  6
BYBLOCK
100
AcDbLine
 10
134.255607
 20
170.0
 30
0.0
 11
131.7556069999999
 21
170.0
 31
0.0
  0
LINE
  5
4CB8
330
4CB3
100
AcDbEntity
  8
0
  6
BYBLOCK
100
AcDbLine
 10
141.155607
 20
170.0
 30
0.0
 11
148.3717729999999
 21
170.0
 31
0.0
  0
LINE
  5
4CB9
330
4CB3
100
AcDbEntity
  8
0
  6
BYBLOCK
100
AcDbLine
 10
136.755607
 20
170.0
 30
0.0
 11
138.655607
 21
170.0
 31
0.0
  0
SOLID
  5
4CBA
330
4CB3
100
AcDbEntity
  8
0
  6
BYBLOCK
100
AcDbTrace
 10
134.255607
 20
170.416667
 30
0.0
 11
134.255607
 21
169.583333
 31
0.0
 12
136.755607
 22
170.0
 32
0.0
 13
136.755607
 23
170.0
 33
0.0
  0
SOLID
  5
4CBB
330
4CB3
100
AcDbEntity
  8
0
  6
BYBLOCK
100
AcDbTrace
 10
141.155607
 20
170.416667
 30
0.0
 11
141.155607
 21
169.583333
 31
0.0
 12
138.655607
 22
170.0
 32
0.0
 13
138.655607
 23
170.0
 33
0.0
  0
MTEXT
  5
4CBC
330
4CB3
100
AcDbEntity
  8
0
  6
BYBLOCK
 62
     2
100
AcDbMText
 10
146.01369
 20
171.544031
 30
0.0
 40
1.8
 41
0.0
 71
     5
 72
     1
  1
1.9
  7
FINDER
1001
ACAD
1000
MTEXTBEGIN
1070
    73
1070
     1
1070
    44
1040
1.0
1070
    74
1070
     0
1000
MTEXTEND
  0
POINT
  5
4CBD
330
4CB3
100
AcDbEntity
  8
DEFPOINTS
  6
BYBLOCK
 62
     0
100
AcDbPoint
 10
136.755607
 20
173.9420149999999
 30
0.0
  0
POINT
  5
4CBE
330
4CB3
100
AcDbEntity
  8
DEFPOINTS
  6
BYBLOCK
 62
     0
100
AcDbPoint
 10
138.655607
 20
179.547232
 30
0.0
  0
POINT
  5
4CBF
330
4CB3
100
AcDbEntity
  8
DEFPOINTS
  6
BYBLOCK
 62
     0
100
AcDbPoint
 10
138.655607
 20
170.0
 30
0.0
  0
ENDBLK
  5
4CC0
330
4CB3
100
AcDbEntity
  8
0
100
AcDbBlockEnd
  0
BLOCK
  5
4CC3
330
4CC2
100
AcDbEntity
  8
0
100
AcDbBlockBegin
  2
*D7
 70
     1
 10
0.0
 20
0.0
 30
0.0
  3
*D7
  1

  0
LINE
  5
4CC4
330
4CC2
100
AcDbEntity
  8
0
  6
BYBLOCK
100
AcDbLine
 10
143.2556069999999
 20
198.547232
 30
0.0
 11
150.2499999999999
 21
198.547232
 31
0.0
  0
LINE
  5
4CC5
330
4CC2
100
AcDbEntity
  8
0
  6
BYBLOCK
100
AcDbLine
 10
143.2556069999999
 20
184.047232
 30
0.0
 11
150.2499999999999
 21
184.047232
 31
0.0
  0
LINE
  5
4CC6
330
4CC2
100
AcDbEntity
  8
0
  6
BYBLOCK
100
AcDbLine
 10
149.0
 20
196.047232
 30
0.0
 11
149.0
 21
186.547232
 31
0.0
  0
SOLID
  5
4CC7
330
4CC2
100
AcDbEntity
  8
0
  6
BYBLOCK
100
AcDbTrace
 10
148.583333
 20
196.047232
 30
0.0
 11
149.416667
 21
196.047232
 31
0.0
 12
149.0
 22
198.547232
 32
0.0
 13
149.0
 23
198.547232
 33
0.0
  0
SOLID
  5
4CC8
330
4CC2
100
AcDbEntity
  8
0
  6
BYBLOCK
100
AcDbTrace
 10
148.583333
 20
186.547232
 30
0.0
 11
149.416667
 21
186.547232
 31
0.0
 12
149.0
 22
184.047232
 32
0.0
 13
149.0
 23
184.047232
 33
0.0
  0
MTEXT
  5
4CC9
330
4CC2
100
AcDbEntity
  8
0
  6
BYBLOCK
 62
     2
100
AcDbMText
 10
147.4559689999999
 20
191.297232
 30
0.0
 40
1.8
 41
0.0
 71
     5
 72
     1
  1
14.5
  7
FINDER
 11
0.0
 21
1.0
 31
0.0
1001
ACAD
1000
MTEXTBEGIN
1070
    73
1070
     1
1070
    44
1040
1.0
1070
    74
1070
     0
1000
MTEXTEND
  0
POINT
  5
4CCA
330
4CC2
100
AcDbEntity
  8
DEFPOINTS
  6
BYBLOCK
 62
     0
100
AcDbPoint
 10
141.2556069999999
 20
198.547232
 30
0.0
  0
POINT
  5
4CCB
330
4CC2
100
AcDbEntity
  8
DEFPOINTS
  6
BYBLOCK
 62
     0
100
AcDbPoint
 10
141.2556069999999
 20
184.047232
 30
0.0
  0
POINT
  5
4CCC
330
4CC2
100
AcDbEntity
  8
DEFPOINTS
  6
BYBLOCK
 62
     0
100
AcDbPoint
 10
149.0
 20
184.047232
 30
0.0
  0
ENDBLK
  5
4CCD
330
4CC2
100
AcDbEntity
  8
0
100
AcDbBlockEnd
  0
BLOCK
  5
52DA
330
4CCF
100
AcDbEntity
  8
0
100
AcDbBlockBegin
  2
*D8
 70
     1
 10
0.0
 20
0.0
 30
0.0
  3
*D8
  1

  0
LINE
  5
52DB
330
4CCF
100
AcDbEntity
  8
0
  6
BYBLOCK
100
AcDbLine
 10
79.160851
 20
172.842532
 30
0.0
 11
67.85
 21
172.842532
 31
0.0
  0
LINE
  5
52DC
330
4CCF
100
AcDbEntity
  8
0
  6
BYBLOCK
100
AcDbLine
 10
71.55560699999999
 20
179.5421039999999
 30
0.0
 11
67.85
 21
179.5421039999999
 31
0.0
  0
LINE
  5
52DD
330
4CCF
100
AcDbEntity
  8
0
  6
BYBLOCK
100
AcDbLine
 10
69.1
 20
175.342532
 30
0.0
 11
69.1
 21
179.5421039999999
 31
0.0
  0
SOLID
  5
52DE
330
4CCF
100
AcDbEntity
  8
0
  6
BYBLOCK
100
AcDbTrace
 10
68.68333299999999
 20
175.342532
 30
0.0
 11
69.516667
 21
175.342532
 31
0.0
 12
69.1
 22
172.842532
 32
0.0
 13
69.1
 23
172.842532
 33
0.0
  0
INSERT
  5
52DF
330
4CCF
100
AcDbEntity
  8
0
  6
BYBLOCK
100
AcDbBlockReference
  2
_DOTSMALL
 10
69.1
 20
179.5421039999999
 30
0.0
 41
2.5
 42
2.5
 43
2.5
 50
90.0
  0
MTEXT
  5
52E0
330
4CCF
100
AcDbEntity
  8
0
  6
BYBLOCK
 62
     2
100
AcDbMText
 10
67.55596899999999
 20
177.442318
 30
0.0
 40
1.8
 41
0.0
 71
     5
 72
     1
  1
6.7
  7
FINDER
 11
0.0
 21
1.0
 31
0.0
1001
ACAD
1000
MTEXTBEGIN
1070
    73
1070
     1
1070
    44
1040
1.0
1070
    74
1070
     0
1000
MTEXTEND
  0
POINT
  5
52E1
330
4CCF
100
AcDbEntity
  8
DEFPOINTS
  6
BYBLOCK
 62
     0
100
AcDbPoint
 10
81.16085099999999
 20
172.842532
 30
0.0
  0
POINT
  5
52E2
330
4CCF
100
AcDbEntity
  8
DEFPOINTS
  6
BYBLOCK
 62
     0
100
AcDbPoint
 10
73.55560699999999
 20
179.5421039999999
 30
0.0
  0
POINT
  5
52E3
330
4CCF
100
AcDbEntity
  8
DEFPOINTS
  6
BYBLOCK
 62
     0
100
AcDbPoint
 10
69.1
 20
179.5421039999999
 30
0.0
  0
ENDBLK
  5
52E4
330
4CCF
100
AcDbEntity
  8
0
100
AcDbBlockEnd
  0
BLOCK
  5
52E5
330
4CDC
100
AcDbEntity
  8
0
100
AcDbBlockBegin
  2
*D9
 70
     1
 10
0.0
 20
0.0
 30
0.0
  3
*D9
  1

  0
LINE
  5
52E6
330
4CDC
100
AcDbEntity
  8
0
  6
BYBLOCK
100
AcDbLine
 10
71.55560699999999
 20
185.892104
 30
0.0
 11
67.85
 21
185.892104
 31
0.0
  0
LINE
  5
52E7
330
4CDC
100
AcDbEntity
  8
0
  6
BYBLOCK
100
AcDbLine
 10
69.1
 20
179.5421039999999
 30
0.0
 11
69.1
 21
185.892104
 31
0.0
  0
INSERT
  5
52E8
330
4CDC
100
AcDbEntity
  8
0
  6
BYBLOCK
100
AcDbBlockReference
  2
_DOTSMALL
 10
69.1
 20
179.5421039999999
 30
0.0
 41
2.5
 42
2.5
 43
2.5
 50
270.0
  0
INSERT
  5
52E9
330
4CDC
100
AcDbEntity
  8
0
  6
BYBLOCK
100
AcDbBlockReference
  2
_DOTSMALL
 10
69.1
 20
185.892104
 30
0.0
 41
2.5
 42
2.5
 43
2.5
 50
90.0
  0
MTEXT
  5
52EA
330
4CDC
100
AcDbEntity
  8
0
  6
BYBLOCK
 62
     2
100
AcDbMText
 10
67.555355
 20
182.7171039999999
 30
0.0
 40
1.8
 41
0.0
 71
     5
 72
     1
  1
6.35
  7
FINDER
 11
0.0
 21
1.0
 31
0.0
1001
ACAD
1000
MTEXTBEGIN
1070
    73
1070
     1
1070
    44
1040
1.0
1070
    74
1070
     0
1000
MTEXTEND
  0
POINT
  5
52EB
330
4CDC
100
AcDbEntity
  8
DEFPOINTS
  6
BYBLOCK
 62
     0
100
AcDbPoint
 10
73.55560699999999
 20
179.5421039999999
 30
0.0
  0
POINT
  5
52EC
330
4CDC
100
AcDbEntity
  8
DEFPOINTS
  6
BYBLOCK
 62
     0
100
AcDbPoint
 10
73.55560699999999
 20
185.892104
 30
0.0
  0
POINT
  5
52ED
330
4CDC
100
AcDbEntity
  8
DEFPOINTS
  6
BYBLOCK
 62
     0
100
AcDbPoint
 10
69.1
 20
185.892104
 30
0.0
  0
ENDBLK
  5
52EE
330
4CDC
100
AcDbEntity
  8
0
100
AcDbBlockEnd
  0
BLOCK
  5
52EF
330
4CE8
100
AcDbEntity
  8
0
100
AcDbBlockBegin
  2
*D10
 70
     1
 10
0.0
 20
0.0
 30
0.0
  3
*D10
  1

  0
LINE
  5
52F0
330
4CE8
100
AcDbEntity
  8
0
  6
BYBLOCK
100
AcDbLine
 10
71.55560699999999
 20
192.242104
 30
0.0
 11
67.85
 21
192.242104
 31
0.0
  0
LINE
  5
52F1
330
4CE8
100
AcDbEntity
  8
0
  6
BYBLOCK
100
AcDbLine
 10
69.1
 20
185.892104
 30
0.0
 11
69.1
 21
192.242104
 31
0.0
  0
INSERT
  5
52F2
330
4CE8
100
AcDbEntity
  8
0
  6
BYBLOCK
100
AcDbBlockReference
  2
_DOTSMALL
 10
69.1
 20
185.892104
 30
0.0
 41
2.5
 42
2.5
 43
2.5
 50
270.0
  0
INSERT
  5
52F3
330
4CE8
100
AcDbEntity
  8
0
  6
BYBLOCK
100
AcDbBlockReference
  2
_DOTSMALL
 10
69.1
 20
192.242104
 30
0.0
 41
2.5
 42
2.5
 43
2.5
 50
90.0
  0
MTEXT
  5
52F4
330
4CE8
100
AcDbEntity
  8
0
  6
BYBLOCK
 62
     2
100
AcDbMText
 10
67.555355
 20
189.0671039999999
 30
0.0
 40
1.8
 41
0.0
 71
     5
 72
     1
  1
6.35
  7
FINDER
 11
0.0
 21
1.0
 31
0.0
1001
ACAD
1000
MTEXTBEGIN
1070
    73
1070
     1
1070
    44
1040
1.0
1070
    74
1070
     0
1000
MTEXTEND
  0
POINT
  5
52F5
330
4CE8
100
AcDbEntity
  8
DEFPOINTS
  6
BYBLOCK
 62
     0
100
AcDbPoint
 10
73.55560699999999
 20
185.892104
 30
0.0
  0
POINT
  5
52F6
330
4CE8
100
AcDbEntity
  8
DEFPOINTS
  6
BYBLOCK
 62
     0
100
AcDbPoint
 10
73.55560699999999
 20
192.242104
 30
0.0
  0
POINT
  5
52F7
330
4CE8
100
AcDbEntity
  8
DEFPOINTS
  6
BYBLOCK
 62
     0
100
AcDbPoint
 10
69.1
 20
192.242104
 30
0.0
  0
ENDBLK
  5
52F8
330
4CE8
100
AcDbEntity
  8
0
100
AcDbBlockEnd
  0
BLOCK
  5
52F9
330
4CF4
100
AcDbEntity
  8
0
100
AcDbBlockBegin
  2
*D11
 70
     1
 10
0.0
 20
0.0
 30
0.0
  3
*D11
  1

  0
LINE
  5
52FA
330
4CF4
100
AcDbEntity
  8
0
  6
BYBLOCK
100
AcDbLine
 10
71.55560699999999
 20
196.342104
 30
0.0
 11
67.85
 21
196.342104
 31
0.0
  0
LINE
  5
52FB
330
4CF4
100
AcDbEntity
  8
0
  6
BYBLOCK
100
AcDbLine
 10
69.1
 20
192.242104
 30
0.0
 11
69.1
 21
196.342104
 31
0.0
  0
LINE
  5
52FC
330
4CF4
100
AcDbEntity
  8
0
  6
BYBLOCK
100
AcDbLine
 10
69.1
 20
194.292104
 30
0.0
 11
66.00881700000001
 21
195.2194589999999
 31
0.0
  0
LINE
  5
52FD
330
4CF4
100
AcDbEntity
  8
0
  6
BYBLOCK
100
AcDbLine
 10
66.00881700000001
 20
195.2194589999999
 30
0.0
 11
66.00881700000001
 21
199.745312
 31
0.0
  0
MTEXT
  5
52FE
330
4CF4
100
AcDbEntity
  8
0
  6
BYBLOCK
 62
     2
100
AcDbMText
 10
64.48013299999999
 20
195.844459
 30
0.0
 40
1.8
 41
0.0
 71
     4
 72
     1
  1
4.1
  7
FINDER
 11
0.0
 21
1.0
 31
0.0
1001
ACAD
1000
MTEXTBEGIN
1070
    73
1070
     1
1070
    44
1040
1.0
1070
    74
1070
     0
1000
MTEXTEND
  0
INSERT
  5
52FF
330
4CF4
100
AcDbEntity
  8
0
  6
BYBLOCK
100
AcDbBlockReference
  2
_DOTSMALL
 10
69.1
 20
192.242104
 30
0.0
 41
2.5
 42
2.5
 43
2.5
 50
270.0
  0
INSERT
  5
5300
330
4CF4
100
AcDbEntity
  8
0
  6
BYBLOCK
100
AcDbBlockReference
  2
_DOTSMALL
 10
69.1
 20
196.342104
 30
0.0
 41
2.5
 42
2.5
 43
2.5
 50
90.0
  0
POINT
  5
5301
330
4CF4
100
AcDbEntity
  8
DEFPOINTS
  6
BYBLOCK
 62
     0
100
AcDbPoint
 10
73.55560699999999
 20
192.242104
 30
0.0
  0
POINT
  5
5302
330
4CF4
100
AcDbEntity
  8
DEFPOINTS
  6
BYBLOCK
 62
     0
100
AcDbPoint
 10
73.55560699999999
 20
196.342104
 30
0.0
  0
POINT
  5
5303
330
4CF4
100
AcDbEntity
  8
DEFPOINTS
  6
BYBLOCK
 62
     0
100
AcDbPoint
 10
69.1
 20
196.342104
 30
0.0
  0
ENDBLK
  5
5304
330
4CF4
100
AcDbEntity
  8
0
100
AcDbBlockEnd
  0
BLOCK
  5
5305
330
4D0D
100
AcDbEntity
  8
0
100
AcDbBlockBegin
  2
*D12
 70
     1
 10
0.0
 20
0.0
 30
0.0
  3
*D12
  1

  0
LINE
  5
5306
330
4D0D
100
AcDbEntity
  8
0
  6
BYBLOCK
100
AcDbLine
 10
79.16068299999999
 20
200.5421039999999
 30
0.0
 11
67.85
 21
200.5421039999999
 31
0.0
  0
LINE
  5
5307
330
4D0D
100
AcDbEntity
  8
0
  6
BYBLOCK
100
AcDbLine
 10
69.1
 20
196.342104
 30
0.0
 11
69.1
 21
198.0421039999999
 31
0.0
  0
LINE
  5
5308
330
4D0D
100
AcDbEntity
  8
0
  6
BYBLOCK
100
AcDbLine
 10
69.1
 20
198.4421039999999
 30
0.0
 11
66.00881700000001
 21
199.369459
 31
0.0
  0
LINE
  5
5309
330
4D0D
100
AcDbEntity
  8
0
  6
BYBLOCK
100
AcDbLine
 10
66.00881700000001
 20
199.369459
 30
0.0
 11
66.00881700000001
 21
203.9505639999999
 31
0.0
  0
MTEXT
  5
530A
330
4D0D
100
AcDbEntity
  8
0
  6
BYBLOCK
 62
     2
100
AcDbMText
 10
64.48013299999999
 20
199.994459
 30
0.0
 40
1.8
 41
0.0
 71
     4
 72
     1
  1
4.2
  7
FINDER
 11
0.0
 21
1.0
 31
0.0
1001
ACAD
1000
MTEXTBEGIN
1070
    73
1070
     1
1070
    44
1040
1.0
1070
    74
1070
     0
1000
MTEXTEND
  0
INSERT
  5
530B
330
4D0D
100
AcDbEntity
  8
0
  6
BYBLOCK
100
AcDbBlockReference
  2
_DOTSMALL
 10
69.1
 20
196.342104
 30
0.0
 41
2.5
 42
2.5
 43
2.5
 50
270.0
  0
SOLID
  5
530C
330
4D0D
100
AcDbEntity
  8
0
  6
BYBLOCK
100
AcDbTrace
 10
68.68333299999999
 20
198.0421039999999
 30
0.0
 11
69.516667
 21
198.0421039999999
 31
0.0
 12
69.1
 22
200.5421039999999
 32
0.0
 13
69.1
 23
200.5421039999999
 33
0.0
  0
POINT
  5
530D
330
4D0D
100
AcDbEntity
  8
DEFPOINTS
  6
BYBLOCK
 62
     0
100
AcDbPoint
 10
73.55560699999999
 20
196.342104
 30
0.0
  0
POINT
  5
530E
330
4D0D
100
AcDbEntity
  8
DEFPOINTS
  6
BYBLOCK
 62
     0
100
AcDbPoint
 10
81.160683
 20
200.5421039999999
 30
0.0
  0
POINT
  5
530F
330
4D0D
100
AcDbEntity
  8
DEFPOINTS
  6
BYBLOCK
 62
     0
100
AcDbPoint
 10
69.1
 20
200.5421039999999
 30
0.0
  0
ENDBLK
  5
5310
330
4D0D
100
AcDbEntity
  8
0
100
AcDbBlockEnd
  0
BLOCK
  5
5311
330
4EBD
100
AcDbEntity
  8
0
100
AcDbBlockBegin
  2
*D13
 70
     1
 10
0.0
 20
0.0
 30
0.0
  3
*D13
  1

  0
LINE
  5
5312
330
4EBD
100
AcDbEntity
  8
0
  6
BYBLOCK
100
AcDbLine
 10
71.55560699999999
 20
125.5146089999999
 30
0.0
 11
67.75
 21
125.5146089999999
 31
0.0
  0
LINE
  5
5313
330
4EBD
100
AcDbEntity
  8
0
  6
BYBLOCK
100
AcDbLine
 10
71.55560699999999
 20
138.7146089999999
 30
0.0
 11
67.75
 21
138.7146089999999
 31
0.0
  0
LINE
  5
5314
330
4EBD
100
AcDbEntity
  8
0
  6
BYBLOCK
100
AcDbLine
 10
69.0
 20
128.014609
 30
0.0
 11
69.0
 21
136.2146089999999
 31
0.0
  0
SOLID
  5
5315
330
4EBD
100
AcDbEntity
  8
0
  6
BYBLOCK
100
AcDbTrace
 10
68.58333299999999
 20
128.014609
 30
0.0
 11
69.416667
 21
128.014609
 31
0.0
 12
69.0
 22
125.5146089999999
 32
0.0
 13
69.0
 23
125.5146089999999
 33
0.0
  0
SOLID
  5
5316
330
4EBD
100
AcDbEntity
  8
0
  6
BYBLOCK
100
AcDbTrace
 10
68.58333299999999
 20
136.2146089999999
 30
0.0
 11
69.416667
 21
136.2146089999999
 31
0.0
 12
69.0
 22
138.7146089999999
 32
0.0
 13
69.0
 23
138.7146089999999
 33
0.0
  0
MTEXT
  5
5317
330
4EBD
100
AcDbEntity
  8
0
  6
BYBLOCK
 62
     2
100
AcDbMText
 10
67.45535500000001
 20
132.114609
 30
0.0
 40
1.8
 41
0.0
 71
     5
 72
     1
  1
13.2
  7
FINDER
 11
0.0
 21
1.0
 31
0.0
1001
ACAD
1000
MTEXTBEGIN
1070
    73
1070
     1
1070
    44
1040
1.0
1070
    74
1070
     0
1000
MTEXTEND
  0
POINT
  5
5318
330
4EBD
100
AcDbEntity
  8
DEFPOINTS
  6
BYBLOCK
 62
     0
100
AcDbPoint
 10
73.55560699999999
 20
125.5146089999999
 30
0.0
  0
POINT
  5
5319
330
4EBD
100
AcDbEntity
  8
DEFPOINTS
  6
BYBLOCK
 62
     0
100
AcDbPoint
 10
73.55560699999999
 20
138.7146089999999
 30
0.0
  0
POINT
  5
531A
330
4EBD
100
AcDbEntity
  8
DEFPOINTS
  6
BYBLOCK
 62
     0
100
AcDbPoint
 10
69.0
 20
138.7146089999999
 30
0.0
  0
ENDBLK
  5
531B
330
4EBD
100
AcDbEntity
  8
0
100
AcDbBlockEnd
  0
BLOCK
  5
53B0
330
5321
100
AcDbEntity
  8
0
100
AcDbBlockBegin
  2
*X14
 70
     1
 10
0.0
 20
0.0
 30
0.0
  3
*X14
  1

  0
LINE
  5
5322
330
5321
100
AcDbEntity
  8
0
  6
CONTINUOUS
 62
     0
100
AcDbLine
 10
14.989467
 20
20.308874
 30
0.0
 11
15.516193
 21
20.83559999999999
 31
0.0
  0
LINE
  5
5323
330
5321
100
AcDbEntity
  8
0
  6
CONTINUOUS
 62
     0
100
AcDbLine
 10
14.112517
 20
19.714767
 30
0.0
 11
16.11029999999999
 21
21.71254999999999
 31
0.0
  0
LINE
  5
5324
330
5321
100
AcDbEntity
  8
0
  6
CONTINUOUS
 62
     0
100
AcDbLine
 10
13.596595
 20
19.481687
 30
0.0
 11
16.34338
 21
22.228473
 31
0.0
  0
LINE
  5
5325
330
5321
100
AcDbEntity
  8
0
  6
CONTINUOUS
 62
     0
100
AcDbLine
 10
13.174894
 20
19.342829
 30
0.0
 11
16.482238
 21
22.650174
 31
0.0
  0
LINE
  5
5326
330
5321
100
AcDbEntity
  8
0
  6
CONTINUOUS
 62
     0
100
AcDbLine
 10
12.804844
 20
19.25562199999999
 30
0.0
 11
16.569445
 21
23.020223
 31
0.0
  0
LINE
  5
5327
330
5321
100
AcDbEntity
  8
0
  6
CONTINUOUS
 62
     0
100
AcDbLine
 10
14.79535199999999
 20
21.528973
 30
0.0
 11
16.62213299999999
 21
23.355754
 31
0.0
  0
LINE
  5
5328
330
5321
100
AcDbEntity
  8
0
  6
CONTINUOUS
 62
     0
100
AcDbLine
 10
12.46931299999999
 20
19.202934
 30
0.0
 11
14.296095
 21
21.029715
 31
0.0
  0
LINE
  5
5329
330
5321
100
AcDbEntity
  8
0
  6
CONTINUOUS
 62
     0
100
AcDbLine
 10
15.29353599999999
 20
22.309999
 30
0.0
 11
16.649275
 21
23.665738
 31
0.0
  0
LINE
  5
532A
330
5321
100
AcDbEntity
  8
0
  6
CONTINUOUS
 62
     0
100
AcDbLine
 10
12.159329
 20
19.17579299999999
 30
0.0
 11
13.515068
 21
20.531532
 31
0.0
  0
LINE
  5
532B
330
5321
100
AcDbEntity
  8
0
  6
CONTINUOUS
 62
     0
100
AcDbLine
 10
15.479088
 20
22.77839399999999
 30
0.0
 11
16.656273
 21
23.955579
 31
0.0
  0
LINE
  5
532C
330
5321
100
AcDbEntity
  8
0
  6
CONTINUOUS
 62
     0
100
AcDbLine
 10
11.869488
 20
19.168795
 30
0.0
 11
13.046674
 21
20.34597999999999
 31
0.0
  0
LINE
  5
532D
330
5321
100
AcDbEntity
  8
0
  6
CONTINUOUS
 62
     0
100
AcDbLine
 10
15.580082
 20
23.16223099999999
 30
0.0
 11
16.646682
 21
24.22883099999999
 31
0.0
  0
LINE
  5
532E
330
5321
100
AcDbEntity
  8
0
  6
CONTINUOUS
 62
     0
100
AcDbLine
 10
11.59623599999999
 20
19.178385
 30
0.0
 11
12.662836
 21
20.24498499999999
 31
0.0
  0
LINE
  5
532F
330
5321
100
AcDbEntity
  8
0
  6
CONTINUOUS
 62
     0
100
AcDbLine
 10
12.654531
 20
20.51952299999999
 30
0.0
 11
13.323223
 21
21.188215
 31
0.0
  0
LINE
  5
5330
330
5321
100
AcDbEntity
  8
0
  6
CONTINUOUS
 62
     0
100
AcDbLine
 10
15.634125
 20
23.499117
 30
0.0
 11
16.62298599999999
 21
24.48797799999999
 31
0.0
  0
LINE
  5
5331
330
5321
100
AcDbEntity
  8
0
  6
CONTINUOUS
 62
     0
100
AcDbLine
 10
11.33709
 20
19.202082
 30
0.0
 11
12.325951
 21
20.190943
 31
0.0
  0
LINE
  5
5332
330
5321
100
AcDbEntity
  8
0
  6
CONTINUOUS
 62
     0
100
AcDbLine
 10
12.404347
 20
20.552181
 30
0.0
 11
13.323223
 21
21.471057
 31
0.0
  0
LINE
  5
5333
330
5321
100
AcDbEntity
  8
0
  6
CONTINUOUS
 62
     0
100
AcDbLine
 10
15.656425
 20
23.804259
 30
0.0
 11
16.586997
 21
24.734832
 31
0.0
  0
LINE
  5
5334
330
5321
100
AcDbEntity
  8
0
  6
CONTINUOUS
 62
     0
100
AcDbLine
 10
11.090236
 20
19.23807
 30
0.0
 11
12.020808
 21
20.16864299999999
 31
0.0
  0
LINE
  5
5335
330
5321
100
AcDbEntity
  8
0
  6
CONTINUOUS
 62
     0
100
AcDbLine
 10
12.212553
 20
20.64322999999999
 30
0.0
 11
13.323223
 21
21.7539
 31
0.0
  0
LINE
  5
5336
330
5321
100
AcDbEntity
  8
0
  6
CONTINUOUS
 62
     0
100
AcDbLine
 10
15.65496099999999
 20
24.085639
 30
0.0
 11
16.540085
 21
24.970762
 31
0.0
  0
LINE
  5
5337
330
5321
100
AcDbEntity
  8
0
  6
CONTINUOUS
 62
     0
100
AcDbLine
 10
10.854306
 20
19.284983
 30
0.0
 11
11.73942899999999
 21
20.170106
 31
0.0
  0
LINE
  5
5338
330
5321
100
AcDbEntity
  8
0
  6
CONTINUOUS
 62
     0
100
AcDbLine
 10
12.063213
 20
20.776733
 30
0.0
 11
13.323223
 21
22.03674299999999
 31
0.0
  0
LINE
  5
5339
330
5321
100
AcDbEntity
  8
0
  6
CONTINUOUS
 62
     0
100
AcDbLine
 10
15.634541
 20
24.34806
 30
0.0
 11
16.48330599999999
 21
25.196826
 31
0.0
  0
LINE
  5
533A
330
5321
100
AcDbEntity
  8
0
  6
CONTINUOUS
 62
     0
100
AcDbLine
 10
10.628242
 20
19.34176099999999
 30
0.0
 11
11.477007
 21
20.190527
 31
0.0
  0
LINE
  5
533B
330
5321
100
AcDbEntity
  8
0
  6
CONTINUOUS
 62
     0
100
AcDbLine
 10
11.920447
 20
20.916809
 30
0.0
 11
13.323223
 21
22.319586
 31
0.0
  0
LINE
  5
533C
330
5321
100
AcDbEntity
  8
0
  6
CONTINUOUS
 62
     0
100
AcDbLine
 10
15.598315
 20
24.594678
 30
0.0
 11
16.41749599999999
 21
25.413858
 31
0.0
  0
LINE
  5
533D
330
5321
100
AcDbEntity
  8
0
  6
CONTINUOUS
 62
     0
100
AcDbLine
 10
10.41120899999999
 20
19.407572
 30
0.0
 11
11.23039
 21
20.22675199999999
 31
0.0
  0
LINE
  5
533E
330
5321
100
AcDbEntity
  8
0
  6
CONTINUOUS
 62
     0
100
AcDbLine
 10
11.77768
 20
21.056886
 30
0.0
 11
13.323223
 21
22.60242799999999
 31
0.0
  0
LINE
  5
533F
330
5321
100
AcDbEntity
  8
0
  6
CONTINUOUS
 62
     0
100
AcDbLine
 10
15.548478
 20
24.827684
 30
0.0
 11
16.34332099999999
 21
25.622526
 31
0.0
  0
LINE
  5
5340
330
5321
100
AcDbEntity
  8
0
  6
CONTINUOUS
 62
     0
100
AcDbLine
 10
10.202541
 20
19.481747
 30
0.0
 11
10.997384
 21
20.276589
 31
0.0
  0
LINE
  5
5341
330
5321
100
AcDbEntity
  8
0
  6
CONTINUOUS
 62
     0
100
AcDbLine
 10
12.362923
 20
21.924971
 30
0.0
 11
13.323223
 21
22.885271
 31
0.0
  0
LINE
  5
5342
330
5321
100
AcDbEntity
  8
0
  6
CONTINUOUS
 62
     0
100
AcDbLine
 10
11.634914
 20
21.19696199999999
 30
0.0
 11
12.307877
 21
21.869925
 31
0.0
  0
LINE
  5
5343
330
5321
100
AcDbEntity
  8
0
  6
CONTINUOUS
 62
     0
100
AcDbLine
 10
15.486619
 20
25.048667
 30
0.0
 11
16.26132099999999
 21
25.823369
 31
0.0
  0
LINE
  5
5344
330
5321
100
AcDbEntity
  8
0
  6
CONTINUOUS
 62
     0
100
AcDbLine
 10
10.001699
 20
19.56374699999999
 30
0.0
 11
10.77640099999999
 21
20.338449
 31
0.0
  0
LINE
  5
5345
330
5321
100
AcDbEntity
  8
0
  6
CONTINUOUS
 62
     0
100
AcDbLine
 10
12.362923
 20
22.207814
 30
0.0
 11
13.323223
 21
23.168114
 31
0.0
  0
LINE
  5
5346
330
5321
100
AcDbEntity
  8
0
  6
CONTINUOUS
 62
     0
100
AcDbLine
 10
11.49214799999999
 20
21.33703899999999
 30
0.0
 11
12.172228
 21
22.017119
 31
0.0
  0
LINE
  5
5347
330
5321
100
AcDbEntity
  8
0
  6
CONTINUOUS
 62
     0
100
AcDbLine
 10
15.41392
 20
25.25881099999999
 30
0.0
 11
16.171934
 21
26.016825
 31
0.0
  0
LINE
  5
5348
330
5321
100
AcDbEntity
  8
0
  6
CONTINUOUS
 62
     0
100
AcDbLine
 10
9.808242999999999
 20
19.65313399999999
 30
0.0
 11
10.566257
 21
20.411147
 31
0.0
  0
LINE
  5
5349
330
5321
100
AcDbEntity
  8
0
  6
CONTINUOUS
 62
     0
100
AcDbLine
 10
12.362923
 20
22.490656
 30
0.0
 11
13.323223
 21
23.450956
 31
0.0
  0
LINE
  5
534A
330
5321
100
AcDbEntity
  8
0
  6
CONTINUOUS
 62
     0
100
AcDbLine
 10
14.38066
 20
24.508394
 30
0.0
 11
14.903943
 21
25.031677
 31
0.0
  0
LINE
  5
534B
330
5321
100
AcDbEntity
  8
0
  6
CONTINUOUS
 62
     0
100
AcDbLine
 10
11.349382
 20
21.47711499999999
 30
0.0
 11
12.03658
 21
22.16431299999999
 31
0.0
  0
LINE
  5
534C
330
5321
100
AcDbEntity
  8
0
  6
CONTINUOUS
 62
     0
100
AcDbLine
 10
15.33128299999999
 20
25.459017
 30
0.0
 11
16.07551799999999
 21
26.203251
 31
0.0
  0
LINE
  5
534D
330
5321
100
AcDbEntity
  8
0
  6
CONTINUOUS
 62
     0
100
AcDbLine
 10
9.621817
 20
19.74954999999999
 30
0.0
 11
10.36605099999999
 21
20.49378399999999
 31
0.0
  0
LINE
  5
534E
330
5321
100
AcDbEntity
  8
0
  6
CONTINUOUS
 62
     0
100
AcDbLine
 10
12.362923
 20
22.77349899999999
 30
0.0
 11
13.323223
 21
23.73379899999999
 31
0.0
  0
LINE
  5
534F
330
5321
100
AcDbEntity
  8
0
  6
CONTINUOUS
 62
     0
100
AcDbLine
 10
14.097817
 20
24.508394
 30
0.0
 11
14.840413
 21
25.25098999999999
 31
0.0
  0
LINE
  5
5350
330
5321
100
AcDbEntity
  8
0
  6
CONTINUOUS
 62
     0
100
AcDbLine
 10
11.206616
 20
21.617192
 30
0.0
 11
11.900931
 21
22.311507
 31
0.0
  0
LINE
  5
5351
330
5321
100
AcDbEntity
  8
0
  6
CONTINUOUS
 62
     0
100
AcDbLine
 10
15.2394
 20
25.649976
 30
0.0
 11
15.972362
 21
26.382939
 31
0.0
  0
LINE
  5
5352
330
5321
100
AcDbEntity
  8
0
  6
CONTINUOUS
 62
     0
100
AcDbLine
 10
9.442128999999999
 20
19.852705
 30
0.0
 11
10.175091
 21
20.58566799999999
 31
0.0
  0
LINE
  5
5353
330
5321
100
AcDbEntity
  8
0
  6
CONTINUOUS
 62
     0
100
AcDbLine
 10
12.362923
 20
23.056342
 30
0.0
 11
13.323223
 21
24.016642
 31
0.0
  0
LINE
  5
5354
330
5321
100
AcDbEntity
  8
0
  6
CONTINUOUS
 62
     0
100
AcDbLine
 10
13.814975
 20
24.508394
 30
0.0
 11
14.709087
 21
25.402506
 31
0.0
  0
LINE
  5
5355
330
5321
100
AcDbEntity
  8
0
  6
CONTINUOUS
 62
     0
100
AcDbLine
 10
11.063849
 20
21.757268
 30
0.0
 11
11.765282
 21
22.458701
 31
0.0
  0
LINE
  5
5356
330
5321
100
AcDbEntity
  8
0
  6
CONTINUOUS
 62
     0
100
AcDbLine
 10
15.13880499999999
 20
25.832223
 30
0.0
 11
15.86270299999999
 21
26.556122
 31
0.0
  0
LINE
  5
5357
330
5321
100
AcDbEntity
  8
0
  6
CONTINUOUS
 62
     0
100
AcDbLine
 10
9.268945
 20
19.962364
 30
0.0
 11
9.992843999999999
 21
20.686263
 31
0.0
  0
LINE
  5
5358
330
5321
100
AcDbEntity
  8
0
  6
CONTINUOUS
 62
     0
100
AcDbLine
 10
12.362923
 20
23.339185
 30
0.0
 11
13.323223
 21
24.299485
 31
0.0
  0
LINE
  5
5359
330
5321
100
AcDbEntity
  8
0
  6
CONTINUOUS
 62
     0
100
AcDbLine
 10
13.532132
 20
24.508394
 30
0.0
 11
14.51689299999999
 21
25.493154
 31
0.0
  0
LINE
  5
535A
330
5321
100
AcDbEntity
  8
0
  6
CONTINUOUS
 62
     0
100
AcDbLine
 10
10.921083
 20
21.897345
 30
0.0
 11
11.62963399999999
 21
22.605895
 31
0.0
  0
LINE
  5
535B
330
5321
100
AcDbEntity
  8
0
  6
CONTINUOUS
 62
     0
100
AcDbLine
 10
15.029907
 20
26.006168
 30
0.0
 11
15.74672699999999
 21
26.722988
 31
0.0
  0
LINE
  5
535C
330
5321
100
AcDbEntity
  8
0
  6
CONTINUOUS
 62
     0
100
AcDbLine
 10
9.102078999999999
 20
20.078341
 30
0.0
 11
9.818899
 21
20.795161
 31
0.0
  0
LINE
  5
535D
330
5321
100
AcDbEntity
  8
0
  6
CONTINUOUS
 62
     0
100
AcDbLine
 10
12.362923
 20
23.622027
 30
0.0
 11
14.244239
 21
25.503344
 31
0.0
  0
LINE
  5
535E
330
5321
100
AcDbEntity
  8
0
  6
CONTINUOUS
 62
     0
100
AcDbLine
 10
10.77831699999999
 20
22.03742099999999
 30
0.0
 11
11.49398499999999
 21
22.753089
 31
0.0
  0
LINE
  5
535F
330
5321
100
AcDbEntity
  8
0
  6
CONTINUOUS
 62
     0
100
AcDbLine
 10
14.913014
 20
26.172119
 30
0.0
 11
15.62457699999999
 21
26.88368099999999
 31
0.0
  0
LINE
  5
5360
330
5321
100
AcDbEntity
  8
0
  6
CONTINUOUS
 62
     0
100
AcDbLine
 10
8.941385999999999
 20
20.200491
 30
0.0
 11
9.652949000000001
 21
20.91205299999999
 31
0.0
  0
LINE
  5
5361
330
5321
100
AcDbEntity
  8
0
  6
CONTINUOUS
 62
     0
100
AcDbLine
 10
12.362923
 20
23.90487
 30
0.0
 11
13.96139699999999
 21
25.503344
 31
0.0
  0
LINE
  5
5362
330
5321
100
AcDbEntity
  8
0
  6
CONTINUOUS
 62
     0
100
AcDbLine
 10
10.635551
 20
22.17749799999999
 30
0.0
 11
11.35833599999999
 21
22.90028299999999
 31
0.0
  0
LINE
  5
5363
330
5321
100
AcDbEntity
  8
0
  6
CONTINUOUS
 62
     0
100
AcDbLine
 10
14.78835
 20
26.33029699999999
 30
0.0
 11
15.49636
 21
27.038307
 31
0.0
  0
LINE
  5
5364
330
5321
100
AcDbEntity
  8
0
  6
CONTINUOUS
 62
     0
100
AcDbLine
 10
8.786760000000001
 20
20.328707
 30
0.0
 11
9.494771
 21
21.036718
 31
0.0
  0
LINE
  5
5365
330
5321
100
AcDbEntity
  8
0
  6
CONTINUOUS
 62
     0
100
AcDbLine
 10
12.362923
 20
24.187713
 30
0.0
 11
13.678554
 21
25.503344
 31
0.0
  0
LINE
  5
5366
330
5321
100
AcDbEntity
  8
0
  6
CONTINUOUS
 62
     0
100
AcDbLine
 10
10.492785
 20
22.317574
 30
0.0
 11
11.222688
 21
23.047477
 31
0.0
  0
LINE
  5
5367
330
5321
100
AcDbEntity
  8
0
  6
CONTINUOUS
 62
     0
100
AcDbLine
 10
14.65606
 20
26.48085
 30
0.0
 11
15.362148
 21
27.186938
 31
0.0
  0
LINE
  5
5368
330
5321
100
AcDbEntity
  8
0
  6
CONTINUOUS
 62
     0
100
AcDbLine
 10
8.63813
 20
20.46291899999999
 30
0.0
 11
9.344217999999999
 21
21.16900799999999
 31
0.0
  0
LINE
  5
5369
330
5321
100
AcDbEntity
  8
0
  6
CONTINUOUS
 62
     0
100
AcDbLine
 10
12.362923
 20
24.47055499999999
 30
0.0
 11
13.39571099999999
 21
25.503344
 31
0.0
  0
LINE
  5
536A
330
5321
100
AcDbEntity
  8
0
  6
CONTINUOUS
 62
     0
100
AcDbLine
 10
10.35001799999999
 20
22.457651
 30
0.0
 11
11.087039
 21
23.194672
 31
0.0
  0
LINE
  5
536B
330
5321
100
AcDbEntity
  8
0
  6
CONTINUOUS
 62
     0
100
AcDbLine
 10
14.51622399999999
 20
26.623856
 30
0.0
 11
15.221979
 21
27.329612
 31
0.0
  0
LINE
  5
536C
330
5321
100
AcDbEntity
  8
0
  6
CONTINUOUS
 62
     0
100
AcDbLine
 10
8.495455999999999
 20
20.603088
 30
0.0
 11
9.201211
 21
21.308844
 31
0.0
  0
LINE
  5
536D
330
5321
100
AcDbEntity
  8
0
  6
CONTINUOUS
 62
     0
100
AcDbLine
 10
11.020368
 20
23.410844
 30
0.0
 11
11.41387299999999
 21
23.804348
 31
0.0
  0
LINE
  5
536E
330
5321
100
AcDbEntity
  8
0
  6
CONTINUOUS
 62
     0
100
AcDbLine
 10
12.362923
 20
24.753398
 30
0.0
 11
13.323223
 21
25.713698
 31
0.0
  0
LINE
  5
536F
330
5321
100
AcDbEntity
  8
0
  6
CONTINUOUS
 62
     0
100
AcDbLine
 10
10.20725199999999
 20
22.597727
 30
0.0
 11
10.951391
 21
23.341866
 31
0.0
  0
LINE
  5
5370
330
5321
100
AcDbEntity
  8
0
  6
CONTINUOUS
 62
     0
100
AcDbLine
 10
14.368854
 20
26.75933
 30
0.0
 11
15.07586
 21
27.466336
 31
0.0
  0
LINE
  5
5371
330
5321
100
AcDbEntity
  8
0
  6
CONTINUOUS
 62
     0
100
AcDbLine
 10
8.358731999999999
 20
20.749207
 30
0.0
 11
9.065737999999999
 21
21.456213
 31
0.0
  0
LINE
  5
5372
330
5321
100
AcDbEntity
  8
0
  6
CONTINUOUS
 62
     0
100
AcDbLine
 10
12.362923
 20
25.036241
 30
0.0
 11
13.323223
 21
25.996541
 31
0.0
  0
LINE
  5
5373
330
5321
100
AcDbEntity
  8
0
  6
CONTINUOUS
 62
     0
100
AcDbLine
 10
10.064486
 20
22.737804
 30
0.0
 11
11.41387299999999
 21
24.087191
 31
0.0
  0
LINE
  5
5374
330
5321
100
AcDbEntity
  8
0
  6
CONTINUOUS
 62
     0
100
AcDbLine
 10
14.213901
 20
26.887219
 30
0.0
 11
14.923766
 21
27.597084
 31
0.0
  0
LINE
  5
5375
330
5321
100
AcDbEntity
  8
0
  6
CONTINUOUS
 62
     0
100
AcDbLine
 10
8.227983
 20
20.901301
 30
0.0
 11
8.937847999999998
 21
21.611166
 31
0.0
  0
LINE
  5
5376
330
5321
100
AcDbEntity
  8
0
  6
CONTINUOUS
 62
     0
100
AcDbLine
 10
12.362923
 20
25.319084
 30
0.0
 11
13.323223
 21
26.279384
 31
0.0
  0
LINE
  5
5377
330
5321
100
AcDbEntity
  8
0
  6
CONTINUOUS
 62
     0
100
AcDbLine
 10
9.92172
 20
22.87787999999999
 30
0.0
 11
11.41387299999999
 21
24.370034
 31
0.0
  0
LINE
  5
5378
330
5321
100
AcDbEntity
  8
0
  6
CONTINUOUS
 62
     0
100
AcDbLine
 10
14.05124599999999
 20
27.007407
 30
0.0
 11
14.76563999999999
 21
27.7218
 31
0.0
  0
LINE
  5
5379
330
5321
100
AcDbEntity
  8
0
  6
CONTINUOUS
 62
     0
100
AcDbLine
 10
8.103267
 20
21.059428
 30
0.0
 11
8.81766
 21
21.77382099999999
 31
0.0
  0
LINE
  5
537A
330
5321
100
AcDbEntity
  8
0
  6
CONTINUOUS
 62
     0
100
AcDbLine
 10
12.362923
 20
25.601926
 30
0.0
 11
13.323223
 21
26.562226
 31
0.0
  0
LINE
  5
537B
330
5321
100
AcDbEntity
  8
0
  6
CONTINUOUS
 62
     0
100
AcDbLine
 10
9.778953999999998
 20
23.017957
 30
0.0
 11
11.41387299999999
 21
24.652876
 31
0.0
  0
LINE
  5
537C
330
5321
100
AcDbEntity
  8
0
  6
CONTINUOUS
 62
     0
100
AcDbLine
 10
13.880701
 20
27.119704
 30
0.0
 11
14.601389
 21
27.840392
 31
0.0
  0
LINE
  5
537D
330
5321
100
AcDbEntity
  8
0
  6
CONTINUOUS
 62
     0
100
AcDbLine
 10
7.984675
 20
21.223678
 30
0.0
 11
8.705363999999999
 21
21.944367
 31
0.0
  0
LINE
  5
537E
330
5321
100
AcDbEntity
  8
0
  6
CONTINUOUS
 62
     0
100
AcDbLine
 10
12.362923
 20
25.88476899999999
 30
0.0
 11
13.323223
 21
26.845069
 31
0.0
  0
LINE
  5
537F
330
5321
100
AcDbEntity
  8
0
  6
CONTINUOUS
 62
     0
100
AcDbLine
 10
9.636186999999999
 20
23.158033
 30
0.0
 11
11.41387299999999
 21
24.935719
 31
0.0
  0
LINE
  5
5380
330
5321
100
AcDbEntity
  8
0
  6
CONTINUOUS
 62
     0
100
AcDbLine
 10
13.701993
 20
27.223839
 30
0.0
 11
14.430886
 21
27.952732
 31
0.0
  0
LINE
  5
5381
330
5321
100
AcDbEntity
  8
0
  6
CONTINUOUS
 62
     0
100
AcDbLine
 10
7.872335
 20
21.39418099999999
 30
0.0
 11
8.601228
 21
22.12307399999999
 31
0.0
  0
LINE
  5
5382
330
5321
100
AcDbEntity
  8
0
  6
CONTINUOUS
 62
     0
100
AcDbLine
 10
12.362923
 20
26.167612
 30
0.0
 11
13.323223
 21
27.12791199999999
 31
0.0
  0
LINE
  5
5383
330
5321
100
AcDbEntity
  8
0
  6
CONTINUOUS
 62
     0
100
AcDbLine
 10
9.493421000000001
 20
23.29811
 30
0.0
 11
11.41387299999999
 21
25.218562
 31
0.0
  0
LINE
  5
5384
330
5321
100
AcDbEntity
  8
0
  6
CONTINUOUS
 62
     0
100
AcDbLine
 10
13.51476
 20
27.31944799999999
 30
0.0
 11
14.253964
 21
28.058653
 31
0.0
  0
LINE
  5
5385
330
5321
100
AcDbEntity
  8
0
  6
CONTINUOUS
 62
     0
100
AcDbLine
 10
7.766414999999999
 20
21.571104
 30
0.0
 11
8.505618999999999
 21
22.310308
 31
0.0
  0
LINE
  5
5386
330
5321
100
AcDbEntity
  8
0
  6
CONTINUOUS
 62
     0
100
AcDbLine
 10
10.46482299999999
 20
24.552354
 30
0.0
 11
11.41387299999999
 21
25.501404
 31
0.0
  0
LINE
  5
5387
330
5321
100
AcDbEntity
  8
0
  6
CONTINUOUS
 62
     0
100
AcDbLine
 10
9.323311999999999
 20
23.410844
 30
0.0
 11
10.34121199999999
 21
24.428744
 31
0.0
  0
LINE
  5
5388
330
5321
100
AcDbEntity
  8
0
  6
CONTINUOUS
 62
     0
100
AcDbLine
 10
12.362923
 20
26.45045399999999
 30
0.0
 11
14.07040799999999
 21
28.157939
 31
0.0
  0
LINE
  5
5389
330
5321
100
AcDbEntity
  8
0
  6
CONTINUOUS
 62
     0
100
AcDbLine
 10
7.667127999999999
 20
21.75466
 30
0.0
 11
8.419014
 21
22.506545
 31
0.0
  0
LINE
  5
538A
330
5321
100
AcDbEntity
  8
0
  6
CONTINUOUS
 62
     0
100
AcDbLine
 10
10.46482299999999
 20
24.835197
 30
0.0
 11
11.41387299999999
 21
25.784247
 31
0.0
  0
LINE
  5
538B
330
5321
100
AcDbEntity
  8
0
  6
CONTINUOUS
 62
     0
100
AcDbLine
 10
9.040468999999999
 20
23.410844
 30
0.0
 11
10.058369
 21
24.428744
 31
0.0
  0
LINE
  5
538C
330
5321
100
AcDbEntity
  8
0
  6
CONTINUOUS
 62
     0
100
AcDbLine
 10
12.362923
 20
26.733297
 30
0.0
 11
13.87995199999999
 21
28.250326
 31
0.0
  0
LINE
  5
538D
330
5321
100
AcDbEntity
  8
0
  6
CONTINUOUS
 62
     0
100
AcDbLine
 10
7.574741
 20
21.94511599999999
 30
0.0
 11
8.342033999999999
 21
22.712408
 31
0.0
  0
LINE
  5
538E
330
5321
100
AcDbEntity
  8
0
  6
CONTINUOUS
 62
     0
100
AcDbLine
 10
10.46482299999999
 20
25.11804
 30
0.0
 11
11.41387299999999
 21
26.06709
 31
0.0
  0
LINE
  5
538F
330
5321
100
AcDbEntity
  8
0
  6
CONTINUOUS
 62
     0
100
AcDbLine
 10
8.757627000000001
 20
23.410844
 30
0.0
 11
9.775527
 21
24.428744
 31
0.0
  0
LINE
  5
5390
330
5321
100
AcDbEntity
  8
0
  6
CONTINUOUS
 62
     0
100
AcDbLine
 10
12.362923
 20
27.01614
 30
0.0
 11
13.682269
 21
28.335486
 31
0.0
  0
LINE
  5
5391
330
5321
100
AcDbEntity
  8
0
  6
CONTINUOUS
 62
     0
100
AcDbLine
 10
7.489582
 20
22.142799
 30
0.0
 11
8.275484
 21
22.928701
 31
0.0
  0
LINE
  5
5392
330
5321
100
AcDbEntity
  8
0
  6
CONTINUOUS
 62
     0
100
AcDbLine
 10
10.46482299999999
 20
25.400883
 30
0.0
 11
11.41387299999999
 21
26.349933
 31
0.0
  0
LINE
  5
5393
330
5321
100
AcDbEntity
  8
0
  6
CONTINUOUS
 62
     0
100
AcDbLine
 10
8.474783999999999
 20
23.410844
 30
0.0
 11
9.492683999999998
 21
24.428744
 31
0.0
  0
LINE
  5
5394
330
5321
100
AcDbEntity
  8
0
  6
CONTINUOUS
 62
     0
100
AcDbLine
 10
12.362923
 20
27.298983
 30
0.0
 11
13.47695599999999
 21
28.41301599999999
 31
0.0
  0
LINE
  5
5395
330
5321
100
AcDbEntity
  8
0
  6
CONTINUOUS
 62
     0
100
AcDbLine
 10
7.412052
 20
22.34811099999999
 30
0.0
 11
8.220416999999999
 21
23.15647699999999
 31
0.0
  0
LINE
  5
5396
330
5321
100
AcDbEntity
  8
0
  6
CONTINUOUS
 62
     0
100
AcDbLine
 10
10.46482299999999
 20
25.683725
 30
0.0
 11
11.41387299999999
 21
26.63277499999999
 31
0.0
  0
LINE
  5
5397
330
5321
100
AcDbEntity
  8
0
  6
CONTINUOUS
 62
     0
100
AcDbLine
 10
8.191940999999999
 20
23.410844
 30
0.0
 11
9.209841
 21
24.428744
 31
0.0
  0
LINE
  5
5398
330
5321
100
AcDbEntity
  8
0
  6
CONTINUOUS
 62
     0
100
AcDbLine
 10
12.362923
 20
27.581825
 30
0.0
 11
13.26352
 21
28.48242299999999
 31
0.0
  0
LINE
  5
5399
330
5321
100
AcDbEntity
  8
0
  6
CONTINUOUS
 62
     0
100
AcDbLine
 10
7.342645
 20
22.561547
 30
0.0
 11
8.178233
 21
23.397136
 31
0.0
  0
LINE
  5
539A
330
5321
100
AcDbEntity
  8
0
  6
CONTINUOUS
 62
     0
100
AcDbLine
 10
10.46482299999999
 20
25.96656799999999
 30
0.0
 11
11.41387299999999
 21
26.915618
 31
0.0
  0
LINE
  5
539B
330
5321
100
AcDbEntity
  8
0
  6
CONTINUOUS
 62
     0
100
AcDbLine
 10
12.17248399999999
 20
27.67422899999999
 30
0.0
 11
13.04135099999999
 21
28.543096
 31
0.0
  0
LINE
  5
539C
330
5321
100
AcDbEntity
  8
0
  6
CONTINUOUS
 62
     0
100
AcDbLine
 10
7.281971
 20
22.783716
 30
0.0
 11
8.926999
 21
24.428744
 31
0.0
  0
LINE
  5
539D
330
5321
100
AcDbEntity
  8
0
  6
CONTINUOUS
 62
     0
100
AcDbLine
 10
10.46482299999999
 20
26.249411
 30
0.0
 11
11.41387299999999
 21
27.19846099999999
 31
0.0
  0
LINE
  5
539E
330
5321
100
AcDbEntity
  8
0
  6
CONTINUOUS
 62
     0
100
AcDbLine
 10
11.899556
 20
27.684144
 30
0.0
 11
12.809691
 21
28.594279
 31
0.0
  0
LINE
  5
539F
330
5321
100
AcDbEntity
  8
0
  6
CONTINUOUS
 62
     0
100
AcDbLine
 10
7.230788
 20
23.015376
 30
0.0
 11
8.644156
 21
24.428744
 31
0.0
  0
LINE
  5
53A0
330
5321
100
AcDbEntity
  8
0
  6
CONTINUOUS
 62
     0
100
AcDbLine
 10
10.46482299999999
 20
26.532253
 30
0.0
 11
11.41387299999999
 21
27.481303
 31
0.0
  0
LINE
  5
53A1
330
5321
100
AcDbEntity
  8
0
  6
CONTINUOUS
 62
     0
100
AcDbLine
 10
11.605159
 20
27.672589
 30
0.0
 11
12.567584
 21
28.635015
 31
0.0
  0
LINE
  5
53A2
330
5321
100
AcDbEntity
  8
0
  6
CONTINUOUS
 62
     0
100
AcDbLine
 10
7.190052
 20
23.25748299999999
 30
0.0
 11
8.361313
 21
24.428744
 31
0.0
  0
LINE
  5
53A3
330
5321
100
AcDbEntity
  8
0
  6
CONTINUOUS
 62
     0
100
AcDbLine
 10
10.46482299999999
 20
26.815096
 30
0.0
 11
12.313807
 21
28.66407999999999
 31
0.0
  0
LINE
  5
53A4
330
5321
100
AcDbEntity
  8
0
  6
CONTINUOUS
 62
     0
100
AcDbLine
 10
7.160988
 20
23.51126099999999
 30
0.0
 11
8.191864
 21
24.542137
 31
0.0
  0
LINE
  5
53A5
330
5321
100
AcDbEntity
  8
0
  6
CONTINUOUS
 62
     0
100
AcDbLine
 10
10.46482299999999
 20
27.097939
 30
0.0
 11
12.046753
 21
28.679869
 31
0.0
  0
LINE
  5
53A6
330
5321
100
AcDbEntity
  8
0
  6
CONTINUOUS
 62
     0
100
AcDbLine
 10
7.145197999999999
 20
23.778314
 30
0.0
 11
8.270421
 21
24.903537
 31
0.0
  0
LINE
  5
53A7
330
5321
100
AcDbEntity
  8
0
  6
CONTINUOUS
 62
     0
100
AcDbLine
 10
10.46482299999999
 20
27.380782
 30
0.0
 11
11.76425899999999
 21
28.68021699999999
 31
0.0
  0
LINE
  5
53A8
330
5321
100
AcDbEntity
  8
0
  6
CONTINUOUS
 62
     0
100
AcDbLine
 10
7.144849999999999
 20
24.060809
 30
0.0
 11
8.412672
 21
25.328631
 31
0.0
  0
LINE
  5
53A9
330
5321
100
AcDbEntity
  8
0
  6
CONTINUOUS
 62
     0
100
AcDbLine
 10
9.92464
 20
27.12344099999999
 30
0.0
 11
11.463286
 21
28.66208699999999
 31
0.0
  0
LINE
  5
53AA
330
5321
100
AcDbEntity
  8
0
  6
CONTINUOUS
 62
     0
100
AcDbLine
 10
7.16298
 20
24.361781
 30
0.0
 11
8.701625999999999
 21
25.900428
 31
0.0
  0
LINE
  5
53AB
330
5321
100
AcDbEntity
  8
0
  6
CONTINUOUS
 62
     0
100
AcDbLine
 10
7.204077999999999
 20
24.685722
 30
0.0
 11
11.139345
 21
28.620989
 31
0.0
  0
LINE
  5
53AC
330
5321
100
AcDbEntity
  8
0
  6
CONTINUOUS
 62
     0
100
AcDbLine
 10
7.275296
 20
25.03978299999999
 30
0.0
 11
10.785285
 21
28.549771
 31
0.0
  0
LINE
  5
53AD
330
5321
100
AcDbEntity
  8
0
  6
CONTINUOUS
 62
     0
100
AcDbLine
 10
7.389392999999999
 20
25.436722
 30
0.0
 11
10.38834499999999
 21
28.435675
 31
0.0
  0
LINE
  5
53AE
330
5321
100
AcDbEntity
  8
0
  6
CONTINUOUS
 62
     0
100
AcDbLine
 10
7.574053999999999
 20
25.904226
 30
0.0
 11
9.920841000000001
 21
28.251013
 31
0.0
  0
LINE
  5
53AF
330
5321
100
AcDbEntity
  8
0
  6
CONTINUOUS
 62
     0
100
AcDbLine
 10
7.923914999999999
 20
26.53693
 30
0.0
 11
9.288138
 21
27.901153
 31
0.0
  0
ENDBLK
  5
53B1
330
5321
100
AcDbEntity
  8
0
100
AcDbBlockEnd
  0
BLOCK
  5
53D0
330
53B2
100
AcDbEntity
  8
0
100
AcDbBlockBegin
  2
*X15
 70
     1
 10
0.0
 20
0.0
 30
0.0
  3
*X15
  1

  0
LINE
  5
53B3
330
53B2
100
AcDbEntity
  8
0
  6
CONTINUOUS
 62
     0
100
AcDbLine
 10
20.403855
 20
20.63209399999999
 30
0.0
 11
20.470123
 21
20.69836099999999
 31
0.0
  0
LINE
  5
53B4
330
53B2
100
AcDbEntity
  8
0
  6
CONTINUOUS
 62
     0
100
AcDbLine
 10
20.121013
 20
20.63209399999999
 30
0.0
 11
20.470123
 21
20.981204
 31
0.0
  0
LINE
  5
53B5
330
53B2
100
AcDbEntity
  8
0
  6
CONTINUOUS
 62
     0
100
AcDbLine
 10
19.83817
 20
20.63209399999999
 30
0.0
 11
20.470123
 21
21.264047
 31
0.0
  0
LINE
  5
53B6
330
53B2
100
AcDbEntity
  8
0
  6
CONTINUOUS
 62
     0
100
AcDbLine
 10
19.555327
 20
20.63209399999999
 30
0.0
 11
20.470123
 21
21.546889
 31
0.0
  0
LINE
  5
53B7
330
53B2
100
AcDbEntity
  8
0
  6
CONTINUOUS
 62
     0
100
AcDbLine
 10
19.27248399999999
 20
20.63209399999999
 30
0.0
 11
20.470123
 21
21.829732
 31
0.0
  0
LINE
  5
53B8
330
53B2
100
AcDbEntity
  8
0
  6
CONTINUOUS
 62
     0
100
AcDbLine
 10
18.98964199999999
 20
20.63209399999999
 30
0.0
 11
20.470123
 21
22.11257499999999
 31
0.0
  0
LINE
  5
53B9
330
53B2
100
AcDbEntity
  8
0
  6
CONTINUOUS
 62
     0
100
AcDbLine
 10
18.706799
 20
20.63209399999999
 30
0.0
 11
20.470123
 21
22.395418
 31
0.0
  0
LINE
  5
53BA
330
53B2
100
AcDbEntity
  8
0
  6
CONTINUOUS
 62
     0
100
AcDbLine
 10
18.674623
 20
20.88276
 30
0.0
 11
20.470123
 21
22.67826
 31
0.0
  0
LINE
  5
53BB
330
53B2
100
AcDbEntity
  8
0
  6
CONTINUOUS
 62
     0
100
AcDbLine
 10
20.919864
 20
23.410844
 30
0.0
 11
21.087523
 21
23.578503
 31
0.0
  0
LINE
  5
53BC
330
53B2
100
AcDbEntity
  8
0
  6
CONTINUOUS
 62
     0
100
AcDbLine
 10
18.674623
 20
21.165603
 30
0.0
 11
20.470123
 21
22.961103
 31
0.0
  0
LINE
  5
53BD
330
53B2
100
AcDbEntity
  8
0
  6
CONTINUOUS
 62
     0
100
AcDbLine
 10
20.63702099999999
 20
23.410844
 30
0.0
 11
21.087523
 21
23.86134599999999
 31
0.0
  0
LINE
  5
53BE
330
53B2
100
AcDbEntity
  8
0
  6
CONTINUOUS
 62
     0
100
AcDbLine
 10
18.674623
 20
21.448446
 30
0.0
 11
20.470123
 21
23.24394599999999
 31
0.0
  0
LINE
  5
53BF
330
53B2
100
AcDbEntity
  8
0
  6
CONTINUOUS
 62
     0
100
AcDbLine
 10
18.674623
 20
21.731288
 30
0.0
 11
21.087523
 21
24.14418799999999
 31
0.0
  0
LINE
  5
53C0
330
53B2
100
AcDbEntity
  8
0
  6
CONTINUOUS
 62
     0
100
AcDbLine
 10
18.674623
 20
22.01413099999999
 30
0.0
 11
21.087523
 21
24.427031
 31
0.0
  0
LINE
  5
53C1
330
53B2
100
AcDbEntity
  8
0
  6
CONTINUOUS
 62
     0
100
AcDbLine
 10
18.674623
 20
22.296974
 30
0.0
 11
20.886043
 21
24.508394
 31
0.0
  0
LINE
  5
53C2
330
53B2
100
AcDbEntity
  8
0
  6
CONTINUOUS
 62
     0
100
AcDbLine
 10
21.02665
 20
24.931844
 30
0.0
 11
21.087523
 21
24.992717
 31
0.0
  0
LINE
  5
53C3
330
53B2
100
AcDbEntity
  8
0
  6
CONTINUOUS
 62
     0
100
AcDbLine
 10
18.674623
 20
22.579817
 30
0.0
 11
20.6032
 21
24.508394
 31
0.0
  0
LINE
  5
53C4
330
53B2
100
AcDbEntity
  8
0
  6
CONTINUOUS
 62
     0
100
AcDbLine
 10
20.743807
 20
24.931844
 30
0.0
 11
21.087523
 21
25.275559
 31
0.0
  0
LINE
  5
53C5
330
53B2
100
AcDbEntity
  8
0
  6
CONTINUOUS
 62
     0
100
AcDbLine
 10
18.674623
 20
22.862659
 30
0.0
 11
20.43397699999999
 21
24.622013
 31
0.0
  0
LINE
  5
53C6
330
53B2
100
AcDbEntity
  8
0
  6
CONTINUOUS
 62
     0
100
AcDbLine
 10
18.674623
 20
23.145502
 30
0.0
 11
21.087523
 21
25.558402
 31
0.0
  0
LINE
  5
53C7
330
53B2
100
AcDbEntity
  8
0
  6
CONTINUOUS
 62
     0
100
AcDbLine
 10
18.657122
 20
23.410844
 30
0.0
 11
21.08127199999999
 21
25.834994
 31
0.0
  0
LINE
  5
53C8
330
53B2
100
AcDbEntity
  8
0
  6
CONTINUOUS
 62
     0
100
AcDbLine
 10
18.374279
 20
23.410844
 30
0.0
 11
20.798429
 21
25.834994
 31
0.0
  0
LINE
  5
53C9
330
53B2
100
AcDbEntity
  8
0
  6
CONTINUOUS
 62
     0
100
AcDbLine
 10
18.137323
 20
23.45673
 30
0.0
 11
20.51558599999999
 21
25.834994
 31
0.0
  0
LINE
  5
53CA
330
53B2
100
AcDbEntity
  8
0
  6
CONTINUOUS
 62
     0
100
AcDbLine
 10
18.137323
 20
23.739573
 30
0.0
 11
20.232744
 21
25.834994
 31
0.0
  0
LINE
  5
53CB
330
53B2
100
AcDbEntity
  8
0
  6
CONTINUOUS
 62
     0
100
AcDbLine
 10
18.674623
 20
24.559716
 30
0.0
 11
19.949901
 21
25.834994
 31
0.0
  0
LINE
  5
53CC
330
53B2
100
AcDbEntity
  8
0
  6
CONTINUOUS
 62
     0
100
AcDbLine
 10
18.137323
 20
24.02241599999999
 30
0.0
 11
18.623301
 21
24.508394
 31
0.0
  0
LINE
  5
53CD
330
53B2
100
AcDbEntity
  8
0
  6
CONTINUOUS
 62
     0
100
AcDbLine
 10
18.674623
 20
24.842558
 30
0.0
 11
19.66705799999999
 21
25.834994
 31
0.0
  0
LINE
  5
53CE
330
53B2
100
AcDbEntity
  8
0
  6
CONTINUOUS
 62
     0
100
AcDbLine
 10
18.137323
 20
24.30525799999999
 30
0.0
 11
18.34045799999999
 21
24.508394
 31
0.0
  0
LINE
  5
53CF
330
53B2
100
AcDbEntity
  8
0
  6
CONTINUOUS
 62
     0
100
AcDbLine
 10
18.70280499999999
 20
25.15358299999999
 30
0.0
 11
19.356077
 21
25.80685499999999
 31
0.0
  0
ENDBLK
  5
53D1
330
53B2
100
AcDbEntity
  8
0
100
AcDbBlockEnd
  0
BLOCK
  5
53DD
330
53D2
100
AcDbEntity
  8
0
100
AcDbBlockBegin
  2
*X16
 70
     1
 10
0.0
 20
0.0
 30
0.0
  3
*X16
  1

  0
LINE
  5
53D3
330
53D2
100
AcDbEntity
  8
0
  6
CONTINUOUS
 62
     0
100
AcDbLine
 10
23.583484
 20
24.943094
 30
0.0
 11
23.625973
 21
24.985582
 31
0.0
  0
LINE
  5
53D4
330
53D2
100
AcDbEntity
  8
0
  6
CONTINUOUS
 62
     0
100
AcDbLine
 10
23.300642
 20
24.943094
 30
0.0
 11
23.625973
 21
25.268425
 31
0.0
  0
LINE
  5
53D5
330
53D2
100
AcDbEntity
  8
0
  6
CONTINUOUS
 62
     0
100
AcDbLine
 10
23.017799
 20
24.943094
 30
0.0
 11
23.625973
 21
25.551268
 31
0.0
  0
LINE
  5
53D6
330
53D2
100
AcDbEntity
  8
0
  6
CONTINUOUS
 62
     0
100
AcDbLine
 10
22.73495599999999
 20
24.943094
 30
0.0
 11
23.625973
 21
25.83410999999999
 31
0.0
  0
LINE
  5
53D7
330
53D2
100
AcDbEntity
  8
0
  6
CONTINUOUS
 62
     0
100
AcDbLine
 10
22.452114
 20
24.943094
 30
0.0
 11
23.344014
 21
25.834994
 31
0.0
  0
LINE
  5
53D8
330
53D2
100
AcDbEntity
  8
0
  6
CONTINUOUS
 62
     0
100
AcDbLine
 10
22.16927099999999
 20
24.943094
 30
0.0
 11
23.06117099999999
 21
25.834994
 31
0.0
  0
LINE
  5
53D9
330
53D2
100
AcDbEntity
  8
0
  6
CONTINUOUS
 62
     0
100
AcDbLine
 10
21.88642799999999
 20
24.943094
 30
0.0
 11
22.778328
 21
25.834994
 31
0.0
  0
LINE
  5
53DA
330
53D2
100
AcDbEntity
  8
0
  6
CONTINUOUS
 62
     0
100
AcDbLine
 10
21.807973
 20
25.147481
 30
0.0
 11
22.495485
 21
25.834994
 31
0.0
  0
LINE
  5
53DB
330
53D2
100
AcDbEntity
  8
0
  6
CONTINUOUS
 62
     0
100
AcDbLine
 10
21.807973
 20
25.43032399999999
 30
0.0
 11
22.212643
 21
25.834994
 31
0.0
  0
LINE
  5
53DC
330
53D2
100
AcDbEntity
  8
0
  6
CONTINUOUS
 62
     0
100
AcDbLine
 10
21.807973
 20
25.713167
 30
0.0
 11
21.92979999999999
 21
25.834994
 31
0.0
  0
ENDBLK
  5
53DE
330
53D2
100
AcDbEntity
  8
0
100
AcDbBlockEnd
  0
BLOCK
  5
53F4
330
53DF
100
AcDbEntity
  8
0
100
AcDbBlockBegin
  2
*X17
 70
     1
 10
0.0
 20
0.0
 30
0.0
  3
*X17
  1

  0
LINE
  5
53E0
330
53DF
100
AcDbEntity
  8
0
  6
CONTINUOUS
 62
     0
100
AcDbLine
 10
23.515125
 20
20.63209399999999
 30
0.0
 11
23.625973
 21
20.742941
 31
0.0
  0
LINE
  5
53E1
330
53DF
100
AcDbEntity
  8
0
  6
CONTINUOUS
 62
     0
100
AcDbLine
 10
23.232282
 20
20.63209399999999
 30
0.0
 11
23.625973
 21
21.025784
 31
0.0
  0
LINE
  5
53E2
330
53DF
100
AcDbEntity
  8
0
  6
CONTINUOUS
 62
     0
100
AcDbLine
 10
22.94944
 20
20.63209399999999
 30
0.0
 11
23.625973
 21
21.30862699999999
 31
0.0
  0
LINE
  5
53E3
330
53DF
100
AcDbEntity
  8
0
  6
CONTINUOUS
 62
     0
100
AcDbLine
 10
22.66659699999999
 20
20.63209399999999
 30
0.0
 11
23.625973
 21
21.59147
 31
0.0
  0
LINE
  5
53E4
330
53DF
100
AcDbEntity
  8
0
  6
CONTINUOUS
 62
     0
100
AcDbLine
 10
22.383754
 20
20.63209399999999
 30
0.0
 11
23.625973
 21
21.874312
 31
0.0
  0
LINE
  5
53E5
330
53DF
100
AcDbEntity
  8
0
  6
CONTINUOUS
 62
     0
100
AcDbLine
 10
22.100912
 20
20.63209399999999
 30
0.0
 11
23.625973
 21
22.15715499999999
 31
0.0
  0
LINE
  5
53E6
330
53DF
100
AcDbEntity
  8
0
  6
CONTINUOUS
 62
     0
100
AcDbLine
 10
21.818069
 20
20.63209399999999
 30
0.0
 11
23.625973
 21
22.439998
 31
0.0
  0
LINE
  5
53E7
330
53DF
100
AcDbEntity
  8
0
  6
CONTINUOUS
 62
     0
100
AcDbLine
 10
21.807973
 20
20.90484
 30
0.0
 11
23.625973
 21
22.72283999999999
 31
0.0
  0
LINE
  5
53E8
330
53DF
100
AcDbEntity
  8
0
  6
CONTINUOUS
 62
     0
100
AcDbLine
 10
21.807973
 20
21.187683
 30
0.0
 11
23.625973
 21
23.00568299999999
 31
0.0
  0
LINE
  5
53E9
330
53DF
100
AcDbEntity
  8
0
  6
CONTINUOUS
 62
     0
100
AcDbLine
 10
21.807973
 20
21.47052599999999
 30
0.0
 11
23.625973
 21
23.288526
 31
0.0
  0
LINE
  5
53EA
330
53DF
100
AcDbEntity
  8
0
  6
CONTINUOUS
 62
     0
100
AcDbLine
 10
21.807973
 20
21.753369
 30
0.0
 11
23.625973
 21
23.57136899999999
 31
0.0
  0
LINE
  5
53EB
330
53DF
100
AcDbEntity
  8
0
  6
CONTINUOUS
 62
     0
100
AcDbLine
 10
21.807973
 20
22.03621099999999
 30
0.0
 11
23.625973
 21
23.85421099999999
 31
0.0
  0
LINE
  5
53EC
330
53DF
100
AcDbEntity
  8
0
  6
CONTINUOUS
 62
     0
100
AcDbLine
 10
21.807973
 20
22.319054
 30
0.0
 11
23.625973
 21
24.137054
 31
0.0
  0
LINE
  5
53ED
330
53DF
100
AcDbEntity
  8
0
  6
CONTINUOUS
 62
     0
100
AcDbLine
 10
21.807973
 20
22.601897
 30
0.0
 11
23.625973
 21
24.419897
 31
0.0
  0
LINE
  5
53EE
330
53DF
100
AcDbEntity
  8
0
  6
CONTINUOUS
 62
     0
100
AcDbLine
 10
21.807973
 20
22.884739
 30
0.0
 11
23.431627
 21
24.508394
 31
0.0
  0
LINE
  5
53EF
330
53DF
100
AcDbEntity
  8
0
  6
CONTINUOUS
 62
     0
100
AcDbLine
 10
21.807973
 20
23.167582
 30
0.0
 11
23.148784
 21
24.508394
 31
0.0
  0
LINE
  5
53F0
330
53DF
100
AcDbEntity
  8
0
  6
CONTINUOUS
 62
     0
100
AcDbLine
 10
21.807973
 20
23.45042499999999
 30
0.0
 11
22.865942
 21
24.508394
 31
0.0
  0
LINE
  5
53F1
330
53DF
100
AcDbEntity
  8
0
  6
CONTINUOUS
 62
     0
100
AcDbLine
 10
21.807973
 20
23.733268
 30
0.0
 11
22.58309899999999
 21
24.508394
 31
0.0
  0
LINE
  5
53F2
330
53DF
100
AcDbEntity
  8
0
  6
CONTINUOUS
 62
     0
100
AcDbLine
 10
21.807973
 20
24.01611
 30
0.0
 11
22.300256
 21
24.508394
 31
0.0
  0
LINE
  5
53F3
330
53DF
100
AcDbEntity
  8
0
  6
CONTINUOUS
 62
     0
100
AcDbLine
 10
21.807973
 20
24.298953
 30
0.0
 11
22.017414
 21
24.508394
 31
0.0
  0
ENDBLK
  5
53F5
330
53DF
100
AcDbEntity
  8
0
100
AcDbBlockEnd
  0
BLOCK
  5
541E
330
53F6
100
AcDbEntity
  8
0
100
AcDbBlockBegin
  2
*X18
 70
     1
 10
0.0
 20
0.0
 30
0.0
  3
*X18
  1

  0
LINE
  5
53F7
330
53F6
100
AcDbEntity
  8
0
  6
CONTINUOUS
 62
     0
100
AcDbLine
 10
29.737665
 20
20.63209399999999
 30
0.0
 11
29.89222299999999
 21
20.786652
 31
0.0
  0
LINE
  5
53F8
330
53F6
100
AcDbEntity
  8
0
  6
CONTINUOUS
 62
     0
100
AcDbLine
 10
29.45482199999999
 20
20.63209399999999
 30
0.0
 11
29.89222299999999
 21
21.06949399999999
 31
0.0
  0
LINE
  5
53F9
330
53F6
100
AcDbEntity
  8
0
  6
CONTINUOUS
 62
     0
100
AcDbLine
 10
29.17197899999999
 20
20.63209399999999
 30
0.0
 11
29.89222299999999
 21
21.352337
 31
0.0
  0
LINE
  5
53FA
330
53F6
100
AcDbEntity
  8
0
  6
CONTINUOUS
 62
     0
100
AcDbLine
 10
28.88913699999999
 20
20.63209399999999
 30
0.0
 11
29.89222299999999
 21
21.63517999999999
 31
0.0
  0
LINE
  5
53FB
330
53F6
100
AcDbEntity
  8
0
  6
CONTINUOUS
 62
     0
100
AcDbLine
 10
28.606294
 20
20.63209399999999
 30
0.0
 11
29.89222299999999
 21
21.918023
 31
0.0
  0
LINE
  5
53FC
330
53F6
100
AcDbEntity
  8
0
  6
CONTINUOUS
 62
     0
100
AcDbLine
 10
28.323451
 20
20.63209399999999
 30
0.0
 11
29.89222299999999
 21
22.200865
 31
0.0
  0
LINE
  5
53FD
330
53F6
100
AcDbEntity
  8
0
  6
CONTINUOUS
 62
     0
100
AcDbLine
 10
28.108423
 20
20.69990799999999
 30
0.0
 11
29.89222299999999
 21
22.483708
 31
0.0
  0
LINE
  5
53FE
330
53F6
100
AcDbEntity
  8
0
  6
CONTINUOUS
 62
     0
100
AcDbLine
 10
28.108423
 20
20.98275099999999
 30
0.0
 11
29.89222299999999
 21
22.766551
 31
0.0
  0
LINE
  5
53FF
330
53F6
100
AcDbEntity
  8
0
  6
CONTINUOUS
 62
     0
100
AcDbLine
 10
28.108423
 20
21.26559299999999
 30
0.0
 11
29.89222299999999
 21
23.049393
 31
0.0
  0
LINE
  5
5400
330
53F6
100
AcDbEntity
  8
0
  6
CONTINUOUS
 62
     0
100
AcDbLine
 10
28.108423
 20
21.54843599999999
 30
0.0
 11
29.89184299999999
 21
23.33185599999999
 31
0.0
  0
LINE
  5
5401
330
53F6
100
AcDbEntity
  8
0
  6
CONTINUOUS
 62
     0
100
AcDbLine
 10
28.108423
 20
21.831279
 30
0.0
 11
29.853268
 21
23.576124
 31
0.0
  0
LINE
  5
5402
330
53F6
100
AcDbEntity
  8
0
  6
CONTINUOUS
 62
     0
100
AcDbLine
 10
28.108423
 20
22.114122
 30
0.0
 11
29.777815
 21
23.78351299999999
 31
0.0
  0
LINE
  5
5403
330
53F6
100
AcDbEntity
  8
0
  6
CONTINUOUS
 62
     0
100
AcDbLine
 10
28.108423
 20
22.396964
 30
0.0
 11
29.67413
 21
23.962671
 31
0.0
  0
LINE
  5
5404
330
53F6
100
AcDbEntity
  8
0
  6
CONTINUOUS
 62
     0
100
AcDbLine
 10
28.084087
 20
22.655471
 30
0.0
 11
29.54593
 21
24.117314
 31
0.0
  0
LINE
  5
5405
330
53F6
100
AcDbEntity
  8
0
  6
CONTINUOUS
 62
     0
100
AcDbLine
 10
26.06071
 20
20.63209399999999
 30
0.0
 11
26.28997299999999
 21
20.861357
 31
0.0
  0
LINE
  5
5406
330
53F6
100
AcDbEntity
  8
0
  6
CONTINUOUS
 62
     0
100
AcDbLine
 10
27.9938
 20
22.84802699999999
 30
0.0
 11
29.394359
 21
24.248585
 31
0.0
  0
LINE
  5
5407
330
53F6
100
AcDbEntity
  8
0
  6
CONTINUOUS
 62
     0
100
AcDbLine
 10
25.777867
 20
20.63209399999999
 30
0.0
 11
26.28997299999999
 21
21.1442
 31
0.0
  0
LINE
  5
5408
330
53F6
100
AcDbEntity
  8
0
  6
CONTINUOUS
 62
     0
100
AcDbLine
 10
27.856431
 20
22.993501
 30
0.0
 11
29.218545
 21
24.355614
 31
0.0
  0
LINE
  5
5409
330
53F6
100
AcDbEntity
  8
0
  6
CONTINUOUS
 62
     0
100
AcDbLine
 10
25.495024
 20
20.63209399999999
 30
0.0
 11
26.28997299999999
 21
21.427042
 31
0.0
  0
LINE
  5
540A
330
53F6
100
AcDbEntity
  8
0
  6
CONTINUOUS
 62
     0
100
AcDbLine
 10
27.673361
 20
23.09327399999999
 30
0.0
 11
29.008732
 21
24.428645
 31
0.0
  0
LINE
  5
540B
330
53F6
100
AcDbEntity
  8
0
  6
CONTINUOUS
 62
     0
100
AcDbLine
 10
25.212181
 20
20.63209399999999
 30
0.0
 11
26.28997299999999
 21
21.70988499999999
 31
0.0
  0
LINE
  5
540C
330
53F6
100
AcDbEntity
  8
0
  6
CONTINUOUS
 62
     0
100
AcDbLine
 10
27.426682
 20
23.129436
 30
0.0
 11
28.78111099999999
 21
24.483866
 31
0.0
  0
LINE
  5
540D
330
53F6
100
AcDbEntity
  8
0
  6
CONTINUOUS
 62
     0
100
AcDbLine
 10
24.929339
 20
20.63209399999999
 30
0.0
 11
26.28997299999999
 21
21.992728
 31
0.0
  0
LINE
  5
540E
330
53F6
100
AcDbEntity
  8
0
  6
CONTINUOUS
 62
     0
100
AcDbLine
 10
27.09337899999999
 20
23.07897599999999
 30
0.0
 11
28.539658
 21
24.525255
 31
0.0
  0
LINE
  5
540F
330
53F6
100
AcDbEntity
  8
0
  6
CONTINUOUS
 62
     0
100
AcDbLine
 10
24.64649599999999
 20
20.63209399999999
 30
0.0
 11
26.28997299999999
 21
22.27557099999999
 31
0.0
  0
LINE
  5
5410
330
53F6
100
AcDbEntity
  8
0
  6
CONTINUOUS
 62
     0
100
AcDbLine
 10
24.494923
 20
20.763363
 30
0.0
 11
28.28214099999999
 21
24.550582
 31
0.0
  0
LINE
  5
5411
330
53F6
100
AcDbEntity
  8
0
  6
CONTINUOUS
 62
     0
100
AcDbLine
 10
24.494923
 20
21.046206
 30
0.0
 11
28.005321
 21
24.556604
 31
0.0
  0
LINE
  5
5412
330
53F6
100
AcDbEntity
  8
0
  6
CONTINUOUS
 62
     0
100
AcDbLine
 10
24.494923
 20
21.32904899999999
 30
0.0
 11
27.704195
 21
24.538321
 31
0.0
  0
LINE
  5
5413
330
53F6
100
AcDbEntity
  8
0
  6
CONTINUOUS
 62
     0
100
AcDbLine
 10
24.494923
 20
21.611891
 30
0.0
 11
27.370303
 21
24.487272
 31
0.0
  0
LINE
  5
5414
330
53F6
100
AcDbEntity
  8
0
  6
CONTINUOUS
 62
     0
100
AcDbLine
 10
24.494923
 20
21.894734
 30
0.0
 11
26.987035
 21
24.386846
 31
0.0
  0
LINE
  5
5415
330
53F6
100
AcDbEntity
  8
0
  6
CONTINUOUS
 62
     0
100
AcDbLine
 10
24.494923
 20
22.17757699999999
 30
0.0
 11
26.51056599999999
 21
24.19322
 31
0.0
  0
LINE
  5
5416
330
53F6
100
AcDbEntity
  8
0
  6
CONTINUOUS
 62
     0
100
AcDbLine
 10
24.494923
 20
22.46042
 30
0.0
 11
26.28997299999999
 21
24.25547
 31
0.0
  0
LINE
  5
5417
330
53F6
100
AcDbEntity
  8
0
  6
CONTINUOUS
 62
     0
100
AcDbLine
 10
24.494923
 20
22.74326199999999
 30
0.0
 11
26.26005399999999
 21
24.508394
 31
0.0
  0
LINE
  5
5418
330
53F6
100
AcDbEntity
  8
0
  6
CONTINUOUS
 62
     0
100
AcDbLine
 10
24.494923
 20
23.02610499999999
 30
0.0
 11
25.977212
 21
24.508394
 31
0.0
  0
LINE
  5
5419
330
53F6
100
AcDbEntity
  8
0
  6
CONTINUOUS
 62
     0
100
AcDbLine
 10
24.494923
 20
23.308948
 30
0.0
 11
25.694369
 21
24.508394
 31
0.0
  0
LINE
  5
541A
330
53F6
100
AcDbEntity
  8
0
  6
CONTINUOUS
 62
     0
100
AcDbLine
 10
24.494923
 20
23.59179
 30
0.0
 11
25.411526
 21
24.508394
 31
0.0
  0
LINE
  5
541B
330
53F6
100
AcDbEntity
  8
0
  6
CONTINUOUS
 62
     0
100
AcDbLine
 10
24.494923
 20
23.87463299999999
 30
0.0
 11
25.128683
 21
24.508394
 31
0.0
  0
LINE
  5
541C
330
53F6
100
AcDbEntity
  8
0
  6
CONTINUOUS
 62
     0
100
AcDbLine
 10
24.494923
 20
24.157476
 30
0.0
 11
24.845841
 21
24.508394
 31
0.0
  0
LINE
  5
541D
330
53F6
100
AcDbEntity
  8
0
  6
CONTINUOUS
 62
     0
100
AcDbLine
 10
24.494923
 20
24.440319
 30
0.0
 11
24.562998
 21
24.508394
 31
0.0
  0
ENDBLK
  5
541F
330
53F6
100
AcDbEntity
  8
0
100
AcDbBlockEnd
  0
BLOCK
  5
544D
330
5420
100
AcDbEntity
  8
0
100
AcDbBlockBegin
  2
*X19
 70
     1
 10
0.0
 20
0.0
 30
0.0
  3
*X19
  1

  0
LINE
  5
5421
330
5420
100
AcDbEntity
  8
0
  6
CONTINUOUS
 62
     0
100
AcDbLine
 10
35.94895499999999
 20
20.620844
 30
0.0
 11
35.986573
 21
20.658462
 31
0.0
  0
LINE
  5
5422
330
5420
100
AcDbEntity
  8
0
  6
CONTINUOUS
 62
     0
100
AcDbLine
 10
35.666112
 20
20.620844
 30
0.0
 11
35.986573
 21
20.94130499999999
 31
0.0
  0
LINE
  5
5423
330
5420
100
AcDbEntity
  8
0
  6
CONTINUOUS
 62
     0
100
AcDbLine
 10
35.38326899999999
 20
20.620844
 30
0.0
 11
35.986573
 21
21.22414699999999
 31
0.0
  0
LINE
  5
5424
330
5420
100
AcDbEntity
  8
0
  6
CONTINUOUS
 62
     0
100
AcDbLine
 10
35.100427
 20
20.620844
 30
0.0
 11
35.986573
 21
21.50698999999999
 31
0.0
  0
LINE
  5
5425
330
5420
100
AcDbEntity
  8
0
  6
CONTINUOUS
 62
     0
100
AcDbLine
 10
34.817584
 20
20.620844
 30
0.0
 11
35.986573
 21
21.789833
 31
0.0
  0
LINE
  5
5426
330
5420
100
AcDbEntity
  8
0
  6
CONTINUOUS
 62
     0
100
AcDbLine
 10
34.53474099999999
 20
20.620844
 30
0.0
 11
35.986573
 21
22.07267499999999
 31
0.0
  0
LINE
  5
5427
330
5420
100
AcDbEntity
  8
0
  6
CONTINUOUS
 62
     0
100
AcDbLine
 10
34.251898
 20
20.620844
 30
0.0
 11
35.986573
 21
22.355518
 31
0.0
  0
LINE
  5
5428
330
5420
100
AcDbEntity
  8
0
  6
CONTINUOUS
 62
     0
100
AcDbLine
 10
34.19152299999999
 20
20.84331099999999
 30
0.0
 11
35.986573
 21
22.638361
 31
0.0
  0
LINE
  5
5429
330
5420
100
AcDbEntity
  8
0
  6
CONTINUOUS
 62
     0
100
AcDbLine
 10
33.76930999999999
 20
20.703941
 30
0.0
 11
35.986573
 21
22.92120399999999
 31
0.0
  0
LINE
  5
542A
330
5420
100
AcDbEntity
  8
0
  6
CONTINUOUS
 62
     0
100
AcDbLine
 10
33.39236599999999
 20
20.60983999999999
 30
0.0
 11
35.986573
 21
23.20404599999999
 31
0.0
  0
LINE
  5
542B
330
5420
100
AcDbEntity
  8
0
  6
CONTINUOUS
 62
     0
100
AcDbLine
 10
33.081013
 20
20.58132999999999
 30
0.0
 11
35.986573
 21
23.486889
 31
0.0
  0
LINE
  5
542C
330
5420
100
AcDbEntity
  8
0
  6
CONTINUOUS
 62
     0
100
AcDbLine
 10
32.78812199999999
 20
20.57128099999999
 30
0.0
 11
35.986573
 21
23.769732
 31
0.0
  0
LINE
  5
542D
330
5420
100
AcDbEntity
  8
0
  6
CONTINUOUS
 62
     0
100
AcDbLine
 10
32.50752399999999
 20
20.57352499999999
 30
0.0
 11
35.986573
 21
24.05257399999999
 31
0.0
  0
LINE
  5
542E
330
5420
100
AcDbEntity
  8
0
  6
CONTINUOUS
 62
     0
100
AcDbLine
 10
34.178814
 20
22.52765899999999
 30
0.0
 11
35.986573
 21
24.335417
 31
0.0
  0
LINE
  5
542F
330
5420
100
AcDbEntity
  8
0
  6
CONTINUOUS
 62
     0
100
AcDbLine
 10
32.243083
 20
20.59192799999999
 30
0.0
 11
33.59479199999999
 21
21.94363599999999
 31
0.0
  0
LINE
  5
5430
330
5420
100
AcDbEntity
  8
0
  6
CONTINUOUS
 62
     0
100
AcDbLine
 10
34.181643
 20
22.81333
 30
0.0
 11
35.986573
 21
24.61826
 31
0.0
  0
LINE
  5
5431
330
5420
100
AcDbEntity
  8
0
  6
CONTINUOUS
 62
     0
100
AcDbLine
 10
32.000516
 20
20.632203
 30
0.0
 11
33.247555
 21
21.879242
 31
0.0
  0
LINE
  5
5432
330
5420
100
AcDbEntity
  8
0
  6
CONTINUOUS
 62
     0
100
AcDbLine
 10
34.100287
 20
23.014817
 30
0.0
 11
35.986573
 21
24.90110299999999
 31
0.0
  0
LINE
  5
5433
330
5420
100
AcDbEntity
  8
0
  6
CONTINUOUS
 62
     0
100
AcDbLine
 10
31.777522
 20
20.692051
 30
0.0
 11
32.988078
 21
21.90260799999999
 31
0.0
  0
LINE
  5
5434
330
5420
100
AcDbEntity
  8
0
  6
CONTINUOUS
 62
     0
100
AcDbLine
 10
33.96946099999999
 20
23.166833
 30
0.0
 11
35.986573
 21
25.183945
 31
0.0
  0
LINE
  5
5435
330
5420
100
AcDbEntity
  8
0
  6
CONTINUOUS
 62
     0
100
AcDbLine
 10
31.57735699999999
 20
20.774729
 30
0.0
 11
32.76916099999999
 21
21.96653299999999
 31
0.0
  0
LINE
  5
5436
330
5420
100
AcDbEntity
  8
0
  6
CONTINUOUS
 62
     0
100
AcDbLine
 10
33.798691
 20
23.27890599999999
 30
0.0
 11
35.986573
 21
25.466788
 31
0.0
  0
LINE
  5
5437
330
5420
100
AcDbEntity
  8
0
  6
CONTINUOUS
 62
     0
100
AcDbLine
 10
31.394628
 20
20.87484299999999
 30
0.0
 11
32.578781
 21
22.05899599999999
 31
0.0
  0
LINE
  5
5438
330
5420
100
AcDbEntity
  8
0
  6
CONTINUOUS
 62
     0
100
AcDbLine
 10
33.595067
 20
23.358124
 30
0.0
 11
35.986573
 21
25.749631
 31
0.0
  0
LINE
  5
5439
330
5420
100
AcDbEntity
  8
0
  6
CONTINUOUS
 62
     0
100
AcDbLine
 10
31.22313099999999
 20
20.986189
 30
0.0
 11
32.424733
 21
22.187791
 31
0.0
  0
LINE
  5
543A
330
5420
100
AcDbEntity
  8
0
  6
CONTINUOUS
 62
     0
100
AcDbLine
 10
33.37303699999999
 20
23.41893699999999
 30
0.0
 11
35.77784299999999
 21
25.823744
 31
0.0
  0
LINE
  5
543B
330
5420
100
AcDbEntity
  8
0
  6
CONTINUOUS
 62
     0
100
AcDbLine
 10
31.067037
 20
21.112937
 30
0.0
 11
32.307803
 21
22.353704
 31
0.0
  0
LINE
  5
543C
330
5420
100
AcDbEntity
  8
0
  6
CONTINUOUS
 62
     0
100
AcDbLine
 10
33.11599499999999
 20
23.444738
 30
0.0
 11
34.077945
 21
24.406688
 31
0.0
  0
LINE
  5
543D
330
5420
100
AcDbEntity
  8
0
  6
CONTINUOUS
 62
     0
100
AcDbLine
 10
34.19152299999999
 20
24.52026599999999
 30
0.0
 11
35.495
 21
25.823744
 31
0.0
  0
LINE
  5
543E
330
5420
100
AcDbEntity
  8
0
  6
CONTINUOUS
 62
     0
100
AcDbLine
 10
30.92289099999999
 20
21.25163399999999
 30
0.0
 11
32.23358499999999
 21
22.562329
 31
0.0
  0
LINE
  5
543F
330
5420
100
AcDbEntity
  8
0
  6
CONTINUOUS
 62
     0
100
AcDbLine
 10
32.74817399999999
 20
23.35976
 30
0.0
 11
33.885911
 21
24.49749699999999
 31
0.0
  0
LINE
  5
5440
330
5420
100
AcDbEntity
  8
0
  6
CONTINUOUS
 62
     0
100
AcDbLine
 10
34.19152299999999
 20
24.803109
 30
0.0
 11
35.212158
 21
25.823744
 31
0.0
  0
LINE
  5
5441
330
5420
100
AcDbEntity
  8
0
  6
CONTINUOUS
 62
     0
100
AcDbLine
 10
30.79573599999999
 20
21.40732199999999
 30
0.0
 11
32.26604099999999
 21
22.877627
 31
0.0
  0
LINE
  5
5442
330
5420
100
AcDbEntity
  8
0
  6
CONTINUOUS
 62
     0
100
AcDbLine
 10
34.19152299999999
 20
25.085952
 30
0.0
 11
34.929315
 21
25.823744
 31
0.0
  0
LINE
  5
5443
330
5420
100
AcDbEntity
  8
0
  6
CONTINUOUS
 62
     0
100
AcDbLine
 10
30.684862
 20
21.579291
 30
0.0
 11
33.65907999999999
 21
24.553509
 31
0.0
  0
LINE
  5
5444
330
5420
100
AcDbEntity
  8
0
  6
CONTINUOUS
 62
     0
100
AcDbLine
 10
34.19152299999999
 20
25.368794
 30
0.0
 11
34.64647199999999
 21
25.823744
 31
0.0
  0
LINE
  5
5445
330
5420
100
AcDbEntity
  8
0
  6
CONTINUOUS
 62
     0
100
AcDbLine
 10
30.59117899999999
 20
21.76845
 30
0.0
 11
33.418127
 21
24.595399
 31
0.0
  0
LINE
  5
5446
330
5420
100
AcDbEntity
  8
0
  6
CONTINUOUS
 62
     0
100
AcDbLine
 10
34.19152299999999
 20
25.651637
 30
0.0
 11
34.36362899999999
 21
25.823744
 31
0.0
  0
LINE
  5
5447
330
5420
100
AcDbEntity
  8
0
  6
CONTINUOUS
 62
     0
100
AcDbLine
 10
30.51714
 20
21.977254
 30
0.0
 11
33.172249
 21
24.632364
 31
0.0
  0
LINE
  5
5448
330
5420
100
AcDbEntity
  8
0
  6
CONTINUOUS
 62
     0
100
AcDbLine
 10
30.459126
 20
22.20208299999999
 30
0.0
 11
32.905926
 21
24.648883
 31
0.0
  0
LINE
  5
5449
330
5420
100
AcDbEntity
  8
0
  6
CONTINUOUS
 62
     0
100
AcDbLine
 10
30.423694
 20
22.449493
 30
0.0
 11
32.62147499999999
 21
24.647275
 31
0.0
  0
LINE
  5
544A
330
5420
100
AcDbEntity
  8
0
  6
CONTINUOUS
 62
     0
100
AcDbLine
 10
30.424318
 20
22.732961
 30
0.0
 11
32.321114
 21
24.629756
 31
0.0
  0
LINE
  5
544B
330
5420
100
AcDbEntity
  8
0
  6
CONTINUOUS
 62
     0
100
AcDbLine
 10
30.48455999999999
 20
23.076045
 30
0.0
 11
31.97893099999999
 21
24.570416
 31
0.0
  0
LINE
  5
544C
330
5420
100
AcDbEntity
  8
0
  6
CONTINUOUS
 62
     0
100
AcDbLine
 10
30.667096
 20
23.541423
 30
0.0
 11
31.51624099999999
 21
24.390569
 31
0.0
  0
ENDBLK
  5
544E
330
5420
100
AcDbEntity
  8
0
100
AcDbBlockEnd
  0
BLOCK
  5
5480
330
544F
100
AcDbEntity
  8
0
100
AcDbBlockBegin
  2
*X20
 70
     1
 10
0.0
 20
0.0
 30
0.0
  3
*X20
  1

  0
LINE
  5
5450
330
544F
100
AcDbEntity
  8
0
  6
CONTINUOUS
 62
     0
100
AcDbLine
 10
41.23382399999999
 20
20.814544
 30
0.0
 11
42.038521
 21
21.61924099999999
 31
0.0
  0
LINE
  5
5451
330
544F
100
AcDbEntity
  8
0
  6
CONTINUOUS
 62
     0
100
AcDbLine
 10
40.761924
 20
20.625487
 30
0.0
 11
41.99208099999999
 21
21.855644
 31
0.0
  0
LINE
  5
5452
330
544F
100
AcDbEntity
  8
0
  6
CONTINUOUS
 62
     0
100
AcDbLine
 10
42.109364
 20
22.25577
 30
0.0
 11
42.234688
 21
22.381093
 31
0.0
  0
LINE
  5
5453
330
544F
100
AcDbEntity
  8
0
  6
CONTINUOUS
 62
     0
100
AcDbLine
 10
40.38714399999999
 20
20.53354899999999
 30
0.0
 11
41.70923799999999
 21
21.855644
 31
0.0
  0
LINE
  5
5454
330
544F
100
AcDbEntity
  8
0
  6
CONTINUOUS
 62
     0
100
AcDbLine
 10
41.825433
 20
22.25468199999999
 30
0.0
 11
42.248624
 21
22.677873
 31
0.0
  0
LINE
  5
5455
330
544F
100
AcDbEntity
  8
0
  6
CONTINUOUS
 62
     0
100
AcDbLine
 10
40.05277999999999
 20
20.482029
 30
0.0
 11
41.426395
 21
21.855644
 31
0.0
  0
LINE
  5
5456
330
544F
100
AcDbEntity
  8
0
  6
CONTINUOUS
 62
     0
100
AcDbLine
 10
41.541502
 20
22.253593
 30
0.0
 11
42.21409
 21
22.92618099999999
 31
0.0
  0
LINE
  5
5457
330
544F
100
AcDbEntity
  8
0
  6
CONTINUOUS
 62
     0
100
AcDbLine
 10
39.74394
 20
20.456031
 30
0.0
 11
41.143553
 21
21.855644
 31
0.0
  0
LINE
  5
5458
330
544F
100
AcDbEntity
  8
0
  6
CONTINUOUS
 62
     0
100
AcDbLine
 10
41.25757199999999
 20
22.252505
 30
0.0
 11
42.156032
 21
23.15096599999999
 31
0.0
  0
LINE
  5
5459
330
544F
100
AcDbEntity
  8
0
  6
CONTINUOUS
 62
     0
100
AcDbLine
 10
39.448788
 20
20.443722
 30
0.0
 11
40.86070999999999
 21
21.855644
 31
0.0
  0
LINE
  5
545A
330
544F
100
AcDbEntity
  8
0
  6
CONTINUOUS
 62
     0
100
AcDbLine
 10
40.973641
 20
22.251417
 30
0.0
 11
42.08269699999999
 21
23.360473
 31
0.0
  0
LINE
  5
545B
330
544F
100
AcDbEntity
  8
0
  6
CONTINUOUS
 62
     0
100
AcDbLine
 10
39.16676599999999
 20
20.444542
 30
0.0
 11
40.577867
 21
21.855644
 31
0.0
  0
LINE
  5
545C
330
544F
100
AcDbEntity
  8
0
  6
CONTINUOUS
 62
     0
100
AcDbLine
 10
40.68971
 20
22.25032899999999
 30
0.0
 11
41.992262
 21
23.552881
 31
0.0
  0
LINE
  5
545D
330
544F
100
AcDbEntity
  8
0
  6
CONTINUOUS
 62
     0
100
AcDbLine
 10
38.902535
 20
20.463154
 30
0.0
 11
40.17887199999999
 21
21.739491
 31
0.0
  0
LINE
  5
545E
330
544F
100
AcDbEntity
  8
0
  6
CONTINUOUS
 62
     0
100
AcDbLine
 10
40.40577899999999
 20
22.249241
 30
0.0
 11
41.885758
 21
23.729219
 31
0.0
  0
LINE
  5
545F
330
544F
100
AcDbEntity
  8
0
  6
CONTINUOUS
 62
     0
100
AcDbLine
 10
38.650769
 20
20.49423099999999
 30
0.0
 11
39.71113499999999
 21
21.55459599999999
 31
0.0
  0
LINE
  5
5460
330
544F
100
AcDbEntity
  8
0
  6
CONTINUOUS
 62
     0
100
AcDbLine
 10
40.12184799999999
 20
22.24815199999999
 30
0.0
 11
41.763132
 21
23.889436
 31
0.0
  0
LINE
  5
5461
330
544F
100
AcDbEntity
  8
0
  6
CONTINUOUS
 62
     0
100
AcDbLine
 10
38.407693
 20
20.533998
 30
0.0
 11
39.411545
 21
21.53785
 31
0.0
  0
LINE
  5
5462
330
544F
100
AcDbEntity
  8
0
  6
CONTINUOUS
 62
     0
100
AcDbLine
 10
39.83791699999999
 20
22.247064
 30
0.0
 11
41.62484899999999
 21
24.033997
 31
0.0
  0
LINE
  5
5463
330
544F
100
AcDbEntity
  8
0
  6
CONTINUOUS
 62
     0
100
AcDbLine
 10
38.180128
 20
20.589276
 30
0.0
 11
39.162324
 21
21.57147099999999
 31
0.0
  0
LINE
  5
5464
330
544F
100
AcDbEntity
  8
0
  6
CONTINUOUS
 62
     0
100
AcDbLine
 10
39.553986
 20
22.245976
 30
0.0
 11
41.470496
 21
24.16248599999999
 31
0.0
  0
LINE
  5
5465
330
544F
100
AcDbEntity
  8
0
  6
CONTINUOUS
 62
     0
100
AcDbLine
 10
37.96719
 20
20.65917999999999
 30
0.0
 11
38.94359
 21
21.63557999999999
 31
0.0
  0
LINE
  5
5466
330
544F
100
AcDbEntity
  8
0
  6
CONTINUOUS
 62
     0
100
AcDbLine
 10
39.27005499999999
 20
22.244888
 30
0.0
 11
40.10436099999999
 21
23.079194
 31
0.0
  0
LINE
  5
5467
330
544F
100
AcDbEntity
  8
0
  6
CONTINUOUS
 62
     0
100
AcDbLine
 10
40.296756
 20
23.271589
 30
0.0
 11
41.30607499999999
 21
24.280908
 31
0.0
  0
LINE
  5
5468
330
544F
100
AcDbEntity
  8
0
  6
CONTINUOUS
 62
     0
100
AcDbLine
 10
37.762127
 20
20.736959
 30
0.0
 11
38.75166699999999
 21
21.7265
 31
0.0
  0
LINE
  5
5469
330
544F
100
AcDbEntity
  8
0
  6
CONTINUOUS
 62
     0
100
AcDbLine
 10
38.986768
 20
22.244444
 30
0.0
 11
39.821518
 21
23.079194
 31
0.0
  0
LINE
  5
546A
330
544F
100
AcDbEntity
  8
0
  6
CONTINUOUS
 62
     0
100
AcDbLine
 10
40.18585499999999
 20
23.443531
 30
0.0
 11
41.127162
 21
24.384837
 31
0.0
  0
LINE
  5
546B
330
544F
100
AcDbEntity
  8
0
  6
CONTINUOUS
 62
     0
100
AcDbLine
 10
37.567077
 20
20.824752
 30
0.0
 11
38.58724199999999
 21
21.844917
 31
0.0
  0
LINE
  5
546C
330
544F
100
AcDbEntity
  8
0
  6
CONTINUOUS
 62
     0
100
AcDbLine
 10
38.703926
 20
22.244444
 30
0.0
 11
39.538676
 21
23.079194
 31
0.0
  0
LINE
  5
546D
330
544F
100
AcDbEntity
  8
0
  6
CONTINUOUS
 62
     0
100
AcDbLine
 10
40.03559899999999
 20
23.576117
 30
0.0
 11
40.93254199999999
 21
24.47306
 31
0.0
  0
LINE
  5
546E
330
544F
100
AcDbEntity
  8
0
  6
CONTINUOUS
 62
     0
100
AcDbLine
 10
37.386162
 20
20.92667999999999
 30
0.0
 11
38.458814
 21
21.99933199999999
 31
0.0
  0
LINE
  5
546F
330
544F
100
AcDbEntity
  8
0
  6
CONTINUOUS
 62
     0
100
AcDbLine
 10
38.421083
 20
22.244444
 30
0.0
 11
39.255833
 21
23.079194
 31
0.0
  0
LINE
  5
5470
330
544F
100
AcDbEntity
  8
0
  6
CONTINUOUS
 62
     0
100
AcDbLine
 10
39.85366199999999
 20
23.677023
 30
0.0
 11
40.721945
 21
24.545306
 31
0.0
  0
LINE
  5
5471
330
544F
100
AcDbEntity
  8
0
  6
CONTINUOUS
 62
     0
100
AcDbLine
 10
37.22185
 20
21.04521099999999
 30
0.0
 11
38.375638
 21
22.198999
 31
0.0
  0
LINE
  5
5472
330
544F
100
AcDbEntity
  8
0
  6
CONTINUOUS
 62
     0
100
AcDbLine
 10
39.63845399999999
 20
23.744657
 30
0.0
 11
40.501236
 21
24.607439
 31
0.0
  0
LINE
  5
5473
330
544F
100
AcDbEntity
  8
0
  6
CONTINUOUS
 62
     0
100
AcDbLine
 10
37.07656
 20
21.182763
 30
0.0
 11
38.97299
 21
23.079194
 31
0.0
  0
LINE
  5
5474
330
544F
100
AcDbEntity
  8
0
  6
CONTINUOUS
 62
     0
100
AcDbLine
 10
39.38487999999999
 20
23.77392599999999
 30
0.0
 11
40.269576
 21
24.658623
 31
0.0
  0
LINE
  5
5475
330
544F
100
AcDbEntity
  8
0
  6
CONTINUOUS
 62
     0
100
AcDbLine
 10
36.946052
 20
21.335098
 30
0.0
 11
38.69014699999999
 21
23.079194
 31
0.0
  0
LINE
  5
5476
330
544F
100
AcDbEntity
  8
0
  6
CONTINUOUS
 62
     0
100
AcDbLine
 10
39.069245
 20
23.741134
 30
0.0
 11
40.026103
 21
24.697992
 31
0.0
  0
LINE
  5
5477
330
544F
100
AcDbEntity
  8
0
  6
CONTINUOUS
 62
     0
100
AcDbLine
 10
36.825922
 20
21.49781099999999
 30
0.0
 11
38.407305
 21
23.079194
 31
0.0
  0
LINE
  5
5478
330
544F
100
AcDbEntity
  8
0
  6
CONTINUOUS
 62
     0
100
AcDbLine
 10
36.722045
 20
21.676776
 30
0.0
 11
39.76916899999999
 21
24.723901
 31
0.0
  0
LINE
  5
5479
330
544F
100
AcDbEntity
  8
0
  6
CONTINUOUS
 62
     0
100
AcDbLine
 10
36.63367199999999
 20
21.871247
 30
0.0
 11
39.492393
 21
24.729967
 31
0.0
  0
LINE
  5
547A
330
544F
100
AcDbEntity
  8
0
  6
CONTINUOUS
 62
     0
100
AcDbLine
 10
36.558727
 20
22.07914399999999
 30
0.0
 11
39.21488899999999
 21
24.735306
 31
0.0
  0
LINE
  5
547B
330
544F
100
AcDbEntity
  8
0
  6
CONTINUOUS
 62
     0
100
AcDbLine
 10
36.503475
 20
22.30673499999999
 30
0.0
 11
38.910338
 21
24.713597
 31
0.0
  0
LINE
  5
547C
330
544F
100
AcDbEntity
  8
0
  6
CONTINUOUS
 62
     0
100
AcDbLine
 10
36.47892399999999
 20
22.56502699999999
 30
0.0
 11
38.59996399999999
 21
24.686067
 31
0.0
  0
LINE
  5
547D
330
544F
100
AcDbEntity
  8
0
  6
CONTINUOUS
 62
     0
100
AcDbLine
 10
36.497306
 20
22.866251
 30
0.0
 11
38.252546
 21
24.62149099999999
 31
0.0
  0
LINE
  5
547E
330
544F
100
AcDbEntity
  8
0
  6
CONTINUOUS
 62
     0
100
AcDbLine
 10
36.58207
 20
23.233858
 30
0.0
 11
37.861674
 21
24.513462
 31
0.0
  0
LINE
  5
547F
330
544F
100
AcDbEntity
  8
0
  6
CONTINUOUS
 62
     0
100
AcDbLine
 10
36.878958
 20
23.813588
 30
0.0
 11
37.289934
 21
24.224564
 31
0.0
  0
ENDBLK
  5
5481
330
544F
100
AcDbEntity
  8
0
100
AcDbBlockEnd
  0
BLOCK
  5
54A3
330
5482
100
AcDbEntity
  8
0
100
AcDbBlockBegin
  2
*X21
 70
     1
 10
0.0
 20
0.0
 30
0.0
  3
*X21
  1

  0
LINE
  5
5483
330
5482
100
AcDbEntity
  8
0
  6
CONTINUOUS
 62
     0
100
AcDbLine
 10
47.249714
 20
22.58779399999999
 30
0.0
 11
47.287957
 21
22.62603599999999
 31
0.0
  0
LINE
  5
5484
330
5482
100
AcDbEntity
  8
0
  6
CONTINUOUS
 62
     0
100
AcDbLine
 10
46.96687199999999
 20
22.58779399999999
 30
0.0
 11
47.307662
 21
22.928584
 31
0.0
  0
LINE
  5
5485
330
5482
100
AcDbEntity
  8
0
  6
CONTINUOUS
 62
     0
100
AcDbLine
 10
46.68402899999999
 20
22.58779399999999
 30
0.0
 11
47.29611499999999
 21
23.19987999999999
 31
0.0
  0
LINE
  5
5486
330
5482
100
AcDbEntity
  8
0
  6
CONTINUOUS
 62
     0
100
AcDbLine
 10
46.401186
 20
22.58779399999999
 30
0.0
 11
47.261533
 21
23.448141
 31
0.0
  0
LINE
  5
5487
330
5482
100
AcDbEntity
  8
0
  6
CONTINUOUS
 62
     0
100
AcDbLine
 10
44.445486
 20
20.63209399999999
 30
0.0
 11
44.459623
 21
20.64623
 31
0.0
  0
LINE
  5
5488
330
5482
100
AcDbEntity
  8
0
  6
CONTINUOUS
 62
     0
100
AcDbLine
 10
46.11834299999999
 20
22.58779399999999
 30
0.0
 11
47.209214
 21
23.67866499999999
 31
0.0
  0
LINE
  5
5489
330
5482
100
AcDbEntity
  8
0
  6
CONTINUOUS
 62
     0
100
AcDbLine
 10
44.162643
 20
20.63209399999999
 30
0.0
 11
44.459623
 21
20.929073
 31
0.0
  0
LINE
  5
548A
330
5482
100
AcDbEntity
  8
0
  6
CONTINUOUS
 62
     0
100
AcDbLine
 10
45.835501
 20
22.58779399999999
 30
0.0
 11
47.132011
 21
23.884304
 31
0.0
  0
LINE
  5
548B
330
5482
100
AcDbEntity
  8
0
  6
CONTINUOUS
 62
     0
100
AcDbLine
 10
43.879801
 20
20.63209399999999
 30
0.0
 11
44.459623
 21
21.21191599999999
 31
0.0
  0
LINE
  5
548C
330
5482
100
AcDbEntity
  8
0
  6
CONTINUOUS
 62
     0
100
AcDbLine
 10
45.55265799999999
 20
22.58779399999999
 30
0.0
 11
47.02930300000001
 21
24.06443799999999
 31
0.0
  0
LINE
  5
548D
330
5482
100
AcDbEntity
  8
0
  6
CONTINUOUS
 62
     0
100
AcDbLine
 10
43.59695799999999
 20
20.63209399999999
 30
0.0
 11
44.459623
 21
21.494759
 31
0.0
  0
LINE
  5
548E
330
5482
100
AcDbEntity
  8
0
  6
CONTINUOUS
 62
     0
100
AcDbLine
 10
45.45457299999999
 20
22.772551
 30
0.0
 11
46.900895
 21
24.218874
 31
0.0
  0
LINE
  5
548F
330
5482
100
AcDbEntity
  8
0
  6
CONTINUOUS
 62
     0
100
AcDbLine
 10
43.314115
 20
20.63209399999999
 30
0.0
 11
44.459623
 21
21.77760099999999
 31
0.0
  0
LINE
  5
5490
330
5482
100
AcDbEntity
  8
0
  6
CONTINUOUS
 62
     0
100
AcDbLine
 10
45.418199
 20
23.01902
 30
0.0
 11
46.74470999999999
 21
24.345531
 31
0.0
  0
LINE
  5
5491
330
5482
100
AcDbEntity
  8
0
  6
CONTINUOUS
 62
     0
100
AcDbLine
 10
43.03127299999999
 20
20.63209399999999
 30
0.0
 11
44.459623
 21
22.060444
 31
0.0
  0
LINE
  5
5492
330
5482
100
AcDbEntity
  8
0
  6
CONTINUOUS
 62
     0
100
AcDbLine
 10
45.294614
 20
23.17827799999999
 30
0.0
 11
46.558784
 21
24.442448
 31
0.0
  0
LINE
  5
5493
330
5482
100
AcDbEntity
  8
0
  6
CONTINUOUS
 62
     0
100
AcDbLine
 10
42.74842999999999
 20
20.63209399999999
 30
0.0
 11
44.459623
 21
22.343287
 31
0.0
  0
LINE
  5
5494
330
5482
100
AcDbEntity
  8
0
  6
CONTINUOUS
 62
     0
100
AcDbLine
 10
45.10254699999999
 20
23.26905299999999
 30
0.0
 11
46.34635699999999
 21
24.512863
 31
0.0
  0
LINE
  5
5495
330
5482
100
AcDbEntity
  8
0
  6
CONTINUOUS
 62
     0
100
AcDbLine
 10
42.732973
 20
20.89947899999999
 30
0.0
 11
44.459623
 21
22.626129
 31
0.0
  0
LINE
  5
5496
330
5482
100
AcDbEntity
  8
0
  6
CONTINUOUS
 62
     0
100
AcDbLine
 10
44.79762199999999
 20
23.24697099999999
 30
0.0
 11
46.11516599999999
 21
24.564515
 31
0.0
  0
LINE
  5
5497
330
5482
100
AcDbEntity
  8
0
  6
CONTINUOUS
 62
     0
100
AcDbLine
 10
42.732973
 20
21.182322
 30
0.0
 11
44.492506
 21
22.941855
 31
0.0
  0
LINE
  5
5498
330
5482
100
AcDbEntity
  8
0
  6
CONTINUOUS
 62
     0
100
AcDbLine
 10
42.732973
 20
21.465165
 30
0.0
 11
45.85771499999999
 21
24.58990599999999
 31
0.0
  0
LINE
  5
5499
330
5482
100
AcDbEntity
  8
0
  6
CONTINUOUS
 62
     0
100
AcDbLine
 10
42.732973
 20
21.74800799999999
 30
0.0
 11
45.563093
 21
24.57812699999999
 31
0.0
  0
LINE
  5
549A
330
5482
100
AcDbEntity
  8
0
  6
CONTINUOUS
 62
     0
100
AcDbLine
 10
42.732973
 20
22.03085
 30
0.0
 11
45.22227700000001
 21
24.52015499999999
 31
0.0
  0
LINE
  5
549B
330
5482
100
AcDbEntity
  8
0
  6
CONTINUOUS
 62
     0
100
AcDbLine
 10
42.732973
 20
22.313693
 30
0.0
 11
44.777089
 21
24.357809
 31
0.0
  0
LINE
  5
549C
330
5482
100
AcDbEntity
  8
0
  6
CONTINUOUS
 62
     0
100
AcDbLine
 10
42.732973
 20
22.59653599999999
 30
0.0
 11
44.459623
 21
24.323186
 31
0.0
  0
LINE
  5
549D
330
5482
100
AcDbEntity
  8
0
  6
CONTINUOUS
 62
     0
100
AcDbLine
 10
42.732973
 20
22.87937799999999
 30
0.0
 11
44.361988
 21
24.508394
 31
0.0
  0
LINE
  5
549E
330
5482
100
AcDbEntity
  8
0
  6
CONTINUOUS
 62
     0
100
AcDbLine
 10
42.732973
 20
23.162221
 30
0.0
 11
44.079145
 21
24.508394
 31
0.0
  0
LINE
  5
549F
330
5482
100
AcDbEntity
  8
0
  6
CONTINUOUS
 62
     0
100
AcDbLine
 10
42.732973
 20
23.445064
 30
0.0
 11
43.796303
 21
24.508394
 31
0.0
  0
LINE
  5
54A0
330
5482
100
AcDbEntity
  8
0
  6
CONTINUOUS
 62
     0
100
AcDbLine
 10
42.732973
 20
23.727907
 30
0.0
 11
43.51345999999999
 21
24.508394
 31
0.0
  0
LINE
  5
54A1
330
5482
100
AcDbEntity
  8
0
  6
CONTINUOUS
 62
     0
100
AcDbLine
 10
42.732973
 20
24.010749
 30
0.0
 11
43.23061699999999
 21
24.508394
 31
0.0
  0
LINE
  5
54A2
330
5482
100
AcDbEntity
  8
0
  6
CONTINUOUS
 62
     0
100
AcDbLine
 10
42.732973
 20
24.293592
 30
0.0
 11
42.947775
 21
24.508394
 31
0.0
  0
ENDBLK
  5
54A4
330
5482
100
AcDbEntity
  8
0
100
AcDbBlockEnd
  0
ENDSEC
  0
SECTION
  2
ENTITIES
  0
LINE
  5
29
330
A
100
AcDbEntity
  8
CARTOUCHE
  6
CONTINUOUS
 62
     7
100
AcDbLine
 10
205.000037
 20
10.000793
 30
0.0
 11
5.0
 21
10.00106799999999
 31
0.0
  0
LINE
  5
2A
330
A
100
AcDbEntity
  8
CARTOUCHE
  6
CONTINUOUS
 62
     7
100
AcDbLine
 10
50.000001
 20
36.845393
 30
0.0
 11
50.000001
 21
5.000041
 31
0.0
  0
TEXT
  5
2B
330
A
100
AcDbEntity
  8
CARTOUCHE
  6
CONTINUOUS
 62
     7
100
AcDbText
 10
119.6683948199282
 20
32.43596657521679
 30
0.0
 40
1.8
  1
PRODUCT TYPE
 50
359.9999079999999
 41
0.8
  7
FINDER
 72
     1
 11
127.499991
 21
32.43595399999999
 31
0.0
100
AcDbText
  0
TEXT
  5
2D
330
A
100
AcDbEntity
  8
CARTOUCHE
  6
CONTINUOUS
 62
     2
100
AcDbText
 10
19.4243120504879
 20
6.600974967157263
 30
0.0
 40
1.8
  1
MOD. UT 902
 50
359.9999079999999
 41
1.05
  7
FINDER
 72
     1
 11
27.500001
 21
6.600961999999999
 31
0.0
100
AcDbText
  0
LINE
  5
2E
330
A
100
AcDbEntity
  8
CARTOUCHE
  6
CONTINUOUS
 62
     7
100
AcDbLine
 10
205.000008
 20
20.002808
 30
0.0
 11
49.999973
 21
20.00304499999999
 31
0.0
  0
TEXT
  5
31
330
A
100
AcDbEntity
  8
CARTOUCHE
  6
CONTINUOUS
 62
     7
100
AcDbText
 10
73.49406269850233
 20
16.62430475616189
 30
0.0
 40
1.8
  1
REV.
 50
359.9999079999999
 41
0.8
  7
FINDER
 72
     1
 11
75.833326
 21
16.624301
 31
0.0
100
AcDbText
  0
TEXT
  5
32
330
A
100
AcDbEntity
  8
CARTOUCHE
  6
CONTINUOUS
 62
     1
100
AcDbText
 10
75.18069298499402
 20
11.77627904793473
 30
0.0
 40
2.1
  1
0
 50
359.9999079999999
 41
0.8
  7
FINDER
 72
     1
 11
75.833326
 21
11.776278
 31
0.0
100
AcDbText
  0
LINE
  5
33
330
A
100
AcDbEntity
  8
CARTOUCHE
  6
CONTINUOUS
 62
     7
100
AcDbLine
 10
101.666651
 20
20.00296599999999
 30
0.0
 11
101.666651
 21
10.001024
 31
0.0
  0
LINE
  5
37
330
A
100
AcDbEntity
  8
CARTOUCHE
  6
CONTINUOUS
 62
     4
100
AcDbLine
 10
12.362923
 20
27.65548499999999
 30
0.0
 11
12.362923
 21
21.81019399999999
 31
0.0
  0
LINE
  5
38
330
A
100
AcDbEntity
  8
CARTOUCHE
  6
CONTINUOUS
 62
     4
100
AcDbLine
 10
12.362923
 20
21.81019399999999
 30
0.0
 11
10.88782299999999
 21
23.410844
 31
0.0
  0
LINE
  5
39
330
A
100
AcDbEntity
  8
CARTOUCHE
  6
CONTINUOUS
 62
     4
100
AcDbLine
 10
10.88782299999999
 20
23.410844
 30
0.0
 11
11.11642299999999
 21
23.410844
 31
0.0
  0
LINE
  5
3A
330
A
100
AcDbEntity
  8
CARTOUCHE
  6
CONTINUOUS
 62
     4
100
AcDbLine
 10
11.41387299999999
 20
23.766514
 30
0.0
 11
11.41387299999999
 21
27.652621
 31
0.0
  0
LINE
  5
3B
330
A
100
AcDbEntity
  8
CARTOUCHE
  6
CONTINUOUS
 62
     4
100
AcDbLine
 10
10.46482299999999
 20
27.399506
 30
0.0
 11
10.46482299999999
 21
24.428744
 31
0.0
  0
LINE
  5
3C
330
A
100
AcDbEntity
  8
CARTOUCHE
  6
CONTINUOUS
 62
     4
100
AcDbLine
 10
10.46482299999999
 20
24.428744
 30
0.0
 11
8.174775999999999
 21
24.428744
 31
0.0
  0
LINE
  5
3D
330
A
100
AcDbEntity
  8
CARTOUCHE
  6
CONTINUOUS
 62
     4
100
AcDbLine
 10
8.176313
 20
23.410844
 30
0.0
 11
9.378522999999999
 21
23.410844
 31
0.0
  0
LINE
  5
3E
330
A
100
AcDbEntity
  8
CARTOUCHE
  6
CONTINUOUS
 62
     4
100
AcDbLine
 10
9.378522999999999
 20
23.410844
 30
0.0
 11
12.173699
 21
20.66832799999999
 31
0.0
  0
LINE
  5
3F
330
A
100
AcDbEntity
  8
CARTOUCHE
  6
CONTINUOUS
 62
     4
100
AcDbLine
 10
13.323223
 20
21.169844
 30
0.0
 11
13.323223
 21
24.508394
 31
0.0
  0
LINE
  5
40
330
A
100
AcDbEntity
  8
CARTOUCHE
  6
CONTINUOUS
 62
     4
100
AcDbLine
 10
13.323223
 20
24.508394
 30
0.0
 11
14.455423
 21
24.508394
 31
0.0
  0
LINE
  5
41
330
A
100
AcDbEntity
  8
CARTOUCHE
  6
CONTINUOUS
 62
     4
100
AcDbLine
 10
14.35365599999999
 20
25.503344
 30
0.0
 11
13.323223
 21
25.503344
 31
0.0
  0
LINE
  5
42
330
A
100
AcDbEntity
  8
CARTOUCHE
  6
CONTINUOUS
 62
     4
100
AcDbLine
 10
13.323223
 20
25.503344
 30
0.0
 11
13.323223
 21
27.404134
 31
0.0
  0
LINE
  5
43
330
A
100
AcDbEntity
  8
CARTOUCHE
  6
CONTINUOUS
 62
     4
100
AcDbLine
 10
28.108423
 20
22.47903399999999
 30
0.0
 11
28.108423
 21
20.63209399999999
 31
0.0
  0
LINE
  5
44
330
A
100
AcDbEntity
  8
CARTOUCHE
  6
CONTINUOUS
 62
     4
100
AcDbLine
 10
28.108423
 20
20.63209399999999
 30
0.0
 11
29.89222299999999
 21
20.63209399999999
 31
0.0
  0
LINE
  5
45
330
A
100
AcDbEntity
  8
CARTOUCHE
  6
CONTINUOUS
 62
     4
100
AcDbLine
 10
29.89222299999999
 20
20.63209399999999
 30
0.0
 11
29.89222299999999
 21
23.324553
 31
0.0
  0
LINE
  5
46
330
A
100
AcDbEntity
  8
CARTOUCHE
  6
CONTINUOUS
 62
     4
100
AcDbLine
 10
26.28997299999999
 20
24.074144
 30
0.0
 11
26.28997299999999
 21
24.508394
 31
0.0
  0
LINE
  5
47
330
A
100
AcDbEntity
  8
CARTOUCHE
  6
CONTINUOUS
 62
     4
100
AcDbLine
 10
26.28997299999999
 20
24.508394
 30
0.0
 11
24.494923
 21
24.508394
 31
0.0
  0
LINE
  5
48
330
A
100
AcDbEntity
  8
CARTOUCHE
  6
CONTINUOUS
 62
     4
100
AcDbLine
 10
24.494923
 20
24.508394
 30
0.0
 11
24.494923
 21
20.63209399999999
 31
0.0
  0
LINE
  5
49
330
A
100
AcDbEntity
  8
CARTOUCHE
  6
CONTINUOUS
 62
     4
100
AcDbLine
 10
24.494923
 20
20.63209399999999
 30
0.0
 11
26.28997299999999
 21
20.63209399999999
 31
0.0
  0
LINE
  5
4A
330
A
100
AcDbEntity
  8
CARTOUCHE
  6
CONTINUOUS
 62
     4
100
AcDbLine
 10
26.28997299999999
 20
20.63209399999999
 30
0.0
 11
26.28997299999999
 21
22.43349899999999
 31
0.0
  0
LINE
  5
4B
330
A
100
AcDbEntity
  8
CARTOUCHE
  6
CONTINUOUS
 62
     4
100
AcDbLine
 10
35.986573
 20
25.823744
 30
0.0
 11
35.986573
 21
20.620844
 31
0.0
  0
LINE
  5
4C
330
A
100
AcDbEntity
  8
CARTOUCHE
  6
CONTINUOUS
 62
     4
100
AcDbLine
 10
35.986573
 20
20.620844
 30
0.0
 11
34.19152299999999
 21
20.620844
 31
0.0
  0
LINE
  5
4D
330
A
100
AcDbEntity
  8
CARTOUCHE
  6
CONTINUOUS
 62
     4
100
AcDbLine
 10
34.19152299999999
 20
24.319904
 30
0.0
 11
34.19152299999999
 21
25.823744
 31
0.0
  0
LINE
  5
4E
330
A
100
AcDbEntity
  8
CARTOUCHE
  6
CONTINUOUS
 62
     4
100
AcDbLine
 10
34.19152299999999
 20
25.823744
 30
0.0
 11
35.986573
 21
25.823744
 31
0.0
  0
LINE
  5
4F
330
A
100
AcDbEntity
  8
CARTOUCHE
  6
CONTINUOUS
 62
     4
100
AcDbLine
 10
42.732973
 20
24.508394
 30
0.0
 11
44.459623
 21
24.508394
 31
0.0
  0
LINE
  5
50
330
A
100
AcDbEntity
  8
CARTOUCHE
  6
CONTINUOUS
 62
     4
100
AcDbLine
 10
44.459623
 20
24.508394
 30
0.0
 11
44.459623
 21
24.165494
 31
0.0
  0
LINE
  5
51
330
A
100
AcDbEntity
  8
CARTOUCHE
  6
CONTINUOUS
 62
     4
100
AcDbLine
 10
47.28382299999999
 20
22.58779399999999
 30
0.0
 11
45.45457299999999
 21
22.58779399999999
 31
0.0
  0
LINE
  5
52
330
A
100
AcDbEntity
  8
CARTOUCHE
  6
CONTINUOUS
 62
     4
100
AcDbLine
 10
45.45457299999999
 20
22.58779399999999
 30
0.0
 11
45.45457299999999
 21
22.827644
 31
0.0
  0
LINE
  5
53
330
A
100
AcDbEntity
  8
CARTOUCHE
  6
CONTINUOUS
 62
     4
100
AcDbLine
 10
44.459623
 20
22.782194
 30
0.0
 11
44.459623
 21
20.63209399999999
 31
0.0
  0
LINE
  5
54
330
A
100
AcDbEntity
  8
CARTOUCHE
  6
CONTINUOUS
 62
     4
100
AcDbLine
 10
44.459623
 20
20.63209399999999
 30
0.0
 11
42.732973
 21
20.63209399999999
 31
0.0
  0
LINE
  5
55
330
A
100
AcDbEntity
  8
CARTOUCHE
  6
CONTINUOUS
 62
     4
100
AcDbLine
 10
42.732973
 20
20.63209399999999
 30
0.0
 11
42.732973
 21
24.508394
 31
0.0
  0
LINE
  5
56
330
A
100
AcDbEntity
  8
CARTOUCHE
  6
CONTINUOUS
 62
     4
100
AcDbLine
 10
39.15412299999999
 20
22.244444
 30
0.0
 11
39.05107299999999
 21
22.244444
 31
0.0
  0
LINE
  5
57
330
A
100
AcDbEntity
  8
CARTOUCHE
  6
CONTINUOUS
 62
     4
100
AcDbLine
 10
39.05107299999999
 20
22.244444
 30
0.0
 11
38.364823
 21
22.244444
 31
0.0
  0
LINE
  5
58
330
A
100
AcDbEntity
  8
CARTOUCHE
  6
CONTINUOUS
 62
     4
100
AcDbLine
 10
40.34302299999999
 20
21.855644
 30
0.0
 11
42.10387299999999
 21
21.855644
 31
0.0
  0
LINE
  5
59
330
A
100
AcDbEntity
  8
CARTOUCHE
  6
CONTINUOUS
 62
     4
100
AcDbLine
 10
42.20692299999999
 20
22.25614399999999
 30
0.0
 11
39.15412299999999
 21
22.244444
 31
0.0
  0
LINE
  5
5A
330
A
100
AcDbEntity
  8
CARTOUCHE
  6
CONTINUOUS
 62
     4
100
AcDbLine
 10
39.15412299999999
 20
23.079194
 30
0.0
 11
40.34302299999999
 21
23.079194
 31
0.0
  0
LINE
  5
5B
330
A
100
AcDbEntity
  8
CARTOUCHE
  6
CONTINUOUS
 62
     4
100
AcDbLine
 10
38.364823
 20
23.079194
 30
0.0
 11
39.15412299999999
 21
23.079194
 31
0.0
  0
LINE
  5
5C
330
A
100
AcDbEntity
  8
CARTOUCHE
  6
CONTINUOUS
 62
     4
100
AcDbLine
 10
21.087523
 20
24.931844
 30
0.0
 11
21.087523
 21
25.834994
 31
0.0
  0
LINE
  5
5D
330
A
100
AcDbEntity
  8
CARTOUCHE
  6
CONTINUOUS
 62
     4
100
AcDbLine
 10
21.087523
 20
25.834994
 30
0.0
 11
19.589473
 21
25.834994
 31
0.0
  0
LINE
  5
5E
330
A
100
AcDbEntity
  8
CARTOUCHE
  6
CONTINUOUS
 62
     4
100
AcDbLine
 10
18.674623
 20
24.931844
 30
0.0
 11
18.674623
 21
24.508394
 31
0.0
  0
LINE
  5
5F
330
A
100
AcDbEntity
  8
CARTOUCHE
  6
CONTINUOUS
 62
     4
100
AcDbLine
 10
18.674623
 20
24.508394
 30
0.0
 11
18.137323
 21
24.508394
 31
0.0
  0
LINE
  5
60
330
A
100
AcDbEntity
  8
CARTOUCHE
  6
CONTINUOUS
 62
     4
100
AcDbLine
 10
18.137323
 20
24.508394
 30
0.0
 11
18.137323
 21
23.410844
 31
0.0
  0
LINE
  5
61
330
A
100
AcDbEntity
  8
CARTOUCHE
  6
CONTINUOUS
 62
     4
100
AcDbLine
 10
18.137323
 20
23.410844
 30
0.0
 11
18.674623
 21
23.410844
 31
0.0
  0
LINE
  5
62
330
A
100
AcDbEntity
  8
CARTOUCHE
  6
CONTINUOUS
 62
     4
100
AcDbLine
 10
18.674623
 20
23.410844
 30
0.0
 11
18.674623
 21
20.63209399999999
 31
0.0
  0
LINE
  5
63
330
A
100
AcDbEntity
  8
CARTOUCHE
  6
CONTINUOUS
 62
     4
100
AcDbLine
 10
18.674623
 20
20.63209399999999
 30
0.0
 11
20.470123
 21
20.63209399999999
 31
0.0
  0
LINE
  5
64
330
A
100
AcDbEntity
  8
CARTOUCHE
  6
CONTINUOUS
 62
     4
100
AcDbLine
 10
20.470123
 20
20.63209399999999
 30
0.0
 11
20.470123
 21
23.410844
 31
0.0
  0
LINE
  5
65
330
A
100
AcDbEntity
  8
CARTOUCHE
  6
CONTINUOUS
 62
     4
100
AcDbLine
 10
20.470123
 20
23.410844
 30
0.0
 11
21.087523
 21
23.410844
 31
0.0
  0
LINE
  5
66
330
A
100
AcDbEntity
  8
CARTOUCHE
  6
CONTINUOUS
 62
     4
100
AcDbLine
 10
21.087523
 20
23.410844
 30
0.0
 11
21.087523
 21
24.508394
 31
0.0
  0
LINE
  5
67
330
A
100
AcDbEntity
  8
CARTOUCHE
  6
CONTINUOUS
 62
     4
100
AcDbLine
 10
21.087523
 20
24.508394
 30
0.0
 11
20.412973
 21
24.508394
 31
0.0
  0
LINE
  5
68
330
A
100
AcDbEntity
  8
CARTOUCHE
  6
CONTINUOUS
 62
     4
100
AcDbLine
 10
20.412973
 20
24.508394
 30
0.0
 11
20.461079
 21
24.768622
 31
0.0
  0
LINE
  5
69
330
A
100
AcDbEntity
  8
CARTOUCHE
  6
CONTINUOUS
 62
     4
100
AcDbLine
 10
20.679053
 20
24.931844
 30
0.0
 11
21.087523
 21
24.931844
 31
0.0
  0
LINE
  5
6A
330
A
100
AcDbEntity
  8
CARTOUCHE
  6
CONTINUOUS
 62
     4
100
AcDbLine
 10
21.807973
 20
20.63209399999999
 30
0.0
 11
21.807973
 21
24.508394
 31
0.0
  0
LINE
  5
6B
330
A
100
AcDbEntity
  8
CARTOUCHE
  6
CONTINUOUS
 62
     4
100
AcDbLine
 10
21.807973
 20
24.508394
 30
0.0
 11
23.625973
 21
24.508394
 31
0.0
  0
LINE
  5
6C
330
A
100
AcDbEntity
  8
CARTOUCHE
  6
CONTINUOUS
 62
     4
100
AcDbLine
 10
23.625973
 20
24.508394
 30
0.0
 11
23.625973
 21
20.63209399999999
 31
0.0
  0
LINE
  5
6D
330
A
100
AcDbEntity
  8
CARTOUCHE
  6
CONTINUOUS
 62
     4
100
AcDbLine
 10
23.625973
 20
20.63209399999999
 30
0.0
 11
21.807973
 21
20.63209399999999
 31
0.0
  0
LINE
  5
6E
330
A
100
AcDbEntity
  8
CARTOUCHE
  6
CONTINUOUS
 62
     4
100
AcDbLine
 10
21.807973
 20
24.943094
 30
0.0
 11
21.807973
 21
25.834994
 31
0.0
  0
LINE
  5
6F
330
A
100
AcDbEntity
  8
CARTOUCHE
  6
CONTINUOUS
 62
     4
100
AcDbLine
 10
21.807973
 20
25.834994
 30
0.0
 11
23.625973
 21
25.834994
 31
0.0
  0
LINE
  5
70
330
A
100
AcDbEntity
  8
CARTOUCHE
  6
CONTINUOUS
 62
     4
100
AcDbLine
 10
23.625973
 20
25.834994
 30
0.0
 11
23.625973
 21
24.943094
 31
0.0
  0
LINE
  5
71
330
A
100
AcDbEntity
  8
CARTOUCHE
  6
CONTINUOUS
 62
     4
100
AcDbLine
 10
23.625973
 20
24.943094
 30
0.0
 11
21.807973
 21
24.943094
 31
0.0
  0
ARC
  5
72
330
A
100
AcDbEntity
  8
CARTOUCHE
  6
CONTINUOUS
 62
     4
100
AcDbCircle
 10
19.58025899999999
 20
24.929401
 30
0.0
 40
0.905639
100
AcDbArc
 50
90.0
 51
180.0
  0
ARC
  5
73
330
A
100
AcDbEntity
  8
CARTOUCHE
  6
CONTINUOUS
 62
     4
100
AcDbCircle
 10
20.705988
 20
24.668716
 30
0.0
 40
0.264503
100
AcDbArc
 50
95.844673
 51
157.807812
  0
ARC
  5
74
330
A
100
AcDbEntity
  8
CARTOUCHE
  6
CONTINUOUS
 62
     4
100
AcDbCircle
 10
28.675028
 20
23.264873
 30
0.0
 40
1.218658
100
AcDbArc
 50
2.806996999999999
 51
66.54578100000001
  0
ARC
  5
75
330
A
100
AcDbEntity
  8
CARTOUCHE
  6
CONTINUOUS
 62
     4
100
AcDbCircle
 10
28.067403
 20
21.045261
 30
0.0
 40
3.511892
100
AcDbArc
 50
71.872392
 51
120.4055569999999
  0
ARC
  5
76
330
A
100
AcDbEntity
  8
CARTOUCHE
  6
CONTINUOUS
 62
     4
100
AcDbCircle
 10
27.457324
 20
22.47903399999999
 30
0.0
 40
0.6511239999999999
100
AcDbArc
 50
0.0
 51
97.150683
  0
ARC
  5
77
330
A
100
AcDbEntity
  8
CARTOUCHE
  6
CONTINUOUS
 62
     4
100
AcDbCircle
 10
27.44381
 20
21.82007899999999
 30
0.0
 40
1.306761
100
AcDbArc
 50
92.96251299999999
 51
152.003324
  0
CIRCLE
  5
78
330
A
100
AcDbEntity
  8
CARTOUCHE
  6
CONTINUOUS
 62
     4
100
AcDbCircle
 10
11.899646
 20
23.925422
 30
0.0
 40
4.756723
  0
ARC
  5
79
330
A
100
AcDbEntity
  8
CARTOUCHE
  6
CONTINUOUS
 62
     4
100
AcDbCircle
 10
11.899651
 20
23.925417
 30
0.0
 40
3.758726999999999
100
AcDbArc
 50
112.441032
 51
172.30447
  0
ARC
  5
7A
330
A
100
AcDbEntity
  8
CARTOUCHE
  6
CONTINUOUS
 62
     4
100
AcDbCircle
 10
11.899651
 20
23.925417
 30
0.0
 40
3.758726999999999
100
AcDbArc
 50
82.92015400000002
 51
97.425676
  0
ARC
  5
7B
330
A
100
AcDbEntity
  8
CARTOUCHE
  6
CONTINUOUS
 62
     4
100
AcDbCircle
 10
11.899651
 20
23.925417
 30
0.0
 40
3.758726999999999
100
AcDbArc
 50
187.868554
 51
67.74447600000001
  0
SPLINE
  5
7C
330
A
100
AcDbEntity
  8
CARTOUCHE
  6
CONTINUOUS
 62
     4
100
AcDbSpline
210
0.0
220
0.0
230
1.0
 70
     8
 71
     3
 72
    36
 73
    32
 74
    30
 42
0.0000000001
 43
0.0000000001
 44
0.000001
 12
-0.7486966541787443
 22
0.6629127544568397
 32
0.0
 13
0.8109899424984487
 23
0.5850600936368529
 33
0.0
 40
0.0
 40
0.0
 40
0.0
 40
0.0
 40
0.1780761553060556
 40
0.3550416348689564
 40
0.534344865884207
 40
0.7146560387434031
 40
1.070969089720223
 40
1.425796663898011
 40
1.782601001142071
 40
2.138603895040079
 40
2.494665093696485
 40
2.851054396920102
 40
3.206893011134889
 40
3.5633758813569
 40
3.91939376562976
 40
4.275489247209685
 40
4.631810020557422
 40
4.987968836485988
 40
5.344081360419366
 40
5.700398584840186
 40
6.056403071275471
 40
6.412685561611945
 40
6.768553833375487
 40
7.124993908020178
 40
7.480918575954275
 40
7.837064891658402
 40
8.193226462040993
 40
8.549153485654631
 40
8.905927656882472
 40
9.26182807522613
 40
9.970557563632079
 40
9.970557563632079
 40
9.970557563632079
 40
9.970557563632079
 10
34.19152297621248
 20
24.31990419713182
 30
0.0
 10
34.1470813023236
 20
24.35925384867082
 30
0.0
 10
34.0521719569681
 20
24.43173618392172
 30
0.0
 10
33.88702575613148
 20
24.50226791579082
 30
0.0
 10
33.71305223761583
 20
24.54495714766015
 30
0.0
 10
33.47834937114383
 20
24.58798310564185
 30
0.0
 10
33.18518211493348
 20
24.63800747804683
 30
0.0
 10
32.82899744348545
 20
24.659369294718
 30
0.0
 10
32.47326771695625
 20
24.64621390081769
 30
0.0
 10
32.11757591555201
 20
24.61242870860891
 30
0.0
 10
31.77299300510799
 20
24.5155708841489
 30
0.0
 10
31.44749964423073
 20
24.36660655392596
 30
0.0
 10
31.15775794383959
 20
24.15567801072957
 30
0.0
 10
30.90609576518011
 20
23.90204674026736
 30
0.0
 10
30.69450218406407
 20
23.61346834211755
 30
0.0
 10
30.53862681297708
 20
23.29089603959582
 30
0.0
 10
30.4427778154891
 20
22.9462329884785
 30
0.0
 10
30.40515987073751
 20
22.58968062292321
 30
0.0
 10
30.44352427876861
 20
22.23351817132072
 30
0.0
 10
30.53308941867978
 20
21.88748886639844
 30
0.0
 10
30.68157947778859
 20
21.56148506227442
 30
0.0
 10
30.88917782139148
 20
21.26919473918138
 30
0.0
 10
31.15221374974194
 20
21.02575919463754
 30
0.0
 10
31.4509261633181
 20
20.82973487900221
 30
0.0
 10
31.7761597563312
 20
20.68002671318712
 30
0.0
 10
32.1245992018452
 20
20.59680895475904
 30
0.0
 10
32.4803630861093
 20
20.56921458872081
 30
0.0
 10
32.83672042951041
 20
20.56880350163353
 30
0.0
 10
33.19288790635218
 20
20.58096018875884
 30
0.0
 10
33.6641915214532
 20
20.63797084694975
 30
0.0
 10
33.99993214719605
 20
20.78862716016669
 30
0.0
 10
34.19152297621248
 20
20.92684360711669
 30
0.0
 11
34.19152297621248
 21
24.31990419713182
 31
0.0
 11
34.04814564948316
 21
24.42551803537496
 31
0.0
 11
33.886414432493
 21
24.49734946038967
 31
0.0
 11
33.71305596481814
 21
24.54313679053143
 31
0.0
 11
33.53598457982956
 21
24.57716399139703
 31
0.0
 11
33.18386096308204
 21
24.63164336554592
 31
0.0
 11
32.8297140010732
 21
24.65361067318905
 31
0.0
 11
32.47307470160767
 21
24.64275936909139
 31
0.0
 11
32.11942187052807
 21
24.60192152108414
 31
0.0
 11
31.77626880985488
 21
24.50691864896159
 31
0.0
 11
31.45331806594562
 21
24.35619987525168
 31
0.0
 11
31.16425081659299
 21
24.14868782982736
 31
0.0
 11
30.91268311986691
 21
23.89611360248224
 31
0.0
 11
30.70379325220438
 21
23.60781901266321
 31
0.0
 11
30.54866063637869
 21
23.28729150751013
 31
0.0
 11
30.45247328846812
 21
22.94419894098582
 31
0.0
 11
30.41782044248039
 21
22.58972989255912
 31
0.0
 11
30.4520470898832
 21
22.23526594311771
 31
0.0
 11
30.54294059487364
 21
21.89073675637875
 31
0.0
 11
30.691396483504
 21
21.56716285752306
 31
0.0
 11
30.89849041843911
 21
21.27725022136696
 31
0.0
 11
31.15802450035081
 21
21.0337665401986
 31
0.0
 11
31.45548308742885
 21
20.83737935540596
 31
0.0
 11
31.77997022332717
 21
20.69112453447919
 31
0.0
 11
32.12581407620214
 21
20.60608206244055
 31
0.0
 11
32.48050427697165
 21
20.57374147270578
 31
0.0
 11
32.83641989969535
 21
20.57089422013112
 31
0.0
 11
33.19286980656467
 21
20.58610182742616
 31
0.0
 11
33.54527140198384
 21
20.63588357412756
 31
0.0
 11
34.19152297621248
 21
20.92684360711669
 31
0.0
  0
SPLINE
  5
7D
330
A
100
AcDbEntity
  8
CARTOUCHE
  6
CONTINUOUS
 62
     4
100
AcDbSpline
210
0.0
220
0.0
230
1.0
 70
     8
 71
     3
 72
    32
 73
    28
 74
    26
 42
0.0000000001
 43
0.0000000001
 44
0.000001
 12
-0.1341089932713914
 22
0.9909665876929119
 32
0.0
 13
0.0921211275959058
 23
0.9957478083583508
 33
0.0
 40
0.0
 40
0.0
 40
0.0
 40
0.0
 40
0.1932870726990354
 40
0.3866792452096321
 40
0.5800716448723838
 40
0.7723331336887238
 40
0.9658517963207502
 40
1.159368324722244
 40
1.351211885861728
 40
1.544293516073682
 40
1.738458265495974
 40
1.931764420786816
 40
2.315247530488627
 40
2.698534125382554
 40
2.891496493449493
 40
3.086239187656828
 40
3.279346076389814
 40
3.471494617804941
 40
3.665361350852593
 40
3.858866209618609
 40
4.051424456358019
 40
4.244517019109063
 40
4.629047421486942
 40
4.822526074880364
 40
5.015998230668783
 40
5.208856307653514
 40
5.402319509587272
 40
5.402319509587272
 40
5.402319509587272
 40
5.402319509587272
 10
34.19152297621248
 20
22.75924360711669
 30
0.0
 10
34.18288246463514
 20
22.82309061740926
 30
0.0
 10
34.14699032504411
 20
22.94923083584772
 30
0.0
 10
34.0386311915935
 20
23.11295856749961
 30
0.0
 10
33.88808692217448
 20
23.2375052632015
 30
0.0
 10
33.713903336865
 20
23.32349595013638
 30
0.0
 10
33.52952374823402
 20
23.381666646274
 30
0.0
 10
33.34290576820264
 20
23.43125923522332
 30
0.0
 10
33.1500593445487
 20
23.45345638096766
 30
0.0
 10
32.9567662653034
 20
23.43192402229585
 30
0.0
 10
32.77056094954621
 20
23.37588613719517
 30
0.0
 10
32.5400564300067
 20
23.25927875203683
 30
0.0
 10
32.3043208053898
 20
23.02895627192543
 30
0.0
 10
32.19918324728941
 20
22.70410853072548
 30
0.0
 10
32.25560999955026
 20
22.44863361631264
 30
0.0
 10
32.34552926468554
 20
22.27538547462595
 30
0.0
 10
32.47312191827226
 20
22.12730573798493
 30
0.0
 10
32.63483114160577
 20
22.01829644308999
 30
0.0
 10
32.81426091781529
 20
21.94472694998748
 30
0.0
 10
33.00144386925829
 20
21.89441488480765
 30
0.0
 10
33.1942829819659
 20
21.87304334806433
 30
0.0
 10
33.45148795617319
 20
21.88934820105486
 30
0.0
 10
33.70119762619981
 20
21.97262952139334
 30
0.0
 10
33.91655360502459
 20
22.11456126477981
 30
0.0
 10
34.05836119423946
 20
22.24858589816441
 30
0.0
 10
34.15639851653419
 20
22.41858974007391
 30
0.0
 10
34.18558229344233
 20
22.54608008734217
 30
0.0
 10
34.19152297621248
 20
22.61029360711668
 30
0.0
 11
34.19152297621248
 21
22.75924360711669
 31
0.0
 11
34.13791895137521
 21
22.94494973500174
 31
0.0
 11
34.03155373353055
 21
23.10646429401778
 31
0.0
 11
33.88383915758775
 21
23.2312882243935
 31
0.0
 11
33.71260018090836
 21
23.31870497950503
 31
0.0
 11
33.52912571204567
 21
23.38024026476581
 31
0.0
 11
33.34129541646134
 21
23.4268066350183
 31
0.0
 11
33.15043306379559
 21
23.44618483007101
 31
0.0
 11
32.95838311054932
 21
23.42625160056325
 31
0.0
 11
32.77240099875644
 21
23.3704787693241
 31
0.0
 11
32.6003783004499
 21
23.2823001555606
 31
0.0
 11
32.3303531106979
 21
23.01000300398823
 31
0.0
 11
32.22491909320101
 21
22.64150286445183
 31
0.0
 11
32.26331822628608
 21
22.45239971642014
 31
0.0
 11
32.35215412813561
 21
22.27909964132739
 31
0.0
 11
32.4790661567678
 21
22.13355370124998
 31
0.0
 11
32.63725672616544
 21
22.02448118124885
 31
0.0
 11
32.81564788989768
 21
21.94858052993353
 31
0.0
 11
33.00273750412712
 21
21.89916786421672
 31
0.0
 11
33.19419909206249
 21
21.87864610808737
 31
0.0
 11
33.38690243953787
 21
21.89090007892743
 31
0.0
 11
33.75163382265729
 21
22.01269765064039
 31
0.0
 11
33.91321018639743
 21
22.11912633605071
 31
0.0
 11
34.05119662359747
 21
22.25474052514755
 31
0.0
 11
34.14728879489485
 21
22.42195449774151
 31
0.0
 11
34.19152297621248
 21
22.61029360711668
 31
0.0
  0
LINE
  5
7E
330
A
100
AcDbEntity
  8
CARTOUCHE
  6
CONTINUOUS
 62
     4
100
AcDbLine
 10
34.19152299999999
 20
22.61029399999999
 30
0.0
 11
34.19152299999999
 21
22.759244
 31
0.0
  0
LINE
  5
7F
330
A
100
AcDbEntity
  8
CARTOUCHE
  6
CONTINUOUS
 62
     4
100
AcDbLine
 10
34.19152299999999
 20
20.620844
 30
0.0
 11
34.19152299999999
 21
20.926844
 31
0.0
  0
SPLINE
  5
80
330
A
100
AcDbEntity
  8
CARTOUCHE
  6
CONTINUOUS
 62
     4
100
AcDbSpline
210
0.0
220
0.0
230
1.0
 70
     8
 71
     3
 72
    46
 73
    42
 74
    40
 42
0.0000000001
 43
0.0000000001
 44
0.000001
 12
0.2679235453433934
 22
0.9634401765811027
 32
0.0
 13
0.1610223945668763
 23
0.9869507527977013
 33
0.0
 40
0.0
 40
0.0
 40
0.0
 40
0.0
 40
0.2811755879610205
 40
0.5640894598527233
 40
0.848996750074431
 40
1.131204584902207
 40
1.693847130716207
 40
2.25688272553264
 40
2.539006562895586
 40
2.82069662770917
 40
3.102988313571608
 40
3.385254961394737
 40
3.948537059671116
 40
4.512594879571459
 40
5.076290929579052
 40
5.639938991368811
 40
6.203885292827631
 40
6.76673802423201
 40
7.329350602228592
 40
7.892323292363507
 40
8.455148072837028
 40
8.737354674731138
 40
9.018966275430832
 40
9.581780957923619
 40
9.8640384101795
 40
10.14660875455177
 40
10.42765626274299
 40
10.71044466815239
 40
11.27439702776554
 40
11.83782171874066
 40
12.40154952919084
 40
12.96488070414784
 40
13.53013628041458
 40
13.81230340811157
 40
14.0937286718736
 40
14.37575650341838
 40
14.65756953458365
 40
14.93943539145296
 40
15.2212008302244
 40
15.50299648006998
 40
15.78483841467691
 40
15.78483841467691
 40
15.78483841467691
 40
15.78483841467691
 10
42.2069229762125
 20
22.2561436071167
 30
0.0
 10
42.23203416300934
 20
22.34644222648852
 30
0.0
 10
42.26336600835233
 20
22.53399302707783
 30
0.0
 10
42.24149685064988
 20
22.81801354893513
 30
0.0
 10
42.17836809953294
 20
23.09483432895953
 30
0.0
 10
42.05825188604774
 20
23.45212616882764
 30
0.0
 10
41.82306680068029
 20
23.8672500462518
 30
0.0
 10
41.46781676949063
 20
24.18453380611619
 30
0.0
 10
41.14761161207629
 20
24.38196283172969
 30
0.0
 10
40.8889755311834
 20
24.49665789401904
 30
0.0
 10
40.61969386966782
 20
24.58173362530222
 30
0.0
 10
40.25431496432636
 20
24.67112545926651
 30
0.0
 10
39.78717039719532
 20
24.7349172266618
 30
0.0
 10
39.22286209832438
 20
24.74314592079586
 30
0.0
 10
38.65912089182813
 20
24.70776726288799
 30
0.0
 10
38.10430973138448
 20
24.60055473365942
 30
0.0
 10
37.56703419814676
 20
24.41975302663695
 30
0.0
 10
37.09128412027332
 20
24.10132431889457
 30
0.0
 10
36.74193897991701
 20
23.6494135573821
 30
0.0
 10
36.52262166512311
 20
23.12465092262863
 30
0.0
 10
36.46286239872555
 20
22.65237437546891
 30
0.0
 10
36.49897197569238
 20
22.27677357904617
 30
0.0
 10
36.60138550967333
 20
21.914478475941
 30
0.0
 10
36.76185476285073
 20
21.56953949794036
 30
0.0
 10
36.99184531701846
 20
21.27135446443551
 30
0.0
 10
37.18412183917007
 20
21.0637297758158
 30
0.0
 10
37.41499114147041
 20
20.8981099506315
 30
0.0
 10
37.75233275177086
 20
20.73107999541951
 30
0.0
 10
38.19505514432213
 20
20.56630095377484
 30
0.0
 10
38.75227472239757
 20
20.4684543647121
 30
0.0
 10
39.31516450875555
 20
20.42686251213917
 30
0.0
 10
39.87978566121682
 20
20.45310413897527
 30
0.0
 10
40.34636221788838
 20
20.51793252236162
 30
0.0
 10
40.71317022013404
 20
20.60361845862005
 30
0.0
 10
40.98020793552477
 20
20.69575648453572
 30
0.0
 10
41.23634112546804
 20
20.8133707130675
 30
0.0
 10
41.48756204304269
 20
20.94257872732796
 30
0.0
 10
41.71131198312713
 20
21.11779586997518
 30
0.0
 10
41.89210410379192
 20
21.33577447260693
 30
0.0
 10
42.0370545583131
 20
21.57968832418388
 30
0.0
 10
42.0887453551459
 20
21.76292223727327
 30
0.0
 10
42.10387297621249
 20
21.85564360711669
 30
0.0
 11
42.2069229762125
 21
22.2561436071167
 31
0.0
 11
42.25187369928078
 21
22.53370336692194
 31
0.0
 11
42.23470970538826
 21
22.81609604661631
 31
0.0
 11
42.17357887835489
 21
23.0943678180467
 31
0.0
 11
42.08234233059616
 21
23.36142053588839
 31
0.0
 11
41.79914459059214
 21
23.84759505388021
 31
0.0
 11
41.38499580886721
 21
24.22902637720731
 31
0.0
 11
41.14444967147259
 21
24.37644216492157
 31
0.0
 11
40.88739588735783
 21
24.49164913231013
 31
0.0
 11
40.61887239332167
 21
24.57873375105807
 31
0.0
 11
40.34465192624326
 21
24.6456486068168
 31
0.0
 11
39.78677780416954
 21
24.72351512572941
 31
0.0
 11
39.22285539283774
 21
24.73587418697074
 31
0.0
 11
38.66058598489463
 21
24.6957948090196
 31
0.0
 11
38.10728319880826
 21
24.58829981854138
 31
0.0
 11
37.57690963109761
 21
24.39662477322789
 31
0.0
 11
37.11224330369889
 21
24.07899538626728
 31
0.0
 11
36.76366857941347
 21
23.63737494458054
 31
0.0
 11
36.54722159336241
 21
23.11767406956402
 31
0.0
 11
36.47887604508949
 21
22.55901436160783
 31
0.0
 11
36.50730298839906
 21
22.27824312562695
 31
0.0
 11
36.58066141679664
 21
22.00635409419069
 31
0.0
 11
36.82487619371594
 21
21.49928452588675
 31
0.0
 11
36.99507455897878
 21
21.27411393911514
 31
0.0
 11
37.19090624714093
 21
21.07040837833609
 31
0.0
 11
37.41820717151092
 21
20.90511471530928
 31
0.0
 11
37.66963145788086
 21
20.77567317677089
 31
0.0
 11
38.1996064863776
 21
20.58288122875969
 31
0.0
 11
38.75315260795133
 21
20.4778380326807
 31
0.0
 11
39.31548247397889
 21
20.43816227630538
 31
0.0
 11
39.87832438970059
 21
20.46163547548924
 31
0.0
 11
40.43780417420945
 21
20.54223471097221
 31
0.0
 11
40.71211753370237
 21
20.60834422386486
 31
0.0
 11
40.97822189579761
 21
20.69993377525821
 31
0.0
 11
41.23556355576588
 21
20.81532426148599
 31
0.0
 11
41.48298030283661
 21
20.95024471011851
 31
0.0
 11
41.70417597333143
 21
21.12494680466518
 31
0.0
 11
41.88612496759311
 21
21.3400893433574
 31
0.0
 11
42.02581025553314
 21
21.58482751880403
 31
0.0
 11
42.10387297621249
 21
21.85564360711669
 31
0.0
  0
SPLINE
  5
81
330
A
100
AcDbEntity
  8
CARTOUCHE
  6
CONTINUOUS
 62
     4
100
AcDbSpline
210
0.0
220
0.0
230
1.0
 70
     8
 71
     3
 72
    15
 73
    11
 74
     9
 42
0.0000000001
 43
0.0000000001
 44
0.000001
 12
0.1873467659221653
 22
-0.9822938406090642
 32
0.0
 13
0.7770129286964089
 23
0.6294846373332944
 33
0.0
 40
0.0
 40
0.0
 40
0.0
 40
0.0
 40
0.3371520882962173
 40
0.6743124420665221
 40
1.011741231949286
 40
1.348773281046474
 40
1.687274393511954
 40
1.85609288646097
 40
2.024671668997255
 40
2.361713795269126
 40
2.361713795269126
 40
2.361713795269126
 40
2.361713795269126
 10
38.3648229762125
 20
22.24444360711669
 30
0.0
 10
38.3858777606679
 20
22.13404946722274
 30
0.0
 10
38.47908823920581
 20
21.91720258641543
 30
0.0
 10
38.7543084196568
 20
21.70644962175585
 30
0.0
 10
39.06998579026008
 20
21.58181024957575
 30
0.0
 10
39.40539428132956
 20
21.52556294079901
 30
0.0
 10
39.68949383633028
 20
21.54062590043177
 30
0.0
 10
39.90812614741165
 20
21.59887432412624
 30
0.0
 10
40.11328190683266
 20
21.69222629120342
 30
0.0
 10
40.25572761300298
 20
21.78492266024259
 30
0.0
 10
40.3430229762125
 20
21.85564360711669
 30
0.0
 11
38.3648229762125
 21
22.24444360711669
 31
0.0
 11
38.50164219830394
 21
21.93629966675314
 31
0.0
 11
38.76098099155704
 21
21.72084551731241
 31
0.0
 11
39.07332908880514
 21
21.59318639542835
 31
0.0
 11
39.40580907592664
 21
21.53798084006903
 31
0.0
 11
39.74365139903879
 21
21.55908759838489
 31
0.0
 11
39.90657573481705
 21
21.60330661466392
 31
0.0
 11
40.06077578326682
 21
21.67143258943228
 31
0.0
 11
40.3430229762125
 21
21.85564360711669
 31
0.0
  0
SPLINE
  5
82
330
A
100
AcDbEntity
  8
CARTOUCHE
  6
CONTINUOUS
 62
     4
100
AcDbSpline
210
0.0
220
0.0
230
1.0
 70
     8
 71
     3
 72
    21
 73
    17
 74
    15
 42
0.0000000001
 43
0.0000000001
 44
0.000001
 12
-0.0762450288998757
 22
0.9970891111470715
 32
0.0
 13
-0.2154301143740796
 23
-0.9765192603429648
 33
0.0
 40
0.0
 40
0.0
 40
0.0
 40
0.0
 40
0.1868552501291134
 40
0.3735743240415496
 40
0.5613842212537326
 40
0.7484489381161512
 40
0.935588438582806
 40
1.123112064008598
 40
1.311428189761302
 40
1.500242138341786
 40
1.686443726256276
 40
1.873057604711231
 40
2.05952021535887
 40
2.246467675506947
 40
2.43462854345534
 40
2.621193756753851
 40
2.621193756753851
 40
2.621193756753851
 40
2.621193756753851
 10
40.3430229762125
 20
23.07919360711669
 30
0.0
 10
40.33827404823044
 20
23.14129738553815
 30
0.0
 10
40.31098607120404
 20
23.265320998041
 30
0.0
 10
40.21176993964345
 20
23.42743856410386
 30
0.0
 10
40.07410542495197
 20
23.55667636729545
 30
0.0
 10
39.91380146855937
 20
23.65566279649365
 30
0.0
 10
39.73873495456709
 20
23.72452138799517
 30
0.0
 10
39.55490004271078
 20
23.76544088796557
 30
0.0
 10
39.36639757169171
 20
23.77885750750727
 30
0.0
 10
39.1790224559892
 20
23.76782182101864
 30
0.0
 10
38.99274814414789
 20
23.72745913194852
 30
0.0
 10
38.83748760469036
 20
23.62068056673371
 30
0.0
 10
38.66640559987163
 20
23.54392780516534
 30
0.0
 10
38.52524863854352
 20
23.41621618712654
 30
0.0
 10
38.42100518625731
 20
23.258923243242
 30
0.0
 10
38.37822023129222
 20
23.13992178181536
 30
0.0
 10
38.3648229762125
 20
23.07919360711669
 30
0.0
 11
40.3430229762125
 21
23.07919360711669
 31
0.0
 11
40.30128482007762
 21
23.26132867168497
 31
0.0
 11
40.20559522220136
 21
23.42166431604199
 31
0.0
 11
40.07014905358667
 21
23.55176773224803
 31
0.0
 11
39.91135088271828
 21
23.65064317365039
 31
0.0
 11
39.73746285592489
 21
23.71981068462435
 31
0.0
 11
39.55447534379333
 21
23.76080659501807
 31
0.0
 11
39.36667772831405
 21
23.77477007425147
 31
0.0
 11
39.17824365086321
 21
23.76280187157365
 31
0.0
 11
38.99791204207538
 21
23.71641788353441
 31
0.0
 11
38.83484335052719
 21
23.62568105970969
 31
0.0
 11
38.67159397760771
 21
23.53558123947114
 31
0.0
 11
38.53168126994678
 21
23.41159000587154
 31
0.0
 11
38.42745670868595
 21
23.25493190905036
 31
0.0
 11
38.3648229762125
 21
23.07919360711669
 31
0.0
  0
SPLINE
  5
83
330
A
100
AcDbEntity
  8
CARTOUCHE
  6
CONTINUOUS
 62
     4
100
AcDbSpline
210
0.0
220
0.0
230
1.0
 70
     8
 71
     3
 72
    14
 73
    10
 74
     8
 42
0.0000000001
 43
0.0000000001
 44
0.000001
 12
0.0554704849890783
 22
0.9984603273516061
 32
0.0
 13
-0.0466631639368038
 23
-0.9989106812580427
 33
0.0
 40
0.0
 40
0.0
 40
0.0
 40
0.0
 40
0.2162139074022218
 40
0.4333924847994324
 40
0.6499495281904905
 40
0.8697428518080908
 40
1.087237595645041
 40
1.304827608132232
 40
1.522315904263428
 40
1.522315904263428
 40
1.522315904263428
 40
1.522315904263428
 10
45.4545729762125
 20
22.82764360711668
 30
0.0
 10
45.45857080631416
 20
22.89960394337094
 30
0.0
 10
45.42640845178713
 20
23.04880719341104
 30
0.0
 10
45.27439530019221
 20
23.21580479327942
 30
0.0
 10
45.06187441261872
 20
23.29256560222701
 30
0.0
 10
44.83996045298547
 20
23.27349163465662
 30
0.0
 10
44.63539403875084
 20
23.17927816693098
 30
0.0
 10
44.50069250367362
 20
22.99887923670179
 30
0.0
 10
44.46300587355137
 20
22.85461073446803
 30
0.0
 10
44.45962297621247
 20
22.78219360711668
 30
0.0
 11
45.4545729762125
 21
22.82764360711668
 31
0.0
 11
45.40925657835891
 21
23.03905624439607
 31
0.0
 11
45.2643208173426
 21
23.20079736409236
 31
0.0
 11
45.06139949806013
 21
23.27642755731508
 31
0.0
 11
44.84216559415751
 21
23.2607549970325
 31
0.0
 11
44.64694347697345
 21
23.16487840855711
 31
0.0
 11
44.51370731348553
 21
22.99285063220138
 31
0.0
 11
44.45962297621247
 21
22.78219360711668
 31
0.0
  0
SPLINE
  5
84
330
A
100
AcDbEntity
  8
CARTOUCHE
  6
CONTINUOUS
 62
     4
100
AcDbSpline
210
0.0
220
0.0
230
1.0
 70
     8
 71
     3
 72
    20
 73
    16
 74
    14
 42
0.0000000001
 43
0.0000000001
 44
0.000001
 12
0.1358608544273129
 22
0.9907279284618358
 32
0.0
 13
-0.8123777522852272
 23
-0.583131535412039
 33
0.0
 40
0.0
 40
0.0
 40
0.0
 40
0.0
 40
0.3099167376574408
 40
0.6201162120086082
 40
0.9308832229227103
 40
1.240782580369536
 40
1.550958571055999
 40
1.861841472929394
 40
2.170989032701104
 40
2.482794313402613
 40
2.792566681426362
 40
3.102412009711698
 40
3.413423418356818
 40
3.723770860918
 40
4.34241409277492
 40
4.34241409277492
 40
4.34241409277492
 40
4.34241409277492
 10
47.28382297621251
 20
22.58779360711669
 30
0.0
 10
47.29785816047233
 20
22.69014132961503
 30
0.0
 10
47.31442324043968
 20
22.89676966285277
 30
0.0
 10
47.300929655681
 20
23.20747621588526
 30
0.0
 10
47.25565430040702
 20
23.51474442121903
 30
0.0
 10
47.17620425041041
 20
23.81641651325381
 30
0.0
 10
47.02732817013799
 20
24.09240856669954
 30
0.0
 10
46.81020864916886
 20
24.32073910349872
 30
0.0
 10
46.53096591325816
 20
24.46673549232284
 30
0.0
 10
46.23076181269932
 20
24.54812138519135
 30
0.0
 10
45.92302828297229
 20
24.59724610143176
 30
0.0
 10
45.61155007781772
 20
24.58971042935069
 30
0.0
 10
45.30365677773262
 20
24.54593296501846
 30
0.0
 10
44.90384925448966
 20
24.43649405403212
 30
0.0
 10
44.62714697559995
 20
24.28574373300502
 30
0.0
 10
44.45962297621249
 20
24.16549360711669
 30
0.0
 11
47.28382297621251
 21
22.58779360711669
 31
0.0
 11
47.3080338234398
 21
22.89676387907709
 31
0.0
 11
47.29564801913904
 21
23.20671600883971
 31
0.0
 11
47.24989999164073
 21
23.51409730955235
 31
0.0
 11
47.1646800578296
 21
23.81204898160464
 31
0.0
 11
47.01605698726017
 21
24.08429955967585
 31
0.0
 11
46.79947591694868
 21
24.30732619143858
 31
0.0
 11
46.52824151124928
 21
24.45566419975128
 31
0.0
 11
46.22887996193931
 21
24.5428722112578
 31
0.0
 11
45.92238599753446
 21
24.58782115591738
 31
0.0
 11
45.61256799206709
 21
24.58370341795764
 31
0.0
 11
45.3047164351297
 21
24.53948194901727
 31
0.0
 11
45.00579935951135
 21
24.4560304659967
 31
0.0
 11
44.45962297621249
 21
24.16549360711669
 31
0.0
  0
ARC
  5
85
330
A
100
AcDbEntity
  8
CARTOUCHE
  6
CONTINUOUS
 62
     4
100
AcDbCircle
 10
10.95095399999999
 20
23.85149299999999
 30
0.0
 40
0.4706070000000001
100
AcDbArc
 50
290.581791
 51
349.597912
  0
SPLINE
  5
86
330
A
100
AcDbEntity
  8
CARTOUCHE
  6
CONTINUOUS
 62
     4
100
AcDbSpline
210
0.0
220
0.0
230
1.0
 70
     8
 71
     3
 72
    14
 73
    10
 74
     8
 42
0.0000000001
 43
0.0000000001
 44
0.000001
 12
-0.0678904074543379
 22
-0.9976927846665446
 32
0.0
 13
-0.8200536786282526
 23
0.5722866101598664
 33
0.0
 40
0.0
 40
0.0
 40
0.0
 40
0.0
 40
0.2180606789005079
 40
0.4363602626288003
 40
0.6537280242066231
 40
0.8729546411850229
 40
1.089088005528229
 40
1.305403373828843
 40
1.523279715932531
 40
1.523279715932531
 40
1.523279715932531
 40
1.523279715932531
 10
13.3232229762125
 20
21.16984360711669
 30
0.0
 10
13.3182882334324
 20
21.09732441846385
 30
0.0
 10
13.284440483435
 20
20.95301317401816
 30
0.0
 10
13.16948288538595
 20
20.7630742883032
 30
0.0
 10
12.99638521645118
 20
20.6240633334473
 30
0.0
 10
12.79557455913801
 20
20.53568047568411
 30
0.0
 10
12.57604688222645
 20
20.5036065741256
 30
0.0
 10
12.36194585198925
 20
20.55796217058826
 30
0.0
 10
12.23325574438505
 20
20.6267655025048
 30
0.0
 10
12.17369897910899
 20
20.66832807359032
 30
0.0
 11
13.3232229762125
 21
21.16984360711669
 31
0.0
 11
13.27374961772985
 21
20.95746843688553
 31
0.0
 11
13.15964273339541
 21
20.77136537381492
 31
0.0
 11
12.99218699760144
 21
20.63277473124212
 31
0.0
 11
12.79139755994316
 21
20.54477508934442
 31
0.0
 11
12.576934032064
 21
20.51795972590457
 31
0.0
 11
12.36599789339048
 21
20.56590052451097
 31
0.0
 11
12.17369897910899
 21
20.66832807359032
 31
0.0
  0
ARC
  5
87
330
A
100
AcDbEntity
  8
CARTOUCHE
  6
CONTINUOUS
 62
     4
100
AcDbCircle
 10
14.404539
 20
25.005869
 30
0.0
 40
0.5000710000000001
100
AcDbArc
 50
275.8401249999999
 51
95.840125
  0
INSERT
  5
88
330
A
100
AcDbEntity
  8
CARTOUCHE
  6
CONTINUOUS
 62
     4
100
AcDbBlockReference
  2
*X14
 10
0.0
 20
0.0
 30
0.0
1001
ACAD
1000
HATCH
1002
{
1070
    19
1000
ANSI31
1040
0.062992
1040
0.0
1000
R14_HATCH_DATA
1000
88
1011
1.0
1021
0.0
1031
0.0
1011
0.0
1021
1.0
1031
0.0
1011
0.0
1021
0.0
1031
1.0
1040
0.0
1010
0.0
1020
0.0
1030
1.0
1000
ANSI31
1070
     0
1070
     0
1071
        1
1071
        1
1071
       50
1070
     1
1040
10.46482299999999
1040
24.428744
1040
10.46482299999999
1040
27.399506
1070
     1
1040
8.174775999999999
1040
24.428744
1040
10.46482299999999
1040
24.428744
1070
     1
1040
11.41387299999999
1040
27.652621
1040
11.41387299999999
1040
23.766514
1070
     1
1040
11.11642299999999
1040
23.410844
1040
10.88782299999999
1040
23.410844
1070
     1
1040
10.88782299999999
1040
23.410844
1040
12.362923
1040
21.81019399999999
1070
     1
1040
12.362923
1040
21.81019399999999
1040
12.362923
1040
27.65548499999999
1070
     1
1040
9.378522999999999
1040
23.410844
1040
8.176313
1040
23.410844
1070
     1
1040
13.323223
1040
27.404134
1040
13.323223
1040
25.503344
1070
     1
1040
13.323223
1040
25.503344
1040
14.35365599999999
1040
25.503344
1070
     1
1040
14.455423
1040
24.508394
1040
13.323223
1040
24.508394
1070
     1
1040
13.323223
1040
24.508394
1040
13.323223
1040
21.169844
1070
     1
1040
13.323223
1040
21.169844
1040
13.31883499999999
1040
21.126412
1070
     1
1040
13.31883499999999
1040
21.126412
1040
13.311632
1040
21.08326799999999
1070
     1
1040
13.311632
1040
21.08326799999999
1040
13.301677
1040
21.040602
1070
     1
1040
13.301677
1040
21.040602
1040
13.289029
1040
20.99860499999999
1070
     1
1040
13.289029
1040
20.99860499999999
1040
13.27374999999999
1040
20.957468
1070
     1
1040
13.27374999999999
1040
20.957468
1040
13.25587699999999
1040
20.91734
1070
     1
1040
13.25587699999999
1040
20.91734
1040
13.23547999999999
1040
20.878466
1070
     1
1040
13.23547999999999
1040
20.878466
1040
13.212608
1040
20.841045
1070
     1
1040
13.212608
1040
20.841045
1040
13.187312
1040
20.805278
1070
     1
1040
13.187312
1040
20.805278
1040
13.159643
1040
20.77136499999999
1070
     1
1040
13.159643
1040
20.77136499999999
1040
13.129815
1040
20.73960499999999
1070
     1
1040
13.129815
1040
20.73960499999999
1040
13.09792
1040
20.70987399999999
1070
     1
1040
13.09792
1040
20.70987399999999
1040
13.064194
1040
20.682164
1070
     1
1040
13.064194
1040
20.682164
1040
13.028871
1040
20.656467
1070
     1
1040
13.028871
1040
20.656467
1040
12.99218699999999
1040
20.63277499999999
1070
     1
1040
12.99218699999999
1040
20.63277499999999
1040
12.91478699999999
1040
20.591129
1070
     1
1040
12.91478699999999
1040
20.591129
1040
12.874555
1040
20.573479
1070
     1
1040
12.874555
1040
20.573479
1040
12.83339999999999
1040
20.55801
1070
     1
1040
12.83339999999999
1040
20.55801
1040
12.791398
1040
20.544775
1070
     1
1040
12.791398
1040
20.544775
1040
12.749249
1040
20.53399399999999
1070
     1
1040
12.749249
1040
20.53399399999999
1040
12.706539
1040
20.52567799999999
1070
     1
1040
12.706539
1040
20.52567799999999
1040
12.663456
1040
20.52007
1070
     1
1040
12.663456
1040
20.52007
1040
12.620191
1040
20.517416
1070
     1
1040
12.620191
1040
20.517416
1040
12.57693399999999
1040
20.51796
1070
     1
1040
12.57693399999999
1040
20.51796
1040
12.533829
1040
20.52186
1070
     1
1040
12.533829
1040
20.52186
1040
12.491053
1040
20.528907
1070
     1
1040
12.491053
1040
20.528907
1040
12.448736
1040
20.53879699999999
1070
     1
1040
12.448736
1040
20.53879699999999
1040
12.407007
1040
20.551229
1070
     1
1040
12.407007
1040
20.551229
1040
12.365998
1040
20.565901
1070
     1
1040
12.365998
1040
20.565901
1040
12.286013
1040
20.60136299999999
1070
     1
1040
12.286013
1040
20.60136299999999
1040
12.228617
1040
20.63285299999999
1070
     1
1040
12.228617
1040
20.63285299999999
1040
12.173699
1040
20.66832799999999
1070
     1
1040
12.173699
1040
20.66832799999999
1040
9.378522999999999
1040
23.410844
1070
     2
1040
11.899646
1040
23.925422
1040
4.756723
1040
0.0
1040
6.283184999999999
1070
     1
1070
     2
1040
11.899651
1040
23.925417
1040
3.758726999999999
1040
1.962466
1040
3.007279999999999
1070
     1
1070
     2
1040
10.95095399999999
1040
23.85149299999999
1040
0.4706070000000001
1040
5.071608999999999
1040
6.101634999999999
1070
     1
1070
     2
1040
11.899651
1040
23.925417
1040
3.758726999999999
1040
1.44723
1040
1.700399
1070
     1
1070
     2
1040
11.899651
1040
23.925417
1040
3.758726999999999
1040
3.278925
1040
7.465549
1070
     1
1070
     2
1040
14.404539
1040
25.005869
1040
0.5000710000000001
1040
4.814318
1040
7.955911
1070
     1
1071
        0
1070
     0
1070
     1
1040
0.0
1040
0.062992
1070
     0
1070
     1
1040
0.7853979999999999
1040
-6.225169999999999
1040
-28.624349
1040
-0.141421
1040
0.141421
1070
     0
1071
        1
1040
-6.225169999999999
1040
-28.624349
1040
0.0
1002
}
  0
INSERT
  5
89
330
A
100
AcDbEntity
  8
CARTOUCHE
  6
CONTINUOUS
 62
     4
100
AcDbBlockReference
  2
*X15
 10
0.0
 20
0.0
 30
0.0
1001
ACAD
1000
HATCH
1002
{
1070
    19
1000
ANSI31
1040
0.062992
1040
0.0
1000
R14_HATCH_DATA
1000
89
1011
1.0
1021
0.0
1031
0.0
1011
0.0
1021
1.0
1031
0.0
1011
0.0
1021
0.0
1031
1.0
1040
0.0
1010
0.0
1020
0.0
1030
1.0
1000
ANSI31
1070
     0
1070
     0
1071
        1
1071
        1
1071
       16
1070
     1
1040
18.674623
1040
24.508394
1040
18.674623
1040
24.929401
1070
     1
1040
19.58025899999999
1040
25.834994
1040
21.087523
1040
25.834994
1070
     1
1040
21.087523
1040
25.834994
1040
21.087523
1040
24.931844
1070
     1
1040
21.087523
1040
24.931844
1040
20.679053
1040
24.931844
1070
     1
1040
20.461079
1040
24.768622
1040
20.412973
1040
24.508394
1070
     1
1040
20.412973
1040
24.508394
1040
21.087523
1040
24.508394
1070
     1
1040
21.087523
1040
24.508394
1040
21.087523
1040
23.410844
1070
     1
1040
21.087523
1040
23.410844
1040
20.470123
1040
23.410844
1070
     1
1040
20.470123
1040
23.410844
1040
20.470123
1040
20.63209399999999
1070
     1
1040
20.470123
1040
20.63209399999999
1040
18.674623
1040
20.63209399999999
1070
     1
1040
18.674623
1040
20.63209399999999
1040
18.674623
1040
23.410844
1070
     1
1040
18.674623
1040
23.410844
1040
18.137323
1040
23.410844
1070
     1
1040
18.137323
1040
23.410844
1040
18.137323
1040
24.508394
1070
     1
1040
18.137323
1040
24.508394
1040
18.674623
1040
24.508394
1070
     2
1040
19.58025899999999
1040
24.929401
1040
0.905639
1040
1.570795999999999
1040
3.141592999999999
1070
     1
1070
     2
1040
20.705988
1040
24.668716
1040
0.264503
1040
1.672804999999999
1040
2.754265999999999
1070
     1
1071
        0
1070
     0
1070
     1
1040
0.0
1040
0.062992
1070
     0
1070
     1
1040
0.7853979999999999
1040
-6.225169999999999
1040
-28.624349
1040
-0.141421
1040
0.141421
1070
     0
1071
        1
1040
-6.225169999999999
1040
-28.624349
1040
0.0
1002
}
  0
INSERT
  5
8A
330
A
100
AcDbEntity
  8
CARTOUCHE
  6
CONTINUOUS
 62
     4
100
AcDbBlockReference
  2
*X16
 10
0.0
 20
0.0
 30
0.0
1001
ACAD
1000
HATCH
1002
{
1070
    19
1000
ANSI31
1040
0.062992
1040
0.0
1000
R14_HATCH_DATA
1000
8A
1011
1.0
1021
0.0
1031
0.0
1011
0.0
1021
1.0
1031
0.0
1011
0.0
1021
0.0
1031
1.0
1040
0.0
1010
0.0
1020
0.0
1030
1.0
1000
ANSI31
1070
     0
1070
     0
1071
        1
1071
        1
1071
        4
1070
     1
1040
21.807973
1040
25.834994
1040
21.807973
1040
24.943094
1070
     1
1040
21.807973
1040
24.943094
1040
23.625973
1040
24.943094
1070
     1
1040
23.625973
1040
24.943094
1040
23.625973
1040
25.834994
1070
     1
1040
23.625973
1040
25.834994
1040
21.807973
1040
25.834994
1071
        0
1070
     0
1070
     1
1040
0.0
1040
0.062992
1070
     0
1070
     1
1040
0.7853979999999999
1040
-6.225169999999999
1040
-28.624349
1040
-0.141421
1040
0.141421
1070
     0
1071
        1
1040
-6.225169999999999
1040
-28.624349
1040
0.0
1002
}
  0
INSERT
  5
8B
330
A
100
AcDbEntity
  8
CARTOUCHE
  6
CONTINUOUS
 62
     4
100
AcDbBlockReference
  2
*X17
 10
0.0
 20
0.0
 30
0.0
1001
ACAD
1000
HATCH
1002
{
1070
    19
1000
ANSI31
1040
0.062992
1040
0.0
1000
R14_HATCH_DATA
1000
8B
1011
1.0
1021
0.0
1031
0.0
1011
0.0
1021
1.0
1031
0.0
1011
0.0
1021
0.0
1031
1.0
1040
0.0
1010
0.0
1020
0.0
1030
1.0
1000
ANSI31
1070
     0
1070
     0
1071
        1
1071
        1
1071
        4
1070
     1
1040
21.807973
1040
24.508394
1040
21.807973
1040
20.63209399999999
1070
     1
1040
21.807973
1040
20.63209399999999
1040
23.625973
1040
20.63209399999999
1070
     1
1040
23.625973
1040
20.63209399999999
1040
23.625973
1040
24.508394
1070
     1
1040
23.625973
1040
24.508394
1040
21.807973
1040
24.508394
1071
        0
1070
     0
1070
     1
1040
0.0
1040
0.062992
1070
     0
1070
     1
1040
0.7853979999999999
1040
-6.225169999999999
1040
-28.624349
1040
-0.141421
1040
0.141421
1070
     0
1071
        1
1040
-6.225169999999999
1040
-28.624349
1040
0.0
1002
}
  0
INSERT
  5
8C
330
A
100
AcDbEntity
  8
CARTOUCHE
  6
CONTINUOUS
 62
     4
100
AcDbBlockReference
  2
*X18
 10
0.0
 20
0.0
 30
0.0
1001
ACAD
1000
HATCH
1002
{
1070
    19
1000
ANSI31
1040
0.062992
1040
0.0
1000
R14_HATCH_DATA
1000
8C
1011
1.0
1021
0.0
1031
0.0
1011
0.0
1021
1.0
1031
0.0
1011
0.0
1021
0.0
1031
1.0
1040
0.0
1010
0.0
1020
0.0
1030
1.0
1000
ANSI31
1070
     0
1070
     0
1071
        1
1071
        1
1071
       12
1070
     1
1040
26.28997299999999
1040
24.508394
1040
26.28997299999999
1040
24.074144
1070
     1
1040
29.89222299999999
1040
23.324553
1040
29.89222299999999
1040
20.63209399999999
1070
     1
1040
29.89222299999999
1040
20.63209399999999
1040
28.108423
1040
20.63209399999999
1070
     1
1040
28.108423
1040
20.63209399999999
1040
28.108423
1040
22.47903399999999
1070
     1
1040
26.28997299999999
1040
22.43349899999999
1040
26.28997299999999
1040
20.63209399999999
1070
     1
1040
26.28997299999999
1040
20.63209399999999
1040
24.494923
1040
20.63209399999999
1070
     1
1040
24.494923
1040
20.63209399999999
1040
24.494923
1040
24.508394
1070
     1
1040
24.494923
1040
24.508394
1040
26.28997299999999
1040
24.508394
1070
     2
1040
28.067403
1040
21.045261
1040
3.511892
1040
1.25441
1040
2.101472999999999
1070
     1
1070
     2
1040
28.675028
1040
23.264873
1040
1.218658
1040
0.048991
1040
1.161443
1070
     1
1070
     2
1040
27.457324
1040
22.47903399999999
1040
0.6511239999999999
1040
0.0
1040
1.695599
1070
     1
1070
     2
1040
27.44381
1040
21.82007899999999
1040
1.306761
1040
1.622502
1040
2.652958
1070
     1
1071
        0
1070
     0
1070
     1
1040
0.0
1040
0.062992
1070
     0
1070
     1
1040
0.7853979999999999
1040
-6.225169999999999
1040
-28.624349
1040
-0.141421
1040
0.141421
1070
     0
1071
        1
1040
-6.225169999999999
1040
-28.624349
1040
0.0
1002
}
  0
INSERT
  5
8D
330
A
100
AcDbEntity
  8
CARTOUCHE
  6
CONTINUOUS
 62
     4
100
AcDbBlockReference
  2
*X19
 10
0.0
 20
0.0
 30
0.0
1001
ACAD
1000
HATCH
1002
{
1070
    19
1000
ANSI31
1040
0.062992
1040
0.0
1000
R14_HATCH_DATA
1000
8D
1011
1.0
1021
0.0
1031
0.0
1011
0.0
1021
1.0
1031
0.0
1011
0.0
1021
0.0
1031
1.0
1040
0.0
1010
0.0
1020
0.0
1030
1.0
1000
ANSI31
1070
     0
1070
     0
1071
        1
1071
        1
1071
      154
1070
     1
1040
34.19152299999999
1040
24.319904
1040
34.136639
1040
24.365465
1070
     1
1040
34.136639
1040
24.365465
1040
34.093353
1040
24.396952
1070
     1
1040
34.093353
1040
24.396952
1040
34.048146
1040
24.425518
1070
     1
1040
34.048146
1040
24.425518
1040
33.985315
1040
24.45824299999999
1070
     1
1040
33.985315
1040
24.45824299999999
1040
33.936415
1040
24.47918299999999
1070
     1
1040
33.936415
1040
24.47918299999999
1040
33.886414
1040
24.497349
1070
     1
1040
33.886414
1040
24.497349
1040
33.800369
1040
24.52267
1070
     1
1040
33.800369
1040
24.52267
1040
33.713056
1040
24.543137
1070
     1
1040
33.713056
1040
24.543137
1040
33.53598499999999
1040
24.577164
1070
     1
1040
33.53598499999999
1040
24.577164
1040
33.183861
1040
24.631643
1070
     1
1040
33.183861
1040
24.631643
1040
32.829714
1040
24.65361099999999
1070
     1
1040
32.829714
1040
24.65361099999999
1040
32.473075
1040
24.642759
1070
     1
1040
32.473075
1040
24.642759
1040
32.295535
1040
24.627567
1070
     1
1040
32.295535
1040
24.627567
1040
32.119422
1040
24.601922
1070
     1
1040
32.119422
1040
24.601922
1040
31.980393
1040
24.570874
1070
     1
1040
31.980393
1040
24.570874
1040
31.77626899999999
1040
24.506919
1070
     1
1040
31.77626899999999
1040
24.506919
1040
31.643857
1040
24.453442
1070
     1
1040
31.643857
1040
24.453442
1040
31.54719899999999
1040
24.407478
1070
     1
1040
31.54719899999999
1040
24.407478
1040
31.453318
1040
24.3562
1070
     1
1040
31.453318
1040
24.3562
1040
31.333276
1040
24.279541
1070
     1
1040
31.333276
1040
24.279541
1040
31.164251
1040
24.148688
1070
     1
1040
31.164251
1040
24.148688
1040
31.058938
1040
24.05235799999999
1070
     1
1040
31.058938
1040
24.05235799999999
1040
30.912683
1040
23.896114
1070
     1
1040
30.912683
1040
23.896114
1040
30.823445
1040
23.784931
1070
     1
1040
30.823445
1040
23.784931
1040
30.703793
1040
23.607819
1070
     1
1040
30.703793
1040
23.607819
1040
30.63481599999999
1040
23.48301999999999
1070
     1
1040
30.63481599999999
1040
23.48301999999999
1040
30.589096
1040
23.38631
1070
     1
1040
30.589096
1040
23.38631
1040
30.54866099999999
1040
23.287292
1070
     1
1040
30.54866099999999
1040
23.287292
1040
30.503077
1040
23.152132
1070
     1
1040
30.503077
1040
23.152132
1040
30.45247299999999
1040
22.94419899999999
1070
     1
1040
30.45247299999999
1040
22.94419899999999
1040
30.430632
1040
22.80314999999999
1070
     1
1040
30.430632
1040
22.80314999999999
1040
30.42104699999999
1040
22.696588
1070
     1
1040
30.42104699999999
1040
22.696588
1040
30.41782
1040
22.58973
1070
     1
1040
30.41782
1040
22.58973
1040
30.423783
1040
22.44735499999999
1070
     1
1040
30.423783
1040
22.44735499999999
1040
30.45204699999999
1040
22.235266
1070
     1
1040
30.45204699999999
1040
22.235266
1040
30.481823
1040
22.09568299999999
1070
     1
1040
30.481823
1040
22.09568299999999
1040
30.54294099999999
1040
21.89073699999999
1070
     1
1040
30.54294099999999
1040
21.89073699999999
1040
30.595245
1040
21.758144
1070
     1
1040
30.595245
1040
21.758144
1040
30.640663
1040
21.661326
1070
     1
1040
30.640663
1040
21.661326
1040
30.691396
1040
21.567163
1070
     1
1040
30.691396
1040
21.567163
1040
30.76734099999999
1040
21.44630199999999
1070
     1
1040
30.76734099999999
1040
21.44630199999999
1040
30.830371
1040
21.359778
1070
     1
1040
30.830371
1040
21.359778
1040
30.89849
1040
21.27724999999999
1070
     1
1040
30.89849
1040
21.27724999999999
1040
30.99676699999999
1040
21.17408
1070
     1
1040
30.99676699999999
1040
21.17408
1040
31.158025
1040
21.033767
1070
     1
1040
31.158025
1040
21.033767
1040
31.273232
1040
20.94957699999999
1070
     1
1040
31.273232
1040
20.94957699999999
1040
31.455483
1040
20.837379
1070
     1
1040
31.455483
1040
20.837379
1040
31.58228499999999
1040
20.77219599999999
1070
     1
1040
31.58228499999999
1040
20.77219599999999
1040
31.680038
1040
20.728943
1070
     1
1040
31.680038
1040
20.728943
1040
31.77997
1040
20.691125
1070
     1
1040
31.77997
1040
20.691125
1040
31.91640599999999
1040
20.64973699999999
1070
     1
1040
31.91640599999999
1040
20.64973699999999
1040
32.12581399999999
1040
20.606082
1070
     1
1040
32.12581399999999
1040
20.606082
1040
32.302677
1040
20.584734
1070
     1
1040
32.302677
1040
20.584734
1040
32.48050399999999
1040
20.573741
1070
     1
1040
32.48050399999999
1040
20.573741
1040
32.83642
1040
20.570894
1070
     1
1040
32.83642
1040
20.570894
1040
33.19287
1040
20.58610199999999
1070
     1
1040
33.19287
1040
20.58610199999999
1040
33.33459699999999
1040
20.6
1070
     1
1040
33.33459699999999
1040
20.6
1040
33.545271
1040
20.63588399999999
1070
     1
1040
33.545271
1040
20.63588399999999
1040
33.682853
1040
20.67301599999999
1070
     1
1040
33.682853
1040
20.67301599999999
1040
33.817433
1040
20.721154
1070
     1
1040
33.817433
1040
20.721154
1040
33.947848
1040
20.779822
1070
     1
1040
33.947848
1040
20.779822
1040
34.072933
1040
20.848544
1070
     1
1040
34.072933
1040
20.848544
1040
34.19152299999999
1040
20.926844
1070
     1
1040
34.19152299999999
1040
20.926844
1040
34.19152299999999
1040
20.620844
1070
     1
1040
34.19152299999999
1040
20.620844
1040
35.986573
1040
20.620844
1070
     1
1040
35.986573
1040
20.620844
1040
35.986573
1040
25.823744
1070
     1
1040
35.986573
1040
25.823744
1040
34.19152299999999
1040
25.823744
1070
     1
1040
34.19152299999999
1040
25.823744
1040
34.19152299999999
1040
24.319904
1070
     1
1040
34.19152299999999
1040
22.759244
1040
34.185224
1040
22.797429
1070
     1
1040
34.185224
1040
22.797429
1040
34.176704
1040
22.835258
1070
     1
1040
34.176704
1040
22.835258
1040
34.165972
1040
22.87256499999999
1070
     1
1040
34.165972
1040
22.87256499999999
1040
34.15304099999999
1040
22.909184
1070
     1
1040
34.15304099999999
1040
22.909184
1040
34.137919
1040
22.94494999999999
1070
     1
1040
34.137919
1040
22.94494999999999
1040
34.12062199999999
1040
22.97972399999999
1070
     1
1040
34.12062199999999
1040
22.97972399999999
1040
34.10124099999999
1040
23.01337
1070
     1
1040
34.10124099999999
1040
23.01337
1040
34.079871
1040
23.045781
1070
     1
1040
34.079871
1040
23.045781
1040
34.05661
1040
23.076848
1070
     1
1040
34.05661
1040
23.076848
1040
34.031554
1040
23.106464
1070
     1
1040
34.031554
1040
23.106464
1040
34.004808
1040
23.13453999999999
1070
     1
1040
34.004808
1040
23.13453999999999
1040
33.97651299999999
1040
23.16105899999999
1070
     1
1040
33.97651299999999
1040
23.16105899999999
1040
33.931497
1040
23.19792
1070
     1
1040
33.931497
1040
23.19792
1040
33.883839
1040
23.231288
1070
     1
1040
33.883839
1040
23.231288
1040
33.817408
1040
23.270254
1070
     1
1040
33.817408
1040
23.270254
1040
33.7126
1040
23.31870499999999
1070
     1
1040
33.7126
1040
23.31870499999999
1040
33.52912599999999
1040
23.38024
1070
     1
1040
33.52912599999999
1040
23.38024
1040
33.341295
1040
23.426807
1070
     1
1040
33.341295
1040
23.426807
1040
33.265367
1040
23.43872
1070
     1
1040
33.265367
1040
23.43872
1040
33.20799199999999
1040
23.44418399999999
1070
     1
1040
33.20799199999999
1040
23.44418399999999
1040
33.150433
1040
23.446185
1070
     1
1040
33.150433
1040
23.446185
1040
33.073206
1040
23.442941
1070
     1
1040
33.073206
1040
23.442941
1040
33.01556
1040
23.43626899999999
1070
     1
1040
33.01556
1040
23.43626899999999
1040
32.958383
1040
23.426252
1070
     1
1040
32.958383
1040
23.426252
1040
32.882791
1040
23.40794999999999
1070
     1
1040
32.882791
1040
23.40794999999999
1040
32.827093
1040
23.390689
1070
     1
1040
32.827093
1040
23.390689
1040
32.772401
1040
23.37047899999999
1070
     1
1040
32.772401
1040
23.37047899999999
1040
32.70162299999999
1040
23.339164
1070
     1
1040
32.70162299999999
1040
23.339164
1040
32.650176
1040
23.312245
1070
     1
1040
32.650176
1040
23.312245
1040
32.600378
1040
23.2823
1070
     1
1040
32.600378
1040
23.2823
1040
32.53744099999999
1040
23.23798
1070
     1
1040
32.53744099999999
1040
23.23798
1040
32.478372
1040
23.188413
1070
     1
1040
32.478372
1040
23.188413
1040
32.423769
1040
23.133776
1070
     1
1040
32.423769
1040
23.133776
1040
32.37422999999999
1040
23.07424699999999
1070
     1
1040
32.37422999999999
1040
23.07424699999999
1040
32.330353
1040
23.010003
1070
     1
1040
32.330353
1040
23.010003
1040
32.29281799999999
1040
22.941394
1070
     1
1040
32.29281799999999
1040
22.941394
1040
32.26252099999999
1040
22.869246
1070
     1
1040
32.26252099999999
1040
22.869246
1040
32.250396
1040
22.832155
1070
     1
1040
32.250396
1040
22.832155
1040
32.24044899999999
1040
22.794552
1070
     1
1040
32.24044899999999
1040
22.794552
1040
32.23280499999999
1040
22.75656099999999
1070
     1
1040
32.23280499999999
1040
22.75656099999999
1040
32.22758599999999
1040
22.71830599999999
1070
     1
1040
32.22758599999999
1040
22.71830599999999
1040
32.22491699999999
1040
22.67991199999999
1070
     1
1040
32.22491699999999
1040
22.67991199999999
1040
32.224919
1040
22.641503
1070
     1
1040
32.224919
1040
22.641503
1040
32.227693
1040
22.60294
1070
     1
1040
32.227693
1040
22.60294
1040
32.233111
1040
22.56461799999999
1070
     1
1040
32.233111
1040
22.56461799999999
1040
32.24098099999999
1040
22.526667
1070
     1
1040
32.24098099999999
1040
22.526667
1040
32.251114
1040
22.48921699999999
1070
     1
1040
32.251114
1040
22.48921699999999
1040
32.263318
1040
22.4524
1070
     1
1040
32.263318
1040
22.4524
1040
32.29364499999999
1040
22.380425
1070
     1
1040
32.29364499999999
1040
22.380425
1040
32.321048
1040
22.328706
1070
     1
1040
32.321048
1040
22.328706
1040
32.35215399999999
1040
22.2791
1070
     1
1040
32.35215399999999
1040
22.2791
1040
32.398586
1040
22.217113
1070
     1
1040
32.398586
1040
22.217113
1040
32.437235
1040
22.173772
1070
     1
1040
32.437235
1040
22.173772
1040
32.47906599999999
1040
22.133554
1070
     1
1040
32.47906599999999
1040
22.133554
1040
32.539186
1040
22.085487
1070
     1
1040
32.539186
1040
22.085487
1040
32.587212
1040
22.05335499999999
1070
     1
1040
32.587212
1040
22.05335499999999
1040
32.637257
1040
22.024481
1070
     1
1040
32.637257
1040
22.024481
1040
32.707048
1040
21.990519
1070
     1
1040
32.707048
1040
21.990519
1040
32.81564799999999
1040
21.948581
1070
     1
1040
32.81564799999999
1040
21.948581
1040
32.889663
1040
21.925699
1070
     1
1040
32.889663
1040
21.925699
1040
33.002738
1040
21.899168
1070
     1
1040
33.002738
1040
21.899168
1040
33.078914
1040
21.887245
1070
     1
1040
33.078914
1040
21.887245
1040
33.19419899999999
1040
21.878646
1070
     1
1040
33.19419899999999
1040
21.878646
1040
33.27146299999999
1040
21.879509
1070
     1
1040
33.27146299999999
1040
21.879509
1040
33.386902
1040
21.89089999999999
1070
     1
1040
33.386902
1040
21.89089999999999
1040
33.46279
1040
21.905127
1070
     1
1040
33.46279
1040
21.905127
1040
33.537631
1040
21.924554
1070
     1
1040
33.537631
1040
21.924554
1040
33.611002
1040
21.94904699999999
1070
     1
1040
33.611002
1040
21.94904699999999
1040
33.68247699999999
1040
21.978473
1070
     1
1040
33.68247699999999
1040
21.978473
1040
33.751634
1040
22.01269799999999
1070
     1
1040
33.751634
1040
22.01269799999999
1040
33.81849899999999
1040
22.05184599999999
1070
     1
1040
33.81849899999999
1040
22.05184599999999
1040
33.91321
1040
22.119126
1070
     1
1040
33.91321
1040
22.119126
1040
33.972146
1040
22.16959899999999
1070
     1
1040
33.972146
1040
22.16959899999999
1040
34.013325
1040
22.210664
1070
     1
1040
34.013325
1040
22.210664
1040
34.05119699999999
1040
22.254741
1070
     1
1040
34.05119699999999
1040
22.254741
1040
34.07423699999999
1040
22.285782
1070
     1
1040
34.07423699999999
1040
22.285782
1040
34.09545
1040
22.318141
1070
     1
1040
34.09545
1040
22.318141
1040
34.114752
1040
22.351701
1070
     1
1040
34.114752
1040
22.351701
1040
34.13205999999999
1040
22.386344
1070
     1
1040
34.13205999999999
1040
22.386344
1040
34.147289
1040
22.42195399999999
1070
     1
1040
34.147289
1040
22.42195399999999
1040
34.16041099999999
1040
22.458525
1070
     1
1040
34.16041099999999
1040
22.458525
1040
34.171377
1040
22.49579699999999
1070
     1
1040
34.171377
1040
22.49579699999999
1040
34.180205
1040
22.533619
1070
     1
1040
34.180205
1040
22.533619
1040
34.186914
1040
22.571835
1070
     1
1040
34.186914
1040
22.571835
1040
34.19152299999999
1040
22.61029399999999
1070
     1
1040
34.19152299999999
1040
22.61029399999999
1040
34.19152299999999
1040
22.759244
1071
        0
1070
     0
1070
     1
1040
0.0
1040
0.062992
1070
     0
1070
     1
1040
0.7853979999999999
1040
-6.225169999999999
1040
-28.624349
1040
-0.141421
1040
0.141421
1070
     0
1071
        1
1040
-6.225169999999999
1040
-28.624349
1040
0.0
1002
}
  0
INSERT
  5
8E
330
A
100
AcDbEntity
  8
CARTOUCHE
  6
CONTINUOUS
 62
     4
100
AcDbBlockReference
  2
*X20
 10
0.0
 20
0.0
 30
0.0
1001
ACAD
1000
HATCH
1002
{
1070
    19
1000
ANSI31
1040
0.062992
1040
0.0
1000
R14_HATCH_DATA
1000
8E
1011
1.0
1021
0.0
1031
0.0
1011
0.0
1021
1.0
1031
0.0
1011
0.0
1021
0.0
1031
1.0
1040
0.0
1010
0.0
1020
0.0
1030
1.0
1000
ANSI31
1070
     0
1070
     0
1071
        1
1071
        1
1071
      165
1070
     1
1040
39.05107299999999
1040
22.244444
1040
39.15412299999999
1040
22.244444
1070
     1
1040
39.15412299999999
1040
22.244444
1040
42.20692299999999
1040
22.25614399999999
1070
     1
1040
42.20692299999999
1040
22.25614399999999
1040
42.232378
1040
22.36584699999999
1070
     1
1040
42.232378
1040
22.36584699999999
1040
42.245048
1040
22.449462
1070
     1
1040
42.245048
1040
22.449462
1040
42.251874
1040
22.53370299999999
1070
     1
1040
42.251874
1040
22.53370299999999
1040
42.25173499999999
1040
22.646969
1070
     1
1040
42.25173499999999
1040
22.646969
1040
42.23470999999999
1040
22.81609599999999
1070
     1
1040
42.23470999999999
1040
22.81609599999999
1040
42.208465
1040
22.956213
1070
     1
1040
42.208465
1040
22.956213
1040
42.17357899999999
1040
23.09436799999999
1070
     1
1040
42.17357899999999
1040
23.09436799999999
1040
42.131795
1040
23.229146
1070
     1
1040
42.131795
1040
23.229146
1040
42.08234199999999
1040
23.36142099999999
1070
     1
1040
42.08234199999999
1040
23.36142099999999
1040
42.03686199999999
1040
23.464716
1070
     1
1040
42.03686199999999
1040
23.464716
1040
41.98586099999999
1040
23.56553499999999
1070
     1
1040
41.98586099999999
1040
23.56553499999999
1040
41.92928
1040
23.663323
1070
     1
1040
41.92928
1040
23.663323
1040
41.867061
1040
23.757527
1070
     1
1040
41.867061
1040
23.757527
1040
41.799145
1040
23.847595
1070
     1
1040
41.799145
1040
23.847595
1040
41.72552399999999
1040
23.93313
1070
     1
1040
41.72552399999999
1040
23.93313
1040
41.646719
1040
24.01400399999999
1070
     1
1040
41.646719
1040
24.01400399999999
1040
41.563309
1040
24.090255
1070
     1
1040
41.563309
1040
24.090255
1040
41.384996
1040
24.229026
1070
     1
1040
41.384996
1040
24.229026
1040
41.266986
1040
24.306605
1070
     1
1040
41.266986
1040
24.306605
1040
41.14444999999999
1040
24.376442
1070
     1
1040
41.14444999999999
1040
24.376442
1040
41.017719
1040
24.437986
1070
     1
1040
41.017719
1040
24.437986
1040
40.887396
1040
24.49164899999999
1070
     1
1040
40.887396
1040
24.49164899999999
1040
40.618872
1040
24.578734
1070
     1
1040
40.618872
1040
24.578734
1040
40.344652
1040
24.645649
1070
     1
1040
40.344652
1040
24.645649
1040
40.06700499999999
1040
24.69362999999999
1070
     1
1040
40.06700499999999
1040
24.69362999999999
1040
39.786778
1040
24.723515
1070
     1
1040
39.786778
1040
24.723515
1040
39.22285499999999
1040
24.73587399999999
1070
     1
1040
39.22285499999999
1040
24.73587399999999
1040
38.660586
1040
24.695795
1070
     1
1040
38.660586
1040
24.695795
1040
38.3823
1040
24.651139
1070
     1
1040
38.3823
1040
24.651139
1040
38.107283
1040
24.5883
1070
     1
1040
38.107283
1040
24.5883
1040
37.890593
1040
24.52408
1070
     1
1040
37.890593
1040
24.52408
1040
37.731586
1040
24.46569699999999
1070
     1
1040
37.731586
1040
24.46569699999999
1040
37.57690999999999
1040
24.396625
1070
     1
1040
37.57690999999999
1040
24.396625
1040
37.477006
1040
24.343979
1070
     1
1040
37.477006
1040
24.343979
1040
37.38006699999999
1040
24.285863
1070
     1
1040
37.38006699999999
1040
24.285863
1040
37.286613
1040
24.222306
1070
     1
1040
37.286613
1040
24.222306
1040
37.197165
1040
24.15334
1070
     1
1040
37.197165
1040
24.15334
1040
37.112243
1040
24.078995
1070
     1
1040
37.112243
1040
24.078995
1040
37.03231999999999
1040
23.999414
1070
     1
1040
37.03231999999999
1040
23.999414
1040
36.957469
1040
23.91497399999999
1070
     1
1040
36.957469
1040
23.91497399999999
1040
36.887723
1040
23.826164
1070
     1
1040
36.887723
1040
23.826164
1040
36.823113
1040
23.733469
1070
     1
1040
36.823113
1040
23.733469
1040
36.763669
1040
23.637375
1070
     1
1040
36.763669
1040
23.637375
1040
36.660491
1040
23.436489
1070
     1
1040
36.660491
1040
23.436489
1040
36.61706099999999
1040
23.332299
1070
     1
1040
36.61706099999999
1040
23.332299
1040
36.57925699999999
1040
23.225943
1070
     1
1040
36.57925699999999
1040
23.225943
1040
36.547222
1040
23.11767399999999
1070
     1
1040
36.547222
1040
23.11767399999999
1040
36.521104
1040
23.00778999999999
1070
     1
1040
36.521104
1040
23.00778999999999
1040
36.501051
1040
22.896613
1070
     1
1040
36.501051
1040
22.896613
1040
36.487223
1040
22.784512
1070
     1
1040
36.487223
1040
22.784512
1040
36.479778
1040
22.67185599999999
1070
     1
1040
36.479778
1040
22.67185599999999
1040
36.478876
1040
22.559014
1070
     1
1040
36.478876
1040
22.559014
1040
36.48475799999999
1040
22.446072
1070
     1
1040
36.48475799999999
1040
22.446072
1040
36.507303
1040
22.27824299999999
1070
     1
1040
36.507303
1040
22.27824299999999
1040
36.531842
1040
22.168363
1070
     1
1040
36.531842
1040
22.168363
1040
36.580661
1040
22.006354
1070
     1
1040
36.580661
1040
22.006354
1040
36.663176
1040
21.796051
1070
     1
1040
36.663176
1040
21.796051
1040
36.738102
1040
21.64424299999999
1070
     1
1040
36.738102
1040
21.64424299999999
1040
36.824876
1040
21.499285
1070
     1
1040
36.824876
1040
21.499285
1040
36.906565
1040
21.38422
1070
     1
1040
36.906565
1040
21.38422
1040
36.995075
1040
21.274114
1070
     1
1040
36.995075
1040
21.274114
1040
37.069976
1040
21.189232
1070
     1
1040
37.069976
1040
21.189232
1040
37.19090599999999
1040
21.070408
1070
     1
1040
37.19090599999999
1040
21.070408
1040
37.27814
1040
20.999373
1070
     1
1040
37.27814
1040
20.999373
1040
37.418207
1040
20.90511499999999
1070
     1
1040
37.418207
1040
20.90511499999999
1040
37.541992
1040
20.836757
1070
     1
1040
37.541992
1040
20.836757
1040
37.669631
1040
20.775673
1070
     1
1040
37.669631
1040
20.775673
1040
37.878008
1040
20.688457
1070
     1
1040
37.878008
1040
20.688457
1040
38.199606
1040
20.58288099999999
1070
     1
1040
38.199606
1040
20.58288099999999
1040
38.419015
1040
20.531338
1070
     1
1040
38.419015
1040
20.531338
1040
38.753153
1040
20.477838
1070
     1
1040
38.753153
1040
20.477838
1040
39.03387999999999
1040
20.450243
1070
     1
1040
39.03387999999999
1040
20.450243
1040
39.315482
1040
20.43816199999999
1070
     1
1040
39.315482
1040
20.43816199999999
1040
39.878324
1040
20.461635
1070
     1
1040
39.878324
1040
20.461635
1040
40.15919199999999
1040
20.49446799999999
1070
     1
1040
40.15919199999999
1040
20.49446799999999
1040
40.437804
1040
20.542235
1070
     1
1040
40.437804
1040
20.542235
1040
40.71211799999999
1040
20.608344
1070
     1
1040
40.71211799999999
1040
20.608344
1040
40.97822199999999
1040
20.69993399999999
1070
     1
1040
40.97822199999999
1040
20.69993399999999
1040
41.235564
1040
20.81532399999999
1070
     1
1040
41.235564
1040
20.81532399999999
1040
41.361299
1040
20.87918599999999
1070
     1
1040
41.361299
1040
20.87918599999999
1040
41.48297999999999
1040
20.950245
1070
     1
1040
41.48297999999999
1040
20.950245
1040
41.57561799999999
1040
21.014782
1070
     1
1040
41.57561799999999
1040
21.014782
1040
41.641621
1040
21.067895
1070
     1
1040
41.641621
1040
21.067895
1040
41.704176
1040
21.124947
1070
     1
1040
41.704176
1040
21.124947
1040
41.78170999999999
1040
21.20681499999999
1070
     1
1040
41.78170999999999
1040
21.20681499999999
1040
41.886125
1040
21.340089
1070
     1
1040
41.886125
1040
21.340089
1040
41.948068
1040
21.43459299999999
1070
     1
1040
41.948068
1040
21.43459299999999
1040
41.989546
1040
21.50838599999999
1070
     1
1040
41.989546
1040
21.50838599999999
1040
42.02581
1040
21.58482799999999
1070
     1
1040
42.02581
1040
21.58482799999999
1040
42.064953
1040
21.690806
1070
     1
1040
42.064953
1040
21.690806
1040
42.08734999999999
1040
21.77259999999999
1070
     1
1040
42.08734999999999
1040
21.77259999999999
1040
42.10387299999999
1040
21.855644
1070
     1
1040
42.10387299999999
1040
21.855644
1040
40.34302299999999
1040
21.855644
1070
     1
1040
40.34302299999999
1040
21.855644
1040
40.23475999999999
1040
21.775139
1070
     1
1040
40.23475999999999
1040
21.775139
1040
40.14934199999999
1040
21.72065499999999
1070
     1
1040
40.14934199999999
1040
21.72065499999999
1040
40.060776
1040
21.671433
1070
     1
1040
40.060776
1040
21.671433
1040
39.98475799999999
1040
21.634773
1070
     1
1040
39.98475799999999
1040
21.634773
1040
39.906576
1040
21.603307
1070
     1
1040
39.906576
1040
21.603307
1040
39.842277
1040
21.58263499999999
1070
     1
1040
39.842277
1040
21.58263499999999
1040
39.74365099999999
1040
21.559088
1070
     1
1040
39.74365099999999
1040
21.559088
1040
39.609337
1040
21.540536
1070
     1
1040
39.609337
1040
21.540536
1040
39.507639
1040
21.53565599999999
1070
     1
1040
39.507639
1040
21.53565599999999
1040
39.405809
1040
21.53798099999999
1070
     1
1040
39.405809
1040
21.53798099999999
1040
39.271392
1040
21.551496
1070
     1
1040
39.271392
1040
21.551496
1040
39.17168099999999
1040
21.569188
1070
     1
1040
39.17168099999999
1040
21.569188
1040
39.073329
1040
21.593186
1070
     1
1040
39.073329
1040
21.593186
1040
38.944884
1040
21.635037
1070
     1
1040
38.944884
1040
21.635037
1040
38.851395
1040
21.674301
1070
     1
1040
38.851395
1040
21.674301
1040
38.760981
1040
21.72084599999999
1070
     1
1040
38.760981
1040
21.72084599999999
1040
38.70284
1040
21.75613999999999
1070
     1
1040
38.70284
1040
21.75613999999999
1040
38.647077
1040
21.795104
1070
     1
1040
38.647077
1040
21.795104
1040
38.59445
1040
21.837967
1070
     1
1040
38.59445
1040
21.837967
1040
38.54571899999999
1040
21.88495599999999
1070
     1
1040
38.54571899999999
1040
21.88495599999999
1040
38.501642
1040
21.9363
1070
     1
1040
38.501642
1040
21.9363
1040
38.46287699999999
1040
21.99205
1070
     1
1040
38.46287699999999
1040
21.99205
1040
38.429669
1040
22.051562
1070
     1
1040
38.429669
1040
22.051562
1040
38.402161
1040
22.11401299999999
1070
     1
1040
38.402161
1040
22.11401299999999
1040
38.38049799999999
1040
22.178581
1070
     1
1040
38.38049799999999
1040
22.178581
1040
38.364823
1040
22.244444
1070
     1
1040
38.364823
1040
22.244444
1040
39.05107299999999
1040
22.244444
1070
     1
1040
38.364823
1040
23.079194
1040
39.15412299999999
1040
23.079194
1070
     1
1040
39.15412299999999
1040
23.079194
1040
40.34302299999999
1040
23.079194
1070
     1
1040
40.34302299999999
1040
23.079194
1040
40.339099
1040
23.116416
1070
     1
1040
40.339099
1040
23.116416
1040
40.333002
1040
23.153431
1070
     1
1040
40.333002
1040
23.153431
1040
40.324692
1040
23.19004899999999
1070
     1
1040
40.324692
1040
23.19004899999999
1040
40.314132
1040
23.226078
1070
     1
1040
40.314132
1040
23.226078
1040
40.301285
1040
23.261329
1070
     1
1040
40.301285
1040
23.261329
1040
40.286156
1040
23.295606
1070
     1
1040
40.286156
1040
23.295606
1040
40.268864
1040
23.32884599999999
1070
     1
1040
40.268864
1040
23.32884599999999
1040
40.24956699999999
1040
23.36098199999999
1070
     1
1040
40.24956699999999
1040
23.36098199999999
1040
40.228425
1040
23.39194399999999
1070
     1
1040
40.228425
1040
23.39194399999999
1040
40.205595
1040
23.42166399999999
1070
     1
1040
40.205595
1040
23.42166399999999
1040
40.155158
1040
23.47753399999999
1070
     1
1040
40.155158
1040
23.47753399999999
1040
40.113888
1040
23.516059
1070
     1
1040
40.113888
1040
23.516059
1040
40.070149
1040
23.551768
1070
     1
1040
40.070149
1040
23.551768
1040
40.008897
1040
23.59493599999999
1070
     1
1040
40.008897
1040
23.59493599999999
1040
39.960894
1040
23.624144
1070
     1
1040
39.960894
1040
23.624144
1040
39.911351
1040
23.65064299999999
1070
     1
1040
39.911351
1040
23.65064299999999
1040
39.84321299999999
1040
23.68180199999999
1070
     1
1040
39.84321299999999
1040
23.68180199999999
1040
39.737463
1040
23.719811
1070
     1
1040
39.737463
1040
23.719811
1040
39.665034
1040
23.739546
1070
     1
1040
39.665034
1040
23.739546
1040
39.554475
1040
23.760807
1070
     1
1040
39.554475
1040
23.760807
1040
39.479582
1040
23.769534
1070
     1
1040
39.479582
1040
23.769534
1040
39.366678
1040
23.77477
1070
     1
1040
39.366678
1040
23.77477
1040
39.291229
1040
23.773226
1070
     1
1040
39.291229
1040
23.773226
1040
39.178244
1040
23.762802
1070
     1
1040
39.178244
1040
23.762802
1040
39.104388
1040
23.74982399999999
1070
     1
1040
39.104388
1040
23.74982399999999
1040
39.06808499999999
1040
23.740847
1070
     1
1040
39.06808499999999
1040
23.740847
1040
39.032514
1040
23.729811
1070
     1
1040
39.032514
1040
23.729811
1040
38.997912
1040
23.716418
1070
     1
1040
38.997912
1040
23.716418
1040
38.964344
1040
23.700508
1070
     1
1040
38.964344
1040
23.700508
1040
38.834843
1040
23.625681
1070
     1
1040
38.834843
1040
23.625681
1040
38.671594
1040
23.535581
1070
     1
1040
38.671594
1040
23.535581
1040
38.640976
1040
23.51415999999999
1070
     1
1040
38.640976
1040
23.51415999999999
1040
38.61162499999999
1040
23.49087999999999
1070
     1
1040
38.61162499999999
1040
23.49087999999999
1040
38.58359099999999
1040
23.46591099999999
1070
     1
1040
38.58359099999999
1040
23.46591099999999
1040
38.53168099999999
1040
23.41159
1070
     1
1040
38.53168099999999
1040
23.41159
1040
38.485341
1040
23.352025
1070
     1
1040
38.485341
1040
23.352025
1040
38.454621
1040
23.304551
1070
     1
1040
38.454621
1040
23.304551
1040
38.427457
1040
23.25493199999999
1070
     1
1040
38.427457
1040
23.25493199999999
1040
38.39719999999999
1040
23.18647299999999
1070
     1
1040
38.39719999999999
1040
23.18647299999999
1040
38.37898
1040
23.133395
1070
     1
1040
38.37898
1040
23.133395
1040
38.364823
1040
23.079194
1071
        0
1070
     0
1070
     1
1040
0.0
1040
0.062992
1070
     0
1070
     1
1040
0.7853979999999999
1040
-6.225169999999999
1040
-28.624349
1040
-0.141421
1040
0.141421
1070
     0
1071
        1
1040
-6.225169999999999
1040
-28.624349
1040
0.0
1002
}
  0
INSERT
  5
8F
330
A
100
AcDbEntity
  8
CARTOUCHE
  6
CONTINUOUS
 62
     4
100
AcDbBlockReference
  2
*X21
 10
0.0
 20
0.0
 30
0.0
1001
ACAD
1000
HATCH
1002
{
1070
    19
1000
ANSI31
1040
0.062992
1040
0.0
1000
R14_HATCH_DATA
1000
8F
1011
1.0
1021
0.0
1031
0.0
1011
0.0
1021
1.0
1031
0.0
1011
0.0
1021
0.0
1031
1.0
1040
0.0
1010
0.0
1020
0.0
1030
1.0
1000
ANSI31
1070
     0
1070
     0
1071
        1
1071
        1
1071
       78
1070
     1
1040
42.732973
1040
24.508394
1040
42.732973
1040
20.63209399999999
1070
     1
1040
42.732973
1040
20.63209399999999
1040
44.459623
1040
20.63209399999999
1070
     1
1040
44.459623
1040
20.63209399999999
1040
44.459623
1040
22.782194
1070
     1
1040
44.459623
1040
22.782194
1040
44.46348799999999
1040
22.82556299999999
1070
     1
1040
44.46348799999999
1040
22.82556299999999
1040
44.470946
1040
22.86858599999999
1070
     1
1040
44.470946
1040
22.86858599999999
1040
44.48187899999999
1040
22.91099099999999
1070
     1
1040
44.48187899999999
1040
22.91099099999999
1040
44.49617199999999
1040
22.952504
1070
     1
1040
44.49617199999999
1040
22.952504
1040
44.513707
1040
22.992851
1070
     1
1040
44.513707
1040
22.992851
1040
44.534386
1040
23.031755
1070
     1
1040
44.534386
1040
23.031755
1040
44.55812199999999
1040
23.06881399999999
1070
     1
1040
44.55812199999999
1040
23.06881399999999
1040
44.58484099999999
1040
23.103624
1070
     1
1040
44.58484099999999
1040
23.103624
1040
44.61447299999999
1040
23.13578
1070
     1
1040
44.61447299999999
1040
23.13578
1040
44.646943
1040
23.164878
1070
     1
1040
44.646943
1040
23.164878
1040
44.682109
1040
23.190587
1070
     1
1040
44.682109
1040
23.190587
1040
44.719626
1040
23.212933
1070
     1
1040
44.719626
1040
23.212933
1040
44.759083
1040
23.232012
1070
     1
1040
44.759083
1040
23.232012
1040
44.80006699999999
1040
23.24791999999999
1070
     1
1040
44.80006699999999
1040
23.24791999999999
1040
44.84216599999999
1040
23.26075499999999
1070
     1
1040
44.84216599999999
1040
23.26075499999999
1040
44.88545499999999
1040
23.27065499999999
1070
     1
1040
44.88545499999999
1040
23.27065499999999
1040
44.92924099999999
1040
23.277344
1070
     1
1040
44.92924099999999
1040
23.277344
1040
44.973307
1040
23.280649
1070
     1
1040
44.973307
1040
23.280649
1040
45.017433
1040
23.280401
1070
     1
1040
45.017433
1040
23.280401
1040
45.06139899999999
1040
23.276428
1070
     1
1040
45.06139899999999
1040
23.276428
1040
45.10431899999999
1040
23.26873599999999
1070
     1
1040
45.10431899999999
1040
23.26873599999999
1040
45.146471
1040
23.257294
1070
     1
1040
45.146471
1040
23.257294
1040
45.18745599999999
1040
23.24213599999999
1070
     1
1040
45.18745599999999
1040
23.24213599999999
1040
45.226873
1040
23.22329299999999
1070
     1
1040
45.226873
1040
23.22329299999999
1040
45.264321
1040
23.200797
1070
     1
1040
45.264321
1040
23.200797
1040
45.29950399999999
1040
23.174642
1070
     1
1040
45.29950399999999
1040
23.174642
1040
45.331947
1040
23.145119
1070
     1
1040
45.331947
1040
23.145119
1040
45.36129099999999
1040
23.11249899999999
1070
     1
1040
45.36129099999999
1040
23.11249899999999
1040
45.38718099999999
1040
23.077054
1070
     1
1040
45.38718099999999
1040
23.077054
1040
45.409257
1040
23.03905599999999
1070
     1
1040
45.409257
1040
23.03905599999999
1040
45.427129
1040
22.999011
1070
     1
1040
45.427129
1040
22.999011
1040
45.440732
1040
22.957277
1070
     1
1040
45.440732
1040
22.957277
1040
45.44993
1040
22.91442299999999
1070
     1
1040
45.44993
1040
22.91442299999999
1040
45.45458899999999
1040
22.871022
1070
     1
1040
45.45458899999999
1040
22.871022
1040
45.455174
1040
22.849294
1070
     1
1040
45.455174
1040
22.849294
1040
45.45457299999999
1040
22.827644
1070
     1
1040
45.45457299999999
1040
22.827644
1040
45.45457299999999
1040
22.58779399999999
1070
     1
1040
45.45457299999999
1040
22.58779399999999
1040
47.28382299999999
1040
22.58779399999999
1070
     1
1040
47.28382299999999
1040
22.58779399999999
1040
47.30048
1040
22.741901
1070
     1
1040
47.30048
1040
22.741901
1040
47.308034
1040
22.896764
1070
     1
1040
47.308034
1040
22.896764
1040
47.30622299999999
1040
23.051921
1070
     1
1040
47.30622299999999
1040
23.051921
1040
47.295648
1040
23.206716
1070
     1
1040
47.295648
1040
23.206716
1040
47.276908
1040
23.360972
1070
     1
1040
47.276908
1040
23.360972
1040
47.2499
1040
23.514097
1070
     1
1040
47.2499
1040
23.514097
1040
47.221874
1040
23.635072
1070
     1
1040
47.221874
1040
23.635072
1040
47.19592
1040
23.724445
1070
     1
1040
47.19592
1040
23.724445
1040
47.16467999999999
1040
23.81204899999999
1070
     1
1040
47.16467999999999
1040
23.81204899999999
1040
47.113499
1040
23.92525
1070
     1
1040
47.113499
1040
23.92525
1040
47.067867
1040
24.006615
1070
     1
1040
47.067867
1040
24.006615
1040
47.016057
1040
24.0843
1070
     1
1040
47.016057
1040
24.0843
1040
46.97801799999999
1040
24.133848
1070
     1
1040
46.97801799999999
1040
24.133848
1040
46.937287
1040
24.181208
1070
     1
1040
46.937287
1040
24.181208
1040
46.893917
1040
24.226097
1070
     1
1040
46.893917
1040
24.226097
1040
46.847963
1040
24.26823
1070
     1
1040
46.847963
1040
24.26823
1040
46.799476
1040
24.307326
1070
     1
1040
46.799476
1040
24.307326
1040
46.74884699999999
1040
24.34298099999999
1070
     1
1040
46.74884699999999
1040
24.34298099999999
1040
46.696087
1040
24.37549699999999
1070
     1
1040
46.696087
1040
24.37549699999999
1040
46.613657
1040
24.418703
1070
     1
1040
46.613657
1040
24.418703
1040
46.528242
1040
24.455664
1070
     1
1040
46.528242
1040
24.455664
1040
46.410285
1040
24.496534
1070
     1
1040
46.410285
1040
24.496534
1040
46.22887999999999
1040
24.542872
1070
     1
1040
46.22887999999999
1040
24.542872
1040
46.106971
1040
24.566075
1070
     1
1040
46.106971
1040
24.566075
1040
45.92238599999999
1040
24.587821
1070
     1
1040
45.92238599999999
1040
24.587821
1040
45.798504
1040
24.591816
1070
     1
1040
45.798504
1040
24.591816
1040
45.61256799999999
1040
24.583703
1070
     1
1040
45.61256799999999
1040
24.583703
1040
45.457926
1040
24.566274
1070
     1
1040
45.457926
1040
24.566274
1040
45.304716
1040
24.539482
1070
     1
1040
45.304716
1040
24.539482
1040
45.183805
1040
24.51113499999999
1070
     1
1040
45.183805
1040
24.51113499999999
1040
45.00579899999999
1040
24.45603
1070
     1
1040
45.00579899999999
1040
24.45603
1040
44.89043399999999
1040
24.410518
1070
     1
1040
44.89043399999999
1040
24.410518
1040
44.777817
1040
24.358198
1070
     1
1040
44.777817
1040
24.358198
1040
44.668264
1040
24.29958
1070
     1
1040
44.668264
1040
24.29958
1040
44.459623
1040
24.165494
1070
     1
1040
44.459623
1040
24.165494
1040
44.459623
1040
24.508394
1070
     1
1040
44.459623
1040
24.508394
1040
42.732973
1040
24.508394
1071
        0
1070
     0
1070
     1
1040
0.0
1040
0.062992
1070
     0
1070
     1
1040
0.7853979999999999
1040
-6.225169999999999
1040
-28.624349
1040
-0.141421
1040
0.141421
1070
     0
1071
        1
1040
-6.225169999999999
1040
-28.624349
1040
0.0
1002
}
  0
LINE
  5
90
330
A
100
AcDbEntity
  8
CARTOUCHE
  6
CONTINUOUS
 62
     7
100
AcDbLine
 10
205.000037
 20
36.845156
 30
0.0
 11
5.0
 21
36.84546199999999
 31
0.0
  0
LINE
  5
91
330
A
100
AcDbEntity
  8
CARTOUCHE
  6
CONTINUOUS
 62
     7
100
AcDbLine
 10
153.33333
 20
20.002887
 30
0.0
 11
153.33333
 21
10.000945
 31
0.0
  0
TEXT
  5
94
330
A
100
AcDbEntity
  8
CARTOUCHE
  6
CONTINUOUS
 62
     2
100
AcDbText
 10
16.19481000410734
 20
14.3087821527781
 30
0.0
 40
1.8
  1
www.findernet.com
 50
359.9999079999999
 41
1.05
  7
FINDER
 72
     1
 11
27.500001
 21
14.308764
 31
0.0
100
AcDbText
  0
POLYLINE
  5
9B
330
A
100
AcDbEntity
  8
CARTOUCHE
  6
CONTINUOUS
 62
     7
100
AcDb2dPolyline
 66
     1
 10
0.0
 20
0.0
 30
0.0
 70
   129
  0
VERTEX
  5
5529
330
9B
100
AcDbEntity
  8
CARTOUCHE
  6
CONTINUOUS
 62
     7
100
AcDbVertex
100
AcDb2dVertex
 10
205.000037
 20
292.0001829999999
 30
0.0
  0
VERTEX
  5
552A
330
9B
100
AcDbEntity
  8
CARTOUCHE
  6
CONTINUOUS
 62
     7
100
AcDbVertex
100
AcDb2dVertex
 10
205.000037
 20
5.000182999999999
 30
0.0
  0
VERTEX
  5
552B
330
9B
100
AcDbEntity
  8
CARTOUCHE
  6
CONTINUOUS
 62
     7
100
AcDbVertex
100
AcDb2dVertex
 10
5.0
 20
5.0
 30
0.0
  0
VERTEX
  5
552C
330
9B
100
AcDbEntity
  8
CARTOUCHE
  6
CONTINUOUS
 62
     7
100
AcDbVertex
100
AcDb2dVertex
 10
5.0
 20
292.0
 30
0.0
  0
VERTEX
  5
552D
330
9B
100
AcDbEntity
  8
CARTOUCHE
  6
CONTINUOUS
 62
     7
100
AcDbVertex
100
AcDb2dVertex
 10
204.999774
 20
292.0001829999999
 30
0.0
  0
SEQEND
  5
552E
330
9B
100
AcDbEntity
  8
CARTOUCHE
  6
CONTINUOUS
 62
     7
  0
TEXT
  5
AA
330
A
100
AcDbEntity
  8
CARTOUCHE
  6
CONTINUOUS
 62
     7
100
AcDbText
 10
124.8655431664426
 20
16.62422623011807
 30
0.0
 40
1.8
  1
DATE
 50
359.9999079999999
 41
0.8
  7
FINDER
 72
     1
 11
127.4999769999999
 21
16.62422199999999
 31
0.0
100
AcDbText
  0
TEXT
  5
AB
330
A
100
AcDbEntity
  8
CARTOUCHE
  6
CONTINUOUS
 62
     1
100
AcDbText
 10
121.6457614474836
 20
11.77620840013096
 30
0.0
 40
2.1
  1
19/02/2003
 50
359.9999079999999
 41
0.8
  7
FINDER
 72
     1
 11
127.4999769999999
 21
11.776199
 31
0.0
100
AcDbText
  0
TEXT
  5
AC
330
A
100
AcDbEntity
  8
CARTOUCHE
  6
CONTINUOUS
 62
     7
100
AcDbText
 10
175.8682102523916
 20
16.62414829632233
 30
0.0
 40
1.8
  1
SCALE
 50
359.9999079999999
 41
0.8
  7
FINDER
 72
     1
 11
179.1666549999999
 21
16.624143
 31
0.0
100
AcDbText
  0
TEXT
  5
AD
330
A
100
AcDbEntity
  8
CARTOUCHE
  6
CONTINUOUS
 62
     1
100
AcDbText
 10
177.5542675511617
 20
11.77612258901522
 30
0.0
 40
2.1
  1
1:1
 50
359.9999079999999
 41
0.8
  7
FINDER
 72
     1
 11
179.1666549999999
 21
11.77612
 31
0.0
100
AcDbText
  0
TEXT
  5
AE
330
A
100
AcDbEntity
  8
CARTOUCHE
  6
CONTINUOUS
 62
     1
100
AcDbText
 10
123.7706594856801
 20
22.43595998819847
 30
0.0
 40
3.0
  1
8502
 50
359.9999079999999
 41
0.8
  7
FINDER
 72
     1
 11
127.499991
 21
22.435954
 31
0.0
100
AcDbText
  0
POLYLINE
  5
4983
330
A
100
AcDbEntity
  8
DRAW
  6
CONTINUOUS
100
AcDb2dPolyline
 66
     1
 10
0.0
 20
0.0
 30
0.0
 70
     1
  0
VERTEX
  5
5532
330
4983
100
AcDbEntity
  8
DRAW
  6
CONTINUOUS
100
AcDbVertex
100
AcDb2dVertex
 10
24.75
 20
200.5472319999999
 30
0.0
  0
VERTEX
  5
5533
330
4983
100
AcDbEntity
  8
DRAW
  6
CONTINUOUS
100
AcDbVertex
100
AcDb2dVertex
 10
45.45
 20
200.5472319999999
 30
0.0
  0
VERTEX
  5
5534
330
4983
100
AcDbEntity
  8
DRAW
  6
CONTINUOUS
100
AcDbVertex
100
AcDb2dVertex
 10
45.45
 20
172.847232
 30
0.0
  0
VERTEX
  5
5535
330
4983
100
AcDbEntity
  8
DRAW
  6
CONTINUOUS
100
AcDbVertex
100
AcDb2dVertex
 10
24.75
 20
172.847232
 30
0.0
  0
SEQEND
  5
5536
330
4983
100
AcDbEntity
  8
DRAW
  6
CONTINUOUS
  0
CIRCLE
  5
4984
330
A
100
AcDbEntity
  8
DRAW
  6
CONTINUOUS
100
AcDbCircle
 10
35.1
 20
191.297232
 30
0.0
 40
7.25
  0
LINE
  5
4985
330
A
100
AcDbEntity
  8
DRAW
  6
CONTINUOUS
100
AcDbLine
 10
25.8
 20
183.047232
 30
0.0
 11
44.4
 21
183.047232
 31
0.0
  0
LINE
  5
4986
330
A
100
AcDbEntity
  8
DRAW
  6
CONTINUOUS
100
AcDbLine
 10
24.75
 20
178.047232
 30
0.0
 11
25.8
 21
178.047232
 31
0.0
  0
POLYLINE
  5
4987
330
A
100
AcDbEntity
  8
DRAW
  6
CONTINUOUS
100
AcDb2dPolyline
 66
     1
 10
0.0
 20
0.0
 30
0.0
  0
VERTEX
  5
5537
330
4987
100
AcDbEntity
  8
DRAW
  6
CONTINUOUS
100
AcDbVertex
100
AcDb2dVertex
 10
25.8
 20
178.047232
 30
0.0
  0
VERTEX
  5
5538
330
4987
100
AcDbEntity
  8
DRAW
  6
CONTINUOUS
100
AcDbVertex
100
AcDb2dVertex
 10
25.8
 20
183.047232
 30
0.0
  0
SEQEND
  5
5539
330
4987
100
AcDbEntity
  8
DRAW
  6
CONTINUOUS
  0
LINE
  5
4989
330
A
100
AcDbEntity
  8
DRAW
  6
CONTINUOUS
100
AcDbLine
 10
44.4
 20
178.047232
 30
0.0
 11
45.45
 21
178.047232
 31
0.0
  0
POLYLINE
  5
498A
330
A
100
AcDbEntity
  8
DRAW
  6
CONTINUOUS
100
AcDb2dPolyline
 66
     1
 10
0.0
 20
0.0
 30
0.0
  0
VERTEX
  5
553A
330
498A
100
AcDbEntity
  8
DRAW
  6
CONTINUOUS
100
AcDbVertex
100
AcDb2dVertex
 10
44.4
 20
183.047232
 30
0.0
  0
VERTEX
  5
553B
330
498A
100
AcDbEntity
  8
DRAW
  6
CONTINUOUS
100
AcDbVertex
100
AcDb2dVertex
 10
44.4
 20
178.047232
 30
0.0
  0
SEQEND
  5
553C
330
498A
100
AcDbEntity
  8
DRAW
  6
CONTINUOUS
  0
CIRCLE
  5
498D
330
A
100
AcDbEntity
  8
DRAW
  6
CONTINUOUS
100
AcDbCircle
 10
27.5
 20
180.5472319999999
 30
0.0
 40
1.5
  0
LINE
  5
4991
330
A
100
AcDbEntity
  8
DRAW
  6
CONTINUOUS
100
AcDbLine
 10
30.1
 20
178.247232
 30
0.0
 11
42.49638798018622
 21
178.247232
 31
0.0
  0
LINE
  5
4992
330
A
100
AcDbEntity
  8
DRAW
  6
CONTINUOUS
100
AcDbLine
 10
42.49638798018622
 20
178.247232
 30
0.0
 11
42.49638798018622
 21
182.847232
 31
0.0
  0
LINE
  5
4993
330
A
100
AcDbEntity
  8
DRAW
  6
CONTINUOUS
100
AcDbLine
 10
42.49638798018622
 20
182.847232
 30
0.0
 11
30.1
 21
182.847232
 31
0.0
  0
LINE
  5
4994
330
A
100
AcDbEntity
  8
DRAW
  6
CONTINUOUS
100
AcDbLine
 10
30.1
 20
182.847232
 30
0.0
 11
30.1
 21
178.247232
 31
0.0
  0
LINE
  5
4998
330
A
100
AcDbEntity
  8
DRAW
  6
CONTINUOUS
100
AcDbLine
 10
32.1
 20
182.347232
 30
0.0
 11
32.1
 21
178.747232
 31
0.0
  0
LINE
  5
4999
330
A
100
AcDbEntity
  8
DRAW
  6
CONTINUOUS
100
AcDbLine
 10
34.6
 20
182.347232
 30
0.0
 11
34.6
 21
178.747232
 31
0.0
  0
LINE
  5
499A
330
A
100
AcDbEntity
  8
DRAW
  6
CONTINUOUS
100
AcDbLine
 10
37.1
 20
182.347232
 30
0.0
 11
37.1
 21
178.747232
 31
0.0
  0
LINE
  5
499B
330
A
100
AcDbEntity
  8
DRAW
  6
CONTINUOUS
100
AcDbLine
 10
33.1
 20
182.347232
 30
0.0
 11
33.1
 21
178.747232
 31
0.0
  0
LINE
  5
499C
330
A
100
AcDbEntity
  8
DRAW
  6
CONTINUOUS
100
AcDbLine
 10
35.6
 20
182.347232
 30
0.0
 11
35.6
 21
178.747232
 31
0.0
  0
LINE
  5
499D
330
A
100
AcDbEntity
  8
DRAW
  6
CONTINUOUS
100
AcDbLine
 10
38.1
 20
182.347232
 30
0.0
 11
38.1
 21
178.747232
 31
0.0
  0
LINE
  5
499E
330
A
100
AcDbEntity
  8
DRAW
  6
CONTINUOUS
100
AcDbLine
 10
30.6
 20
178.747232
 30
0.0
 11
32.1
 21
178.747232
 31
0.0
  0
LINE
  5
499F
330
A
100
AcDbEntity
  8
DRAW
  6
CONTINUOUS
100
AcDbLine
 10
39.6
 20
182.347232
 30
0.0
 11
38.1
 21
182.347232
 31
0.0
  0
LINE
  5
49A0
330
A
100
AcDbEntity
  8
DRAW
  6
CONTINUOUS
100
AcDbLine
 10
32.1
 20
182.347232
 30
0.0
 11
30.6
 21
182.347232
 31
0.0
  0
LINE
  5
49A1
330
A
100
AcDbEntity
  8
DRAW
  6
CONTINUOUS
100
AcDbLine
 10
33.1
 20
178.747232
 30
0.0
 11
34.6
 21
178.747232
 31
0.0
  0
LINE
  5
49A2
330
A
100
AcDbEntity
  8
DRAW
  6
CONTINUOUS
100
AcDbLine
 10
35.6
 20
178.747232
 30
0.0
 11
37.1
 21
178.747232
 31
0.0
  0
LINE
  5
49A3
330
A
100
AcDbEntity
  8
DRAW
  6
CONTINUOUS
100
AcDbLine
 10
34.6
 20
182.347232
 30
0.0
 11
33.1
 21
182.347232
 31
0.0
  0
LINE
  5
49A4
330
A
100
AcDbEntity
  8
DRAW
  6
CONTINUOUS
100
AcDbLine
 10
37.1
 20
182.347232
 30
0.0
 11
35.6
 21
182.347232
 31
0.0
  0
LINE
  5
49A5
330
A
100
AcDbEntity
  8
DRAW
  6
CONTINUOUS
100
AcDbLine
 10
38.1
 20
178.747232
 30
0.0
 11
39.6
 21
178.747232
 31
0.0
  0
LINE
  5
49A6
330
A
100
AcDbEntity
  8
DRAW
  6
CONTINUOUS
100
AcDbLine
 10
39.6
 20
182.347232
 30
0.0
 11
39.6
 21
178.747232
 31
0.0
  0
LINE
  5
49A7
330
A
100
AcDbEntity
  8
DRAW
  6
CONTINUOUS
100
AcDbLine
 10
30.6
 20
182.347232
 30
0.0
 11
30.6
 21
178.747232
 31
0.0
  0
POLYLINE
  5
49AA
330
A
100
AcDbEntity
  8
DRAW
  6
CONTINUOUS
100
AcDb2dPolyline
 66
     1
 10
0.0
 20
0.0
 30
0.0
 70
     1
  0
VERTEX
  5
553D
330
49AA
100
AcDbEntity
  8
DRAW
  6
CONTINUOUS
100
AcDbVertex
100
AcDb2dVertex
 10
30.8
 20
182.1472319999999
 30
0.0
  0
VERTEX
  5
553E
330
49AA
100
AcDbEntity
  8
DRAW
  6
CONTINUOUS
100
AcDbVertex
100
AcDb2dVertex
 10
31.89999999999999
 20
182.1472319999999
 30
0.0
  0
VERTEX
  5
553F
330
49AA
100
AcDbEntity
  8
DRAW
  6
CONTINUOUS
100
AcDbVertex
100
AcDb2dVertex
 10
31.89999999999999
 20
180.747232
 30
0.0
  0
VERTEX
  5
5540
330
49AA
100
AcDbEntity
  8
DRAW
  6
CONTINUOUS
100
AcDbVertex
100
AcDb2dVertex
 10
30.8
 20
180.747232
 30
0.0
  0
SEQEND
  5
5541
330
49AA
100
AcDbEntity
  8
DRAW
  6
CONTINUOUS
  0
POLYLINE
  5
49AB
330
A
100
AcDbEntity
  8
DRAW
  6
CONTINUOUS
100
AcDb2dPolyline
 66
     1
 10
0.0
 20
0.0
 30
0.0
 70
     1
  0
VERTEX
  5
5542
330
49AB
100
AcDbEntity
  8
DRAW
  6
CONTINUOUS
100
AcDbVertex
100
AcDb2dVertex
 10
33.3
 20
182.1472319999999
 30
0.0
  0
VERTEX
  5
5543
330
49AB
100
AcDbEntity
  8
DRAW
  6
CONTINUOUS
100
AcDbVertex
100
AcDb2dVertex
 10
34.39999999999999
 20
182.1472319999999
 30
0.0
  0
VERTEX
  5
5544
330
49AB
100
AcDbEntity
  8
DRAW
  6
CONTINUOUS
100
AcDbVertex
100
AcDb2dVertex
 10
34.39999999999999
 20
180.747232
 30
0.0
  0
VERTEX
  5
5545
330
49AB
100
AcDbEntity
  8
DRAW
  6
CONTINUOUS
100
AcDbVertex
100
AcDb2dVertex
 10
33.3
 20
180.747232
 30
0.0
  0
SEQEND
  5
5546
330
49AB
100
AcDbEntity
  8
DRAW
  6
CONTINUOUS
  0
POLYLINE
  5
49AC
330
A
100
AcDbEntity
  8
DRAW
  6
CONTINUOUS
100
AcDb2dPolyline
 66
     1
 10
0.0
 20
0.0
 30
0.0
 70
     1
  0
VERTEX
  5
5547
330
49AC
100
AcDbEntity
  8
DRAW
  6
CONTINUOUS
100
AcDbVertex
100
AcDb2dVertex
 10
35.8
 20
182.1472319999999
 30
0.0
  0
VERTEX
  5
5548
330
49AC
100
AcDbEntity
  8
DRAW
  6
CONTINUOUS
100
AcDbVertex
100
AcDb2dVertex
 10
36.89999999999999
 20
182.1472319999999
 30
0.0
  0
VERTEX
  5
5549
330
49AC
100
AcDbEntity
  8
DRAW
  6
CONTINUOUS
100
AcDbVertex
100
AcDb2dVertex
 10
36.89999999999999
 20
180.747232
 30
0.0
  0
VERTEX
  5
554A
330
49AC
100
AcDbEntity
  8
DRAW
  6
CONTINUOUS
100
AcDbVertex
100
AcDb2dVertex
 10
35.8
 20
180.747232
 30
0.0
  0
SEQEND
  5
554B
330
49AC
100
AcDbEntity
  8
DRAW
  6
CONTINUOUS
  0
POLYLINE
  5
49AD
330
A
100
AcDbEntity
  8
DRAW
  6
CONTINUOUS
100
AcDb2dPolyline
 66
     1
 10
0.0
 20
0.0
 30
0.0
 70
     1
  0
VERTEX
  5
554C
330
49AD
100
AcDbEntity
  8
DRAW
  6
CONTINUOUS
100
AcDbVertex
100
AcDb2dVertex
 10
38.3
 20
182.1472319999999
 30
0.0
  0
VERTEX
  5
554D
330
49AD
100
AcDbEntity
  8
DRAW
  6
CONTINUOUS
100
AcDbVertex
100
AcDb2dVertex
 10
39.39999999999999
 20
182.1472319999999
 30
0.0
  0
VERTEX
  5
554E
330
49AD
100
AcDbEntity
  8
DRAW
  6
CONTINUOUS
100
AcDbVertex
100
AcDb2dVertex
 10
39.39999999999999
 20
180.747232
 30
0.0
  0
VERTEX
  5
554F
330
49AD
100
AcDbEntity
  8
DRAW
  6
CONTINUOUS
100
AcDbVertex
100
AcDb2dVertex
 10
38.3
 20
180.747232
 30
0.0
  0
SEQEND
  5
5550
330
49AD
100
AcDbEntity
  8
DRAW
  6
CONTINUOUS
  0
TEXT
  5
49AE
330
A
100
AcDbEntity
  8
DRAW-TEXT
100
AcDbText
 10
30.78417462482947
 20
176.1941624229195
 30
0.0
 40
1.5
  1
1
  7
FINDER
 72
     4
 11
31.35
 21
176.947232
 31
0.0
100
AcDbText
  0
TEXT
  5
49AF
330
A
100
AcDbEntity
  8
DRAW-TEXT
100
AcDbText
 10
33.26729195088676
 20
176.1941624229195
 30
0.0
 40
1.5
  1
2
  7
FINDER
 72
     4
 11
33.85
 21
176.947232
 31
0.0
100
AcDbText
  0
TEXT
  5
49B0
330
A
100
AcDbEntity
  8
DRAW-TEXT
100
AcDbText
 10
35.76729195088676
 20
176.2074639236016
 30
0.0
 40
1.5
  1
3
  7
FINDER
 72
     4
 11
36.35
 21
176.947232
 31
0.0
100
AcDbText
  0
TEXT
  5
49B1
330
A
100
AcDbEntity
  8
DRAW-TEXT
100
AcDbText
 10
38.26729195088676
 20
176.197232
 30
0.0
 40
1.5
  1
4
  7
FINDER
 72
     4
 11
38.85
 21
176.947232
 31
0.0
100
AcDbText
  0
CIRCLE
  5
49B7
330
A
100
AcDbEntity
  8
DRAW
  6
CONTINUOUS
100
AcDbCircle
 10
35.1
 20
191.297232
 30
0.0
 40
2.0
  0
LINE
  5
49CF
330
A
100
AcDbEntity
  8
DRAW
  6
CONTINUOUS
100
AcDbLine
 10
39.855283
 20
189.752147
 30
0.0
 11
41.99516
 21
189.0568589999999
 31
0.0
  0
LINE
  5
49D0
330
A
100
AcDbEntity
  8
DRAW
  6
CONTINUOUS
100
AcDbLine
 10
40.03844199999999
 20
192.079404
 30
0.0
 11
42.26074
 21
192.431382
 31
0.0
  0
LINE
  5
49D1
330
A
100
AcDbEntity
  8
DRAW
  6
CONTINUOUS
100
AcDbLine
 10
39.14508499999999
 20
194.236158
 30
0.0
 11
40.965373
 21
195.5586749999999
 31
0.0
  0
LINE
  5
49D2
330
A
100
AcDbEntity
  8
DRAW
  6
CONTINUOUS
100
AcDbLine
 10
32.830048
 20
195.7522649999999
 30
0.0
 11
31.808569
 21
197.757029
 31
0.0
  0
LINE
  5
49D3
330
A
100
AcDbEntity
  8
DRAW
  6
CONTINUOUS
100
AcDbLine
 10
35.1
 20
196.297232
 30
0.0
 11
35.1
 21
198.547232
 31
0.0
  0
LINE
  5
49D4
330
A
100
AcDbEntity
  8
DRAW
  6
CONTINUOUS
100
AcDbLine
 10
37.369952
 20
195.7522649999999
 30
0.0
 11
38.39143099999999
 21
197.757029
 31
0.0
  0
LINE
  5
49D5
330
A
100
AcDbEntity
  8
DRAW
  6
CONTINUOUS
100
AcDbLine
 10
30.161558
 20
192.079404
 30
0.0
 11
27.93925999999999
 21
192.431382
 31
0.0
  0
LINE
  5
49D6
330
A
100
AcDbEntity
  8
DRAW
  6
CONTINUOUS
100
AcDbLine
 10
31.054915
 20
194.236158
 30
0.0
 11
29.234627
 21
195.5586749999999
 31
0.0
  0
LINE
  5
49D7
330
A
100
AcDbEntity
  8
DRAW
  6
CONTINUOUS
100
AcDbLine
 10
30.344717
 20
189.752147
 30
0.0
 11
28.20484
 21
189.0568589999999
 31
0.0
  0
LINE
  5
49D8
330
A
100
AcDbEntity
  8
DRAW
  6
CONTINUOUS
100
AcDbLine
 10
33.685786
 20
189.8830189999999
 30
0.0
 11
29.973476
 21
186.170708
 31
0.0
  0
LINE
  5
49D9
330
A
100
AcDbEntity
  8
DRAW
  6
CONTINUOUS
100
AcDbLine
 10
36.514214
 20
189.8830189999999
 30
0.0
 11
40.226524
 21
186.170708
 31
0.0
  0
LINE
  5
4A27
330
A
100
AcDbEntity
  8
DRAW
  6
CONTINUOUS
100
AcDbLine
 10
40.215841
 20
188.162241
 30
0.0
 11
41.281641
 21
187.509117
 31
0.0
  0
LINE
  5
4A28
330
A
100
AcDbEntity
  8
DRAW
  6
CONTINUOUS
100
AcDbLine
 10
41.08150399999999
 20
190.826477
 30
0.0
 11
42.327651
 21
190.728404
 31
0.0
  0
LINE
  5
4A29
330
A
100
AcDbEntity
  8
DRAW
  6
CONTINUOUS
100
AcDbLine
 10
40.643277
 20
193.593333
 30
0.0
 11
41.798127
 21
194.0716869999999
 31
0.0
  0
LINE
  5
4A2A
330
A
100
AcDbEntity
  8
DRAW
  6
CONTINUOUS
100
AcDbLine
 10
38.996688
 20
195.859668
 30
0.0
 11
39.808498
 21
196.8101749999999
 31
0.0
  0
LINE
  5
4A2B
330
A
100
AcDbEntity
  8
DRAW
  6
CONTINUOUS
100
AcDbLine
 10
36.50067199999999
 20
197.1314519999999
 30
0.0
 11
36.792479
 21
198.346914
 31
0.0
  0
LINE
  5
4A2C
330
A
100
AcDbEntity
  8
DRAW
  6
CONTINUOUS
100
AcDbLine
 10
33.699328
 20
197.1314519999999
 30
0.0
 11
33.407521
 21
198.346914
 31
0.0
  0
LINE
  5
4A2D
330
A
100
AcDbEntity
  8
DRAW
  6
CONTINUOUS
100
AcDbLine
 10
31.203312
 20
195.859668
 30
0.0
 11
30.391502
 21
196.8101749999999
 31
0.0
  0
LINE
  5
4A2E
330
A
100
AcDbEntity
  8
DRAW
  6
CONTINUOUS
100
AcDbLine
 10
29.55672299999999
 20
193.593333
 30
0.0
 11
28.401873
 21
194.0716869999999
 31
0.0
  0
LINE
  5
4A2F
330
A
100
AcDbEntity
  8
DRAW
  6
CONTINUOUS
100
AcDbLine
 10
29.118496
 20
190.826477
 30
0.0
 11
27.872349
 21
190.728404
 31
0.0
  0
LINE
  5
4A30
330
A
100
AcDbEntity
  8
DRAW
  6
CONTINUOUS
100
AcDbLine
 10
29.984159
 20
188.162241
 30
0.0
 11
28.918359
 21
187.509117
 31
0.0
  0
POLYLINE
  5
4A34
330
A
100
AcDbEntity
  8
DRAW
  6
CONTINUOUS
100
AcDb2dPolyline
 66
     1
 10
0.0
 20
0.0
 30
0.0
 70
     1
  0
VERTEX
  5
5551
330
4A34
100
AcDbEntity
  8
DRAW
  6
CONTINUOUS
100
AcDbVertex
100
AcDb2dVertex
 10
33.697082
 20
192.049612
 30
0.0
  0
VERTEX
  5
5552
330
4A34
100
AcDbEntity
  8
DRAW
  6
CONTINUOUS
100
AcDbVertex
100
AcDb2dVertex
 10
34.350127
 20
192.702657
 30
0.0
  0
VERTEX
  5
5553
330
4A34
100
AcDbEntity
  8
DRAW
  6
CONTINUOUS
100
AcDbVertex
100
AcDb2dVertex
 10
36.505425
 20
190.5473589999999
 30
0.0
  0
VERTEX
  5
5554
330
4A34
100
AcDbEntity
  8
DRAW
  6
CONTINUOUS
100
AcDbVertex
100
AcDb2dVertex
 10
35.85237999999999
 20
189.8943139999999
 30
0.0
  0
SEQEND
  5
5555
330
4A34
100
AcDbEntity
  8
DRAW
  6
CONTINUOUS
  0
LINE
  5
4A37
330
A
100
AcDbEntity
  8
DRAW
  6
CONTINUOUS
100
AcDbLine
 10
81.160683
 20
200.5421039999999
 30
0.0
 11
138.160683
 21
199.952257
 31
0.0
  0
LINE
  5
4A38
330
A
100
AcDbEntity
  8
DRAW
  6
CONTINUOUS
100
AcDbLine
 10
81.16085099999999
 20
172.8525319999999
 30
0.0
 11
136.260851
 21
173.442042
 31
0.0
  0
LINE
  5
4A39
330
A
100
AcDbEntity
  8
DRAW
  6
CONTINUOUS
100
AcDbLine
 10
80.65560699999998
 20
200.04213
 30
0.0
 11
80.65560699999998
 21
173.352504
 31
0.0
  0
LINE
  5
4A3A
330
A
100
AcDbEntity
  8
DRAW
  6
CONTINUOUS
100
AcDbLine
 10
138.655607
 20
199.452282
 30
0.0
 11
138.655607
 21
179.547232
 31
0.0
  0
LINE
  5
4A3B
330
A
100
AcDbEntity
  8
DRAW
  6
CONTINUOUS
100
AcDbLine
 10
136.755607
 20
178.047232
 30
0.0
 11
136.755607
 21
173.9420149999999
 31
0.0
  0
LINE
  5
4A40
330
A
100
AcDbEntity
  8
DRAW
  6
CONTINUOUS
100
AcDbLine
 10
136.2556069999999
 20
173.447232
 30
0.0
 11
136.2556069999999
 21
199.947232
 31
0.0
  0
ARC
  5
4A4A
330
A
100
AcDbEntity
  8
DRAW
  6
CONTINUOUS
100
AcDbCircle
 10
136.2556069999999
 20
173.9420149999999
 30
0.0
 40
0.5
100
AcDbArc
 50
270.6009829999999
 51
0.0
  0
ARC
  5
4A4B
330
A
100
AcDbEntity
  8
DRAW
  6
CONTINUOUS
100
AcDbCircle
 10
138.155607
 20
199.452282
 30
0.0
 40
0.5
100
AcDbArc
 50
0.0
 51
89.418337
  0
ARC
  5
4A4C
330
A
100
AcDbEntity
  8
DRAW
  6
CONTINUOUS
100
AcDbCircle
 10
81.15560699999999
 20
200.04213
 30
0.0
 40
0.5
100
AcDbArc
 50
89.418337
 51
180.0
  0
ARC
  5
4A4D
330
A
100
AcDbEntity
  8
DRAW
  6
CONTINUOUS
100
AcDbCircle
 10
81.15560699999999
 20
173.352504
 30
0.0
 40
0.5
100
AcDbArc
 50
180.0
 51
270.6009829999999
  0
LINE
  5
4A51
330
A
100
AcDbEntity
  8
DRAW
  6
CONTINUOUS
100
AcDbLine
 10
136.755607
 20
178.047232
 30
0.0
 11
138.655607
 21
179.547232
 31
0.0
  0
LINE
  5
4A53
330
A
100
AcDbEntity
  8
DRAW
  6
CONTINUOUS
100
AcDbLine
 10
45.45
 20
179.547232
 30
0.0
 11
44.4
 21
179.547232
 31
0.0
  0
LINE
  5
4A54
330
A
100
AcDbEntity
  8
DRAW
  6
CONTINUOUS
100
AcDbLine
 10
25.8
 20
179.547232
 30
0.0
 11
24.75
 21
179.547232
 31
0.0
  0
LINE
  5
4A56
330
A
100
AcDbEntity
  8
DRAW
  6
CONTINUOUS
100
AcDbLine
 10
138.655607
 20
198.047232
 30
0.0
 11
142.121632
 21
198.047232
 31
0.0
  0
LINE
  5
4A57
330
A
100
AcDbEntity
  8
DRAW
  6
CONTINUOUS
100
AcDbLine
 10
138.655607
 20
197.547232
 30
0.0
 11
142.2556069999999
 21
197.547232
 31
0.0
  0
LINE
  5
4A58
330
A
100
AcDbEntity
  8
DRAW
  6
CONTINUOUS
100
AcDbLine
 10
138.655607
 20
197.047232
 30
0.0
 11
142.2556069999999
 21
197.047232
 31
0.0
  0
LINE
  5
4A59
330
A
100
AcDbEntity
  8
DRAW
  6
CONTINUOUS
100
AcDbLine
 10
138.655607
 20
196.547232
 30
0.0
 11
142.2556069999999
 21
196.547232
 31
0.0
  0
LINE
  5
4A5A
330
A
100
AcDbEntity
  8
DRAW
  6
CONTINUOUS
100
AcDbLine
 10
138.655607
 20
196.047232
 30
0.0
 11
142.2556069999999
 21
196.047232
 31
0.0
  0
LINE
  5
4A5B
330
A
100
AcDbEntity
  8
DRAW
  6
CONTINUOUS
100
AcDbLine
 10
138.655607
 20
195.547232
 30
0.0
 11
142.2556069999999
 21
195.547232
 31
0.0
  0
LINE
  5
4A5C
330
A
100
AcDbEntity
  8
DRAW
  6
CONTINUOUS
100
AcDbLine
 10
138.655607
 20
195.047232
 30
0.0
 11
142.2556069999999
 21
195.047232
 31
0.0
  0
LINE
  5
4A5D
330
A
100
AcDbEntity
  8
DRAW
  6
CONTINUOUS
100
AcDbLine
 10
138.655607
 20
194.547232
 30
0.0
 11
142.2556069999999
 21
194.547232
 31
0.0
  0
LINE
  5
4A5E
330
A
100
AcDbEntity
  8
DRAW
  6
CONTINUOUS
100
AcDbLine
 10
138.655607
 20
194.0472319999999
 30
0.0
 11
142.2556069999999
 21
194.0472319999999
 31
0.0
  0
LINE
  5
4A5F
330
A
100
AcDbEntity
  8
DRAW
  6
CONTINUOUS
100
AcDbLine
 10
138.655607
 20
193.547232
 30
0.0
 11
142.2556069999999
 21
193.547232
 31
0.0
  0
LINE
  5
4A60
330
A
100
AcDbEntity
  8
DRAW
  6
CONTINUOUS
100
AcDbLine
 10
138.655607
 20
193.0472319999999
 30
0.0
 11
142.2556069999999
 21
193.0472319999999
 31
0.0
  0
LINE
  5
4A61
330
A
100
AcDbEntity
  8
DRAW
  6
CONTINUOUS
100
AcDbLine
 10
138.655607
 20
192.547232
 30
0.0
 11
142.2556069999999
 21
192.547232
 31
0.0
  0
LINE
  5
4A62
330
A
100
AcDbEntity
  8
DRAW
  6
CONTINUOUS
100
AcDbLine
 10
138.655607
 20
192.047232
 30
0.0
 11
142.2556069999999
 21
192.047232
 31
0.0
  0
LINE
  5
4A63
330
A
100
AcDbEntity
  8
DRAW
  6
CONTINUOUS
100
AcDbLine
 10
138.655607
 20
191.547232
 30
0.0
 11
142.2556069999999
 21
191.547232
 31
0.0
  0
LINE
  5
4A64
330
A
100
AcDbEntity
  8
DRAW
  6
CONTINUOUS
100
AcDbLine
 10
138.655607
 20
191.047232
 30
0.0
 11
142.2556069999999
 21
191.047232
 31
0.0
  0
LINE
  5
4A65
330
A
100
AcDbEntity
  8
DRAW
  6
CONTINUOUS
100
AcDbLine
 10
138.655607
 20
190.547232
 30
0.0
 11
142.2556069999999
 21
190.547232
 31
0.0
  0
LINE
  5
4A66
330
A
100
AcDbEntity
  8
DRAW
  6
CONTINUOUS
100
AcDbLine
 10
138.655607
 20
190.047232
 30
0.0
 11
142.2556069999999
 21
190.047232
 31
0.0
  0
LINE
  5
4A67
330
A
100
AcDbEntity
  8
DRAW
  6
CONTINUOUS
100
AcDbLine
 10
138.655607
 20
189.547232
 30
0.0
 11
142.2556069999999
 21
189.547232
 31
0.0
  0
LINE
  5
4A68
330
A
100
AcDbEntity
  8
DRAW
  6
CONTINUOUS
100
AcDbLine
 10
138.655607
 20
189.047232
 30
0.0
 11
142.2556069999999
 21
189.047232
 31
0.0
  0
LINE
  5
4A69
330
A
100
AcDbEntity
  8
DRAW
  6
CONTINUOUS
100
AcDbLine
 10
138.655607
 20
188.547232
 30
0.0
 11
142.2556069999999
 21
188.547232
 31
0.0
  0
LINE
  5
4A6A
330
A
100
AcDbEntity
  8
DRAW
  6
CONTINUOUS
100
AcDbLine
 10
138.655607
 20
188.047232
 30
0.0
 11
142.2556069999999
 21
188.047232
 31
0.0
  0
LINE
  5
4A6B
330
A
100
AcDbEntity
  8
DRAW
  6
CONTINUOUS
100
AcDbLine
 10
138.655607
 20
187.547232
 30
0.0
 11
142.2556069999999
 21
187.547232
 31
0.0
  0
LINE
  5
4A6C
330
A
100
AcDbEntity
  8
DRAW
  6
CONTINUOUS
100
AcDbLine
 10
138.655607
 20
187.047232
 30
0.0
 11
142.2556069999999
 21
187.047232
 31
0.0
  0
LINE
  5
4A6D
330
A
100
AcDbEntity
  8
DRAW
  6
CONTINUOUS
100
AcDbLine
 10
138.655607
 20
186.547232
 30
0.0
 11
142.2556069999999
 21
186.547232
 31
0.0
  0
LINE
  5
4A6E
330
A
100
AcDbEntity
  8
DRAW
  6
CONTINUOUS
100
AcDbLine
 10
138.655607
 20
186.047232
 30
0.0
 11
142.2556069999999
 21
186.047232
 31
0.0
  0
LINE
  5
4A6F
330
A
100
AcDbEntity
  8
DRAW
  6
CONTINUOUS
100
AcDbLine
 10
138.655607
 20
185.547232
 30
0.0
 11
142.2556069999999
 21
185.547232
 31
0.0
  0
LINE
  5
4A70
330
A
100
AcDbEntity
  8
DRAW
  6
CONTINUOUS
100
AcDbLine
 10
138.655607
 20
185.047232
 30
0.0
 11
142.2556069999999
 21
185.047232
 31
0.0
  0
LINE
  5
4A71
330
A
100
AcDbEntity
  8
DRAW
  6
CONTINUOUS
100
AcDbLine
 10
138.655607
 20
184.547232
 30
0.0
 11
142.121632
 21
184.547232
 31
0.0
  0
POLYLINE
  5
4A72
330
A
100
AcDbEntity
  8
DRAW
  6
CONTINUOUS
100
AcDb2dPolyline
 66
     1
 10
0.0
 20
0.0
 30
0.0
 70
   128
  0
VERTEX
  5
5556
330
4A72
100
AcDbEntity
  8
DRAW
  6
CONTINUOUS
100
AcDbVertex
100
AcDb2dVertex
 10
138.655607
 20
198.547232
 30
0.0
  0
VERTEX
  5
5557
330
4A72
100
AcDbEntity
  8
DRAW
  6
CONTINUOUS
100
AcDbVertex
100
AcDb2dVertex
 10
141.2556069999999
 20
198.547232
 30
0.0
 42
-0.4142140000000001
  0
VERTEX
  5
5558
330
4A72
100
AcDbEntity
  8
DRAW
  6
CONTINUOUS
100
AcDbVertex
100
AcDb2dVertex
 10
142.2556069999999
 20
197.547232
 30
0.0
  0
VERTEX
  5
5559
330
4A72
100
AcDbEntity
  8
DRAW
  6
CONTINUOUS
100
AcDbVertex
100
AcDb2dVertex
 10
142.2556069999999
 20
185.047232
 30
0.0
 42
-0.4142140000000001
  0
VERTEX
  5
555A
330
4A72
100
AcDbEntity
  8
DRAW
  6
CONTINUOUS
100
AcDbVertex
100
AcDb2dVertex
 10
141.2556069999999
 20
184.047232
 30
0.0
  0
VERTEX
  5
555B
330
4A72
100
AcDbEntity
  8
DRAW
  6
CONTINUOUS
100
AcDbVertex
100
AcDb2dVertex
 10
138.655607
 20
184.047232
 30
0.0
  0
SEQEND
  5
555C
330
4A72
100
AcDbEntity
  8
DRAW
  6
CONTINUOUS
  0
LINE
  5
4A7B
330
A
100
AcDbEntity
  8
DRAW
  6
CONTINUOUS
100
AcDbLine
 10
79.55560699999999
 20
196.5921039999999
 30
0.0
 11
73.55560699999999
 21
196.5921039999999
 31
0.0
  0
LINE
  5
4A7C
330
A
100
AcDbEntity
  8
DRAW
  6
CONTINUOUS
100
AcDbLine
 10
79.55560699999999
 20
196.092104
 30
0.0
 11
73.55560699999999
 21
196.092104
 31
0.0
  0
LINE
  5
4A7D
330
A
100
AcDbEntity
  8
DRAW
  6
CONTINUOUS
100
AcDbLine
 10
73.55560699999999
 20
196.5921039999999
 30
0.0
 11
73.55560699999999
 21
196.092104
 31
0.0
  0
LINE
  5
4A7E
330
A
100
AcDbEntity
  8
DRAW
  6
CONTINUOUS
100
AcDbLine
 10
79.55560699999999
 20
192.492104
 30
0.0
 11
73.55560699999999
 21
192.492104
 31
0.0
  0
LINE
  5
4A7F
330
A
100
AcDbEntity
  8
DRAW
  6
CONTINUOUS
100
AcDbLine
 10
79.55560699999999
 20
191.992104
 30
0.0
 11
73.55560699999999
 21
191.992104
 31
0.0
  0
LINE
  5
4A80
330
A
100
AcDbEntity
  8
DRAW
  6
CONTINUOUS
100
AcDbLine
 10
73.55560699999999
 20
192.492104
 30
0.0
 11
73.55560699999999
 21
191.992104
 31
0.0
  0
LINE
  5
4A81
330
A
100
AcDbEntity
  8
DRAW
  6
CONTINUOUS
100
AcDbLine
 10
79.55560699999999
 20
185.642104
 30
0.0
 11
73.55560699999999
 21
185.642104
 31
0.0
  0
LINE
  5
4A82
330
A
100
AcDbEntity
  8
DRAW
  6
CONTINUOUS
100
AcDbLine
 10
79.55560699999999
 20
186.142104
 30
0.0
 11
73.55560699999999
 21
186.142104
 31
0.0
  0
LINE
  5
4A83
330
A
100
AcDbEntity
  8
DRAW
  6
CONTINUOUS
100
AcDbLine
 10
73.55560699999999
 20
186.142104
 30
0.0
 11
73.55560699999999
 21
185.642104
 31
0.0
  0
LINE
  5
4A84
330
A
100
AcDbEntity
  8
DRAW
  6
CONTINUOUS
100
AcDbLine
 10
79.55560699999999
 20
179.792104
 30
0.0
 11
73.55560699999999
 21
179.792104
 31
0.0
  0
LINE
  5
4A85
330
A
100
AcDbEntity
  8
DRAW
  6
CONTINUOUS
100
AcDbLine
 10
79.55560699999999
 20
179.2921039999999
 30
0.0
 11
73.55560699999999
 21
179.2921039999999
 31
0.0
  0
LINE
  5
4A86
330
A
100
AcDbEntity
  8
DRAW
  6
CONTINUOUS
100
AcDbLine
 10
73.55560699999999
 20
179.792104
 30
0.0
 11
73.55560699999999
 21
179.2921039999999
 31
0.0
  0
LINE
  5
4A87
330
A
100
AcDbEntity
  8
DRAW
  6
CONTINUOUS
100
AcDbLine
 10
80.65560699999998
 20
200.04213
 30
0.0
 11
79.55560699999999
 21
200.04213
 31
0.0
  0
LINE
  5
4A88
330
A
100
AcDbEntity
  8
DRAW
  6
CONTINUOUS
100
AcDbLine
 10
80.65560699999998
 20
190.992104
 30
0.0
 11
79.55560699999999
 21
190.992104
 31
0.0
  0
LINE
  5
4A89
330
A
100
AcDbEntity
  8
DRAW
  6
CONTINUOUS
100
AcDbLine
 10
79.55560699999999
 20
200.04213
 30
0.0
 11
79.55560699999999
 21
190.992104
 31
0.0
  0
LINE
  5
4A8C
330
A
100
AcDbEntity
  8
DRAW
  6
CONTINUOUS
100
AcDbLine
 10
80.65560699999998
 20
189.547232
 30
0.0
 11
79.55560699999999
 21
189.547232
 31
0.0
  0
LINE
  5
4A8D
330
A
100
AcDbEntity
  8
DRAW
  6
CONTINUOUS
100
AcDbLine
 10
80.65560699999998
 20
184.142104
 30
0.0
 11
79.55560699999999
 21
184.142104
 31
0.0
  0
LINE
  5
4A8F
330
A
100
AcDbEntity
  8
DRAW
  6
CONTINUOUS
100
AcDbLine
 10
79.55560699999999
 20
189.547232
 30
0.0
 11
79.55560699999999
 21
184.142104
 31
0.0
  0
LINE
  5
4A97
330
A
100
AcDbEntity
  8
DRAW
  6
CONTINUOUS
100
AcDbLine
 10
79.55560699999999
 20
183.197232
 30
0.0
 11
79.55560699999999
 21
174.636982
 31
0.0
  0
LINE
  5
4A98
330
A
100
AcDbEntity
  8
DRAW
  6
CONTINUOUS
100
AcDbLine
 10
79.55560699999999
 20
174.636982
 30
0.0
 11
80.65560699999998
 21
174.636982
 31
0.0
  0
POLYLINE
  5
4A9B
330
A
100
AcDbEntity
  8
DRAW
  6
CONTINUOUS
100
AcDb2dPolyline
 66
     1
 10
0.0
 20
0.0
 30
0.0
 70
     1
  0
VERTEX
  5
555D
330
4A9B
100
AcDbEntity
  8
DRAW
  6
CONTINUOUS
100
AcDbVertex
100
AcDb2dVertex
 10
82.15560699999999
 20
184.597317
 30
0.0
  0
VERTEX
  5
555E
330
4A9B
100
AcDbEntity
  8
DRAW
  6
CONTINUOUS
100
AcDbVertex
100
AcDb2dVertex
 10
84.65560699999999
 20
184.697317
 30
0.0
  0
VERTEX
  5
555F
330
4A9B
100
AcDbEntity
  8
DRAW
  6
CONTINUOUS
100
AcDbVertex
100
AcDb2dVertex
 10
84.65560699999999
 20
188.697317
 30
0.0
  0
VERTEX
  5
5560
330
4A9B
100
AcDbEntity
  8
DRAW
  6
CONTINUOUS
100
AcDbVertex
100
AcDb2dVertex
 10
82.15560699999999
 20
188.5973169999999
 30
0.0
  0
SEQEND
  5
5561
330
4A9B
100
AcDbEntity
  8
DRAW
  6
CONTINUOUS
  0
LINE
  5
4AA9
330
A
100
AcDbEntity
  8
DRAW
  6
CONTINUOUS
100
AcDbLine
 10
80.65560699999998
 20
141.959845
 30
0.0
 11
80.65560699999998
 21
122.269373
 31
0.0
  0
LINE
  5
4AAA
330
A
100
AcDbEntity
  8
DRAW
  6
CONTINUOUS
100
AcDbLine
 10
138.655607
 20
141.419328
 30
0.0
 11
138.655607
 21
122.8098899999999
 31
0.0
  0
LINE
  5
4AB5
330
A
100
AcDbEntity
  8
DRAW
  6
CONTINUOUS
100
AcDbLine
 10
81.16034799999999
 20
142.4598229999999
 30
0.0
 11
138.160348
 21
141.919306
 31
0.0
  0
LINE
  5
4AB8
330
A
100
AcDbEntity
  8
DRAW
  6
CONTINUOUS
100
AcDbLine
 10
81.16034799999999
 20
121.769396
 30
0.0
 11
138.160348
 21
122.309913
 31
0.0
  0
POLYLINE
  5
4AB9
330
A
100
AcDbEntity
  8
DRAW
  6
CONTINUOUS
100
AcDb2dPolyline
 66
     1
 10
0.0
 20
0.0
 30
0.0
 70
   128
  0
VERTEX
  5
5562
330
4AB9
100
AcDbEntity
  8
DRAW
  6
CONTINUOUS
100
AcDbVertex
100
AcDb2dVertex
 10
138.655607
 20
139.364609
 30
0.0
  0
VERTEX
  5
5563
330
4AB9
100
AcDbEntity
  8
DRAW
  6
CONTINUOUS
100
AcDbVertex
100
AcDb2dVertex
 10
141.2556069999999
 20
139.364609
 30
0.0
 42
-0.4142140000000001
  0
VERTEX
  5
5564
330
4AB9
100
AcDbEntity
  8
DRAW
  6
CONTINUOUS
100
AcDbVertex
100
AcDb2dVertex
 10
142.2556069999999
 20
138.364609
 30
0.0
  0
VERTEX
  5
5565
330
4AB9
100
AcDbEntity
  8
DRAW
  6
CONTINUOUS
100
AcDbVertex
100
AcDb2dVertex
 10
142.2556069999999
 20
125.864609
 30
0.0
 42
-0.4142140000000001
  0
VERTEX
  5
5566
330
4AB9
100
AcDbEntity
  8
DRAW
  6
CONTINUOUS
100
AcDbVertex
100
AcDb2dVertex
 10
141.2556069999999
 20
124.864609
 30
0.0
  0
VERTEX
  5
5567
330
4AB9
100
AcDbEntity
  8
DRAW
  6
CONTINUOUS
100
AcDbVertex
100
AcDb2dVertex
 10
138.655607
 20
124.864609
 30
0.0
  0
SEQEND
  5
5568
330
4AB9
100
AcDbEntity
  8
DRAW
  6
CONTINUOUS
  0
LINE
  5
4ABA
330
A
100
AcDbEntity
  8
DRAW
  6
CONTINUOUS
100
AcDbLine
 10
138.655607
 20
125.3646089999999
 30
0.0
 11
142.121632
 21
125.3646089999999
 31
0.0
  0
LINE
  5
4ABB
330
A
100
AcDbEntity
  8
DRAW
  6
CONTINUOUS
100
AcDbLine
 10
138.655607
 20
125.864609
 30
0.0
 11
142.2556069999999
 21
125.864609
 31
0.0
  0
LINE
  5
4ABC
330
A
100
AcDbEntity
  8
DRAW
  6
CONTINUOUS
100
AcDbLine
 10
138.655607
 20
126.3646089999999
 30
0.0
 11
142.2556069999999
 21
126.3646089999999
 31
0.0
  0
LINE
  5
4ABD
330
A
100
AcDbEntity
  8
DRAW
  6
CONTINUOUS
100
AcDbLine
 10
138.655607
 20
126.864609
 30
0.0
 11
142.2556069999999
 21
126.864609
 31
0.0
  0
LINE
  5
4ABE
330
A
100
AcDbEntity
  8
DRAW
  6
CONTINUOUS
100
AcDbLine
 10
138.655607
 20
127.3646089999999
 30
0.0
 11
142.2556069999999
 21
127.3646089999999
 31
0.0
  0
LINE
  5
4ABF
330
A
100
AcDbEntity
  8
DRAW
  6
CONTINUOUS
100
AcDbLine
 10
138.655607
 20
127.864609
 30
0.0
 11
142.2556069999999
 21
127.864609
 31
0.0
  0
LINE
  5
4AC0
330
A
100
AcDbEntity
  8
DRAW
  6
CONTINUOUS
100
AcDbLine
 10
138.655607
 20
128.3646089999999
 30
0.0
 11
142.2556069999999
 21
128.3646089999999
 31
0.0
  0
LINE
  5
4AC1
330
A
100
AcDbEntity
  8
DRAW
  6
CONTINUOUS
100
AcDbLine
 10
138.655607
 20
128.864609
 30
0.0
 11
142.2556069999999
 21
128.864609
 31
0.0
  0
LINE
  5
4AC2
330
A
100
AcDbEntity
  8
DRAW
  6
CONTINUOUS
100
AcDbLine
 10
138.655607
 20
129.3646089999999
 30
0.0
 11
142.2556069999999
 21
129.3646089999999
 31
0.0
  0
LINE
  5
4AC3
330
A
100
AcDbEntity
  8
DRAW
  6
CONTINUOUS
100
AcDbLine
 10
138.655607
 20
129.864609
 30
0.0
 11
142.2556069999999
 21
129.864609
 31
0.0
  0
LINE
  5
4AC4
330
A
100
AcDbEntity
  8
DRAW
  6
CONTINUOUS
100
AcDbLine
 10
138.655607
 20
130.3646089999999
 30
0.0
 11
142.2556069999999
 21
130.3646089999999
 31
0.0
  0
LINE
  5
4AC5
330
A
100
AcDbEntity
  8
DRAW
  6
CONTINUOUS
100
AcDbLine
 10
138.655607
 20
130.864609
 30
0.0
 11
142.2556069999999
 21
130.864609
 31
0.0
  0
LINE
  5
4AC6
330
A
100
AcDbEntity
  8
DRAW
  6
CONTINUOUS
100
AcDbLine
 10
138.655607
 20
131.3646089999999
 30
0.0
 11
142.2556069999999
 21
131.3646089999999
 31
0.0
  0
LINE
  5
4AC7
330
A
100
AcDbEntity
  8
DRAW
  6
CONTINUOUS
100
AcDbLine
 10
138.655607
 20
131.864609
 30
0.0
 11
142.2556069999999
 21
131.864609
 31
0.0
  0
LINE
  5
4AC8
330
A
100
AcDbEntity
  8
DRAW
  6
CONTINUOUS
100
AcDbLine
 10
138.655607
 20
132.3646089999999
 30
0.0
 11
142.2556069999999
 21
132.3646089999999
 31
0.0
  0
LINE
  5
4AC9
330
A
100
AcDbEntity
  8
DRAW
  6
CONTINUOUS
100
AcDbLine
 10
138.655607
 20
132.864609
 30
0.0
 11
142.2556069999999
 21
132.864609
 31
0.0
  0
LINE
  5
4ACA
330
A
100
AcDbEntity
  8
DRAW
  6
CONTINUOUS
100
AcDbLine
 10
138.655607
 20
133.364609
 30
0.0
 11
142.2556069999999
 21
133.364609
 31
0.0
  0
LINE
  5
4ACB
330
A
100
AcDbEntity
  8
DRAW
  6
CONTINUOUS
100
AcDbLine
 10
138.655607
 20
133.864609
 30
0.0
 11
142.2556069999999
 21
133.864609
 31
0.0
  0
LINE
  5
4ACC
330
A
100
AcDbEntity
  8
DRAW
  6
CONTINUOUS
100
AcDbLine
 10
138.655607
 20
134.364609
 30
0.0
 11
142.2556069999999
 21
134.364609
 31
0.0
  0
LINE
  5
4ACD
330
A
100
AcDbEntity
  8
DRAW
  6
CONTINUOUS
100
AcDbLine
 10
138.655607
 20
134.864609
 30
0.0
 11
142.2556069999999
 21
134.864609
 31
0.0
  0
LINE
  5
4ACE
330
A
100
AcDbEntity
  8
DRAW
  6
CONTINUOUS
100
AcDbLine
 10
138.655607
 20
135.364609
 30
0.0
 11
142.2556069999999
 21
135.364609
 31
0.0
  0
LINE
  5
4ACF
330
A
100
AcDbEntity
  8
DRAW
  6
CONTINUOUS
100
AcDbLine
 10
138.655607
 20
135.864609
 30
0.0
 11
142.2556069999999
 21
135.864609
 31
0.0
  0
LINE
  5
4AD0
330
A
100
AcDbEntity
  8
DRAW
  6
CONTINUOUS
100
AcDbLine
 10
138.655607
 20
136.364609
 30
0.0
 11
142.2556069999999
 21
136.364609
 31
0.0
  0
LINE
  5
4AD1
330
A
100
AcDbEntity
  8
DRAW
  6
CONTINUOUS
100
AcDbLine
 10
138.655607
 20
136.864609
 30
0.0
 11
142.2556069999999
 21
136.864609
 31
0.0
  0
LINE
  5
4AD2
330
A
100
AcDbEntity
  8
DRAW
  6
CONTINUOUS
100
AcDbLine
 10
138.655607
 20
137.364609
 30
0.0
 11
142.2556069999999
 21
137.364609
 31
0.0
  0
LINE
  5
4AD3
330
A
100
AcDbEntity
  8
DRAW
  6
CONTINUOUS
100
AcDbLine
 10
138.655607
 20
137.8646089999999
 30
0.0
 11
142.2556069999999
 21
137.8646089999999
 31
0.0
  0
LINE
  5
4AD4
330
A
100
AcDbEntity
  8
DRAW
  6
CONTINUOUS
100
AcDbLine
 10
138.655607
 20
138.364609
 30
0.0
 11
142.2556069999999
 21
138.364609
 31
0.0
  0
LINE
  5
4AD5
330
A
100
AcDbEntity
  8
DRAW
  6
CONTINUOUS
100
AcDbLine
 10
138.655607
 20
138.8646089999999
 30
0.0
 11
142.121632
 21
138.8646089999999
 31
0.0
  0
ARC
  5
4ADE
330
A
100
AcDbEntity
  8
DRAW
  6
CONTINUOUS
100
AcDbCircle
 10
81.15560699999999
 20
141.959845
 30
0.0
 40
0.5
100
AcDbArc
 50
89.45669399999999
 51
180.0
  0
ARC
  5
4ADF
330
A
100
AcDbEntity
  8
DRAW
  6
CONTINUOUS
100
AcDbCircle
 10
81.15560699999999
 20
122.269373
 30
0.0
 40
0.5
100
AcDbArc
 50
180.0
 51
270.543306
  0
ARC
  5
4AE0
330
A
100
AcDbEntity
  8
DRAW
  6
CONTINUOUS
100
AcDbCircle
 10
138.155607
 20
122.8098899999999
 30
0.0
 40
0.5
100
AcDbArc
 50
270.543306
 51
0.0
  0
ARC
  5
4AE1
330
A
100
AcDbEntity
  8
DRAW
  6
CONTINUOUS
100
AcDbCircle
 10
138.155607
 20
141.419328
 30
0.0
 40
0.5
100
AcDbArc
 50
0.0
 51
89.45669399999999
  0
CIRCLE
  5
4AE6
330
A
100
AcDbEntity
  8
DRAW
100
AcDbCircle
 10
75.223556
 20
138.7146089999999
 30
0.0
 40
0.5
  0
POLYLINE
  5
4AED
330
A
100
AcDbEntity
  8
DRAW
100
AcDb2dPolyline
 66
     1
 10
0.0
 20
0.0
 30
0.0
 70
   128
  0
VERTEX
  5
5569
330
4AED
100
AcDbEntity
  8
DRAW
100
AcDbVertex
100
AcDb2dVertex
 10
79.55560699999999
 20
139.7146089999999
 30
0.0
  0
VERTEX
  5
556A
330
4AED
100
AcDbEntity
  8
DRAW
100
AcDbVertex
100
AcDb2dVertex
 10
73.82355600000001
 20
139.7146089999999
 30
0.0
 42
0.267949
  0
VERTEX
  5
556B
330
4AED
100
AcDbEntity
  8
DRAW
100
AcDbVertex
100
AcDb2dVertex
 10
73.82355600000001
 20
137.7146089999999
 30
0.0
  0
VERTEX
  5
556C
330
4AED
100
AcDbEntity
  8
DRAW
100
AcDbVertex
100
AcDb2dVertex
 10
79.55560699999999
 20
137.7146089999999
 30
0.0
  0
SEQEND
  5
556D
330
4AED
100
AcDbEntity
  8
DRAW
  0
POLYLINE
  5
4AF2
330
A
100
AcDbEntity
  8
DRAW
100
AcDb2dPolyline
 66
     1
 10
0.0
 20
0.0
 30
0.0
 70
   128
  0
VERTEX
  5
556E
330
4AF2
100
AcDbEntity
  8
DRAW
100
AcDbVertex
100
AcDb2dVertex
 10
79.55560699999999
 20
126.514609
 30
0.0
  0
VERTEX
  5
556F
330
4AF2
100
AcDbEntity
  8
DRAW
100
AcDbVertex
100
AcDb2dVertex
 10
73.82355600000001
 20
126.514609
 30
0.0
 42
0.267949
  0
VERTEX
  5
5570
330
4AF2
100
AcDbEntity
  8
DRAW
100
AcDbVertex
100
AcDb2dVertex
 10
73.82355600000001
 20
124.514609
 30
0.0
  0
VERTEX
  5
5571
330
4AF2
100
AcDbEntity
  8
DRAW
100
AcDbVertex
100
AcDb2dVertex
 10
79.55560699999999
 20
124.514609
 30
0.0
  0
SEQEND
  5
5572
330
4AF2
100
AcDbEntity
  8
DRAW
  0
CIRCLE
  5
4AF3
330
A
100
AcDbEntity
  8
DRAW
100
AcDbCircle
 10
75.223556
 20
125.5146089999999
 30
0.0
 40
0.5
  0
POLYLINE
  5
4B17
330
A
100
AcDbEntity
  8
DRAW
  6
CONTINUOUS
100
AcDb2dPolyline
 66
     1
 10
0.0
 20
0.0
 30
0.0
 70
     1
  0
VERTEX
  5
5573
330
4B17
100
AcDbEntity
  8
DRAW
  6
CONTINUOUS
100
AcDbVertex
100
AcDb2dVertex
 10
174.75
 20
200.5472319999999
 30
0.0
  0
VERTEX
  5
5574
330
4B17
100
AcDbEntity
  8
DRAW
  6
CONTINUOUS
100
AcDbVertex
100
AcDb2dVertex
 10
195.4499999999999
 20
200.5472319999999
 30
0.0
  0
VERTEX
  5
5575
330
4B17
100
AcDbEntity
  8
DRAW
  6
CONTINUOUS
100
AcDbVertex
100
AcDb2dVertex
 10
195.4499999999999
 20
172.847232
 30
0.0
  0
VERTEX
  5
5576
330
4B17
100
AcDbEntity
  8
DRAW
  6
CONTINUOUS
100
AcDbVertex
100
AcDb2dVertex
 10
174.75
 20
172.847232
 30
0.0
  0
SEQEND
  5
5577
330
4B17
100
AcDbEntity
  8
DRAW
  6
CONTINUOUS
  0
LINE
  5
4B1A
330
A
100
AcDbEntity
  8
DRAW
  6
CONTINUOUS
100
AcDbLine
 10
177.5
 20
179.2921039999999
 30
0.0
 11
177.5
 21
179.792104
 31
0.0
  0
LINE
  5
4B1B
330
A
100
AcDbEntity
  8
DRAW
  6
CONTINUOUS
100
AcDbLine
 10
179.4999999999999
 20
179.2921039999999
 30
0.0
 11
179.4999999999999
 21
179.792104
 31
0.0
  0
LINE
  5
4B20
330
A
100
AcDbEntity
  8
DRAW
  6
CONTINUOUS
100
AcDbLine
 10
190.7
 20
179.2921039999999
 30
0.0
 11
190.7
 21
179.792104
 31
0.0
  0
LINE
  5
4B21
330
A
100
AcDbEntity
  8
DRAW
  6
CONTINUOUS
100
AcDbLine
 10
192.6999999999999
 20
179.2921039999999
 30
0.0
 11
192.6999999999999
 21
179.792104
 31
0.0
  0
LINE
  5
4B22
330
A
100
AcDbEntity
  8
DRAW
  6
CONTINUOUS
100
AcDbLine
 10
177.5
 20
196.5921039999999
 30
0.0
 11
179.4999999999999
 21
196.5921039999999
 31
0.0
  0
LINE
  5
4B23
330
A
100
AcDbEntity
  8
DRAW
  6
CONTINUOUS
100
AcDbLine
 10
177.5
 20
196.092104
 30
0.0
 11
179.4999999999999
 21
196.092104
 31
0.0
  0
LINE
  5
4B24
330
A
100
AcDbEntity
  8
DRAW
  6
CONTINUOUS
100
AcDbLine
 10
177.5
 20
192.492104
 30
0.0
 11
179.4999999999999
 21
192.492104
 31
0.0
  0
LINE
  5
4B25
330
A
100
AcDbEntity
  8
DRAW
  6
CONTINUOUS
100
AcDbLine
 10
177.5
 20
191.992104
 30
0.0
 11
179.4999999999999
 21
191.992104
 31
0.0
  0
LINE
  5
4B26
330
A
100
AcDbEntity
  8
DRAW
  6
CONTINUOUS
100
AcDbLine
 10
177.5
 20
186.142104
 30
0.0
 11
179.4999999999999
 21
186.142104
 31
0.0
  0
LINE
  5
4B27
330
A
100
AcDbEntity
  8
DRAW
  6
CONTINUOUS
100
AcDbLine
 10
177.5
 20
185.642104
 30
0.0
 11
179.4999999999999
 21
185.642104
 31
0.0
  0
LINE
  5
4B28
330
A
100
AcDbEntity
  8
DRAW
  6
CONTINUOUS
100
AcDbLine
 10
177.5
 20
179.792104
 30
0.0
 11
179.4999999999999
 21
179.792104
 31
0.0
  0
LINE
  5
4B29
330
A
100
AcDbEntity
  8
DRAW
  6
CONTINUOUS
100
AcDbLine
 10
177.5
 20
179.2921039999999
 30
0.0
 11
179.4999999999999
 21
179.2921039999999
 31
0.0
  0
LINE
  5
4B2E
330
A
100
AcDbEntity
  8
DRAW
  6
CONTINUOUS
100
AcDbLine
 10
190.7
 20
196.092104
 30
0.0
 11
192.6999999999999
 21
196.092104
 31
0.0
  0
LINE
  5
4B2F
330
A
100
AcDbEntity
  8
DRAW
  6
CONTINUOUS
100
AcDbLine
 10
190.7
 20
196.5921039999999
 30
0.0
 11
192.6999999999999
 21
196.5921039999999
 31
0.0
  0
LINE
  5
4B30
330
A
100
AcDbEntity
  8
DRAW
  6
CONTINUOUS
100
AcDbLine
 10
192.6999999999999
 20
196.092104
 30
0.0
 11
192.6999999999999
 21
196.5921039999999
 31
0.0
  0
LINE
  5
4B31
330
A
100
AcDbEntity
  8
DRAW
  6
CONTINUOUS
100
AcDbLine
 10
190.7
 20
196.092104
 30
0.0
 11
190.7
 21
196.5921039999999
 31
0.0
  0
LINE
  5
4B36
330
A
100
AcDbEntity
  8
DRAW
  6
CONTINUOUS
100
AcDbLine
 10
179.4999999999999
 20
196.092104
 30
0.0
 11
179.4999999999999
 21
196.5921039999999
 31
0.0
  0
LINE
  5
4B37
330
A
100
AcDbEntity
  8
DRAW
  6
CONTINUOUS
100
AcDbLine
 10
177.5
 20
196.092104
 30
0.0
 11
177.5
 21
196.5921039999999
 31
0.0
  0
LINE
  5
4B38
330
A
100
AcDbEntity
  8
DRAW
  6
CONTINUOUS
100
AcDbLine
 10
177.5
 20
191.992104
 30
0.0
 11
177.5
 21
192.492104
 31
0.0
  0
LINE
  5
4B39
330
A
100
AcDbEntity
  8
DRAW
  6
CONTINUOUS
100
AcDbLine
 10
179.4999999999999
 20
191.992104
 30
0.0
 11
179.4999999999999
 21
192.492104
 31
0.0
  0
LINE
  5
4B42
330
A
100
AcDbEntity
  8
DRAW
  6
CONTINUOUS
100
AcDbLine
 10
190.7
 20
191.992104
 30
0.0
 11
192.6999999999999
 21
191.992104
 31
0.0
  0
LINE
  5
4B43
330
A
100
AcDbEntity
  8
DRAW
  6
CONTINUOUS
100
AcDbLine
 10
190.7
 20
192.492104
 30
0.0
 11
192.6999999999999
 21
192.492104
 31
0.0
  0
LINE
  5
4B44
330
A
100
AcDbEntity
  8
DRAW
  6
CONTINUOUS
100
AcDbLine
 10
190.7
 20
191.992104
 30
0.0
 11
190.7
 21
192.492104
 31
0.0
  0
LINE
  5
4B45
330
A
100
AcDbEntity
  8
DRAW
  6
CONTINUOUS
100
AcDbLine
 10
192.6999999999999
 20
191.992104
 30
0.0
 11
192.6999999999999
 21
192.492104
 31
0.0
  0
LINE
  5
4B46
330
A
100
AcDbEntity
  8
DRAW
  6
CONTINUOUS
100
AcDbLine
 10
177.5
 20
185.642104
 30
0.0
 11
177.5
 21
186.142104
 31
0.0
  0
LINE
  5
4B47
330
A
100
AcDbEntity
  8
DRAW
  6
CONTINUOUS
100
AcDbLine
 10
179.4999999999999
 20
185.642104
 30
0.0
 11
179.4999999999999
 21
186.142104
 31
0.0
  0
LINE
  5
4B50
330
A
100
AcDbEntity
  8
DRAW
  6
CONTINUOUS
100
AcDbLine
 10
190.7
 20
185.642104
 30
0.0
 11
192.6999999999999
 21
185.642104
 31
0.0
  0
LINE
  5
4B51
330
A
100
AcDbEntity
  8
DRAW
  6
CONTINUOUS
100
AcDbLine
 10
190.7
 20
186.142104
 30
0.0
 11
192.6999999999999
 21
186.142104
 31
0.0
  0
LINE
  5
4B52
330
A
100
AcDbEntity
  8
DRAW
  6
CONTINUOUS
100
AcDbLine
 10
190.7
 20
185.642104
 30
0.0
 11
190.7
 21
186.142104
 31
0.0
  0
LINE
  5
4B53
330
A
100
AcDbEntity
  8
DRAW
  6
CONTINUOUS
100
AcDbLine
 10
192.6999999999999
 20
185.642104
 30
0.0
 11
192.6999999999999
 21
186.142104
 31
0.0
  0
LINE
  5
4B56
330
A
100
AcDbEntity
  8
DRAW
  6
CONTINUOUS
100
AcDbLine
 10
190.7
 20
179.2921039999999
 30
0.0
 11
192.6999999999999
 21
179.2921039999999
 31
0.0
  0
LINE
  5
4B57
330
A
100
AcDbEntity
  8
DRAW
  6
CONTINUOUS
100
AcDbLine
 10
190.7
 20
179.792104
 30
0.0
 11
192.6999999999999
 21
179.792104
 31
0.0
  0
LINE
  5
4B66
330
A
100
AcDbEntity
  8
DRAW
  6
CONTINUOUS
100
AcDbLine
 10
175.75
 20
200.047232
 30
0.0
 11
194.4499999999999
 21
200.047232
 31
0.0
  0
LINE
  5
4B6D
330
A
100
AcDbEntity
  8
DRAW
  6
CONTINUOUS
100
AcDbLine
 10
175.75
 20
191.092104
 30
0.0
 11
194.4499999999999
 21
191.092104
 31
0.0
  0
TEXT
  5
4C43
330
A
100
AcDbEntity
  8
DRAW-TEXT
100
AcDbText
 10
177.8210255497953
 20
197.5427105075034
 30
0.0
 40
1.8
  1
1
  7
FINDER
 72
     4
 11
178.5000159999999
 21
198.4463939999999
 31
0.0
100
AcDbText
  0
TEXT
  5
4C47
330
A
100
AcDbEntity
  8
DRAW-TEXT
100
AcDbText
 10
191.0007663410641
 20
197.546394
 30
0.0
 40
1.8
  1
4
  7
FINDER
 72
     4
 11
191.700016
 21
198.4463939999999
 31
0.0
100
AcDbText
  0
TEXT
  5
4C48
330
A
100
AcDbEntity
  8
DRAW-TEXT
100
AcDbText
 10
191.0007663410641
 20
193.4580583929058
 30
0.0
 40
1.8
  1
8
  7
FINDER
 72
     4
 11
191.700016
 21
194.346394
 31
0.0
100
AcDbText
  0
TEXT
  5
4C4B
330
A
100
AcDbEntity
  8
DRAW-TEXT
100
AcDbText
 10
177.800766341064
 20
193.4740201937244
 30
0.0
 40
1.8
  1
5
  7
FINDER
 72
     4
 11
178.5000159999999
 21
194.346394
 31
0.0
100
AcDbText
  0
TEXT
  5
4C4C
330
A
100
AcDbEntity
  8
DRAW-TEXT
100
AcDbText
 10
177.800766341064
 20
187.1080583929058
 30
0.0
 40
1.8
  1
9
  7
FINDER
 72
     4
 11
178.5000159999999
 21
187.9963939999999
 31
0.0
100
AcDbText
  0
TEXT
  5
4C4F
330
A
100
AcDbEntity
  8
DRAW-TEXT
100
AcDbText
 10
190.3217758908595
 20
187.0927105075034
 30
0.0
 40
1.8
  1
12
  7
FINDER
 72
     4
 11
191.700016
 21
187.9963939999999
 31
0.0
100
AcDbText
  0
TEXT
  5
4C50
330
A
100
AcDbEntity
  8
DRAW-TEXT
100
AcDbText
 10
190.3217758908595
 20
180.7427105075034
 30
0.0
 40
1.8
  1
14
  7
FINDER
 72
     4
 11
191.700016
 21
181.646394
 31
0.0
100
AcDbText
  0
TEXT
  5
4C51
330
A
100
AcDbEntity
  8
DRAW-TEXT
100
AcDbText
 10
177.1217758908594
 20
180.7586723083219
 30
0.0
 40
1.8
  1
13
  7
FINDER
 72
     4
 11
178.5000159999999
 21
181.646394
 31
0.0
100
AcDbText
  0
DIMENSION
  5
4C60
330
A
100
AcDbEntity
  8
DIM
  6
CONTINUOUS
100
AcDbDimension
  2
*D1
 10
45.45
 20
205.0
 30
0.0
 11
35.1
 21
206.544031
 31
0.0
 70
    32
  3
FINDER
100
AcDbAlignedDimension
 13
24.75
 23
200.5472319999999
 33
0.0
 14
45.45
 24
200.5472319999999
 34
0.0
100
AcDbRotatedDimension
  0
DIMENSION
  5
4C6D
330
A
100
AcDbEntity
  8
DIM
  6
CONTINUOUS
100
AcDbDimension
  2
*D2
 10
19.95
 20
172.847232
 30
0.0
 11
18.471317
 21
186.697232
 31
0.0
 12
-0.05
 22
0.0
 32
0.0
 70
    32
  3
FINDER
100
AcDbAlignedDimension
 13
24.75
 23
200.5472319999999
 33
0.0
 14
24.75
 24
172.847232
 34
0.0
 50
90.0
100
AcDbRotatedDimension
  0
DIMENSION
  5
4C97
330
A
100
AcDbEntity
  8
DIM
  6
CONTINUOUS
100
AcDbDimension
  2
*D3
 10
142.2556069999999
 20
205.0
 30
0.0
 11
142.012751
 21
209.651791
 31
0.0
 70
    32
  3
FINDER
100
AcDbAlignedDimension
 13
138.655607
 23
199.452282
 33
0.0
 14
142.2556069999999
 24
197.547232
 34
0.0
100
AcDbRotatedDimension
1001
ACAD
1000
DSTYLE
1002
{
1070
   287
1070
     4
1002
}
  0
DIMENSION
  5
4CA6
330
A
100
AcDbEntity
  8
DIM
  6
CONTINUOUS
100
AcDbDimension
  2
*D4
 10
79.55560699999999
 20
167.0
 30
0.0
 11
76.55560699999999
 21
168.544031
 31
0.0
 70
    32
  3
FINDER
100
AcDbAlignedDimension
 13
73.55560699999999
 23
179.2921039999999
 33
0.0
 14
79.55560699999999
 24
174.636982
 34
0.0
100
AcDbRotatedDimension
  0
DIMENSION
  5
4CB2
330
A
100
AcDbEntity
  8
DIM
  6
CONTINUOUS
100
AcDbDimension
  2
*D5
 10
138.655607
 20
167.0
 30
0.0
 11
109.105607
 21
168.544031
 31
0.0
 70
    32
  3
FINDER
100
AcDbAlignedDimension
 13
79.55560699999999
 23
174.636982
 33
0.0
 14
138.655607
 24
179.547232
 34
0.0
100
AcDbRotatedDimension
1001
ACAD
1000
DSTYLE
1002
{
1070
    75
1070
     1
1070
   287
1070
     4
1002
}
  0
DIMENSION
  5
4CC1
330
A
100
AcDbEntity
  8
DIM
  6
CONTINUOUS
100
AcDbDimension
  2
*D6
 10
138.655607
 20
170.0
 30
0.0
 11
146.01369
 21
171.544031
 31
0.0
 70
    32
  3
FINDER
100
AcDbAlignedDimension
 13
136.755607
 23
173.9420149999999
 33
0.0
 14
138.655607
 24
179.547232
 34
0.0
100
AcDbRotatedDimension
  0
DIMENSION
  5
4CCE
330
A
100
AcDbEntity
  8
DIM
  6
CONTINUOUS
100
AcDbDimension
  2
*D7
 10
149.0
 20
184.047232
 30
0.0
 11
147.4559689999999
 21
191.297232
 31
0.0
 70
    32
  3
FINDER
100
AcDbAlignedDimension
 13
141.2556069999999
 23
198.547232
 33
0.0
 14
141.2556069999999
 24
184.047232
 34
0.0
 50
90.0
100
AcDbRotatedDimension
  0
DIMENSION
  5
4CDB
330
A
100
AcDbEntity
  8
DIM
  6
CONTINUOUS
100
AcDbDimension
  2
*D8
 10
69.1
 20
179.5421039999999
 30
0.0
 11
67.55596899999999
 21
177.442318
 31
0.0
 70
    32
  3
FINDER1
100
AcDbAlignedDimension
 13
81.16085099999999
 23
172.842532
 33
0.0
 14
73.55560699999999
 24
179.5421039999999
 34
0.0
 50
90.0
100
AcDbRotatedDimension
1001
ACAD
1000
DSTYLE
1002
{
1070
     6
1000

1002
}
  0
DIMENSION
  5
4CE7
330
A
100
AcDbEntity
  8
DIM
  6
CONTINUOUS
100
AcDbDimension
  2
*D9
 10
69.1
 20
185.892104
 30
0.0
 11
67.555355
 21
182.7171039999999
 31
0.0
 70
    32
  3
FINDER1
100
AcDbAlignedDimension
 13
73.55560699999999
 23
179.5421039999999
 33
0.0
 14
73.55560699999999
 24
185.892104
 34
0.0
 50
90.0
100
AcDbRotatedDimension
1001
ACAD
1000
DSTYLE
1002
{
1070
    75
1070
     1
1070
   287
1070
     4
1002
}
  0
DIMENSION
  5
4CF3
330
A
100
AcDbEntity
  8
DIM
  6
CONTINUOUS
100
AcDbDimension
  2
*D10
 10
69.1
 20
192.242104
 30
0.0
 11
67.555355
 21
189.0671039999999
 31
0.0
 70
    32
  3
FINDER1
100
AcDbAlignedDimension
 13
73.55560699999999
 23
185.892104
 33
0.0
 14
73.55560699999999
 24
192.242104
 34
0.0
 50
90.0
100
AcDbRotatedDimension
1001
ACAD
1000
DSTYLE
1002
{
1070
    75
1070
     1
1070
   287
1070
     4
1002
}
  0
DIMENSION
  5
4D01
330
A
100
AcDbEntity
  8
DIM
  6
CONTINUOUS
100
AcDbDimension
  2
*D11
 10
69.1
 20
196.342104
 30
0.0
 11
64.48013299999999
 21
195.844459
 31
0.0
 70
    32
  3
FINDER1
100
AcDbAlignedDimension
 13
73.55560699999999
 23
192.242104
 33
0.0
 14
73.55560699999999
 24
196.342104
 34
0.0
 50
90.0
100
AcDbRotatedDimension
1001
ACAD
1000
DSTYLE
1002
{
1070
    75
1070
     1
1070
   287
1070
     4
1002
}
  0
DIMENSION
  5
4D1A
330
A
100
AcDbEntity
  8
DIM
  6
CONTINUOUS
100
AcDbDimension
  2
*D12
 10
69.1
 20
200.5421039999999
 30
0.0
 11
64.48013299999999
 21
199.994459
 31
0.0
 70
    32
  3
FINDER1
100
AcDbAlignedDimension
 13
73.55560699999999
 23
196.342104
 33
0.0
 14
81.160683
 24
200.5421039999999
 34
0.0
 50
90.0
100
AcDbRotatedDimension
1001
ACAD
1000
DSTYLE
1002
{
1070
    75
1070
     1
1070
   287
1070
     4
1070
     7
1000

1002
}
  0
LINE
  5
4E3C
330
A
100
AcDbEntity
  8
DRAW
  6
CONTINUOUS
100
AcDbLine
 10
80.65560699999998
 20
183.197232
 30
0.0
 11
79.55560699999999
 21
183.197232
 31
0.0
  0
LINE
  5
4E57
330
A
100
AcDbEntity
  8
DRAW
  6
CONTINUOUS
100
AcDbLine
 10
79.55560699999999
 20
141.4646089999999
 30
0.0
 11
80.65560699999998
 21
141.4646089999999
 31
0.0
  0
LINE
  5
4E5A
330
A
100
AcDbEntity
  8
DRAW
  6
CONTINUOUS
100
AcDbLine
 10
79.55560699999999
 20
122.764609
 30
0.0
 11
80.65560699999998
 21
122.764609
 31
0.0
  0
LINE
  5
4E5C
330
A
100
AcDbEntity
  8
DRAW
  6
CONTINUOUS
100
AcDbLine
 10
79.55560699999999
 20
141.4646089999999
 30
0.0
 11
79.55560699999999
 21
122.764609
 31
0.0
  0
LINE
  5
4E98
330
A
100
AcDbEntity
  8
DRAW
  6
CONTINUOUS
100
AcDbLine
 10
175.75
 20
191.092104
 30
0.0
 11
175.75
 21
200.047232
 31
0.0
  0
LINE
  5
4E99
330
A
100
AcDbEntity
  8
DRAW
  6
CONTINUOUS
100
AcDbLine
 10
194.4499999999999
 20
191.092104
 30
0.0
 11
194.4499999999999
 21
200.047232
 31
0.0
  0
LINE
  5
4E9E
330
A
100
AcDbEntity
  8
DRAW
  6
CONTINUOUS
100
AcDbLine
 10
175.75
 20
184.292104
 30
0.0
 11
194.4499999999999
 21
184.292104
 31
0.0
  0
LINE
  5
4E9F
330
A
100
AcDbEntity
  8
DRAW
  6
CONTINUOUS
100
AcDbLine
 10
194.4499999999999
 20
184.292104
 30
0.0
 11
194.4499999999999
 21
189.6472319999999
 31
0.0
  0
LINE
  5
4EA0
330
A
100
AcDbEntity
  8
DRAW
  6
CONTINUOUS
100
AcDbLine
 10
175.75
 20
189.6472319999999
 30
0.0
 11
194.4499999999999
 21
189.6472319999999
 31
0.0
  0
LINE
  5
4EA1
330
A
100
AcDbEntity
  8
DRAW
  6
CONTINUOUS
100
AcDbLine
 10
175.75
 20
184.292104
 30
0.0
 11
175.75
 21
189.6472319999999
 31
0.0
  0
LINE
  5
4EA4
330
A
100
AcDbEntity
  8
DRAW
  6
CONTINUOUS
100
AcDbLine
 10
175.75
 20
183.347232
 30
0.0
 11
194.4499999999999
 21
183.347232
 31
0.0
  0
LINE
  5
4EA5
330
A
100
AcDbEntity
  8
DRAW
  6
CONTINUOUS
100
AcDbLine
 10
175.75
 20
174.636982
 30
0.0
 11
194.4499999999999
 21
174.636982
 31
0.0
  0
LINE
  5
4EA6
330
A
100
AcDbEntity
  8
DRAW
  6
CONTINUOUS
100
AcDbLine
 10
194.4499999999999
 20
183.347232
 30
0.0
 11
194.4499999999999
 21
174.636982
 31
0.0
  0
LINE
  5
4EA7
330
A
100
AcDbEntity
  8
DRAW
  6
CONTINUOUS
100
AcDbLine
 10
175.75
 20
183.347232
 30
0.0
 11
175.75
 21
174.636982
 31
0.0
  0
DIMENSION
  5
4EC9
330
A
100
AcDbEntity
  8
DIM
  6
CONTINUOUS
100
AcDbDimension
  2
*D13
 10
69.0
 20
138.7146089999999
 30
0.0
 11
67.45535500000001
 21
132.114609
 31
0.0
 70
    32
  3
FINDER1
100
AcDbAlignedDimension
 13
73.55560699999999
 23
125.5146089999999
 33
0.0
 14
73.55560699999999
 24
138.7146089999999
 34
0.0
 50
90.0
100
AcDbRotatedDimension
1001
ACAD
1000
DSTYLE
1002
{
1070
   173
1070
     0
1070
     7
1000

1070
     6
1000

1002
}
  0
POLYLINE
  5
5507
330
A
100
AcDbEntity
  8
DRAW
  6
CONTINUOUS
100
AcDb2dPolyline
 66
     1
 10
0.0
 20
0.0
 30
0.0
 70
     1
  0
VERTEX
  5
5578
330
5507
100
AcDbEntity
  8
DRAW
  6
CONTINUOUS
100
AcDbVertex
100
AcDb2dVertex
 10
40.6647301008782
 20
182.2091482099645
 30
0.0
  0
VERTEX
  5
5579
330
5507
100
AcDbEntity
  8
DRAW
  6
CONTINUOUS
100
AcDbVertex
100
AcDb2dVertex
 10
41.7647301008782
 20
182.2091482099645
 30
0.0
  0
VERTEX
  5
557A
330
5507
100
AcDbEntity
  8
DRAW
  6
CONTINUOUS
100
AcDbVertex
100
AcDb2dVertex
 10
41.7647301008782
 20
180.8091482099645
 30
0.0
  0
VERTEX
  5
557B
330
5507
100
AcDbEntity
  8
DRAW
  6
CONTINUOUS
100
AcDbVertex
100
AcDb2dVertex
 10
40.6647301008782
 20
180.8091482099645
 30
0.0
  0
SEQEND
  5
557C
330
5507
100
AcDbEntity
  8
DRAW
  6
CONTINUOUS
  0
LINE
  5
5508
330
A
100
AcDbEntity
  8
DRAW
  6
CONTINUOUS
100
AcDbLine
 10
40.46473010087821
 20
178.8091482099645
 30
0.0
 11
41.9647301008782
 21
178.8091482099645
 31
0.0
  0
LINE
  5
5509
330
A
100
AcDbEntity
  8
DRAW
  6
CONTINUOUS
100
AcDbLine
 10
41.9647301008782
 20
182.4091482099646
 30
0.0
 11
40.46473010087821
 21
182.4091482099646
 31
0.0
  0
LINE
  5
550A
330
A
100
AcDbEntity
  8
DRAW
  6
CONTINUOUS
100
AcDbLine
 10
40.46473010087821
 20
182.4091482099646
 30
0.0
 11
40.46473010087821
 21
178.8091482099645
 31
0.0
  0
LINE
  5
550B
330
A
100
AcDbEntity
  8
DRAW
  6
CONTINUOUS
100
AcDbLine
 10
41.9647301008782
 20
182.4091482099646
 30
0.0
 11
41.9647301008782
 21
178.8091482099645
 31
0.0
  0
TEXT
  5
5514
330
A
100
AcDbEntity
  8
DRAW-TEXT
100
AcDbText
 10
40.71727302263965
 20
176.2781865405795
 30
0.0
 40
1.5
  1
5
  7
FINDER
 72
     4
 11
41.29998107175288
 21
177.0051647124759
 31
0.0
100
AcDbText
  0
ENDSEC
  0
SECTION
  2
OBJECTS
  0
DICTIONARY
  5
19
330
0
100
AcDbDictionary
  3
ACAD_GROUP
350
1A
  3
ACAD_LAYOUT
350
54F7
  3
ACAD_MLINESTYLE
350
1B
  3
ACAD_PLOTSETTINGS
350
54F8
1001
ACAD
1000
TREAT_AS_HARD
1070
     0
  0
DICTIONARY
  5
5525
330
A
100
AcDbDictionary
  3
ACAD_LAYOUTSELFREF
350
5526
  0
DICTIONARY
  5
5527
330
B
100
AcDbDictionary
  3
ACAD_LAYOUTSELFREF
350
5528
  0
DICTIONARY
  5
1A
102
{ACAD_REACTORS
330
19
102
}
330
19
100
AcDbDictionary
1001
ACAD
1000
TREAT_AS_HARD
1070
     0
  0
DICTIONARY
  5
54F7
102
{ACAD_REACTORS
330
19
102
}
330
19
100
AcDbDictionary
1001
ACAD
1000
TREAT_AS_HARD
1070
     0
  0
DICTIONARY
  5
1B
102
{ACAD_REACTORS
330
19
102
}
330
19
100
AcDbDictionary
  3
STANDARD
350
1C
1001
ACAD
1000
TREAT_AS_HARD
1070
     0
  0
DICTIONARY
  5
54F8
102
{ACAD_REACTORS
330
19
102
}
330
19
100
AcDbDictionary
1001
ACAD
1000
TREAT_AS_HARD
1070
     0
  0
XRECORD
  5
5526
102
{ACAD_REACTORS
330
5525
102
}
330
5525
100
AcDbXrecord
340
A
  0
XRECORD
  5
5528
102
{ACAD_REACTORS
330
5527
102
}
330
5527
100
AcDbXrecord
340
B
  0
MLINESTYLE
  5
1C
102
{ACAD_REACTORS
330
1B
102
}
330
1B
100
AcDbMlineStyle
  2
STANDARD
 70
     0
  3

 62
     0
 51
90.0
 52
90.0
 71
     2
 49
0.5
 62
   256
  6
BYLAYER
 49
-0.5
 62
   256
  6
BYLAYER
  0
ENDSEC
  0
EOF
