  0
SECTION
  2
HEADER
  9
$ACADVER
  1
AC1012
  9
$DWGCODEPAGE
  3
ANSI_1252
  9
$INSBASE
 10
0.0
 20
0.0
 30
0.0
  9
$EXTMIN
 10
5.0
 20
5.0
 30
-0.00000001
  9
$EXTMAX
 10
205.0000369999999
 20
292.0001829999999
 30
0.00000001
  9
$LIMMIN
 10
0.0
 20
0.0
  9
$LIMMAX
 10
210.0
 20
296.0
  9
$ORTHOMODE
 70
     1
  9
$REGENMODE
 70
     1
  9
$FILLMODE
 70
     1
  9
$QTEXTMODE
 70
     0
  9
$MIRRTEXT
 70
     0
  9
$DRAGMODE
 70
     2
  9
$LTSCALE
 40
1.0
  9
$OSMODE
 70
    35
  9
$ATTMODE
 70
     1
  9
$TEXTSIZE
 40
1.8
  9
$TRACEWID
 40
0.05
  9
$TEXTSTYLE
  7
FINDER
  9
$CLAYER
  8
DRAW
  9
$CELTYPE
  6
CONTINUOUS
  9
$CECOLOR
 62
   256
  9
$CELTSCALE
 40
1.0
  9
$DELOBJ
 70
     1
  9
$DISPSILH
 70
     0
  9
$DIMSCALE
 40
1.0
  9
$DIMASZ
 40
2.5
  9
$DIMEXO
 40
2.0
  9
$DIMDLI
 40
6.5
  9
$DIMRND
 40
0.0
  9
$DIMDLE
 40
0.0
  9
$DIMEXE
 40
1.25
  9
$DIMTP
 40
0.0
  9
$DIMTM
 40
0.0
  9
$DIMTXT
 40
3.5
  9
$DIMCEN
 40
2.5
  9
$DIMTSZ
 40
0.0
  9
$DIMTOL
 70
     0
  9
$DIMLIM
 70
     0
  9
$DIMTIH
 70
     0
  9
$DIMTOH
 70
     0
  9
$DIMSE1
 70
     0
  9
$DIMSE2
 70
     0
  9
$DIMTAD
 70
     1
  9
$DIMZIN
 70
     8
  9
$DIMBLK
  1

  9
$DIMASO
 70
     1
  9
$DIMSHO
 70
     1
  9
$DIMPOST
  1

  9
$DIMAPOST
  1

  9
$DIMALT
 70
     0
  9
$DIMALTD
 70
     3
  9
$DIMALTF
 40
0.0393701
  9
$DIMLFAC
 40
1.0
  9
$DIMTOFL
 70
     1
  9
$DIMTVP
 40
0.0
  9
$DIMTIX
 70
     0
  9
$DIMSOXD
 70
     0
  9
$DIMSAH
 70
     0
  9
$DIMBLK1
  1

  9
$DIMBLK2
  1

  9
$DIMSTYLE
  2
FINDER
  9
$DIMCLRD
 70
   256
  9
$DIMCLRE
 70
   256
  9
$DIMCLRT
 70
     2
  9
$DIMTFAC
 40
1.0
  9
$DIMGAP
 40
0.625
  9
$DIMJUST
 70
     0
  9
$DIMSD1
 70
     0
  9
$DIMSD2
 70
     0
  9
$DIMTOLJ
 70
     0
  9
$DIMTZIN
 70
     8
  9
$DIMALTZ
 70
     0
  9
$DIMALTTZ
 70
     0
  9
$DIMFIT
 70
     3
  9
$DIMUPT
 70
     0
  9
$DIMUNIT
 70
     2
  9
$DIMDEC
 70
     2
  9
$DIMTDEC
 70
     2
  9
$DIMALTU
 70
     2
  9
$DIMALTTD
 70
     3
  9
$DIMTXSTY
  7
FINDER
  9
$DIMAUNIT
 70
     0
  9
$LUNITS
 70
     2
  9
$LUPREC
 70
     4
  9
$SKETCHINC
 40
0.1
  9
$FILLETRAD
 40
0.3
  9
$AUNITS
 70
     0
  9
$AUPREC
 70
     3
  9
$MENU
  1
acad
  9
$ELEVATION
 40
0.0
  9
$PELEVATION
 40
0.0
  9
$THICKNESS
 40
0.0
  9
$LIMCHECK
 70
     0
  9
$BLIPMODE
 70
     0
  9
$CHAMFERA
 40
0.0
  9
$CHAMFERB
 40
0.0
  9
$CHAMFERC
 40
0.0
  9
$CHAMFERD
 40
0.0
  9
$SKPOLY
 70
     0
  9
$TDCREATE
 40
2451901.420981018
  9
$TDUPDATE
 40
2451998.747636342
  9
$TDINDWG
 40
0.9668828704
  9
$TDUSRTIMER
 40
0.9668828704
  9
$USRTIMER
 70
     1
  9
$ANGBASE
 50
0.0
  9
$ANGDIR
 70
     0
  9
$PDMODE
 70
     0
  9
$PDSIZE
 40
0.0
  9
$PLINEWID
 40
0.0
  9
$COORDS
 70
     1
  9
$SPLFRAME
 70
     0
  9
$SPLINETYPE
 70
     6
  9
$SPLINESEGS
 70
     8
  9
$ATTDIA
 70
     0
  9
$ATTREQ
 70
     1
  9
$HANDLING
 70
 10241
  9
$HANDSEED
  5
29D7
  9
$SURFTAB1
 70
     6
  9
$SURFTAB2
 70
     6
  9
$SURFTYPE
 70
     6
  9
$SURFU
 70
     6
  9
$SURFV
 70
     6
  9
$UCSNAME
  2

  9
$UCSORG
 10
0.0
 20
0.0
 30
0.0
  9
$UCSXDIR
 10
1.0
 20
0.0
 30
0.0
  9
$UCSYDIR
 10
0.0
 20
1.0
 30
0.0
  9
$PUCSNAME
  2

  9
$PUCSORG
 10
0.0
 20
0.0
 30
0.0
  9
$PUCSXDIR
 10
1.0
 20
0.0
 30
0.0
  9
$PUCSYDIR
 10
0.0
 20
1.0
 30
0.0
  9
$USERI1
 70
     0
  9
$USERI2
 70
     0
  9
$USERI3
 70
     0
  9
$USERI4
 70
     0
  9
$USERI5
 70
     0
  9
$USERR1
 40
0.0
  9
$USERR2
 40
0.0
  9
$USERR3
 40
0.0
  9
$USERR4
 40
0.0
  9
$USERR5
 40
0.0
  9
$WORLDVIEW
 70
     1
  9
$SHADEDGE
 70
     3
  9
$SHADEDIF
 70
    70
  9
$TILEMODE
 70
     1
  9
$MAXACTVP
 70
    16
  9
$PINSBASE
 10
0.0
 20
0.0
 30
0.0
  9
$PLIMCHECK
 70
     0
  9
$PEXTMIN
 10
1.000000000000000E+20
 20
1.000000000000000E+20
 30
1.000000000000000E+20
  9
$PEXTMAX
 10
-1.000000000000000E+20
 20
-1.000000000000000E+20
 30
-1.000000000000000E+20
  9
$PLIMMIN
 10
0.0
 20
0.0
  9
$PLIMMAX
 10
100.0
 20
100.0
  9
$UNITMODE
 70
     0
  9
$VISRETAIN
 70
     0
  9
$PLINEGEN
 70
     1
  9
$PSLTSCALE
 70
     0
  9
$TREEDEPTH
 70
  3020
  9
$PICKSTYLE
 70
     1
  9
$CMLSTYLE
  2
STANDARD
  9
$CMLJUST
 70
     0
  9
$CMLSCALE
 40
1.0
  9
$SAVEIMAGES
 70
     0
  0
ENDSEC
  0
SECTION
  2
CLASSES
  0
CLASS
  1
LWPOLYLINE
  2
AcDbPolyline
  3
AutoCAD 2000
 90
    32768
280
     0
281
     1
  0
CLASS
  1
IMAGE
  2
AcDbRasterImage
  3
ISM
 90
    32895
280
     0
281
     1
  0
CLASS
  1
OLE2FRAME
  2
AcDbOle2Frame
  3
AutoCAD 2000
 90
    32768
280
     0
281
     1
  0
CLASS
  1
HATCH
  2
AcDbHatch
  3
AutoCAD 2000
 90
    32768
280
     0
281
     1
  0
CLASS
  1
DICTIONARYVAR
  2
AcDbDictionaryVar
  3
AutoCAD 2000
 90
    32768
280
     0
281
     0
  0
CLASS
  1
RASTERVARIABLES
  2
AcDbRasterVariables
  3
ISM
 90
    32768
280
     0
281
     0
  0
CLASS
  1
IMAGEDEF
  2
AcDbRasterImageDef
  3
ISM
 90
    32768
280
     0
281
     0
  0
CLASS
  1
IMAGEDEF_REACTOR
  2
AcDbRasterImageDefReactor
  3
ISM
 90
    32769
280
     0
281
     0
  0
CLASS
  1
IDBUFFER
  2
AcDbIdBuffer
  3
AutoCAD 2000
 90
    32768
280
     0
281
     0
  0
CLASS
  1
SPATIAL_FILTER
  2
AcDbSpatialFilter
  3
AutoCAD 2000
 90
    32768
280
     0
281
     0
  0
CLASS
  1
XRECORD
  2
AcDbXrecord
  3
AutoCAD 2000
 90
    32768
280
     0
281
     0
  0
CLASS
  1
SORTENTSTABLE
  2
AcDbSortentsTable
  3
AutoCAD 2000
 90
    32768
280
     0
281
     0
  0
CLASS
  1
LAYER_INDEX
  2
AcDbLayerIndex
  3
AutoCAD 2000
 90
    32768
280
     0
281
     0
  0
CLASS
  1
SPATIAL_INDEX
  2
AcDbSpatialIndex
  3
AutoCAD 2000
 90
    32768
280
     0
281
     0
  0
CLASS
  1
OBJECT_PTR
  2
CAseDLPNTableRecord
  3
ASE-LPNTableRecord
 90
    32769
280
     0
281
     0
  0
CLASS
  1
LAYOUT
  2
AcDbLayout
  3
AutoCAD 2000
 90
    32768
280
     1
281
     0
  0
CLASS
  1
PLOTSETTINGS
  2
AcDbPlotSettings
  3
AutoCAD 2000
 90
    32768
280
     1
281
     0
  0
CLASS
  1
ACDBDICTIONARYWDFLT
  2
AcDbDictionaryWithDefault
  3
AutoCAD 2000
 90
    32768
280
     1
281
     0
  0
CLASS
  1
ACDBPLACEHOLDER
  2
AcDbPlaceHolder
  3
AutoCAD 2000
 90
    32768
280
     1
281
     0
  0
CLASS
  1
VBA_PROJECT
  2
AcDbVbaProject
  3
"acadvba"
 90
    32769
280
     1
281
     0
  0
CLASS
  1
WIPEOUT
  2
AcDbWipeout
  3
WipeOut|AutoCAD Express Tool|expresstools@autodesk.com
 90
    32895
280
     1
281
     1
  0
CLASS
  1
WIPEOUTVARIABLES
  2
AcDbWipeoutVariables
  3
WipeOut|AutoCAD Express Tool|expresstools@autodesk.com
 90
    32768
280
     1
281
     0
  0
CLASS
  1
RTEXT
  2
RText
  3
RText|AutoCAD Express Tool|expresstools@autodesk.com
 90
    32768
280
     1
281
     1
  0
CLASS
  1
ARCALIGNEDTEXT
  2
AcDbArcAlignedText
  3
ATEXT|AutoCAD Express Tool|expresstools@autodesk.com
 90
    32768
280
     1
281
     1
  0
CLASS
  1
LONG_TRANSACTION
  2
AcDbLongTransaction
  3
AutoCAD 2000
 90
    32768
280
     0
281
     0
  0
CLASS
  1
LWPOLYLINE
  2
AcDbPolyline
  3
AutoCAD 2000
 90
    32768
280
     0
281
     1
  0
CLASS
  1
HATCH
  2
AcDbHatch
  3
AutoCAD 2000
 90
    32768
280
     0
281
     1
  0
CLASS
  1
XRECORD
  2
AcDbXrecord
  3
AutoCAD 2000
 90
    32768
280
     0
281
     0
  0
CLASS
  1
LONG_TRANSACTION
  2
AcDbLongTransaction
  3
AutoCAD 2000
 90
    32768
280
     0
281
     0
  0
CLASS
  1
LWPOLYLINE
  2
AcDbPolyline
  3
AutoCAD 2000
 90
    32768
280
     0
281
     1
  0
CLASS
  1
HATCH
  2
AcDbHatch
  3
AutoCAD 2000
 90
    32768
280
     0
281
     1
  0
CLASS
  1
XRECORD
  2
AcDbXrecord
  3
AutoCAD 2000
 90
    32768
280
     0
281
     0
  0
ENDSEC
  0
SECTION
  2
TABLES
  0
TABLE
  2
VPORT
  5
12
330
0
100
AcDbSymbolTable
 70
     2
  0
VPORT
  5
284A
330
12
100
AcDbSymbolTableRecord
100
AcDbViewportTableRecord
  2
*ACTIVE
 70
     0
 10
0.0
 20
0.0
 11
1.0
 21
1.0
 12
88.19035627540257
 22
67.84840756281859
 13
0.0
 23
0.0
 14
1.0
 24
1.0
 15
2.0
 25
2.0
 16
0.0
 26
0.0
 36
1.0
 17
0.0
 27
0.0
 37
0.0
 40
128.5448354791212
 41
1.731751824817518
 42
50.0
 43
0.0
 44
0.0
 50
0.0
 51
0.0
 71
     0
 72
   100
 73
     1
 74
     1
 75
     0
 76
     0
 77
     0
 78
     0
  0
ENDTAB
  0
TABLE
  2
LTYPE
  5
D
330
0
100
AcDbSymbolTable
 70
     2
  0
LTYPE
  5
E
330
D
100
AcDbSymbolTableRecord
100
AcDbLinetypeTableRecord
  2
BYBLOCK
 70
     0
  3

 72
    65
 73
     0
 40
0.0
  0
LTYPE
  5
F
330
D
100
AcDbSymbolTableRecord
100
AcDbLinetypeTableRecord
  2
BYLAYER
 70
     0
  3

 72
    65
 73
     0
 40
0.0
  0
LTYPE
  5
5
330
D
100
AcDbSymbolTableRecord
100
AcDbLinetypeTableRecord
  2
CONTINUOUS
 70
     0
  3
Solid line
 72
    65
 73
     0
 40
0.0
  0
LTYPE
  5
25F1
330
D
100
AcDbSymbolTableRecord
100
AcDbLinetypeTableRecord
  2
ACAD_ISO02W100
 70
     0
  3
Tratto ISO __ __ __ __ __ __ __ __ __ __ __ __ 
 72
    65
 73
     2
 40
15.0
 49
12.0
 74
     0
 49
-3.0
 74
     0
  0
ENDTAB
  0
TABLE
  2
LAYER
  5
A
330
0
100
AcDbSymbolTable
 70
     5
  0
LAYER
  5
4
330
A
100
AcDbSymbolTableRecord
100
AcDbLayerTableRecord
  2
0
 70
     0
 62
     7
  6
CONTINUOUS
  0
LAYER
  5
24
330
A
100
AcDbSymbolTableRecord
100
AcDbLayerTableRecord
  2
DRAW
 70
     0
 62
     7
  6
CONTINUOUS
  0
LAYER
  5
1F
330
A
100
AcDbSymbolTableRecord
100
AcDbLayerTableRecord
  2
CARTOUCHE
 70
     0
 62
     7
  6
CONTINUOUS
  0
LAYER
  5
571
330
A
100
AcDbSymbolTableRecord
100
AcDbLayerTableRecord
  2
DIM
 70
     0
 62
     3
  6
CONTINUOUS
  0
LAYER
  5
1F18
330
A
100
AcDbSymbolTableRecord
100
AcDbLayerTableRecord
  2
DEFPOINTS
 70
     0
 62
     7
  6
CONTINUOUS
  0
ENDTAB
  0
TABLE
  2
STYLE
  5
B
330
0
100
AcDbSymbolTable
 70
     3
  0
STYLE
  5
C
330
B
100
AcDbSymbolTableRecord
100
AcDbTextStyleTableRecord
  2
STANDARD
 70
     0
 40
0.0
 41
1.0
 50
0.0
 71
     0
 42
0.2
  3
txt
  4

  0
STYLE
  5
1B
330
B
100
AcDbSymbolTableRecord
100
AcDbTextStyleTableRecord
  2
FINDER
 70
     0
 40
1.8
 41
1.0
 50
0.0
 71
     0
 42
1.8
  3
ARIAL.TTF
  4

1001
ACAD
1000
Arial
1071
       34
  0
STYLE
  5
25F0
330
B
100
AcDbSymbolTableRecord
100
AcDbTextStyleTableRecord
  2

 70
     1
 40
0.0
 41
1.0
 50
0.0
 71
     0
 42
1.8
  3
ltypeshp.shx
  4

  0
ENDTAB
  0
TABLE
  2
VIEW
  5
10
330
0
100
AcDbSymbolTable
 70
     0
  0
ENDTAB
  0
TABLE
  2
UCS
  5
11
330
0
100
AcDbSymbolTable
 70
     0
  0
ENDTAB
  0
TABLE
  2
APPID
  5
14
330
0
100
AcDbSymbolTable
 70
     1
  0
APPID
  5
15
330
14
100
AcDbSymbolTableRecord
100
AcDbRegAppTableRecord
  2
ACAD
 70
     0
  0
ENDTAB
  0
TABLE
  2
DIMSTYLE
  5
16
330
0
100
AcDbSymbolTable
 70
     1
  0
DIMSTYLE
105
1D
102
{ACAD_REACTORS
330
2608
330
2615
330
2622
330
262F
330
27C3
102
}
330
16
100
AcDbSymbolTableRecord
100
AcDbDimStyleTableRecord
  2
FINDER
 70
     0
  3

  4

  5

  6

  7

 40
1.0
 41
2.5
 42
2.0
 43
6.5
 44
1.25
 45
0.0
 46
0.0
 47
0.0
 48
0.0
140
3.5
141
2.5
142
0.0
143
0.0393701
144
1.0
145
0.0
146
1.0
147
0.625
 71
     0
 72
     0
 73
     0
 74
     0
 75
     0
 76
     0
 77
     1
 78
     8
170
     0
171
     3
172
     1
173
     0
174
     0
175
     0
176
   256
177
   256
178
     2
270
     2
271
     2
272
     2
273
     2
274
     3
340
1B
275
     0
280
     0
281
     0
282
     0
283
     0
284
     8
285
     0
286
     0
287
     3
288
     0
  0
ENDTAB
  0
TABLE
  2
BLOCK_RECORD
  5
1
330
0
100
AcDbSymbolTable
 70
    31
  0
BLOCK_RECORD
  5
2
102
{ACAD_XDICTIONARY
360
283D
102
}
330
1
100
AcDbSymbolTableRecord
100
AcDbBlockTableRecord
  2
*MODEL_SPACE
  0
BLOCK_RECORD
  5
7
102
{ACAD_XDICTIONARY
360
283F
102
}
330
1
100
AcDbSymbolTableRecord
100
AcDbBlockTableRecord
  2
*PAPER_SPACE
  0
BLOCK_RECORD
  5
2609
330
1
100
AcDbSymbolTableRecord
100
AcDbBlockTableRecord
  2
*D14
  0
BLOCK_RECORD
  5
2616
330
1
100
AcDbSymbolTableRecord
100
AcDbBlockTableRecord
  2
*D15
  0
BLOCK_RECORD
  5
2623
330
1
100
AcDbSymbolTableRecord
100
AcDbBlockTableRecord
  2
*D16
  0
BLOCK_RECORD
  5
2630
330
1
100
AcDbSymbolTableRecord
100
AcDbBlockTableRecord
  2
*D17
  0
BLOCK_RECORD
  5
27C4
330
1
100
AcDbSymbolTableRecord
100
AcDbBlockTableRecord
  2
*D22
  0
BLOCK_RECORD
  5
2853
330
1
100
AcDbSymbolTableRecord
100
AcDbBlockTableRecord
  2
*X23
  0
BLOCK_RECORD
  5
2886
330
1
100
AcDbSymbolTableRecord
100
AcDbBlockTableRecord
  2
*X24
  0
BLOCK_RECORD
  5
289D
330
1
100
AcDbSymbolTableRecord
100
AcDbBlockTableRecord
  2
*X25
  0
BLOCK_RECORD
  5
28AA
330
1
100
AcDbSymbolTableRecord
100
AcDbBlockTableRecord
  2
*X26
  0
BLOCK_RECORD
  5
293B
330
1
100
AcDbSymbolTableRecord
100
AcDbBlockTableRecord
  2
*X27
  0
BLOCK_RECORD
  5
295B
330
1
100
AcDbSymbolTableRecord
100
AcDbBlockTableRecord
  2
*X28
  0
BLOCK_RECORD
  5
298A
330
1
100
AcDbSymbolTableRecord
100
AcDbBlockTableRecord
  2
*X29
  0
BLOCK_RECORD
  5
29B4
330
1
100
AcDbSymbolTableRecord
100
AcDbBlockTableRecord
  2
*X30
  0
ENDTAB
  0
ENDSEC
  0
SECTION
  2
BLOCKS
  0
BLOCK
  5
3
330
2
100
AcDbEntity
  8
0
100
AcDbBlockBegin
  2
*MODEL_SPACE
 70
     0
 10
0.0
 20
0.0
 30
0.0
  3
*MODEL_SPACE
  1

  0
ENDBLK
  5
6
330
2
100
AcDbEntity
  8
0
100
AcDbBlockEnd
  0
BLOCK
  5
8
330
7
100
AcDbEntity
 67
     1
  8
0
100
AcDbBlockBegin
  2
*PAPER_SPACE
 70
     0
 10
0.0
 20
0.0
 30
0.0
  3
*PAPER_SPACE
  1

  0
ENDBLK
  5
9
330
7
100
AcDbEntity
 67
     1
  8
0
100
AcDbBlockEnd
  0
BLOCK
  5
2613
330
2609
100
AcDbEntity
  8
0
100
AcDbBlockBegin
  2
*D14
 70
     1
 10
0.0
 20
0.0
 30
0.0
  3
*D14
  1

  0
LINE
  5
27E6
330
2609
100
AcDbEntity
  8
DIM
  6
CONTINUOUS
100
AcDbLine
 10
44.87108885957286
 20
173.9307828166163
 30
0.0
 11
44.87108885957286
 21
183.2207631079434
 31
0.0
  0
LINE
  5
27E7
330
2609
100
AcDbEntity
  8
DIM
  6
CONTINUOUS
100
AcDbLine
 10
57.67108885957285
 20
173.9307828166163
 30
0.0
 11
57.67108885957285
 21
183.2207631079434
 31
0.0
  0
LINE
  5
27E8
330
2609
100
AcDbEntity
  8
DIM
  6
CONTINUOUS
100
AcDbLine
 10
47.37108885957286
 20
181.9707631079434
 30
0.0
 11
55.17108885957285
 21
181.9707631079434
 31
0.0
  0
SOLID
  5
27E9
330
2609
100
AcDbEntity
  8
DIM
  6
CONTINUOUS
100
AcDbTrace
 10
47.37108885957286
 20
182.38742977461
 30
0.0
 11
47.37108885957286
 21
181.5540964412767
 31
0.0
 12
44.87108885957286
 22
181.9707631079434
 32
0.0
 13
44.87108885957286
 23
181.9707631079434
 33
0.0
  0
SOLID
  5
27EA
330
2609
100
AcDbEntity
  8
DIM
  6
CONTINUOUS
100
AcDbTrace
 10
55.17108885957285
 20
182.38742977461
 30
0.0
 11
55.17108885957285
 21
181.5540964412767
 31
0.0
 12
57.67108885957285
 22
181.9707631079434
 32
0.0
 13
57.67108885957285
 23
181.9707631079434
 33
0.0
  0
MTEXT
  5
27EB
330
2609
100
AcDbEntity
  8
DIM
  6
CONTINUOUS
 62
     2
100
AcDbMText
 10
51.27108885957285
 20
183.5147944858424
 30
0.0
 40
1.8
 41
0.0
 71
     5
 72
     1
  1
12.8
  7
FINDER
1001
ACAD
1000
MTEXTBEGIN
1070
    73
1070
     1
1070
    44
1040
1.0
1070
    74
1070
     0
1000
MTEXTEND
1000
MTEXTBEGIN
1070
    73
1070
     1
1070
    44
1040
1.0
1070
    74
1070
     0
1000
MTEXTEND
  0
POINT
  5
27EC
330
2609
100
AcDbEntity
  8
DEFPOINTS
  6
CONTINUOUS
 62
     0
100
AcDbPoint
 10
44.87108885957286
 20
171.9307828166163
 30
0.0
  0
POINT
  5
27ED
330
2609
100
AcDbEntity
  8
DEFPOINTS
  6
CONTINUOUS
 62
     0
100
AcDbPoint
 10
57.67108885957285
 20
171.9307828166163
 30
0.0
  0
POINT
  5
27EE
330
2609
100
AcDbEntity
  8
DEFPOINTS
  6
CONTINUOUS
 62
     0
100
AcDbPoint
 10
57.67108885957285
 20
181.9707631079434
 30
0.0
  0
ENDBLK
  5
2614
330
2609
100
AcDbEntity
  8
0
100
AcDbBlockEnd
  0
BLOCK
  5
2620
330
2616
100
AcDbEntity
  8
0
100
AcDbBlockBegin
  2
*D15
 70
     1
 10
0.0
 20
0.0
 30
0.0
  3
*D15
  1

  0
LINE
  5
27DD
330
2616
100
AcDbEntity
  8
DIM
  6
CONTINUOUS
100
AcDbLine
 10
43.17108885957286
 20
163.4307828166162
 30
0.0
 11
39.61135667959069
 21
163.4307828166162
 31
0.0
  0
LINE
  5
27DE
330
2616
100
AcDbEntity
  8
DIM
  6
CONTINUOUS
100
AcDbLine
 10
43.17108885957286
 20
172.2307828166163
 30
0.0
 11
39.61135667959069
 21
172.2307828166163
 31
0.0
  0
LINE
  5
27DF
330
2616
100
AcDbEntity
  8
DIM
  6
CONTINUOUS
100
AcDbLine
 10
40.86135667959069
 20
165.9307828166163
 30
0.0
 11
40.86135667959069
 21
169.7307828166163
 31
0.0
  0
SOLID
  5
27E0
330
2616
100
AcDbEntity
  8
DIM
  6
CONTINUOUS
100
AcDbTrace
 10
40.44469001292403
 20
165.9307828166163
 30
0.0
 11
41.27802334625736
 21
165.9307828166163
 31
0.0
 12
40.86135667959069
 22
163.4307828166162
 32
0.0
 13
40.86135667959069
 23
163.4307828166162
 33
0.0
  0
SOLID
  5
27E1
330
2616
100
AcDbEntity
  8
DIM
  6
CONTINUOUS
100
AcDbTrace
 10
40.44469001292403
 20
169.7307828166163
 30
0.0
 11
41.27802334625736
 21
169.7307828166163
 31
0.0
 12
40.86135667959069
 22
172.2307828166163
 32
0.0
 13
40.86135667959069
 23
172.2307828166163
 33
0.0
  0
MTEXT
  5
27E2
330
2616
100
AcDbEntity
  8
DIM
  6
CONTINUOUS
 62
     2
100
AcDbMText
 10
39.31732530169162
 20
167.8307828166163
 30
0.0
 40
1.8
 41
0.0
 71
     5
 72
     1
  1
8.8
  7
FINDER
 11
0.0000000000000001
 21
1.0
 31
0.0
1001
ACAD
1000
MTEXTBEGIN
1070
    73
1070
     1
1070
    44
1040
1.0
1070
    74
1070
     0
1000
MTEXTEND
1000
MTEXTBEGIN
1070
    73
1070
     1
1070
    44
1040
1.0
1070
    74
1070
     0
1000
MTEXTEND
  0
POINT
  5
27E3
330
2616
100
AcDbEntity
  8
DEFPOINTS
  6
CONTINUOUS
 62
     0
100
AcDbPoint
 10
45.17108885957286
 20
163.4307828166162
 30
0.0
  0
POINT
  5
27E4
330
2616
100
AcDbEntity
  8
DEFPOINTS
  6
CONTINUOUS
 62
     0
100
AcDbPoint
 10
45.17108885957286
 20
172.2307828166163
 30
0.0
  0
POINT
  5
27E5
330
2616
100
AcDbEntity
  8
DEFPOINTS
  6
CONTINUOUS
 62
     0
100
AcDbPoint
 10
40.86135667959069
 20
172.2307828166163
 30
0.0
  0
ENDBLK
  5
2621
330
2616
100
AcDbEntity
  8
0
100
AcDbBlockEnd
  0
BLOCK
  5
262D
330
2623
100
AcDbEntity
  8
0
100
AcDbBlockBegin
  2
*D16
 70
     1
 10
0.0
 20
0.0
 30
0.0
  3
*D16
  1

  0
LINE
  5
277E
330
2623
100
AcDbEntity
  8
DIM
  6
CONTINUOUS
100
AcDbLine
 10
114.8941383356116
 20
173.977694316928
 30
0.0
 11
114.8941383356116
 21
184.0775810837394
 31
0.0
  0
LINE
  5
277F
330
2623
100
AcDbEntity
  8
DIM
  6
CONTINUOUS
100
AcDbLine
 10
92.39413833561162
 20
173.977694316928
 30
0.0
 11
92.39413833561162
 21
184.0775810837394
 31
0.0
  0
LINE
  5
2780
330
2623
100
AcDbEntity
  8
DIM
  6
CONTINUOUS
100
AcDbLine
 10
112.3941383356116
 20
182.8275810837394
 30
0.0
 11
94.89413833561162
 21
182.8275810837394
 31
0.0
  0
SOLID
  5
2781
330
2623
100
AcDbEntity
  8
DIM
  6
CONTINUOUS
100
AcDbTrace
 10
112.3941383356116
 20
183.2442477504061
 30
0.0
 11
112.3941383356116
 21
182.4109144170727
 31
0.0
 12
114.8941383356116
 22
182.8275810837394
 32
0.0
 13
114.8941383356116
 23
182.8275810837394
 33
0.0
  0
SOLID
  5
2782
330
2623
100
AcDbEntity
  8
DIM
  6
CONTINUOUS
100
AcDbTrace
 10
94.89413833561162
 20
183.2442477504061
 30
0.0
 11
94.89413833561162
 21
182.4109144170727
 31
0.0
 12
92.39413833561162
 22
182.8275810837394
 32
0.0
 13
92.39413833561162
 23
182.8275810837394
 33
0.0
  0
MTEXT
  5
2783
330
2623
100
AcDbEntity
  8
DIM
  6
CONTINUOUS
 62
     2
100
AcDbMText
 10
103.6441383356116
 20
184.3716124616385
 30
0.0
 40
1.8
 41
0.0
 71
     5
 72
     1
  1
22.5
  7
FINDER
1001
ACAD
1000
MTEXTBEGIN
1070
    73
1070
     1
1070
    44
1040
1.0
1070
    74
1070
     0
1000
MTEXTEND
1000
MTEXTBEGIN
1070
    73
1070
     1
1070
    44
1040
1.0
1070
    74
1070
     0
1000
MTEXTEND
  0
POINT
  5
2784
330
2623
100
AcDbEntity
  8
DEFPOINTS
  6
CONTINUOUS
 62
     0
100
AcDbPoint
 10
114.8941383356116
 20
171.977694316928
 30
0.0
  0
POINT
  5
2785
330
2623
100
AcDbEntity
  8
DEFPOINTS
  6
CONTINUOUS
 62
     0
100
AcDbPoint
 10
92.39413833561162
 20
171.977694316928
 30
0.0
  0
POINT
  5
2786
330
2623
100
AcDbEntity
  8
DEFPOINTS
  6
CONTINUOUS
 62
     0
100
AcDbPoint
 10
92.39413833561162
 20
182.8275810837394
 30
0.0
  0
ENDBLK
  5
262E
330
2623
100
AcDbEntity
  8
0
100
AcDbBlockEnd
  0
BLOCK
  5
263A
330
2630
100
AcDbEntity
  8
0
100
AcDbBlockBegin
  2
*D17
 70
     1
 10
0.0
 20
0.0
 30
0.0
  3
*D17
  1

  0
LINE
  5
2787
330
2630
100
AcDbEntity
  8
DIM
  6
CONTINUOUS
100
AcDbLine
 10
116.8941383356116
 20
171.977694316928
 30
0.0
 11
128.3515294635537
 21
171.977694316928
 31
0.0
  0
LINE
  5
2788
330
2630
100
AcDbEntity
  8
DIM
  6
CONTINUOUS
100
AcDbLine
 10
116.8941383356116
 20
163.177694316928
 30
0.0
 11
128.3515294635537
 21
163.177694316928
 31
0.0
  0
LINE
  5
2789
330
2630
100
AcDbEntity
  8
DIM
  6
CONTINUOUS
100
AcDbLine
 10
127.1015294635537
 20
169.477694316928
 30
0.0
 11
127.1015294635537
 21
165.677694316928
 31
0.0
  0
SOLID
  5
278A
330
2630
100
AcDbEntity
  8
DIM
  6
CONTINUOUS
100
AcDbTrace
 10
126.6848627968871
 20
169.477694316928
 30
0.0
 11
127.5181961302204
 21
169.477694316928
 31
0.0
 12
127.1015294635537
 22
171.977694316928
 32
0.0
 13
127.1015294635537
 23
171.977694316928
 33
0.0
  0
SOLID
  5
278B
330
2630
100
AcDbEntity
  8
DIM
  6
CONTINUOUS
100
AcDbTrace
 10
126.6848627968871
 20
165.677694316928
 30
0.0
 11
127.5181961302204
 21
165.677694316928
 31
0.0
 12
127.1015294635537
 22
163.177694316928
 32
0.0
 13
127.1015294635537
 23
163.177694316928
 33
0.0
  0
MTEXT
  5
278C
330
2630
100
AcDbEntity
  8
DIM
  6
CONTINUOUS
 62
     2
100
AcDbMText
 10
125.5574980856547
 20
167.577694316928
 30
0.0
 40
1.8
 41
0.0
 71
     5
 72
     1
  1
8.8
  7
FINDER
 11
0.0000000000000001
 21
1.0
 31
0.0
1001
ACAD
1000
MTEXTBEGIN
1070
    73
1070
     1
1070
    44
1040
1.0
1070
    74
1070
     0
1000
MTEXTEND
1000
MTEXTBEGIN
1070
    73
1070
     1
1070
    44
1040
1.0
1070
    74
1070
     0
1000
MTEXTEND
  0
POINT
  5
278D
330
2630
100
AcDbEntity
  8
DEFPOINTS
  6
CONTINUOUS
 62
     0
100
AcDbPoint
 10
114.8941383356116
 20
171.977694316928
 30
0.0
  0
POINT
  5
278E
330
2630
100
AcDbEntity
  8
DEFPOINTS
  6
CONTINUOUS
 62
     0
100
AcDbPoint
 10
114.8941383356116
 20
163.177694316928
 30
0.0
  0
POINT
  5
278F
330
2630
100
AcDbEntity
  8
DEFPOINTS
  6
CONTINUOUS
 62
     0
100
AcDbPoint
 10
127.1015294635537
 20
163.177694316928
 30
0.0
  0
ENDBLK
  5
263B
330
2630
100
AcDbEntity
  8
0
100
AcDbBlockEnd
  0
BLOCK
  5
27D0
330
27C4
100
AcDbEntity
  8
0
100
AcDbBlockBegin
  2
*D22
 70
     1
 10
0.0
 20
0.0
 30
0.0
  3
*D22
  1

  0
LINE
  5
27D2
330
27C4
100
AcDbEntity
  8
DIM
  6
CONTINUOUS
100
AcDbLine
 10
82.39413833561162
 20
166.8288280020884
 30
0.0
 11
80.45187551106437
 21
166.8288280020884
 31
0.0
  0
LINE
  5
27D3
330
27C4
100
AcDbEntity
  8
DIM
  6
CONTINUOUS
100
AcDbLine
 10
82.39413833561162
 20
170.2288280020884
 30
0.0
 11
80.45187551106437
 21
170.2288280020884
 31
0.0
  0
LINE
  5
27D4
330
27C4
100
AcDbEntity
  8
DIM
  6
CONTINUOUS
100
AcDbLine
 10
81.70187551106437
 20
164.3288280020884
 30
0.0
 11
81.70187551106437
 21
161.8288280020884
 31
0.0
  0
LINE
  5
27D5
330
27C4
100
AcDbEntity
  8
DIM
  6
CONTINUOUS
100
AcDbLine
 10
81.70187551106437
 20
172.7288280020884
 30
0.0
 11
81.70187551106437
 21
179.7473136773954
 31
0.0
  0
LINE
  5
27D6
330
27C4
100
AcDbEntity
  8
DIM
  6
CONTINUOUS
100
AcDbLine
 10
81.70187551106437
 20
166.8288280020884
 30
0.0
 11
81.70187551106437
 21
170.2288280020884
 31
0.0
  0
SOLID
  5
27D7
330
27C4
100
AcDbEntity
  8
DIM
  6
CONTINUOUS
100
AcDbTrace
 10
81.28520884439771
 20
164.3288280020884
 30
0.0
 11
82.11854217773105
 21
164.3288280020884
 31
0.0
 12
81.70187551106437
 22
166.8288280020884
 32
0.0
 13
81.70187551106437
 23
166.8288280020884
 33
0.0
  0
SOLID
  5
27D8
330
27C4
100
AcDbEntity
  8
DIM
  6
CONTINUOUS
100
AcDbTrace
 10
81.28520884439771
 20
172.7288280020884
 30
0.0
 11
82.11854217773105
 21
172.7288280020884
 31
0.0
 12
81.70187551106437
 22
170.2288280020884
 32
0.0
 13
81.70187551106437
 23
170.2288280020884
 33
0.0
  0
MTEXT
  5
27D9
330
27C4
100
AcDbEntity
  8
DIM
  6
CONTINUOUS
 62
     2
100
AcDbMText
 10
80.1572302177492
 20
177.4880708397419
 30
0.0
 40
1.8
 41
0.0
 71
     5
 72
     1
  1
3.4
  7
FINDER
 11
0.0000000000000001
 21
1.0
 31
0.0
1001
ACAD
1000
MTEXTBEGIN
1070
    73
1070
     1
1070
    44
1040
1.0
1070
    74
1070
     0
1000
MTEXTEND
1000
MTEXTBEGIN
1070
    73
1070
     1
1070
    44
1040
1.0
1070
    74
1070
     0
1000
MTEXTEND
  0
POINT
  5
27DA
330
27C4
100
AcDbEntity
  8
DEFPOINTS
  6
CONTINUOUS
 62
     0
100
AcDbPoint
 10
84.39413833561161
 20
166.8288280020884
 30
0.0
  0
POINT
  5
27DB
330
27C4
100
AcDbEntity
  8
DEFPOINTS
  6
CONTINUOUS
 62
     0
100
AcDbPoint
 10
84.39413833561161
 20
170.2288280020884
 30
0.0
  0
POINT
  5
27DC
330
27C4
100
AcDbEntity
  8
DEFPOINTS
  6
CONTINUOUS
 62
     0
100
AcDbPoint
 10
81.70187551106437
 20
170.2288280020884
 30
0.0
  0
ENDBLK
  5
27D1
330
27C4
100
AcDbEntity
  8
0
100
AcDbBlockEnd
  0
BLOCK
  5
2884
330
2853
100
AcDbEntity
  8
0
100
AcDbBlockBegin
  2
*X23
 70
     1
 10
0.0
 20
0.0
 30
0.0
  3
*X23
  1

  0
LINE
  5
2854
330
2853
100
AcDbEntity
  8
0
  6
CONTINUOUS
 62
     0
100
AcDbLine
 10
41.23382443163126
 20
20.81454444845637
 30
0.0
 11
42.03852064718826
 21
21.61924066401338
 31
0.0
  0
LINE
  5
2855
330
2853
100
AcDbEntity
  8
0
  6
CONTINUOUS
 62
     0
100
AcDbLine
 10
40.761924316934
 20
20.62548705044843
 30
0.0
 11
41.99208087360227
 21
21.85564360711669
 31
0.0
  0
LINE
  5
2856
330
2853
100
AcDbEntity
  8
0
  6
CONTINUOUS
 62
     0
100
AcDbLine
 10
42.10936425852561
 20
22.25576970872933
 30
0.0
 11
42.23468802862376
 21
22.38109347882748
 31
0.0
  0
LINE
  5
2857
330
2853
100
AcDbEntity
  8
0
  6
CONTINUOUS
 62
     0
100
AcDbLine
 10
40.38714372147003
 20
20.53354917167375
 30
0.0
 11
41.70923815691296
 21
21.85564360711669
 31
0.0
  0
LINE
  5
2858
330
2853
100
AcDbEntity
  8
0
  6
CONTINUOUS
 62
     0
100
AcDbLine
 10
41.82543336328735
 20
22.25468153018038
 30
0.0
 11
42.24862438405333
 21
22.67787255094635
 31
0.0
  0
LINE
  5
2859
330
2853
100
AcDbEntity
  8
0
  6
CONTINUOUS
 62
     0
100
AcDbLine
 10
40.0527804866274
 20
20.48202865352042
 30
0.0
 11
41.42639544022366
 21
21.85564360711669
 31
0.0
  0
LINE
  5
285A
330
2853
100
AcDbEntity
  8
0
  6
CONTINUOUS
 62
     0
100
AcDbLine
 10
41.54150246804907
 20
22.2535933516314
 30
0.0
 11
42.21409021783318
 21
22.92618110141551
 31
0.0
  0
LINE
  5
285B
330
2853
100
AcDbEntity
  8
0
  6
CONTINUOUS
 62
     0
100
AcDbLine
 10
39.74394012551539
 20
20.45603100909772
 30
0.0
 11
41.14355272353435
 21
21.85564360711669
 31
0.0
  0
LINE
  5
285C
330
2853
100
AcDbEntity
  8
0
  6
CONTINUOUS
 62
     0
100
AcDbLine
 10
41.25757157281079
 20
22.25250517308243
 30
0.0
 11
42.1560324540612
 21
23.15096605433283
 31
0.0
  0
LINE
  5
285D
330
2853
100
AcDbEntity
  8
0
  6
CONTINUOUS
 62
     0
100
AcDbLine
 10
39.44878816058276
 20
20.4437217608544
 30
0.0
 11
40.86071000684505
 21
21.85564360711669
 31
0.0
  0
LINE
  5
285E
330
2853
100
AcDbEntity
  8
0
  6
CONTINUOUS
 62
     0
100
AcDbLine
 10
40.97364067757253
 20
22.25141699453347
 30
0.0
 11
42.08269660975441
 21
23.36047292671535
 31
0.0
  0
LINE
  5
285F
330
2853
100
AcDbEntity
  8
0
  6
CONTINUOUS
 62
     0
100
AcDbLine
 10
39.16676589738567
 20
20.44454221434661
 30
0.0
 11
40.57786729015575
 21
21.85564360711669
 31
0.0
  0
LINE
  5
2860
330
2853
100
AcDbEntity
  8
0
  6
CONTINUOUS
 62
     0
100
AcDbLine
 10
40.68970978233426
 20
22.25032881598449
 30
0.0
 11
41.99226190333589
 21
23.55288093698613
 31
0.0
  0
LINE
  5
2861
330
2853
100
AcDbEntity
  8
0
  6
CONTINUOUS
 62
     0
100
AcDbLine
 10
38.90253497223048
 20
20.46315400588072
 30
0.0
 11
40.17887150097073
 21
21.73949053462098
 31
0.0
  0
LINE
  5
2862
330
2853
100
AcDbEntity
  8
0
  6
CONTINUOUS
 62
     0
100
AcDbLine
 10
40.40577888709599
 20
22.24924063743553
 30
0.0
 11
41.88575764934264
 21
23.72921939968218
 31
0.0
  0
LINE
  5
2863
330
2853
100
AcDbEntity
  8
0
  6
CONTINUOUS
 62
     0
100
AcDbLine
 10
38.65076933945138
 20
20.49423108979092
 30
0.0
 11
39.71113473632248
 21
21.55459648666203
 31
0.0
  0
LINE
  5
2864
330
2853
100
AcDbEntity
  8
0
  6
CONTINUOUS
 62
     0
100
AcDbLine
 10
40.12184799185771
 20
22.24815245888656
 30
0.0
 11
41.76313160843945
 21
23.88943607546831
 31
0.0
  0
LINE
  5
2865
330
2853
100
AcDbEntity
  8
0
  6
CONTINUOUS
 62
     0
100
AcDbLine
 10
38.40769348166068
 20
20.53399794868953
 30
0.0
 11
39.41154543156577
 21
21.53784989859462
 31
0.0
  0
LINE
  5
2866
330
2853
100
AcDbEntity
  8
0
  6
CONTINUOUS
 62
     0
100
AcDbLine
 10
39.83791709661943
 20
22.24706428033758
 30
0.0
 11
41.62484932044399
 21
24.03399650416214
 31
0.0
  0
LINE
  5
2867
330
2853
100
AcDbEntity
  8
0
  6
CONTINUOUS
 62
     0
100
AcDbLine
 10
38.18012839871428
 20
20.58927558243244
 30
0.0
 11
39.1623236792862
 21
21.57147086300435
 31
0.0
  0
LINE
  5
2868
330
2853
100
AcDbEntity
  8
0
  6
CONTINUOUS
 62
     0
100
AcDbLine
 10
39.55398620138117
 20
22.24597610178863
 30
0.0
 11
41.47049606392519
 21
24.16248596433264
 31
0.0
  0
LINE
  5
2869
330
2853
100
AcDbEntity
  8
0
  6
CONTINUOUS
 62
     0
100
AcDbLine
 10
37.96719003858655
 20
20.659179938994
 30
0.0
 11
38.94359023101842
 21
21.63558013142588
 31
0.0
  0
LINE
  5
286A
330
2853
100
AcDbEntity
  8
0
  6
CONTINUOUS
 62
     0
100
AcDbLine
 10
39.27005530614289
 20
22.24488792323966
 30
0.0
 11
40.10436099001994
 21
23.07919360711669
 31
0.0
  0
LINE
  5
286B
330
2853
100
AcDbEntity
  8
0
  6
CONTINUOUS
 62
     0
100
AcDbLine
 10
40.29675631659836
 20
23.27158893369511
 30
0.0
 11
41.30607525588014
 21
24.2809078729769
 31
0.0
  0
LINE
  5
286C
330
2853
100
AcDbEntity
  8
0
  6
CONTINUOUS
 62
     0
100
AcDbLine
 10
37.76212663821223
 20
20.736959255309
 30
0.0
 11
38.75166696582754
 21
21.7264995829243
 31
0.0
  0
LINE
  5
286D
330
2853
100
AcDbEntity
  8
0
  6
CONTINUOUS
 62
     0
100
AcDbLine
 10
38.98676827333064
 20
22.24444360711669
 30
0.0
 11
39.82151827333064
 21
23.07919360711669
 31
0.0
  0
LINE
  5
286E
330
2853
100
AcDbEntity
  8
0
  6
CONTINUOUS
 62
     0
100
AcDbLine
 10
40.18585519244889
 20
23.44353052623496
 30
0.0
 11
41.12716214713813
 21
24.38483748092419
 31
0.0
  0
LINE
  5
286F
330
2853
100
AcDbEntity
  8
0
  6
CONTINUOUS
 62
     0
100
AcDbLine
 10
37.56707697671666
 20
20.82475231050272
 30
0.0
 11
38.58724192642089
 21
21.84491726020695
 31
0.0
  0
LINE
  5
2870
330
2853
100
AcDbEntity
  8
0
  6
CONTINUOUS
 62
     0
100
AcDbLine
 10
38.70392555664134
 20
22.2444436071167
 30
0.0
 11
39.53867555664134
 21
23.0791936071167
 31
0.0
  0
LINE
  5
2871
330
2853
100
AcDbEntity
  8
0
  6
CONTINUOUS
 62
     0
100
AcDbLine
 10
40.03559926541862
 20
23.576117315894
 30
0.0
 11
40.93254152617326
 21
24.47305957664864
 31
0.0
  0
LINE
  5
2872
330
2853
100
AcDbEntity
  8
0
  6
CONTINUOUS
 62
     0
100
AcDbLine
 10
37.38616166485813
 20
20.9266797153335
 30
0.0
 11
38.458813829234
 21
21.99933187970937
 31
0.0
  0
LINE
  5
2873
330
2853
100
AcDbEntity
  8
0
  6
CONTINUOUS
 62
     0
100
AcDbLine
 10
38.42108283995202
 20
22.2444436071167
 30
0.0
 11
39.25583283995202
 21
23.0791936071167
 31
0.0
  0
LINE
  5
2874
330
2853
100
AcDbEntity
  8
0
  6
CONTINUOUS
 62
     0
100
AcDbLine
 10
39.8536624306423
 20
23.67702319780697
 30
0.0
 11
40.72194545099562
 21
24.54530621816029
 31
0.0
  0
LINE
  5
2875
330
2853
100
AcDbEntity
  8
0
  6
CONTINUOUS
 62
     0
100
AcDbLine
 10
37.22184984512831
 20
21.04521061229298
 30
0.0
 11
38.375638430372
 21
22.19899919753668
 31
0.0
  0
LINE
  5
2876
330
2853
100
AcDbEntity
  8
0
  6
CONTINUOUS
 62
     0
100
AcDbLine
 10
39.63845355989358
 20
23.74465704374755
 30
0.0
 11
40.5012357738023
 21
24.60743925765628
 31
0.0
  0
LINE
  5
2877
330
2853
100
AcDbEntity
  8
0
  6
CONTINUOUS
 62
     0
100
AcDbLine
 10
37.07655956159225
 20
21.18276304544623
 30
0.0
 11
38.97299012326272
 21
23.0791936071167
 31
0.0
  0
LINE
  5
2878
330
2853
100
AcDbEntity
  8
0
  6
CONTINUOUS
 62
     0
100
AcDbLine
 10
39.38487978059393
 20
23.77392598113722
 30
0.0
 11
40.26957641099243
 21
24.65862261153572
 31
0.0
  0
LINE
  5
2879
330
2853
100
AcDbEntity
  8
0
  6
CONTINUOUS
 62
     0
100
AcDbLine
 10
36.94605200688531
 20
21.33509820742859
 30
0.0
 11
38.69014740657342
 21
23.0791936071167
 31
0.0
  0
LINE
  5
287A
330
2853
100
AcDbEntity
  8
0
  6
CONTINUOUS
 62
     0
100
AcDbLine
 10
39.06924509432824
 20
23.74113401156083
 30
0.0
 11
40.02610276084062
 21
24.69799167807321
 31
0.0
  0
LINE
  5
287B
330
2853
100
AcDbEntity
  8
0
  6
CONTINUOUS
 62
     0
100
AcDbLine
 10
36.82592221508353
 20
21.49781113231611
 30
0.0
 11
38.40730468988412
 21
23.07919360711669
 31
0.0
  0
LINE
  5
287C
330
2853
100
AcDbEntity
  8
0
  6
CONTINUOUS
 62
     0
100
AcDbLine
 10
36.72204470147373
 20
21.67677633539562
 30
0.0
 11
39.76916940185159
 21
24.72390103577348
 31
0.0
  0
LINE
  5
287D
330
2853
100
AcDbEntity
  8
0
  6
CONTINUOUS
 62
     0
100
AcDbLine
 10
36.63367221868488
 20
21.87124656929607
 30
0.0
 11
39.49239259327073
 21
24.72996694388192
 31
0.0
  0
LINE
  5
287E
330
2853
100
AcDbEntity
  8
0
  6
CONTINUOUS
 62
     0
100
AcDbLine
 10
36.55872697385153
 20
22.07914404115202
 30
0.0
 11
39.21488928388358
 21
24.73530635118407
 31
0.0
  0
LINE
  5
287F
330
2853
100
AcDbEntity
  8
0
  6
CONTINUOUS
 62
     0
100
AcDbLine
 10
36.50347549367967
 20
22.30673527766947
 30
0.0
 11
38.91033768825782
 21
24.71359747224762
 31
0.0
  0
LINE
  5
2880
330
2853
100
AcDbEntity
  8
0
  6
CONTINUOUS
 62
     0
100
AcDbLine
 10
36.47892411431334
 20
22.56502661499244
 30
0.0
 11
38.59996447924426
 21
24.68606697992337
 31
0.0
  0
LINE
  5
2881
330
2853
100
AcDbEntity
  8
0
  6
CONTINUOUS
 62
     0
100
AcDbLine
 10
36.49730619074715
 20
22.86625140811556
 30
0.0
 11
38.25254582337645
 21
24.62149104074486
 31
0.0
  0
LINE
  5
2882
330
2853
100
AcDbEntity
  8
0
  6
CONTINUOUS
 62
     0
100
AcDbLine
 10
36.58207047382975
 20
23.23385840788746
 30
0.0
 11
37.8616737342633
 21
24.51346166832101
 31
0.0
  0
LINE
  5
2883
330
2853
100
AcDbEntity
  8
0
  6
CONTINUOUS
 62
     0
100
AcDbLine
 10
36.87895768640204
 20
23.81358833714906
 30
0.0
 11
37.28993357936131
 21
24.22456423010832
 31
0.0
  0
ENDBLK
  5
2885
330
2853
100
AcDbEntity
  8
0
100
AcDbBlockEnd
  0
BLOCK
  5
289B
330
2886
100
AcDbEntity
  8
0
100
AcDbBlockBegin
  2
*X24
 70
     1
 10
0.0
 20
0.0
 30
0.0
  3
*X24
  1

  0
LINE
  5
2887
330
2886
100
AcDbEntity
  8
0
  6
CONTINUOUS
 62
     0
100
AcDbLine
 10
23.51512515555474
 20
20.63209360711669
 30
0.0
 11
23.6259729762125
 21
20.74294142777445
 31
0.0
  0
LINE
  5
2888
330
2886
100
AcDbEntity
  8
0
  6
CONTINUOUS
 62
     0
100
AcDbLine
 10
23.23228243886543
 20
20.63209360711669
 30
0.0
 11
23.6259729762125
 21
21.02578414446375
 31
0.0
  0
LINE
  5
2889
330
2886
100
AcDbEntity
  8
0
  6
CONTINUOUS
 62
     0
100
AcDbLine
 10
22.94943972217613
 20
20.63209360711668
 30
0.0
 11
23.6259729762125
 21
21.30862686115305
 31
0.0
  0
LINE
  5
288A
330
2886
100
AcDbEntity
  8
0
  6
CONTINUOUS
 62
     0
100
AcDbLine
 10
22.66659700548682
 20
20.63209360711668
 30
0.0
 11
23.62597297621249
 21
21.59146957784236
 31
0.0
  0
LINE
  5
288B
330
2886
100
AcDbEntity
  8
0
  6
CONTINUOUS
 62
     0
100
AcDbLine
 10
22.38375428879752
 20
20.63209360711668
 30
0.0
 11
23.62597297621249
 21
21.87431229453166
 31
0.0
  0
LINE
  5
288C
330
2886
100
AcDbEntity
  8
0
  6
CONTINUOUS
 62
     0
100
AcDbLine
 10
22.10091157210821
 20
20.63209360711669
 30
0.0
 11
23.62597297621249
 21
22.15715501122097
 31
0.0
  0
LINE
  5
288D
330
2886
100
AcDbEntity
  8
0
  6
CONTINUOUS
 62
     0
100
AcDbLine
 10
21.81806885541891
 20
20.63209360711669
 30
0.0
 11
23.6259729762125
 21
22.43999772791027
 31
0.0
  0
LINE
  5
288E
330
2886
100
AcDbEntity
  8
0
  6
CONTINUOUS
 62
     0
100
AcDbLine
 10
21.8079729762125
 20
20.90484044459958
 30
0.0
 11
23.6259729762125
 21
22.72284044459957
 31
0.0
  0
LINE
  5
288F
330
2886
100
AcDbEntity
  8
0
  6
CONTINUOUS
 62
     0
100
AcDbLine
 10
21.8079729762125
 20
21.18768316128889
 30
0.0
 11
23.6259729762125
 21
23.00568316128888
 31
0.0
  0
LINE
  5
2890
330
2886
100
AcDbEntity
  8
0
  6
CONTINUOUS
 62
     0
100
AcDbLine
 10
21.8079729762125
 20
21.47052587797819
 30
0.0
 11
23.6259729762125
 21
23.28852587797818
 31
0.0
  0
LINE
  5
2891
330
2886
100
AcDbEntity
  8
0
  6
CONTINUOUS
 62
     0
100
AcDbLine
 10
21.8079729762125
 20
21.75336859466749
 30
0.0
 11
23.6259729762125
 21
23.57136859466749
 31
0.0
  0
LINE
  5
2892
330
2886
100
AcDbEntity
  8
0
  6
CONTINUOUS
 62
     0
100
AcDbLine
 10
21.8079729762125
 20
22.03621131135679
 30
0.0
 11
23.6259729762125
 21
23.85421131135679
 31
0.0
  0
LINE
  5
2893
330
2886
100
AcDbEntity
  8
0
  6
CONTINUOUS
 62
     0
100
AcDbLine
 10
21.80797297621249
 20
22.31905402804609
 30
0.0
 11
23.62597297621249
 21
24.13705402804609
 31
0.0
  0
LINE
  5
2894
330
2886
100
AcDbEntity
  8
0
  6
CONTINUOUS
 62
     0
100
AcDbLine
 10
21.80797297621249
 20
22.6018967447354
 30
0.0
 11
23.62597297621249
 21
24.4198967447354
 31
0.0
  0
LINE
  5
2895
330
2886
100
AcDbEntity
  8
0
  6
CONTINUOUS
 62
     0
100
AcDbLine
 10
21.8079729762125
 20
22.88473946142471
 30
0.0
 11
23.43162712190448
 21
24.50839360711669
 31
0.0
  0
LINE
  5
2896
330
2886
100
AcDbEntity
  8
0
  6
CONTINUOUS
 62
     0
100
AcDbLine
 10
21.8079729762125
 20
23.16758217811401
 30
0.0
 11
23.14878440521518
 21
24.50839360711669
 31
0.0
  0
LINE
  5
2897
330
2886
100
AcDbEntity
  8
0
  6
CONTINUOUS
 62
     0
100
AcDbLine
 10
21.8079729762125
 20
23.45042489480332
 30
0.0
 11
22.86594168852587
 21
24.50839360711669
 31
0.0
  0
LINE
  5
2898
330
2886
100
AcDbEntity
  8
0
  6
CONTINUOUS
 62
     0
100
AcDbLine
 10
21.8079729762125
 20
23.73326761149262
 30
0.0
 11
22.58309897183657
 21
24.50839360711668
 31
0.0
  0
LINE
  5
2899
330
2886
100
AcDbEntity
  8
0
  6
CONTINUOUS
 62
     0
100
AcDbLine
 10
21.8079729762125
 20
24.01611032818192
 30
0.0
 11
22.30025625514727
 21
24.50839360711668
 31
0.0
  0
LINE
  5
289A
330
2886
100
AcDbEntity
  8
0
  6
CONTINUOUS
 62
     0
100
AcDbLine
 10
21.8079729762125
 20
24.29895304487122
 30
0.0
 11
22.01741353845796
 21
24.50839360711668
 31
0.0
  0
ENDBLK
  5
289C
330
2886
100
AcDbEntity
  8
0
100
AcDbBlockEnd
  0
BLOCK
  5
28A8
330
289D
100
AcDbEntity
  8
0
100
AcDbBlockBegin
  2
*X25
 70
     1
 10
0.0
 20
0.0
 30
0.0
  3
*X25
  1

  0
LINE
  5
289E
330
289D
100
AcDbEntity
  8
0
  6
CONTINUOUS
 62
     0
100
AcDbLine
 10
23.58348440521518
 20
24.94309360711669
 30
0.0
 11
23.6259729762125
 21
24.98558217811401
 31
0.0
  0
LINE
  5
289F
330
289D
100
AcDbEntity
  8
0
  6
CONTINUOUS
 62
     0
100
AcDbLine
 10
23.30064168852588
 20
24.94309360711669
 30
0.0
 11
23.6259729762125
 21
25.26842489480332
 31
0.0
  0
LINE
  5
28A0
330
289D
100
AcDbEntity
  8
0
  6
CONTINUOUS
 62
     0
100
AcDbLine
 10
23.01779897183657
 20
24.94309360711669
 30
0.0
 11
23.6259729762125
 21
25.55126761149262
 31
0.0
  0
LINE
  5
28A1
330
289D
100
AcDbEntity
  8
0
  6
CONTINUOUS
 62
     0
100
AcDbLine
 10
22.73495625514727
 20
24.94309360711669
 30
0.0
 11
23.6259729762125
 21
25.83411032818192
 31
0.0
  0
LINE
  5
28A2
330
289D
100
AcDbEntity
  8
0
  6
CONTINUOUS
 62
     0
100
AcDbLine
 10
22.45211353845797
 20
24.94309360711669
 30
0.0
 11
23.34401353845797
 21
25.83499360711669
 31
0.0
  0
LINE
  5
28A3
330
289D
100
AcDbEntity
  8
0
  6
CONTINUOUS
 62
     0
100
AcDbLine
 10
22.16927082176867
 20
24.94309360711669
 30
0.0
 11
23.06117082176866
 21
25.83499360711668
 31
0.0
  0
LINE
  5
28A4
330
289D
100
AcDbEntity
  8
0
  6
CONTINUOUS
 62
     0
100
AcDbLine
 10
21.88642810507935
 20
24.94309360711669
 30
0.0
 11
22.77832810507936
 21
25.83499360711669
 31
0.0
  0
LINE
  5
28A5
330
289D
100
AcDbEntity
  8
0
  6
CONTINUOUS
 62
     0
100
AcDbLine
 10
21.8079729762125
 20
25.14748119493914
 30
0.0
 11
22.49548538839006
 21
25.83499360711669
 31
0.0
  0
LINE
  5
28A6
330
289D
100
AcDbEntity
  8
0
  6
CONTINUOUS
 62
     0
100
AcDbLine
 10
21.8079729762125
 20
25.43032391162844
 30
0.0
 11
22.21264267170075
 21
25.8349936071167
 31
0.0
  0
LINE
  5
28A7
330
289D
100
AcDbEntity
  8
0
  6
CONTINUOUS
 62
     0
100
AcDbLine
 10
21.8079729762125
 20
25.71316662831774
 30
0.0
 11
21.92979995501144
 21
25.83499360711669
 31
0.0
  0
ENDBLK
  5
28A9
330
289D
100
AcDbEntity
  8
0
100
AcDbBlockEnd
  0
BLOCK
  5
2939
330
28AA
100
AcDbEntity
  8
0
100
AcDbBlockBegin
  2
*X26
 70
     1
 10
0.0
 20
0.0
 30
0.0
  3
*X26
  1

  0
LINE
  5
28AB
330
28AA
100
AcDbEntity
  8
0
  6
CONTINUOUS
 62
     0
100
AcDbLine
 10
14.98946714318631
 20
20.30887437873807
 30
0.0
 11
15.51619307571112
 21
20.83560031126288
 31
0.0
  0
LINE
  5
28AC
330
28AA
100
AcDbEntity
  8
0
  6
CONTINUOUS
 62
     0
100
AcDbLine
 10
14.11251745253288
 20
19.71476740477394
 30
0.0
 11
16.11030004967524
 21
21.7125500019163
 31
0.0
  0
LINE
  5
28AD
330
28AA
100
AcDbEntity
  8
0
  6
CONTINUOUS
 62
     0
100
AcDbLine
 10
13.59659465958662
 20
19.48168732851699
 30
0.0
 11
16.34338012593219
 21
22.22847279486256
 31
0.0
  0
LINE
  5
28AE
330
28AA
100
AcDbEntity
  8
0
  6
CONTINUOUS
 62
     0
100
AcDbLine
 10
13.1748939473581
 20
19.34282933297777
 30
0.0
 11
16.48223812147141
 21
22.65017350709108
 31
0.0
  0
LINE
  5
28AF
330
28AA
100
AcDbEntity
  8
0
  6
CONTINUOUS
 62
     0
100
AcDbLine
 10
12.80484418404001
 20
19.25562228634899
 30
0.0
 11
16.5694451681002
 21
23.02022327040917
 31
0.0
  0
LINE
  5
28B0
330
28AA
100
AcDbEntity
  8
0
  6
CONTINUOUS
 62
     0
100
AcDbLine
 10
14.79535208722197
 20
21.52897290622026
 30
0.0
 11
16.62213341977443
 21
23.35575423877271
 31
0.0
  0
LINE
  5
28B1
330
28AA
100
AcDbEntity
  8
0
  6
CONTINUOUS
 62
     0
100
AcDbLine
 10
12.46931321567648
 20
19.20293403467476
 30
0.0
 11
14.2960945904291
 21
21.02971540942739
 31
0.0
  0
LINE
  5
28B2
330
28AA
100
AcDbEntity
  8
0
  6
CONTINUOUS
 62
     0
100
AcDbLine
 10
15.29353583996729
 20
22.30999937565488
 30
0.0
 11
16.64927471651913
 21
23.66573825220672
 31
0.0
  0
LINE
  5
28B3
330
28AA
100
AcDbEntity
  8
0
  6
CONTINUOUS
 62
     0
100
AcDbLine
 10
12.15932920224247
 20
19.17579273793005
 30
0.0
 11
13.51506812099447
 21
20.53153165668206
 31
0.0
  0
LINE
  5
28B4
330
28AA
100
AcDbEntity
  8
0
  6
CONTINUOUS
 62
     0
100
AcDbLine
 10
15.47908751263477
 20
22.77839376501166
 30
0.0
 11
16.65627284793247
 21
23.95557910030935
 31
0.0
  0
LINE
  5
28B5
330
28AA
100
AcDbEntity
  8
0
  6
CONTINUOUS
 62
     0
100
AcDbLine
 10
11.86948835413983
 20
19.16879460651672
 30
0.0
 11
13.04667373163769
 21
20.34597998401458
 31
0.0
  0
LINE
  5
28B6
330
28AA
100
AcDbEntity
  8
0
  6
CONTINUOUS
 62
     0
100
AcDbLine
 10
15.58008243066611
 20
23.16223139973229
 30
0.0
 11
16.64668204742011
 21
24.2288310164863
 31
0.0
  0
LINE
  5
28B7
330
28AA
100
AcDbEntity
  8
0
  6
CONTINUOUS
 62
     0
100
AcDbLine
 10
11.59623643796288
 20
19.17838540702908
 30
0.0
 11
12.66283609691706
 21
20.24498506598324
 31
0.0
  0
LINE
  5
28B8
330
28AA
100
AcDbEntity
  8
0
  6
CONTINUOUS
 62
     0
100
AcDbLine
 10
12.65453085014504
 20
20.51952253590054
 30
0.0
 11
13.32322297621252
 21
21.18821466196801
 31
0.0
  0
LINE
  5
28B9
330
28AA
100
AcDbEntity
  8
0
  6
CONTINUOUS
 62
     0
100
AcDbLine
 10
15.63412492981957
 20
23.49911661557506
 30
0.0
 11
16.62298585552361
 21
24.48797754127911
 31
0.0
  0
LINE
  5
28BA
330
28AA
100
AcDbEntity
  8
0
  6
CONTINUOUS
 62
     0
100
AcDbLine
 10
11.33708991317008
 20
19.20208159892557
 30
0.0
 11
12.32595088107429
 21
20.19094256682979
 31
0.0
  0
LINE
  5
28BB
330
28AA
100
AcDbEntity
  8
0
  6
CONTINUOUS
 62
     0
100
AcDbLine
 10
12.40434667647494
 20
20.55218107891974
 30
0.0
 11
13.32322297621251
 21
21.47105737865731
 31
0.0
  0
LINE
  5
28BC
330
28AA
100
AcDbEntity
  8
0
  6
CONTINUOUS
 62
     0
100
AcDbLine
 10
15.65642462945329
 20
23.80425903189809
 30
0.0
 11
16.5869974570198
 21
24.7348318594646
 31
0.0
  0
LINE
  5
28BD
330
28AA
100
AcDbEntity
  8
0
  6
CONTINUOUS
 62
     0
100
AcDbLine
 10
11.09023559498458
 20
19.23806999742937
 30
0.0
 11
12.02080846475126
 21
20.16864286719606
 31
0.0
  0
LINE
  5
28BE
330
28AA
100
AcDbEntity
  8
0
  6
CONTINUOUS
 62
     0
100
AcDbLine
 10
12.21255257375408
 20
20.64322969288818
 30
0.0
 11
13.3232229762125
 21
21.7539000953466
 31
0.0
  0
LINE
  5
28BF
330
28AA
100
AcDbEntity
  8
0
  6
CONTINUOUS
 62
     0
100
AcDbLine
 10
15.65496140644842
 20
24.08563852558253
 30
0.0
 11
16.54008480751749
 21
24.97076192665159
 31
0.0
  0
LINE
  5
28C0
330
28AA
100
AcDbEntity
  8
0
  6
CONTINUOUS
 62
     0
100
AcDbLine
 10
10.8543055277976
 20
19.2849826469317
 30
0.0
 11
11.73942897106682
 21
20.17010609020093
 31
0.0
  0
LINE
  5
28C1
330
28AA
100
AcDbEntity
  8
0
  6
CONTINUOUS
 62
     0
100
AcDbLine
 10
12.06321284180218
 20
20.77673267762559
 30
0.0
 11
13.32322297621251
 21
22.03674281203592
 31
0.0
  0
LINE
  5
28C2
330
28AA
100
AcDbEntity
  8
0
  6
CONTINUOUS
 62
     0
100
AcDbLine
 10
15.6345405082318
 20
24.34806034405521
 30
0.0
 11
16.48330609191417
 21
25.19682592773758
 31
0.0
  0
LINE
  5
28C3
330
28AA
100
AcDbEntity
  8
0
  6
CONTINUOUS
 62
     0
100
AcDbLine
 10
10.62824152671161
 20
19.34176136253502
 30
0.0
 11
11.47700715259414
 21
20.19052698841755
 31
0.0
  0
LINE
  5
28C4
330
28AA
100
AcDbEntity
  8
0
  6
CONTINUOUS
 62
     0
100
AcDbLine
 10
11.92044664236979
 20
20.91680919488251
 30
0.0
 11
13.32322297621251
 21
22.31958552872522
 31
0.0
  0
LINE
  5
28C5
330
28AA
100
AcDbEntity
  8
0
  6
CONTINUOUS
 62
     0
100
AcDbLine
 10
15.59831520922672
 20
24.59467776173942
 30
0.0
 11
16.41749564198165
 21
25.41385819449436
 31
0.0
  0
LINE
  5
28C6
330
28AA
100
AcDbEntity
  8
0
  6
CONTINUOUS
 62
     0
100
AcDbLine
 10
10.41120925995482
 20
19.40757181246754
 30
0.0
 11
11.23038973490992
 21
20.22675228742263
 31
0.0
  0
LINE
  5
28C7
330
28AA
100
AcDbEntity
  8
0
  6
CONTINUOUS
 62
     0
100
AcDbLine
 10
11.77768044293741
 20
21.05688571213943
 30
0.0
 11
13.32322297621251
 21
22.60242824541453
 31
0.0
  0
LINE
  5
28C8
330
28AA
100
AcDbEntity
  8
0
  6
CONTINUOUS
 62
     0
100
AcDbLine
 10
15.54847842647961
 20
24.82768369568162
 30
0.0
 11
16.34332077222384
 21
25.62252604142585
 31
0.0
  0
LINE
  5
28C9
330
28AA
100
AcDbEntity
  8
0
  6
CONTINUOUS
 62
     0
100
AcDbLine
 10
10.20254141302334
 20
19.48174668222535
 30
0.0
 11
10.99738380096773
 21
20.27658907016975
 31
0.0
  0
LINE
  5
28CA
330
28AA
100
AcDbEntity
  8
0
  6
CONTINUOUS
 62
     0
100
AcDbLine
 10
12.36292297621249
 20
21.92497096210381
 30
0.0
 11
13.32322297621251
 21
22.88527096210383
 31
0.0
  0
LINE
  5
28CB
330
28AA
100
AcDbEntity
  8
0
  6
CONTINUOUS
 62
     0
100
AcDbLine
 10
11.63491424350503
 20
21.19696222939635
 30
0.0
 11
12.30787686507163
 21
21.86992485096295
 31
0.0
  0
LINE
  5
28CC
330
28AA
100
AcDbEntity
  8
0
  6
CONTINUOUS
 62
     0
100
AcDbLine
 10
15.48661865024844
 20
25.04866663613976
 30
0.0
 11
16.26132067781356
 21
25.82336866370488
 31
0.0
  0
LINE
  5
28CD
330
28AA
100
AcDbEntity
  8
0
  6
CONTINUOUS
 62
     0
100
AcDbLine
 10
10.00169879074431
 20
19.56374677663563
 30
0.0
 11
10.77640086050959
 21
20.33844884640091
 31
0.0
  0
LINE
  5
28CE
330
28AA
100
AcDbEntity
  8
0
  6
CONTINUOUS
 62
     0
100
AcDbLine
 10
12.36292297621249
 20
22.20781367879312
 30
0.0
 11
13.32322297621252
 21
23.16811367879314
 31
0.0
  0
LINE
  5
28CF
330
28AA
100
AcDbEntity
  8
0
  6
CONTINUOUS
 62
     0
100
AcDbLine
 10
11.49214804407264
 20
21.33703874665326
 30
0.0
 11
12.17222822932802
 21
22.01711893190865
 31
0.0
  0
LINE
  5
28D0
330
28AA
100
AcDbEntity
  8
0
  6
CONTINUOUS
 62
     0
100
AcDbLine
 10
15.41392012378507
 20
25.25881082636569
 30
0.0
 11
16.17193379938753
 21
26.01682450196816
 31
0.0
  0
LINE
  5
28D1
330
28AA
100
AcDbEntity
  8
0
  6
CONTINUOUS
 62
     0
100
AcDbLine
 10
9.80824295248103
 20
19.65313365506165
 30
0.0
 11
10.56625667028367
 21
20.41114737286429
 31
0.0
  0
LINE
  5
28D2
330
28AA
100
AcDbEntity
  8
0
  6
CONTINUOUS
 62
     0
100
AcDbLine
 10
12.36292297621249
 20
22.49065639548241
 30
0.0
 11
13.32322297621252
 21
23.45095639548244
 31
0.0
  0
LINE
  5
28D3
330
28AA
100
AcDbEntity
  8
0
  6
CONTINUOUS
 62
     0
100
AcDbLine
 10
14.38066018784676
 20
24.50839360711668
 30
0.0
 11
14.90394340251921
 21
25.03167682178913
 31
0.0
  0
LINE
  5
28D4
330
28AA
100
AcDbEntity
  8
0
  6
CONTINUOUS
 62
     0
100
AcDbLine
 10
11.34938184464026
 20
21.47711526391019
 30
0.0
 11
12.03657959358442
 21
22.16431301285435
 31
0.0
  0
LINE
  5
28D5
330
28AA
100
AcDbEntity
  8
0
  6
CONTINUOUS
 62
     0
100
AcDbLine
 10
15.33128311277797
 20
25.4590165320479
 30
0.0
 11
16.07551750282127
 21
26.20325092209119
 31
0.0
  0
LINE
  5
28D6
330
28AA
100
AcDbEntity
  8
0
  6
CONTINUOUS
 62
     0
100
AcDbLine
 10
9.621816532358003
 20
19.74954995162792
 30
0.0
 11
10.36605096460146
 21
20.49378438387138
 31
0.0
  0
LINE
  5
28D7
330
28AA
100
AcDbEntity
  8
0
  6
CONTINUOUS
 62
     0
100
AcDbLine
 10
12.36292297621249
 20
22.77349911217172
 30
0.0
 11
13.32322297621252
 21
23.73379911217174
 31
0.0
  0
LINE
  5
28D8
330
28AA
100
AcDbEntity
  8
0
  6
CONTINUOUS
 62
     0
100
AcDbLine
 10
14.09781747115746
 20
24.50839360711668
 30
0.0
 11
14.84041341550277
 21
25.250989551462
 31
0.0
  0
LINE
  5
28D9
330
28AA
100
AcDbEntity
  8
0
  6
CONTINUOUS
 62
     0
100
AcDbLine
 10
11.20661564520789
 20
21.61719178116711
 30
0.0
 11
11.90093095784082
 21
22.31150709380004
 31
0.0
  0
LINE
  5
28DA
330
28AA
100
AcDbEntity
  8
0
  6
CONTINUOUS
 62
     0
100
AcDbLine
 10
15.23939988217547
 20
25.6499760181347
 30
0.0
 11
15.97236247310275
 21
26.38293860906198
 31
0.0
  0
LINE
  5
28DB
330
28AA
100
AcDbEntity
  8
0
  6
CONTINUOUS
 62
     0
100
AcDbLine
 10
9.442128845387209
 20
19.85270498134644
 30
0.0
 11
10.17509147851465
 21
20.58566761447388
 31
0.0
  0
LINE
  5
28DC
330
28AA
100
AcDbEntity
  8
0
  6
CONTINUOUS
 62
     0
100
AcDbLine
 10
12.36292297621248
 20
23.05634182886102
 30
0.0
 11
13.3232229762125
 21
24.01664182886104
 31
0.0
  0
LINE
  5
28DD
330
28AA
100
AcDbEntity
  8
0
  6
CONTINUOUS
 62
     0
100
AcDbLine
 10
13.81497475446815
 20
24.50839360711669
 30
0.0
 11
14.70908708311424
 21
25.40250593576278
 31
0.0
  0
LINE
  5
28DE
330
28AA
100
AcDbEntity
  8
0
  6
CONTINUOUS
 62
     0
100
AcDbLine
 10
11.06384944577548
 20
21.75726829842403
 30
0.0
 11
11.7652823220972
 21
22.45870117474574
 31
0.0
  0
LINE
  5
28DF
330
28AA
100
AcDbEntity
  8
0
  6
CONTINUOUS
 62
     0
100
AcDbLine
 10
15.1388045456285
 20
25.83222339827704
 30
0.0
 11
15.8627033646577
 21
26.55612221730624
 31
0.0
  0
LINE
  5
28E0
330
28AA
100
AcDbEntity
  8
0
  6
CONTINUOUS
 62
     0
100
AcDbLine
 10
9.268945237142943
 20
19.96236408979148
 30
0.0
 11
9.992844098372309
 21
20.68626295102084
 31
0.0
  0
LINE
  5
28E1
330
28AA
100
AcDbEntity
  8
0
  6
CONTINUOUS
 62
     0
100
AcDbLine
 10
12.36292297621248
 20
23.33918454555032
 30
0.0
 11
13.3232229762125
 21
24.29948454555034
 31
0.0
  0
LINE
  5
28E2
330
28AA
100
AcDbEntity
  8
0
  6
CONTINUOUS
 62
     0
100
AcDbLine
 10
13.53213203777884
 20
24.50839360711669
 30
0.0
 11
14.51689263385999
 21
25.49315420319783
 31
0.0
  0
LINE
  5
28E3
330
28AA
100
AcDbEntity
  8
0
  6
CONTINUOUS
 62
     0
100
AcDbLine
 10
10.9210832463431
 20
21.89734481568094
 30
0.0
 11
11.6296336863536
 21
22.60589525569145
 31
0.0
  0
LINE
  5
28E4
330
28AA
100
AcDbEntity
  8
0
  6
CONTINUOUS
 62
     0
100
AcDbLine
 10
15.02990666914595
 20
26.00616823848379
 30
0.0
 11
15.74672672460261
 21
26.72298829394045
 31
0.0
  0
LINE
  5
28E5
330
28AA
100
AcDbEntity
  8
0
  6
CONTINUOUS
 62
     0
100
AcDbLine
 10
9.102079160508736
 20
20.07834072984657
 30
0.0
 11
9.818899258165565
 21
20.7951608275034
 31
0.0
  0
LINE
  5
28E6
330
28AA
100
AcDbEntity
  8
0
  6
CONTINUOUS
 62
     0
100
AcDbLine
 10
12.36292297621248
 20
23.62202726223963
 30
0.0
 11
14.24423932108955
 21
25.50334360711669
 31
0.0
  0
LINE
  5
28E7
330
28AA
100
AcDbEntity
  8
0
  6
CONTINUOUS
 62
     0
100
AcDbLine
 10
10.77831704691072
 20
22.03742133293787
 30
0.0
 11
11.49398505061
 21
22.75308933663715
 31
0.0
  0
LINE
  5
28E8
330
28AA
100
AcDbEntity
  8
0
  6
CONTINUOUS
 62
     0
100
AcDbLine
 10
14.91301428310674
 20
26.17211856913388
 30
0.0
 11
15.62457687138681
 21
26.88368115741396
 31
0.0
  0
LINE
  5
28E9
330
28AA
100
AcDbEntity
  8
0
  6
CONTINUOUS
 62
     0
100
AcDbLine
 10
8.941386297035229
 20
20.20049058306237
 30
0.0
 11
9.652948927515474
 21
20.91205321354261
 31
0.0
  0
LINE
  5
28EA
330
28AA
100
AcDbEntity
  8
0
  6
CONTINUOUS
 62
     0
100
AcDbLine
 10
12.36292297621248
 20
23.90486997892894
 30
0.0
 11
13.96139660440025
 21
25.50334360711669
 31
0.0
  0
LINE
  5
28EB
330
28AA
100
AcDbEntity
  8
0
  6
CONTINUOUS
 62
     0
100
AcDbLine
 10
10.63555084747833
 20
22.17749785019477
 30
0.0
 11
11.3583364148664
 21
22.90028341758284
 31
0.0
  0
LINE
  5
28EC
330
28AA
100
AcDbEntity
  8
0
  6
CONTINUOUS
 62
     0
100
AcDbLine
 10
14.7883496628495
 20
26.33029666556595
 30
0.0
 11
15.49636019197527
 21
27.03830719469171
 31
0.0
  0
LINE
  5
28ED
330
28AA
100
AcDbEntity
  8
0
  6
CONTINUOUS
 62
     0
100
AcDbLine
 10
8.786760259757475
 20
20.32870726247392
 30
0.0
 11
9.494770831083407
 21
21.03671783379985
 31
0.0
  0
LINE
  5
28EE
330
28AA
100
AcDbEntity
  8
0
  6
CONTINUOUS
 62
     0
100
AcDbLine
 10
12.36292297621249
 20
24.18771269561824
 30
0.0
 11
13.67855388771094
 21
25.50334360711669
 31
0.0
  0
LINE
  5
28EF
330
28AA
100
AcDbEntity
  8
0
  6
CONTINUOUS
 62
     0
100
AcDbLine
 10
10.49278464804595
 20
22.31757436745171
 30
0.0
 11
11.22268777912279
 21
23.04747749852853
 31
0.0
  0
LINE
  5
28F0
330
28AA
100
AcDbEntity
  8
0
  6
CONTINUOUS
 62
     0
100
AcDbLine
 10
14.65605992219868
 20
26.48084964160442
 30
0.0
 11
15.36214817160475
 21
27.1869378910105
 31
0.0
  0
LINE
  5
28F1
330
28AA
100
AcDbEntity
  8
0
  6
CONTINUOUS
 62
     0
100
AcDbLine
 10
8.638129563438688
 20
20.46291928284443
 30
0.0
 11
9.344217855044931
 21
21.16900757445067
 31
0.0
  0
LINE
  5
28F2
330
28AA
100
AcDbEntity
  8
0
  6
CONTINUOUS
 62
     0
100
AcDbLine
 10
12.36292297621249
 20
24.47055541230755
 30
0.0
 11
13.39571117102164
 21
25.50334360711669
 31
0.0
  0
LINE
  5
28F3
330
28AA
100
AcDbEntity
  8
0
  6
CONTINUOUS
 62
     0
100
AcDbLine
 10
10.35001844861356
 20
22.45765088470862
 30
0.0
 11
11.08703914337918
 21
23.19467157947423
 31
0.0
  0
LINE
  5
28F4
330
28AA
100
AcDbEntity
  8
0
  6
CONTINUOUS
 62
     0
100
AcDbLine
 10
14.51622366572999
 20
26.62385610182504
 30
0.0
 11
15.22197936453198
 21
27.32961180062705
 31
0.0
  0
LINE
  5
28F5
330
28AA
100
AcDbEntity
  8
0
  6
CONTINUOUS
 62
     0
100
AcDbLine
 10
8.495455653822148
 20
20.6030880899172
 30
0.0
 11
9.201211394824305
 21
21.30884383091936
 31
0.0
  0
LINE
  5
28F6
330
28AA
100
AcDbEntity
  8
0
  6
CONTINUOUS
 62
     0
100
AcDbLine
 10
11.02036845433233
 20
23.41084360711668
 30
0.0
 11
11.41387297621249
 21
23.80434812899685
 31
0.0
  0
LINE
  5
28F7
330
28AA
100
AcDbEntity
  8
0
  6
CONTINUOUS
 62
     0
100
AcDbLine
 10
12.36292297621249
 20
24.75339812899685
 30
0.0
 11
13.32322297621252
 21
25.71369812899687
 31
0.0
  0
LINE
  5
28F8
330
28AA
100
AcDbEntity
  8
0
  6
CONTINUOUS
 62
     0
100
AcDbLine
 10
10.20725224918118
 20
22.59772740196554
 30
0.0
 11
10.95139050763558
 21
23.34186566041994
 31
0.0
  0
LINE
  5
28F9
330
28AA
100
AcDbEntity
  8
0
  6
CONTINUOUS
 62
     0
100
AcDbLine
 10
14.36885442740246
 20
26.75932958018681
 30
0.0
 11
15.07586043537989
 21
27.46633558816425
 31
0.0
  0
LINE
  5
28FA
330
28AA
100
AcDbEntity
  8
0
  6
CONTINUOUS
 62
     0
100
AcDbLine
 10
8.358731866284948
 20
20.7492070190693
 30
0.0
 11
9.065737916462545
 21
21.45621306924689
 31
0.0
  0
LINE
  5
28FB
330
28AA
100
AcDbEntity
  8
0
  6
CONTINUOUS
 62
     0
100
AcDbLine
 10
12.36292297621249
 20
25.03624084568615
 30
0.0
 11
13.32322297621252
 21
25.99654084568618
 31
0.0
  0
LINE
  5
28FC
330
28AA
100
AcDbEntity
  8
0
  6
CONTINUOUS
 62
     0
100
AcDbLine
 10
10.0644860497488
 20
22.73780391922245
 30
0.0
 11
11.41387297621249
 21
24.08719084568616
 31
0.0
  0
LINE
  5
28FD
330
28AA
100
AcDbEntity
  8
0
  6
CONTINUOUS
 62
     0
100
AcDbLine
 10
14.21390125453573
 20
26.88721912400939
 30
0.0
 11
14.92376633762453
 21
27.59708420709819
 31
0.0
  0
LINE
  5
28FE
330
28AA
100
AcDbEntity
  8
0
  6
CONTINUOUS
 62
     0
100
AcDbLine
 10
8.227983247350998
 20
20.90130111682465
 30
0.0
 11
8.937848372639969
 21
21.61116624211362
 31
0.0
  0
LINE
  5
28FF
330
28AA
100
AcDbEntity
  8
0
  6
CONTINUOUS
 62
     0
100
AcDbLine
 10
12.36292297621249
 20
25.31908356237545
 30
0.0
 11
13.3232229762125
 21
26.27938356237547
 31
0.0
  0
LINE
  5
2900
330
28AA
100
AcDbEntity
  8
0
  6
CONTINUOUS
 62
     0
100
AcDbLine
 10
9.921719850316421
 20
22.87788043647938
 30
0.0
 11
11.41387297621249
 21
24.37003356237546
 31
0.0
  0
LINE
  5
2901
330
28AA
100
AcDbEntity
  8
0
  6
CONTINUOUS
 62
     0
100
AcDbLine
 10
14.05124649691411
 20
27.00740708307707
 30
0.0
 11
14.76563964049162
 21
27.72180022665458
 31
0.0
  0
LINE
  5
2902
330
28AA
100
AcDbEntity
  8
0
  6
CONTINUOUS
 62
     0
100
AcDbLine
 10
8.10326722779461
 20
21.05942781395757
 30
0.0
 11
8.817660413572284
 21
21.77382099973524
 31
0.0
  0
LINE
  5
2903
330
28AA
100
AcDbEntity
  8
0
  6
CONTINUOUS
 62
     0
100
AcDbLine
 10
12.36292297621248
 20
25.60192627906475
 30
0.0
 11
13.3232229762125
 21
26.56222627906478
 31
0.0
  0
LINE
  5
2904
330
28AA
100
AcDbEntity
  8
0
  6
CONTINUOUS
 62
     0
100
AcDbLine
 10
9.778953650884027
 20
23.0179569537363
 30
0.0
 11
11.41387297621249
 21
24.65287627906477
 31
0.0
  0
LINE
  5
2905
330
28AA
100
AcDbEntity
  8
0
  6
CONTINUOUS
 62
     0
100
AcDbLine
 10
13.88070057287115
 20
27.11970387572343
 30
0.0
 11
14.6013889615565
 21
27.84039226440878
 31
0.0
  0
LINE
  5
2906
330
28AA
100
AcDbEntity
  8
0
  6
CONTINUOUS
 62
     0
100
AcDbLine
 10
7.984675190040405
 20
21.22367849289268
 30
0.0
 11
8.705363620925929
 21
21.9443669237782
 31
0.0
  0
LINE
  5
2907
330
28AA
100
AcDbEntity
  8
0
  6
CONTINUOUS
 62
     0
100
AcDbLine
 10
12.36292297621249
 20
25.88476899575407
 30
0.0
 11
13.32322297621251
 21
26.84506899575408
 31
0.0
  0
LINE
  5
2908
330
28AA
100
AcDbEntity
  8
0
  6
CONTINUOUS
 62
     0
100
AcDbLine
 10
9.636187451451647
 20
23.15803347099322
 30
0.0
 11
11.41387297621249
 21
24.93571899575407
 31
0.0
  0
LINE
  5
2909
330
28AA
100
AcDbEntity
  8
0
  6
CONTINUOUS
 62
     0
100
AcDbLine
 10
13.70199315281168
 20
27.22383917235326
 30
0.0
 11
14.43088640341356
 21
27.95273242295513
 31
0.0
  0
LINE
  5
290A
330
28AA
100
AcDbEntity
  8
0
  6
CONTINUOUS
 62
     0
100
AcDbLine
 10
7.87233503149406
 20
21.39418105103563
 30
0.0
 11
8.601228324296094
 21
22.12307434383766
 31
0.0
  0
LINE
  5
290B
330
28AA
100
AcDbEntity
  8
0
  6
CONTINUOUS
 62
     0
100
AcDbLine
 10
12.36292297621248
 20
26.16761171244336
 30
0.0
 11
13.32322297621251
 21
27.12791171244338
 31
0.0
  0
LINE
  5
290C
330
28AA
100
AcDbEntity
  8
0
  6
CONTINUOUS
 62
     0
100
AcDbLine
 10
9.49342125201926
 20
23.29810998825013
 30
0.0
 11
11.41387297621249
 21
25.21856171244337
 31
0.0
  0
LINE
  5
290D
330
28AA
100
AcDbEntity
  8
0
  6
CONTINUOUS
 62
     0
100
AcDbLine
 10
13.51475975757465
 20
27.31944849380552
 30
0.0
 11
14.25396382172501
 21
28.05865255795589
 31
0.0
  0
LINE
  5
290E
330
28AA
100
AcDbEntity
  8
0
  6
CONTINUOUS
 62
     0
100
AcDbLine
 10
7.766414896493301
 20
21.57110363272417
 30
0.0
 11
8.505619002843829
 21
22.3103077390747
 31
0.0
  0
LINE
  5
290F
330
28AA
100
AcDbEntity
  8
0
  6
CONTINUOUS
 62
     0
100
AcDbLine
 10
10.46482297621248
 20
24.55235442913267
 30
0.0
 11
11.4138729762125
 21
25.50140442913268
 31
0.0
  0
LINE
  5
2910
330
28AA
100
AcDbEntity
  8
0
  6
CONTINUOUS
 62
     0
100
AcDbLine
 10
9.323312154196514
 20
23.41084360711669
 30
0.0
 11
10.3412121541965
 21
24.42874360711669
 31
0.0
  0
LINE
  5
2911
330
28AA
100
AcDbEntity
  8
0
  6
CONTINUOUS
 62
     0
100
AcDbLine
 10
12.36292297621249
 20
26.45045442913267
 30
0.0
 11
14.07040765927055
 21
28.15793911219072
 31
0.0
  0
LINE
  5
2912
330
28AA
100
AcDbEntity
  8
0
  6
CONTINUOUS
 62
     0
100
AcDbLine
 10
7.667128342258457
 20
21.75465979517864
 30
0.0
 11
8.419013934164127
 21
22.5065453870843
 31
0.0
  0
LINE
  5
2913
330
28AA
100
AcDbEntity
  8
0
  6
CONTINUOUS
 62
     0
100
AcDbLine
 10
10.46482297621248
 20
24.83519714582197
 30
0.0
 11
11.41387297621249
 21
25.78424714582197
 31
0.0
  0
LINE
  5
2914
330
28AA
100
AcDbEntity
  8
0
  6
CONTINUOUS
 62
     0
100
AcDbLine
 10
9.040469437507212
 20
23.41084360711669
 30
0.0
 11
10.0583694375072
 21
24.42874360711668
 31
0.0
  0
LINE
  5
2915
330
28AA
100
AcDbEntity
  8
0
  6
CONTINUOUS
 62
     0
100
AcDbLine
 10
12.36292297621249
 20
26.73329714582197
 30
0.0
 11
13.87995195237009
 21
28.25032612197958
 31
0.0
  0
LINE
  5
2916
330
28AA
100
AcDbEntity
  8
0
  6
CONTINUOUS
 62
     0
100
AcDbLine
 10
7.574741332469606
 20
21.94511550207908
 30
0.0
 11
8.342033811074408
 21
22.71240798068388
 31
0.0
  0
LINE
  5
2917
330
28AA
100
AcDbEntity
  8
0
  6
CONTINUOUS
 62
     0
100
AcDbLine
 10
10.46482297621248
 20
25.11803986251127
 30
0.0
 11
11.41387297621249
 21
26.06708986251128
 31
0.0
  0
LINE
  5
2918
330
28AA
100
AcDbEntity
  8
0
  6
CONTINUOUS
 62
     0
100
AcDbLine
 10
8.75762672081791
 20
23.41084360711669
 30
0.0
 11
9.7755267208179
 21
24.42874360711668
 31
0.0
  0
LINE
  5
2919
330
28AA
100
AcDbEntity
  8
0
  6
CONTINUOUS
 62
     0
100
AcDbLine
 10
12.36292297621249
 20
27.01613986251128
 30
0.0
 11
13.6822689304656
 21
28.33548581676439
 31
0.0
  0
LINE
  5
291A
330
28AA
100
AcDbEntity
  8
0
  6
CONTINUOUS
 62
     0
100
AcDbLine
 10
7.4895816376848
 20
22.14279852398358
 30
0.0
 11
8.275483850239361
 21
22.92870073653814
 31
0.0
  0
LINE
  5
291B
330
28AA
100
AcDbEntity
  8
0
  6
CONTINUOUS
 62
     0
100
AcDbLine
 10
10.46482297621249
 20
25.40088257920058
 30
0.0
 11
11.41387297621249
 21
26.34993257920058
 31
0.0
  0
LINE
  5
291C
330
28AA
100
AcDbEntity
  8
0
  6
CONTINUOUS
 62
     0
100
AcDbLine
 10
8.474784004128608
 20
23.41084360711669
 30
0.0
 11
9.492684004128598
 21
24.42874360711668
 31
0.0
  0
LINE
  5
291D
330
28AA
100
AcDbEntity
  8
0
  6
CONTINUOUS
 62
     0
100
AcDbLine
 10
12.36292297621249
 20
27.29898257920058
 30
0.0
 11
13.47695635100713
 21
28.41301595399523
 31
0.0
  0
LINE
  5
291E
330
28AA
100
AcDbEntity
  8
0
  6
CONTINUOUS
 62
     0
100
AcDbLine
 10
7.412051500453969
 20
22.34811110344205
 30
0.0
 11
8.220417161622158
 21
23.15647676461024
 31
0.0
  0
LINE
  5
291F
330
28AA
100
AcDbEntity
  8
0
  6
CONTINUOUS
 62
     0
100
AcDbLine
 10
10.46482297621249
 20
25.68372529588988
 30
0.0
 11
11.41387297621249
 21
26.63277529588989
 31
0.0
  0
LINE
  5
2920
330
28AA
100
AcDbEntity
  8
0
  6
CONTINUOUS
 62
     0
100
AcDbLine
 10
8.191941287439298
 20
23.41084360711668
 30
0.0
 11
9.209841287439296
 21
24.42874360711668
 31
0.0
  0
LINE
  5
2921
330
28AA
100
AcDbEntity
  8
0
  6
CONTINUOUS
 62
     0
100
AcDbLine
 10
12.36292297621249
 20
27.58182529588988
 30
0.0
 11
13.26352027917741
 21
28.4824225988548
 31
0.0
  0
LINE
  5
2922
330
28AA
100
AcDbEntity
  8
0
  6
CONTINUOUS
 62
     0
100
AcDbLine
 10
7.342644855594386
 20
22.56154717527177
 30
0.0
 11
8.178233337739143
 21
23.39713565741653
 31
0.0
  0
LINE
  5
2923
330
28AA
100
AcDbEntity
  8
0
  6
CONTINUOUS
 62
     0
100
AcDbLine
 10
10.46482297621249
 20
25.96656801257918
 30
0.0
 11
11.4138729762125
 21
26.91561801257919
 31
0.0
  0
LINE
  5
2924
330
28AA
100
AcDbEntity
  8
0
  6
CONTINUOUS
 62
     0
100
AcDbLine
 10
12.17248361102626
 20
27.67422864739295
 30
0.0
 11
13.0413513274458
 21
28.54309636381249
 31
0.0
  0
LINE
  5
2925
330
28AA
100
AcDbEntity
  8
0
  6
CONTINUOUS
 62
     0
100
AcDbLine
 10
7.281971090636695
 20
22.78371612700339
 30
0.0
 11
8.926998570749994
 21
24.42874360711668
 31
0.0
  0
LINE
  5
2926
330
28AA
100
AcDbEntity
  8
0
  6
CONTINUOUS
 62
     0
100
AcDbLine
 10
10.46482297621248
 20
26.24941072926849
 30
0.0
 11
11.41387297621249
 21
27.1984607292685
 31
0.0
  0
LINE
  5
2927
330
28AA
100
AcDbEntity
  8
0
  6
CONTINUOUS
 62
     0
100
AcDbLine
 10
11.89955595892624
 20
27.68414371198225
 30
0.0
 11
12.80969121422386
 21
28.59427896727986
 31
0.0
  0
LINE
  5
2928
330
28AA
100
AcDbEntity
  8
0
  6
CONTINUOUS
 62
     0
100
AcDbLine
 10
7.23078848716932
 20
23.01537624022532
 30
0.0
 11
8.644155854060684
 21
24.42874360711669
 31
0.0
  0
LINE
  5
2929
330
28AA
100
AcDbEntity
  8
0
  6
CONTINUOUS
 62
     0
100
AcDbLine
 10
10.46482297621249
 20
26.5322534459578
 30
0.0
 11
11.41387297621249
 21
27.4813034459578
 31
0.0
  0
LINE
  5
292A
330
28AA
100
AcDbEntity
  8
0
  6
CONTINUOUS
 62
     0
100
AcDbLine
 10
11.60515893817368
 20
27.67258940791899
 30
0.0
 11
12.56758449922934
 21
28.63501496897464
 31
0.0
  0
LINE
  5
292B
330
28AA
100
AcDbEntity
  8
0
  6
CONTINUOUS
 62
     0
100
AcDbLine
 10
7.190052485474545
 20
23.25748295521985
 30
0.0
 11
8.361313137371382
 21
24.42874360711669
 31
0.0
  0
LINE
  5
292C
330
28AA
100
AcDbEntity
  8
0
  6
CONTINUOUS
 62
     0
100
AcDbLine
 10
10.46482297621249
 20
26.8150961626471
 30
0.0
 11
12.3138067227184
 21
28.66407990915301
 31
0.0
  0
LINE
  5
292D
330
28AA
100
AcDbEntity
  8
0
  6
CONTINUOUS
 62
     0
100
AcDbLine
 10
7.160987545296173
 20
23.51126073173078
 30
0.0
 11
8.191863730195372
 21
24.54213691662998
 31
0.0
  0
LINE
  5
292E
330
28AA
100
AcDbEntity
  8
0
  6
CONTINUOUS
 62
     0
100
AcDbLine
 10
10.46482297621249
 20
27.0979388793364
 30
0.0
 11
12.04675322306042
 21
28.67986912618434
 31
0.0
  0
LINE
  5
292F
330
28AA
100
AcDbEntity
  8
0
  6
CONTINUOUS
 62
     0
100
AcDbLine
 10
7.145198328264847
 20
23.77831423138875
 30
0.0
 11
8.270420866999273
 21
24.90353677012318
 31
0.0
  0
LINE
  5
2930
330
28AA
100
AcDbEntity
  8
0
  6
CONTINUOUS
 62
     0
100
AcDbLine
 10
10.46482297621249
 20
27.3807815960257
 30
0.0
 11
11.76425868915726
 21
28.68021730897048
 31
0.0
  0
LINE
  5
2931
330
28AA
100
AcDbEntity
  8
0
  6
CONTINUOUS
 62
     0
100
AcDbLine
 10
7.144850145478706
 20
24.06080876529192
 30
0.0
 11
8.412672403383361
 21
25.32863102319658
 31
0.0
  0
LINE
  5
2932
330
28AA
100
AcDbEntity
  8
0
  6
CONTINUOUS
 62
     0
100
AcDbLine
 10
9.9246398068098
 20
27.12344114331232
 30
0.0
 11
11.46328597187034
 21
28.66208730837286
 31
0.0
  0
LINE
  5
2933
330
28AA
100
AcDbEntity
  8
0
  6
CONTINUOUS
 62
     0
100
AcDbLine
 10
7.162980146076328
 20
24.36178148257885
 30
0.0
 11
8.701626353337033
 21
25.90042768983956
 31
0.0
  0
LINE
  5
2934
330
28AA
100
AcDbEntity
  8
0
  6
CONTINUOUS
 62
     0
100
AcDbLine
 10
7.204078281230074
 20
24.6857223344219
 30
0.0
 11
11.1393451200273
 21
28.62098917321912
 31
0.0
  0
LINE
  5
2935
330
28AA
100
AcDbEntity
  8
0
  6
CONTINUOUS
 62
     0
100
AcDbLine
 10
7.27529604137107
 20
25.03978281125219
 30
0.0
 11
10.78528464319699
 21
28.54977141307812
 31
0.0
  0
LINE
  5
2936
330
28AA
100
AcDbEntity
  8
0
  6
CONTINUOUS
 62
     0
100
AcDbLine
 10
7.38939283603053
 20
25.43672232260095
 30
0.0
 11
10.38834513184824
 21
28.43567461841866
 31
0.0
  0
LINE
  5
2937
330
28AA
100
AcDbEntity
  8
0
  6
CONTINUOUS
 62
     0
100
AcDbLine
 10
7.574054068911337
 20
25.90422627217108
 30
0.0
 11
9.92084118227811
 21
28.25101338553785
 31
0.0
  0
LINE
  5
2938
330
28AA
100
AcDbEntity
  8
0
  6
CONTINUOUS
 62
     0
100
AcDbLine
 10
7.923914723298132
 20
26.53692964324717
 30
0.0
 11
9.288137811202012
 21
27.90115273115106
 31
0.0
  0
ENDBLK
  5
293A
330
28AA
100
AcDbEntity
  8
0
100
AcDbBlockEnd
  0
BLOCK
  5
2959
330
293B
100
AcDbEntity
  8
0
100
AcDbBlockBegin
  2
*X27
 70
     1
 10
0.0
 20
0.0
 30
0.0
  3
*X27
  1

  0
LINE
  5
293C
330
293B
100
AcDbEntity
  8
0
  6
CONTINUOUS
 62
     0
100
AcDbLine
 10
20.40385527197239
 20
20.63209360711668
 30
0.0
 11
20.4701229762125
 21
20.6983613113568
 31
0.0
  0
LINE
  5
293D
330
293B
100
AcDbEntity
  8
0
  6
CONTINUOUS
 62
     0
100
AcDbLine
 10
20.12101255528309
 20
20.63209360711668
 30
0.0
 11
20.47012297621249
 21
20.98120402804609
 31
0.0
  0
LINE
  5
293E
330
293B
100
AcDbEntity
  8
0
  6
CONTINUOUS
 62
     0
100
AcDbLine
 10
19.83816983859378
 20
20.63209360711668
 30
0.0
 11
20.47012297621249
 21
21.26404674473539
 31
0.0
  0
LINE
  5
293F
330
293B
100
AcDbEntity
  8
0
  6
CONTINUOUS
 62
     0
100
AcDbLine
 10
19.55532712190448
 20
20.63209360711669
 30
0.0
 11
20.47012297621249
 21
21.5468894614247
 31
0.0
  0
LINE
  5
2940
330
293B
100
AcDbEntity
  8
0
  6
CONTINUOUS
 62
     0
100
AcDbLine
 10
19.27248440521518
 20
20.63209360711669
 30
0.0
 11
20.47012297621249
 21
21.829732178114
 31
0.0
  0
LINE
  5
2941
330
293B
100
AcDbEntity
  8
0
  6
CONTINUOUS
 62
     0
100
AcDbLine
 10
18.98964168852588
 20
20.63209360711669
 30
0.0
 11
20.47012297621249
 21
22.11257489480331
 31
0.0
  0
LINE
  5
2942
330
293B
100
AcDbEntity
  8
0
  6
CONTINUOUS
 62
     0
100
AcDbLine
 10
18.70679897183657
 20
20.63209360711669
 30
0.0
 11
20.4701229762125
 21
22.39541761149261
 31
0.0
  0
LINE
  5
2943
330
293B
100
AcDbEntity
  8
0
  6
CONTINUOUS
 62
     0
100
AcDbLine
 10
18.67462297621249
 20
20.8827603281819
 30
0.0
 11
20.4701229762125
 21
22.67826032818192
 31
0.0
  0
LINE
  5
2944
330
293B
100
AcDbEntity
  8
0
  6
CONTINUOUS
 62
     0
100
AcDbLine
 10
20.91986353845797
 20
23.41084360711669
 30
0.0
 11
21.08752297621251
 21
23.57850304487123
 31
0.0
  0
LINE
  5
2945
330
293B
100
AcDbEntity
  8
0
  6
CONTINUOUS
 62
     0
100
AcDbLine
 10
18.67462297621249
 20
21.16560304487121
 30
0.0
 11
20.4701229762125
 21
22.96110304487123
 31
0.0
  0
LINE
  5
2946
330
293B
100
AcDbEntity
  8
0
  6
CONTINUOUS
 62
     0
100
AcDbLine
 10
20.63702082176867
 20
23.41084360711669
 30
0.0
 11
21.08752297621251
 21
23.86134576156053
 31
0.0
  0
LINE
  5
2947
330
293B
100
AcDbEntity
  8
0
  6
CONTINUOUS
 62
     0
100
AcDbLine
 10
18.67462297621249
 20
21.44844576156051
 30
0.0
 11
20.4701229762125
 21
23.24394576156052
 31
0.0
  0
LINE
  5
2948
330
293B
100
AcDbEntity
  8
0
  6
CONTINUOUS
 62
     0
100
AcDbLine
 10
18.67462297621248
 20
21.73128847824981
 30
0.0
 11
21.0875229762125
 21
24.14418847824983
 31
0.0
  0
LINE
  5
2949
330
293B
100
AcDbEntity
  8
0
  6
CONTINUOUS
 62
     0
100
AcDbLine
 10
18.67462297621249
 20
22.01413119493912
 30
0.0
 11
21.0875229762125
 21
24.42703119493913
 31
0.0
  0
LINE
  5
294A
330
293B
100
AcDbEntity
  8
0
  6
CONTINUOUS
 62
     0
100
AcDbLine
 10
18.67462297621249
 20
22.29697391162843
 30
0.0
 11
20.88604267170075
 21
24.50839360711669
 31
0.0
  0
LINE
  5
294B
330
293B
100
AcDbEntity
  8
0
  6
CONTINUOUS
 62
     0
100
AcDbLine
 10
21.02664995501144
 20
24.93184360711669
 30
0.0
 11
21.0875229762125
 21
24.99271662831775
 31
0.0
  0
LINE
  5
294C
330
293B
100
AcDbEntity
  8
0
  6
CONTINUOUS
 62
     0
100
AcDbLine
 10
18.67462297621248
 20
22.57981662831773
 30
0.0
 11
20.60319995501143
 21
24.50839360711669
 31
0.0
  0
LINE
  5
294D
330
293B
100
AcDbEntity
  8
0
  6
CONTINUOUS
 62
     0
100
AcDbLine
 10
20.74380723832214
 20
24.93184360711669
 30
0.0
 11
21.0875229762125
 21
25.27555934500705
 31
0.0
  0
LINE
  5
294E
330
293B
100
AcDbEntity
  8
0
  6
CONTINUOUS
 62
     0
100
AcDbLine
 10
18.67462297621249
 20
22.86265934500704
 30
0.0
 11
20.43397690248405
 21
24.62201327127861
 31
0.0
  0
LINE
  5
294F
330
293B
100
AcDbEntity
  8
0
  6
CONTINUOUS
 62
     0
100
AcDbLine
 10
18.67462297621249
 20
23.14550206169634
 30
0.0
 11
21.0875229762125
 21
25.55840206169636
 31
0.0
  0
LINE
  5
2950
330
293B
100
AcDbEntity
  8
0
  6
CONTINUOUS
 62
     0
100
AcDbLine
 10
18.65712180494354
 20
23.41084360711669
 30
0.0
 11
21.08127180494354
 21
25.83499360711669
 31
0.0
  0
LINE
  5
2951
330
293B
100
AcDbEntity
  8
0
  6
CONTINUOUS
 62
     0
100
AcDbLine
 10
18.37427908825423
 20
23.41084360711668
 30
0.0
 11
20.79842908825423
 21
25.83499360711669
 31
0.0
  0
LINE
  5
2952
330
293B
100
AcDbEntity
  8
0
  6
CONTINUOUS
 62
     0
100
AcDbLine
 10
18.13732297621251
 20
23.45673021176427
 30
0.0
 11
20.51558637156492
 21
25.83499360711668
 31
0.0
  0
LINE
  5
2953
330
293B
100
AcDbEntity
  8
0
  6
CONTINUOUS
 62
     0
100
AcDbLine
 10
18.13732297621251
 20
23.73957292845357
 30
0.0
 11
20.23274365487563
 21
25.83499360711669
 31
0.0
  0
LINE
  5
2954
330
293B
100
AcDbEntity
  8
0
  6
CONTINUOUS
 62
     0
100
AcDbLine
 10
18.67462297621249
 20
24.55971564514285
 30
0.0
 11
19.94990093818632
 21
25.83499360711669
 31
0.0
  0
LINE
  5
2955
330
293B
100
AcDbEntity
  8
0
  6
CONTINUOUS
 62
     0
100
AcDbLine
 10
18.13732297621251
 20
24.02241564514287
 30
0.0
 11
18.62330093818632
 21
24.50839360711668
 31
0.0
  0
LINE
  5
2956
330
293B
100
AcDbEntity
  8
0
  6
CONTINUOUS
 62
     0
100
AcDbLine
 10
18.67462297621249
 20
24.84255836183216
 30
0.0
 11
19.66705822149701
 21
25.83499360711669
 31
0.0
  0
LINE
  5
2957
330
293B
100
AcDbEntity
  8
0
  6
CONTINUOUS
 62
     0
100
AcDbLine
 10
18.13732297621251
 20
24.30525836183218
 30
0.0
 11
18.34045822149701
 21
24.50839360711669
 31
0.0
  0
LINE
  5
2958
330
293B
100
AcDbEntity
  8
0
  6
CONTINUOUS
 62
     0
100
AcDbLine
 10
18.70280531180699
 20
25.15358341411596
 30
0.0
 11
19.35607675113877
 21
25.80685485344774
 31
0.0
  0
ENDBLK
  5
295A
330
293B
100
AcDbEntity
  8
0
100
AcDbBlockEnd
  0
BLOCK
  5
2988
330
295B
100
AcDbEntity
  8
0
100
AcDbBlockBegin
  2
*X28
 70
     1
 10
0.0
 20
0.0
 30
0.0
  3
*X28
  1

  0
LINE
  5
295C
330
295B
100
AcDbEntity
  8
0
  6
CONTINUOUS
 62
     0
100
AcDbLine
 10
35.94895468988411
 20
20.6208436071167
 30
0.0
 11
35.9865729762125
 21
20.65846189344508
 31
0.0
  0
LINE
  5
295D
330
295B
100
AcDbEntity
  8
0
  6
CONTINUOUS
 62
     0
100
AcDbLine
 10
35.6661119731948
 20
20.62084360711669
 30
0.0
 11
35.9865729762125
 21
20.94130461013438
 31
0.0
  0
LINE
  5
295E
330
295B
100
AcDbEntity
  8
0
  6
CONTINUOUS
 62
     0
100
AcDbLine
 10
35.3832692565055
 20
20.62084360711669
 30
0.0
 11
35.9865729762125
 21
21.22414732682369
 31
0.0
  0
LINE
  5
295F
330
295B
100
AcDbEntity
  8
0
  6
CONTINUOUS
 62
     0
100
AcDbLine
 10
35.10042653981621
 20
20.6208436071167
 30
0.0
 11
35.9865729762125
 21
21.506990043513
 31
0.0
  0
LINE
  5
2960
330
295B
100
AcDbEntity
  8
0
  6
CONTINUOUS
 62
     0
100
AcDbLine
 10
34.8175838231269
 20
20.6208436071167
 30
0.0
 11
35.9865729762125
 21
21.7898327602023
 31
0.0
  0
LINE
  5
2961
330
295B
100
AcDbEntity
  8
0
  6
CONTINUOUS
 62
     0
100
AcDbLine
 10
34.53474110643759
 20
20.6208436071167
 30
0.0
 11
35.9865729762125
 21
22.07267547689161
 31
0.0
  0
LINE
  5
2962
330
295B
100
AcDbEntity
  8
0
  6
CONTINUOUS
 62
     0
100
AcDbLine
 10
34.25189838974829
 20
20.6208436071167
 30
0.0
 11
35.9865729762125
 21
22.35551819358091
 31
0.0
  0
LINE
  5
2963
330
295B
100
AcDbEntity
  8
0
  6
CONTINUOUS
 62
     0
100
AcDbLine
 10
34.19152297621249
 20
20.8433109102702
 30
0.0
 11
35.9865729762125
 21
22.63836091027021
 31
0.0
  0
LINE
  5
2964
330
295B
100
AcDbEntity
  8
0
  6
CONTINUOUS
 62
     0
100
AcDbLine
 10
33.76931006849532
 20
20.70394071924233
 30
0.0
 11
35.9865729762125
 21
22.92120362695951
 31
0.0
  0
LINE
  5
2965
330
295B
100
AcDbEntity
  8
0
  6
CONTINUOUS
 62
     0
100
AcDbLine
 10
33.39236634668884
 20
20.60983971412515
 30
0.0
 11
35.9865729762125
 21
23.20404634364881
 31
0.0
  0
LINE
  5
2966
330
295B
100
AcDbEntity
  8
0
  6
CONTINUOUS
 62
     0
100
AcDbLine
 10
33.08101349676572
 20
20.58132958089135
 30
0.0
 11
35.9865729762125
 21
23.48688906033812
 31
0.0
  0
LINE
  5
2967
330
295B
100
AcDbEntity
  8
0
  6
CONTINUOUS
 62
     0
100
AcDbLine
 10
32.78812179433337
 20
20.5712805951483
 30
0.0
 11
35.9865729762125
 21
23.76973177702743
 31
0.0
  0
LINE
  5
2968
330
295B
100
AcDbEntity
  8
0
  6
CONTINUOUS
 62
     0
100
AcDbLine
 10
32.50752380447832
 20
20.57352532198255
 30
0.0
 11
35.9865729762125
 21
24.05257449371673
 31
0.0
  0
LINE
  5
2969
330
295B
100
AcDbEntity
  8
0
  6
CONTINUOUS
 62
     0
100
AcDbLine
 10
34.17881428393366
 20
22.52765851812719
 30
0.0
 11
35.9865729762125
 21
24.33541721040603
 31
0.0
  0
LINE
  5
296A
330
295B
100
AcDbEntity
  8
0
  6
CONTINUOUS
 62
     0
100
AcDbLine
 10
32.24308330320312
 20
20.59192753739665
 30
0.0
 11
33.5947915553251
 21
21.94363578951862
 31
0.0
  0
LINE
  5
296B
330
295B
100
AcDbEntity
  8
0
  6
CONTINUOUS
 62
     0
100
AcDbLine
 10
34.18164288181293
 20
22.81332983269576
 30
0.0
 11
35.9865729762125
 21
24.61825992709534
 31
0.0
  0
LINE
  5
296C
330
295B
100
AcDbEntity
  8
0
  6
CONTINUOUS
 62
     0
100
AcDbLine
 10
32.00051587262909
 20
20.63220282351193
 30
0.0
 11
33.24755471239335
 21
21.87924166327619
 31
0.0
  0
LINE
  5
296D
330
295B
100
AcDbEntity
  8
0
  6
CONTINUOUS
 62
     0
100
AcDbLine
 10
34.10028732459351
 20
23.01481699216565
 30
0.0
 11
35.9865729762125
 21
24.90110264378464
 31
0.0
  0
LINE
  5
296E
330
295B
100
AcDbEntity
  8
0
  6
CONTINUOUS
 62
     0
100
AcDbLine
 10
31.77752155152184
 20
20.69205121909399
 30
0.0
 11
32.98807784516069
 21
21.90260751273283
 31
0.0
  0
LINE
  5
296F
330
295B
100
AcDbEntity
  8
0
  6
CONTINUOUS
 62
     0
100
AcDbLine
 10
33.96946103525296
 20
23.1668334195144
 30
0.0
 11
35.9865729762125
 21
25.18394536047394
 31
0.0
  0
LINE
  5
2970
330
295B
100
AcDbEntity
  8
0
  6
CONTINUOUS
 62
     0
100
AcDbLine
 10
31.57735655266627
 20
20.77472893692771
 30
0.0
 11
32.76916056716867
 21
21.96653295143011
 31
0.0
  0
LINE
  5
2971
330
295B
100
AcDbEntity
  8
0
  6
CONTINUOUS
 62
     0
100
AcDbLine
 10
33.79869139168887
 20
23.27890649263963
 30
0.0
 11
35.9865729762125
 21
25.46678807716325
 31
0.0
  0
LINE
  5
2972
330
295B
100
AcDbEntity
  8
0
  6
CONTINUOUS
 62
     0
100
AcDbLine
 10
31.39462786403553
 20
20.87484296498628
 30
0.0
 11
32.57878095327255
 21
22.0589960542233
 31
0.0
  0
LINE
  5
2973
330
295B
100
AcDbEntity
  8
0
  6
CONTINUOUS
 62
     0
100
AcDbLine
 10
33.59506660797613
 20
23.35812442561617
 30
0.0
 11
35.9865729762125
 21
25.74963079385255
 31
0.0
  0
LINE
  5
2974
330
295B
100
AcDbEntity
  8
0
  6
CONTINUOUS
 62
     0
100
AcDbLine
 10
31.22313095771962
 20
20.98618877535967
 30
0.0
 11
32.42473321158667
 21
22.18779102922672
 31
0.0
  0
LINE
  5
2975
330
295B
100
AcDbEntity
  8
0
  6
CONTINUOUS
 62
     0
100
AcDbLine
 10
33.37303685143528
 20
23.41893738576464
 30
0.0
 11
35.77784307278734
 21
25.8237436071167
 31
0.0
  0
LINE
  5
2976
330
295B
100
AcDbEntity
  8
0
  6
CONTINUOUS
 62
     0
100
AcDbLine
 10
31.06703655932743
 20
21.11293709365678
 30
0.0
 11
32.30780348735248
 21
22.35370402168184
 31
0.0
  0
LINE
  5
2977
330
295B
100
AcDbEntity
  8
0
  6
CONTINUOUS
 62
     0
100
AcDbLine
 10
33.11599510872116
 20
23.44473835973982
 30
0.0
 11
34.07794507158477
 21
24.40668832260344
 31
0.0
  0
LINE
  5
2978
330
295B
100
AcDbEntity
  8
0
  6
CONTINUOUS
 62
     0
100
AcDbLine
 10
34.19152297621249
 20
24.52026622723115
 30
0.0
 11
35.49500035609803
 21
25.8237436071167
 31
0.0
  0
LINE
  5
2979
330
295B
100
AcDbEntity
  8
0
  6
CONTINUOUS
 62
     0
100
AcDbLine
 10
30.92289119341729
 20
21.25163444443595
 30
0.0
 11
32.23358530622347
 21
22.56232855724213
 31
0.0
  0
LINE
  5
297A
330
295B
100
AcDbEntity
  8
0
  6
CONTINUOUS
 62
     0
100
AcDbLine
 10
32.7481736096376
 20
23.35975957734556
 30
0.0
 11
33.88591149297755
 21
24.49749746068552
 31
0.0
  0
LINE
  5
297B
330
295B
100
AcDbEntity
  8
0
  6
CONTINUOUS
 62
     0
100
AcDbLine
 10
34.19152297621249
 20
24.80310894392045
 30
0.0
 11
35.21215763940872
 21
25.8237436071167
 31
0.0
  0
LINE
  5
297C
330
295B
100
AcDbEntity
  8
0
  6
CONTINUOUS
 62
     0
100
AcDbLine
 10
30.79573641207614
 20
21.4073223797841
 30
0.0
 11
32.26604065428763
 21
22.8776266219956
 31
0.0
  0
LINE
  5
297D
330
295B
100
AcDbEntity
  8
0
  6
CONTINUOUS
 62
     0
100
AcDbLine
 10
34.19152297621249
 20
25.08595166060977
 30
0.0
 11
34.92931492271942
 21
25.8237436071167
 31
0.0
  0
LINE
  5
297E
330
295B
100
AcDbEntity
  8
0
  6
CONTINUOUS
 62
     0
100
AcDbLine
 10
30.68486213057575
 20
21.57929081497302
 30
0.0
 11
33.65908040447928
 21
24.55350908887655
 31
0.0
  0
LINE
  5
297F
330
295B
100
AcDbEntity
  8
0
  6
CONTINUOUS
 62
     0
100
AcDbLine
 10
34.19152297621249
 20
25.36879437729907
 30
0.0
 11
34.64647220603012
 21
25.8237436071167
 31
0.0
  0
LINE
  5
2980
330
295B
100
AcDbEntity
  8
0
  6
CONTINUOUS
 62
     0
100
AcDbLine
 10
30.59117900796042
 20
21.76845040904699
 30
0.0
 11
33.41812710058627
 21
24.59539850167285
 31
0.0
  0
LINE
  5
2981
330
295B
100
AcDbEntity
  8
0
  6
CONTINUOUS
 62
     0
100
AcDbLine
 10
34.19152297621249
 20
25.65163709398837
 30
0.0
 11
34.36362948934082
 21
25.8237436071167
 31
0.0
  0
LINE
  5
2982
330
295B
100
AcDbEntity
  8
0
  6
CONTINUOUS
 62
     0
100
AcDbLine
 10
30.5171401026012
 20
21.97725422037708
 30
0.0
 11
33.17224949320045
 21
24.63236361097633
 31
0.0
  0
LINE
  5
2983
330
295B
100
AcDbEntity
  8
0
  6
CONTINUOUS
 62
     0
100
AcDbLine
 10
30.45912583106565
 20
22.20208266553082
 30
0.0
 11
32.90592647138441
 21
24.64888330584959
 31
0.0
  0
LINE
  5
2984
330
295B
100
AcDbEntity
  8
0
  6
CONTINUOUS
 62
     0
100
AcDbLine
 10
30.42369368109809
 20
22.44949323225257
 30
0.0
 11
32.62147513128882
 21
24.64727468244331
 31
0.0
  0
LINE
  5
2985
330
295B
100
AcDbEntity
  8
0
  6
CONTINUOUS
 62
     0
100
AcDbLine
 10
30.42431842749477
 20
22.73296069533856
 30
0.0
 11
32.32111378987424
 21
24.62975605771803
 31
0.0
  0
LINE
  5
2986
330
295B
100
AcDbEntity
  8
0
  6
CONTINUOUS
 62
     0
100
AcDbLine
 10
30.48456014727226
 20
23.07604513180535
 30
0.0
 11
31.97893133461656
 21
24.57041631914965
 31
0.0
  0
LINE
  5
2987
330
295B
100
AcDbEntity
  8
0
  6
CONTINUOUS
 62
     0
100
AcDbLine
 10
30.66709573670678
 20
23.54142343792917
 30
0.0
 11
31.51624097783787
 21
24.39056867906026
 31
0.0
  0
ENDBLK
  5
2989
330
295B
100
AcDbEntity
  8
0
100
AcDbBlockEnd
  0
BLOCK
  5
29B2
330
298A
100
AcDbEntity
  8
0
100
AcDbBlockBegin
  2
*X29
 70
     1
 10
0.0
 20
0.0
 30
0.0
  3
*X29
  1

  0
LINE
  5
298B
330
298A
100
AcDbEntity
  8
0
  6
CONTINUOUS
 62
     0
100
AcDbLine
 10
29.73766492271942
 20
20.63209360711669
 30
0.0
 11
29.8922229762125
 21
20.78665166060976
 31
0.0
  0
LINE
  5
298C
330
298A
100
AcDbEntity
  8
0
  6
CONTINUOUS
 62
     0
100
AcDbLine
 10
29.45482220603011
 20
20.63209360711669
 30
0.0
 11
29.89222297621249
 21
21.06949437729907
 31
0.0
  0
LINE
  5
298D
330
298A
100
AcDbEntity
  8
0
  6
CONTINUOUS
 62
     0
100
AcDbLine
 10
29.17197948934081
 20
20.63209360711669
 30
0.0
 11
29.8922229762125
 21
21.35233709398837
 31
0.0
  0
LINE
  5
298E
330
298A
100
AcDbEntity
  8
0
  6
CONTINUOUS
 62
     0
100
AcDbLine
 10
28.88913677265151
 20
20.63209360711669
 30
0.0
 11
29.8922229762125
 21
21.63517981067768
 31
0.0
  0
LINE
  5
298F
330
298A
100
AcDbEntity
  8
0
  6
CONTINUOUS
 62
     0
100
AcDbLine
 10
28.6062940559622
 20
20.63209360711669
 30
0.0
 11
29.8922229762125
 21
21.91802252736698
 31
0.0
  0
LINE
  5
2990
330
298A
100
AcDbEntity
  8
0
  6
CONTINUOUS
 62
     0
100
AcDbLine
 10
28.3234513392729
 20
20.63209360711669
 30
0.0
 11
29.8922229762125
 21
22.20086524405628
 31
0.0
  0
LINE
  5
2991
330
298A
100
AcDbEntity
  8
0
  6
CONTINUOUS
 62
     0
100
AcDbLine
 10
28.1084229762125
 20
20.69990796074559
 30
0.0
 11
29.8922229762125
 21
22.48370796074559
 31
0.0
  0
LINE
  5
2992
330
298A
100
AcDbEntity
  8
0
  6
CONTINUOUS
 62
     0
100
AcDbLine
 10
28.10842297621249
 20
20.98275067743489
 30
0.0
 11
29.8922229762125
 21
22.7665506774349
 31
0.0
  0
LINE
  5
2993
330
298A
100
AcDbEntity
  8
0
  6
CONTINUOUS
 62
     0
100
AcDbLine
 10
28.10842297621249
 20
21.26559339412419
 30
0.0
 11
29.8922229762125
 21
23.04939339412419
 31
0.0
  0
LINE
  5
2994
330
298A
100
AcDbEntity
  8
0
  6
CONTINUOUS
 62
     0
100
AcDbLine
 10
28.10842297621249
 20
21.5484361108135
 30
0.0
 11
29.89184294464031
 21
23.33185607924131
 31
0.0
  0
LINE
  5
2995
330
298A
100
AcDbEntity
  8
0
  6
CONTINUOUS
 62
     0
100
AcDbLine
 10
28.1084229762125
 20
21.83127882750281
 30
0.0
 11
29.85326765992761
 21
23.57612351121792
 31
0.0
  0
LINE
  5
2996
330
298A
100
AcDbEntity
  8
0
  6
CONTINUOUS
 62
     0
100
AcDbLine
 10
28.1084229762125
 20
22.11412154419211
 30
0.0
 11
29.7778145719578
 21
23.78351313993741
 31
0.0
  0
LINE
  5
2997
330
298A
100
AcDbEntity
  8
0
  6
CONTINUOUS
 62
     0
100
AcDbLine
 10
28.1084229762125
 20
22.39696426088142
 30
0.0
 11
29.67412964984317
 21
23.96267093451208
 31
0.0
  0
LINE
  5
2998
330
298A
100
AcDbEntity
  8
0
  6
CONTINUOUS
 62
     0
100
AcDbLine
 10
28.08408741851916
 20
22.65547141987738
 30
0.0
 11
29.54593010449247
 21
24.11731410585069
 31
0.0
  0
LINE
  5
2999
330
298A
100
AcDbEntity
  8
0
  6
CONTINUOUS
 62
     0
100
AcDbLine
 10
26.06070960575847
 20
20.63209360711669
 30
0.0
 11
26.2899729762125
 21
20.86135697757072
 31
0.0
  0
LINE
  5
299A
330
298A
100
AcDbEntity
  8
0
  6
CONTINUOUS
 62
     0
100
AcDbLine
 10
27.993800251453
 20
22.84802696950052
 30
0.0
 11
29.39435863885448
 21
24.248585356902
 31
0.0
  0
LINE
  5
299B
330
298A
100
AcDbEntity
  8
0
  6
CONTINUOUS
 62
     0
100
AcDbLine
 10
25.77786688906916
 20
20.63209360711669
 30
0.0
 11
26.2899729762125
 21
21.14419969426002
 31
0.0
  0
LINE
  5
299C
330
298A
100
AcDbEntity
  8
0
  6
CONTINUOUS
 62
     0
100
AcDbLine
 10
27.85643124454681
 20
22.99350067928364
 30
0.0
 11
29.21854476173636
 21
24.35561419647318
 31
0.0
  0
LINE
  5
299D
330
298A
100
AcDbEntity
  8
0
  6
CONTINUOUS
 62
     0
100
AcDbLine
 10
25.49502417237986
 20
20.63209360711668
 30
0.0
 11
26.2899729762125
 21
21.42704241094932
 31
0.0
  0
LINE
  5
299E
330
298A
100
AcDbEntity
  8
0
  6
CONTINUOUS
 62
     0
100
AcDbLine
 10
27.67336145621951
 20
23.09327360764564
 30
0.0
 11
29.00873242055444
 21
24.42864457198057
 31
0.0
  0
LINE
  5
299F
330
298A
100
AcDbEntity
  8
0
  6
CONTINUOUS
 62
     0
100
AcDbLine
 10
25.21218145569056
 20
20.63209360711668
 30
0.0
 11
26.2899729762125
 21
21.70988512763862
 31
0.0
  0
LINE
  5
29A0
330
298A
100
AcDbEntity
  8
0
  6
CONTINUOUS
 62
     0
100
AcDbLine
 10
27.42668159597107
 20
23.1294364640865
 30
0.0
 11
28.78111137615865
 21
24.48386624427408
 31
0.0
  0
LINE
  5
29A1
330
298A
100
AcDbEntity
  8
0
  6
CONTINUOUS
 62
     0
100
AcDbLine
 10
24.92933873900125
 20
20.63209360711668
 30
0.0
 11
26.2899729762125
 21
21.99272784432793
 31
0.0
  0
LINE
  5
29A2
330
298A
100
AcDbEntity
  8
0
  6
CONTINUOUS
 62
     0
100
AcDbLine
 10
27.09337871134729
 20
23.07897629615202
 30
0.0
 11
28.53965784556285
 21
24.52525543036758
 31
0.0
  0
LINE
  5
29A3
330
298A
100
AcDbEntity
  8
0
  6
CONTINUOUS
 62
     0
100
AcDbLine
 10
24.64649602231195
 20
20.63209360711668
 30
0.0
 11
26.2899729762125
 21
22.27557056101724
 31
0.0
  0
LINE
  5
29A4
330
298A
100
AcDbEntity
  8
0
  6
CONTINUOUS
 62
     0
100
AcDbLine
 10
24.49492297621249
 20
20.76336327770653
 30
0.0
 11
28.28214143765219
 21
24.55058173914623
 31
0.0
  0
LINE
  5
29A5
330
298A
100
AcDbEntity
  8
0
  6
CONTINUOUS
 62
     0
100
AcDbLine
 10
24.49492297621249
 20
21.04620599439583
 30
0.0
 11
28.00532133716157
 21
24.55660435534491
 31
0.0
  0
LINE
  5
29A6
330
298A
100
AcDbEntity
  8
0
  6
CONTINUOUS
 62
     0
100
AcDbLine
 10
24.49492297621249
 20
21.32904871108514
 30
0.0
 11
27.70419502338755
 21
24.5383207582602
 31
0.0
  0
LINE
  5
29A7
330
298A
100
AcDbEntity
  8
0
  6
CONTINUOUS
 62
     0
100
AcDbLine
 10
24.49492297621249
 20
21.61189142777444
 30
0.0
 11
27.37030343271159
 21
24.48727188427354
 31
0.0
  0
LINE
  5
29A8
330
298A
100
AcDbEntity
  8
0
  6
CONTINUOUS
 62
     0
100
AcDbLine
 10
24.49492297621249
 20
21.89473414446374
 30
0.0
 11
26.98703511483339
 21
24.38684628308465
 31
0.0
  0
LINE
  5
29A9
330
298A
100
AcDbEntity
  8
0
  6
CONTINUOUS
 62
     0
100
AcDbLine
 10
24.49492297621249
 20
22.17757686115305
 30
0.0
 11
26.51056620292166
 21
24.19322008786221
 31
0.0
  0
LINE
  5
29AA
330
298A
100
AcDbEntity
  8
0
  6
CONTINUOUS
 62
     0
100
AcDbLine
 10
24.49492297621249
 20
22.46041957784235
 30
0.0
 11
26.2899729762125
 21
24.25546957784236
 31
0.0
  0
LINE
  5
29AB
330
298A
100
AcDbEntity
  8
0
  6
CONTINUOUS
 62
     0
100
AcDbLine
 10
24.49492297621249
 20
22.74326229453166
 30
0.0
 11
26.26005428879752
 21
24.50839360711668
 31
0.0
  0
LINE
  5
29AC
330
298A
100
AcDbEntity
  8
0
  6
CONTINUOUS
 62
     0
100
AcDbLine
 10
24.49492297621249
 20
23.02610501122096
 30
0.0
 11
25.97721157210822
 21
24.50839360711669
 31
0.0
  0
LINE
  5
29AD
330
298A
100
AcDbEntity
  8
0
  6
CONTINUOUS
 62
     0
100
AcDbLine
 10
24.49492297621249
 20
23.30894772791026
 30
0.0
 11
25.69436885541891
 21
24.50839360711669
 31
0.0
  0
LINE
  5
29AE
330
298A
100
AcDbEntity
  8
0
  6
CONTINUOUS
 62
     0
100
AcDbLine
 10
24.49492297621249
 20
23.59179044459957
 30
0.0
 11
25.41152613872961
 21
24.50839360711669
 31
0.0
  0
LINE
  5
29AF
330
298A
100
AcDbEntity
  8
0
  6
CONTINUOUS
 62
     0
100
AcDbLine
 10
24.49492297621249
 20
23.87463316128887
 30
0.0
 11
25.1286834220403
 21
24.50839360711668
 31
0.0
  0
LINE
  5
29B0
330
298A
100
AcDbEntity
  8
0
  6
CONTINUOUS
 62
     0
100
AcDbLine
 10
24.49492297621249
 20
24.15747587797818
 30
0.0
 11
24.845840705351
 21
24.50839360711668
 31
0.0
  0
LINE
  5
29B1
330
298A
100
AcDbEntity
  8
0
  6
CONTINUOUS
 62
     0
100
AcDbLine
 10
24.49492297621249
 20
24.44031859466748
 30
0.0
 11
24.5629979886617
 21
24.50839360711668
 31
0.0
  0
ENDBLK
  5
29B3
330
298A
100
AcDbEntity
  8
0
100
AcDbBlockEnd
  0
BLOCK
  5
29D5
330
29B4
100
AcDbEntity
  8
0
100
AcDbBlockBegin
  2
*X30
 70
     1
 10
0.0
 20
0.0
 30
0.0
  3
*X30
  1

  0
LINE
  5
29B5
330
29B4
100
AcDbEntity
  8
0
  6
CONTINUOUS
 62
     0
100
AcDbLine
 10
47.24971434063112
 20
22.58779360711668
 30
0.0
 11
47.28795659173517
 21
22.62603585822073
 31
0.0
  0
LINE
  5
29B6
330
29B4
100
AcDbEntity
  8
0
  6
CONTINUOUS
 62
     0
100
AcDbLine
 10
46.96687162394181
 20
22.58779360711668
 30
0.0
 11
47.30766242413531
 21
22.92858440731017
 31
0.0
  0
LINE
  5
29B7
330
29B4
100
AcDbEntity
  8
0
  6
CONTINUOUS
 62
     0
100
AcDbLine
 10
46.68402890725251
 20
22.58779360711668
 30
0.0
 11
47.29611504099408
 21
23.19987974085824
 31
0.0
  0
LINE
  5
29B8
330
29B4
100
AcDbEntity
  8
0
  6
CONTINUOUS
 62
     0
100
AcDbLine
 10
46.40118619056321
 20
22.58779360711668
 30
0.0
 11
47.26153315523016
 21
23.44814057178364
 31
0.0
  0
LINE
  5
29B9
330
29B4
100
AcDbEntity
  8
0
  6
CONTINUOUS
 62
     0
100
AcDbLine
 10
44.44548619056321
 20
20.63209360711669
 30
0.0
 11
44.45962297621249
 21
20.64623039276595
 31
0.0
  0
LINE
  5
29BA
330
29B4
100
AcDbEntity
  8
0
  6
CONTINUOUS
 62
     0
100
AcDbLine
 10
46.1183434738739
 20
22.58779360711668
 30
0.0
 11
47.20921446605053
 21
23.6786645992933
 31
0.0
  0
LINE
  5
29BB
330
29B4
100
AcDbEntity
  8
0
  6
CONTINUOUS
 62
     0
100
AcDbLine
 10
44.1626434738739
 20
20.63209360711668
 30
0.0
 11
44.45962297621249
 21
20.92907310945526
 31
0.0
  0
LINE
  5
29BC
330
29B4
100
AcDbEntity
  8
0
  6
CONTINUOUS
 62
     0
100
AcDbLine
 10
45.8355007571846
 20
22.58779360711668
 30
0.0
 11
47.13201133898738
 21
23.88430418891946
 31
0.0
  0
LINE
  5
29BD
330
29B4
100
AcDbEntity
  8
0
  6
CONTINUOUS
 62
     0
100
AcDbLine
 10
43.8798007571846
 20
20.63209360711668
 30
0.0
 11
44.45962297621249
 21
21.21191582614456
 31
0.0
  0
LINE
  5
29BE
330
29B4
100
AcDbEntity
  8
0
  6
CONTINUOUS
 62
     0
100
AcDbLine
 10
45.5526580404953
 20
22.58779360711668
 30
0.0
 11
47.02930284680043
 21
24.06443841342182
 31
0.0
  0
LINE
  5
29BF
330
29B4
100
AcDbEntity
  8
0
  6
CONTINUOUS
 62
     0
100
AcDbLine
 10
43.5969580404953
 20
20.63209360711668
 30
0.0
 11
44.45962297621249
 21
21.49475854283387
 31
0.0
  0
LINE
  5
29C0
330
29B4
100
AcDbEntity
  8
0
  6
CONTINUOUS
 62
     0
100
AcDbLine
 10
45.4545729762125
 20
22.77255125952319
 30
0.0
 11
46.90089549976312
 21
24.21887378307381
 31
0.0
  0
LINE
  5
29C1
330
29B4
100
AcDbEntity
  8
0
  6
CONTINUOUS
 62
     0
100
AcDbLine
 10
43.31411532380601
 20
20.63209360711669
 30
0.0
 11
44.45962297621249
 21
21.77760125952318
 31
0.0
  0
LINE
  5
29C2
330
29B4
100
AcDbEntity
  8
0
  6
CONTINUOUS
 62
     0
100
AcDbLine
 10
45.41819881762309
 20
23.01901981762308
 30
0.0
 11
46.74470971389381
 21
24.3455307138938
 31
0.0
  0
LINE
  5
29C3
330
29B4
100
AcDbEntity
  8
0
  6
CONTINUOUS
 62
     0
100
AcDbLine
 10
43.03127260711669
 20
20.63209360711668
 30
0.0
 11
44.4596229762125
 21
22.06044397621248
 31
0.0
  0
LINE
  5
29C4
330
29B4
100
AcDbEntity
  8
0
  6
CONTINUOUS
 62
     0
100
AcDbLine
 10
45.29461390127502
 20
23.17827761796431
 30
0.0
 11
46.55878408076631
 21
24.44244779745559
 31
0.0
  0
LINE
  5
29C5
330
29B4
100
AcDbEntity
  8
0
  6
CONTINUOUS
 62
     0
100
AcDbLine
 10
42.74842989042738
 20
20.63209360711668
 30
0.0
 11
44.45962297621249
 21
22.34328669290178
 31
0.0
  0
LINE
  5
29C6
330
29B4
100
AcDbEntity
  8
0
  6
CONTINUOUS
 62
     0
100
AcDbLine
 10
45.10254687639092
 20
23.26905330976953
 30
0.0
 11
46.34635704299881
 21
24.5128634763774
 31
0.0
  0
LINE
  5
29C7
330
29B4
100
AcDbEntity
  8
0
  6
CONTINUOUS
 62
     0
100
AcDbLine
 10
42.73297297621249
 20
20.89947940959109
 30
0.0
 11
44.45962297621249
 21
22.62612940959108
 31
0.0
  0
LINE
  5
29C8
330
29B4
100
AcDbEntity
  8
0
  6
CONTINUOUS
 62
     0
100
AcDbLine
 10
44.79762211486146
 20
23.24697126492937
 30
0.0
 11
46.11516596148556
 21
24.56451511155345
 31
0.0
  0
LINE
  5
29C9
330
29B4
100
AcDbEntity
  8
0
  6
CONTINUOUS
 62
     0
100
AcDbLine
 10
42.7329729762125
 20
21.18232212628039
 30
0.0
 11
44.49250552681683
 21
22.94185467688474
 31
0.0
  0
LINE
  5
29CA
330
29B4
100
AcDbEntity
  8
0
  6
CONTINUOUS
 62
     0
100
AcDbLine
 10
42.7329729762125
 20
21.46516484296971
 30
0.0
 11
45.8577145844811
 21
24.58990645123831
 31
0.0
  0
LINE
  5
29CB
330
29B4
100
AcDbEntity
  8
0
  6
CONTINUOUS
 62
     0
100
AcDbLine
 10
42.7329729762125
 20
21.74800755965902
 30
0.0
 11
45.56309255672949
 21
24.578127140176
 31
0.0
  0
LINE
  5
29CC
330
29B4
100
AcDbEntity
  8
0
  6
CONTINUOUS
 62
     0
100
AcDbLine
 10
42.7329729762125
 20
22.03085027634832
 30
0.0
 11
45.22227722723954
 21
24.52015452737535
 31
0.0
  0
LINE
  5
29CD
330
29B4
100
AcDbEntity
  8
0
  6
CONTINUOUS
 62
     0
100
AcDbLine
 10
42.7329729762125
 20
22.31369299303762
 30
0.0
 11
44.77708856439911
 21
24.35780858122422
 31
0.0
  0
LINE
  5
29CE
330
29B4
100
AcDbEntity
  8
0
  6
CONTINUOUS
 62
     0
100
AcDbLine
 10
42.73297297621251
 20
22.59653570972692
 30
0.0
 11
44.45962297621249
 21
24.32318570972691
 31
0.0
  0
LINE
  5
29CF
330
29B4
100
AcDbEntity
  8
0
  6
CONTINUOUS
 62
     0
100
AcDbLine
 10
42.73297297621251
 20
22.87937842641623
 30
0.0
 11
44.36198815691297
 21
24.50839360711668
 31
0.0
  0
LINE
  5
29D0
330
29B4
100
AcDbEntity
  8
0
  6
CONTINUOUS
 62
     0
100
AcDbLine
 10
42.7329729762125
 20
23.16222114310552
 30
0.0
 11
44.07914544022366
 21
24.50839360711668
 31
0.0
  0
LINE
  5
29D1
330
29B4
100
AcDbEntity
  8
0
  6
CONTINUOUS
 62
     0
100
AcDbLine
 10
42.73297297621249
 20
23.44506385979483
 30
0.0
 11
43.79630272353435
 21
24.50839360711668
 31
0.0
  0
LINE
  5
29D2
330
29B4
100
AcDbEntity
  8
0
  6
CONTINUOUS
 62
     0
100
AcDbLine
 10
42.7329729762125
 20
23.72790657648413
 30
0.0
 11
43.51346000684505
 21
24.50839360711669
 31
0.0
  0
LINE
  5
29D3
330
29B4
100
AcDbEntity
  8
0
  6
CONTINUOUS
 62
     0
100
AcDbLine
 10
42.7329729762125
 20
24.01074929317345
 30
0.0
 11
43.23061729015575
 21
24.50839360711669
 31
0.0
  0
LINE
  5
29D4
330
29B4
100
AcDbEntity
  8
0
  6
CONTINUOUS
 62
     0
100
AcDbLine
 10
42.7329729762125
 20
24.29359200986275
 30
0.0
 11
42.94777457346644
 21
24.50839360711669
 31
0.0
  0
ENDBLK
  5
29D6
330
29B4
100
AcDbEntity
  8
0
100
AcDbBlockEnd
  0
ENDSEC
  0
SECTION
  2
ENTITIES
  0
POLYLINE
  5
1E
330
2
100
AcDbEntity
  8
CARTOUCHE
  6
CONTINUOUS
 62
     7
100
AcDb2dPolyline
 66
     1
 10
0.0
 20
0.0
 30
0.0
 70
   129
  0
VERTEX
  5
284D
330
1E
100
AcDbEntity
  8
CARTOUCHE
  6
CONTINUOUS
 62
     7
100
AcDbVertex
100
AcDb2dVertex
 10
205.0000369999999
 20
292.0001829999999
 30
0.0
  0
VERTEX
  5
284E
330
1E
100
AcDbEntity
  8
CARTOUCHE
  6
CONTINUOUS
 62
     7
100
AcDbVertex
100
AcDb2dVertex
 10
205.0000369999999
 20
5.000182999999999
 30
0.0
  0
VERTEX
  5
284F
330
1E
100
AcDbEntity
  8
CARTOUCHE
  6
CONTINUOUS
 62
     7
100
AcDbVertex
100
AcDb2dVertex
 10
5.0
 20
5.0
 30
0.0
  0
VERTEX
  5
2850
330
1E
100
AcDbEntity
  8
CARTOUCHE
  6
CONTINUOUS
 62
     7
100
AcDbVertex
100
AcDb2dVertex
 10
5.0
 20
292.0
 30
0.0
  0
VERTEX
  5
2851
330
1E
100
AcDbEntity
  8
CARTOUCHE
  6
CONTINUOUS
 62
     7
100
AcDbVertex
100
AcDb2dVertex
 10
204.999774
 20
292.0001829999999
 30
0.0
  0
SEQEND
  5
2852
330
1E
100
AcDbEntity
  8
CARTOUCHE
  6
CONTINUOUS
 62
     7
  0
LINE
  5
20
330
2
100
AcDbEntity
  8
CARTOUCHE
  6
CONTINUOUS
 62
     7
100
AcDbLine
 10
205.0000369999999
 20
36.84515599999999
 30
0.0
 11
5.0
 21
36.84546199999999
 31
0.0
  0
LINE
  5
21
330
2
100
AcDbEntity
  8
CARTOUCHE
  6
CONTINUOUS
 62
     7
100
AcDbLine
 10
205.0000079999999
 20
20.002808
 30
0.0
 11
49.999973
 21
20.00304499999999
 31
0.0
  0
LINE
  5
22
330
2
100
AcDbEntity
  8
CARTOUCHE
  6
CONTINUOUS
 62
     7
100
AcDbLine
 10
205.0000369999999
 20
10.00079299999999
 30
0.0
 11
5.0
 21
10.00106799999999
 31
0.0
  0
INSERT
  5
26
330
2
100
AcDbEntity
  8
CARTOUCHE
  6
CONTINUOUS
 62
     4
100
AcDbBlockReference
  2
*X23
 10
0.0
 20
0.0
 30
0.0
1001
ACAD
1000
HATCH
1002
{
1070
    19
1000
ANSI31
1040
0.062992
1040
0.0
1000
R14_HATCH_DATA
1000
26
1011
1.0
1021
0.0
1031
0.0
1011
0.0
1021
1.0
1031
0.0
1011
0.0
1021
0.0
1031
1.0
1040
0.0
1010
0.0
1020
0.0
1030
1.0
1000
ANSI31
1070
     0
1070
     0
1071
        1
1071
        1
1071
      165
1070
     1
1040
39.0510729762125
1040
22.24444360711669
1040
39.1541229762125
1040
22.24444360711669
1070
     1
1040
39.1541229762125
1040
22.24444360711669
1040
42.2069229762125
1040
22.2561436071167
1070
     1
1040
42.2069229762125
1040
22.2561436071167
1040
42.23237762185878
1040
22.36584671807226
1070
     1
1040
42.23237762185878
1040
22.36584671807226
1040
42.24504827300029
1040
22.44946246465666
1070
     1
1040
42.24504827300029
1040
22.44946246465666
1040
42.25187369928078
1040
22.53370336692195
1070
     1
1040
42.25187369928078
1040
22.53370336692195
1040
42.25173537908569
1040
22.64696902678046
1070
     1
1040
42.25173537908569
1040
22.64696902678046
1040
42.23470970538826
1040
22.81609604661632
1070
     1
1040
42.23470970538826
1040
22.81609604661632
1040
42.20846517089046
1040
22.95621257524745
1070
     1
1040
42.20846517089046
1040
22.95621257524745
1040
42.1735788783549
1040
23.0943678180467
1070
     1
1040
42.1735788783549
1040
23.0943678180467
1040
42.1317953513426
1040
23.22914592982182
1070
     1
1040
42.1317953513426
1040
23.22914592982182
1040
42.08234233059616
1040
23.36142053588839
1070
     1
1040
42.08234233059616
1040
23.36142053588839
1040
42.03686170536565
1040
23.46471631345355
1070
     1
1040
42.03686170536565
1040
23.46471631345355
1040
41.98586075982514
1040
23.56553467942711
1070
     1
1040
41.98586075982514
1040
23.56553467942711
1040
41.9292803528995
1040
23.66332260841728
1070
     1
1040
41.9292803528995
1040
23.66332260841728
1040
41.86706134351354
1040
23.75752707503225
1070
     1
1040
41.86706134351354
1040
23.75752707503225
1040
41.79914459059214
1040
23.84759505388021
1070
     1
1040
41.79914459059214
1040
23.84759505388021
1040
41.72552403227461
1040
23.93312974680929
1070
     1
1040
41.72552403227461
1040
23.93312974680929
1040
41.646718709121
1040
24.01400429896925
1070
     1
1040
41.646718709121
1040
24.01400429896925
1040
41.56330878695366
1040
24.0902546369974
1070
     1
1040
41.56330878695366
1040
24.0902546369974
1040
41.38499580886721
1040
24.22902637720731
1070
     1
1040
41.38499580886721
1040
24.22902637720731
1040
41.26698552360454
1040
24.30660502920468
1070
     1
1040
41.26698552360454
1040
24.30660502920468
1040
41.1444496714726
1040
24.37644216492157
1070
     1
1040
41.1444496714726
1040
24.37644216492157
1040
41.01771944247007
1040
24.43798598686956
1070
     1
1040
41.01771944247007
1040
24.43798598686956
1040
40.88739588735783
1040
24.49164913231013
1070
     1
1040
40.88739588735783
1040
24.49164913231013
1040
40.61887239332167
1040
24.57873375105808
1070
     1
1040
40.61887239332167
1040
24.57873375105808
1040
40.34465192624326
1040
24.64564860681681
1070
     1
1040
40.34465192624326
1040
24.64564860681681
1040
40.06700470098034
1040
24.69362958168881
1070
     1
1040
40.06700470098034
1040
24.69362958168881
1040
39.78677780416955
1040
24.72351512572941
1070
     1
1040
39.78677780416955
1040
24.72351512572941
1040
39.22285539283774
1040
24.73587418697074
1070
     1
1040
39.22285539283774
1040
24.73587418697074
1040
38.66058598489463
1040
24.6957948090196
1070
     1
1040
38.66058598489463
1040
24.6957948090196
1040
38.38230020586061
1040
24.65113876708679
1070
     1
1040
38.38230020586061
1040
24.65113876708679
1040
38.10728319880826
1040
24.58829981854138
1070
     1
1040
38.10728319880826
1040
24.58829981854138
1040
37.89059274430329
1040
24.52407995067682
1070
     1
1040
37.89059274430329
1040
24.52407995067682
1040
37.73158560950747
1040
24.46569680922368
1070
     1
1040
37.73158560950747
1040
24.46569680922368
1040
37.57690963109762
1040
24.3966247732279
1070
     1
1040
37.57690963109762
1040
24.3966247732279
1040
37.47700594046573
1040
24.34397907058795
1070
     1
1040
37.47700594046573
1040
24.34397907058795
1040
37.38006697776783
1040
24.28586263277782
1070
     1
1040
37.38006697776783
1040
24.28586263277782
1040
37.28661322764598
1040
24.2223061075916
1070
     1
1040
37.28661322764598
1040
24.2223061075916
1040
37.19716517474233
1040
24.15334014282338
1070
     1
1040
37.19716517474233
1040
24.15334014282338
1040
37.1122433036989
1040
24.07899538626728
1070
     1
1040
37.1122433036989
1040
24.07899538626728
1040
37.03231956115444
1040
23.99941355886845
1070
     1
1040
37.03231956115444
1040
23.99941355886845
1040
36.9574691985834
1040
23.91497437553553
1070
     1
1040
36.9574691985834
1040
23.91497437553553
1040
36.88772323485606
1040
23.82616406173335
1070
     1
1040
36.88772323485606
1040
23.82616406173335
1040
36.82311268884266
1040
23.73346884292673
1070
     1
1040
36.82311268884266
1040
23.73346884292673
1040
36.76366857941348
1040
23.63737494458054
1070
     1
1040
36.76366857941348
1040
23.63737494458054
1040
36.66049084556013
1040
23.43648932775315
1070
     1
1040
36.66049084556013
1040
23.43648932775315
1040
36.61706050465457
1040
23.33229860733602
1070
     1
1040
36.61706050465457
1040
23.33229860733602
1040
36.57925710602354
1040
23.22594333946835
1070
     1
1040
36.57925710602354
1040
23.22594333946835
1040
36.54722159336241
1040
23.11767406956402
1070
     1
1040
36.54722159336241
1040
23.11767406956402
1040
36.52110405484771
1040
23.00779024093529
1070
     1
1040
36.52110405484771
1040
23.00779024093529
1040
36.50105148618125
1040
22.89661309273046
1070
     1
1040
36.50105148618125
1040
22.89661309273046
1040
36.48722313194486
1040
22.78451188804436
1070
     1
1040
36.48722313194486
1040
22.78451188804436
1040
36.47977823672034
1040
22.67185588997187
1070
     1
1040
36.47977823672034
1040
22.67185588997187
1040
36.47887604508949
1040
22.55901436160784
1070
     1
1040
36.47887604508949
1040
22.55901436160784
1040
36.48475774395981
1040
22.44607158248759
1070
     1
1040
36.48475774395981
1040
22.44607158248759
1040
36.50730298839907
1040
22.27824312562695
1070
     1
1040
36.50730298839907
1040
22.27824312562695
1040
36.53184176454268
1040
22.16836321870454
1070
     1
1040
36.53184176454268
1040
22.16836321870454
1040
36.58066141679664
1040
22.00635409419069
1070
     1
1040
36.58066141679664
1040
22.00635409419069
1040
36.66317612048025
1040
21.79605059028197
1070
     1
1040
36.66317612048025
1040
21.79605059028197
1040
36.73810157655724
1040
21.64424333087827
1070
     1
1040
36.73810157655724
1040
21.64424333087827
1040
36.82487619371594
1040
21.49928452588675
1070
     1
1040
36.82487619371594
1040
21.49928452588675
1040
36.90656479578137
1040
21.38422047002156
1070
     1
1040
36.90656479578137
1040
21.38422047002156
1040
36.99507455897878
1040
21.27411393911514
1070
     1
1040
36.99507455897878
1040
21.27411393911514
1040
37.06997592170736
1040
21.18923199261414
1070
     1
1040
37.06997592170736
1040
21.18923199261414
1040
37.19090624714094
1040
21.07040837833609
1070
     1
1040
37.19090624714094
1040
21.07040837833609
1040
37.27814005089745
1040
20.99937278063336
1070
     1
1040
37.27814005089745
1040
20.99937278063336
1040
37.41820717151092
1040
20.90511471530929
1070
     1
1040
37.41820717151092
1040
20.90511471530929
1040
37.54199232876573
1040
20.83675698136081
1070
     1
1040
37.54199232876573
1040
20.83675698136081
1040
37.66963145788086
1040
20.77567317677089
1070
     1
1040
37.66963145788086
1040
20.77567317677089
1040
37.8780081581552
1040
20.68845696528821
1070
     1
1040
37.8780081581552
1040
20.68845696528821
1040
38.1996064863776
1040
20.58288122875969
1070
     1
1040
38.1996064863776
1040
20.58288122875969
1040
38.41901473591617
1040
20.5313383877604
1070
     1
1040
38.41901473591617
1040
20.5313383877604
1040
38.75315260795133
1040
20.4778380326807
1070
     1
1040
38.75315260795133
1040
20.4778380326807
1040
39.03388002407347
1040
20.45024301554652
1070
     1
1040
39.03388002407347
1040
20.45024301554652
1040
39.3154824739789
1040
20.43816227630538
1070
     1
1040
39.3154824739789
1040
20.43816227630538
1040
39.87832438970059
1040
20.46163547548925
1070
     1
1040
39.87832438970059
1040
20.46163547548925
1040
40.15919163958635
1040
20.49446766611456
1070
     1
1040
40.15919163958635
1040
20.49446766611456
1040
40.43780417420945
1040
20.54223471097222
1070
     1
1040
40.43780417420945
1040
20.54223471097222
1040
40.71211753370237
1040
20.60834422386486
1070
     1
1040
40.71211753370237
1040
20.60834422386486
1040
40.97822189579761
1040
20.69993377525822
1070
     1
1040
40.97822189579761
1040
20.69993377525822
1040
41.23556355576588
1040
20.81532426148599
1070
     1
1040
41.23556355576588
1040
20.81532426148599
1040
41.36129896456578
1040
20.87918642113991
1070
     1
1040
41.36129896456578
1040
20.87918642113991
1040
41.48298030283661
1040
20.95024471011851
1070
     1
1040
41.48298030283661
1040
20.95024471011851
1040
41.57561849499816
1040
21.01478183487384
1070
     1
1040
41.57561849499816
1040
21.01478183487384
1040
41.64162067797335
1040
21.06789487373303
1070
     1
1040
41.64162067797335
1040
21.06789487373303
1040
41.70417597333143
1040
21.12494680466518
1070
     1
1040
41.70417597333143
1040
21.12494680466518
1040
41.7817101714212
1040
21.20681530143447
1070
     1
1040
41.7817101714212
1040
21.20681530143447
1040
41.88612496759311
1040
21.3400893433574
1070
     1
1040
41.88612496759311
1040
21.3400893433574
1040
41.94806769779654
1040
21.43459300621544
1070
     1
1040
41.94806769779654
1040
21.43459300621544
1040
41.98954620943113
1040
21.50838618886258
1070
     1
1040
41.98954620943113
1040
21.50838618886258
1040
42.02581025553314
1040
21.58482751880403
1070
     1
1040
42.02581025553314
1040
21.58482751880403
1040
42.06495311335439
1040
21.69080606664596
1070
     1
1040
42.06495311335439
1040
21.69080606664596
1040
42.08734956124508
1040
21.7725999887287
1070
     1
1040
42.08734956124508
1040
21.7725999887287
1040
42.10387297621249
1040
21.85564360711669
1070
     1
1040
42.1038729762125
1040
21.85564360711669
1040
40.3430229762125
1040
21.85564360711669
1070
     1
1040
40.3430229762125
1040
21.85564360711669
1040
40.23476024848425
1040
21.77513923010117
1070
     1
1040
40.23476024848425
1040
21.77513923010117
1040
40.14934213166021
1040
21.72065519582548
1070
     1
1040
40.14934213166021
1040
21.72065519582548
1040
40.06077578326683
1040
21.67143258943228
1070
     1
1040
40.06077578326683
1040
21.67143258943228
1040
39.9847582806153
1040
21.63477293281268
1070
     1
1040
39.9847582806153
1040
21.63477293281268
1040
39.90657573481703
1040
21.60330661466393
1070
     1
1040
39.90657573481703
1040
21.60330661466393
1040
39.84227684043671
1040
21.58263477145073
1070
     1
1040
39.84227684043671
1040
21.58263477145073
1040
39.74365139903882
1040
21.55908759838492
1070
     1
1040
39.74365139903882
1040
21.55908759838492
1040
39.60933694828439
1040
21.54053645709474
1070
     1
1040
39.60933694828439
1040
21.54053645709474
1040
39.50763922715866
1040
21.53565640431556
1070
     1
1040
39.50763922715866
1040
21.53565640431556
1040
39.40580907592665
1040
21.53798084006903
1070
     1
1040
39.40580907592665
1040
21.53798084006903
1040
39.27139248316182
1040
21.55149592366054
1070
     1
1040
39.27139248316182
1040
21.55149592366054
1040
39.17168098959246
1040
21.56918758966989
1070
     1
1040
39.17168098959246
1040
21.56918758966989
1040
39.07332908880515
1040
21.59318639542836
1070
     1
1040
39.07332908880515
1040
21.59318639542836
1040
38.94488412919865
1040
21.63503670912596
1070
     1
1040
38.94488412919865
1040
21.63503670912596
1040
38.85139509395393
1040
21.67430102476285
1070
     1
1040
38.85139509395393
1040
21.67430102476285
1040
38.76098099155707
1040
21.72084551731241
1070
     1
1040
38.76098099155707
1040
21.72084551731241
1040
38.70284010572697
1040
21.75613985649101
1070
     1
1040
38.70284010572697
1040
21.75613985649101
1040
38.64707685719372
1040
21.79510415864196
1070
     1
1040
38.64707685719372
1040
21.79510415864196
1040
38.59445017225021
1040
21.83796670614767
1070
     1
1040
38.59445017225021
1040
21.83796670614767
1040
38.54571897718932
1040
21.88495578139061
1070
     1
1040
38.54571897718932
1040
21.88495578139061
1040
38.50164219830395
1040
21.93629966675315
1070
     1
1040
38.50164219830395
1040
21.93629966675315
1040
38.46287701718852
1040
21.99205035339784
1070
     1
1040
38.46287701718852
1040
21.99205035339784
1040
38.42966872450979
1040
22.05156201261892
1070
     1
1040
38.42966872450979
1040
22.05156201261892
1040
38.40216110017965
1040
22.11401272255397
1070
     1
1040
38.40216110017965
1040
22.11401272255397
1040
38.38049792410992
1040
22.17858056134068
1070
     1
1040
38.38049792410992
1040
22.17858056134068
1040
38.36482297621251
1040
22.24444360711671
1070
     1
1040
38.3648229762125
1040
22.24444360711669
1040
39.0510729762125
1040
22.24444360711669
1070
     1
1040
38.3648229762125
1040
23.07919360711669
1040
39.1541229762125
1040
23.07919360711669
1070
     1
1040
39.1541229762125
1040
23.07919360711669
1040
40.3430229762125
1040
23.07919360711669
1070
     1
1040
40.3430229762125
1040
23.07919360711669
1040
40.33909926301454
1040
23.11641599550353
1070
     1
1040
40.33909926301454
1040
23.11641599550353
1040
40.33300155668256
1040
23.15343121688127
1070
     1
1040
40.33300155668256
1040
23.15343121688127
1040
40.32469189133606
1040
23.19004875052245
1070
     1
1040
40.32469189133606
1040
23.19004875052245
1040
40.31413230109458
1040
23.22607807569952
1070
     1
1040
40.31413230109458
1040
23.22607807569952
1040
40.30128482007762
1040
23.26132867168497
1070
     1
1040
40.30128482007762
1040
23.26132867168497
1040
40.2861562754215
1040
23.29560552113762
1070
     1
1040
40.2861562754215
1040
23.29560552113762
1040
40.26886416528138
1040
23.32884602666271
1070
     1
1040
40.26886416528138
1040
23.32884602666271
1040
40.24956736768168
1040
23.36098167189717
1070
     1
1040
40.24956736768168
1040
23.36098167189717
1040
40.22842476064687
1040
23.39194394047795
1070
     1
1040
40.22842476064687
1040
23.39194394047795
1040
40.20559522220136
1040
23.42166431604199
1070
     1
1040
40.20559522220136
1040
23.42166431604199
1040
40.15515801785679
1040
23.47753406525592
1070
     1
1040
40.15515801785679
1040
23.47753406525592
1040
40.11388839399304
1040
23.51605862117359
1070
     1
1040
40.11388839399304
1040
23.51605862117359
1040
40.07014905358668
1040
23.55176773224803
1070
     1
1040
40.07014905358668
1040
23.55176773224803
1040
40.00889746141838
1040
23.59493589176599
1070
     1
1040
40.00889746141838
1040
23.59493589176599
1040
39.96089441895125
1040
23.62414416847377
1070
     1
1040
39.96089441895125
1040
23.62414416847377
1040
39.91135088271828
1040
23.6506431736504
1070
     1
1040
39.91135088271828
1040
23.6506431736504
1040
39.84321277515286
1040
23.6818016613351
1070
     1
1040
39.84321277515286
1040
23.6818016613351
1040
39.7374628559249
1040
23.71981068462436
1070
     1
1040
39.7374628559249
1040
23.71981068462436
1040
39.66503365624778
1040
23.73954552020273
1070
     1
1040
39.66503365624778
1040
23.73954552020273
1040
39.55447534379333
1040
23.76080659501808
1070
     1
1040
39.55447534379333
1040
23.76080659501808
1040
39.47958224634176
1040
23.76953429507831
1070
     1
1040
39.47958224634176
1040
23.76953429507831
1040
39.36667772831406
1040
23.77477007425147
1070
     1
1040
39.36667772831406
1040
23.77477007425147
1040
39.29122949187705
1040
23.77322624991531
1070
     1
1040
39.29122949187705
1040
23.77322624991531
1040
39.17824365086322
1040
23.76280187157366
1070
     1
1040
39.17824365086322
1040
23.76280187157366
1040
39.10438801088995
1040
23.74982437023361
1070
     1
1040
39.10438801088995
1040
23.74982437023361
1040
39.06808459709384
1040
23.74084703659711
1070
     1
1040
39.06808459709384
1040
23.74084703659711
1040
39.03251357680947
1040
23.72981136235449
1070
     1
1040
39.03251357680947
1040
23.72981136235449
1040
38.99791204207538
1040
23.71641788353441
1070
     1
1040
38.99791204207538
1040
23.71641788353441
1040
38.96434370672354
1040
23.70050789086009
1070
     1
1040
38.96434370672354
1040
23.70050789086009
1040
38.83484335052719
1040
23.62568105970969
1070
     1
1040
38.83484335052719
1040
23.62568105970969
1040
38.6715939776077
1040
23.53558123947115
1070
     1
1040
38.6715939776077
1040
23.53558123947115
1040
38.64097585888165
1040
23.51416025014972
1070
     1
1040
38.64097585888165
1040
23.51416025014972
1040
38.61162458828315
1040
23.49088000691659
1070
     1
1040
38.61162458828315
1040
23.49088000691659
1040
38.5835911062816
1040
23.4659111349842
1070
     1
1040
38.5835911062816
1040
23.4659111349842
1040
38.53168126994678
1040
23.41159000587155
1070
     1
1040
38.53168126994678
1040
23.41159000587155
1040
38.48534058579902
1040
23.35202538560785
1070
     1
1040
38.48534058579902
1040
23.35202538560785
1040
38.45462052922736
1040
23.30455107675152
1070
     1
1040
38.45462052922736
1040
23.30455107675152
1040
38.42745670868595
1040
23.25493190905037
1070
     1
1040
38.42745670868595
1040
23.25493190905037
1040
38.39720008793944
1040
23.18647261641375
1070
     1
1040
38.39720008793944
1040
23.18647261641375
1040
38.37898034260687
1040
23.13339531126972
1070
     1
1040
38.37898034260687
1040
23.13339531126972
1040
38.36482297621251
1040
23.0791936071167
1071
        0
1070
     0
1070
     1
1040
0.0
1040
0.062992
1070
     0
1070
     1
1040
0.7853981633974483
1040
-6.22517
1040
-28.624349
1040
-0.1414213583446519
1040
0.1414213583446519
1070
     0
1071
        1
1040
-6.22517
1040
-28.624349
1040
0.0
1002
}
  0
SPLINE
  5
27
330
2
100
AcDbEntity
  8
CARTOUCHE
  6
CONTINUOUS
 62
     4
100
AcDbSpline
210
0.0
220
0.0
230
1.0
 70
     8
 71
     3
 72
    21
 73
    17
 74
    15
 42
0.0000000001
 43
0.0000000001
 44
0.000001
 12
-0.0762450288998757
 22
0.9970891111470715
 32
0.0
 13
-0.2154301143740796
 23
-0.9765192603429648
 33
0.0
 40
0.0
 40
0.0
 40
0.0
 40
0.0
 40
0.1868552501291099
 40
0.3735743240415363
 40
0.5613842212537195
 40
0.7484489381161498
 40
0.9355884385827966
 40
1.123112064008595
 40
1.311428189761292
 40
1.500242138341776
 40
1.686443726256273
 40
1.873057604711222
 40
2.059520215358873
 40
2.246467675506937
 40
2.434628543455337
 40
2.621193756753846
 40
2.621193756753846
 40
2.621193756753846
 40
2.621193756753846
 10
40.3430229762125
 20
23.07919360711669
 30
0.0
 10
40.33827404823044
 20
23.14129738553816
 30
0.0
 10
40.31098607120404
 20
23.26532099804101
 30
0.0
 10
40.21176993964344
 20
23.42743856410385
 30
0.0
 10
40.07410542495197
 20
23.55667636729545
 30
0.0
 10
39.9138014685594
 20
23.65566279649367
 30
0.0
 10
39.73873495456709
 20
23.72452138799518
 30
0.0
 10
39.55490004271078
 20
23.76544088796556
 30
0.0
 10
39.36639757169171
 20
23.77885750750729
 30
0.0
 10
39.1790224559892
 20
23.76782182101864
 30
0.0
 10
38.99274814414789
 20
23.72745913194854
 30
0.0
 10
38.83748760469036
 20
23.62068056673371
 30
0.0
 10
38.66640559987162
 20
23.54392780516535
 30
0.0
 10
38.52524863854353
 20
23.41621618712655
 30
0.0
 10
38.42100518625729
 20
23.258923243242
 30
0.0
 10
38.37822023129222
 20
23.13992178181537
 30
0.0
 10
38.36482297621251
 20
23.0791936071167
 30
0.0
 11
40.3430229762125
 21
23.07919360711669
 31
0.0
 11
40.30128482007762
 21
23.26132867168497
 31
0.0
 11
40.20559522220136
 21
23.42166431604199
 31
0.0
 11
40.07014905358668
 21
23.55176773224803
 31
0.0
 11
39.91135088271828
 21
23.6506431736504
 31
0.0
 11
39.7374628559249
 21
23.71981068462436
 31
0.0
 11
39.55447534379333
 21
23.76080659501808
 31
0.0
 11
39.36667772831406
 21
23.77477007425147
 31
0.0
 11
39.17824365086322
 21
23.76280187157366
 31
0.0
 11
38.99791204207538
 21
23.71641788353441
 31
0.0
 11
38.83484335052719
 21
23.62568105970969
 31
0.0
 11
38.6715939776077
 21
23.53558123947115
 31
0.0
 11
38.53168126994678
 21
23.41159000587155
 31
0.0
 11
38.42745670868595
 21
23.25493190905037
 31
0.0
 11
38.36482297621251
 21
23.0791936071167
 31
0.0
  0
SPLINE
  5
28
330
2
100
AcDbEntity
  8
CARTOUCHE
  6
CONTINUOUS
 62
     4
100
AcDbSpline
210
0.0
220
0.0
230
1.0
 70
     8
 71
     3
 72
    15
 73
    11
 74
     9
 42
0.0000000001
 43
0.0000000001
 44
0.000001
 12
0.1873467659221653
 22
-0.9822938406090642
 32
0.0
 13
0.7770129286964091
 23
0.6294846373332945
 33
0.0
 40
0.0
 40
0.0
 40
0.0
 40
0.0
 40
0.3371520882962238
 40
0.6743124420665318
 40
1.011741231949301
 40
1.348773281046484
 40
1.687274393511964
 40
1.856092886460975
 40
2.024671668997265
 40
2.361713795269132
 40
2.361713795269132
 40
2.361713795269132
 40
2.361713795269132
 10
38.3648229762125
 20
22.24444360711669
 30
0.0
 10
38.3858777606679
 20
22.13404946722274
 30
0.0
 10
38.4790882392058
 20
21.91720258641543
 30
0.0
 10
38.75430841965681
 20
21.70644962175585
 30
0.0
 10
39.06998579026009
 20
21.58181024957577
 30
0.0
 10
39.40539428132957
 20
21.52556294079901
 30
0.0
 10
39.68949383633029
 20
21.54062590043178
 30
0.0
 10
39.90812614741166
 20
21.59887432412625
 30
0.0
 10
40.11328190683267
 20
21.69222629120342
 30
0.0
 10
40.25572761300298
 20
21.7849226602426
 30
0.0
 10
40.3430229762125
 20
21.85564360711669
 30
0.0
 11
38.3648229762125
 21
22.24444360711669
 31
0.0
 11
38.50164219830394
 21
21.93629966675314
 31
0.0
 11
38.76098099155704
 21
21.72084551731241
 31
0.0
 11
39.07332908880515
 21
21.59318639542836
 31
0.0
 11
39.40580907592665
 21
21.53798084006903
 31
0.0
 11
39.7436513990388
 21
21.55908759838489
 31
0.0
 11
39.90657573481705
 21
21.60330661466393
 31
0.0
 11
40.06077578326683
 21
21.67143258943228
 31
0.0
 11
40.3430229762125
 21
21.85564360711669
 31
0.0
  0
SPLINE
  5
29
330
2
100
AcDbEntity
  8
CARTOUCHE
  6
CONTINUOUS
 62
     4
100
AcDbSpline
210
0.0
220
0.0
230
1.0
 70
     8
 71
     3
 72
    46
 73
    42
 74
    40
 42
0.0000000001
 43
0.0000000001
 44
0.000001
 12
0.2679235453433934
 22
0.9634401765811029
 32
0.0
 13
0.1610223945668763
 23
0.9869507527977013
 33
0.0
 40
0.0
 40
0.0
 40
0.0
 40
0.0
 40
0.2811755879610205
 40
0.5640894598527197
 40
0.8489967500744224
 40
1.131204584902198
 40
1.693847130716202
 40
2.25688272553264
 40
2.539006562895577
 40
2.820696627709168
 40
3.102988313571604
 40
3.385254961394738
 40
3.94853705967111
 40
4.51259487957146
 40
5.076290929579045
 40
5.639938991368811
 40
6.203885292827621
 40
6.766738024232006
 40
7.329350602228585
 40
7.892323292363498
 40
8.455148072837019
 40
8.737354674731138
 40
9.018966275430827
 40
9.581780957923617
 40
9.864038410179498
 40
10.14660875455178
 40
10.42765626274299
 40
10.71044466815239
 40
11.27439702776554
 40
11.83782171874065
 40
12.40154952919085
 40
12.96488070414784
 40
13.53013628041458
 40
13.81230340811157
 40
14.09372867187361
 40
14.37575650341838
 40
14.65756953458365
 40
14.93943539145296
 40
15.2212008302244
 40
15.50299648006999
 40
15.78483841467691
 40
15.78483841467691
 40
15.78483841467691
 40
15.78483841467691
 10
42.2069229762125
 20
22.2561436071167
 30
0.0
 10
42.23203416300934
 20
22.34644222648852
 30
0.0
 10
42.26336600835234
 20
22.53399302707784
 30
0.0
 10
42.24149685064985
 20
22.81801354893512
 30
0.0
 10
42.17836809953296
 20
23.09483432895953
 30
0.0
 10
42.05825188604775
 20
23.45212616882764
 30
0.0
 10
41.8230668006803
 20
23.86725004625181
 30
0.0
 10
41.46781676949065
 20
24.18453380611619
 30
0.0
 10
41.14761161207628
 20
24.38196283172969
 30
0.0
 10
40.88897553118341
 20
24.49665789401903
 30
0.0
 10
40.61969386966782
 20
24.58173362530224
 30
0.0
 10
40.25431496432636
 20
24.67112545926651
 30
0.0
 10
39.78717039719532
 20
24.73491722666181
 30
0.0
 10
39.22286209832438
 20
24.74314592079586
 30
0.0
 10
38.65912089182815
 20
24.707767262888
 30
0.0
 10
38.10430973138447
 20
24.60055473365942
 30
0.0
 10
37.56703419814676
 20
24.41975302663697
 30
0.0
 10
37.09128412027334
 20
24.10132431889457
 30
0.0
 10
36.74193897991701
 20
23.6494135573821
 30
0.0
 10
36.52262166512313
 20
23.12465092262864
 30
0.0
 10
36.46286239872553
 20
22.6523743754689
 30
0.0
 10
36.49897197569239
 20
22.27677357904617
 30
0.0
 10
36.60138550967333
 20
21.91447847594101
 30
0.0
 10
36.76185476285072
 20
21.56953949794035
 30
0.0
 10
36.99184531701846
 20
21.27135446443551
 30
0.0
 10
37.18412183917007
 20
21.0637297758158
 30
0.0
 10
37.41499114147043
 20
20.89810995063151
 30
0.0
 10
37.75233275177086
 20
20.73107999541952
 30
0.0
 10
38.19505514432215
 20
20.56630095377483
 30
0.0
 10
38.75227472239757
 20
20.4684543647121
 30
0.0
 10
39.31516450875555
 20
20.42686251213917
 30
0.0
 10
39.87978566121683
 20
20.45310413897527
 30
0.0
 10
40.34636221788836
 20
20.51793252236163
 30
0.0
 10
40.71317022013404
 20
20.60361845862006
 30
0.0
 10
40.98020793552477
 20
20.69575648453573
 30
0.0
 10
41.23634112546803
 20
20.81337071306749
 30
0.0
 10
41.48756204304269
 20
20.94257872732798
 30
0.0
 10
41.71131198312713
 20
21.11779586997518
 30
0.0
 10
41.89210410379195
 20
21.33577447260693
 30
0.0
 10
42.03705455831309
 20
21.5796883241839
 30
0.0
 10
42.0887453551459
 20
21.76292223727327
 30
0.0
 10
42.10387297621249
 20
21.85564360711669
 30
0.0
 11
42.2069229762125
 21
22.2561436071167
 31
0.0
 11
42.25187369928078
 21
22.53370336692195
 31
0.0
 11
42.23470970538826
 21
22.81609604661632
 31
0.0
 11
42.1735788783549
 21
23.0943678180467
 31
0.0
 11
42.08234233059616
 21
23.36142053588839
 31
0.0
 11
41.79914459059214
 21
23.84759505388021
 31
0.0
 11
41.38499580886721
 21
24.22902637720731
 31
0.0
 11
41.1444496714726
 21
24.37644216492157
 31
0.0
 11
40.88739588735783
 21
24.49164913231013
 31
0.0
 11
40.61887239332167
 21
24.57873375105808
 31
0.0
 11
40.34465192624326
 21
24.64564860681681
 31
0.0
 11
39.78677780416955
 21
24.72351512572941
 31
0.0
 11
39.22285539283774
 21
24.73587418697074
 31
0.0
 11
38.66058598489463
 21
24.6957948090196
 31
0.0
 11
38.10728319880826
 21
24.58829981854138
 31
0.0
 11
37.57690963109762
 21
24.3966247732279
 31
0.0
 11
37.1122433036989
 21
24.07899538626728
 31
0.0
 11
36.76366857941348
 21
23.63737494458054
 31
0.0
 11
36.54722159336241
 21
23.11767406956402
 31
0.0
 11
36.47887604508949
 21
22.55901436160784
 31
0.0
 11
36.50730298839907
 21
22.27824312562695
 31
0.0
 11
36.58066141679664
 21
22.00635409419069
 31
0.0
 11
36.82487619371594
 21
21.49928452588675
 31
0.0
 11
36.99507455897878
 21
21.27411393911514
 31
0.0
 11
37.19090624714094
 21
21.07040837833609
 31
0.0
 11
37.41820717151092
 21
20.90511471530929
 31
0.0
 11
37.66963145788086
 21
20.77567317677089
 31
0.0
 11
38.1996064863776
 21
20.58288122875969
 31
0.0
 11
38.75315260795133
 21
20.4778380326807
 31
0.0
 11
39.3154824739789
 21
20.43816227630538
 31
0.0
 11
39.87832438970059
 21
20.46163547548925
 31
0.0
 11
40.43780417420945
 21
20.54223471097222
 31
0.0
 11
40.71211753370237
 21
20.60834422386486
 31
0.0
 11
40.97822189579761
 21
20.69993377525822
 31
0.0
 11
41.23556355576588
 21
20.81532426148599
 31
0.0
 11
41.48298030283661
 21
20.95024471011851
 31
0.0
 11
41.70417597333143
 21
21.12494680466518
 31
0.0
 11
41.88612496759311
 21
21.3400893433574
 31
0.0
 11
42.02581025553314
 21
21.58482751880403
 31
0.0
 11
42.10387297621249
 21
21.85564360711669
 31
0.0
  0
LINE
  5
2A
330
2
100
AcDbEntity
  8
CARTOUCHE
  6
CONTINUOUS
 62
     4
100
AcDbLine
 10
39.15412299999999
 20
23.07919399999999
 30
0.0
 11
40.343023
 21
23.07919399999999
 31
0.0
  0
LINE
  5
2B
330
2
100
AcDbEntity
  8
CARTOUCHE
  6
CONTINUOUS
 62
     4
100
AcDbLine
 10
42.206923
 20
22.25614399999999
 30
0.0
 11
39.15412299999999
 21
22.24444399999999
 31
0.0
  0
TEXT
  5
2C
330
2
100
AcDbEntity
  8
CARTOUCHE
  6
CONTINUOUS
 62
     2
100
AcDbText
 10
19.4243115504879
 20
6.600974967157259
 30
0.0
 40
1.8
  1
MOD. UT 902
 50
359.9999079999999
 41
1.05
  7
FINDER
 72
     1
 11
27.5000005
 21
6.600961999999995
 31
0.0
100
AcDbText
  0
TEXT
  5
2D
330
2
100
AcDbEntity
  8
CARTOUCHE
  6
CONTINUOUS
 62
     2
100
AcDbText
 10
16.19480950410734
 20
14.3087821527781
 30
0.0
 40
1.8
  1
www.findernet.com
 50
359.9999079999999
 41
1.05
  7
FINDER
 72
     1
 11
27.5000005
 21
14.30876399999999
 31
0.0
100
AcDbText
  0
INSERT
  5
2E
330
2
100
AcDbEntity
  8
CARTOUCHE
  6
CONTINUOUS
 62
     4
100
AcDbBlockReference
  2
*X24
 10
0.0
 20
0.0
 30
0.0
1001
ACAD
1000
HATCH
1002
{
1070
    19
1000
ANSI31
1040
0.062992
1040
0.0
1000
R14_HATCH_DATA
1000
2E
1011
1.0
1021
0.0
1031
0.0
1011
0.0
1021
1.0
1031
0.0
1011
0.0
1021
0.0
1031
1.0
1040
0.0
1010
0.0
1020
0.0
1030
1.0
1000
ANSI31
1070
     0
1070
     0
1071
        1
1071
        1
1071
        4
1070
     1
1040
21.8079729762125
1040
24.50839360711669
1040
21.8079729762125
1040
20.63209360711669
1070
     1
1040
21.8079729762125
1040
20.63209360711669
1040
23.6259729762125
1040
20.63209360711669
1070
     1
1040
23.6259729762125
1040
20.63209360711669
1040
23.6259729762125
1040
24.50839360711669
1070
     1
1040
23.6259729762125
1040
24.50839360711669
1040
21.8079729762125
1040
24.50839360711669
1071
        0
1070
     0
1070
     1
1040
0.0
1040
0.062992
1070
     0
1070
     1
1040
0.7853981633974483
1040
-6.22517
1040
-28.624349
1040
-0.1414213583446519
1040
0.1414213583446519
1070
     0
1071
        1
1040
-6.22517
1040
-28.624349
1040
0.0
1002
}
  0
INSERT
  5
2F
330
2
100
AcDbEntity
  8
CARTOUCHE
  6
CONTINUOUS
 62
     4
100
AcDbBlockReference
  2
*X25
 10
0.0
 20
0.0
 30
0.0
1001
ACAD
1000
HATCH
1002
{
1070
    19
1000
ANSI31
1040
0.062992
1040
0.0
1000
R14_HATCH_DATA
1000
2F
1011
1.0
1021
0.0
1031
0.0
1011
0.0
1021
1.0
1031
0.0
1011
0.0
1021
0.0
1031
1.0
1040
0.0
1010
0.0
1020
0.0
1030
1.0
1000
ANSI31
1070
     0
1070
     0
1071
        1
1071
        1
1071
        4
1070
     1
1040
21.8079729762125
1040
25.83499360711669
1040
21.8079729762125
1040
24.94309360711669
1070
     1
1040
21.8079729762125
1040
24.94309360711669
1040
23.6259729762125
1040
24.94309360711669
1070
     1
1040
23.6259729762125
1040
24.94309360711668
1040
23.6259729762125
1040
25.83499360711669
1070
     1
1040
23.6259729762125
1040
25.83499360711669
1040
21.8079729762125
1040
25.83499360711669
1071
        0
1070
     0
1070
     1
1040
0.0
1040
0.062992
1070
     0
1070
     1
1040
0.7853981633974483
1040
-6.22517
1040
-28.624349
1040
-0.1414213583446519
1040
0.1414213583446519
1070
     0
1071
        1
1040
-6.22517
1040
-28.624349
1040
0.0
1002
}
  0
LINE
  5
30
330
2
100
AcDbEntity
  8
CARTOUCHE
  6
CONTINUOUS
 62
     4
100
AcDbLine
 10
23.625973
 20
24.943094
 30
0.0
 11
21.80797299999999
 21
24.943094
 31
0.0
  0
LINE
  5
31
330
2
100
AcDbEntity
  8
CARTOUCHE
  6
CONTINUOUS
 62
     4
100
AcDbLine
 10
21.80797299999999
 20
25.834994
 30
0.0
 11
23.625973
 21
25.834994
 31
0.0
  0
LINE
  5
32
330
2
100
AcDbEntity
  8
CARTOUCHE
  6
CONTINUOUS
 62
     4
100
AcDbLine
 10
23.625973
 20
20.63209399999999
 30
0.0
 11
21.80797299999999
 21
20.63209399999999
 31
0.0
  0
LINE
  5
33
330
2
100
AcDbEntity
  8
CARTOUCHE
  6
CONTINUOUS
 62
     4
100
AcDbLine
 10
21.80797299999999
 20
24.508394
 30
0.0
 11
23.625973
 21
24.508394
 31
0.0
  0
INSERT
  5
34
330
2
100
AcDbEntity
  8
CARTOUCHE
  6
CONTINUOUS
 62
     4
100
AcDbBlockReference
  2
*X26
 10
0.0
 20
0.0
 30
0.0
1001
ACAD
1000
HATCH
1002
{
1070
    19
1000
ANSI31
1040
0.062992
1040
0.0
1000
R14_HATCH_DATA
1000
34
1011
1.0
1021
0.0
1031
0.0
1011
0.0
1021
1.0
1031
0.0
1011
0.0
1021
0.0
1031
1.0
1040
0.0
1010
0.0
1020
0.0
1030
1.0
1000
ANSI31
1070
     0
1070
     0
1071
        1
1071
        1
1071
       50
1070
     1
1040
10.46482297621249
1040
24.42874360711669
1040
10.46482297621249
1040
27.39950620338089
1070
     1
1040
8.174776197285117
1040
24.42874360711669
1040
10.46482297621249
1040
24.42874360711669
1070
     1
1040
11.41387297621249
1040
27.65262056693448
1040
11.41387297621249
1040
23.76651350370063
1070
     1
1040
11.11642297621249
1040
23.41084360711669
1040
10.88782297621249
1040
23.41084360711669
1070
     1
1040
10.88782297621249
1040
23.41084360711669
1040
12.36292297621249
1040
21.81019360711669
1070
     1
1040
12.36292297621249
1040
21.81019360711669
1040
12.36292297621249
1040
27.65548474905463
1070
     1
1040
9.378522976212499
1040
23.41084360711669
1040
8.176313141344726
1040
23.41084360711669
1070
     1
1040
13.32322297621251
1040
27.40413356412171
1040
13.32322297621251
1040
25.50334360711669
1070
     1
1040
13.32322297621251
1040
25.50334360711669
1040
14.35365561804984
1040
25.50334360711669
1070
     1
1040
14.45542297620991
1040
24.50839360711669
1040
13.32322297621251
1040
24.50839360711669
1070
     1
1040
13.32322297621251
1040
24.50839360711669
1040
13.32322297621251
1040
21.16984360711669
1070
     1
1040
13.32322297621251
1040
21.16984360711669
1040
13.31883473362851
1040
21.12641207783193
1070
     1
1040
13.31883473362851
1040
21.12641207783193
1040
13.31163234261353
1040
21.08326802947578
1070
     1
1040
13.31163234261353
1040
21.08326802947578
1040
13.30167673704228
1040
21.04060222873889
1070
     1
1040
13.30167673704228
1040
21.04060222873889
1040
13.28902885078948
1040
20.99860544231192
1070
     1
1040
13.28902885078948
1040
20.99860544231192
1040
13.27374961772985
1040
20.95746843688553
1070
     1
1040
13.27374961772985
1040
20.95746843688553
1040
13.25587736440904
1040
20.91734035839061
1070
     1
1040
13.25587736440904
1040
20.91734035839061
1040
13.23547981538517
1040
20.87846556800614
1070
     1
1040
13.23547981538517
1040
20.87846556800614
1040
13.21260770458825
1040
20.84104451056206
1070
     1
1040
13.21260770458825
1040
20.84104451056206
1040
13.18731176594832
1040
20.80527763088834
1070
     1
1040
13.18731176594832
1040
20.80527763088834
1040
13.15964273339541
1040
20.77136537381492
1070
     1
1040
13.15964273339541
1040
20.77136537381492
1040
13.12981510363878
1040
20.73960515208204
1070
     1
1040
13.12981510363878
1040
20.73960515208204
1040
13.09792030592154
1040
20.70987423443825
1070
     1
1040
13.09792030592154
1040
20.70987423443825
1040
13.06419374950322
1040
20.68216436340364
1070
     1
1040
13.06419374950322
1040
20.68216436340364
1040
13.02887084364335
1040
20.65646728149825
1070
     1
1040
13.02887084364335
1040
20.65646728149825
1040
12.99218699760145
1040
20.63277473124213
1070
     1
1040
12.99218699760145
1040
20.63277473124213
1040
12.91478675188543
1040
20.59112910905729
1070
     1
1040
12.91478675188543
1040
20.59112910905729
1040
12.87455471295311
1040
20.57347859798428
1070
     1
1040
12.87455471295311
1040
20.57347859798428
1040
12.83340026517213
1040
20.55801039718216
1070
     1
1040
12.83340026517213
1040
20.55801039718216
1040
12.79139755994316
1040
20.54477508934442
1070
     1
1040
12.79139755994316
1040
20.54477508934442
1040
12.74924920374652
1040
20.53399436824628
1070
     1
1040
12.74924920374652
1040
20.53399436824628
1040
12.7065385525372
1040
20.52567780520202
1070
     1
1040
12.7065385525372
1040
20.52567780520202
1040
12.66345572663828
1040
20.52007006636281
1070
     1
1040
12.66345572663828
1040
20.52007006636281
1040
12.62019084637286
1040
20.51741581787993
1070
     1
1040
12.62019084637286
1040
20.51741581787993
1040
12.57693403206401
1040
20.51795972590457
1070
     1
1040
12.57693403206401
1040
20.51795972590457
1040
12.53382920534852
1040
20.52186005993909
1070
     1
1040
12.53382920534852
1040
20.52186005993909
1040
12.4910530384767
1040
20.52890666207177
1070
     1
1040
12.4910530384767
1040
20.52890666207177
1040
12.44873567109528
1040
20.53879717704784
1070
     1
1040
12.44873567109528
1040
20.53879717704784
1040
12.40700724285096
1040
20.55122924961249
1070
     1
1040
12.40700724285096
1040
20.55122924961249
1040
12.36599789339048
1040
20.56590052451097
1070
     1
1040
12.36599789339048
1040
20.56590052451097
1040
12.2860134057736
1040
20.60136338170921
1070
     1
1040
12.2860134057736
1040
20.60136338170921
1040
12.22861677966269
1040
20.63285264645903
1070
     1
1040
12.22861677966269
1040
20.63285264645903
1040
12.17369897910899
1040
20.66832807359032
1070
     1
1040
12.17369897910892
1040
20.66832807359026
1040
9.378522976212499
1040
23.41084360711669
1070
     2
1040
11.89964574585572
1040
23.92542170859346
1040
4.756722701239384
1040
0.0
1040
6.283185307179586
1070
     1
1070
     2
1040
11.89965080003961
1040
23.92541669660974
1040
3.758727016569031
1040
1.962466222740304
1040
3.007280317403794
1070
     1
1070
     2
1040
10.95095374319995
1040
23.85149252383617
1040
0.4706066881870569
1040
5.071608999292026
1040
6.101634622497394
1070
     1
1070
     2
1040
11.89965080003961
1040
23.92541669660974
1040
3.758727016569031
1040
1.447229703560746
1040
1.700398822181218
1070
     1
1070
     2
1040
11.89965080003961
1040
23.92541669660974
1040
3.758727016569031
1040
3.278924828260763
1040
7.465549463417864
1070
     1
1070
     2
1040
14.40453929713244
1040
25.00586860711695
1040
0.5000705194487285
1040
4.814318390362723
1040
7.955911043952516
1070
     1
1071
        0
1070
     0
1070
     1
1040
0.0
1040
0.062992
1070
     0
1070
     1
1040
0.7853981633974483
1040
-6.22517
1040
-28.624349
1040
-0.1414213583446519
1040
0.1414213583446519
1070
     0
1071
        1
1040
-6.22517
1040
-28.624349
1040
0.0
1002
}
  0
ARC
  5
35
330
2
100
AcDbEntity
  8
CARTOUCHE
  6
CONTINUOUS
 62
     4
100
AcDbCircle
 10
14.40453899999999
 20
25.005869
 30
0.0
 40
0.5000710000000001
100
AcDbArc
 50
275.8401249999999
 51
95.840125
  0
ARC
  5
36
330
2
100
AcDbEntity
  8
CARTOUCHE
  6
CONTINUOUS
 62
     4
100
AcDbCircle
 10
11.899651
 20
23.925417
 30
0.0
 40
3.758726999999999
100
AcDbArc
 50
187.868554
 51
67.74447600000001
  0
CIRCLE
  5
37
330
2
100
AcDbEntity
  8
CARTOUCHE
  6
CONTINUOUS
 62
     4
100
AcDbCircle
 10
11.89964599999999
 20
23.92542199999999
 30
0.0
 40
4.756723
  0
SPLINE
  5
38
330
2
100
AcDbEntity
  8
CARTOUCHE
  6
CONTINUOUS
 62
     4
100
AcDbSpline
210
0.0
220
0.0
230
1.0
 70
     8
 71
     3
 72
    14
 73
    10
 74
     8
 42
0.0000000001
 43
0.0000000001
 44
0.000001
 12
-0.0678904074543379
 22
-0.9976927846665446
 32
0.0
 13
-0.8200536786282524
 23
0.5722866101598663
 33
0.0
 40
0.0
 40
0.0
 40
0.0
 40
0.0
 40
0.2180606789005075
 40
0.4363602626287939
 40
0.6537280242066189
 40
0.8729546411850181
 40
1.089088005528229
 40
1.305403373828848
 40
1.523279715932534
 40
1.523279715932534
 40
1.523279715932534
 40
1.523279715932534
 10
13.32322297621251
 20
21.16984360711669
 30
0.0
 10
13.3182882334324
 20
21.09732441846385
 30
0.0
 10
13.28444048343501
 20
20.95301317401817
 30
0.0
 10
13.16948288538595
 20
20.76307428830322
 30
0.0
 10
12.99638521645118
 20
20.62406333344731
 30
0.0
 10
12.79557455913801
 20
20.53568047568411
 30
0.0
 10
12.57604688222646
 20
20.50360657412561
 30
0.0
 10
12.36194585198925
 20
20.55796217058827
 30
0.0
 10
12.23325574438505
 20
20.6267655025048
 30
0.0
 10
12.17369897910899
 20
20.66832807359032
 30
0.0
 11
13.32322297621251
 21
21.16984360711669
 31
0.0
 11
13.27374961772985
 21
20.95746843688553
 31
0.0
 11
13.15964273339541
 21
20.77136537381492
 31
0.0
 11
12.99218699760145
 21
20.63277473124213
 31
0.0
 11
12.79139755994316
 21
20.54477508934442
 31
0.0
 11
12.57693403206401
 21
20.51795972590457
 31
0.0
 11
12.36599789339048
 21
20.56590052451097
 31
0.0
 11
12.17369897910899
 21
20.66832807359032
 31
0.0
  0
LINE
  5
39
330
2
100
AcDbEntity
  8
CARTOUCHE
  6
CONTINUOUS
 62
     4
100
AcDbLine
 10
9.378522999999999
 20
23.41084399999999
 30
0.0
 11
12.173699
 21
20.668328
 31
0.0
  0
ARC
  5
3A
330
2
100
AcDbEntity
  8
CARTOUCHE
  6
CONTINUOUS
 62
     4
100
AcDbCircle
 10
11.899651
 20
23.925417
 30
0.0
 40
3.758726999999999
100
AcDbArc
 50
112.441032
 51
172.30447
  0
LINE
  5
3B
330
2
100
AcDbEntity
  8
CARTOUCHE
  6
CONTINUOUS
 62
     4
100
AcDbLine
 10
10.46482299999999
 20
27.399506
 30
0.0
 11
10.46482299999999
 21
24.428744
 31
0.0
  0
LINE
  5
3C
330
2
100
AcDbEntity
  8
CARTOUCHE
  6
CONTINUOUS
 62
     4
100
AcDbLine
 10
8.176312999999998
 20
23.41084399999999
 30
0.0
 11
9.378522999999999
 21
23.41084399999999
 31
0.0
  0
LINE
  5
3D
330
2
100
AcDbEntity
  8
CARTOUCHE
  6
CONTINUOUS
 62
     4
100
AcDbLine
 10
10.46482299999999
 20
24.428744
 30
0.0
 11
8.174775999999999
 21
24.428744
 31
0.0
  0
LINE
  5
3E
330
2
100
AcDbEntity
  8
CARTOUCHE
  6
CONTINUOUS
 62
     4
100
AcDbLine
 10
13.323223
 20
25.503344
 30
0.0
 11
13.323223
 21
27.40413399999999
 31
0.0
  0
LINE
  5
3F
330
2
100
AcDbEntity
  8
CARTOUCHE
  6
CONTINUOUS
 62
     4
100
AcDbLine
 10
11.413873
 20
23.766514
 30
0.0
 11
11.413873
 21
27.65262099999999
 31
0.0
  0
LINE
  5
40
330
2
100
AcDbEntity
  8
CARTOUCHE
  6
CONTINUOUS
 62
     4
100
AcDbLine
 10
12.362923
 20
27.65548499999999
 30
0.0
 11
12.362923
 21
21.81019399999999
 31
0.0
  0
ARC
  5
41
330
2
100
AcDbEntity
  8
CARTOUCHE
  6
CONTINUOUS
 62
     4
100
AcDbCircle
 10
10.95095399999999
 20
23.851493
 30
0.0
 40
0.4706070000000001
100
AcDbArc
 50
290.581791
 51
349.597912
  0
LINE
  5
42
330
2
100
AcDbEntity
  8
CARTOUCHE
  6
CONTINUOUS
 62
     4
100
AcDbLine
 10
10.88782299999999
 20
23.41084399999999
 30
0.0
 11
11.11642299999999
 21
23.41084399999999
 31
0.0
  0
LINE
  5
43
330
2
100
AcDbEntity
  8
CARTOUCHE
  6
CONTINUOUS
 62
     4
100
AcDbLine
 10
12.362923
 20
21.81019399999999
 30
0.0
 11
10.88782299999999
 21
23.41084399999999
 31
0.0
  0
LINE
  5
44
330
2
100
AcDbEntity
  8
CARTOUCHE
  6
CONTINUOUS
 62
     4
100
AcDbLine
 10
14.35365599999999
 20
25.503344
 30
0.0
 11
13.323223
 21
25.503344
 31
0.0
  0
LINE
  5
45
330
2
100
AcDbEntity
  8
CARTOUCHE
  6
CONTINUOUS
 62
     4
100
AcDbLine
 10
13.323223
 20
24.508394
 30
0.0
 11
14.45542299999999
 21
24.508394
 31
0.0
  0
LINE
  5
46
330
2
100
AcDbEntity
  8
CARTOUCHE
  6
CONTINUOUS
 62
     4
100
AcDbLine
 10
13.323223
 20
21.16984399999999
 30
0.0
 11
13.323223
 21
24.508394
 31
0.0
  0
ARC
  5
47
330
2
100
AcDbEntity
  8
CARTOUCHE
  6
CONTINUOUS
 62
     4
100
AcDbCircle
 10
11.899651
 20
23.925417
 30
0.0
 40
3.758726999999999
100
AcDbArc
 50
82.92015400000002
 51
97.425676
  0
INSERT
  5
48
330
2
100
AcDbEntity
  8
CARTOUCHE
  6
CONTINUOUS
 62
     4
100
AcDbBlockReference
  2
*X27
 10
0.0
 20
0.0
 30
0.0
1001
ACAD
1000
HATCH
1002
{
1070
    19
1000
ANSI31
1040
0.062992
1040
0.0
1000
R14_HATCH_DATA
1000
48
1011
1.0
1021
0.0
1031
0.0
1011
0.0
1021
1.0
1031
0.0
1011
0.0
1021
0.0
1031
1.0
1040
0.0
1010
0.0
1020
0.0
1030
1.0
1000
ANSI31
1070
     0
1070
     0
1071
        1
1071
        1
1071
       16
1070
     1
1040
18.67462297621249
1040
24.50839360711669
1040
18.67462297621249
1040
24.92940137843239
1070
     1
1040
19.58025878682235
1040
25.83499360711669
1040
21.0875229762125
1040
25.83499360711669
1070
     1
1040
21.0875229762125
1040
25.83499360711669
1040
21.0875229762125
1040
24.93184360711669
1070
     1
1040
21.0875229762125
1040
24.93184360711669
1040
20.67905333190206
1040
24.93184360711669
1070
     1
1040
20.46107932853862
1040
24.76862245788874
1040
20.41297297621249
1040
24.50839360711669
1070
     1
1040
20.41297297621248
1040
24.50839360711669
1040
21.0875229762125
1040
24.50839360711669
1070
     1
1040
21.0875229762125
1040
24.50839360711669
1040
21.0875229762125
1040
23.41084360711669
1070
     1
1040
21.0875229762125
1040
23.41084360711669
1040
20.4701229762125
1040
23.41084360711669
1070
     1
1040
20.4701229762125
1040
23.41084360711669
1040
20.4701229762125
1040
20.63209360711669
1070
     1
1040
20.47012297621249
1040
20.63209360711669
1040
18.67462297621248
1040
20.63209360711669
1070
     1
1040
18.67462297621249
1040
20.63209360711669
1040
18.67462297621249
1040
23.41084360711669
1070
     1
1040
18.67462297621249
1040
23.41084360711669
1040
18.13732297621251
1040
23.41084360711669
1070
     1
1040
18.13732297621251
1040
23.41084360711669
1040
18.13732297621251
1040
24.50839360711669
1070
     1
1040
18.13732297621251
1040
24.50839360711669
1040
18.67462297621248
1040
24.50839360711669
1070
     2
1040
19.58025878682235
1040
24.92940137843239
1040
0.9056391035836327
1040
1.570796326794896
1040
3.141592653589793
1070
     1
1070
     2
1040
20.70598815405769
1040
24.66871596669092
1040
0.2645026272092472
1040
1.672805114347311
1040
2.754265904768217
1070
     1
1071
        0
1070
     0
1070
     1
1040
0.0
1040
0.062992
1070
     0
1070
     1
1040
0.7853981633974483
1040
-6.22517
1040
-28.624349
1040
-0.1414213583446519
1040
0.1414213583446519
1070
     0
1071
        1
1040
-6.22517
1040
-28.624349
1040
0.0
1002
}
  0
LINE
  5
49
330
2
100
AcDbEntity
  8
CARTOUCHE
  6
CONTINUOUS
 62
     4
100
AcDbLine
 10
21.80797299999999
 20
20.63209399999999
 30
0.0
 11
21.80797299999999
 21
24.508394
 31
0.0
  0
LINE
  5
4A
330
2
100
AcDbEntity
  8
CARTOUCHE
  6
CONTINUOUS
 62
     4
100
AcDbLine
 10
20.470123
 20
20.63209399999999
 30
0.0
 11
20.470123
 21
23.41084399999999
 31
0.0
  0
LINE
  5
4B
330
2
100
AcDbEntity
  8
CARTOUCHE
  6
CONTINUOUS
 62
     4
100
AcDbLine
 10
18.67462299999999
 20
23.41084399999999
 30
0.0
 11
18.67462299999999
 21
20.63209399999999
 31
0.0
  0
LINE
  5
4C
330
2
100
AcDbEntity
  8
CARTOUCHE
  6
CONTINUOUS
 62
     4
100
AcDbLine
 10
18.67462299999999
 20
20.63209399999999
 30
0.0
 11
20.470123
 21
20.63209399999999
 31
0.0
  0
ARC
  5
4D
330
2
100
AcDbEntity
  8
CARTOUCHE
  6
CONTINUOUS
 62
     4
100
AcDbCircle
 10
19.58025899999999
 20
24.929401
 30
0.0
 40
0.905639
100
AcDbArc
 50
90.0
 51
180.0
  0
LINE
  5
4E
330
2
100
AcDbEntity
  8
CARTOUCHE
  6
CONTINUOUS
 62
     4
100
AcDbLine
 10
18.137323
 20
23.41084399999999
 30
0.0
 11
18.67462299999999
 21
23.41084399999999
 31
0.0
  0
LINE
  5
4F
330
2
100
AcDbEntity
  8
CARTOUCHE
  6
CONTINUOUS
 62
     4
100
AcDbLine
 10
18.137323
 20
24.508394
 30
0.0
 11
18.137323
 21
23.41084399999999
 31
0.0
  0
LINE
  5
50
330
2
100
AcDbEntity
  8
CARTOUCHE
  6
CONTINUOUS
 62
     4
100
AcDbLine
 10
18.67462299999999
 20
24.508394
 30
0.0
 11
18.137323
 21
24.508394
 31
0.0
  0
LINE
  5
51
330
2
100
AcDbEntity
  8
CARTOUCHE
  6
CONTINUOUS
 62
     4
100
AcDbLine
 10
18.67462299999999
 20
24.931844
 30
0.0
 11
18.67462299999999
 21
24.508394
 31
0.0
  0
LINE
  5
52
330
2
100
AcDbEntity
  8
CARTOUCHE
  6
CONTINUOUS
 62
     4
100
AcDbLine
 10
20.67905299999999
 20
24.931844
 30
0.0
 11
21.08752299999999
 21
24.931844
 31
0.0
  0
LINE
  5
53
330
2
100
AcDbEntity
  8
CARTOUCHE
  6
CONTINUOUS
 62
     4
100
AcDbLine
 10
21.08752299999999
 20
24.508394
 30
0.0
 11
20.412973
 21
24.508394
 31
0.0
  0
LINE
  5
54
330
2
100
AcDbEntity
  8
CARTOUCHE
  6
CONTINUOUS
 62
     4
100
AcDbLine
 10
20.470123
 20
23.41084399999999
 30
0.0
 11
21.08752299999999
 21
23.41084399999999
 31
0.0
  0
LINE
  5
55
330
2
100
AcDbEntity
  8
CARTOUCHE
  6
CONTINUOUS
 62
     4
100
AcDbLine
 10
21.08752299999999
 20
25.834994
 30
0.0
 11
19.58947299999999
 21
25.834994
 31
0.0
  0
ARC
  5
56
330
2
100
AcDbEntity
  8
CARTOUCHE
  6
CONTINUOUS
 62
     4
100
AcDbCircle
 10
20.70598799999999
 20
24.668716
 30
0.0
 40
0.264503
100
AcDbArc
 50
95.84467300000001
 51
157.807812
  0
LINE
  5
57
330
2
100
AcDbEntity
  8
CARTOUCHE
  6
CONTINUOUS
 62
     4
100
AcDbLine
 10
20.412973
 20
24.508394
 30
0.0
 11
20.46107899999999
 21
24.76862199999999
 31
0.0
  0
LINE
  5
58
330
2
100
AcDbEntity
  8
CARTOUCHE
  6
CONTINUOUS
 62
     4
100
AcDbLine
 10
21.80797299999999
 20
24.943094
 30
0.0
 11
21.80797299999999
 21
25.834994
 31
0.0
  0
LINE
  5
59
330
2
100
AcDbEntity
  8
CARTOUCHE
  6
CONTINUOUS
 62
     4
100
AcDbLine
 10
21.08752299999999
 20
23.41084399999999
 30
0.0
 11
21.08752299999999
 21
24.508394
 31
0.0
  0
LINE
  5
5A
330
2
100
AcDbEntity
  8
CARTOUCHE
  6
CONTINUOUS
 62
     4
100
AcDbLine
 10
21.08752299999999
 20
24.931844
 30
0.0
 11
21.08752299999999
 21
25.834994
 31
0.0
  0
INSERT
  5
5B
330
2
100
AcDbEntity
  8
CARTOUCHE
  6
CONTINUOUS
 62
     4
100
AcDbBlockReference
  2
*X28
 10
0.0
 20
0.0
 30
0.0
1001
ACAD
1000
HATCH
1002
{
1070
    19
1000
ANSI31
1040
0.062992
1040
0.0
1000
R14_HATCH_DATA
1000
5B
1011
1.0
1021
0.0
1031
0.0
1011
0.0
1021
1.0
1031
0.0
1011
0.0
1021
0.0
1031
1.0
1040
0.0
1010
0.0
1020
0.0
1030
1.0
1000
ANSI31
1070
     0
1070
     0
1071
        1
1071
        1
1071
      154
1070
     1
1040
34.19152297621249
1040
24.31990419713182
1040
34.13663886743906
1040
24.36546535202642
1070
     1
1040
34.13663886743906
1040
24.36546535202642
1040
34.09335300453609
1040
24.39695233004338
1070
     1
1040
34.09335300453609
1040
24.39695233004338
1040
34.04814564948316
1040
24.42551803537496
1070
     1
1040
34.04814564948316
1040
24.42551803537496
1040
33.9853148771282
1040
24.45824326889328
1070
     1
1040
33.9853148771282
1040
24.45824326889328
1040
33.93641481696294
1040
24.4791830661683
1070
     1
1040
33.93641481696294
1040
24.4791830661683
1040
33.886414432493
1040
24.49734946038967
1070
     1
1040
33.886414432493
1040
24.49734946038967
1040
33.80036916880801
1040
24.52267004883189
1070
     1
1040
33.80036916880801
1040
24.52267004883189
1040
33.71305596481814
1040
24.54313679053143
1070
     1
1040
33.71305596481814
1040
24.54313679053143
1040
33.53598457982956
1040
24.57716399139704
1070
     1
1040
33.53598457982956
1040
24.57716399139704
1040
33.18386096308204
1040
24.63164336554592
1070
     1
1040
33.18386096308204
1040
24.63164336554592
1040
32.8297140010732
1040
24.65361067318905
1070
     1
1040
32.8297140010732
1040
24.65361067318905
1040
32.47307470160767
1040
24.6427593690914
1070
     1
1040
32.47307470160767
1040
24.6427593690914
1040
32.29553494834803
1040
24.62756727352911
1070
     1
1040
32.29553494834803
1040
24.62756727352911
1040
32.11942187052807
1040
24.60192152108414
1070
     1
1040
32.11942187052807
1040
24.60192152108414
1040
31.98039318439711
1040
24.57087434194068
1070
     1
1040
31.98039318439711
1040
24.57087434194068
1040
31.77626880985488
1040
24.50691864896159
1070
     1
1040
31.77626880985488
1040
24.50691864896159
1040
31.64385690583681
1040
24.45344206025171
1070
     1
1040
31.64385690583681
1040
24.45344206025171
1040
31.54719857995649
1040
24.407477873527
1070
     1
1040
31.54719857995649
1040
24.407477873527
1040
31.45331806594562
1040
24.35619987525168
1070
     1
1040
31.45331806594562
1040
24.35619987525168
1040
31.33327592488072
1040
24.27954096136778
1070
     1
1040
31.33327592488072
1040
24.27954096136778
1040
31.16425081659299
1040
24.14868782982736
1070
     1
1040
31.16425081659299
1040
24.14868782982736
1040
31.0589378780202
1040
24.05235758471281
1070
     1
1040
31.0589378780202
1040
24.05235758471281
1040
30.91268311986691
1040
23.89611360248224
1070
     1
1040
30.91268311986691
1040
23.89611360248224
1040
30.82344491669815
1040
23.78493111348759
1070
     1
1040
30.82344491669815
1040
23.78493111348759
1040
30.70379325220439
1040
23.60781901266322
1070
     1
1040
30.70379325220439
1040
23.60781901266322
1040
30.63481574159435
1040
23.48302033355442
1070
     1
1040
30.63481574159435
1040
23.48302033355442
1040
30.58909607880861
1040
23.38630952682728
1070
     1
1040
30.58909607880861
1040
23.38630952682728
1040
30.54866063637869
1040
23.28729150751013
1070
     1
1040
30.54866063637869
1040
23.28729150751013
1040
30.50307718886284
1040
23.15213239899057
1070
     1
1040
30.50307718886284
1040
23.15213239899057
1040
30.45247328846812
1040
22.94419894098582
1070
     1
1040
30.45247328846812
1040
22.94419894098582
1040
30.43063168033315
1040
22.80314986265371
1070
     1
1040
30.43063168033315
1040
22.80314986265371
1040
30.42104684068462
1040
22.696588010784
1070
     1
1040
30.42104684068462
1040
22.696588010784
1040
30.4178204424804
1040
22.58972989255913
1070
     1
1040
30.4178204424804
1040
22.58972989255913
1040
30.42378322889166
1040
22.44735507912694
1070
     1
1040
30.42378322889166
1040
22.44735507912694
1040
30.4520470898832
1040
22.23526594311771
1070
     1
1040
30.4520470898832
1040
22.23526594311771
1040
30.48182324188058
1040
22.09568317102136
1070
     1
1040
30.48182324188058
1040
22.09568317102136
1040
30.54294059487364
1040
21.89073675637875
1070
     1
1040
30.54294059487364
1040
21.89073675637875
1040
30.59524458124375
1040
21.75814401472731
1070
     1
1040
30.59524458124375
1040
21.75814401472731
1040
30.64066312551954
1040
21.66132551045659
1070
     1
1040
30.64066312551954
1040
21.66132551045659
1040
30.691396483504
1040
21.56716285752306
1070
     1
1040
30.691396483504
1040
21.56716285752306
1040
30.76734088927042
1040
21.44630187745565
1070
     1
1040
30.76734088927042
1040
21.44630187745565
1040
30.83037096957592
1040
21.35977834748524
1070
     1
1040
30.83037096957592
1040
21.35977834748524
1040
30.89849041843911
1040
21.27725022136696
1070
     1
1040
30.89849041843911
1040
21.27725022136696
1040
30.9967667597747
1040
21.17408034911913
1070
     1
1040
30.9967667597747
1040
21.17408034911913
1040
31.15802450035081
1040
21.03376654019861
1070
     1
1040
31.15802450035081
1040
21.03376654019861
1040
31.27323180799477
1040
20.94957663934497
1070
     1
1040
31.27323180799477
1040
20.94957663934497
1040
31.45548308742885
1040
20.83737935540596
1070
     1
1040
31.45548308742885
1040
20.83737935540596
1040
31.58228464331514
1040
20.77219559678803
1070
     1
1040
31.58228464331514
1040
20.77219559678803
1040
31.68003783957309
1040
20.72894332356438
1070
     1
1040
31.68003783957309
1040
20.72894332356438
1040
31.77997022332717
1040
20.69112453447919
1070
     1
1040
31.77997022332717
1040
20.69112453447919
1040
31.91640621679791
1040
20.64973705912834
1070
     1
1040
31.91640621679791
1040
20.64973705912834
1040
32.12581407620214
1040
20.60608206244056
1070
     1
1040
32.12581407620214
1040
20.60608206244056
1040
32.3026773089029
1040
20.58473447517807
1070
     1
1040
32.3026773089029
1040
20.58473447517807
1040
32.48050427697165
1040
20.57374147270578
1070
     1
1040
32.48050427697165
1040
20.57374147270578
1040
32.83641989969535
1040
20.57089422013113
1070
     1
1040
32.83641989969535
1040
20.57089422013113
1040
33.19286980656467
1040
20.58610182742617
1070
     1
1040
33.19286980656467
1040
20.58610182742617
1040
33.33459654960583
1040
20.59999995765213
1070
     1
1040
33.33459654960583
1040
20.59999995765213
1040
33.54527140198384
1040
20.63588357412756
1070
     1
1040
33.54527140198384
1040
20.63588357412756
1040
33.68285267363335
1040
20.67301572521217
1070
     1
1040
33.68285267363335
1040
20.67301572521217
1040
33.81743305695801
1040
20.72115385795995
1070
     1
1040
33.81743305695801
1040
20.72115385795995
1040
33.94784796188077
1040
20.77982191846434
1070
     1
1040
33.94784796188077
1040
20.77982191846434
1040
34.0729327983246
1040
20.84854385281878
1070
     1
1040
34.0729327983246
1040
20.84854385281878
1040
34.19152297621249
1040
20.92684360711669
1070
     1
1040
34.19152297621249
1040
20.92684360711669
1040
34.19152297621249
1040
20.6208436071167
1070
     1
1040
34.19152297621249
1040
20.6208436071167
1040
35.9865729762125
1040
20.6208436071167
1070
     1
1040
35.9865729762125
1040
20.6208436071167
1040
35.9865729762125
1040
25.8237436071167
1070
     1
1040
35.9865729762125
1040
25.8237436071167
1040
34.19152297621249
1040
25.8237436071167
1070
     1
1040
34.19152297621249
1040
25.8237436071167
1040
34.19152297621249
1040
24.31990419713182
1070
     1
1040
34.19152297621249
1040
22.75924360711669
1040
34.18522427602212
1040
22.79742902286496
1070
     1
1040
34.18522427602212
1040
22.79742902286496
1040
34.17670390504242
1040
22.83525808906735
1070
     1
1040
34.17670390504242
1040
22.83525808906735
1040
34.16597248167421
1040
22.87256506018414
1070
     1
1040
34.16597248167421
1040
22.87256506018414
1040
34.1530406243182
1040
22.90918419067553
1070
     1
1040
34.1530406243182
1040
22.90918419067553
1040
34.13791895137521
1040
22.94494973500174
1070
     1
1040
34.13791895137521
1040
22.94494973500174
1040
34.12062248577393
1040
22.97972412972832
1070
     1
1040
34.12062248577393
1040
22.97972412972832
1040
34.10124110014737
1040
23.01337043735117
1070
     1
1040
34.10124110014737
1040
23.01337043735117
1040
34.07987142553699
1040
23.04578100351233
1070
     1
1040
34.07987142553699
1040
23.04578100351233
1040
34.05661009298424
1040
23.07684817385388
1070
     1
1040
34.05661009298424
1040
23.07684817385388
1040
34.03155373353056
1040
23.10646429401779
1070
     1
1040
34.03155373353056
1040
23.10646429401779
1040
34.00480782842281
1040
23.13453995989881
1070
     1
1040
34.00480782842281
1040
23.13453995989881
1040
33.97651347065819
1040
23.16105855153512
1070
     1
1040
33.97651347065819
1040
23.16105855153512
1040
33.93149659569063
1040
23.19792049990339
1070
     1
1040
33.93149659569063
1040
23.19792049990339
1040
33.88383915758775
1040
23.2312882243935
1070
     1
1040
33.88383915758775
1040
23.2312882243935
1040
33.81740830033322
1040
23.2702539875106
1070
     1
1040
33.81740830033322
1040
23.2702539875106
1040
33.71260018090836
1040
23.31870497950504
1070
     1
1040
33.71260018090836
1040
23.31870497950504
1040
33.52912571204567
1040
23.38024026476581
1070
     1
1040
33.52912571204567
1040
23.38024026476581
1040
33.34129541646134
1040
23.4268066350183
1070
     1
1040
33.34129541646134
1040
23.4268066350183
1040
33.26536709065413
1040
23.43871980520695
1070
     1
1040
33.26536709065413
1040
23.43871980520695
1040
33.20799245339293
1040
23.44418358333277
1070
     1
1040
33.20799245339293
1040
23.44418358333277
1040
33.15043306379559
1040
23.44618483007101
1070
     1
1040
33.15043306379559
1040
23.44618483007101
1040
33.073205774121
1040
23.44294111298528
1070
     1
1040
33.073205774121
1040
23.44294111298528
1040
33.01556012610554
1040
23.43626883784902
1070
     1
1040
33.01556012610554
1040
23.43626883784902
1040
32.95838311054932
1040
23.42625160056325
1070
     1
1040
32.95838311054932
1040
23.42625160056325
1040
32.88279130539605
1040
23.40794999318988
1070
     1
1040
32.88279130539605
1040
23.40794999318988
1040
32.82709324452985
1040
23.39068869542821
1070
     1
1040
32.82709324452985
1040
23.39068869542821
1040
32.77240099875644
1040
23.37047876932411
1070
     1
1040
32.77240099875644
1040
23.37047876932411
1040
32.70162295371041
1040
23.33916365530199
1070
     1
1040
32.70162295371041
1040
23.33916365530199
1040
32.65017627897317
1040
23.31224485443584
1070
     1
1040
32.65017627897317
1040
23.31224485443584
1040
32.6003783004499
1040
23.2823001555606
1070
     1
1040
32.6003783004499
1040
23.2823001555606
1040
32.53744100048406
1040
23.23798016409065
1070
     1
1040
32.53744100048406
1040
23.23798016409065
1040
32.4783720173184
1040
23.18841304210749
1070
     1
1040
32.4783720173184
1040
23.18841304210749
1040
32.42376916516049
1040
23.13377620070204
1070
     1
1040
32.42376916516049
1040
23.13377620070204
1040
32.37423025821781
1040
23.07424705096529
1070
     1
1040
32.37423025821781
1040
23.07424705096529
1040
32.3303531106979
1040
23.01000300398824
1070
     1
1040
32.3303531106979
1040
23.01000300398824
1040
32.29281787773375
1040
22.94139393368274
1070
     1
1040
32.29281787773375
1040
22.94139393368274
1040
32.26252133259767
1040
22.86924570514724
1070
     1
1040
32.26252133259767
1040
22.86924570514724
1040
32.25039554512275
1040
22.83215493136484
1070
     1
1040
32.25039554512275
1040
22.83215493136484
1040
32.24044900219397
1040
22.79455199781086
1070
     1
1040
32.24044900219397
1040
22.79455199781086
1040
32.23280489467436
1040
22.75656111441393
1070
     1
1040
32.23280489467436
1040
22.75656111441393
1040
32.22758641342698
1040
22.7183064911027
1070
     1
1040
32.22758641342698
1040
22.7183064911027
1040
32.22491674931485
1040
22.67991233780578
1070
     1
1040
32.22491674931485
1040
22.67991233780578
1040
32.22491909320101
1040
22.64150286445184
1070
     1
1040
32.22491909320101
1040
22.64150286445184
1040
32.22769315985367
1040
22.60293992315524
1070
     1
1040
32.22769315985367
1040
22.60293992315524
1040
32.23311057136401
1040
22.5646177567803
1070
     1
1040
32.23311057136401
1040
22.5646177567803
1040
32.24098086285654
1040
22.52666674625049
1070
     1
1040
32.24098086285654
1040
22.52666674625049
1040
32.25111356945575
1040
22.48921727248927
1070
     1
1040
32.25111356945575
1040
22.48921727248927
1040
32.26331822628609
1040
22.45239971642014
1070
     1
1040
32.26331822628609
1040
22.45239971642014
1040
32.29364520888784
1040
22.38042545227397
1070
     1
1040
32.29364520888784
1040
22.38042545227397
1040
32.32104847285927
1040
22.32870628189326
1070
     1
1040
32.32104847285927
1040
22.32870628189326
1040
32.35215412813562
1040
22.27909964132739
1070
     1
1040
32.35215412813562
1040
22.27909964132739
1040
32.39858603635965
1040
22.21711302746509
1070
     1
1040
32.39858603635965
1040
22.21711302746509
1040
32.43723474843396
1040
22.17377153999965
1070
     1
1040
32.43723474843396
1040
22.17377153999965
1040
32.4790661567678
1040
22.13355370124998
1070
     1
1040
32.4790661567678
1040
22.13355370124998
1040
32.53918564534263
1040
22.08548667717685
1070
     1
1040
32.53918564534263
1040
22.08548667717685
1040
32.58721199952906
1040
22.05335539427741
1070
     1
1040
32.58721199952906
1040
22.05335539427741
1040
32.63725672616545
1040
22.02448118124886
1070
     1
1040
32.63725672616545
1040
22.02448118124886
1040
32.70704840391081
1040
21.99051935609724
1070
     1
1040
32.70704840391081
1040
21.99051935609724
1040
32.81564788989768
1040
21.94858052993354
1070
     1
1040
32.81564788989768
1040
21.94858052993354
1040
32.88966328774721
1040
21.92569887434945
1070
     1
1040
32.88966328774721
1040
21.92569887434945
1040
33.00273750412712
1040
21.89916786421673
1070
     1
1040
33.00273750412712
1040
21.89916786421673
1040
33.07891412932522
1040
21.88724451800207
1070
     1
1040
33.07891412932522
1040
21.88724451800207
1040
33.19419909206249
1040
21.87864610808738
1070
     1
1040
33.19419909206249
1040
21.87864610808738
1040
33.27146321562465
1040
21.87950852987933
1070
     1
1040
33.27146321562465
1040
21.87950852987933
1040
33.38690243953788
1040
21.89090007892743
1070
     1
1040
33.38690243953788
1040
21.89090007892743
1040
33.46278968411079
1040
21.90512653207653
1070
     1
1040
33.46278968411079
1040
21.90512653207653
1040
33.53763085249445
1040
21.92455361531234
1070
     1
1040
33.53763085249445
1040
21.92455361531234
1040
33.61100153690361
1040
21.94904722914488
1070
     1
1040
33.61100153690361
1040
21.94904722914488
1040
33.68247732955298
1040
21.97847327408422
1070
     1
1040
33.68247732955298
1040
21.97847327408422
1040
33.7516338226573
1040
22.01269765064039
1070
     1
1040
33.7516338226573
1040
22.01269765064039
1040
33.81849942445664
1040
22.05184622470257
1070
     1
1040
33.81849942445664
1040
22.05184622470257
1040
33.91321018639743
1040
22.11912633605072
1070
     1
1040
33.91321018639743
1040
22.11912633605072
1040
33.97214635988498
1040
22.16959904888181
1070
     1
1040
33.97214635988498
1040
22.16959904888181
1040
34.01332469417972
1040
22.21066362568218
1070
     1
1040
34.01332469417972
1040
22.21066362568218
1040
34.05119662359747
1040
22.25474052514756
1070
     1
1040
34.05119662359747
1040
22.25474052514756
1040
34.07423731840943
1040
22.28578232487433
1070
     1
1040
34.07423731840943
1040
22.28578232487433
1040
34.09545033830772
1040
22.31814137644631
1070
     1
1040
34.09545033830772
1040
22.31814137644631
1040
34.11475222792979
1040
22.35170092541428
1070
     1
1040
34.11475222792979
1040
22.35170092541428
1040
34.13205953191303
1040
22.38634421732908
1070
     1
1040
34.13205953191303
1040
22.38634421732908
1040
34.14728879489485
1040
22.42195449774152
1070
     1
1040
34.14728879489485
1040
22.42195449774152
1040
34.16041126870771
1040
22.45852484543253
1070
     1
1040
34.16041126870771
1040
22.45852484543253
1040
34.1713772837539
1040
22.4957973539745
1070
     1
1040
34.1713772837539
1040
22.4957973539745
1040
34.1802054800254
1040
22.53361859960848
1070
     1
1040
34.1802054800254
1040
22.53361859960848
1040
34.18691449751426
1040
22.57183515857553
1070
     1
1040
34.18691449751426
1040
22.57183515857553
1040
34.19152297621249
1040
22.61029360711668
1070
     1
1040
34.19152297621249
1040
22.61029360711669
1040
34.19152297621249
1040
22.75924360711669
1071
        0
1070
     0
1070
     1
1040
0.0
1040
0.062992
1070
     0
1070
     1
1040
0.7853981633974483
1040
-6.22517
1040
-28.624349
1040
-0.1414213583446519
1040
0.1414213583446519
1070
     0
1071
        1
1040
-6.22517
1040
-28.624349
1040
0.0
1002
}
  0
SPLINE
  5
5C
330
2
100
AcDbEntity
  8
CARTOUCHE
  6
CONTINUOUS
 62
     4
100
AcDbSpline
210
0.0
220
0.0
230
1.0
 70
     8
 71
     3
 72
    36
 73
    32
 74
    30
 42
0.0000000001
 43
0.0000000001
 44
0.000001
 12
-0.7486966541787443
 22
0.6629127544568397
 32
0.0
 13
0.8109899424984487
 23
0.5850600936368528
 33
0.0
 40
0.0
 40
0.0
 40
0.0
 40
0.0
 40
0.1780761553060592
 40
0.3550416348689643
 40
0.534344865884214
 40
0.7146560387434039
 40
1.07096908972023
 40
1.425796663898011
 40
1.782601001142078
 40
2.138603895040087
 40
2.494665093696489
 40
2.851054396920104
 40
3.206893011134885
 40
3.5633758813569
 40
3.919393765629757
 40
4.275489247209685
 40
4.63181002055742
 40
4.987968836485984
 40
5.344081360419369
 40
5.700398584840188
 40
6.056403071275475
 40
6.412685561611947
 40
6.768553833375488
 40
7.124993908020175
 40
7.480918575954272
 40
7.837064891658398
 40
8.193226462040996
 40
8.549153485654635
 40
8.905927656882475
 40
9.261828075226134
 40
9.97055756363208
 40
9.97055756363208
 40
9.97055756363208
 40
9.97055756363208
 10
34.19152297621249
 20
24.31990419713182
 30
0.0
 10
34.1470813023236
 20
24.35925384867083
 30
0.0
 10
34.05217195696811
 20
24.43173618392171
 30
0.0
 10
33.88702575613148
 20
24.50226791579084
 30
0.0
 10
33.71305223761583
 20
24.54495714766014
 30
0.0
 10
33.47834937114383
 20
24.58798310564187
 30
0.0
 10
33.18518211493349
 20
24.63800747804683
 30
0.0
 10
32.82899744348545
 20
24.659369294718
 30
0.0
 10
32.47326771695627
 20
24.6462139008177
 30
0.0
 10
32.11757591555201
 20
24.6124287086089
 30
0.0
 10
31.77299300510801
 20
24.51557088414889
 30
0.0
 10
31.44749964423073
 20
24.36660655392596
 30
0.0
 10
31.1577579438396
 20
24.15567801072958
 30
0.0
 10
30.90609576518012
 20
23.90204674026736
 30
0.0
 10
30.69450218406408
 20
23.61346834211755
 30
0.0
 10
30.53862681297709
 20
23.29089603959583
 30
0.0
 10
30.44277781548908
 20
22.9462329884785
 30
0.0
 10
30.40515987073752
 20
22.58968062292321
 30
0.0
 10
30.44352427876861
 20
22.23351817132073
 30
0.0
 10
30.53308941867978
 20
21.88748886639843
 30
0.0
 10
30.68157947778859
 20
21.56148506227443
 30
0.0
 10
30.88917782139148
 20
21.26919473918138
 30
0.0
 10
31.15221374974196
 20
21.02575919463755
 30
0.0
 10
31.4509261633181
 20
20.8297348790022
 30
0.0
 10
31.77615975633121
 20
20.68002671318712
 30
0.0
 10
32.1245992018452
 20
20.59680895475905
 30
0.0
 10
32.48036308610931
 20
20.56921458872082
 30
0.0
 10
32.83672042951042
 20
20.56880350163354
 30
0.0
 10
33.19288790635217
 20
20.58096018875885
 30
0.0
 10
33.66419152145323
 20
20.63797084694976
 30
0.0
 10
33.99993214719606
 20
20.7886271601667
 30
0.0
 10
34.19152297621249
 20
20.92684360711669
 30
0.0
 11
34.19152297621249
 21
24.31990419713182
 31
0.0
 11
34.04814564948316
 21
24.42551803537496
 31
0.0
 11
33.886414432493
 21
24.49734946038967
 31
0.0
 11
33.71305596481814
 21
24.54313679053143
 31
0.0
 11
33.53598457982956
 21
24.57716399139704
 31
0.0
 11
33.18386096308204
 21
24.63164336554592
 31
0.0
 11
32.8297140010732
 21
24.65361067318905
 31
0.0
 11
32.47307470160767
 21
24.6427593690914
 31
0.0
 11
32.11942187052807
 21
24.60192152108414
 31
0.0
 11
31.77626880985488
 21
24.50691864896159
 31
0.0
 11
31.45331806594562
 21
24.35619987525168
 31
0.0
 11
31.16425081659299
 21
24.14868782982736
 31
0.0
 11
30.91268311986691
 21
23.89611360248224
 31
0.0
 11
30.70379325220439
 21
23.60781901266322
 31
0.0
 11
30.54866063637869
 21
23.28729150751013
 31
0.0
 11
30.45247328846812
 21
22.94419894098582
 31
0.0
 11
30.4178204424804
 21
22.58972989255913
 31
0.0
 11
30.4520470898832
 21
22.23526594311771
 31
0.0
 11
30.54294059487364
 21
21.89073675637875
 31
0.0
 11
30.691396483504
 21
21.56716285752306
 31
0.0
 11
30.89849041843911
 21
21.27725022136696
 31
0.0
 11
31.15802450035081
 21
21.03376654019861
 31
0.0
 11
31.45548308742885
 21
20.83737935540596
 31
0.0
 11
31.77997022332717
 21
20.69112453447919
 31
0.0
 11
32.12581407620214
 21
20.60608206244056
 31
0.0
 11
32.48050427697165
 21
20.57374147270578
 31
0.0
 11
32.83641989969535
 21
20.57089422013113
 31
0.0
 11
33.19286980656467
 21
20.58610182742617
 31
0.0
 11
33.54527140198384
 21
20.63588357412756
 31
0.0
 11
34.19152297621249
 21
20.92684360711669
 31
0.0
  0
INSERT
  5
5D
330
2
100
AcDbEntity
  8
CARTOUCHE
  6
CONTINUOUS
 62
     4
100
AcDbBlockReference
  2
*X29
 10
0.0
 20
0.0
 30
0.0
1001
ACAD
1000
HATCH
1002
{
1070
    19
1000
ANSI31
1040
0.062992
1040
0.0
1000
R14_HATCH_DATA
1000
5D
1011
1.0
1021
0.0
1031
0.0
1011
0.0
1021
1.0
1031
0.0
1011
0.0
1021
0.0
1031
1.0
1040
0.0
1010
0.0
1020
0.0
1030
1.0
1000
ANSI31
1070
     0
1070
     0
1071
        1
1071
        1
1071
       12
1070
     1
1040
26.2899729762125
1040
24.50839360711669
1040
26.2899729762125
1040
24.0741436071167
1070
     1
1040
29.8922229762125
1040
23.32455319801141
1040
29.8922229762125
1040
20.63209360711669
1070
     1
1040
29.8922229762125
1040
20.63209360711669
1040
28.1084229762125
1040
20.63209360711669
1070
     1
1040
28.1084229762125
1040
20.63209360711669
1040
28.1084229762125
1040
22.47903425384608
1070
     1
1040
26.2899729762125
1040
22.43349938746982
1040
26.2899729762125
1040
20.63209360711669
1070
     1
1040
26.2899729762125
1040
20.63209360711669
1040
24.49492297621249
1040
20.63209360711669
1070
     1
1040
24.49492297621249
1040
20.63209360711669
1040
24.49492297621249
1040
24.50839360711669
1070
     1
1040
24.49492297621249
1040
24.50839360711669
1040
26.2899729762125
1040
24.50839360711669
1070
     2
1040
28.06740262422222
1040
21.04526125288079
1040
3.51189186471132
1040
1.254409881684032
1040
2.101473407347706
1070
     1
1070
     2
1040
28.67502750890198
1040
23.26487340256417
1040
1.218657656450693
1040
0.0489913397436033
1040
1.161442981761084
1070
     1
1070
     2
1040
27.45732435316137
1040
22.47903425384608
1040
0.6511236546569659
1040
0.0
1040
1.695599288911282
1070
     1
1070
     2
1040
27.44380973637427
1040
21.82007935996339
1040
1.306760651093609
1040
1.622501932778031
1040
2.652958477775717
1070
     1
1071
        0
1070
     0
1070
     1
1040
0.0
1040
0.062992
1070
     0
1070
     1
1040
0.7853981633974483
1040
-6.22517
1040
-28.624349
1040
-0.1414213583446519
1040
0.1414213583446519
1070
     0
1071
        1
1040
-6.22517
1040
-28.624349
1040
0.0
1002
}
  0
LINE
  5
5E
330
2
100
AcDbEntity
  8
CARTOUCHE
  6
CONTINUOUS
 62
     4
100
AcDbLine
 10
23.625973
 20
24.508394
 30
0.0
 11
23.625973
 21
20.63209399999999
 31
0.0
  0
LINE
  5
5F
330
2
100
AcDbEntity
  8
CARTOUCHE
  6
CONTINUOUS
 62
     4
100
AcDbLine
 10
26.289973
 20
20.63209399999999
 30
0.0
 11
26.289973
 21
22.43349899999999
 31
0.0
  0
LINE
  5
60
330
2
100
AcDbEntity
  8
CARTOUCHE
  6
CONTINUOUS
 62
     4
100
AcDbLine
 10
24.494923
 20
24.508394
 30
0.0
 11
24.494923
 21
20.63209399999999
 31
0.0
  0
LINE
  5
61
330
2
100
AcDbEntity
  8
CARTOUCHE
  6
CONTINUOUS
 62
     4
100
AcDbLine
 10
29.892223
 20
20.63209399999999
 30
0.0
 11
29.892223
 21
23.324553
 31
0.0
  0
LINE
  5
62
330
2
100
AcDbEntity
  8
CARTOUCHE
  6
CONTINUOUS
 62
     4
100
AcDbLine
 10
28.108423
 20
22.47903399999999
 30
0.0
 11
28.108423
 21
20.63209399999999
 31
0.0
  0
LINE
  5
63
330
2
100
AcDbEntity
  8
CARTOUCHE
  6
CONTINUOUS
 62
     4
100
AcDbLine
 10
24.494923
 20
20.63209399999999
 30
0.0
 11
26.289973
 21
20.63209399999999
 31
0.0
  0
LINE
  5
64
330
2
100
AcDbEntity
  8
CARTOUCHE
  6
CONTINUOUS
 62
     4
100
AcDbLine
 10
28.108423
 20
20.63209399999999
 30
0.0
 11
29.892223
 21
20.63209399999999
 31
0.0
  0
ARC
  5
65
330
2
100
AcDbEntity
  8
CARTOUCHE
  6
CONTINUOUS
 62
     4
100
AcDbCircle
 10
27.44381
 20
21.82007899999999
 30
0.0
 40
1.306761
100
AcDbArc
 50
92.96251299999999
 51
152.003324
  0
ARC
  5
66
330
2
100
AcDbEntity
  8
CARTOUCHE
  6
CONTINUOUS
 62
     4
100
AcDbCircle
 10
28.06740299999999
 20
21.04526099999999
 30
0.0
 40
3.511892
100
AcDbArc
 50
71.872392
 51
120.4055569999999
  0
LINE
  5
67
330
2
100
AcDbEntity
  8
CARTOUCHE
  6
CONTINUOUS
 62
     4
100
AcDbLine
 10
26.289973
 20
24.508394
 30
0.0
 11
24.494923
 21
24.508394
 31
0.0
  0
LINE
  5
68
330
2
100
AcDbEntity
  8
CARTOUCHE
  6
CONTINUOUS
 62
     4
100
AcDbLine
 10
23.625973
 20
25.834994
 30
0.0
 11
23.625973
 21
24.943094
 31
0.0
  0
LINE
  5
69
330
2
100
AcDbEntity
  8
CARTOUCHE
  6
CONTINUOUS
 62
     4
100
AcDbLine
 10
26.289973
 20
24.074144
 30
0.0
 11
26.289973
 21
24.508394
 31
0.0
  0
ARC
  5
6A
330
2
100
AcDbEntity
  8
CARTOUCHE
  6
CONTINUOUS
 62
     4
100
AcDbCircle
 10
27.457324
 20
22.47903399999999
 30
0.0
 40
0.6511239999999999
100
AcDbArc
 50
0.0
 51
97.15068299999998
  0
ARC
  5
6B
330
2
100
AcDbEntity
  8
CARTOUCHE
  6
CONTINUOUS
 62
     4
100
AcDbCircle
 10
28.675028
 20
23.26487299999999
 30
0.0
 40
1.218658
100
AcDbArc
 50
2.806996999999999
 51
66.54578100000001
  0
LINE
  5
6C
330
2
100
AcDbEntity
  8
CARTOUCHE
  6
CONTINUOUS
 62
     4
100
AcDbLine
 10
34.191523
 20
20.62084399999999
 30
0.0
 11
34.191523
 21
20.92684399999999
 31
0.0
  0
LINE
  5
6D
330
2
100
AcDbEntity
  8
CARTOUCHE
  6
CONTINUOUS
 62
     4
100
AcDbLine
 10
35.986573
 20
25.823744
 30
0.0
 11
35.986573
 21
20.62084399999999
 31
0.0
  0
LINE
  5
6E
330
2
100
AcDbEntity
  8
CARTOUCHE
  6
CONTINUOUS
 62
     4
100
AcDbLine
 10
35.986573
 20
20.62084399999999
 30
0.0
 11
34.191523
 21
20.62084399999999
 31
0.0
  0
LINE
  5
6F
330
2
100
AcDbEntity
  8
CARTOUCHE
  6
CONTINUOUS
 62
     4
100
AcDbLine
 10
34.191523
 20
25.823744
 30
0.0
 11
35.986573
 21
25.823744
 31
0.0
  0
SPLINE
  5
70
330
2
100
AcDbEntity
  8
CARTOUCHE
  6
CONTINUOUS
 62
     4
100
AcDbSpline
210
0.0
220
0.0
230
1.0
 70
     8
 71
     3
 72
    32
 73
    28
 74
    26
 42
0.0000000001
 43
0.0000000001
 44
0.000001
 12
-0.1341089932713914
 22
0.9909665876929121
 32
0.0
 13
0.0921211275959058
 23
0.9957478083583508
 33
0.0
 40
0.0
 40
0.0
 40
0.0
 40
0.0
 40
0.1932870726990442
 40
0.3866792452096369
 40
0.5800716448723918
 40
0.7723331336887302
 40
0.9658517963207579
 40
1.15936832472225
 40
1.351211885861727
 40
1.544293516073681
 40
1.738458265495977
 40
1.931764420786823
 40
2.315247530488627
 40
2.698534125382553
 40
2.891496493449492
 40
3.086239187656826
 40
3.279346076389813
 40
3.471494617804942
 40
3.665361350852587
 40
3.858866209618604
 40
4.051424456358013
 40
4.244517019109064
 40
4.629047421486941
 40
4.822526074880362
 40
5.015998230668782
 40
5.208856307653513
 40
5.402319509587266
 40
5.402319509587266
 40
5.402319509587266
 40
5.402319509587266
 10
34.19152297621249
 20
22.75924360711669
 30
0.0
 10
34.18288246463514
 20
22.82309061740926
 30
0.0
 10
34.14699032504411
 20
22.94923083584773
 30
0.0
 10
34.0386311915935
 20
23.11295856749962
 30
0.0
 10
33.88808692217448
 20
23.2375052632015
 30
0.0
 10
33.71390333686501
 20
23.32349595013639
 30
0.0
 10
33.52952374823402
 20
23.38166664627401
 30
0.0
 10
33.34290576820264
 20
23.43125923522332
 30
0.0
 10
33.15005934454871
 20
23.45345638096766
 30
0.0
 10
32.9567662653034
 20
23.43192402229584
 30
0.0
 10
32.77056094954621
 20
23.37588613719518
 30
0.0
 10
32.54005643000672
 20
23.25927875203682
 30
0.0
 10
32.30432080538978
 20
23.02895627192544
 30
0.0
 10
32.19918324728944
 20
22.70410853072549
 30
0.0
 10
32.25560999955026
 20
22.44863361631263
 30
0.0
 10
32.34552926468555
 20
22.27538547462596
 30
0.0
 10
32.47312191827225
 20
22.12730573798492
 30
0.0
 10
32.63483114160579
 20
22.01829644309
 30
0.0
 10
32.81426091781527
 20
21.94472694998748
 30
0.0
 10
33.00144386925829
 20
21.89441488480765
 30
0.0
 10
33.1942829819659
 20
21.87304334806435
 30
0.0
 10
33.45148795617318
 20
21.88934820105486
 30
0.0
 10
33.70119762619981
 20
21.97262952139333
 30
0.0
 10
33.91655360502459
 20
22.11456126477983
 30
0.0
 10
34.05836119423948
 20
22.24858589816442
 30
0.0
 10
34.15639851653419
 20
22.41858974007392
 30
0.0
 10
34.18558229344234
 20
22.54608008734217
 30
0.0
 10
34.19152297621249
 20
22.61029360711668
 30
0.0
 11
34.19152297621249
 21
22.75924360711669
 31
0.0
 11
34.13791895137521
 21
22.94494973500174
 31
0.0
 11
34.03155373353056
 21
23.10646429401779
 31
0.0
 11
33.88383915758775
 21
23.2312882243935
 31
0.0
 11
33.71260018090836
 21
23.31870497950504
 31
0.0
 11
33.52912571204567
 21
23.38024026476581
 31
0.0
 11
33.34129541646134
 21
23.4268066350183
 31
0.0
 11
33.15043306379559
 21
23.44618483007101
 31
0.0
 11
32.95838311054932
 21
23.42625160056325
 31
0.0
 11
32.77240099875644
 21
23.37047876932411
 31
0.0
 11
32.6003783004499
 21
23.2823001555606
 31
0.0
 11
32.3303531106979
 21
23.01000300398824
 31
0.0
 11
32.22491909320101
 21
22.64150286445184
 31
0.0
 11
32.26331822628609
 21
22.45239971642014
 31
0.0
 11
32.35215412813562
 21
22.27909964132739
 31
0.0
 11
32.4790661567678
 21
22.13355370124998
 31
0.0
 11
32.63725672616545
 21
22.02448118124886
 31
0.0
 11
32.81564788989768
 21
21.94858052993354
 31
0.0
 11
33.00273750412712
 21
21.89916786421673
 31
0.0
 11
33.19419909206249
 21
21.87864610808738
 31
0.0
 11
33.38690243953788
 21
21.89090007892743
 31
0.0
 11
33.7516338226573
 21
22.01269765064039
 31
0.0
 11
33.91321018639743
 21
22.11912633605072
 31
0.0
 11
34.05119662359747
 21
22.25474052514756
 31
0.0
 11
34.14728879489485
 21
22.42195449774152
 31
0.0
 11
34.19152297621249
 21
22.61029360711668
 31
0.0
  0
LINE
  5
71
330
2
100
AcDbEntity
  8
CARTOUCHE
  6
CONTINUOUS
 62
     4
100
AcDbLine
 10
34.191523
 20
22.61029399999999
 30
0.0
 11
34.191523
 21
22.75924399999999
 31
0.0
  0
LINE
  5
72
330
2
100
AcDbEntity
  8
CARTOUCHE
  6
CONTINUOUS
 62
     4
100
AcDbLine
 10
34.191523
 20
24.319904
 30
0.0
 11
34.191523
 21
25.823744
 31
0.0
  0
LINE
  5
73
330
2
100
AcDbEntity
  8
CARTOUCHE
  6
CONTINUOUS
 62
     4
100
AcDbLine
 10
38.364823
 20
23.07919399999999
 30
0.0
 11
39.15412299999999
 21
23.07919399999999
 31
0.0
  0
LINE
  5
74
330
2
100
AcDbEntity
  8
CARTOUCHE
  6
CONTINUOUS
 62
     4
100
AcDbLine
 10
39.051073
 20
22.24444399999999
 30
0.0
 11
38.364823
 21
22.24444399999999
 31
0.0
  0
LINE
  5
75
330
2
100
AcDbEntity
  8
CARTOUCHE
  6
CONTINUOUS
 62
     4
100
AcDbLine
 10
39.15412299999999
 20
22.24444399999999
 30
0.0
 11
39.051073
 21
22.24444399999999
 31
0.0
  0
LINE
  5
76
330
2
100
AcDbEntity
  8
CARTOUCHE
  6
CONTINUOUS
 62
     7
100
AcDbLine
 10
50.000001
 20
36.845393
 30
0.0
 11
50.000001
 21
5.000041000000003
 31
0.0
  0
INSERT
  5
77
330
2
100
AcDbEntity
  8
CARTOUCHE
  6
CONTINUOUS
 62
     4
100
AcDbBlockReference
  2
*X30
 10
0.0
 20
0.0
 30
0.0
1001
ACAD
1000
HATCH
1002
{
1070
    19
1000
ANSI31
1040
0.062992
1040
0.0
1000
R14_HATCH_DATA
1000
77
1011
1.0
1021
0.0
1031
0.0
1011
0.0
1021
1.0
1031
0.0
1011
0.0
1021
0.0
1031
1.0
1040
0.0
1010
0.0
1020
0.0
1030
1.0
1000
ANSI31
1070
     0
1070
     0
1071
        1
1071
        1
1071
       78
1070
     1
1040
42.7329729762125
1040
24.50839360711669
1040
42.7329729762125
1040
20.63209360711669
1070
     1
1040
42.73297297621249
1040
20.63209360711669
1040
44.45962297621249
1040
20.63209360711669
1070
     1
1040
44.45962297621249
1040
20.63209360711669
1040
44.45962297621249
1040
22.7821936071167
1070
     1
1040
44.45962297621249
1040
22.7821936071167
1040
44.46348794510234
1040
22.8255625145897
1070
     1
1040
44.46348794510234
1040
22.8255625145897
1040
44.47094556156601
1040
22.86858609211488
1070
     1
1040
44.47094556156601
1040
22.86858609211488
1040
44.48187912731205
1040
22.91099091841204
1070
     1
1040
44.48187912731205
1040
22.91099091841204
1040
44.49617194404904
1040
22.95250357220095
1070
     1
1040
44.49617194404904
1040
22.95250357220095
1040
44.51370731348553
1040
22.99285063220139
1070
     1
1040
44.51370731348553
1040
22.99285063220139
1040
44.53438626348421
1040
23.0317545945469
1070
     1
1040
44.53438626348421
1040
23.0317545945469
1040
44.55812166299893
1040
23.06881377931527
1070
     1
1040
44.55812166299893
1040
23.06881377931527
1040
44.58484120386311
1040
23.10362376054641
1070
     1
1040
44.58484120386311
1040
23.10362376054641
1040
44.61447257791014
1040
23.13578011228038
1070
     1
1040
44.61447257791014
1040
23.13578011228038
1040
44.64694347697346
1040
23.1648784085571
1070
     1
1040
44.64694347697346
1040
23.1648784085571
1040
44.68210883840074
1040
23.19058719493143
1070
     1
1040
44.68210883840074
1040
23.19058719493143
1040
44.71962636284679
1040
23.21293288857709
1070
     1
1040
44.71962636284679
1040
23.21293288857709
1040
44.75908341829764
1040
23.23201184788313
1070
     1
1040
44.75908341829764
1040
23.23201184788313
1040
44.80006737273921
1040
23.24792043123857
1070
     1
1040
44.80006737273921
1040
23.24792043123857
1040
44.84216559415751
1040
23.26075499703252
1070
     1
1040
44.84216559415751
1040
23.26075499703252
1040
44.88545455273231
1040
23.270655442047
1070
     1
1040
44.88545455273231
1040
23.270655442047
1040
44.92924123868192
1040
23.2773439388539
1070
     1
1040
44.92924123868192
1040
23.2773439388539
1040
44.97330683573443
1040
23.28064946918181
1070
     1
1040
44.97330683573443
1040
23.28064946918181
1040
45.01743252761782
1040
23.28040101475933
1070
     1
1040
45.01743252761782
1040
23.28040101475933
1040
45.06139949806012
1040
23.27642755731508
1070
     1
1040
45.06139949806012
1040
23.27642755731508
1040
45.10431902475496
1040
23.26873571333316
1070
     1
1040
45.10431902475496
1040
23.26873571333316
1040
45.14647148487028
1040
23.2572942532064
1070
     1
1040
45.14647148487028
1040
23.2572942532064
1040
45.1874563135664
1040
23.24213569574835
1070
     1
1040
45.1874563135664
1040
23.24213569574835
1040
45.22687294600372
1040
23.22329255977249
1070
     1
1040
45.22687294600372
1040
23.22329255977249
1040
45.26432081734258
1040
23.20079736409236
1070
     1
1040
45.26432081734258
1040
23.20079736409236
1040
45.29950399260581
1040
23.17464234545267
1070
     1
1040
45.29950399260581
1040
23.17464234545267
1040
45.3319466893692
1040
23.14511885198865
1070
     1
1040
45.3319466893692
1040
23.14511885198865
1040
45.36129137460258
1040
23.11249875587486
1070
     1
1040
45.36129137460258
1040
23.11249875587486
1040
45.38718051527586
1040
23.07705392928583
1070
     1
1040
45.38718051527586
1040
23.07705392928583
1040
45.40925657835891
1040
23.03905624439609
1070
     1
1040
45.40925657835891
1040
23.03905624439609
1040
45.42712855451241
1040
22.99901140429402
1070
     1
1040
45.42712855451241
1040
22.99901140429402
1040
45.44073151771931
1040
22.95727674897495
1070
     1
1040
45.44073151771931
1040
22.95727674897495
1040
45.44993013263485
1040
22.91442324997896
1070
     1
1040
45.44993013263485
1040
22.91442324997896
1040
45.45458906391417
1040
22.87102187884616
1070
     1
1040
45.45458906391417
1040
22.87102187884616
1040
45.45517385589502
1040
22.84929416983477
1070
     1
1040
45.45517385589502
1040
22.84929416983477
1040
45.4545729762125
1040
22.8276436071167
1070
     1
1040
45.4545729762125
1040
22.82764360711668
1040
45.4545729762125
1040
22.58779360711669
1070
     1
1040
45.4545729762125
1040
22.58779360711669
1040
47.28382297621251
1040
22.58779360711669
1070
     1
1040
47.28382297621251
1040
22.58779360711669
1040
47.3004804936556
1040
22.74190106131424
1070
     1
1040
47.3004804936556
1040
22.74190106131424
1040
47.3080338234398
1040
22.8967638790771
1070
     1
1040
47.3080338234398
1040
22.8967638790771
1040
47.30622287525522
1040
23.05192121819743
1070
     1
1040
47.30622287525522
1040
23.05192121819743
1040
47.29564801913904
1040
23.20671600883972
1070
     1
1040
47.29564801913904
1040
23.20671600883972
1040
47.27690756459471
1040
23.36097203168621
1070
     1
1040
47.27690756459471
1040
23.36097203168621
1040
47.24989999164073
1040
23.51409730955235
1070
     1
1040
47.24989999164073
1040
23.51409730955235
1040
47.22187384806168
1040
23.63507228911501
1070
     1
1040
47.22187384806168
1040
23.63507228911501
1040
47.19591979102985
1040
23.72444452731119
1070
     1
1040
47.19591979102985
1040
23.72444452731119
1040
47.16468005782961
1040
23.81204898160464
1070
     1
1040
47.16468005782961
1040
23.81204898160464
1040
47.11349871924234
1040
23.92524957107785
1070
     1
1040
47.11349871924234
1040
23.92524957107785
1040
47.06786670375861
1040
24.00661487989895
1070
     1
1040
47.06786670375861
1040
24.00661487989895
1040
47.01605698726017
1040
24.08429955967585
1070
     1
1040
47.01605698726017
1040
24.08429955967585
1040
46.97801762216911
1040
24.13384773491677
1070
     1
1040
46.97801762216911
1040
24.13384773491677
1040
46.93728662108015
1040
24.18120785118272
1070
     1
1040
46.93728662108015
1040
24.18120785118272
1040
46.89391719550556
1040
24.22609654300447
1070
     1
1040
46.89391719550556
1040
24.22609654300447
1040
46.84796255695764
1040
24.26823044491285
1070
     1
1040
46.84796255695764
1040
24.26823044491285
1040
46.79947591694869
1040
24.30732619143858
1070
     1
1040
46.79947591694869
1040
24.30732619143858
1040
46.7488465724848
1040
24.34298114654168
1070
     1
1040
46.7488465724848
1040
24.34298114654168
1040
46.69608724688365
1040
24.37549699186584
1070
     1
1040
46.69608724688365
1040
24.37549699186584
1040
46.61365719684794
1040
24.41870306383236
1070
     1
1040
46.61365719684794
1040
24.41870306383236
1040
46.52824151124928
1040
24.45566419975128
1070
     1
1040
46.52824151124928
1040
24.45566419975128
1040
46.41028459037802
1040
24.49653361183229
1070
     1
1040
46.41028459037802
1040
24.49653361183229
1040
46.22887996193932
1040
24.5428722112578
1070
     1
1040
46.22887996193932
1040
24.5428722112578
1040
46.10697132102439
1040
24.56607477690471
1070
     1
1040
46.10697132102439
1040
24.56607477690471
1040
45.92238599753447
1040
24.58782115591738
1070
     1
1040
45.92238599753447
1040
24.58782115591738
1040
45.79850421157131
1040
24.59181565822406
1070
     1
1040
45.79850421157131
1040
24.59181565822406
1040
45.61256799206709
1040
24.58370341795764
1070
     1
1040
45.61256799206709
1040
24.58370341795764
1040
45.45792565313361
1040
24.56627398792206
1070
     1
1040
45.45792565313361
1040
24.56627398792206
1040
45.3047164351297
1040
24.53948194901727
1070
     1
1040
45.3047164351297
1040
24.53948194901727
1040
45.18380461446541
1040
24.5111348336182
1070
     1
1040
45.18380461446541
1040
24.5111348336182
1040
45.00579935951135
1040
24.45603046599671
1070
     1
1040
45.00579935951135
1040
24.45603046599671
1040
44.89043442943742
1040
24.4105183218836
1070
     1
1040
44.89043442943742
1040
24.4105183218836
1040
44.77781671686114
1040
24.3581981890036
1070
     1
1040
44.77781671686114
1040
24.3581981890036
1040
44.66826383099194
1040
24.29958044229217
1070
     1
1040
44.66826383099194
1040
24.29958044229217
1040
44.45962297621249
1040
24.16549360711669
1070
     1
1040
44.45962297621249
1040
24.16549360711669
1040
44.45962297621249
1040
24.50839360711669
1070
     1
1040
44.45962297621249
1040
24.50839360711669
1040
42.7329729762125
1040
24.50839360711669
1071
        0
1070
     0
1070
     1
1040
0.0
1040
0.062992
1070
     0
1070
     1
1040
0.7853981633974483
1040
-6.22517
1040
-28.624349
1040
-0.1414213583446519
1040
0.1414213583446519
1070
     0
1071
        1
1040
-6.22517
1040
-28.624349
1040
0.0
1002
}
  0
LINE
  5
78
330
2
100
AcDbEntity
  8
CARTOUCHE
  6
CONTINUOUS
 62
     4
100
AcDbLine
 10
42.732973
 20
20.63209399999999
 30
0.0
 11
42.732973
 21
24.508394
 31
0.0
  0
LINE
  5
79
330
2
100
AcDbEntity
  8
CARTOUCHE
  6
CONTINUOUS
 62
     4
100
AcDbLine
 10
44.459623
 20
22.78219399999999
 30
0.0
 11
44.459623
 21
20.63209399999999
 31
0.0
  0
LINE
  5
7A
330
2
100
AcDbEntity
  8
CARTOUCHE
  6
CONTINUOUS
 62
     4
100
AcDbLine
 10
44.459623
 20
20.63209399999999
 30
0.0
 11
42.732973
 21
20.63209399999999
 31
0.0
  0
LINE
  5
7B
330
2
100
AcDbEntity
  8
CARTOUCHE
  6
CONTINUOUS
 62
     4
100
AcDbLine
 10
42.732973
 20
24.508394
 30
0.0
 11
44.459623
 21
24.508394
 31
0.0
  0
LINE
  5
7C
330
2
100
AcDbEntity
  8
CARTOUCHE
  6
CONTINUOUS
 62
     4
100
AcDbLine
 10
40.343023
 20
21.855644
 30
0.0
 11
42.10387299999999
 21
21.855644
 31
0.0
  0
SPLINE
  5
7D
330
2
100
AcDbEntity
  8
CARTOUCHE
  6
CONTINUOUS
 62
     4
100
AcDbSpline
210
0.0
220
0.0
230
1.0
 70
     8
 71
     3
 72
    20
 73
    16
 74
    14
 42
0.0000000001
 43
0.0000000001
 44
0.000001
 12
0.1358608544273129
 22
0.9907279284618359
 32
0.0
 13
-0.8123777522852272
 23
-0.583131535412039
 33
0.0
 40
0.0
 40
0.0
 40
0.0
 40
0.0
 40
0.3099167376574449
 40
0.6201162120086089
 40
0.9308832229227101
 40
1.240782580369534
 40
1.550958571056
 40
1.86184147292939
 40
2.170989032701104
 40
2.482794313402607
 40
2.792566681426349
 40
3.102412009711692
 40
3.41342341835682
 40
3.723770860918002
 40
4.342414092774922
 40
4.342414092774922
 40
4.342414092774922
 40
4.342414092774922
 10
47.28382297621251
 20
22.58779360711669
 30
0.0
 10
47.29785816047233
 20
22.69014132961503
 30
0.0
 10
47.31442324043969
 20
22.89676966285278
 30
0.0
 10
47.30092965568099
 20
23.20747621588525
 30
0.0
 10
47.25565430040701
 20
23.51474442121904
 30
0.0
 10
47.17620425041043
 20
23.81641651325382
 30
0.0
 10
47.02732817013801
 20
24.09240856669955
 30
0.0
 10
46.81020864916885
 20
24.32073910349872
 30
0.0
 10
46.53096591325815
 20
24.46673549232283
 30
0.0
 10
46.23076181269933
 20
24.54812138519136
 30
0.0
 10
45.9230282829723
 20
24.59724610143176
 30
0.0
 10
45.61155007781773
 20
24.58971042935069
 30
0.0
 10
45.30365677773262
 20
24.54593296501846
 30
0.0
 10
44.90384925448966
 20
24.43649405403212
 30
0.0
 10
44.62714697559995
 20
24.28574373300502
 30
0.0
 10
44.45962297621249
 20
24.16549360711669
 30
0.0
 11
47.28382297621251
 21
22.58779360711669
 31
0.0
 11
47.3080338234398
 21
22.8967638790771
 31
0.0
 11
47.29564801913904
 21
23.20671600883972
 31
0.0
 11
47.24989999164073
 21
23.51409730955235
 31
0.0
 11
47.16468005782961
 21
23.81204898160464
 31
0.0
 11
47.01605698726017
 21
24.08429955967585
 31
0.0
 11
46.79947591694869
 21
24.30732619143858
 31
0.0
 11
46.52824151124928
 21
24.45566419975128
 31
0.0
 11
46.22887996193932
 21
24.5428722112578
 31
0.0
 11
45.92238599753447
 21
24.58782115591738
 31
0.0
 11
45.61256799206709
 21
24.58370341795764
 31
0.0
 11
45.3047164351297
 21
24.53948194901727
 31
0.0
 11
45.00579935951135
 21
24.45603046599671
 31
0.0
 11
44.45962297621249
 21
24.16549360711669
 31
0.0
  0
LINE
  5
7E
330
2
100
AcDbEntity
  8
CARTOUCHE
  6
CONTINUOUS
 62
     4
100
AcDbLine
 10
47.283823
 20
22.58779399999999
 30
0.0
 11
45.454573
 21
22.58779399999999
 31
0.0
  0
SPLINE
  5
7F
330
2
100
AcDbEntity
  8
CARTOUCHE
  6
CONTINUOUS
 62
     4
100
AcDbSpline
210
0.0
220
0.0
230
1.0
 70
     8
 71
     3
 72
    14
 73
    10
 74
     8
 42
0.0000000001
 43
0.0000000001
 44
0.000001
 12
0.0554704849890783
 22
0.9984603273516061
 32
0.0
 13
-0.0466631639368038
 23
-0.9989106812580427
 33
0.0
 40
0.0
 40
0.0
 40
0.0
 40
0.0
 40
0.2162139074022184
 40
0.4333924847994317
 40
0.6499495281904898
 40
0.8697428518080903
 40
1.087237595645033
 40
1.304827608132222
 40
1.522315904263415
 40
1.522315904263415
 40
1.522315904263415
 40
1.522315904263415
 10
45.4545729762125
 20
22.82764360711668
 30
0.0
 10
45.45857080631416
 20
22.89960394337094
 30
0.0
 10
45.42640845178715
 20
23.04880719341104
 30
0.0
 10
45.27439530019221
 20
23.21580479327942
 30
0.0
 10
45.06187441261873
 20
23.29256560222702
 30
0.0
 10
44.83996045298546
 20
23.27349163465662
 30
0.0
 10
44.63539403875084
 20
23.17927816693098
 30
0.0
 10
44.50069250367363
 20
22.99887923670178
 30
0.0
 10
44.46300587355137
 20
22.85461073446804
 30
0.0
 10
44.45962297621247
 20
22.78219360711668
 30
0.0
 11
45.4545729762125
 21
22.82764360711668
 31
0.0
 11
45.40925657835891
 21
23.03905624439607
 31
0.0
 11
45.2643208173426
 21
23.20079736409237
 31
0.0
 11
45.06139949806013
 21
23.27642755731508
 31
0.0
 11
44.84216559415751
 21
23.2607549970325
 31
0.0
 11
44.64694347697346
 21
23.16487840855711
 31
0.0
 11
44.51370731348553
 21
22.99285063220138
 31
0.0
 11
44.45962297621247
 21
22.78219360711668
 31
0.0
  0
LINE
  5
80
330
2
100
AcDbEntity
  8
CARTOUCHE
  6
CONTINUOUS
 62
     4
100
AcDbLine
 10
45.454573
 20
22.58779399999999
 30
0.0
 11
45.454573
 21
22.827644
 31
0.0
  0
LINE
  5
81
330
2
100
AcDbEntity
  8
CARTOUCHE
  6
CONTINUOUS
 62
     4
100
AcDbLine
 10
44.459623
 20
24.508394
 30
0.0
 11
44.459623
 21
24.165494
 31
0.0
  0
TEXT
  5
82
330
2
100
AcDbEntity
  8
CARTOUCHE
  6
CONTINUOUS
 62
     1
100
AcDbText
 10
75.18069315166068
 20
11.77627904793473
 30
0.0
 40
2.1
  1
0
 50
359.9999079999999
 41
0.8
  7
FINDER
 72
     1
 11
75.83332616666665
 21
11.77627799999999
 31
0.0
100
AcDbText
  0
TEXT
  5
83
330
2
100
AcDbEntity
  8
CARTOUCHE
  6
CONTINUOUS
 62
     7
100
AcDbText
 10
73.49406286516899
 20
16.62430475616189
 30
0.0
 40
1.8
  1
REV.
 50
359.9999079999999
 41
0.8
  7
FINDER
 72
     1
 11
75.83332616666665
 21
16.62430099999999
 31
0.0
100
AcDbText
  0
LINE
  5
84
330
2
100
AcDbEntity
  8
CARTOUCHE
  6
CONTINUOUS
 62
     7
100
AcDbLine
 10
101.6666513333333
 20
20.00296599999999
 30
0.0
 11
101.6666513333333
 21
10.001024
 31
0.0
  0
TEXT
  5
53A
330
2
100
AcDbEntity
  8
CARTOUCHE
  6
CONTINUOUS
 62
     7
100
AcDbText
 10
119.6683943199282
 20
32.43596657521679
 30
0.0
 40
1.8
  1
PRODUCT TYPE
 50
359.9999079999999
 41
0.8
  7
FINDER
 72
     1
 11
127.4999904999999
 21
32.435954
 31
0.0
100
AcDbText
  0
TEXT
  5
53B
330
2
100
AcDbEntity
  8
CARTOUCHE
  6
CONTINUOUS
 62
     1
100
AcDbText
 10
123.77065898568
 20
22.43595998819847
 30
0.0
 40
3.0
  1
9980
 50
359.9999079999999
 41
0.8
  7
FINDER
 72
     1
 11
127.4999904999999
 21
22.435954
 31
0.0
100
AcDbText
  0
TEXT
  5
53C
330
2
100
AcDbEntity
  8
CARTOUCHE
  6
CONTINUOUS
 62
     1
100
AcDbText
 10
121.6268523526678
 20
11.77620843053535
 30
0.0
 40
2.1
  1
01/01/2001
 50
359.9999079999999
 41
0.8
  7
FINDER
 72
     1
 11
127.4999765
 21
11.7761990000428
 31
0.0
100
AcDbText
  0
TEXT
  5
53D
330
2
100
AcDbEntity
  8
CARTOUCHE
  6
CONTINUOUS
 62
     7
100
AcDbText
 10
124.8655426664426
 20
16.62422623016088
 30
0.0
 40
1.8
  1
DATE
 50
359.9999079999999
 41
0.8
  7
FINDER
 72
     1
 11
127.4999765
 21
16.6242220000428
 31
0.0
100
AcDbText
  0
LINE
  5
53E
330
2
100
AcDbEntity
  8
CARTOUCHE
  6
CONTINUOUS
 62
     7
100
AcDbLine
 10
153.3333296666666
 20
20.002887
 30
0.0
 11
153.3333296666666
 21
10.000945
 31
0.0
  0
TEXT
  5
53F
330
2
100
AcDbEntity
  8
CARTOUCHE
  6
CONTINUOUS
 62
     1
100
AcDbText
 10
177.554267384495
 20
11.77612258905803
 30
0.0
 40
2.1
  1
1:1
 50
359.9999079999999
 41
0.8
  7
FINDER
 72
     1
 11
179.1666548333333
 21
11.7761200000428
 31
0.0
100
AcDbText
  0
TEXT
  5
540
330
2
100
AcDbEntity
  8
CARTOUCHE
  6
CONTINUOUS
 62
     7
100
AcDbText
 10
175.868210085725
 20
16.62414829636514
 30
0.0
 40
1.8
  1
SCALE
 50
359.9999079999999
 41
0.8
  7
FINDER
 72
     1
 11
179.1666548333333
 21
16.6241430000428
 31
0.0
100
AcDbText
  0
CIRCLE
  5
1D6F
330
2
100
AcDbEntity
  8
DRAW
  6
CONTINUOUS
100
AcDbCircle
 10
51.46148505047427
 20
167.8307828166163
 30
0.0
 40
1.5
  0
LINE
  5
24EA
330
2
100
AcDbEntity
  8
DRAW
  6
CONTINUOUS
100
AcDbLine
 10
45.51406180914391
 20
163.7103794732737
 30
0.0
 11
57.08614203658562
 21
163.7103794732737
 31
0.0
  0
LINE
  5
24EB
330
2
100
AcDbEntity
  8
DRAW
  6
CONTINUOUS
100
AcDbLine
 10
57.08614203658562
 20
171.8864248089715
 30
0.0
 11
45.51406180914391
 21
171.8864248089714
 31
0.0
  0
LINE
  5
24EC
330
2
100
AcDbEntity
  8
DRAW
  6
CONTINUOUS
100
AcDbLine
 10
45.17108885957286
 20
163.4307828166162
 30
0.0
 11
57.37108885957287
 21
163.4307828166162
 31
0.0
  0
LINE
  5
24ED
330
2
100
AcDbEntity
  8
DRAW
  6
CONTINUOUS
100
AcDbLine
 10
57.37108885957286
 20
172.2307828166163
 30
0.0
 11
45.17108885957286
 21
172.2307828166163
 31
0.0
  0
LINE
  5
24F0
330
2
100
AcDbEntity
  8
DRAW
  6
CONTINUOUS
100
AcDbLine
 10
45.21406180914391
 20
171.5864248089714
 30
0.0
 11
45.21406180914391
 21
164.0103794732737
 31
0.0
  0
LINE
  5
24F1
330
2
100
AcDbEntity
  8
DRAW
  6
CONTINUOUS
100
AcDbLine
 10
44.87108885957286
 20
171.9307828166163
 30
0.0
 11
44.87108885957286
 21
163.7307828166163
 31
0.0
  0
ARC
  5
24F2
330
2
100
AcDbEntity
  8
DRAW
  6
CONTINUOUS
100
AcDbCircle
 10
45.51406180914391
 20
164.0103794732737
 30
0.0
 40
0.3
100
AcDbArc
 50
180.0
 51
270.0
  0
ARC
  5
24F3
330
2
100
AcDbEntity
  8
DRAW
  6
CONTINUOUS
100
AcDbCircle
 10
45.17108885957286
 20
163.7307828166163
 30
0.0
 40
0.3
100
AcDbArc
 50
180.0
 51
269.9999999999996
  0
ARC
  5
24F4
330
2
100
AcDbEntity
  8
DRAW
  6
CONTINUOUS
100
AcDbCircle
 10
45.51406180914391
 20
171.5864248089714
 30
0.0
 40
0.3
100
AcDbArc
 50
90.0
 51
180.0
  0
ARC
  5
24F5
330
2
100
AcDbEntity
  8
DRAW
  6
CONTINUOUS
100
AcDbCircle
 10
45.17108885957286
 20
171.9307828166163
 30
0.0
 40
0.3
100
AcDbArc
 50
90.0
 51
180.0
  0
LINE
  5
24F6
330
2
100
AcDbEntity
  8
DRAW
  6
CONTINUOUS
100
AcDbLine
 10
57.38614203658562
 20
164.0103794732737
 30
0.0
 11
57.38614203658563
 21
171.5864248089715
 31
0.0
  0
LINE
  5
24F7
330
2
100
AcDbEntity
  8
DRAW
  6
CONTINUOUS
100
AcDbLine
 10
57.67108885957286
 20
163.7307828166163
 30
0.0
 11
57.67108885957285
 21
171.9307828166163
 31
0.0
  0
ARC
  5
24F8
330
2
100
AcDbEntity
  8
DRAW
  6
CONTINUOUS
100
AcDbCircle
 10
57.08614203658562
 20
164.0103794732737
 30
0.0
 40
0.3
100
AcDbArc
 50
270.0
 51
0.0
  0
ARC
  5
24F9
330
2
100
AcDbEntity
  8
DRAW
  6
CONTINUOUS
100
AcDbCircle
 10
57.37108885957287
 20
163.7307828166163
 30
0.0
 40
0.3
100
AcDbArc
 50
270.0
 51
0.0
  0
ARC
  5
24FA
330
2
100
AcDbEntity
  8
DRAW
  6
CONTINUOUS
100
AcDbCircle
 10
57.08614203658562
 20
171.5864248089715
 30
0.0
 40
0.3
100
AcDbArc
 50
0.0
 51
90.0
  0
ARC
  5
24FB
330
2
100
AcDbEntity
  8
DRAW
  6
CONTINUOUS
100
AcDbCircle
 10
57.37108885957286
 20
171.9307828166163
 30
0.0
 40
0.3
100
AcDbArc
 50
0.0
 51
90.0
  0
LINE
  5
2577
330
2
100
AcDbEntity
  8
DRAW
  6
CONTINUOUS
100
AcDbLine
 10
92.39413833561162
 20
171.977694316928
 30
0.0
 11
114.8941383356116
 21
171.977694316928
 31
0.0
  0
LINE
  5
2578
330
2
100
AcDbEntity
  8
DRAW
  6
CONTINUOUS
100
AcDbLine
 10
114.8941383356116
 20
171.977694316928
 30
0.0
 11
114.8941383356116
 21
163.177694316928
 31
0.0
  0
LINE
  5
2579
330
2
100
AcDbEntity
  8
DRAW
  6
CONTINUOUS
100
AcDbLine
 10
114.8941383356116
 20
163.177694316928
 30
0.0
 11
92.39413833561162
 21
163.177694316928
 31
0.0
  0
LINE
  5
257A
330
2
100
AcDbEntity
  8
DRAW
  6
CONTINUOUS
100
AcDbLine
 10
92.39413833561162
 20
163.177694316928
 30
0.0
 11
92.39413833561162
 21
171.977694316928
 31
0.0
  0
LINE
  5
257B
330
2
100
AcDbEntity
  8
DRAW
  6
CONTINUOUS
100
AcDbLine
 10
92.39413833561162
 20
163.177694316928
 30
0.0
 11
92.39413833561162
 21
166.877694316928
 31
0.0
  0
LINE
  5
257E
330
2
100
AcDbEntity
  8
DRAW
  6
CONTINUOUS
100
AcDbLine
 10
84.39413833561161
 20
170.2288280020884
 30
0.0
 11
92.39413833561162
 21
170.2288280020884
 31
0.0
  0
LINE
  5
2582
330
2
100
AcDbEntity
  8
DRAW
  6
CONTINUOUS
100
AcDbLine
 10
92.39413833561162
 20
171.977694316928
 30
0.0
 11
92.39413833561162
 21
174.8120636523251
 31
0.0
  0
LINE
  5
25AB
330
2
100
AcDbEntity
  8
DRAW
  6
CONTINUOUS
100
AcDbLine
 10
92.39413833561162
 20
174.8120636523251
 30
0.0
 11
90.89413833561161
 21
174.8120636523251
 31
0.0
  0
LINE
  5
25AD
330
2
100
AcDbEntity
  8
DRAW
  6
CONTINUOUS
100
AcDbLine
 10
90.89413833561161
 20
174.8120636523251
 30
0.0
 11
90.89413833561161
 21
170.2288280020884
 31
0.0
  0
LINE
  5
25D9
330
2
100
AcDbEntity
  8
DRAW
  6
CONTINUOUS
100
AcDbLine
 10
50.57108885957286
 20
175.2307828166163
 30
0.0
 11
51.97108885957288
 21
175.2307828166163
 31
0.0
  0
LINE
  5
25DA
330
2
100
AcDbEntity
  8
DRAW
  6
CONTINUOUS
100
AcDbLine
 10
52.27108885957286
 20
174.9307828166163
 30
0.0
 11
52.27108885957285
 21
172.2307828166163
 31
0.0
  0
LINE
  5
25DB
330
2
100
AcDbEntity
  8
DRAW
  6
CONTINUOUS
100
AcDbLine
 10
52.27108885957285
 20
172.2307828166163
 30
0.0
 11
50.27108885957286
 21
172.2307828166163
 31
0.0
  0
LINE
  5
25DC
330
2
100
AcDbEntity
  8
DRAW
  6
CONTINUOUS
100
AcDbLine
 10
50.27108885957286
 20
172.2307828166163
 30
0.0
 11
50.27108885957286
 21
174.9307828166163
 31
0.0
  0
ARC
  5
25DD
330
2
100
AcDbEntity
  8
DRAW
  6
CONTINUOUS
100
AcDbCircle
 10
50.57108885957286
 20
174.9307828166163
 30
0.0
 40
0.3
100
AcDbArc
 50
90.0
 51
180.0
  0
ARC
  5
25DE
330
2
100
AcDbEntity
  8
DRAW
  6
CONTINUOUS
100
AcDbCircle
 10
51.97108885957287
 20
174.9307828166163
 30
0.0
 40
0.3
100
AcDbArc
 50
0.0
 51
89.99999999999904
  0
ARC
  5
25EC
330
2
100
AcDbEntity
  8
DRAW
  6
CONTINUOUS
100
AcDbCircle
 10
114.8941382378768
 20
167.759673586789
 30
0.0
 40
1.5
100
AcDbArc
 50
270.0
 51
90.0
  0
DIMENSION
  5
2608
330
2
100
AcDbEntity
  8
DIM
  6
CONTINUOUS
100
AcDbDimension
  2
*D14
 10
57.67108885957285
 20
181.9707631079434
 30
0.0
 11
51.27108885957285
 21
183.5147944858424
 31
0.0
 70
    32
  3
FINDER
100
AcDbAlignedDimension
 13
44.87108885957286
 23
171.9307828166163
 33
0.0
 14
57.67108885957285
 24
171.9307828166163
 34
0.0
100
AcDbRotatedDimension
  0
DIMENSION
  5
2615
330
2
100
AcDbEntity
  8
DIM
  6
CONTINUOUS
100
AcDbDimension
  2
*D15
 10
40.86135667959069
 20
172.2307828166163
 30
0.0
 11
39.31732530169162
 21
167.8307828166163
 31
0.0
 70
    32
  3
FINDER
100
AcDbAlignedDimension
 13
45.17108885957286
 23
163.4307828166162
 33
0.0
 14
45.17108885957286
 24
172.2307828166163
 34
0.0
 50
90.0
100
AcDbRotatedDimension
  0
DIMENSION
  5
2622
330
2
100
AcDbEntity
  8
DIM
  6
CONTINUOUS
100
AcDbDimension
  2
*D16
 10
92.39413833561162
 20
182.8275810837394
 30
0.0
 11
103.6441383356116
 21
184.3716124616385
 31
0.0
 70
    32
  3
FINDER
100
AcDbAlignedDimension
 13
114.8941383356116
 23
171.977694316928
 33
0.0
 14
92.39413833561162
 24
171.977694316928
 34
0.0
100
AcDbRotatedDimension
  0
DIMENSION
  5
262F
330
2
100
AcDbEntity
  8
DIM
  6
CONTINUOUS
100
AcDbDimension
  2
*D17
 10
127.1015294635537
 20
163.177694316928
 30
0.0
 11
125.5574980856547
 21
167.577694316928
 31
0.0
 70
    32
  3
FINDER
100
AcDbAlignedDimension
 13
114.8941383356116
 23
171.977694316928
 33
0.0
 14
114.8941383356116
 24
163.177694316928
 34
0.0
 50
90.0
100
AcDbRotatedDimension
  0
LINE
  5
263C
330
2
100
AcDbEntity
  8
DRAW
  6
CONTINUOUS
100
AcDbLine
 10
114.5578845966954
 20
149.5111274886886
 30
0.0
 11
114.5578845966954
 21
136.7111274886886
 31
0.0
  0
LINE
  5
263D
330
2
100
AcDbEntity
  8
DRAW
  6
CONTINUOUS
100
AcDbLine
 10
114.5578845966954
 20
136.7111274886886
 30
0.0
 11
92.05788459669543
 21
136.7111274886886
 31
0.0
  0
LINE
  5
263F
330
2
100
AcDbEntity
  8
DRAW
  6
CONTINUOUS
100
AcDbLine
 10
92.05788459669543
 20
136.7111274886886
 30
0.0
 11
92.05788459669543
 21
149.5111274886886
 31
0.0
  0
LINE
  5
2640
330
2
100
AcDbEntity
  8
DRAW
  6
CONTINUOUS
100
AcDbLine
 10
92.05788459669543
 20
149.5111274886886
 30
0.0
 11
114.5578845966954
 21
149.5111274886886
 31
0.0
  0
LINE
  5
2641
330
2
100
AcDbEntity
  8
DRAW
  6
CONTINUOUS
100
AcDbLine
 10
114.5578845966954
 20
149.5111274886886
 30
0.0
 11
114.5578845966954
 21
149.5111274886886
 31
0.0
  0
ARC
  5
2649
330
2
100
AcDbEntity
  8
DRAW
  6
CONTINUOUS
100
AcDbCircle
 10
114.5578844989606
 20
143.4538683696173
 30
0.0
 40
1.5
100
AcDbArc
 50
270.0
 51
90.0
  0
LINE
  5
2659
330
2
100
AcDbEntity
  8
DRAW
  6
CONTINUOUS
100
AcDbLine
 10
92.05788459669543
 20
149.5111274886886
 30
0.0
 11
92.05788459669543
 21
148.5111274886886
 31
0.0
  0
LINE
  5
265A
330
2
100
AcDbEntity
  8
DRAW
  6
CONTINUOUS
100
AcDbLine
 10
92.05788459669543
 20
148.5111274886886
 30
0.0
 11
84.05788459669542
 21
148.5111274886886
 31
0.0
  0
LINE
  5
265B
330
2
100
AcDbEntity
  8
DRAW
  6
CONTINUOUS
100
AcDbLine
 10
84.05788459669542
 20
148.5111274886886
 30
0.0
 11
84.05788459669542
 21
145.1111274886886
 31
0.0
  0
LINE
  5
265C
330
2
100
AcDbEntity
  8
DRAW
  6
CONTINUOUS
100
AcDbLine
 10
84.05788459669542
 20
145.1111274886886
 30
0.0
 11
92.05788459669543
 21
145.1111274886886
 31
0.0
  0
LINE
  5
265D
330
2
100
AcDbEntity
  8
DRAW
  6
CONTINUOUS
100
AcDbLine
 10
92.05788459669543
 20
136.7111274886886
 30
0.0
 11
92.05788459669543
 21
137.7111274886886
 31
0.0
  0
LINE
  5
265E
330
2
100
AcDbEntity
  8
DRAW
  6
CONTINUOUS
100
AcDbLine
 10
92.05788459669543
 20
137.7111274886886
 30
0.0
 11
84.05788459669542
 21
137.7111274886886
 31
0.0
  0
LINE
  5
265F
330
2
100
AcDbEntity
  8
DRAW
  6
CONTINUOUS
100
AcDbLine
 10
84.05788459669542
 20
137.7111274886886
 30
0.0
 11
84.05788459669542
 21
141.1111274886886
 31
0.0
  0
LINE
  5
2660
330
2
100
AcDbEntity
  8
DRAW
  6
CONTINUOUS
100
AcDbLine
 10
84.05788459669542
 20
141.1111274886886
 30
0.0
 11
92.05788459669543
 21
141.1111274886886
 31
0.0
  0
LINE
  5
2661
330
2
100
AcDbEntity
  8
DRAW
  6
CONTINUOUS
100
AcDbLine
 10
92.05788459669543
 20
141.1111274886886
 30
0.0
 11
92.05788459669543
 21
141.6570985198266
 31
0.0
  0
LINE
  5
2671
330
2
100
AcDbEntity
  8
DRAW
  6
CONTINUOUS
100
AcDbLine
 10
90.55788459669543
 20
142.1111274886886
 30
0.0
 11
90.55788459669543
 21
144.1111274886886
 31
0.0
  0
LINE
  5
2672
330
2
100
AcDbEntity
  8
DRAW
  6
CONTINUOUS
100
AcDbLine
 10
90.55788459669543
 20
144.1111274886886
 30
0.0
 11
92.05788459669543
 21
144.1111274886886
 31
0.0
  0
LINE
  5
2673
330
2
100
AcDbEntity
  8
DRAW
  6
CONTINUOUS
100
AcDbLine
 10
92.05788459669543
 20
144.1111274886886
 30
0.0
 11
92.05788459669543
 21
142.1111274886886
 31
0.0
  0
LINE
  5
2674
330
2
100
AcDbEntity
  8
DRAW
  6
CONTINUOUS
100
AcDbLine
 10
92.05788459669543
 20
142.1111274886886
 30
0.0
 11
90.55788459669543
 21
142.1111274886886
 31
0.0
  0
LINE
  5
2691
330
2
100
AcDbEntity
  8
DRAW
  6
CONTINUOUS
100
AcDbLine
 10
155.9504190161067
 20
163.4978474364251
 30
0.0
 11
155.9504190161067
 21
171.6978474364251
 31
0.0
  0
LINE
  5
2692
330
2
100
AcDbEntity
  8
DRAW
  6
CONTINUOUS
100
AcDbLine
 10
155.6654721931195
 20
163.7774440930825
 30
0.0
 11
155.6654721931195
 21
171.3534894287803
 31
0.0
  0
LINE
  5
2693
330
2
100
AcDbEntity
  8
DRAW
  6
CONTINUOUS
100
AcDbLine
 10
143.1504190161067
 20
171.6978474364251
 30
0.0
 11
143.1504190161067
 21
163.4978474364251
 31
0.0
  0
LINE
  5
2694
330
2
100
AcDbEntity
  8
DRAW
  6
CONTINUOUS
100
AcDbLine
 10
143.4933919656778
 20
171.3534894287802
 30
0.0
 11
143.4933919656778
 21
163.7774440930825
 31
0.0
  0
LINE
  5
2695
330
2
100
AcDbEntity
  8
DRAW
  6
CONTINUOUS
100
AcDbLine
 10
143.4504190161067
 20
163.1978474364251
 30
0.0
 11
155.6504190161067
 21
163.1978474364251
 31
0.0
  0
LINE
  5
2696
330
2
100
AcDbEntity
  8
DRAW
  6
CONTINUOUS
100
AcDbLine
 10
143.7933919656778
 20
163.4774440930825
 30
0.0
 11
155.3654721931195
 21
163.4774440930825
 31
0.0
  0
ARC
  5
2698
330
2
100
AcDbEntity
  8
DRAW
  6
CONTINUOUS
100
AcDbCircle
 10
143.4504190161067
 20
163.4978474364251
 30
0.0
 40
0.3
100
AcDbArc
 50
180.0
 51
270.0
  0
ARC
  5
2699
330
2
100
AcDbEntity
  8
DRAW
  6
CONTINUOUS
100
AcDbCircle
 10
143.7933919656778
 20
163.7774440930825
 30
0.0
 40
0.3
100
AcDbArc
 50
180.0
 51
270.0
  0
ARC
  5
269A
330
2
100
AcDbEntity
  8
DRAW
  6
CONTINUOUS
100
AcDbCircle
 10
155.6504190161067
 20
163.4978474364251
 30
0.0
 40
0.3
100
AcDbArc
 50
270.0
 51
0.0
  0
ARC
  5
269B
330
2
100
AcDbEntity
  8
DRAW
  6
CONTINUOUS
100
AcDbCircle
 10
155.3654721931195
 20
163.7774440930825
 30
0.0
 40
0.3
100
AcDbArc
 50
270.0
 51
0.0
  0
LINE
  5
269C
330
2
100
AcDbEntity
  8
DRAW
  6
CONTINUOUS
100
AcDbLine
 10
155.6504190161067
 20
171.9978474364251
 30
0.0
 11
150.5504190161067
 21
171.9978474364251
 31
0.0
  0
LINE
  5
269D
330
2
100
AcDbEntity
  8
DRAW
  6
CONTINUOUS
100
AcDbLine
 10
155.3654721931195
 20
171.6534894287803
 30
0.0
 11
150.5552424685475
 21
171.6534894287803
 31
0.0
  0
ARC
  5
269E
330
2
100
AcDbEntity
  8
DRAW
  6
CONTINUOUS
100
AcDbCircle
 10
143.4504190161067
 20
171.6978474364251
 30
0.0
 40
0.3
100
AcDbArc
 50
90.0
 51
180.0
  0
ARC
  5
269F
330
2
100
AcDbEntity
  8
DRAW
  6
CONTINUOUS
100
AcDbCircle
 10
143.7933919656778
 20
171.3534894287802
 30
0.0
 40
0.3
100
AcDbArc
 50
90.0
 51
180.0
  0
ARC
  5
26A0
330
2
100
AcDbEntity
  8
DRAW
  6
CONTINUOUS
100
AcDbCircle
 10
148.8504190161067
 20
174.6978474364251
 30
0.0
 40
0.3
100
AcDbArc
 50
90.0
 51
180.0
  0
LINE
  5
26A2
330
2
100
AcDbEntity
  8
DRAW
  6
CONTINUOUS
100
AcDbLine
 10
148.5504190161067
 20
169.0717757816626
 30
0.0
 11
148.5504190161067
 21
171.9978474364251
 31
0.0
  0
LINE
  5
26A4
330
2
100
AcDbEntity
  8
DRAW
  6
CONTINUOUS
100
AcDbLine
 10
148.8504190161067
 20
174.9978474364251
 30
0.0
 11
150.2504190161067
 21
174.9978474364251
 31
0.0
  0
ARC
  5
26A5
330
2
100
AcDbEntity
  8
DRAW
  6
CONTINUOUS
100
AcDbCircle
 10
150.2504190161067
 20
174.6978474364251
 30
0.0
 40
0.3
100
AcDbArc
 50
0.0
 51
89.99999999999836
  0
ARC
  5
26A6
330
2
100
AcDbEntity
  8
DRAW
  6
CONTINUOUS
100
AcDbCircle
 10
155.6504190161067
 20
171.6978474364251
 30
0.0
 40
0.3
100
AcDbArc
 50
0.0
 51
90.0
  0
ARC
  5
26A7
330
2
100
AcDbEntity
  8
DRAW
  6
CONTINUOUS
100
AcDbCircle
 10
155.3654721931195
 20
171.3534894287803
 30
0.0
 40
0.3
100
AcDbArc
 50
0.0
 51
90.0
  0
LINE
  5
26A9
330
2
100
AcDbEntity
  8
DRAW
  6
CONTINUOUS
100
AcDbLine
 10
162.1503538809574
 20
171.977694316928
 30
0.0
 11
162.1503538809574
 21
171.977694316928
 31
0.0
  0
LINE
  5
26B2
330
2
100
AcDbEntity
  8
DRAW
  6
CONTINUOUS
100
AcDbLine
 10
150.5552424685475
 20
169.0717757816626
 30
0.0
 11
150.5552424685476
 21
174.7683533577264
 31
0.0
  0
LINE
  5
26B4
330
2
100
AcDbEntity
  8
DRAW
  6
CONTINUOUS
100
AcDbLine
 10
148.8504190161067
 20
168.7717757816626
 30
0.0
 11
150.2552424685475
 21
168.7717757816626
 31
0.0
  0
ARC
  5
26B6
330
2
100
AcDbEntity
  8
DRAW
  6
CONTINUOUS
100
AcDbCircle
 10
148.8504190161067
 20
169.0717757816626
 30
0.0
 40
0.3
100
AcDbArc
 50
179.9999999999997
 51
270.0
  0
ARC
  5
26B7
330
2
100
AcDbEntity
  8
DRAW
  6
CONTINUOUS
100
AcDbCircle
 10
150.2552424685475
 20
169.0717757816626
 30
0.0
 40
0.3
100
AcDbArc
 50
270.0000000000009
 51
359.9999999999997
  0
LINE
  5
26B8
330
2
100
AcDbEntity
  8
DRAW
  6
CONTINUOUS
100
AcDbLine
 10
148.5504190161067
 20
172.0043707199176
 30
0.0
 11
143.4504190161067
 21
171.9978474364251
 31
0.0
  0
LINE
  5
26B9
330
2
100
AcDbEntity
  8
DRAW
  6
CONTINUOUS
100
AcDbLine
 10
148.5504190161067
 20
172.0043707199176
 30
0.0
 11
148.5504190161067
 21
174.6978474364251
 31
0.0
  0
LINE
  5
26BA
330
2
100
AcDbEntity
  8
DRAW
  6
CONTINUOUS
100
AcDbLine
 10
148.5574748328931
 20
171.6534894287803
 30
0.0
 11
143.7933919656778
 21
171.6534894287802
 31
0.0
  0
CIRCLE
  5
26C3
330
2
100
AcDbEntity
  8
DRAW
  6
CONTINUOUS
100
AcDbCircle
 10
145.8737307478052
 20
168.4604483237651
 30
0.0
 40
1.7
  0
CIRCLE
  5
26D0
330
2
100
AcDbEntity
  8
DRAW
  6
CONTINUOUS
100
AcDbCircle
 10
153.231481354981
 20
168.5279167493608
 30
0.0
 40
1.7
  0
LINE
  5
27C1
330
2
100
AcDbEntity
  8
DRAW
  6
CONTINUOUS
100
AcDbLine
 10
84.39413833561161
 20
170.2288280020884
 30
0.0
 11
84.39413833561161
 21
166.8288280020884
 31
0.0
  0
LINE
  5
27C2
330
2
100
AcDbEntity
  8
DRAW
  6
CONTINUOUS
100
AcDbLine
 10
84.39413833561161
 20
166.8288280020884
 30
0.0
 11
92.39413833561162
 21
166.8288280020884
 31
0.0
  0
DIMENSION
  5
27C3
330
2
100
AcDbEntity
  8
DIM
  6
CONTINUOUS
100
AcDbDimension
  2
*D22
 10
81.70187551106437
 20
170.2288280020884
 30
0.0
 11
80.1572302177492
 21
177.4880708397419
 31
0.0
 70
    32
  3
FINDER
100
AcDbAlignedDimension
 13
84.39413833561161
 23
166.8288280020884
 33
0.0
 14
84.39413833561161
 24
170.2288280020884
 34
0.0
 50
90.0
100
AcDbRotatedDimension
  0
ENDSEC
  0
SECTION
  2
OBJECTS
  0
DICTIONARY
  5
1A
330
0
100
AcDbDictionary
  3
ACAD_GROUP
350
18
  3
ACAD_LAYOUT
350
2300
  3
ACAD_MLINESTYLE
350
19
  3
ACAD_PLOTSETTINGS
350
2301
1001
ACAD
1000
TREAT_AS_HARD
1070
     0
  0
DICTIONARY
  5
283D
330
2
100
AcDbDictionary
  3
ACAD_LAYOUTSELFREF
350
284B
1001
ACAD
1000
TREAT_AS_HARD
1070
     1
  0
DICTIONARY
  5
283F
330
7
100
AcDbDictionary
  3
ACAD_LAYOUTSELFREF
350
284C
1001
ACAD
1000
TREAT_AS_HARD
1070
     1
  0
DICTIONARY
  5
18
102
{ACAD_REACTORS
330
1A
102
}
330
0
100
AcDbDictionary
  3
*A1
350
2374
  3
*A2
350
252A
1001
ACAD
1000
TREAT_AS_HARD
1070
     0
  0
DICTIONARY
  5
2300
102
{ACAD_REACTORS
330
1A
102
}
330
1A
100
AcDbDictionary
1001
ACAD
1000
TREAT_AS_HARD
1070
     0
  0
DICTIONARY
  5
19
102
{ACAD_REACTORS
330
1A
102
}
330
0
100
AcDbDictionary
  3
STANDARD
350
1C
1001
ACAD
1000
TREAT_AS_HARD
1070
     0
  0
DICTIONARY
  5
2301
102
{ACAD_REACTORS
330
1A
102
}
330
1A
100
AcDbDictionary
1001
ACAD
1000
TREAT_AS_HARD
1070
     0
  0
XRECORD
  5
284B
102
{ACAD_REACTORS
330
283D
102
}
330
283D
100
AcDbXrecord
340
2
  0
XRECORD
  5
284C
102
{ACAD_REACTORS
330
283F
102
}
330
283F
100
AcDbXrecord
340
7
  0
GROUP
  5
2374
102
{ACAD_REACTORS
330
18
102
}
330
18
100
AcDbGroup
300

 70
     1
 71
     1
  0
GROUP
  5
252A
102
{ACAD_REACTORS
330
18
102
}
330
18
100
AcDbGroup
300

 70
     1
 71
     1
  0
MLINESTYLE
  5
1C
102
{ACAD_REACTORS
330
19
102
}
330
0
100
AcDbMlineStyle
  2
STANDARD
 70
     0
  3

 62
     0
 51
90.0
 52
90.0
 71
     2
 49
0.5
 62
   256
  6
BYLAYER
 49
-0.5
 62
   256
  6
BYLAYER
  0
ENDSEC
  0
EOF
