  0
SECTION
  2
HEADER
  9
$ACADVER
  1
AC1015
  9
$ACADMAINTVER
 70
    20
  9
$DWGCODEPAGE
  3
ANSI_1252
  9
$INSBASE
 10
0.0
 20
0.0
 30
0.0
  9
$EXTMIN
 10
-191.1566767559
 20
570.2453781080653
 30
-1.000120201959746
  9
$EXTMAX
 10
218.9201474922049
 20
840.282649671602
 30
0.7001132170691236
  9
$LIMMIN
 10
0.0
 20
0.0
  9
$LIMMAX
 10
420.0
 20
297.0
  9
$ORTHOMODE
 70
     1
  9
$REGENMODE
 70
     1
  9
$FILLMODE
 70
     1
  9
$QTEXTMODE
 70
     0
  9
$MIRRTEXT
 70
     0
  9
$LTSCALE
 40
23.1
  9
$ATTMODE
 70
     1
  9
$TEXTSIZE
 40
0.2
  9
$TRACEWID
 40
0.05
  9
$TEXTSTYLE
  7
Standard
  9
$CLAYER
  8
0
  9
$CELTYPE
  6
ByLayer
  9
$CECOLOR
 62
   256
  9
$CELTSCALE
 40
1.0
  9
$DISPSILH
 70
     0
  9
$DIMSCALE
 40
0.0
  9
$DIMASZ
 40
3.5
  9
$DIMEXO
 40
0.0
  9
$DIMDLI
 40
3.75
  9
$DIMRND
 40
0.0
  9
$DIMDLE
 40
0.0
  9
$DIMEXE
 40
2.0
  9
$DIMTP
 40
0.0
  9
$DIMTM
 40
0.0
  9
$DIMTXT
 40
3.5
  9
$DIMCEN
 40
2.5
  9
$DIMTSZ
 40
0.0
  9
$DIMTOL
 70
     0
  9
$DIMLIM
 70
     0
  9
$DIMTIH
 70
     0
  9
$DIMTOH
 70
     0
  9
$DIMSE1
 70
     0
  9
$DIMSE2
 70
     0
  9
$DIMTAD
 70
     1
  9
$DIMZIN
 70
     8
  9
$DIMBLK
  1

  9
$DIMASO
 70
     1
  9
$DIMSHO
 70
     1
  9
$DIMPOST
  1

  9
$DIMAPOST
  1

  9
$DIMALT
 70
     0
  9
$DIMALTD
 70
     4
  9
$DIMALTF
 40
0.039
  9
$DIMLFAC
 40
1.0
  9
$DIMTOFL
 70
     1
  9
$DIMTVP
 40
0.0
  9
$DIMTIX
 70
     0
  9
$DIMSOXD
 70
     0
  9
$DIMSAH
 70
     0
  9
$DIMBLK1
  1

  9
$DIMBLK2
  1

  9
$DIMSTYLE
  2
H035
  9
$DIMCLRD
 70
   256
  9
$DIMCLRE
 70
     7
  9
$DIMCLRT
 70
     7
  9
$DIMTFAC
 40
1.0
  9
$DIMGAP
 40
0.5
  9
$DIMJUST
 70
     0
  9
$DIMSD1
 70
     0
  9
$DIMSD2
 70
     0
  9
$DIMTOLJ
 70
     1
  9
$DIMTZIN
 70
     0
  9
$DIMALTZ
 70
     0
  9
$DIMALTTZ
 70
     0
  9
$DIMUPT
 70
     0
  9
$DIMDEC
 70
     0
  9
$DIMTDEC
 70
     2
  9
$DIMALTU
 70
     8
  9
$DIMALTTD
 70
     4
  9
$DIMTXSTY
  7
Standard
  9
$DIMAUNIT
 70
     0
  9
$DIMADEC
 70
     0
  9
$DIMALTRND
 40
0.0
  9
$DIMAZIN
 70
     0
  9
$DIMDSEP
 70
    46
  9
$DIMATFIT
 70
     3
  9
$DIMFRAC
 70
     0
  9
$DIMLDRBLK
  1

  9
$DIMLUNIT
 70
     2
  9
$DIMLWD
 70
    -2
  9
$DIMLWE
 70
    -2
  9
$DIMTMOVE
 70
     0
  9
$LUNITS
 70
     2
  9
$LUPREC
 70
     4
  9
$SKETCHINC
 40
0.1
  9
$FILLETRAD
 40
0.5
  9
$AUNITS
 70
     0
  9
$AUPREC
 70
     0
  9
$MENU
  1
.
  9
$ELEVATION
 40
0.0
  9
$PELEVATION
 40
0.0
  9
$THICKNESS
 40
0.0
  9
$LIMCHECK
 70
     0
  9
$CHAMFERA
 40
0.0
  9
$CHAMFERB
 40
0.0
  9
$CHAMFERC
 40
0.0
  9
$CHAMFERD
 40
0.0
  9
$SKPOLY
 70
     0
  9
$TDCREATE
 40
2452829.417613079
  9
$TDUCREATE
 40
2452829.375946412
  9
$TDUPDATE
 40
2453423.420376273
  9
$TDUUPDATE
 40
2453423.378709607
  9
$TDINDWG
 40
2.5064491667
  9
$TDUSRTIMER
 40
2.5064426620
  9
$USRTIMER
 70
     1
  9
$ANGBASE
 50
0.0
  9
$ANGDIR
 70
     0
  9
$PDMODE
 70
     0
  9
$PDSIZE
 40
0.0
  9
$PLINEWID
 40
0.0
  9
$SPLFRAME
 70
     0
  9
$SPLINETYPE
 70
     6
  9
$SPLINESEGS
 70
     8
  9
$HANDSEED
  5
11049
  9
$SURFTAB1
 70
     6
  9
$SURFTAB2
 70
     6
  9
$SURFTYPE
 70
     6
  9
$SURFU
 70
     6
  9
$SURFV
 70
     6
  9
$UCSBASE
  2

  9
$UCSNAME
  2

  9
$UCSORG
 10
0.0
 20
0.0
 30
0.0
  9
$UCSXDIR
 10
1.0
 20
0.0
 30
0.0
  9
$UCSYDIR
 10
0.0
 20
1.0
 30
0.0
  9
$UCSORTHOREF
  2

  9
$UCSORTHOVIEW
 70
     0
  9
$UCSORGTOP
 10
0.0
 20
0.0
 30
0.0
  9
$UCSORGBOTTOM
 10
0.0
 20
0.0
 30
0.0
  9
$UCSORGLEFT
 10
0.0
 20
0.0
 30
0.0
  9
$UCSORGRIGHT
 10
0.0
 20
0.0
 30
0.0
  9
$UCSORGFRONT
 10
0.0
 20
0.0
 30
0.0
  9
$UCSORGBACK
 10
0.0
 20
0.0
 30
0.0
  9
$PUCSBASE
  2

  9
$PUCSNAME
  2

  9
$PUCSORG
 10
0.0
 20
0.0
 30
0.0
  9
$PUCSXDIR
 10
1.0
 20
0.0
 30
0.0
  9
$PUCSYDIR
 10
0.0
 20
1.0
 30
0.0
  9
$PUCSORTHOREF
  2

  9
$PUCSORTHOVIEW
 70
     0
  9
$PUCSORGTOP
 10
0.0
 20
0.0
 30
0.0
  9
$PUCSORGBOTTOM
 10
0.0
 20
0.0
 30
0.0
  9
$PUCSORGLEFT
 10
0.0
 20
0.0
 30
0.0
  9
$PUCSORGRIGHT
 10
0.0
 20
0.0
 30
0.0
  9
$PUCSORGFRONT
 10
0.0
 20
0.0
 30
0.0
  9
$PUCSORGBACK
 10
0.0
 20
0.0
 30
0.0
  9
$USERI1
 70
     0
  9
$USERI2
 70
     0
  9
$USERI3
 70
     0
  9
$USERI4
 70
     0
  9
$USERI5
 70
     0
  9
$USERR1
 40
0.0
  9
$USERR2
 40
0.0
  9
$USERR3
 40
0.0
  9
$USERR4
 40
0.0
  9
$USERR5
 40
0.0
  9
$WORLDVIEW
 70
     1
  9
$SHADEDGE
 70
     3
  9
$SHADEDIF
 70
    70
  9
$TILEMODE
 70
     1
  9
$MAXACTVP
 70
    64
  9
$PINSBASE
 10
0.0
 20
0.0
 30
0.0
  9
$PLIMCHECK
 70
     0
  9
$PEXTMIN
 10
1.000000000000000E+20
 20
1.000000000000000E+20
 30
1.000000000000000E+20
  9
$PEXTMAX
 10
-1.000000000000000E+20
 20
-1.000000000000000E+20
 30
-1.000000000000000E+20
  9
$PLIMMIN
 10
0.0
 20
0.0
  9
$PLIMMAX
 10
12.0
 20
9.0
  9
$UNITMODE
 70
     0
  9
$VISRETAIN
 70
     1
  9
$PLINEGEN
 70
     0
  9
$PSLTSCALE
 70
     1
  9
$TREEDEPTH
 70
  3020
  9
$CMLSTYLE
  2
Standard
  9
$CMLJUST
 70
     0
  9
$CMLSCALE
 40
1.0
  9
$PROXYGRAPHICS
 70
     1
  9
$MEASUREMENT
 70
     0
  9
$CELWEIGHT
370
    -1
  9
$ENDCAPS
280
     0
  9
$JOINSTYLE
280
     0
  9
$LWDISPLAY
290
     0
  9
$INSUNITS
 70
     0
  9
$HYPERLINKBASE
  1

  9
$STYLESHEET
  1
MONOCHROME.CTB
  9
$XEDIT
290
     1
  9
$CEPSNTYPE
380
     0
  9
$PSTYLEMODE
290
     1
  9
$FINGERPRINTGUID
  2
{D88032C4-1185-41D3-97DD-7638FCF99E3F}
  9
$VERSIONGUID
  2
{77174107-CFAA-4456-87E9-6E5C00CC1388}
  9
$EXTNAMES
290
     1
  9
$PSVPSCALE
 40
0.0
  9
$OLESTARTUP
290
     0
  0
ENDSEC
  0
SECTION
  2
CLASSES
  0
CLASS
  1
ACDBDICTIONARYWDFLT
  2
AcDbDictionaryWithDefault
  3
ObjectDBX Classes
 90
        0
280
     0
281
     0
  0
CLASS
  1
DICTIONARYVAR
  2
AcDbDictionaryVar
  3
ObjectDBX Classes
 90
        0
280
     0
281
     0
  0
CLASS
  1
ACDBPLACEHOLDER
  2
AcDbPlaceHolder
  3
ObjectDBX Classes
 90
        0
280
     0
281
     0
  0
CLASS
  1
LAYOUT
  2
AcDbLayout
  3
ObjectDBX Classes
 90
        0
280
     0
281
     0
  0
ENDSEC
  0
SECTION
  2
TABLES
  0
TABLE
  2
VPORT
  5
8
330
0
100
AcDbSymbolTable
 70
     3
  0
VPORT
  5
11040
330
8
100
AcDbSymbolTableRecord
100
AcDbViewportTableRecord
  2
*Active
 70
     0
 10
0.0
 20
0.0
 11
1.0
 21
1.0
 12
13.88173536815246
 22
705.2640138898336
 13
0.0
 23
0.0
 14
1.0
 24
1.0
 15
0.0
 25
0.0
 16
0.0
 26
0.0
 36
1.0
 17
0.0
 27
0.0
 37
0.0
 40
272.1747697553326
 41
1.571994715984147
 42
50.0
 43
0.0
 44
0.0
 50
0.0
 51
0.0
 71
     0
 72
   100
 73
     1
 74
     1
 75
     0
 76
     0
 77
     0
 78
     0
281
     0
 65
     1
110
0.0
120
0.0
130
0.0
111
1.0
121
0.0
131
0.0
112
0.0
122
1.0
132
0.0
 79
     0
146
0.0
  0
ENDTAB
  0
TABLE
  2
LTYPE
  5
5
330
0
100
AcDbSymbolTable
 70
     4
  0
LTYPE
  5
13
330
5
100
AcDbSymbolTableRecord
100
AcDbLinetypeTableRecord
  2
ByBlock
 70
     0
  3

 72
    65
 73
     0
 40
0.0
  0
LTYPE
  5
14
330
5
100
AcDbSymbolTableRecord
100
AcDbLinetypeTableRecord
  2
ByLayer
 70
     0
  3

 72
    65
 73
     0
 40
0.0
  0
LTYPE
  5
15
330
5
100
AcDbSymbolTableRecord
100
AcDbLinetypeTableRecord
  2
CONTINUOUS
 70
     0
  3
Solid line
 72
    65
 73
     0
 40
0.0
  0
LTYPE
  5
26
330
5
100
AcDbSymbolTableRecord
100
AcDbLinetypeTableRecord
  2
CENTER
 70
     0
  3
____ _ ____ _ ____ _ ____ _ ____ _ ____ _ ____
 72
    65
 73
     4
 40
0.6
 49
0.375
 74
     0
 49
-0.075
 74
     0
 49
0.075
 74
     0
 49
-0.075
 74
     0
  0
LTYPE
  5
4F7A
330
5
100
AcDbSymbolTableRecord
100
AcDbLinetypeTableRecord
  2
DASHED
 70
     0
  3
_ _ _ _ _ _ _ _ _ _ _ _ _ _ _ _ _ _ _ _ _ _ _ _
 72
    65
 73
     2
 40
0.375
 49
0.25
 74
     0
 49
-0.125
 74
     0
  0
ENDTAB
  0
TABLE
  2
LAYER
  5
2
330
0
100
AcDbSymbolTable
 70
    16
  0
LAYER
  5
10
330
2
100
AcDbSymbolTableRecord
100
AcDbLayerTableRecord
  2
0
 70
     0
 62
     7
  6
CONTINUOUS
370
    -3
390
F
  0
LAYER
  5
1D8
330
2
100
AcDbSymbolTableRecord
100
AcDbLayerTableRecord
  2
Defpoints
 70
     0
 62
     7
  6
CONTINUOUS
290
     0
370
    -3
390
F
  0
LAYER
  5
1D9
330
2
100
AcDbSymbolTableRecord
100
AcDbLayerTableRecord
  2
91000_TIP
 70
     0
 62
     7
  6
CONTINUOUS
370
    -3
390
F
  0
LAYER
  5
1DA
330
2
100
AcDbSymbolTableRecord
100
AcDbLayerTableRecord
  2
11000_Left
 70
     0
 62
     7
  6
CONTINUOUS
370
    -3
390
F
  0
LAYER
  5
1DB
330
2
100
AcDbSymbolTableRecord
100
AcDbLayerTableRecord
  2
10000_FRONT
 70
     0
 62
     7
  6
CONTINUOUS
370
    -3
390
F
  0
LAYER
  5
1DC
330
2
100
AcDbSymbolTableRecord
100
AcDbLayerTableRecord
  2
10100_FRONT_DIM
 70
     0
 62
     7
  6
CONTINUOUS
370
    -3
390
F
  0
LAYER
  5
1DD
330
2
100
AcDbSymbolTableRecord
100
AcDbLayerTableRecord
  2
90000_FRAME
 70
     0
 62
     7
  6
CONTINUOUS
370
    -3
390
F
  0
LAYER
  5
1DE
330
2
100
AcDbSymbolTableRecord
100
AcDbLayerTableRecord
  2
11100_LEFT_DIM
 70
     0
 62
     7
  6
CONTINUOUS
370
    -3
390
F
  0
LAYER
  5
CB80
330
2
100
AcDbSymbolTableRecord
100
AcDbLayerTableRecord
  2
30000_Drilling
 70
     0
 62
     7
  6
CONTINUOUS
370
    -3
390
F
  0
LAYER
  5
CB81
330
2
100
AcDbSymbolTableRecord
100
AcDbLayerTableRecord
  2
30100_Drilling_Dim
 70
     0
 62
     7
  6
CONTINUOUS
370
    -3
390
F
  0
ENDTAB
  0
TABLE
  2
STYLE
  5
3
330
0
100
AcDbSymbolTable
 70
     1
  0
STYLE
  5
11
330
3
100
AcDbSymbolTableRecord
100
AcDbTextStyleTableRecord
  2
Standard
 70
     0
 40
0.0
 41
1.0
 50
0.0
 71
     0
 42
0.2
  3
txt
  4

  0
ENDTAB
  0
TABLE
  2
VIEW
  5
6
330
0
100
AcDbSymbolTable
 70
     0
  0
ENDTAB
  0
TABLE
  2
UCS
  5
7
330
0
100
AcDbSymbolTable
 70
     0
  0
ENDTAB
  0
TABLE
  2
APPID
  5
9
330
0
100
AcDbSymbolTable
 70
     3
  0
APPID
  5
12
330
9
100
AcDbSymbolTableRecord
100
AcDbRegAppTableRecord
  2
ACAD
 70
     0
  0
APPID
  5
1E8
330
9
100
AcDbSymbolTableRecord
100
AcDbRegAppTableRecord
  2
AUSTER_ANSICHT
 70
     0
  0
APPID
  5
1E9
330
9
100
AcDbSymbolTableRecord
100
AcDbRegAppTableRecord
  2
AUSTER_FOLIE
 70
     0
  0
ENDTAB
  0
TABLE
  2
DIMSTYLE
  5
A
330
0
100
AcDbSymbolTable
 70
     2
100
AcDbDimStyleTable
 71
     2
340
3A1A
340
BA
  0
DIMSTYLE
105
BA
330
A
100
AcDbSymbolTableRecord
100
AcDbDimStyleTableRecord
  2
Standard
 70
     0
340
11
  0
DIMSTYLE
105
3A1A
102
{ACAD_REACTORS
330
10E22
330
10E4F
330
10EB1
330
10F2F
330
10F22
330
10F13
330
10EFD
330
10FA4
102
}
330
A
100
AcDbSymbolTableRecord
100
AcDbDimStyleTableRecord
  2
H035
 70
     0
 40
0.0
 41
3.5
 42
0.0
 43
3.75
 44
2.0
 73
     0
 74
     0
 77
     1
 78
     8
140
3.5
141
2.5
143
0.039
147
0.5
171
     4
172
     1
176
   256
177
     7
178
     7
271
     0
272
     2
273
     8
274
     4
340
11
  0
ENDTAB
  0
TABLE
  2
BLOCK_RECORD
  5
1
330
0
100
AcDbSymbolTable
 70
    28
  0
BLOCK_RECORD
  5
20
330
1
100
AcDbSymbolTableRecord
100
AcDbBlockTableRecord
  2
*Model_Space
340
23
  0
BLOCK_RECORD
  5
1C
330
1
100
AcDbSymbolTableRecord
100
AcDbBlockTableRecord
  2
*Paper_Space
340
1F
  0
BLOCK_RECORD
  5
3A
330
1
100
AcDbSymbolTableRecord
100
AcDbBlockTableRecord
  2
SIEMENS_OUTLINE_BL0
340
0
102
{BLKREFS
331
10171
102
}
  0
BLOCK_RECORD
  5
10E23
330
1
100
AcDbSymbolTableRecord
100
AcDbBlockTableRecord
  2
*D19
340
0
  0
BLOCK_RECORD
  5
10E50
330
1
100
AcDbSymbolTableRecord
100
AcDbBlockTableRecord
  2
*D20
340
0
  0
BLOCK_RECORD
  5
10EB2
330
1
100
AcDbSymbolTableRecord
100
AcDbBlockTableRecord
  2
*D22
340
0
  0
BLOCK_RECORD
  5
10EFE
330
1
100
AcDbSymbolTableRecord
100
AcDbBlockTableRecord
  2
*D23
340
0
  0
BLOCK_RECORD
  5
10F14
330
1
100
AcDbSymbolTableRecord
100
AcDbBlockTableRecord
  2
*D24
340
0
  0
BLOCK_RECORD
  5
10F23
330
1
100
AcDbSymbolTableRecord
100
AcDbBlockTableRecord
  2
*D25
340
0
  0
BLOCK_RECORD
  5
10F30
330
1
100
AcDbSymbolTableRecord
100
AcDbBlockTableRecord
  2
*D26
340
0
  0
BLOCK_RECORD
  5
10FA5
330
1
100
AcDbSymbolTableRecord
100
AcDbBlockTableRecord
  2
*D27
340
0
  0
ENDTAB
  0
ENDSEC
  0
SECTION
  2
BLOCKS
  0
BLOCK
  5
21
330
20
100
AcDbEntity
  8
0
100
AcDbBlockBegin
  2
*Model_Space
 70
     0
 10
0.0
 20
0.0
 30
0.0
  3
*Model_Space
  1

  0
ENDBLK
  5
22
330
20
100
AcDbEntity
  8
0
100
AcDbBlockEnd
  0
BLOCK
  5
1D
330
1C
100
AcDbEntity
 67
     1
  8
0
100
AcDbBlockBegin
  2
*Paper_Space
 70
     0
 10
0.0
 20
0.0
 30
0.0
  3
*Paper_Space
  1

  0
ENDBLK
  5
1E
330
1C
100
AcDbEntity
 67
     1
  8
0
100
AcDbBlockEnd
  0
BLOCK
  5
3B
330
3A
100
AcDbEntity
  8
0
  6
Continuous
 62
     7
100
AcDbBlockBegin
  2
SIEMENS_OUTLINE_BL0
 70
     0
 10
0.0
 20
0.0
 30
0.0
  3
SIEMENS_OUTLINE_BL0
  1

  0
LINE
  5
3C
330
3A
100
AcDbEntity
  8
0
  6
Continuous
 62
     7
100
AcDbLine
 10
289.1235341257
 20
21.4969115175
 30
0.0
 11
289.1235341257
 21
16.7436424342
 31
0.0
  0
LINE
  5
3D
330
3A
100
AcDbEntity
  8
0
  6
Continuous
 62
     7
100
AcDbLine
 10
290.5495148507
 20
21.4969115175
 30
0.0
 11
290.5495148507
 21
16.7436424342
 31
0.0
  0
LINE
  5
3E
330
3A
100
AcDbEntity
  8
0
  6
Continuous
 62
     7
100
AcDbLine
 10
289.1235341257
 20
16.7436424342
 30
0.0
 11
290.5495148507
 21
16.7436424342
 31
0.0
  0
LINE
  5
3F
330
3A
100
AcDbEntity
  8
0
  6
Continuous
 62
     7
100
AcDbLine
 10
289.1235341257
 20
21.4969115175
 30
0.0
 11
290.5495148507
 21
21.4969115175
 31
0.0
  0
LINE
  5
40
330
3A
100
AcDbEntity
  8
0
  6
Continuous
 62
     7
100
AcDbLine
 10
291.6427667399
 20
21.4969115175
 30
0.0
 11
291.6427667399
 21
16.7436424342
 31
0.0
  0
LINE
  5
41
330
3A
100
AcDbEntity
  8
0
  6
Continuous
 62
     7
100
AcDbLine
 10
291.6427667399
 20
16.7436424342
 30
0.0
 11
295.2077185523
 21
16.7436424342
 31
0.0
  0
LINE
  5
42
330
3A
100
AcDbEntity
  8
0
  6
Continuous
 62
     7
100
AcDbLine
 10
295.2077185523
 20
17.64676356
 30
0.0
 11
293.021214774
 21
17.64676356
 31
0.0
  0
LINE
  5
43
330
3A
100
AcDbEntity
  8
0
  6
Continuous
 62
     7
100
AcDbLine
 10
295.2077185523
 20
17.64676356
 30
0.0
 11
295.2077185523
 21
16.7436424342
 31
0.0
  0
LINE
  5
44
330
3A
100
AcDbEntity
  8
0
  6
Continuous
 62
     7
100
AcDbLine
 10
295.1601858615
 20
21.4969115175
 30
0.0
 11
291.6427667399
 21
21.4969115175
 31
0.0
  0
LINE
  5
45
330
3A
100
AcDbEntity
  8
0
  6
Continuous
 62
     7
100
AcDbLine
 10
295.1601858615
 20
20.6175567371
 30
0.0
 11
293.021214774
 21
20.6175567371
 31
0.0
  0
LINE
  5
46
330
3A
100
AcDbEntity
  8
0
  6
Continuous
 62
     7
100
AcDbLine
 10
295.1601858615
 20
21.4969115175
 30
0.0
 11
295.1601858615
 21
20.6175567371
 31
0.0
  0
LINE
  5
47
330
3A
100
AcDbEntity
  8
0
  6
Continuous
 62
     7
100
AcDbLine
 10
294.8749897165
 20
18.7637817946
 30
0.0
 11
293.021214774
 21
18.7637817946
 31
0.0
  0
LINE
  5
48
330
3A
100
AcDbEntity
  8
0
  6
Continuous
 62
     7
100
AcDbLine
 10
294.8749897165
 20
19.5480711933
 30
0.0
 11
294.8749897165
 21
18.7637817946
 31
0.0
  0
LINE
  5
49
330
3A
100
AcDbEntity
  8
0
  6
Continuous
 62
     7
100
AcDbLine
 10
294.8749897165
 20
19.5480711933
 30
0.0
 11
293.021214774
 21
19.5480711933
 31
0.0
  0
LINE
  5
4A
330
3A
100
AcDbEntity
  8
0
  6
Continuous
 62
     7
100
AcDbLine
 10
293.021214774
 20
20.6175567371
 30
0.0
 11
293.021214774
 21
19.5480711933
 31
0.0
  0
LINE
  5
4B
330
3A
100
AcDbEntity
  8
0
  6
Continuous
 62
     7
100
AcDbLine
 10
293.021214774
 20
18.7637817946
 30
0.0
 11
293.021214774
 21
17.64676356
 31
0.0
  0
LINE
  5
4C
330
3A
100
AcDbEntity
  8
0
  6
Continuous
 62
     7
100
AcDbLine
 10
296.0157742965
 20
16.7436424342
 30
0.0
 11
296.0157742965
 21
21.4969115175
 31
0.0
  0
LINE
  5
4D
330
3A
100
AcDbEntity
  8
0
  6
Continuous
 62
     7
100
AcDbLine
 10
296.0157742965
 20
16.7436424342
 30
0.0
 11
296.9664281131
 21
16.7436424342
 31
0.0
  0
LINE
  5
4E
330
3A
100
AcDbEntity
  8
0
  6
Continuous
 62
     7
100
AcDbLine
 10
301.8622952689
 20
21.4969115175
 30
0.0
 11
301.8622952689
 21
16.7436424342
 31
0.0
  0
LINE
  5
4F
330
3A
100
AcDbEntity
  8
0
  6
Continuous
 62
     7
100
AcDbLine
 10
301.8622952689
 20
16.7436424342
 30
0.0
 11
300.4838472348
 21
16.7436424342
 31
0.0
  0
LINE
  5
50
330
3A
100
AcDbEntity
  8
0
  6
Continuous
 62
     7
100
AcDbLine
 10
298.2973434565
 20
16.6961097434
 30
0.0
 11
299.1529318914
 21
16.6961097434
 31
0.0
  0
LINE
  5
51
330
3A
100
AcDbEntity
  8
0
  6
Continuous
 62
     7
100
AcDbLine
 10
298.2973434565
 20
16.6961097434
 30
0.0
 11
296.9664281131
 21
19.7857346475
 31
0.0
  0
LINE
  5
52
330
3A
100
AcDbEntity
  8
0
  6
Continuous
 62
     7
100
AcDbLine
 10
296.9664281131
 20
16.7436424342
 30
0.0
 11
296.9664281131
 21
19.7857346475
 31
0.0
  0
LINE
  5
53
330
3A
100
AcDbEntity
  8
0
  6
Continuous
 62
     7
100
AcDbLine
 10
300.4838472348
 20
19.8332673383
 30
0.0
 11
299.1529318914
 21
16.6961097434
 31
0.0
  0
LINE
  5
54
330
3A
100
AcDbEntity
  8
0
  6
Continuous
 62
     7
100
AcDbLine
 10
297.7269511665
 20
21.4969115175
 30
0.0
 11
296.0157742965
 21
21.4969115175
 31
0.0
  0
LINE
  5
55
330
3A
100
AcDbEntity
  8
0
  6
Continuous
 62
     7
100
AcDbLine
 10
301.8622952689
 20
21.4969115175
 30
0.0
 11
300.1511183989
 21
21.4969115175
 31
0.0
  0
LINE
  5
56
330
3A
100
AcDbEntity
  8
0
  6
Continuous
 62
     7
100
AcDbLine
 10
297.7269511665
 20
21.4969115175
 30
0.0
 11
298.9628011281
 21
18.5974173767
 31
0.0
  0
LINE
  5
57
330
3A
100
AcDbEntity
  8
0
  6
Continuous
 62
     7
100
AcDbLine
 10
300.1511183989
 20
21.4969115175
 30
0.0
 11
298.9628011281
 21
18.5974173767
 31
0.0
  0
LINE
  5
58
330
3A
100
AcDbEntity
  8
0
  6
Continuous
 62
     7
100
AcDbLine
 10
300.4838472348
 20
19.8332673383
 30
0.0
 11
300.4838472348
 21
16.7436424342
 31
0.0
  0
LINE
  5
59
330
3A
100
AcDbEntity
  8
0
  6
Continuous
 62
     7
100
AcDbLine
 10
302.9555471581
 20
21.4969115175
 30
0.0
 11
302.9555471581
 21
16.7436424342
 31
0.0
  0
LINE
  5
5A
330
3A
100
AcDbEntity
  8
0
  6
Continuous
 62
     7
100
AcDbLine
 10
302.9555471581
 20
16.7436424342
 30
0.0
 11
306.5204989705
 21
16.7436424342
 31
0.0
  0
LINE
  5
5B
330
3A
100
AcDbEntity
  8
0
  6
Continuous
 62
     7
100
AcDbLine
 10
306.5204989705
 20
17.64676356
 30
0.0
 11
304.3339951922
 21
17.64676356
 31
0.0
  0
LINE
  5
5C
330
3A
100
AcDbEntity
  8
0
  6
Continuous
 62
     7
100
AcDbLine
 10
306.5204989705
 20
17.64676356
 30
0.0
 11
306.5204989705
 21
16.7436424342
 31
0.0
  0
LINE
  5
5D
330
3A
100
AcDbEntity
  8
0
  6
Continuous
 62
     7
100
AcDbLine
 10
306.4729662797
 20
21.4969115175
 30
0.0
 11
302.9555471581
 21
21.4969115175
 31
0.0
  0
LINE
  5
5E
330
3A
100
AcDbEntity
  8
0
  6
Continuous
 62
     7
100
AcDbLine
 10
306.4729662797
 20
20.6175567371
 30
0.0
 11
304.3339951922
 21
20.6175567371
 31
0.0
  0
LINE
  5
5F
330
3A
100
AcDbEntity
  8
0
  6
Continuous
 62
     7
100
AcDbLine
 10
306.4729662797
 20
21.4969115175
 30
0.0
 11
306.4729662797
 21
20.6175567371
 31
0.0
  0
LINE
  5
60
330
3A
100
AcDbEntity
  8
0
  6
Continuous
 62
     7
100
AcDbLine
 10
306.1877701347
 20
18.7637817946
 30
0.0
 11
304.3339951922
 21
18.7637817946
 31
0.0
  0
LINE
  5
61
330
3A
100
AcDbEntity
  8
0
  6
Continuous
 62
     7
100
AcDbLine
 10
306.1877701347
 20
19.5480711933
 30
0.0
 11
306.1877701347
 21
18.7637817946
 31
0.0
  0
LINE
  5
62
330
3A
100
AcDbEntity
  8
0
  6
Continuous
 62
     7
100
AcDbLine
 10
306.1877701347
 20
19.5480711933
 30
0.0
 11
304.3339951922
 21
19.5480711933
 31
0.0
  0
LINE
  5
63
330
3A
100
AcDbEntity
  8
0
  6
Continuous
 62
     7
100
AcDbLine
 10
304.3339951922
 20
20.6175567371
 30
0.0
 11
304.3339951922
 21
19.5480711933
 31
0.0
  0
LINE
  5
64
330
3A
100
AcDbEntity
  8
0
  6
Continuous
 62
     7
100
AcDbLine
 10
304.3339951922
 20
18.7637817946
 30
0.0
 11
304.3339951922
 21
17.64676356
 31
0.0
  0
LINE
  5
65
330
3A
100
AcDbEntity
  8
0
  6
Continuous
 62
     7
100
AcDbLine
 10
307.3047883693
 20
16.7436424342
 30
0.0
 11
307.3047883693
 21
21.4969115175
 31
0.0
  0
LINE
  5
66
330
3A
100
AcDbEntity
  8
0
  6
Continuous
 62
     7
100
AcDbLine
 10
311.4876651625
 20
21.4969115175
 30
0.0
 11
311.4876651625
 21
16.7436424342
 31
0.0
  0
LINE
  5
67
330
3A
100
AcDbEntity
  8
0
  6
Continuous
 62
     7
100
AcDbLine
 10
307.3047883693
 20
16.7436424342
 30
0.0
 11
308.2554421859
 21
16.7436424342
 31
0.0
  0
LINE
  5
68
330
3A
100
AcDbEntity
  8
0
  6
Continuous
 62
     7
100
AcDbLine
 10
311.4876651625
 20
21.4969115175
 30
0.0
 11
310.5370113459
 21
21.4969115175
 31
0.0
  0
LINE
  5
69
330
3A
100
AcDbEntity
  8
0
  6
Continuous
 62
     7
100
AcDbLine
 10
308.8496008213
 20
21.4969115175
 30
0.0
 11
307.3047883693
 21
21.4969115175
 31
0.0
  0
LINE
  5
6A
330
3A
100
AcDbEntity
  8
0
  6
Continuous
 62
     7
100
AcDbLine
 10
311.4876651625
 20
16.7436424342
 30
0.0
 11
309.9666190559
 21
16.7436424342
 31
0.0
  0
LINE
  5
6B
330
3A
100
AcDbEntity
  8
0
  6
Continuous
 62
     7
100
AcDbLine
 10
309.9666190559
 20
16.7436424342
 30
0.0
 11
308.2554421859
 21
19.7857346475
 31
0.0
  0
LINE
  5
6C
330
3A
100
AcDbEntity
  8
0
  6
Continuous
 62
     7
100
AcDbLine
 10
308.8496008213
 20
21.4969115175
 30
0.0
 11
310.5370113459
 21
18.5498846858
 31
0.0
  0
LINE
  5
6D
330
3A
100
AcDbEntity
  8
0
  6
Continuous
 62
     7
100
AcDbLine
 10
310.5370113459
 20
21.4969115175
 30
0.0
 11
310.5370113459
 21
18.5498846858
 31
0.0
  0
LINE
  5
6E
330
3A
100
AcDbEntity
  8
0
  6
Continuous
 62
     7
100
AcDbLine
 10
308.2554421859
 20
16.7436424342
 30
0.0
 11
308.2554421859
 21
19.7857346475
 31
0.0
  0
LINE
  5
6F
330
3A
100
AcDbEntity
  8
0
  6
Continuous
 62
     7
100
AcDbLine
 10
312.2957209067
 20
16.8387078159
 30
0.0
 11
312.2957209067
 21
17.7893616325
 31
0.0
  0
LINE
  5
70
330
3A
100
AcDbEntity
  8
0
  6
Continuous
 62
     7
100
AcDbLine
 10
315.623009265
 20
20.49872501
 30
0.0
 11
315.623009265
 21
21.4493788266
 31
0.0
  0
ARC
  5
71
330
3A
100
AcDbEntity
  8
0
  6
Continuous
 62
     7
100
AcDbCircle
 10
314.0003620317
 20
18.7008009792
 30
0.0
 40
1.111619360599997
100
AcDbArc
 50
277.7099956934
 51
295.6884927746
  0
ARC
  5
72
330
3A
100
AcDbEntity
  8
0
  6
Continuous
 62
     7
100
AcDbCircle
 10
314.2846720145
 20
17.9759752156
 30
0.0
 40
0.3401689265
100
AcDbArc
 50
305.503221255
 51
72.46528985229999
  0
ARC
  5
73
330
3A
100
AcDbEntity
  8
0
  6
Continuous
 62
     7
100
AcDbCircle
 10
313.7186782063
 20
21.3776821252
 30
0.0
 40
4.756794641099999
100
AcDbArc
 50
252.5939200548001
 51
280.9816604256
  0
ARC
  5
74
330
3A
100
AcDbEntity
  8
0
  6
Continuous
 62
     7
100
AcDbCircle
 10
314.1735135694
 20
18.7596683887
 30
0.0
 40
2.100726595299998
100
AcDbArc
 50
282.405835852
 51
311.8644433928
  0
ARC
  5
75
330
3A
100
AcDbEntity
  8
0
  6
Continuous
 62
     7
100
AcDbCircle
 10
313.8999492223
 20
20.3680101102
 30
0.0
 40
0.3029626476
100
AcDbArc
 50
154.4400348282
 51
221.8201698801
  0
ARC
  5
76
330
3A
100
AcDbEntity
  8
0
  6
Continuous
 62
     7
100
AcDbCircle
 10
313.9791703737
 20
20.2887889588
 30
0.0
 40
0.4103089737
100
AcDbArc
 50
102.8287828681
 51
149.2259639003
  0
ARC
  5
77
330
3A
100
AcDbEntity
  8
0
  6
Continuous
 62
     7
100
AcDbCircle
 10
314.3961972093
 20
18.546453629
 30
0.0
 40
2.201836557
100
AcDbArc
 50
84.0400061857
 51
103.3427657870999
  0
ARC
  5
78
330
3A
100
AcDbEntity
  8
0
  6
Continuous
 62
     7
100
AcDbCircle
 10
314.0552333846
 20
16.1290897051
 30
0.0
 40
4.642373736499997
100
AcDbArc
 50
70.2625858546
 51
82.95241863799999
  0
ARC
  5
79
330
3A
100
AcDbEntity
  8
0
  6
Continuous
 62
     7
100
AcDbCircle
 10
313.5412151824001
 20
20.8007125947
 30
0.0
 40
3.258755990899997
100
AcDbArc
 50
247.5300206145
 51
280.7579522143
  0
ARC
  5
7A
330
3A
100
AcDbEntity
  8
0
  6
Continuous
 62
     7
100
AcDbCircle
 10
307.1562487104
 20
2.5491926343
 30
0.0
 40
17.3316084133
100
AcDbArc
 50
65.34146746500001
 51
67.39977707359999
  0
ARC
  5
7B
330
3A
100
AcDbEntity
  8
0
  6
Continuous
 62
     7
100
AcDbCircle
 10
317.9521111158
 20
28.3416189974
 30
0.0
 40
10.6291642039
100
AcDbArc
 50
242.8620101252001
 51
247.1042029186
  0
ARC
  5
7C
330
3A
100
AcDbEntity
  8
0
  6
Continuous
 62
     7
100
AcDbCircle
 10
314.0972098893
 20
20.8076875004
 30
0.0
 40
2.166291629199998
100
AcDbArc
 50
227.3119280794
 51
242.7040315235
  0
ARC
  5
7D
330
3A
100
AcDbEntity
  8
0
  6
Continuous
 62
     7
100
AcDbCircle
 10
313.4931790796
 20
20.1020098596
 30
0.0
 40
1.238521734
100
AcDbArc
 50
194.7952194236
 51
225.7176549047
  0
ARC
  5
7E
330
3A
100
AcDbEntity
  8
0
  6
Continuous
 62
     7
100
AcDbCircle
 10
313.5553372138
 20
20.1422298287
 30
0.0
 40
1.309092072899999
100
AcDbArc
 50
164.1974860461
 51
195.8025139539
  0
ARC
  5
7F
330
3A
100
AcDbEntity
  8
0
  6
Continuous
 62
     7
100
AcDbCircle
 10
314.1123609345001
 20
19.2539626688
 30
0.0
 40
2.366924815299999
100
AcDbArc
 50
86.22180229280001
 51
120.4272602309
  0
ARC
  5
80
330
3A
100
AcDbEntity
  8
0
  6
Continuous
 62
     7
100
AcDbCircle
 10
313.8435041519
 20
12.5577948477
 30
0.0
 40
9.0679051661
100
AcDbArc
 50
78.68270492259998
 51
87.3147599624
  0
ARC
  5
81
330
3A
100
AcDbEntity
  8
0
  6
Continuous
 62
     7
100
AcDbCircle
 10
313.3874349735
 20
20.2497375912
 30
0.0
 40
1.119747444
100
AcDbArc
 50
142.813917903
 51
167.1522951417
  0
ARC
  5
82
330
3A
100
AcDbEntity
  8
0
  6
Continuous
 62
     7
100
AcDbCircle
 10
313.7327443151
 20
19.9431558946
 30
0.0
 40
1.580546684499998
100
AcDbArc
 50
121.2140948535
 51
141.5254768286
  0
ARC
  5
83
330
3A
100
AcDbEntity
  8
0
  6
Continuous
 62
     7
100
AcDbCircle
 10
314.3099186807
 20
20.7542132232
 30
0.0
 40
0.8661276051999998
100
AcDbArc
 50
222.7760387596
 51
239.0362434679
  0
ARC
  5
84
330
3A
100
AcDbEntity
  8
0
  6
Continuous
 62
     7
100
AcDbCircle
 10
311.8032091024
 20
13.4239410246
 30
0.0
 40
6.858773576299999
100
AcDbArc
 50
59.90202725600001
 51
68.2036481279
  0
ARC
  5
85
330
3A
100
AcDbEntity
  8
0
  6
Continuous
 62
     7
100
AcDbCircle
 10
315.2117035963
 20
22.3498275319
 30
0.0
 40
2.698741017099999
100
AcDbArc
 50
240.0481997804
 51
251.3779673736999
  0
ARC
  5
86
330
3A
100
AcDbEntity
  8
0
  6
Continuous
 62
     7
100
AcDbCircle
 10
314.5462464295
 20
18.1929289165
 30
0.0
 40
1.4334474881
100
AcDbArc
 50
315.8904553224
 51
333.5229264373
  0
ARC
  5
87
330
3A
100
AcDbEntity
  8
0
  6
Continuous
 62
     7
100
AcDbCircle
 10
314.5508846732
 20
18.1395217664
 30
0.0
 40
1.406228711899998
100
AcDbArc
 50
335.3867972702
 51
24.3915119402
  0
ARC
  5
88
330
3A
100
AcDbEntity
  8
0
  6
Continuous
 62
     7
100
AcDbCircle
 10
314.4786797697
 20
18.0616650746
 30
0.0
 40
1.504702514799999
100
AcDbArc
 50
25.95629166050001
 51
59.4834829668
  0
LINE
  5
89
330
3A
100
AcDbEntity
  8
0
  6
Continuous
 62
     7
100
AcDbLine
 10
284.7029938783
 20
16.8387078159
 30
0.0
 11
284.7029938783
 21
17.7893616325
 31
0.0
  0
LINE
  5
8A
330
3A
100
AcDbEntity
  8
0
  6
Continuous
 62
     7
100
AcDbLine
 10
288.0302822366
 20
20.49872501
 30
0.0
 11
288.0302822366
 21
21.4493788266
 31
0.0
  0
ARC
  5
8B
330
3A
100
AcDbEntity
  8
0
  6
Continuous
 62
     7
100
AcDbCircle
 10
286.4076350033
 20
18.7008009792
 30
0.0
 40
1.111619360599997
100
AcDbArc
 50
277.7099956934
 51
295.6884927746
  0
ARC
  5
8C
330
3A
100
AcDbEntity
  8
0
  6
Continuous
 62
     7
100
AcDbCircle
 10
286.691944986
 20
17.9759752156
 30
0.0
 40
0.3401689265
100
AcDbArc
 50
305.5032212556
 51
72.4652898515
  0
ARC
  5
8D
330
3A
100
AcDbEntity
  8
0
  6
Continuous
 62
     7
100
AcDbCircle
 10
286.1259511779
 20
21.3776821252
 30
0.0
 40
4.756794641099999
100
AcDbArc
 50
252.5939200545
 51
280.9816604253
  0
ARC
  5
8E
330
3A
100
AcDbEntity
  8
0
  6
Continuous
 62
     7
100
AcDbCircle
 10
286.580786541
 20
18.7596683887
 30
0.0
 40
2.100726595299998
100
AcDbArc
 50
282.4058358513
 51
311.8644433923
  0
ARC
  5
8F
330
3A
100
AcDbEntity
  8
0
  6
Continuous
 62
     7
100
AcDbCircle
 10
286.3072221939
 20
20.3680101102
 30
0.0
 40
0.3029626476
100
AcDbArc
 50
154.4400348282
 51
221.8201698801
  0
ARC
  5
90
330
3A
100
AcDbEntity
  8
0
  6
Continuous
 62
     7
100
AcDbCircle
 10
286.3864433453
 20
20.2887889588
 30
0.0
 40
0.4103089737
100
AcDbArc
 50
102.8287828727
 51
149.2259639027
  0
ARC
  5
91
330
3A
100
AcDbEntity
  8
0
  6
Continuous
 62
     7
100
AcDbCircle
 10
286.8034701809
 20
18.546453629
 30
0.0
 40
2.201836557
100
AcDbArc
 50
84.0400061859
 51
103.3427657872
  0
ARC
  5
92
330
3A
100
AcDbEntity
  8
0
  6
Continuous
 62
     7
100
AcDbCircle
 10
286.4625063562
 20
16.1290897051
 30
0.0
 40
4.642373736499997
100
AcDbArc
 50
70.2625858546
 51
82.9524186379
  0
ARC
  5
93
330
3A
100
AcDbEntity
  8
0
  6
Continuous
 62
     7
100
AcDbCircle
 10
285.948488154
 20
20.8007125947
 30
0.0
 40
3.258755990899997
100
AcDbArc
 50
247.5300206148
 51
280.7579522145
  0
ARC
  5
94
330
3A
100
AcDbEntity
  8
0
  6
Continuous
 62
     7
100
AcDbCircle
 10
279.563521682
 20
2.5491926343
 30
0.0
 40
17.3316084133
100
AcDbArc
 50
65.34146746500001
 51
67.39977707359999
  0
ARC
  5
95
330
3A
100
AcDbEntity
  8
0
  6
Continuous
 62
     7
100
AcDbCircle
 10
290.3593840874
 20
28.3416189974
 30
0.0
 40
10.6291642039
100
AcDbArc
 50
242.8620101252001
 51
247.1042029185
  0
ARC
  5
96
330
3A
100
AcDbEntity
  8
0
  6
Continuous
 62
     7
100
AcDbCircle
 10
286.5044828608
 20
20.8076875004
 30
0.0
 40
2.166291629199998
100
AcDbArc
 50
227.3119280794
 51
242.7040315235
  0
ARC
  5
97
330
3A
100
AcDbEntity
  8
0
  6
Continuous
 62
     7
100
AcDbCircle
 10
285.9004520512
 20
20.1020098596
 30
0.0
 40
1.238521734
100
AcDbArc
 50
194.7952194234
 51
225.7176549042
  0
ARC
  5
98
330
3A
100
AcDbEntity
  8
0
  6
Continuous
 62
     7
100
AcDbCircle
 10
286.519633906
 20
19.2539626688
 30
0.0
 40
2.366924815299999
100
AcDbArc
 50
86.22180229280001
 51
120.4272602309
  0
ARC
  5
99
330
3A
100
AcDbEntity
  8
0
  6
Continuous
 62
     7
100
AcDbCircle
 10
286.2507771235
 20
12.5577948477
 30
0.0
 40
9.0679051661
100
AcDbArc
 50
78.68270492259998
 51
87.3147599624
  0
ARC
  5
9A
330
3A
100
AcDbEntity
  8
0
  6
Continuous
 62
     7
100
AcDbCircle
 10
286.1400172867
 20
19.9431558946
 30
0.0
 40
1.580546684599998
100
AcDbArc
 50
121.2140948541
 51
141.525476829
  0
ARC
  5
9B
330
3A
100
AcDbEntity
  8
0
  6
Continuous
 62
     7
100
AcDbCircle
 10
286.7171916523
 20
20.7542132232
 30
0.0
 40
0.8661276051999998
100
AcDbArc
 50
222.7760387596
 51
239.0362434679
  0
ARC
  5
9C
330
3A
100
AcDbEntity
  8
0
  6
Continuous
 62
     7
100
AcDbCircle
 10
284.210482074
 20
13.4239410246
 30
0.0
 40
6.858773576299999
100
AcDbArc
 50
59.90202725620001
 51
68.20364812820002
  0
ARC
  5
9D
330
3A
100
AcDbEntity
  8
0
  6
Continuous
 62
     7
100
AcDbCircle
 10
287.6189765678
 20
22.3498275319
 30
0.0
 40
2.698741017099999
100
AcDbArc
 50
240.0481997804
 51
251.3779673734
  0
ARC
  5
9E
330
3A
100
AcDbEntity
  8
0
  6
Continuous
 62
     7
100
AcDbCircle
 10
286.953519401
 20
18.1929289165
 30
0.0
 40
1.4334474881
100
AcDbArc
 50
315.8904553226
 51
333.5229264375
  0
ARC
  5
9F
330
3A
100
AcDbEntity
  8
0
  6
Continuous
 62
     7
100
AcDbCircle
 10
286.9581576447
 20
18.1395217664
 30
0.0
 40
1.406228711899998
100
AcDbArc
 50
335.3867972703
 51
24.3915119403
  0
ARC
  5
A0
330
3A
100
AcDbEntity
  8
0
  6
Continuous
 62
     7
100
AcDbCircle
 10
286.8859527412
 20
18.0616650746
 30
0.0
 40
1.504702514699999
100
AcDbArc
 50
25.9562916611
 51
59.4834829676
  0
LINE
  5
A1
330
3A
100
AcDbEntity
  8
0
  6
Continuous
 62
     7
100
AcDbLine
 10
284.8948224676
 20
20.9161059766
 30
0.0
 11
285.1688882922
 21
21.1901790542
 31
0.0
  0
ARC
  5
A2
330
3A
100
AcDbEntity
  8
0
  6
Continuous
 62
     7
100
AcDbCircle
 10
285.9626101853
 20
20.1422298287
 30
0.0
 40
1.309092072899999
100
AcDbArc
 50
164.1974860461
 51
195.8025139539
  0
ARC
  5
A3
330
3A
100
AcDbEntity
  8
0
  6
Continuous
 62
     7
100
AcDbCircle
 10
285.7947079451
 20
20.2497375912
 30
0.0
 40
1.119747444
100
AcDbArc
 50
142.813917903
 51
167.1522951417
  0
ENDBLK
  5
A4
330
3A
100
AcDbEntity
  8
0
100
AcDbBlockEnd
  0
BLOCK
  5
10E2C
330
10E23
100
AcDbEntity
  8
0
100
AcDbBlockBegin
  2
*D19
 70
     1
 10
0.0
 20
0.0
 30
0.0
  3
*D19
  1

  0
LINE
  5
1101D
330
10E23
100
AcDbEntity
  8
30100_Drilling_Dim
  6
Continuous
370
    -2
100
AcDbLine
 10
158.488192788971
 20
759.7971355507825
 30
0.0
 11
159.3881737014085
 21
763.5795871016023
 31
0.0
  0
LINE
  5
1101E
330
10E23
100
AcDbEntity
  8
30100_Drilling_Dim
  6
Continuous
370
    -2
100
AcDbLine
 10
162.1658593653908
 20
775.2536807431703
 30
0.0
 11
162.9760176840523
 21
778.658624721961
 31
0.0
  0
MTEXT
  5
1101F
330
10E23
100
AcDbEntity
  8
30100_Drilling_Dim
  6
Continuous
 62
     7
370
    13
100
AcDbMText
 10
157.4658501487551
 20
755.5004205299275
 30
0.0
 40
3.5
 41
0.0
 71
     5
 72
     1
  1
\A1;\U+22055
 11
0.2314738053318639
 21
0.9728411367973633
 31
0.0
 73
     1
 44
1.0
1001
ACAD
1000
MTEXTBEGIN
1070
    73
1070
     1
1070
    44
1040
1.0
1070
    74
1070
     0
1000
MTEXTEND
  0
LINE
  5
11020
330
10E23
100
AcDbEntity
  8
30100_Drilling_Dim
  6
Continuous
370
    -2
100
AcDbLine
 10
161.3557010467293
 20
771.8487367643796
 30
0.0
 11
160.1983320200701
 21
766.9845310803932
 31
0.0
  0
SOLID
  5
11021
330
10E23
100
AcDbEntity
  8
30100_Drilling_Dim
  6
Continuous
100
AcDbTrace
 10
161.598368702259
 20
775.388707129614
 30
0.0
 11
162.7333500285226
 21
775.1186543567266
 31
0.0
 12
161.3557010467293
 22
771.8487367643796
 32
0.0
 13
161.3557010467293
 23
771.8487367643796
 33
0.0
  0
SOLID
  5
11022
330
10E23
100
AcDbEntity
  8
30100_Drilling_Dim
  6
Continuous
100
AcDbTrace
 10
158.8206830382766
 20
763.7146134880461
 30
0.0
 11
159.9556643645403
 21
763.4445607151587
 31
0.0
 12
160.1983320200701
 22
766.9845310803932
 32
0.0
 13
160.1983320200701
 23
766.9845310803932
 33
0.0
  0
POINT
  5
11023
330
10E23
100
AcDbEntity
  8
Defpoints
  6
Continuous
 62
     0
100
AcDbPoint
 10
160.1983320200701
 20
766.9845310803932
 30
0.0
  0
POINT
  5
11024
330
10E23
100
AcDbEntity
  8
Defpoints
  6
Continuous
 62
     0
100
AcDbPoint
 10
161.3557010467293
 20
771.8487367643796
 30
0.0
  0
ENDBLK
  5
10E2D
330
10E23
100
AcDbEntity
  8
0
100
AcDbBlockEnd
  0
BLOCK
  5
10E5B
330
10E50
100
AcDbEntity
  8
0
100
AcDbBlockBegin
  2
*D20
 70
     1
 10
0.0
 20
0.0
 30
0.0
  3
*D20
  1

  0
LINE
  5
11013
330
10E50
100
AcDbEntity
  8
30100_Drilling_Dim
  6
Continuous
 62
     7
370
    -2
100
AcDbLine
 10
80.7770165334
 20
771.9166339223862
 30
0.0
 11
80.7770165334
 21
780.7135737985562
 31
0.0
  0
LINE
  5
11014
330
10E50
100
AcDbEntity
  8
30100_Drilling_Dim
  6
Continuous
 62
     7
370
    -2
100
AcDbLine
 10
160.7770165333997
 20
771.9166339223862
 30
0.0
 11
160.7770165333997
 21
780.7135737985562
 31
0.0
  0
LINE
  5
11015
330
10E50
100
AcDbEntity
  8
30100_Drilling_Dim
  6
Continuous
370
    -2
100
AcDbLine
 10
84.27701653339999
 20
778.7135737985562
 30
0.0
 11
116.6520165333998
 21
778.7135737985562
 31
0.0
  0
LINE
  5
11016
330
10E50
100
AcDbEntity
  8
30100_Drilling_Dim
  6
Continuous
370
    -2
100
AcDbLine
 10
157.2770165333997
 20
778.7135737985562
 30
0.0
 11
124.9020165333998
 21
778.7135737985562
 31
0.0
  0
SOLID
  5
11017
330
10E50
100
AcDbEntity
  8
30100_Drilling_Dim
  6
Continuous
100
AcDbTrace
 10
84.27701653339999
 20
779.2969071318895
 30
0.0
 11
84.27701653339999
 21
778.130240465223
 31
0.0
 12
80.7770165334
 22
778.7135737985562
 32
0.0
 13
80.7770165334
 23
778.7135737985562
 33
0.0
  0
SOLID
  5
11018
330
10E50
100
AcDbEntity
  8
30100_Drilling_Dim
  6
Continuous
100
AcDbTrace
 10
157.2770165333997
 20
779.2969071318895
 30
0.0
 11
157.2770165333997
 21
778.130240465223
 31
0.0
 12
160.7770165333997
 22
778.7135737985562
 32
0.0
 13
160.7770165333997
 23
778.7135737985562
 33
0.0
  0
MTEXT
  5
11019
330
10E50
100
AcDbEntity
  8
30100_Drilling_Dim
  6
Continuous
 62
     7
370
    13
100
AcDbMText
 10
120.7770165333998
 20
778.7135737985562
 30
0.0
 40
3.5
 41
0.0
 71
     5
 72
     1
  1
\A1;80
 73
     1
 44
1.0
1001
ACAD
1000
MTEXTBEGIN
1070
    73
1070
     1
1070
    44
1040
1.0
1070
    74
1070
     0
1000
MTEXTEND
  0
POINT
  5
1101A
330
10E50
100
AcDbEntity
  8
Defpoints
  6
Continuous
 62
     0
100
AcDbPoint
 10
80.7770165334
 20
771.9166339223862
 30
0.0
  0
POINT
  5
1101B
330
10E50
100
AcDbEntity
  8
Defpoints
  6
Continuous
 62
     0
100
AcDbPoint
 10
160.7770165333997
 20
771.9166339223862
 30
0.0
  0
POINT
  5
1101C
330
10E50
100
AcDbEntity
  8
Defpoints
  6
Continuous
 62
     0
100
AcDbPoint
 10
160.7770165333997
 20
778.7135737985562
 30
0.0
  0
ENDBLK
  5
10E5C
330
10E50
100
AcDbEntity
  8
0
100
AcDbBlockEnd
  0
BLOCK
  5
10EBD
330
10EB2
100
AcDbEntity
  8
0
100
AcDbBlockBegin
  2
*D22
 70
     1
 10
0.0
 20
0.0
 30
0.0
  3
*D22
  1

  0
LINE
  5
11009
330
10EB2
100
AcDbEntity
  8
30100_Drilling_Dim
  6
Continuous
 62
     7
370
    -2
100
AcDbLine
 10
78.2770165334
 20
769.4166339223863
 30
0.0
 11
66.93711893588059
 21
769.4166339223863
 31
0.0
  0
LINE
  5
1100A
330
10EB2
100
AcDbEntity
  8
30100_Drilling_Dim
  6
Continuous
 62
     7
370
    -2
100
AcDbLine
 10
78.2770165334
 20
719.3166339223863
 30
0.0
 11
66.93711893588058
 21
719.3166339223863
 31
0.0
  0
LINE
  5
1100B
330
10EB2
100
AcDbEntity
  8
30100_Drilling_Dim
  6
Continuous
370
    -2
100
AcDbLine
 10
68.93711893588059
 20
765.9166339223863
 30
0.0
 11
68.93711893588059
 21
748.4916339223863
 31
0.0
  0
LINE
  5
1100C
330
10EB2
100
AcDbEntity
  8
30100_Drilling_Dim
  6
Continuous
370
    -2
100
AcDbLine
 10
68.93711893588058
 20
722.8166339223863
 30
0.0
 11
68.93711893588059
 21
740.2416339223862
 31
0.0
  0
SOLID
  5
1100D
330
10EB2
100
AcDbEntity
  8
30100_Drilling_Dim
  6
Continuous
100
AcDbTrace
 10
68.35378560254724
 20
765.9166339223863
 30
0.0
 11
69.52045226921391
 21
765.9166339223863
 31
0.0
 12
68.93711893588059
 22
769.4166339223863
 32
0.0
 13
68.93711893588059
 23
769.4166339223863
 33
0.0
  0
SOLID
  5
1100E
330
10EB2
100
AcDbEntity
  8
30100_Drilling_Dim
  6
Continuous
100
AcDbTrace
 10
68.35378560254724
 20
722.8166339223863
 30
0.0
 11
69.52045226921391
 21
722.8166339223863
 31
0.0
 12
68.93711893588058
 22
719.3166339223863
 32
0.0
 13
68.93711893588058
 23
719.3166339223863
 33
0.0
  0
MTEXT
  5
1100F
330
10EB2
100
AcDbEntity
  8
30100_Drilling_Dim
  6
Continuous
 62
     7
370
    13
100
AcDbMText
 10
68.93711893588046
 20
744.3666339223863
 30
0.0
 40
3.5
 41
0.0
 71
     5
 72
     1
  1
\A1;50
 11
0.0000000000000001
 21
1.0
 31
0.0
 73
     1
 44
1.0
1001
ACAD
1000
MTEXTBEGIN
1070
    73
1070
     1
1070
    44
1040
1.0
1070
    74
1070
     0
1000
MTEXTEND
  0
POINT
  5
11010
330
10EB2
100
AcDbEntity
  8
Defpoints
  6
Continuous
 62
     0
100
AcDbPoint
 10
78.2770165334
 20
769.4166339223863
 30
0.0
  0
POINT
  5
11011
330
10EB2
100
AcDbEntity
  8
Defpoints
  6
Continuous
 62
     0
100
AcDbPoint
 10
78.2770165334
 20
719.3166339223863
 30
0.0
  0
POINT
  5
11012
330
10EB2
100
AcDbEntity
  8
Defpoints
  6
Continuous
 62
     0
100
AcDbPoint
 10
68.93711893588058
 20
719.3166339223863
 30
0.0
  0
ENDBLK
  5
10EBE
330
10EB2
100
AcDbEntity
  8
0
100
AcDbBlockEnd
  0
BLOCK
  5
10F08
330
10EFE
100
AcDbEntity
  8
0
100
AcDbBlockBegin
  2
*D23
 70
     1
 10
0.0
 20
0.0
 30
0.0
  3
*D23
  1

  0
LINE
  5
10FFF
330
10EFE
100
AcDbEntity
  8
10100_FRONT_DIM
  6
Continuous
 62
     7
370
    -2
100
AcDbLine
 10
-159.6487286523232
 20
715.6093625576017
 30
0.0
 11
-159.6487286523232
 21
703.5347090239092
 31
0.0
  0
LINE
  5
11000
330
10EFE
100
AcDbEntity
  8
10100_FRONT_DIM
  6
Continuous
 62
     7
370
    -2
100
AcDbLine
 10
-69.64872865232326
 20
715.6093625576016
 30
0.0
 11
-69.64872865232326
 21
703.5347090239092
 31
0.0
  0
LINE
  5
11001
330
10EFE
100
AcDbEntity
  8
10100_FRONT_DIM
  6
Continuous
370
    -2
100
AcDbLine
 10
-156.1487286523232
 20
705.5347090239092
 30
0.0
 11
-118.7737286523232
 21
705.5347090239092
 31
0.0
  0
LINE
  5
11002
330
10EFE
100
AcDbEntity
  8
10100_FRONT_DIM
  6
Continuous
370
    -2
100
AcDbLine
 10
-73.14872865232327
 20
705.5347090239092
 30
0.0
 11
-110.5237286523232
 21
705.5347090239092
 31
0.0
  0
SOLID
  5
11003
330
10EFE
100
AcDbEntity
  8
10100_FRONT_DIM
  6
Continuous
100
AcDbTrace
 10
-156.1487286523232
 20
706.1180423572425
 30
0.0
 11
-156.1487286523232
 21
704.9513756905759
 31
0.0
 12
-159.6487286523232
 22
705.5347090239092
 32
0.0
 13
-159.6487286523232
 23
705.5347090239092
 33
0.0
  0
SOLID
  5
11004
330
10EFE
100
AcDbEntity
  8
10100_FRONT_DIM
  6
Continuous
100
AcDbTrace
 10
-73.14872865232327
 20
706.1180423572425
 30
0.0
 11
-73.14872865232327
 21
704.9513756905759
 31
0.0
 12
-69.64872865232326
 22
705.5347090239092
 32
0.0
 13
-69.64872865232326
 23
705.5347090239092
 33
0.0
  0
MTEXT
  5
11005
330
10EFE
100
AcDbEntity
  8
10100_FRONT_DIM
  6
Continuous
 62
     7
370
    13
100
AcDbMText
 10
-114.6487286523232
 20
705.5347090239092
 30
0.0
 40
3.5
 41
0.0
 71
     5
 72
     1
  1
\A1;90
 73
     1
 44
1.0
1001
ACAD
1000
MTEXTBEGIN
1070
    73
1070
     1
1070
    44
1040
1.0
1070
    74
1070
     0
1000
MTEXTEND
  0
POINT
  5
11006
330
10EFE
100
AcDbEntity
  8
Defpoints
  6
Continuous
 62
     0
100
AcDbPoint
 10
-159.6487286523232
 20
715.6093625576017
 30
0.0
  0
POINT
  5
11007
330
10EFE
100
AcDbEntity
  8
Defpoints
  6
Continuous
 62
     0
100
AcDbPoint
 10
-69.64872865232326
 20
715.6093625576016
 30
0.0
  0
POINT
  5
11008
330
10EFE
100
AcDbEntity
  8
Defpoints
  6
Continuous
 62
     0
100
AcDbPoint
 10
-69.64872865232326
 20
705.5347090239092
 30
0.0
  0
ENDBLK
  5
10F09
330
10EFE
100
AcDbEntity
  8
0
100
AcDbBlockEnd
  0
BLOCK
  5
10F20
330
10F14
100
AcDbEntity
  8
0
100
AcDbBlockBegin
  2
*D24
 70
     1
 10
0.0
 20
0.0
 30
0.0
  3
*D24
  1

  0
LINE
  5
10FF7
330
10F14
100
AcDbEntity
  8
11100_LEFT_DIM
  6
Continuous
 62
     7
370
    -2
100
AcDbLine
 10
-29.58827411574688
 20
715.617033922386
 30
0.0
 11
-29.58827411574688
 21
703.909033922386
 31
0.0
  0
LINE
  5
10FF8
330
10F14
100
AcDbEntity
  8
11100_LEFT_DIM
  6
Continuous
 62
     7
370
    -2
100
AcDbLine
 10
-24.58827411574688
 20
724.8666339223863
 30
0.0
 11
-24.58827411574688
 21
703.909033922386
 31
0.0
  0
LINE
  5
10FF9
330
10F14
100
AcDbEntity
  8
11100_LEFT_DIM
  6
Continuous
370
    -2
100
AcDbLine
 10
-36.58827411574689
 20
705.9090339223859
 30
0.0
 11
-33.08827411574688
 21
705.9090339223859
 31
0.0
  0
MTEXT
  5
10FFA
330
10F14
100
AcDbEntity
  8
11100_LEFT_DIM
  6
Continuous
 62
     7
370
    13
100
AcDbMText
 10
-27.08827411574688
 20
705.9090339223859
 30
0.0
 40
3.5
 41
0.0
 71
     5
 72
     1
  1
\A1;5
 73
     1
 44
1.0
1001
ACAD
1000
MTEXTBEGIN
1070
    73
1070
     1
1070
    44
1040
1.0
1070
    74
1070
     0
1000
MTEXTEND
  0
SOLID
  5
10FFB
330
10F14
100
AcDbEntity
  8
11100_LEFT_DIM
  6
Continuous
100
AcDbTrace
 10
-33.08827411574688
 20
706.4923672557192
 30
0.0
 11
-33.08827411574688
 21
705.3257005890525
 31
0.0
 12
-29.58827411574688
 22
705.9090339223859
 32
0.0
 13
-29.58827411574688
 23
705.9090339223859
 33
0.0
  0
POINT
  5
10FFC
330
10F14
100
AcDbEntity
  8
Defpoints
  6
Continuous
 62
     0
100
AcDbPoint
 10
-29.58827411574688
 20
715.617033922386
 30
0.0
  0
POINT
  5
10FFD
330
10F14
100
AcDbEntity
  8
Defpoints
  6
Continuous
 62
     0
100
AcDbPoint
 10
-24.58827411574688
 20
724.8666339223863
 30
0.0
  0
POINT
  5
10FFE
330
10F14
100
AcDbEntity
  8
Defpoints
  6
Continuous
 62
     0
100
AcDbPoint
 10
-24.58827411574688
 20
705.9090339223859
 30
0.0
  0
ENDBLK
  5
10F21
330
10F14
100
AcDbEntity
  8
0
100
AcDbBlockEnd
  0
BLOCK
  5
10F2D
330
10F23
100
AcDbEntity
  8
0
100
AcDbBlockBegin
  2
*D25
 70
     1
 10
0.0
 20
0.0
 30
0.0
  3
*D25
  1

  0
LINE
  5
10FED
330
10F23
100
AcDbEntity
  8
11100_LEFT_DIM
  6
Continuous
 62
     7
370
    -2
100
AcDbLine
 10
-24.58827411574688
 20
715.6166339223863
 30
0.0
 11
-24.58827411574688
 21
703.909033922386
 31
0.0
  0
LINE
  5
10FEE
330
10F23
100
AcDbEntity
  8
11100_LEFT_DIM
  6
Continuous
 62
     7
370
    -2
100
AcDbLine
 10
26.51172588425314
 20
716.9170339223858
 30
0.0
 11
26.51172588425314
 21
703.909033922386
 31
0.0
  0
LINE
  5
10FEF
330
10F23
100
AcDbEntity
  8
11100_LEFT_DIM
  6
Continuous
370
    -2
100
AcDbLine
 10
-21.08827411574688
 20
705.9090339223859
 30
0.0
 11
-2.871607449080205
 21
705.9090339223859
 31
0.0
  0
LINE
  5
10FF0
330
10F23
100
AcDbEntity
  8
11100_LEFT_DIM
  6
Continuous
370
    -2
100
AcDbLine
 10
23.01172588425314
 20
705.9090339223859
 30
0.0
 11
4.79505921758646
 21
705.9090339223859
 31
0.0
  0
SOLID
  5
10FF1
330
10F23
100
AcDbEntity
  8
11100_LEFT_DIM
  6
Continuous
100
AcDbTrace
 10
-21.08827411574688
 20
706.4923672557192
 30
0.0
 11
-21.08827411574688
 21
705.3257005890525
 31
0.0
 12
-24.58827411574688
 22
705.9090339223859
 32
0.0
 13
-24.58827411574688
 23
705.9090339223859
 33
0.0
  0
SOLID
  5
10FF2
330
10F23
100
AcDbEntity
  8
11100_LEFT_DIM
  6
Continuous
100
AcDbTrace
 10
23.01172588425314
 20
706.4923672557192
 30
0.0
 11
23.01172588425314
 21
705.3257005890525
 31
0.0
 12
26.51172588425314
 22
705.9090339223859
 32
0.0
 13
26.51172588425314
 23
705.9090339223859
 33
0.0
  0
MTEXT
  5
10FF3
330
10F23
100
AcDbEntity
  8
11100_LEFT_DIM
  6
Continuous
 62
     7
370
    13
100
AcDbMText
 10
0.9617258842531272
 20
705.9090339223859
 30
0.0
 40
3.5
 41
0.0
 71
     5
 72
     1
  1
\A1;51
 73
     1
 44
1.0
1001
ACAD
1000
MTEXTBEGIN
1070
    73
1070
     1
1070
    44
1040
1.0
1070
    74
1070
     0
1000
MTEXTEND
  0
POINT
  5
10FF4
330
10F23
100
AcDbEntity
  8
Defpoints
  6
Continuous
 62
     0
100
AcDbPoint
 10
-24.58827411574688
 20
715.6166339223863
 30
0.0
  0
POINT
  5
10FF5
330
10F23
100
AcDbEntity
  8
Defpoints
  6
Continuous
 62
     0
100
AcDbPoint
 10
26.51172588425314
 20
716.9170339223858
 30
0.0
  0
POINT
  5
10FF6
330
10F23
100
AcDbEntity
  8
Defpoints
  6
Continuous
 62
     0
100
AcDbPoint
 10
26.51172588425314
 20
705.9090339223859
 30
0.0
  0
ENDBLK
  5
10F2E
330
10F23
100
AcDbEntity
  8
0
100
AcDbBlockEnd
  0
BLOCK
  5
10F3A
330
10F30
100
AcDbEntity
  8
0
100
AcDbBlockBegin
  2
*D26
 70
     1
 10
0.0
 20
0.0
 30
0.0
  3
*D26
  1

  0
LINE
  5
10FE3
330
10F30
100
AcDbEntity
  8
11100_LEFT_DIM
  6
Continuous
 62
     7
370
    -2
100
AcDbLine
 10
-24.58827411574688
 20
715.6166339223863
 30
0.0
 11
-24.58827411574688
 21
697.7050563672297
 31
0.0
  0
LINE
  5
10FE4
330
10F30
100
AcDbEntity
  8
11100_LEFT_DIM
  6
Continuous
 62
     7
370
    -2
100
AcDbLine
 10
42.91172588425309
 20
731.4166339223862
 30
0.0
 11
42.91172588425309
 21
697.7050563672297
 31
0.0
  0
LINE
  5
10FE5
330
10F30
100
AcDbEntity
  8
11100_LEFT_DIM
  6
Continuous
370
    -2
100
AcDbLine
 10
-21.08827411574688
 20
699.7050563672297
 30
0.0
 11
4.745059217586439
 21
699.7050563672297
 31
0.0
  0
LINE
  5
10FE6
330
10F30
100
AcDbEntity
  8
11100_LEFT_DIM
  6
Continuous
370
    -2
100
AcDbLine
 10
39.4117258842531
 20
699.7050563672297
 30
0.0
 11
13.57839255091977
 21
699.7050563672297
 31
0.0
  0
SOLID
  5
10FE7
330
10F30
100
AcDbEntity
  8
11100_LEFT_DIM
  6
Continuous
100
AcDbTrace
 10
-21.08827411574688
 20
700.288389700563
 30
0.0
 11
-21.08827411574688
 21
699.1217230338961
 31
0.0
 12
-24.58827411574688
 22
699.7050563672297
 32
0.0
 13
-24.58827411574688
 23
699.7050563672297
 33
0.0
  0
SOLID
  5
10FE8
330
10F30
100
AcDbEntity
  8
11100_LEFT_DIM
  6
Continuous
100
AcDbTrace
 10
39.4117258842531
 20
700.288389700563
 30
0.0
 11
39.4117258842531
 21
699.1217230338961
 31
0.0
 12
42.91172588425309
 22
699.7050563672297
 32
0.0
 13
42.91172588425309
 23
699.7050563672297
 33
0.0
  0
MTEXT
  5
10FE9
330
10F30
100
AcDbEntity
  8
11100_LEFT_DIM
  6
Continuous
 62
     7
370
    13
100
AcDbMText
 10
9.161725884253103
 20
699.7050563672297
 30
0.0
 40
3.5
 41
0.0
 71
     5
 72
     1
  1
\A1;67
 73
     1
 44
1.0
1001
ACAD
1000
MTEXTBEGIN
1070
    73
1070
     1
1070
    44
1040
1.0
1070
    74
1070
     0
1000
MTEXTEND
  0
POINT
  5
10FEA
330
10F30
100
AcDbEntity
  8
Defpoints
  6
Continuous
 62
     0
100
AcDbPoint
 10
-24.58827411574688
 20
715.6166339223863
 30
0.0
  0
POINT
  5
10FEB
330
10F30
100
AcDbEntity
  8
Defpoints
  6
Continuous
 62
     0
100
AcDbPoint
 10
42.91172588425309
 20
731.4166339223862
 30
0.0
  0
POINT
  5
10FEC
330
10F30
100
AcDbEntity
  8
Defpoints
  6
Continuous
 62
     0
100
AcDbPoint
 10
42.91172588425309
 20
699.7050563672297
 30
0.0
  0
ENDBLK
  5
10F3B
330
10F30
100
AcDbEntity
  8
0
100
AcDbBlockEnd
  0
BLOCK
  5
10FAF
330
10FA5
100
AcDbEntity
  8
0
100
AcDbBlockBegin
  2
*D27
 70
     1
 10
0.0
 20
0.0
 30
0.0
  3
*D27
  1

  0
LINE
  5
10FD9
330
10FA5
100
AcDbEntity
  8
10100_FRONT_DIM
  6
Continuous
 62
     7
370
    -2
100
AcDbLine
 10
-83.14872865232327
 20
780.3666339223862
 30
0.0
 11
-59.04822764994239
 21
780.3666339223862
 31
0.0
  0
LINE
  5
10FDA
330
10FA5
100
AcDbEntity
  8
10100_FRONT_DIM
  6
Continuous
 62
     7
370
    -2
100
AcDbLine
 10
-76.39872865232327
 20
712.8666339223862
 30
0.0
 11
-59.04822764994242
 21
712.8666339223862
 31
0.0
  0
LINE
  5
10FDB
330
10FA5
100
AcDbEntity
  8
10100_FRONT_DIM
  6
Continuous
370
    -2
100
AcDbLine
 10
-61.04822764994239
 20
776.8666339223863
 30
0.0
 11
-61.0482276499424
 21
751.0333005890527
 31
0.0
  0
LINE
  5
10FDC
330
10FA5
100
AcDbEntity
  8
10100_FRONT_DIM
  6
Continuous
370
    -2
100
AcDbLine
 10
-61.04822764994242
 20
716.3666339223859
 30
0.0
 11
-61.0482276499424
 21
742.1999672557196
 31
0.0
  0
SOLID
  5
10FDD
330
10FA5
100
AcDbEntity
  8
10100_FRONT_DIM
  6
Continuous
100
AcDbTrace
 10
-61.63156098327574
 20
776.8666339223863
 30
0.0
 11
-60.46489431660907
 21
776.8666339223863
 31
0.0
 12
-61.04822764994239
 22
780.3666339223862
 32
0.0
 13
-61.04822764994239
 23
780.3666339223862
 33
0.0
  0
SOLID
  5
10FDE
330
10FA5
100
AcDbEntity
  8
10100_FRONT_DIM
  6
Continuous
100
AcDbTrace
 10
-61.63156098327576
 20
716.3666339223859
 30
0.0
 11
-60.46489431660909
 21
716.3666339223859
 31
0.0
 12
-61.04822764994242
 22
712.8666339223862
 32
0.0
 13
-61.04822764994242
 23
712.8666339223862
 33
0.0
  0
MTEXT
  5
10FDF
330
10FA5
100
AcDbEntity
  8
10100_FRONT_DIM
  6
Continuous
 62
     7
370
    13
100
AcDbMText
 10
-61.04822764994253
 20
746.6166339223861
 30
0.0
 40
3.5
 41
0.0
 71
     5
 72
     1
  1
\A1;68
 11
0.0000000000000001
 21
1.0
 31
0.0
 73
     1
 44
1.0
1001
ACAD
1000
MTEXTBEGIN
1070
    73
1070
     1
1070
    44
1040
1.0
1070
    74
1070
     0
1000
MTEXTEND
  0
POINT
  5
10FE0
330
10FA5
100
AcDbEntity
  8
Defpoints
  6
Continuous
 62
     0
100
AcDbPoint
 10
-83.14872865232327
 20
780.3666339223862
 30
0.0
  0
POINT
  5
10FE1
330
10FA5
100
AcDbEntity
  8
Defpoints
  6
Continuous
 62
     0
100
AcDbPoint
 10
-76.39872865232327
 20
712.8666339223862
 30
0.0
  0
POINT
  5
10FE2
330
10FA5
100
AcDbEntity
  8
Defpoints
  6
Continuous
 62
     0
100
AcDbPoint
 10
-61.04822764994242
 20
712.8666339223862
 30
0.0
  0
ENDBLK
  5
10FB0
330
10FA5
100
AcDbEntity
  8
0
100
AcDbBlockEnd
  0
ENDSEC
  0
SECTION
  2
ENTITIES
  0
LINE
  5
10170
330
20
100
AcDbEntity
  8
90000_FRAME
  6
Continuous
 62
     7
100
AcDbLine
 10
218.8820698605832
 20
570.2733863911044
 30
0.0
 11
218.8820698605832
 21
840.2733863911043
 31
0.0
  0
INSERT
  5
10171
330
20
100
AcDbEntity
  8
90000_FRAME
  6
Continuous
 62
     7
100
AcDbBlockReference
  2
SIEMENS_OUTLINE_BL0
 10
-201.1179301394176
 20
570.2733863911044
 30
0.0
  0
LINE
  5
10172
330
20
100
AcDbEntity
  8
90000_FRAME
  6
Continuous
 62
     7
100
AcDbLine
 10
73.88206986058229
 20
580.2733863911043
 30
0.0
 11
208.8820698605825
 21
580.2733863911043
 31
0.0
  0
LINE
  5
10173
330
20
100
AcDbEntity
  8
90000_FRAME
  6
Continuous
 62
     7
100
AcDbLine
 10
73.88206986058229
 20
580.2733863911043
 30
0.0
 11
73.88206986058229
 21
598.2733863911042
 31
0.0
  0
LINE
  5
10174
330
20
100
AcDbEntity
  8
90000_FRAME
  6
Continuous
 62
     7
100
AcDbLine
 10
123.8820698605824
 20
586.2733863911045
 30
0.0
 11
208.8820698605825
 21
586.2733863911045
 31
0.0
  0
LINE
  5
10175
330
20
100
AcDbEntity
  8
90000_FRAME
  6
Continuous
 62
     7
100
AcDbLine
 10
73.88206986058229
 20
598.2733863911042
 30
0.0
 11
208.8820698605825
 21
598.2733863911042
 31
0.0
  0
LINE
  5
10176
330
20
100
AcDbEntity
  8
90000_FRAME
  6
Continuous
 62
     7
100
AcDbLine
 10
123.8820698605824
 20
580.2733863911043
 30
0.0
 11
123.8820698605824
 21
598.2733863911042
 31
0.0
  0
LINE
  5
10177
330
20
100
AcDbEntity
  8
90000_FRAME
  6
Continuous
 62
     7
100
AcDbLine
 10
166.3820698605825
 20
580.2733863911043
 30
0.0
 11
166.3820698605825
 21
586.2733863911045
 31
0.0
  0
LINE
  5
10178
330
20
100
AcDbEntity
  8
90000_FRAME
  6
Continuous
 62
     7
100
AcDbLine
 10
208.8820698605825
 20
580.2733863911043
 30
0.0
 11
208.8820698605825
 21
598.2733863911042
 31
0.0
  0
TEXT
  5
10179
330
20
100
AcDbEntity
  8
90000_FRAME
  6
Continuous
 62
     7
100
AcDbText
 10
124.5420698605824
 20
582.1733863911044
 30
0.0
 40
2.2
  1
Format / Size: DIN A3
 41
0.7994987468660259
 72
     5
 11
157.9611174795823
 21
582.1733863911044
 31
0.0
100
AcDbText
  0
TEXT
  5
1017A
330
20
100
AcDbEntity
  8
90000_FRAME
  6
Continuous
 62
     7
100
AcDbText
 10
167.0420698605826
 20
582.1733863911044
 30
0.0
 40
2.2
  1
Massstab / Scale: 1:1
 41
0.7732634338148439
 72
     5
 11
197.9468317653825
 21
582.1733863911044
 31
0.0
100
AcDbText
  0
LINE
  5
1017B
330
20
100
AcDbEntity
  8
91000_TIP
  6
Continuous
 62
     7
100
AcDbLine
 10
48.69673996460836
 20
591.597123913475
 30
0.0
 11
58.6967397604085
 21
594.0971238624747
 31
0.0
  0
LINE
  5
1017C
330
20
100
AcDbEntity
  8
91000_TIP
  6
CENTER
 62
     7
100
AcDbLine
 10
47.41722949260736
 20
589.0971239645747
 30
0.0
 11
71.01921875670734
 21
589.0971239645747
 31
0.0
  0
LINE
  5
1017D
330
20
100
AcDbEntity
  8
91000_TIP
  6
Continuous
 62
     7
100
AcDbLine
 10
48.69673996460836
 20
586.5971240156749
 30
0.0
 11
58.6967397604085
 21
584.0971240666747
 31
0.0
  0
LINE
  5
1017E
330
20
100
AcDbEntity
  8
91000_TIP
  6
Continuous
 62
     7
100
AcDbLine
 10
48.69673996460836
 20
591.597123913475
 30
0.0
 11
48.69673996460836
 21
586.5971240156749
 31
0.0
  0
LINE
  5
1017F
330
20
100
AcDbEntity
  8
91000_TIP
  6
Continuous
 62
     7
100
AcDbLine
 10
58.6967397604085
 20
594.0971238624747
 30
0.0
 11
58.6967397604085
 21
584.0971240666747
 31
0.0
  0
LINE
  5
10180
330
20
100
AcDbEntity
  8
91000_TIP
  6
CENTER
 62
     7
100
AcDbLine
 10
65.19673962760839
 20
583.3756427581747
 30
0.0
 11
65.19673962760839
 21
594.6590287581749
 31
0.0
  0
CIRCLE
  5
10181
330
20
100
AcDbEntity
  8
91000_TIP
  6
Continuous
 62
     7
100
AcDbCircle
 10
65.19673962760839
 20
589.0971239645747
 30
0.0
 40
4.9999998979
  0
CIRCLE
  5
10182
330
20
100
AcDbEntity
  8
91000_TIP
  6
Continuous
 62
     7
100
AcDbCircle
 10
65.19673962760839
 20
589.0971239645747
 30
0.0
 40
2.499999948899997
  0
TEXT
  5
10183
330
20
100
AcDbEntity
  8
90000_FRAME
  6
Continuous
 62
     7
370
    20
100
AcDbText
 39
0.7
 10
137.1879943845332
 20
590.5233863911043
 30
0.0
 40
3.5
  1
3RA1317_00000219_000_ALL
 41
0.748823751149772
 72
     5
 11
193.1001678037162
 21
590.5233863911043
 31
0.0
100
AcDbText
  0
LINE
  5
10184
330
20
100
AcDbEntity
  8
90000_FRAME
  6
Continuous
 62
     7
100
AcDbLine
 10
-191.1179301394168
 20
570.2733863911044
 30
0.0
 11
218.8820698605832
 21
570.2733863911044
 31
0.0
  0
LINE
  5
10185
330
20
100
AcDbEntity
  8
90000_FRAME
  6
Continuous
 62
     7
100
AcDbLine
 10
208.8820698605825
 20
580.2733863911043
 30
0.0
 11
208.8820698605825
 21
598.2733863911042
 31
0.0
  0
TEXT
  5
10186
330
20
100
AcDbEntity
  8
91000_TIP
  6
Continuous
 62
     7
100
AcDbText
 10
-184.1263053069353
 20
573.7556230127811
 30
0.0
 40
2.5
  1
All dimensions are in millimeters (mm).
 41
0.7513350295680248
 72
     5
 11
-124.0195029414933
 21
573.7556230127811
 31
0.0
100
AcDbText
  0
TEXT
  5
10187
330
20
100
AcDbEntity
  8
91000_TIP
  6
Continuous
 62
     7
100
AcDbText
 10
-184.1263053069353
 20
579.0056230127808
 30
0.0
 40
2.5
  1
Alle Bemassungswerte sind in Millimeter (mm) angegeben.
 41
0.6056311217924545
 72
     5
 11
-110.4411854888532
 21
579.0056230127808
 31
0.0
100
AcDbText
  0
LINE
  5
10188
330
20
100
AcDbEntity
  8
90000_FRAME
  6
Continuous
 62
     7
100
AcDbLine
 10
-191.1179301394168
 20
570.2733863911044
 30
0.0
 11
-191.1179301394168
 21
840.2733863911043
 31
0.0
  0
LINE
  5
10189
330
20
100
AcDbEntity
  8
90000_FRAME
  6
Continuous
 62
     7
100
AcDbLine
 10
-191.1179301394168
 20
840.2733863911043
 30
0.0
 11
218.8820698605832
 21
840.2733863911043
 31
0.0
  0
LINE
  5
10ADE
330
20
100
AcDbEntity
  8
10000_FRONT
  6
Continuous
 62
     7
370
    50
100
AcDbLine
 39
0.7
 10
-141.1987286523233
 20
780.3666339223862
 30
0.0
 11
-83.14872865232327
 21
780.3666339223862
 31
0.0
1001
AUSTER_ANSICHT
1002
{
1000
Det03
1002
}
1001
AUSTER_FOLIE
1002
{
1000
S00_W_VERDRAHTUNGSBAUSATZ
1002
}
  0
LINE
  5
10AE0
330
20
100
AcDbEntity
  8
10000_FRONT
  6
Continuous
 62
     7
370
    20
100
AcDbLine
 39
0.25
 10
-121.0488116523232
 20
754.2666339223861
 30
0.0
 11
-119.1488086523232
 21
754.2666339223861
 31
0.0
1001
AUSTER_ANSICHT
1002
{
1000
Det03
1002
}
1001
AUSTER_FOLIE
1002
{
1000
S00_W_VERDRAHTUNGSBAUSATZ
1002
}
  0
LINE
  5
10AE1
330
20
100
AcDbEntity
  8
10000_FRONT
  6
Continuous
 62
     7
370
    20
100
AcDbLine
 39
0.25
 10
-119.1488086523232
 20
752.7666339223863
 30
0.0
 11
-121.0488116523232
 21
752.7666339223863
 31
0.0
1001
AUSTER_ANSICHT
1002
{
1000
Det03
1002
}
1001
AUSTER_FOLIE
1002
{
1000
S00_W_VERDRAHTUNGSBAUSATZ
1002
}
  0
LINE
  5
10AE2
330
20
100
AcDbEntity
  8
10000_FRONT
  6
Continuous
 62
     7
370
    20
100
AcDbLine
 39
0.25
 10
-121.0488116523232
 20
734.4666339223863
 30
0.0
 11
-119.1488086523232
 21
734.4666339223863
 31
0.0
1001
AUSTER_ANSICHT
1002
{
1000
Det03
1002
}
1001
AUSTER_FOLIE
1002
{
1000
S00_W_VERDRAHTUNGSBAUSATZ
1002
}
  0
LINE
  5
10AE3
330
20
100
AcDbEntity
  8
10000_FRONT
  6
Continuous
 62
     7
370
    20
100
AcDbLine
 39
0.25
 10
-119.1488086523232
 20
735.9666339223863
 30
0.0
 11
-121.0488116523232
 21
735.9666339223863
 31
0.0
1001
AUSTER_ANSICHT
1002
{
1000
Det03
1002
}
1001
AUSTER_FOLIE
1002
{
1000
S00_W_VERDRAHTUNGSBAUSATZ
1002
}
  0
LINE
  5
10AE4
330
20
100
AcDbEntity
  8
10000_FRONT
  6
Continuous
 62
     7
370
    20
100
AcDbLine
 39
0.25
 10
-116.8488086523232
 20
748.0166339223861
 30
0.0
 11
-121.0488116523232
 21
748.0166339223861
 31
0.0
1001
AUSTER_ANSICHT
1002
{
1000
Det03
1002
}
1001
AUSTER_FOLIE
1002
{
1000
S00_W_VERDRAHTUNGSBAUSATZ
1002
}
  0
LINE
  5
10AE5
330
20
100
AcDbEntity
  8
10000_FRONT
  6
Continuous
 62
     7
370
    20
100
AcDbLine
 39
0.25
 10
-116.8488086523232
 20
740.7166339223863
 30
0.0
 11
-121.0488116523232
 21
740.7166339223863
 31
0.0
1001
AUSTER_ANSICHT
1002
{
1000
Det03
1002
}
1001
AUSTER_FOLIE
1002
{
1000
S00_W_VERDRAHTUNGSBAUSATZ
1002
}
  0
LINE
  5
10AE6
330
20
100
AcDbEntity
  8
10000_FRONT
  6
Continuous
 62
     7
370
    20
100
AcDbLine
 39
0.25
 10
-121.0488116523232
 20
749.4666339223863
 30
0.0
 11
-116.8488086523232
 21
749.4666339223863
 31
0.0
1001
AUSTER_ANSICHT
1002
{
1000
Det03
1002
}
1001
AUSTER_FOLIE
1002
{
1000
S00_W_VERDRAHTUNGSBAUSATZ
1002
}
  0
LINE
  5
10AE7
330
20
100
AcDbEntity
  8
10000_FRONT
  6
Continuous
 62
     7
370
    20
100
AcDbLine
 39
0.25
 10
-121.0488116523232
 20
739.2666339223863
 30
0.0
 11
-116.8488086523232
 21
739.2666339223863
 31
0.0
1001
AUSTER_ANSICHT
1002
{
1000
Det03
1002
}
1001
AUSTER_FOLIE
1002
{
1000
S00_W_VERDRAHTUNGSBAUSATZ
1002
}
  0
LINE
  5
10AE8
330
20
100
AcDbEntity
  8
10000_FRONT
  6
Continuous
 62
     7
370
    20
100
AcDbLine
 39
0.25
 10
-159.6487286523232
 20
771.8666339223863
 30
0.0
 11
-158.3987286523232
 21
771.8666339223863
 31
0.0
1001
AUSTER_ANSICHT
1002
{
1000
Det03
1002
}
1001
AUSTER_FOLIE
1002
{
1000
S00_W_VERDRAHTUNGSBAUSATZ
1002
}
  0
LINE
  5
10AE9
330
20
100
AcDbEntity
  8
10000_FRONT
  6
Continuous
 62
     7
370
    20
100
AcDbLine
 39
0.25
 10
-114.6487286523232
 20
716.8666339223863
 30
0.0
 11
-159.3987286523232
 21
716.8666339223863
 31
0.0
1001
AUSTER_ANSICHT
1002
{
1000
Det03
1002
}
1001
AUSTER_FOLIE
1002
{
1000
S00_W_VERDRAHTUNGSBAUSATZ
1002
}
  0
LINE
  5
10AEA
330
20
100
AcDbEntity
  8
10000_FRONT
  6
Continuous
 62
     7
370
    50
100
AcDbLine
 39
0.7
 10
-76.59872865232323
 20
712.8666339223863
 30
0.0
 11
-123.4087286523232
 21
712.8666339223863
 31
0.0
1001
AUSTER_ANSICHT
1002
{
1000
Det03
1002
}
1001
AUSTER_FOLIE
1002
{
1000
S00_W_VERDRAHTUNGSBAUSATZ
1002
}
  0
LINE
  5
10AEB
330
20
100
AcDbEntity
  8
10000_FRONT
  6
Continuous
 62
     7
370
    20
100
AcDbLine
 39
0.25
 10
-131.7980666523232
 20
775.8666339223863
 30
0.0
 11
-82.14872865232328
 21
775.8255339223863
 31
0.0
1001
AUSTER_ANSICHT
1002
{
1000
Det03
1002
}
1001
AUSTER_FOLIE
1002
{
1000
S00_W_VERDRAHTUNGSBAUSATZ
1002
}
  0
CIRCLE
  5
10AEC
330
20
100
AcDbEntity
  8
10000_FRONT
  6
Continuous
 62
     7
370
    20
100
AcDbCircle
 39
0.25
 10
-119.9488116523232
 20
762.3666339223863
 30
0.0
 40
3.1
1001
AUSTER_ANSICHT
1002
{
1000
Det03
1002
}
1001
AUSTER_FOLIE
1002
{
1000
S00_W_VERDRAHTUNGSBAUSATZ
1002
}
  0
CIRCLE
  5
10AED
330
20
100
AcDbEntity
  8
10000_FRONT
  6
Continuous
 62
     7
370
    20
100
AcDbCircle
 39
0.25
 10
-119.9488116523232
 20
726.3666339223862
 30
0.0
 40
3.1
1001
AUSTER_ANSICHT
1002
{
1000
Det03
1002
}
1001
AUSTER_FOLIE
1002
{
1000
S00_W_VERDRAHTUNGSBAUSATZ
1002
}
  0
ARC
  5
10AEE
330
20
100
AcDbEntity
  8
10000_FRONT
  6
Continuous
 62
     7
370
    20
100
AcDbCircle
 39
0.25
 10
-119.9488116523232
 20
762.3666339223863
 30
0.0
 40
1.85
100
AcDbArc
 50
253.8365999999982
 51
286.1634000000003
1001
AUSTER_ANSICHT
1002
{
1000
Det03
1002
}
1001
AUSTER_FOLIE
1002
{
1000
S00_W_VERDRAHTUNGSBAUSATZ
1002
}
  0
ARC
  5
10AEF
330
20
100
AcDbEntity
  8
10000_FRONT
  6
Continuous
 62
     7
370
    20
100
AcDbCircle
 39
0.25
 10
-119.9488116523232
 20
762.3666339223863
 30
0.0
 40
1.85
100
AcDbArc
 50
73.8365499999981
 51
106.1634000000003
1001
AUSTER_ANSICHT
1002
{
1000
Det03
1002
}
1001
AUSTER_FOLIE
1002
{
1000
S00_W_VERDRAHTUNGSBAUSATZ
1002
}
  0
ARC
  5
10AF0
330
20
100
AcDbEntity
  8
10000_FRONT
  6
Continuous
 62
     7
370
    20
100
AcDbCircle
 39
0.25
 10
-119.9488116523232
 20
726.3666339223862
 30
0.0
 40
1.85
100
AcDbArc
 50
73.8365499999981
 51
106.1634000000003
1001
AUSTER_ANSICHT
1002
{
1000
Det03
1002
}
1001
AUSTER_FOLIE
1002
{
1000
S00_W_VERDRAHTUNGSBAUSATZ
1002
}
  0
ARC
  5
10AF1
330
20
100
AcDbEntity
  8
10000_FRONT
  6
Continuous
 62
     7
370
    20
100
AcDbCircle
 39
0.25
 10
-119.9488116523232
 20
726.3666339223862
 30
0.0
 40
1.85
100
AcDbArc
 50
253.8365999999982
 51
286.1634000000003
1001
AUSTER_ANSICHT
1002
{
1000
Det03
1002
}
1001
AUSTER_FOLIE
1002
{
1000
S00_W_VERDRAHTUNGSBAUSATZ
1002
}
  0
LINE
  5
10AF3
330
20
100
AcDbEntity
  8
10000_FRONT
  6
Continuous
 62
     7
370
    50
100
AcDbLine
 39
0.7
 10
-159.6487286523232
 20
715.6166339223863
 30
0.0
 11
-159.6487286523232
 21
773.1166339223863
 31
0.0
1001
AUSTER_ANSICHT
1002
{
1000
Det03
1002
}
1001
AUSTER_FOLIE
1002
{
1000
S00_W_VERDRAHTUNGSBAUSATZ
1002
}
  0
CIRCLE
  5
10AF4
330
20
100
AcDbEntity
  8
10000_FRONT
  6
Continuous
 62
     7
370
    20
100
AcDbCircle
 39
0.25
 10
-137.1488116523233
 20
726.3666339223862
 30
0.0
 40
3.1
1001
AUSTER_ANSICHT
1002
{
1000
Det03
1002
}
1001
AUSTER_FOLIE
1002
{
1000
S00_W_VERDRAHTUNGSBAUSATZ
1002
}
  0
CIRCLE
  5
10AF5
330
20
100
AcDbEntity
  8
10000_FRONT
  6
Continuous
 62
     7
370
    20
100
AcDbCircle
 39
0.25
 10
-128.5488116523232
 20
726.3666339223862
 30
0.0
 40
3.1
1001
AUSTER_ANSICHT
1002
{
1000
Det03
1002
}
1001
AUSTER_FOLIE
1002
{
1000
S00_W_VERDRAHTUNGSBAUSATZ
1002
}
  0
CIRCLE
  5
10AF6
330
20
100
AcDbEntity
  8
10000_FRONT
  6
Continuous
 62
     7
370
    20
100
AcDbCircle
 39
0.25
 10
-154.3488086523232
 20
726.3666339223862
 30
0.0
 40
3.1
1001
AUSTER_ANSICHT
1002
{
1000
Det03
1002
}
1001
AUSTER_FOLIE
1002
{
1000
S00_W_VERDRAHTUNGSBAUSATZ
1002
}
  0
CIRCLE
  5
10AF7
330
20
100
AcDbEntity
  8
10000_FRONT
  6
Continuous
 62
     7
370
    20
100
AcDbCircle
 39
0.25
 10
-145.7488086523232
 20
726.3666339223862
 30
0.0
 40
3.1
1001
AUSTER_ANSICHT
1002
{
1000
Det03
1002
}
1001
AUSTER_FOLIE
1002
{
1000
S00_W_VERDRAHTUNGSBAUSATZ
1002
}
  0
LINE
  5
10AFF
330
20
100
AcDbEntity
  8
10000_FRONT
  6
Continuous
 62
     7
370
    20
100
AcDbLine
 39
0.25
 10
-124.3987286523232
 20
712.8666339223863
 30
0.0
 11
-124.3987286523232
 21
713.6666339223863
 31
0.0
1001
AUSTER_ANSICHT
1002
{
1000
Det03
1002
}
1001
AUSTER_FOLIE
1002
{
1000
S00_W_VERDRAHTUNGSBAUSATZ
1002
}
  0
LINE
  5
10B00
330
20
100
AcDbEntity
  8
10000_FRONT
  6
Continuous
 62
     7
370
    20
100
AcDbLine
 39
0.25
 10
-134.3987286523232
 20
712.8666339223863
 30
0.0
 11
-134.3987286523232
 21
713.6666339223863
 31
0.0
1001
AUSTER_ANSICHT
1002
{
1000
Det03
1002
}
1001
AUSTER_FOLIE
1002
{
1000
S00_W_VERDRAHTUNGSBAUSATZ
1002
}
  0
ARC
  5
10B02
330
20
100
AcDbEntity
  8
10000_FRONT
  6
Continuous
 62
     7
370
    50
100
AcDbCircle
 39
0.7
 10
-158.5987286523232
 20
713.6666339223863
 30
0.0
 40
0.8
100
AcDbArc
 50
180.0
 51
270.0
1001
AUSTER_ANSICHT
1002
{
1000
Det03
1002
}
1001
AUSTER_FOLIE
1002
{
1000
S00_W_VERDRAHTUNGSBAUSATZ
1002
}
  0
LINE
  5
10B03
330
20
100
AcDbEntity
  8
10000_FRONT
  6
Continuous
 62
     7
370
    20
100
AcDbLine
 39
0.25
 10
-157.1345086523232
 20
725.7623339223863
 30
0.0
 11
-154.8638086523232
 21
725.7623339223863
 31
0.0
1001
AUSTER_ANSICHT
1002
{
1000
Det03
1002
}
1001
AUSTER_FOLIE
1002
{
1000
S00_W_VERDRAHTUNGSBAUSATZ
1002
}
  0
LINE
  5
10B04
330
20
100
AcDbEntity
  8
10000_FRONT
  6
Continuous
 62
     7
370
    20
100
AcDbLine
 39
0.25
 10
-153.8338086523232
 20
725.7623339223863
 30
0.0
 11
-151.5631086523232
 21
725.7623339223863
 31
0.0
1001
AUSTER_ANSICHT
1002
{
1000
Det03
1002
}
1001
AUSTER_FOLIE
1002
{
1000
S00_W_VERDRAHTUNGSBAUSATZ
1002
}
  0
LINE
  5
10B05
330
20
100
AcDbEntity
  8
10000_FRONT
  6
Continuous
 62
     7
370
    20
100
AcDbLine
 39
0.25
 10
-151.5631086523232
 20
726.9709339223862
 30
0.0
 11
-153.8338086523232
 21
726.9709339223862
 31
0.0
1001
AUSTER_ANSICHT
1002
{
1000
Det03
1002
}
1001
AUSTER_FOLIE
1002
{
1000
S00_W_VERDRAHTUNGSBAUSATZ
1002
}
  0
LINE
  5
10B06
330
20
100
AcDbEntity
  8
10000_FRONT
  6
Continuous
 62
     7
370
    20
100
AcDbLine
 39
0.25
 10
-154.8638086523232
 20
726.9709339223862
 30
0.0
 11
-157.1345086523232
 21
726.9709339223862
 31
0.0
1001
AUSTER_ANSICHT
1002
{
1000
Det03
1002
}
1001
AUSTER_FOLIE
1002
{
1000
S00_W_VERDRAHTUNGSBAUSATZ
1002
}
  0
LINE
  5
10B07
330
20
100
AcDbEntity
  8
10000_FRONT
  6
Continuous
 62
     7
370
    20
100
AcDbLine
 39
0.25
 10
-154.8638086523232
 20
728.1435339223862
 30
0.0
 11
-154.8638086523232
 21
727.1512339223862
 31
0.0
1001
AUSTER_ANSICHT
1002
{
1000
Det03
1002
}
1001
AUSTER_FOLIE
1002
{
1000
S00_W_VERDRAHTUNGSBAUSATZ
1002
}
  0
LINE
  5
10B08
330
20
100
AcDbEntity
  8
10000_FRONT
  6
Continuous
 62
     7
370
    20
100
AcDbLine
 39
0.25
 10
-153.8338086523232
 20
727.1512339223862
 30
0.0
 11
-153.8338086523232
 21
728.1435339223862
 31
0.0
1001
AUSTER_ANSICHT
1002
{
1000
Det03
1002
}
1001
AUSTER_FOLIE
1002
{
1000
S00_W_VERDRAHTUNGSBAUSATZ
1002
}
  0
LINE
  5
10B09
330
20
100
AcDbEntity
  8
10000_FRONT
  6
Continuous
 62
     7
370
    20
100
AcDbLine
 39
0.25
 10
-153.8338086523232
 20
724.5897339223863
 30
0.0
 11
-153.8338086523232
 21
725.5820339223864
 31
0.0
1001
AUSTER_ANSICHT
1002
{
1000
Det03
1002
}
1001
AUSTER_FOLIE
1002
{
1000
S00_W_VERDRAHTUNGSBAUSATZ
1002
}
  0
LINE
  5
10B0A
330
20
100
AcDbEntity
  8
10000_FRONT
  6
Continuous
 62
     7
370
    20
100
AcDbLine
 39
0.25
 10
-154.8638086523232
 20
725.5820339223864
 30
0.0
 11
-154.8638086523232
 21
724.5897339223863
 31
0.0
1001
AUSTER_ANSICHT
1002
{
1000
Det03
1002
}
1001
AUSTER_FOLIE
1002
{
1000
S00_W_VERDRAHTUNGSBAUSATZ
1002
}
  0
LINE
  5
10B0B
330
20
100
AcDbEntity
  8
10000_FRONT
  6
Continuous
 62
     7
370
    20
100
AcDbLine
 39
0.25
 10
-153.8338086523232
 20
727.1512339223862
 30
0.0
 11
-153.8338086523232
 21
726.9709339223862
 31
0.0
1001
AUSTER_ANSICHT
1002
{
1000
Det03
1002
}
1001
AUSTER_FOLIE
1002
{
1000
S00_W_VERDRAHTUNGSBAUSATZ
1002
}
  0
LINE
  5
10B0C
330
20
100
AcDbEntity
  8
10000_FRONT
  6
Continuous
 62
     7
370
    20
100
AcDbLine
 39
0.25
 10
-153.8338086523232
 20
725.5820339223864
 30
0.0
 11
-153.8338086523232
 21
725.7623339223863
 31
0.0
1001
AUSTER_ANSICHT
1002
{
1000
Det03
1002
}
1001
AUSTER_FOLIE
1002
{
1000
S00_W_VERDRAHTUNGSBAUSATZ
1002
}
  0
LINE
  5
10B0D
330
20
100
AcDbEntity
  8
10000_FRONT
  6
Continuous
 62
     7
370
    20
100
AcDbLine
 39
0.25
 10
-154.8638086523232
 20
727.1512339223862
 30
0.0
 11
-154.8638086523232
 21
726.9709339223862
 31
0.0
1001
AUSTER_ANSICHT
1002
{
1000
Det03
1002
}
1001
AUSTER_FOLIE
1002
{
1000
S00_W_VERDRAHTUNGSBAUSATZ
1002
}
  0
LINE
  5
10B0E
330
20
100
AcDbEntity
  8
10000_FRONT
  6
Continuous
 62
     7
370
    20
100
AcDbLine
 39
0.25
 10
-154.8638086523232
 20
725.5820339223864
 30
0.0
 11
-154.8638086523232
 21
725.7623339223863
 31
0.0
1001
AUSTER_ANSICHT
1002
{
1000
Det03
1002
}
1001
AUSTER_FOLIE
1002
{
1000
S00_W_VERDRAHTUNGSBAUSATZ
1002
}
  0
LINE
  5
10B0F
330
20
100
AcDbEntity
  8
10000_FRONT
  6
Continuous
 62
     7
370
    20
100
AcDbLine
 39
0.25
 10
-148.5345086523232
 20
725.7623339223863
 30
0.0
 11
-146.2638086523232
 21
725.7623339223863
 31
0.0
1001
AUSTER_ANSICHT
1002
{
1000
Det03
1002
}
1001
AUSTER_FOLIE
1002
{
1000
S00_W_VERDRAHTUNGSBAUSATZ
1002
}
  0
LINE
  5
10B10
330
20
100
AcDbEntity
  8
10000_FRONT
  6
Continuous
 62
     7
370
    20
100
AcDbLine
 39
0.25
 10
-145.2338086523232
 20
725.7623339223863
 30
0.0
 11
-142.9631086523232
 21
725.7623339223863
 31
0.0
1001
AUSTER_ANSICHT
1002
{
1000
Det03
1002
}
1001
AUSTER_FOLIE
1002
{
1000
S00_W_VERDRAHTUNGSBAUSATZ
1002
}
  0
LINE
  5
10B11
330
20
100
AcDbEntity
  8
10000_FRONT
  6
Continuous
 62
     7
370
    20
100
AcDbLine
 39
0.25
 10
-142.9631086523232
 20
726.9709339223862
 30
0.0
 11
-145.2338086523232
 21
726.9709339223862
 31
0.0
1001
AUSTER_ANSICHT
1002
{
1000
Det03
1002
}
1001
AUSTER_FOLIE
1002
{
1000
S00_W_VERDRAHTUNGSBAUSATZ
1002
}
  0
LINE
  5
10B12
330
20
100
AcDbEntity
  8
10000_FRONT
  6
Continuous
 62
     7
370
    20
100
AcDbLine
 39
0.25
 10
-146.2638086523232
 20
726.9709339223862
 30
0.0
 11
-148.5345086523232
 21
726.9709339223862
 31
0.0
1001
AUSTER_ANSICHT
1002
{
1000
Det03
1002
}
1001
AUSTER_FOLIE
1002
{
1000
S00_W_VERDRAHTUNGSBAUSATZ
1002
}
  0
LINE
  5
10B13
330
20
100
AcDbEntity
  8
10000_FRONT
  6
Continuous
 62
     7
370
    20
100
AcDbLine
 39
0.25
 10
-146.2638086523232
 20
728.1435339223862
 30
0.0
 11
-146.2638086523232
 21
727.1512339223862
 31
0.0
1001
AUSTER_ANSICHT
1002
{
1000
Det03
1002
}
1001
AUSTER_FOLIE
1002
{
1000
S00_W_VERDRAHTUNGSBAUSATZ
1002
}
  0
LINE
  5
10B14
330
20
100
AcDbEntity
  8
10000_FRONT
  6
Continuous
 62
     7
370
    20
100
AcDbLine
 39
0.25
 10
-145.2338086523232
 20
727.1512339223862
 30
0.0
 11
-145.2338086523232
 21
728.1435339223862
 31
0.0
1001
AUSTER_ANSICHT
1002
{
1000
Det03
1002
}
1001
AUSTER_FOLIE
1002
{
1000
S00_W_VERDRAHTUNGSBAUSATZ
1002
}
  0
LINE
  5
10B15
330
20
100
AcDbEntity
  8
10000_FRONT
  6
Continuous
 62
     7
370
    20
100
AcDbLine
 39
0.25
 10
-145.2338086523232
 20
724.5897339223863
 30
0.0
 11
-145.2338086523232
 21
725.5820339223864
 31
0.0
1001
AUSTER_ANSICHT
1002
{
1000
Det03
1002
}
1001
AUSTER_FOLIE
1002
{
1000
S00_W_VERDRAHTUNGSBAUSATZ
1002
}
  0
LINE
  5
10B16
330
20
100
AcDbEntity
  8
10000_FRONT
  6
Continuous
 62
     7
370
    20
100
AcDbLine
 39
0.25
 10
-146.2638086523232
 20
725.5820339223864
 30
0.0
 11
-146.2638086523232
 21
724.5897339223863
 31
0.0
1001
AUSTER_ANSICHT
1002
{
1000
Det03
1002
}
1001
AUSTER_FOLIE
1002
{
1000
S00_W_VERDRAHTUNGSBAUSATZ
1002
}
  0
LINE
  5
10B17
330
20
100
AcDbEntity
  8
10000_FRONT
  6
Continuous
 62
     7
370
    20
100
AcDbLine
 39
0.25
 10
-145.2338086523232
 20
727.1512339223862
 30
0.0
 11
-145.2338086523232
 21
726.9709339223862
 31
0.0
1001
AUSTER_ANSICHT
1002
{
1000
Det03
1002
}
1001
AUSTER_FOLIE
1002
{
1000
S00_W_VERDRAHTUNGSBAUSATZ
1002
}
  0
LINE
  5
10B18
330
20
100
AcDbEntity
  8
10000_FRONT
  6
Continuous
 62
     7
370
    20
100
AcDbLine
 39
0.25
 10
-145.2338086523232
 20
725.5820339223864
 30
0.0
 11
-145.2338086523232
 21
725.7623339223863
 31
0.0
1001
AUSTER_ANSICHT
1002
{
1000
Det03
1002
}
1001
AUSTER_FOLIE
1002
{
1000
S00_W_VERDRAHTUNGSBAUSATZ
1002
}
  0
LINE
  5
10B19
330
20
100
AcDbEntity
  8
10000_FRONT
  6
Continuous
 62
     7
370
    20
100
AcDbLine
 39
0.25
 10
-146.2638086523232
 20
727.1512339223862
 30
0.0
 11
-146.2638086523232
 21
726.9709339223862
 31
0.0
1001
AUSTER_ANSICHT
1002
{
1000
Det03
1002
}
1001
AUSTER_FOLIE
1002
{
1000
S00_W_VERDRAHTUNGSBAUSATZ
1002
}
  0
LINE
  5
10B1A
330
20
100
AcDbEntity
  8
10000_FRONT
  6
Continuous
 62
     7
370
    20
100
AcDbLine
 39
0.25
 10
-146.2638086523232
 20
725.5820339223864
 30
0.0
 11
-146.2638086523232
 21
725.7623339223863
 31
0.0
1001
AUSTER_ANSICHT
1002
{
1000
Det03
1002
}
1001
AUSTER_FOLIE
1002
{
1000
S00_W_VERDRAHTUNGSBAUSATZ
1002
}
  0
LINE
  5
10B1B
330
20
100
AcDbEntity
  8
10000_FRONT
  6
Continuous
 62
     7
370
    20
100
AcDbLine
 39
0.25
 10
-139.9345086523232
 20
725.7623339223863
 30
0.0
 11
-137.6638116523232
 21
725.7623339223863
 31
0.0
1001
AUSTER_ANSICHT
1002
{
1000
Det03
1002
}
1001
AUSTER_FOLIE
1002
{
1000
S00_W_VERDRAHTUNGSBAUSATZ
1002
}
  0
LINE
  5
10B1C
330
20
100
AcDbEntity
  8
10000_FRONT
  6
Continuous
 62
     7
370
    20
100
AcDbLine
 39
0.25
 10
-136.6338116523232
 20
725.7623339223863
 30
0.0
 11
-134.3631136523232
 21
725.7623339223863
 31
0.0
1001
AUSTER_ANSICHT
1002
{
1000
Det03
1002
}
1001
AUSTER_FOLIE
1002
{
1000
S00_W_VERDRAHTUNGSBAUSATZ
1002
}
  0
LINE
  5
10B1D
330
20
100
AcDbEntity
  8
10000_FRONT
  6
Continuous
 62
     7
370
    20
100
AcDbLine
 39
0.25
 10
-134.3631136523232
 20
726.9709339223862
 30
0.0
 11
-136.6338116523232
 21
726.9709339223862
 31
0.0
1001
AUSTER_ANSICHT
1002
{
1000
Det03
1002
}
1001
AUSTER_FOLIE
1002
{
1000
S00_W_VERDRAHTUNGSBAUSATZ
1002
}
  0
LINE
  5
10B1E
330
20
100
AcDbEntity
  8
10000_FRONT
  6
Continuous
 62
     7
370
    20
100
AcDbLine
 39
0.25
 10
-137.6638116523232
 20
726.9709339223862
 30
0.0
 11
-139.9345086523232
 21
726.9709339223862
 31
0.0
1001
AUSTER_ANSICHT
1002
{
1000
Det03
1002
}
1001
AUSTER_FOLIE
1002
{
1000
S00_W_VERDRAHTUNGSBAUSATZ
1002
}
  0
LINE
  5
10B1F
330
20
100
AcDbEntity
  8
10000_FRONT
  6
Continuous
 62
     7
370
    20
100
AcDbLine
 39
0.25
 10
-137.6638116523232
 20
728.1435339223862
 30
0.0
 11
-137.6638116523232
 21
727.1512339223862
 31
0.0
1001
AUSTER_ANSICHT
1002
{
1000
Det03
1002
}
1001
AUSTER_FOLIE
1002
{
1000
S00_W_VERDRAHTUNGSBAUSATZ
1002
}
  0
LINE
  5
10B20
330
20
100
AcDbEntity
  8
10000_FRONT
  6
Continuous
 62
     7
370
    20
100
AcDbLine
 39
0.25
 10
-136.6338116523232
 20
727.1512339223862
 30
0.0
 11
-136.6338116523232
 21
728.1435339223862
 31
0.0
1001
AUSTER_ANSICHT
1002
{
1000
Det03
1002
}
1001
AUSTER_FOLIE
1002
{
1000
S00_W_VERDRAHTUNGSBAUSATZ
1002
}
  0
LINE
  5
10B21
330
20
100
AcDbEntity
  8
10000_FRONT
  6
Continuous
 62
     7
370
    20
100
AcDbLine
 39
0.25
 10
-136.6338116523232
 20
724.5897339223863
 30
0.0
 11
-136.6338116523232
 21
725.5820339223864
 31
0.0
1001
AUSTER_ANSICHT
1002
{
1000
Det03
1002
}
1001
AUSTER_FOLIE
1002
{
1000
S00_W_VERDRAHTUNGSBAUSATZ
1002
}
  0
LINE
  5
10B22
330
20
100
AcDbEntity
  8
10000_FRONT
  6
Continuous
 62
     7
370
    20
100
AcDbLine
 39
0.25
 10
-137.6638106523232
 20
725.5820339223864
 30
0.0
 11
-137.6638116523232
 21
724.5897339223863
 31
0.0
1001
AUSTER_ANSICHT
1002
{
1000
Det03
1002
}
1001
AUSTER_FOLIE
1002
{
1000
S00_W_VERDRAHTUNGSBAUSATZ
1002
}
  0
LINE
  5
10B23
330
20
100
AcDbEntity
  8
10000_FRONT
  6
Continuous
 62
     7
370
    20
100
AcDbLine
 39
0.25
 10
-136.6338136523232
 20
727.1512339223862
 30
0.0
 11
-136.6338116523232
 21
726.9709339223862
 31
0.0
1001
AUSTER_ANSICHT
1002
{
1000
Det03
1002
}
1001
AUSTER_FOLIE
1002
{
1000
S00_W_VERDRAHTUNGSBAUSATZ
1002
}
  0
LINE
  5
10B24
330
20
100
AcDbEntity
  8
10000_FRONT
  6
Continuous
 62
     7
370
    20
100
AcDbLine
 39
0.25
 10
-136.6338136523232
 20
725.5820339223864
 30
0.0
 11
-136.6338116523232
 21
725.7623339223863
 31
0.0
1001
AUSTER_ANSICHT
1002
{
1000
Det03
1002
}
1001
AUSTER_FOLIE
1002
{
1000
S00_W_VERDRAHTUNGSBAUSATZ
1002
}
  0
LINE
  5
10B25
330
20
100
AcDbEntity
  8
10000_FRONT
  6
Continuous
 62
     7
370
    20
100
AcDbLine
 39
0.25
 10
-137.6638116523232
 20
727.1512339223862
 30
0.0
 11
-137.6638116523232
 21
726.9709339223862
 31
0.0
1001
AUSTER_ANSICHT
1002
{
1000
Det03
1002
}
1001
AUSTER_FOLIE
1002
{
1000
S00_W_VERDRAHTUNGSBAUSATZ
1002
}
  0
LINE
  5
10B26
330
20
100
AcDbEntity
  8
10000_FRONT
  6
Continuous
 62
     7
370
    20
100
AcDbLine
 39
0.25
 10
-137.6638106523232
 20
725.5820339223864
 30
0.0
 11
-137.6638116523232
 21
725.7623339223863
 31
0.0
1001
AUSTER_ANSICHT
1002
{
1000
Det03
1002
}
1001
AUSTER_FOLIE
1002
{
1000
S00_W_VERDRAHTUNGSBAUSATZ
1002
}
  0
LINE
  5
10B27
330
20
100
AcDbEntity
  8
10000_FRONT
  6
Continuous
 62
     7
370
    20
100
AcDbLine
 39
0.25
 10
-131.3345096523232
 20
725.7623339223863
 30
0.0
 11
-129.0638117523232
 21
725.7623339223863
 31
0.0
1001
AUSTER_ANSICHT
1002
{
1000
Det03
1002
}
1001
AUSTER_FOLIE
1002
{
1000
S00_W_VERDRAHTUNGSBAUSATZ
1002
}
  0
LINE
  5
10B28
330
20
100
AcDbEntity
  8
10000_FRONT
  6
Continuous
 62
     7
370
    20
100
AcDbLine
 39
0.25
 10
-128.0338116523232
 20
725.7623339223863
 30
0.0
 11
-125.7631136523232
 21
725.7623339223863
 31
0.0
1001
AUSTER_ANSICHT
1002
{
1000
Det03
1002
}
1001
AUSTER_FOLIE
1002
{
1000
S00_W_VERDRAHTUNGSBAUSATZ
1002
}
  0
LINE
  5
10B29
330
20
100
AcDbEntity
  8
10000_FRONT
  6
Continuous
 62
     7
370
    20
100
AcDbLine
 39
0.25
 10
-125.7631136523232
 20
726.9709339223862
 30
0.0
 11
-128.0338116523232
 21
726.9709339223862
 31
0.0
1001
AUSTER_ANSICHT
1002
{
1000
Det03
1002
}
1001
AUSTER_FOLIE
1002
{
1000
S00_W_VERDRAHTUNGSBAUSATZ
1002
}
  0
LINE
  5
10B2A
330
20
100
AcDbEntity
  8
10000_FRONT
  6
Continuous
 62
     7
370
    20
100
AcDbLine
 39
0.25
 10
-129.0638117523232
 20
726.9709339223862
 30
0.0
 11
-131.3345096523232
 21
726.9709339223862
 31
0.0
1001
AUSTER_ANSICHT
1002
{
1000
Det03
1002
}
1001
AUSTER_FOLIE
1002
{
1000
S00_W_VERDRAHTUNGSBAUSATZ
1002
}
  0
LINE
  5
10B2B
330
20
100
AcDbEntity
  8
10000_FRONT
  6
Continuous
 62
     7
370
    20
100
AcDbLine
 39
0.25
 10
-129.0638117523232
 20
728.1435339223862
 30
0.0
 11
-129.0638117523232
 21
727.1512339223862
 31
0.0
1001
AUSTER_ANSICHT
1002
{
1000
Det03
1002
}
1001
AUSTER_FOLIE
1002
{
1000
S00_W_VERDRAHTUNGSBAUSATZ
1002
}
  0
LINE
  5
10B2C
330
20
100
AcDbEntity
  8
10000_FRONT
  6
Continuous
 62
     7
370
    20
100
AcDbLine
 39
0.25
 10
-128.0338116523232
 20
727.1512339223862
 30
0.0
 11
-128.0338116523232
 21
728.1435339223862
 31
0.0
1001
AUSTER_ANSICHT
1002
{
1000
Det03
1002
}
1001
AUSTER_FOLIE
1002
{
1000
S00_W_VERDRAHTUNGSBAUSATZ
1002
}
  0
LINE
  5
10B2D
330
20
100
AcDbEntity
  8
10000_FRONT
  6
Continuous
 62
     7
370
    20
100
AcDbLine
 39
0.25
 10
-128.0338116523232
 20
724.5897339223863
 30
0.0
 11
-128.0338116523232
 21
725.5820339223864
 31
0.0
1001
AUSTER_ANSICHT
1002
{
1000
Det03
1002
}
1001
AUSTER_FOLIE
1002
{
1000
S00_W_VERDRAHTUNGSBAUSATZ
1002
}
  0
LINE
  5
10B2E
330
20
100
AcDbEntity
  8
10000_FRONT
  6
Continuous
 62
     7
370
    20
100
AcDbLine
 39
0.25
 10
-129.0638102523232
 20
725.5820339223864
 30
0.0
 11
-129.0638117523232
 21
724.5897339223863
 31
0.0
1001
AUSTER_ANSICHT
1002
{
1000
Det03
1002
}
1001
AUSTER_FOLIE
1002
{
1000
S00_W_VERDRAHTUNGSBAUSATZ
1002
}
  0
LINE
  5
10B2F
330
20
100
AcDbEntity
  8
10000_FRONT
  6
Continuous
 62
     7
370
    20
100
AcDbLine
 39
0.25
 10
-128.0338136523232
 20
727.1512339223862
 30
0.0
 11
-128.0338116523232
 21
726.9709339223862
 31
0.0
1001
AUSTER_ANSICHT
1002
{
1000
Det03
1002
}
1001
AUSTER_FOLIE
1002
{
1000
S00_W_VERDRAHTUNGSBAUSATZ
1002
}
  0
LINE
  5
10B30
330
20
100
AcDbEntity
  8
10000_FRONT
  6
Continuous
 62
     7
370
    20
100
AcDbLine
 39
0.25
 10
-128.0338136523232
 20
725.5820339223864
 30
0.0
 11
-128.0338116523232
 21
725.7623339223863
 31
0.0
1001
AUSTER_ANSICHT
1002
{
1000
Det03
1002
}
1001
AUSTER_FOLIE
1002
{
1000
S00_W_VERDRAHTUNGSBAUSATZ
1002
}
  0
LINE
  5
10B31
330
20
100
AcDbEntity
  8
10000_FRONT
  6
Continuous
 62
     7
370
    20
100
AcDbLine
 39
0.25
 10
-129.0638117523232
 20
727.1512339223862
 30
0.0
 11
-129.0638117523232
 21
726.9709339223862
 31
0.0
1001
AUSTER_ANSICHT
1002
{
1000
Det03
1002
}
1001
AUSTER_FOLIE
1002
{
1000
S00_W_VERDRAHTUNGSBAUSATZ
1002
}
  0
LINE
  5
10B32
330
20
100
AcDbEntity
  8
10000_FRONT
  6
Continuous
 62
     7
370
    20
100
AcDbLine
 39
0.25
 10
-129.0638102523232
 20
725.5820339223864
 30
0.0
 11
-129.0638117523232
 21
725.7623339223863
 31
0.0
1001
AUSTER_ANSICHT
1002
{
1000
Det03
1002
}
1001
AUSTER_FOLIE
1002
{
1000
S00_W_VERDRAHTUNGSBAUSATZ
1002
}
  0
LINE
  5
10B33
330
20
100
AcDbEntity
  8
10000_FRONT
  6
Continuous
 62
     7
370
    20
100
AcDbLine
 39
0.25
 10
-122.7345096523232
 20
725.7623339223863
 30
0.0
 11
-120.4638116523232
 21
725.7623339223863
 31
0.0
1001
AUSTER_ANSICHT
1002
{
1000
Det03
1002
}
1001
AUSTER_FOLIE
1002
{
1000
S00_W_VERDRAHTUNGSBAUSATZ
1002
}
  0
LINE
  5
10B34
330
20
100
AcDbEntity
  8
10000_FRONT
  6
Continuous
 62
     7
370
    20
100
AcDbLine
 39
0.25
 10
-120.4638116523232
 20
726.9709339223862
 30
0.0
 11
-122.7345096523232
 21
726.9709339223862
 31
0.0
1001
AUSTER_ANSICHT
1002
{
1000
Det03
1002
}
1001
AUSTER_FOLIE
1002
{
1000
S00_W_VERDRAHTUNGSBAUSATZ
1002
}
  0
LINE
  5
10B35
330
20
100
AcDbEntity
  8
10000_FRONT
  6
Continuous
 62
     7
370
    20
100
AcDbLine
 39
0.25
 10
-120.4638116523232
 20
728.1435339223862
 30
0.0
 11
-120.4638116523232
 21
727.1512339223862
 31
0.0
1001
AUSTER_ANSICHT
1002
{
1000
Det03
1002
}
1001
AUSTER_FOLIE
1002
{
1000
S00_W_VERDRAHTUNGSBAUSATZ
1002
}
  0
LINE
  5
10B36
330
20
100
AcDbEntity
  8
10000_FRONT
  6
Continuous
 62
     7
370
    20
100
AcDbLine
 39
0.25
 10
-120.4638106523232
 20
725.5820339223864
 30
0.0
 11
-120.4638116523232
 21
724.5897339223863
 31
0.0
1001
AUSTER_ANSICHT
1002
{
1000
Det03
1002
}
1001
AUSTER_FOLIE
1002
{
1000
S00_W_VERDRAHTUNGSBAUSATZ
1002
}
  0
LINE
  5
10B37
330
20
100
AcDbEntity
  8
10000_FRONT
  6
Continuous
 62
     7
370
    20
100
AcDbLine
 39
0.25
 10
-120.4638116523232
 20
727.1512339223862
 30
0.0
 11
-120.4638116523232
 21
726.9709339223862
 31
0.0
1001
AUSTER_ANSICHT
1002
{
1000
Det03
1002
}
1001
AUSTER_FOLIE
1002
{
1000
S00_W_VERDRAHTUNGSBAUSATZ
1002
}
  0
LINE
  5
10B38
330
20
100
AcDbEntity
  8
10000_FRONT
  6
Continuous
 62
     7
370
    20
100
AcDbLine
 39
0.25
 10
-120.4638106523232
 20
725.5820339223864
 30
0.0
 11
-120.4638116523232
 21
725.7623339223863
 31
0.0
1001
AUSTER_ANSICHT
1002
{
1000
Det03
1002
}
1001
AUSTER_FOLIE
1002
{
1000
S00_W_VERDRAHTUNGSBAUSATZ
1002
}
  0
LINE
  5
10B39
330
20
100
AcDbEntity
  8
10000_FRONT
  6
Continuous
 62
     7
370
    20
100
AcDbLine
 39
0.25
 10
-137.6638116523232
 20
728.2435339223862
 30
0.0
 11
-137.6638116523232
 21
727.2512339223863
 31
0.0
1001
AUSTER_ANSICHT
1002
{
1000
Det03
1002
}
1001
AUSTER_FOLIE
1002
{
1000
S00_W_VERDRAHTUNGSBAUSATZ
1002
}
  0
LINE
  5
10B3A
330
20
100
AcDbEntity
  8
10000_FRONT
  6
Continuous
 62
     7
370
    20
100
AcDbLine
 39
0.25
 10
-136.6338116523232
 20
727.2512339223863
 30
0.0
 11
-136.6338116523232
 21
728.2435339223862
 31
0.0
1001
AUSTER_ANSICHT
1002
{
1000
Det03
1002
}
1001
AUSTER_FOLIE
1002
{
1000
S00_W_VERDRAHTUNGSBAUSATZ
1002
}
  0
LINE
  5
10B3B
330
20
100
AcDbEntity
  8
10000_FRONT
  6
Continuous
 62
     7
370
    20
100
AcDbLine
 39
0.25
 10
-134.3987286523232
 20
716.8666339223863
 30
0.0
 11
-134.3987286523232
 21
713.6666339223863
 31
0.0
1001
AUSTER_ANSICHT
1002
{
1000
Det03
1002
}
1001
AUSTER_FOLIE
1002
{
1000
S00_W_VERDRAHTUNGSBAUSATZ
1002
}
  0
LINE
  5
10B3C
330
20
100
AcDbEntity
  8
10000_FRONT
  6
Continuous
 62
     7
370
    20
100
AcDbLine
 39
0.25
 10
-124.3987286523232
 20
713.6666339223863
 30
0.0
 11
-124.3987286523232
 21
716.8666339223863
 31
0.0
1001
AUSTER_ANSICHT
1002
{
1000
Det03
1002
}
1001
AUSTER_FOLIE
1002
{
1000
S00_W_VERDRAHTUNGSBAUSATZ
1002
}
  0
LINE
  5
10B3D
330
20
100
AcDbEntity
  8
10000_FRONT
  6
Continuous
 62
     7
370
    50
100
AcDbLine
 39
0.7
 10
-135.3987286523232
 20
712.8666339223863
 30
0.0
 11
-158.3987286523232
 21
712.8666339223863
 31
0.0
1001
AUSTER_ANSICHT
1002
{
1000
Det03
1002
}
1001
AUSTER_FOLIE
1002
{
1000
S00_W_VERDRAHTUNGSBAUSATZ
1002
}
  0
LINE
  5
10B3E
330
20
100
AcDbEntity
  8
10000_FRONT
  6
Continuous
 62
     7
370
    50
100
AcDbLine
 39
0.7
 10
-158.3987286523232
 20
712.8666339223863
 30
0.0
 11
-158.5987286523232
 21
712.8666339223863
 31
0.0
1001
AUSTER_ANSICHT
1002
{
1000
Det03
1002
}
1001
AUSTER_FOLIE
1002
{
1000
S00_W_VERDRAHTUNGSBAUSATZ
1002
}
  0
LINE
  5
10B3F
330
20
100
AcDbEntity
  8
10000_FRONT
  6
Continuous
 62
     7
370
    50
100
AcDbLine
 39
0.7
 10
-124.3987286523232
 20
712.8666339223863
 30
0.0
 11
-134.3987286523232
 21
712.8666339223863
 31
0.0
1001
AUSTER_ANSICHT
1002
{
1000
Det03
1002
}
1001
AUSTER_FOLIE
1002
{
1000
S00_W_VERDRAHTUNGSBAUSATZ
1002
}
  0
LINE
  5
10B40
330
20
100
AcDbEntity
  8
10000_FRONT
  6
Continuous
 62
     7
370
    50
100
AcDbLine
 39
0.7
 10
-134.3987286523232
 20
712.8666339223863
 30
0.0
 11
-135.1987286523232
 21
712.8666339223863
 31
0.0
1001
AUSTER_ANSICHT
1002
{
1000
Det03
1002
}
1001
AUSTER_FOLIE
1002
{
1000
S00_W_VERDRAHTUNGSBAUSATZ
1002
}
  0
LINE
  5
10B41
330
20
100
AcDbEntity
  8
10000_FRONT
  6
Continuous
 62
     7
370
    50
100
AcDbLine
 39
0.7
 10
-135.1987286523232
 20
712.8666339223863
 30
0.0
 11
-135.3987286523232
 21
712.8666339223863
 31
0.0
1001
AUSTER_ANSICHT
1002
{
1000
Det03
1002
}
1001
AUSTER_FOLIE
1002
{
1000
S00_W_VERDRAHTUNGSBAUSATZ
1002
}
  0
LINE
  5
10B42
330
20
100
AcDbEntity
  8
10000_FRONT
  6
Continuous
 62
     7
370
    50
100
AcDbLine
 39
0.7
 10
-123.4087286523232
 20
712.8666339223863
 30
0.0
 11
-123.5987286523232
 21
712.8666339223863
 31
0.0
1001
AUSTER_ANSICHT
1002
{
1000
Det03
1002
}
1001
AUSTER_FOLIE
1002
{
1000
S00_W_VERDRAHTUNGSBAUSATZ
1002
}
  0
LINE
  5
10B43
330
20
100
AcDbEntity
  8
10000_FRONT
  6
Continuous
 62
     7
370
    50
100
AcDbLine
 39
0.7
 10
-123.5987286523232
 20
712.8666339223863
 30
0.0
 11
-124.3987286523232
 21
712.8666339223863
 31
0.0
1001
AUSTER_ANSICHT
1002
{
1000
Det03
1002
}
1001
AUSTER_FOLIE
1002
{
1000
S00_W_VERDRAHTUNGSBAUSATZ
1002
}
  0
LINE
  5
10B44
330
20
100
AcDbEntity
  8
10000_FRONT
  6
Continuous
 62
     7
370
    50
100
AcDbLine
 39
0.7
 10
-159.3987286523232
 20
713.6666339223863
 30
0.0
 11
-159.3987286523232
 21
716.8666339223863
 31
0.0
1001
AUSTER_ANSICHT
1002
{
1000
Det03
1002
}
1001
AUSTER_FOLIE
1002
{
1000
S00_W_VERDRAHTUNGSBAUSATZ
1002
}
  0
ARC
  5
10B46
330
20
100
AcDbEntity
  8
10000_FRONT
  6
Continuous
 62
     7
370
    20
100
AcDbCircle
 39
0.25
 10
-154.3488086523232
 20
726.3666339223862
 30
0.0
 40
2.850490999999998
100
AcDbArc
 50
167.7603999999986
 51
192.2396000000014
1001
AUSTER_ANSICHT
1002
{
1000
Det03
1002
}
1001
AUSTER_FOLIE
1002
{
1000
S00_W_VERDRAHTUNGSBAUSATZ
1002
}
  0
ARC
  5
10B47
330
20
100
AcDbEntity
  8
10000_FRONT
  6
Continuous
 62
     7
370
    20
100
AcDbCircle
 39
0.25
 10
-154.3488086523232
 20
726.3666339223862
 30
0.0
 40
1.85
100
AcDbArc
 50
73.8365499999981
 51
106.1634000000003
1001
AUSTER_ANSICHT
1002
{
1000
Det03
1002
}
1001
AUSTER_FOLIE
1002
{
1000
S00_W_VERDRAHTUNGSBAUSATZ
1002
}
  0
ARC
  5
10B48
330
20
100
AcDbEntity
  8
10000_FRONT
  6
Continuous
 62
     7
370
    20
100
AcDbCircle
 39
0.25
 10
-154.3488086523232
 20
726.3666339223862
 30
0.0
 40
1.85
100
AcDbArc
 50
253.8365999999982
 51
286.1634000000003
1001
AUSTER_ANSICHT
1002
{
1000
Det03
1002
}
1001
AUSTER_FOLIE
1002
{
1000
S00_W_VERDRAHTUNGSBAUSATZ
1002
}
  0
ARC
  5
10B49
330
20
100
AcDbEntity
  8
10000_FRONT
  6
Continuous
 62
     7
370
    20
100
AcDbCircle
 39
0.25
 10
-154.3488086523232
 20
726.3666339223862
 30
0.0
 40
2.850490999999998
100
AcDbArc
 50
347.7603999999987
 51
12.23960000000143
1001
AUSTER_ANSICHT
1002
{
1000
Det03
1002
}
1001
AUSTER_FOLIE
1002
{
1000
S00_W_VERDRAHTUNGSBAUSATZ
1002
}
  0
ARC
  5
10B4A
330
20
100
AcDbEntity
  8
10000_FRONT
  6
Continuous
 62
     7
370
    20
100
AcDbCircle
 39
0.25
 10
-145.7488086523232
 20
726.3666339223862
 30
0.0
 40
1.85
100
AcDbArc
 50
73.8365499999981
 51
106.1634000000003
1001
AUSTER_ANSICHT
1002
{
1000
Det03
1002
}
1001
AUSTER_FOLIE
1002
{
1000
S00_W_VERDRAHTUNGSBAUSATZ
1002
}
  0
ARC
  5
10B4B
330
20
100
AcDbEntity
  8
10000_FRONT
  6
Continuous
 62
     7
370
    20
100
AcDbCircle
 39
0.25
 10
-145.7488086523232
 20
726.3666339223862
 30
0.0
 40
1.85
100
AcDbArc
 50
253.8365999999982
 51
286.1634000000003
1001
AUSTER_ANSICHT
1002
{
1000
Det03
1002
}
1001
AUSTER_FOLIE
1002
{
1000
S00_W_VERDRAHTUNGSBAUSATZ
1002
}
  0
ARC
  5
10B4C
330
20
100
AcDbEntity
  8
10000_FRONT
  6
Continuous
 62
     7
370
    20
100
AcDbCircle
 39
0.25
 10
-145.7488086523232
 20
726.3666339223862
 30
0.0
 40
2.850490999999998
100
AcDbArc
 50
347.7603999999987
 51
12.23960000000143
1001
AUSTER_ANSICHT
1002
{
1000
Det03
1002
}
1001
AUSTER_FOLIE
1002
{
1000
S00_W_VERDRAHTUNGSBAUSATZ
1002
}
  0
ARC
  5
10B4D
330
20
100
AcDbEntity
  8
10000_FRONT
  6
Continuous
 62
     7
370
    20
100
AcDbCircle
 39
0.25
 10
-145.7488086523232
 20
726.3666339223862
 30
0.0
 40
2.850490999999998
100
AcDbArc
 50
167.7603999999986
 51
192.2396000000014
1001
AUSTER_ANSICHT
1002
{
1000
Det03
1002
}
1001
AUSTER_FOLIE
1002
{
1000
S00_W_VERDRAHTUNGSBAUSATZ
1002
}
  0
ARC
  5
10B4E
330
20
100
AcDbEntity
  8
10000_FRONT
  6
Continuous
 62
     7
370
    20
100
AcDbCircle
 39
0.25
 10
-137.1488116523233
 20
726.3666339223862
 30
0.0
 40
1.85
100
AcDbArc
 50
73.8365499999981
 51
106.1634000000003
1001
AUSTER_ANSICHT
1002
{
1000
Det03
1002
}
1001
AUSTER_FOLIE
1002
{
1000
S00_W_VERDRAHTUNGSBAUSATZ
1002
}
  0
ARC
  5
10B4F
330
20
100
AcDbEntity
  8
10000_FRONT
  6
Continuous
 62
     7
370
    20
100
AcDbCircle
 39
0.25
 10
-137.1488116523233
 20
726.3666339223862
 30
0.0
 40
1.85
100
AcDbArc
 50
253.8365999999982
 51
286.1634000000003
1001
AUSTER_ANSICHT
1002
{
1000
Det03
1002
}
1001
AUSTER_FOLIE
1002
{
1000
S00_W_VERDRAHTUNGSBAUSATZ
1002
}
  0
ARC
  5
10B50
330
20
100
AcDbEntity
  8
10000_FRONT
  6
Continuous
 62
     7
370
    20
100
AcDbCircle
 39
0.25
 10
-137.1488116523233
 20
726.3666339223862
 30
0.0
 40
2.850490999999998
100
AcDbArc
 50
347.7603999999987
 51
12.23960000000143
1001
AUSTER_ANSICHT
1002
{
1000
Det03
1002
}
1001
AUSTER_FOLIE
1002
{
1000
S00_W_VERDRAHTUNGSBAUSATZ
1002
}
  0
ARC
  5
10B51
330
20
100
AcDbEntity
  8
10000_FRONT
  6
Continuous
 62
     7
370
    20
100
AcDbCircle
 39
0.25
 10
-137.1488116523233
 20
726.3666339223862
 30
0.0
 40
2.850490999999998
100
AcDbArc
 50
167.7603999999986
 51
192.2396000000014
1001
AUSTER_ANSICHT
1002
{
1000
Det03
1002
}
1001
AUSTER_FOLIE
1002
{
1000
S00_W_VERDRAHTUNGSBAUSATZ
1002
}
  0
ARC
  5
10B52
330
20
100
AcDbEntity
  8
10000_FRONT
  6
Continuous
 62
     7
370
    20
100
AcDbCircle
 39
0.25
 10
-128.5488116523232
 20
726.3666339223862
 30
0.0
 40
1.85
100
AcDbArc
 50
73.8365499999981
 51
106.1634000000003
1001
AUSTER_ANSICHT
1002
{
1000
Det03
1002
}
1001
AUSTER_FOLIE
1002
{
1000
S00_W_VERDRAHTUNGSBAUSATZ
1002
}
  0
ARC
  5
10B53
330
20
100
AcDbEntity
  8
10000_FRONT
  6
Continuous
 62
     7
370
    20
100
AcDbCircle
 39
0.25
 10
-128.5488116523232
 20
726.3666339223862
 30
0.0
 40
1.85
100
AcDbArc
 50
253.8365999999982
 51
286.1634000000003
1001
AUSTER_ANSICHT
1002
{
1000
Det03
1002
}
1001
AUSTER_FOLIE
1002
{
1000
S00_W_VERDRAHTUNGSBAUSATZ
1002
}
  0
ARC
  5
10B54
330
20
100
AcDbEntity
  8
10000_FRONT
  6
Continuous
 62
     7
370
    20
100
AcDbCircle
 39
0.25
 10
-128.5488116523232
 20
726.3666339223862
 30
0.0
 40
2.850490999999998
100
AcDbArc
 50
347.7603999999987
 51
12.23960000000143
1001
AUSTER_ANSICHT
1002
{
1000
Det03
1002
}
1001
AUSTER_FOLIE
1002
{
1000
S00_W_VERDRAHTUNGSBAUSATZ
1002
}
  0
ARC
  5
10B55
330
20
100
AcDbEntity
  8
10000_FRONT
  6
Continuous
 62
     7
370
    20
100
AcDbCircle
 39
0.25
 10
-128.5488116523232
 20
726.3666339223862
 30
0.0
 40
2.850490999999998
100
AcDbArc
 50
167.7603999999986
 51
192.2396000000014
1001
AUSTER_ANSICHT
1002
{
1000
Det03
1002
}
1001
AUSTER_FOLIE
1002
{
1000
S00_W_VERDRAHTUNGSBAUSATZ
1002
}
  0
ARC
  5
10B56
330
20
100
AcDbEntity
  8
10000_FRONT
  6
Continuous
 62
     7
370
    20
100
AcDbCircle
 39
0.25
 10
-119.9488116523232
 20
726.3666339223862
 30
0.0
 40
2.850490999999998
100
AcDbArc
 50
167.7603999999986
 51
192.2396000000014
1001
AUSTER_ANSICHT
1002
{
1000
Det03
1002
}
1001
AUSTER_FOLIE
1002
{
1000
S00_W_VERDRAHTUNGSBAUSATZ
1002
}
  0
LINE
  5
10B5E
330
20
100
AcDbEntity
  8
10000_FRONT
  6
Continuous
 62
     7
370
    50
100
AcDbLine
 39
0.7
 10
-159.6487286523232
 20
773.1166339223863
 30
0.0
 11
-158.3987286523232
 21
773.1166339223863
 31
0.0
1001
AUSTER_ANSICHT
1002
{
1000
Det03
1002
}
1001
AUSTER_FOLIE
1002
{
1000
S00_W_VERDRAHTUNGSBAUSATZ
1002
}
  0
LINE
  5
10B63
330
20
100
AcDbEntity
  8
10000_FRONT
  6
Continuous
 62
     7
370
    20
100
AcDbLine
 39
0.25
 10
-158.3987286523232
 20
773.1166339223863
 30
0.0
 11
-158.3987286523232
 21
771.8666339223863
 31
0.0
1001
AUSTER_ANSICHT
1002
{
1000
Det03
1002
}
1001
AUSTER_FOLIE
1002
{
1000
S00_W_VERDRAHTUNGSBAUSATZ
1002
}
  0
LINE
  5
10B65
330
20
100
AcDbEntity
  8
10000_FRONT
  6
Continuous
 62
     7
370
    20
100
AcDbLine
 39
0.25
 10
-158.3987286523232
 20
771.8666339223863
 30
0.0
 11
-158.3987286523232
 21
779.5666339223863
 31
0.0
1001
AUSTER_ANSICHT
1002
{
1000
Det03
1002
}
1001
AUSTER_FOLIE
1002
{
1000
S00_W_VERDRAHTUNGSBAUSATZ
1002
}
  0
LINE
  5
10B67
330
20
100
AcDbEntity
  8
10000_FRONT
  6
Continuous
 62
     7
370
    20
100
AcDbLine
 39
0.25
 10
-153.8338086523232
 20
762.9709339223863
 30
0.0
 11
-151.5631086523232
 21
762.9709339223863
 31
0.0
1001
AUSTER_ANSICHT
1002
{
1000
Det03
1002
}
1001
AUSTER_FOLIE
1002
{
1000
S00_W_VERDRAHTUNGSBAUSATZ
1002
}
  0
LINE
  5
10B68
330
20
100
AcDbEntity
  8
10000_FRONT
  6
Continuous
 62
     7
370
    20
100
AcDbLine
 39
0.25
 10
-145.2338086523232
 20
762.9709339223863
 30
0.0
 11
-142.9631086523232
 21
762.9709339223863
 31
0.0
1001
AUSTER_ANSICHT
1002
{
1000
Det03
1002
}
1001
AUSTER_FOLIE
1002
{
1000
S00_W_VERDRAHTUNGSBAUSATZ
1002
}
  0
LINE
  5
10B69
330
20
100
AcDbEntity
  8
10000_FRONT
  6
Continuous
 62
     7
370
    20
100
AcDbLine
 39
0.25
 10
-151.5631086523232
 20
761.7623339223863
 30
0.0
 11
-153.8338086523232
 21
761.7623339223863
 31
0.0
1001
AUSTER_ANSICHT
1002
{
1000
Det03
1002
}
1001
AUSTER_FOLIE
1002
{
1000
S00_W_VERDRAHTUNGSBAUSATZ
1002
}
  0
LINE
  5
10B6A
330
20
100
AcDbEntity
  8
10000_FRONT
  6
Continuous
 62
     7
370
    20
100
AcDbLine
 39
0.25
 10
-142.9631086523232
 20
761.7623339223863
 30
0.0
 11
-145.2338086523232
 21
761.7623339223863
 31
0.0
1001
AUSTER_ANSICHT
1002
{
1000
Det03
1002
}
1001
AUSTER_FOLIE
1002
{
1000
S00_W_VERDRAHTUNGSBAUSATZ
1002
}
  0
LINE
  5
10B6B
330
20
100
AcDbEntity
  8
10000_FRONT
  6
Continuous
 62
     7
370
    20
100
AcDbLine
 39
0.25
 10
-157.1345086523232
 20
762.9709339223863
 30
0.0
 11
-154.8638086523232
 21
762.9709339223863
 31
0.0
1001
AUSTER_ANSICHT
1002
{
1000
Det03
1002
}
1001
AUSTER_FOLIE
1002
{
1000
S00_W_VERDRAHTUNGSBAUSATZ
1002
}
  0
LINE
  5
10B6C
330
20
100
AcDbEntity
  8
10000_FRONT
  6
Continuous
 62
     7
370
    20
100
AcDbLine
 39
0.25
 10
-148.5345086523232
 20
762.9709339223863
 30
0.0
 11
-146.2638086523232
 21
762.9709339223863
 31
0.0
1001
AUSTER_ANSICHT
1002
{
1000
Det03
1002
}
1001
AUSTER_FOLIE
1002
{
1000
S00_W_VERDRAHTUNGSBAUSATZ
1002
}
  0
LINE
  5
10B6D
330
20
100
AcDbEntity
  8
10000_FRONT
  6
Continuous
 62
     7
370
    20
100
AcDbLine
 39
0.25
 10
-154.8638086523232
 20
761.7623339223863
 30
0.0
 11
-157.1345086523232
 21
761.7623339223863
 31
0.0
1001
AUSTER_ANSICHT
1002
{
1000
Det03
1002
}
1001
AUSTER_FOLIE
1002
{
1000
S00_W_VERDRAHTUNGSBAUSATZ
1002
}
  0
LINE
  5
10B6E
330
20
100
AcDbEntity
  8
10000_FRONT
  6
Continuous
 62
     7
370
    20
100
AcDbLine
 39
0.25
 10
-146.2638086523232
 20
761.7623339223863
 30
0.0
 11
-148.5345086523232
 21
761.7623339223863
 31
0.0
1001
AUSTER_ANSICHT
1002
{
1000
Det03
1002
}
1001
AUSTER_FOLIE
1002
{
1000
S00_W_VERDRAHTUNGSBAUSATZ
1002
}
  0
LINE
  5
10B6F
330
20
100
AcDbEntity
  8
10000_FRONT
  6
Continuous
 62
     7
370
    20
100
AcDbLine
 39
0.25
 10
-154.8638086523232
 20
760.5897339223863
 30
0.0
 11
-154.8638086523232
 21
761.5820339223863
 31
0.0
1001
AUSTER_ANSICHT
1002
{
1000
Det03
1002
}
1001
AUSTER_FOLIE
1002
{
1000
S00_W_VERDRAHTUNGSBAUSATZ
1002
}
  0
LINE
  5
10B70
330
20
100
AcDbEntity
  8
10000_FRONT
  6
Continuous
 62
     7
370
    20
100
AcDbLine
 39
0.25
 10
-146.2638086523232
 20
760.5897339223863
 30
0.0
 11
-146.2638086523232
 21
761.5820339223863
 31
0.0
1001
AUSTER_ANSICHT
1002
{
1000
Det03
1002
}
1001
AUSTER_FOLIE
1002
{
1000
S00_W_VERDRAHTUNGSBAUSATZ
1002
}
  0
LINE
  5
10B71
330
20
100
AcDbEntity
  8
10000_FRONT
  6
Continuous
 62
     7
370
    20
100
AcDbLine
 39
0.25
 10
-153.8338086523232
 20
761.5820339223863
 30
0.0
 11
-153.8338086523232
 21
760.5897339223863
 31
0.0
1001
AUSTER_ANSICHT
1002
{
1000
Det03
1002
}
1001
AUSTER_FOLIE
1002
{
1000
S00_W_VERDRAHTUNGSBAUSATZ
1002
}
  0
LINE
  5
10B72
330
20
100
AcDbEntity
  8
10000_FRONT
  6
Continuous
 62
     7
370
    20
100
AcDbLine
 39
0.25
 10
-145.2338086523232
 20
761.5820339223863
 30
0.0
 11
-145.2338086523232
 21
760.5897339223863
 31
0.0
1001
AUSTER_ANSICHT
1002
{
1000
Det03
1002
}
1001
AUSTER_FOLIE
1002
{
1000
S00_W_VERDRAHTUNGSBAUSATZ
1002
}
  0
LINE
  5
10B73
330
20
100
AcDbEntity
  8
10000_FRONT
  6
Continuous
 62
     7
370
    20
100
AcDbLine
 39
0.25
 10
-153.8338086523232
 20
761.5820339223863
 30
0.0
 11
-153.8338086523232
 21
761.7623339223863
 31
0.0
1001
AUSTER_ANSICHT
1002
{
1000
Det03
1002
}
1001
AUSTER_FOLIE
1002
{
1000
S00_W_VERDRAHTUNGSBAUSATZ
1002
}
  0
LINE
  5
10B74
330
20
100
AcDbEntity
  8
10000_FRONT
  6
Continuous
 62
     7
370
    20
100
AcDbLine
 39
0.25
 10
-145.2338086523232
 20
761.5820339223863
 30
0.0
 11
-145.2338086523232
 21
761.7623339223863
 31
0.0
1001
AUSTER_ANSICHT
1002
{
1000
Det03
1002
}
1001
AUSTER_FOLIE
1002
{
1000
S00_W_VERDRAHTUNGSBAUSATZ
1002
}
  0
LINE
  5
10B75
330
20
100
AcDbEntity
  8
10000_FRONT
  6
Continuous
 62
     7
370
    20
100
AcDbLine
 39
0.25
 10
-153.8338086523232
 20
763.1512339223863
 30
0.0
 11
-153.8338086523232
 21
762.9709339223863
 31
0.0
1001
AUSTER_ANSICHT
1002
{
1000
Det03
1002
}
1001
AUSTER_FOLIE
1002
{
1000
S00_W_VERDRAHTUNGSBAUSATZ
1002
}
  0
LINE
  5
10B76
330
20
100
AcDbEntity
  8
10000_FRONT
  6
Continuous
 62
     7
370
    20
100
AcDbLine
 39
0.25
 10
-145.2338086523232
 20
763.1512339223863
 30
0.0
 11
-145.2338086523232
 21
762.9709339223863
 31
0.0
1001
AUSTER_ANSICHT
1002
{
1000
Det03
1002
}
1001
AUSTER_FOLIE
1002
{
1000
S00_W_VERDRAHTUNGSBAUSATZ
1002
}
  0
LINE
  5
10B77
330
20
100
AcDbEntity
  8
10000_FRONT
  6
Continuous
 62
     7
370
    20
100
AcDbLine
 39
0.25
 10
-154.8638086523232
 20
761.5820339223863
 30
0.0
 11
-154.8638086523232
 21
761.7623339223863
 31
0.0
1001
AUSTER_ANSICHT
1002
{
1000
Det03
1002
}
1001
AUSTER_FOLIE
1002
{
1000
S00_W_VERDRAHTUNGSBAUSATZ
1002
}
  0
LINE
  5
10B78
330
20
100
AcDbEntity
  8
10000_FRONT
  6
Continuous
 62
     7
370
    20
100
AcDbLine
 39
0.25
 10
-146.2638086523232
 20
761.5820339223863
 30
0.0
 11
-146.2638086523232
 21
761.7623339223863
 31
0.0
1001
AUSTER_ANSICHT
1002
{
1000
Det03
1002
}
1001
AUSTER_FOLIE
1002
{
1000
S00_W_VERDRAHTUNGSBAUSATZ
1002
}
  0
LINE
  5
10B79
330
20
100
AcDbEntity
  8
10000_FRONT
  6
Continuous
 62
     7
370
    20
100
AcDbLine
 39
0.25
 10
-154.8638086523232
 20
763.1512339223863
 30
0.0
 11
-154.8638086523232
 21
762.9709339223863
 31
0.0
1001
AUSTER_ANSICHT
1002
{
1000
Det03
1002
}
1001
AUSTER_FOLIE
1002
{
1000
S00_W_VERDRAHTUNGSBAUSATZ
1002
}
  0
LINE
  5
10B7A
330
20
100
AcDbEntity
  8
10000_FRONT
  6
Continuous
 62
     7
370
    20
100
AcDbLine
 39
0.25
 10
-146.2638086523232
 20
763.1512339223863
 30
0.0
 11
-146.2638086523232
 21
762.9709339223863
 31
0.0
1001
AUSTER_ANSICHT
1002
{
1000
Det03
1002
}
1001
AUSTER_FOLIE
1002
{
1000
S00_W_VERDRAHTUNGSBAUSATZ
1002
}
  0
LINE
  5
10B7B
330
20
100
AcDbEntity
  8
10000_FRONT
  6
Continuous
 62
     7
370
    20
100
AcDbLine
 39
0.25
 10
-153.8338086523232
 20
764.1435339223862
 30
0.0
 11
-153.8338086523232
 21
763.1512339223863
 31
0.0
1001
AUSTER_ANSICHT
1002
{
1000
Det03
1002
}
1001
AUSTER_FOLIE
1002
{
1000
S00_W_VERDRAHTUNGSBAUSATZ
1002
}
  0
LINE
  5
10B7C
330
20
100
AcDbEntity
  8
10000_FRONT
  6
Continuous
 62
     7
370
    20
100
AcDbLine
 39
0.25
 10
-145.2338086523232
 20
764.1435339223862
 30
0.0
 11
-145.2338086523232
 21
763.1512339223863
 31
0.0
1001
AUSTER_ANSICHT
1002
{
1000
Det03
1002
}
1001
AUSTER_FOLIE
1002
{
1000
S00_W_VERDRAHTUNGSBAUSATZ
1002
}
  0
LINE
  5
10B7D
330
20
100
AcDbEntity
  8
10000_FRONT
  6
Continuous
 62
     7
370
    20
100
AcDbLine
 39
0.25
 10
-154.8638086523232
 20
763.1512339223863
 30
0.0
 11
-154.8638086523232
 21
764.1435339223862
 31
0.0
1001
AUSTER_ANSICHT
1002
{
1000
Det03
1002
}
1001
AUSTER_FOLIE
1002
{
1000
S00_W_VERDRAHTUNGSBAUSATZ
1002
}
  0
LINE
  5
10B7E
330
20
100
AcDbEntity
  8
10000_FRONT
  6
Continuous
 62
     7
370
    20
100
AcDbLine
 39
0.25
 10
-146.2638086523232
 20
763.1512339223863
 30
0.0
 11
-146.2638086523232
 21
764.1435339223862
 31
0.0
1001
AUSTER_ANSICHT
1002
{
1000
Det03
1002
}
1001
AUSTER_FOLIE
1002
{
1000
S00_W_VERDRAHTUNGSBAUSATZ
1002
}
  0
LINE
  5
10B7F
330
20
100
AcDbEntity
  8
10000_FRONT
  6
Continuous
 62
     7
370
    20
100
AcDbLine
 39
0.25
 10
-139.9345086523232
 20
762.9709339223863
 30
0.0
 11
-137.6638116523232
 21
762.9709339223863
 31
0.0
1001
AUSTER_ANSICHT
1002
{
1000
Det03
1002
}
1001
AUSTER_FOLIE
1002
{
1000
S00_W_VERDRAHTUNGSBAUSATZ
1002
}
  0
LINE
  5
10B80
330
20
100
AcDbEntity
  8
10000_FRONT
  6
Continuous
 62
     7
370
    20
100
AcDbLine
 39
0.25
 10
-136.6338116523232
 20
762.9709339223863
 30
0.0
 11
-134.3631136523232
 21
762.9709339223863
 31
0.0
1001
AUSTER_ANSICHT
1002
{
1000
Det03
1002
}
1001
AUSTER_FOLIE
1002
{
1000
S00_W_VERDRAHTUNGSBAUSATZ
1002
}
  0
LINE
  5
10B81
330
20
100
AcDbEntity
  8
10000_FRONT
  6
Continuous
 62
     7
370
    20
100
AcDbLine
 39
0.25
 10
-134.3631136523232
 20
761.7623339223863
 30
0.0
 11
-136.6338116523232
 21
761.7623339223863
 31
0.0
1001
AUSTER_ANSICHT
1002
{
1000
Det03
1002
}
1001
AUSTER_FOLIE
1002
{
1000
S00_W_VERDRAHTUNGSBAUSATZ
1002
}
  0
LINE
  5
10B82
330
20
100
AcDbEntity
  8
10000_FRONT
  6
Continuous
 62
     7
370
    20
100
AcDbLine
 39
0.25
 10
-137.6638116523232
 20
761.7623339223863
 30
0.0
 11
-139.9345086523232
 21
761.7623339223863
 31
0.0
1001
AUSTER_ANSICHT
1002
{
1000
Det03
1002
}
1001
AUSTER_FOLIE
1002
{
1000
S00_W_VERDRAHTUNGSBAUSATZ
1002
}
  0
LINE
  5
10B83
330
20
100
AcDbEntity
  8
10000_FRONT
  6
Continuous
 62
     7
370
    20
100
AcDbLine
 39
0.25
 10
-136.6338116523232
 20
764.1435339223862
 30
0.0
 11
-136.6338116523232
 21
763.1512339223863
 31
0.0
1001
AUSTER_ANSICHT
1002
{
1000
Det03
1002
}
1001
AUSTER_FOLIE
1002
{
1000
S00_W_VERDRAHTUNGSBAUSATZ
1002
}
  0
LINE
  5
10B84
330
20
100
AcDbEntity
  8
10000_FRONT
  6
Continuous
 62
     7
370
    20
100
AcDbLine
 39
0.25
 10
-137.6638106523232
 20
763.1512339223863
 30
0.0
 11
-137.6638116523232
 21
764.1435339223862
 31
0.0
1001
AUSTER_ANSICHT
1002
{
1000
Det03
1002
}
1001
AUSTER_FOLIE
1002
{
1000
S00_W_VERDRAHTUNGSBAUSATZ
1002
}
  0
LINE
  5
10B85
330
20
100
AcDbEntity
  8
10000_FRONT
  6
Continuous
 62
     7
370
    20
100
AcDbLine
 39
0.25
 10
-136.6338136523232
 20
761.5820339223863
 30
0.0
 11
-136.6338116523232
 21
761.7623339223863
 31
0.0
1001
AUSTER_ANSICHT
1002
{
1000
Det03
1002
}
1001
AUSTER_FOLIE
1002
{
1000
S00_W_VERDRAHTUNGSBAUSATZ
1002
}
  0
LINE
  5
10B86
330
20
100
AcDbEntity
  8
10000_FRONT
  6
Continuous
 62
     7
370
    20
100
AcDbLine
 39
0.25
 10
-136.6338136523232
 20
763.1512339223863
 30
0.0
 11
-136.6338116523232
 21
762.9709339223863
 31
0.0
1001
AUSTER_ANSICHT
1002
{
1000
Det03
1002
}
1001
AUSTER_FOLIE
1002
{
1000
S00_W_VERDRAHTUNGSBAUSATZ
1002
}
  0
LINE
  5
10B87
330
20
100
AcDbEntity
  8
10000_FRONT
  6
Continuous
 62
     7
370
    20
100
AcDbLine
 39
0.25
 10
-137.6638116523232
 20
761.5820339223863
 30
0.0
 11
-137.6638116523232
 21
761.7623339223863
 31
0.0
1001
AUSTER_ANSICHT
1002
{
1000
Det03
1002
}
1001
AUSTER_FOLIE
1002
{
1000
S00_W_VERDRAHTUNGSBAUSATZ
1002
}
  0
LINE
  5
10B88
330
20
100
AcDbEntity
  8
10000_FRONT
  6
Continuous
 62
     7
370
    20
100
AcDbLine
 39
0.25
 10
-137.6638106523232
 20
763.1512339223863
 30
0.0
 11
-137.6638116523232
 21
762.9709339223863
 31
0.0
1001
AUSTER_ANSICHT
1002
{
1000
Det03
1002
}
1001
AUSTER_FOLIE
1002
{
1000
S00_W_VERDRAHTUNGSBAUSATZ
1002
}
  0
LINE
  5
10B89
330
20
100
AcDbEntity
  8
10000_FRONT
  6
Continuous
 62
     7
370
    20
100
AcDbLine
 39
0.25
 10
-137.6638116523232
 20
760.5897339223863
 30
0.0
 11
-137.6638116523232
 21
761.5820339223863
 31
0.0
1001
AUSTER_ANSICHT
1002
{
1000
Det03
1002
}
1001
AUSTER_FOLIE
1002
{
1000
S00_W_VERDRAHTUNGSBAUSATZ
1002
}
  0
LINE
  5
10B8A
330
20
100
AcDbEntity
  8
10000_FRONT
  6
Continuous
 62
     7
370
    20
100
AcDbLine
 39
0.25
 10
-136.6338116523232
 20
761.5820339223863
 30
0.0
 11
-136.6338116523232
 21
760.5897339223863
 31
0.0
1001
AUSTER_ANSICHT
1002
{
1000
Det03
1002
}
1001
AUSTER_FOLIE
1002
{
1000
S00_W_VERDRAHTUNGSBAUSATZ
1002
}
  0
LINE
  5
10B8B
330
20
100
AcDbEntity
  8
10000_FRONT
  6
Continuous
 62
     7
370
    20
100
AcDbLine
 39
0.25
 10
-131.3345096523232
 20
762.9709339223863
 30
0.0
 11
-129.0638117523232
 21
762.9709339223863
 31
0.0
1001
AUSTER_ANSICHT
1002
{
1000
Det03
1002
}
1001
AUSTER_FOLIE
1002
{
1000
S00_W_VERDRAHTUNGSBAUSATZ
1002
}
  0
LINE
  5
10B8C
330
20
100
AcDbEntity
  8
10000_FRONT
  6
Continuous
 62
     7
370
    20
100
AcDbLine
 39
0.25
 10
-128.0338116523232
 20
762.9709339223863
 30
0.0
 11
-125.7631136523232
 21
762.9709339223863
 31
0.0
1001
AUSTER_ANSICHT
1002
{
1000
Det03
1002
}
1001
AUSTER_FOLIE
1002
{
1000
S00_W_VERDRAHTUNGSBAUSATZ
1002
}
  0
LINE
  5
10B8D
330
20
100
AcDbEntity
  8
10000_FRONT
  6
Continuous
 62
     7
370
    20
100
AcDbLine
 39
0.25
 10
-125.7631136523232
 20
761.7623339223863
 30
0.0
 11
-128.0338116523232
 21
761.7623339223863
 31
0.0
1001
AUSTER_ANSICHT
1002
{
1000
Det03
1002
}
1001
AUSTER_FOLIE
1002
{
1000
S00_W_VERDRAHTUNGSBAUSATZ
1002
}
  0
LINE
  5
10B8E
330
20
100
AcDbEntity
  8
10000_FRONT
  6
Continuous
 62
     7
370
    20
100
AcDbLine
 39
0.25
 10
-129.0638117523232
 20
761.7623339223863
 30
0.0
 11
-131.3345096523232
 21
761.7623339223863
 31
0.0
1001
AUSTER_ANSICHT
1002
{
1000
Det03
1002
}
1001
AUSTER_FOLIE
1002
{
1000
S00_W_VERDRAHTUNGSBAUSATZ
1002
}
  0
LINE
  5
10B8F
330
20
100
AcDbEntity
  8
10000_FRONT
  6
Continuous
 62
     7
370
    20
100
AcDbLine
 39
0.25
 10
-128.0338116523232
 20
764.1435339223862
 30
0.0
 11
-128.0338116523232
 21
763.1512339223863
 31
0.0
1001
AUSTER_ANSICHT
1002
{
1000
Det03
1002
}
1001
AUSTER_FOLIE
1002
{
1000
S00_W_VERDRAHTUNGSBAUSATZ
1002
}
  0
LINE
  5
10B90
330
20
100
AcDbEntity
  8
10000_FRONT
  6
Continuous
 62
     7
370
    20
100
AcDbLine
 39
0.25
 10
-129.0638102523232
 20
763.1512339223863
 30
0.0
 11
-129.0638117523232
 21
764.1435339223862
 31
0.0
1001
AUSTER_ANSICHT
1002
{
1000
Det03
1002
}
1001
AUSTER_FOLIE
1002
{
1000
S00_W_VERDRAHTUNGSBAUSATZ
1002
}
  0
LINE
  5
10B91
330
20
100
AcDbEntity
  8
10000_FRONT
  6
Continuous
 62
     7
370
    20
100
AcDbLine
 39
0.25
 10
-128.0338136523232
 20
761.5820339223863
 30
0.0
 11
-128.0338116523232
 21
761.7623339223863
 31
0.0
1001
AUSTER_ANSICHT
1002
{
1000
Det03
1002
}
1001
AUSTER_FOLIE
1002
{
1000
S00_W_VERDRAHTUNGSBAUSATZ
1002
}
  0
LINE
  5
10B92
330
20
100
AcDbEntity
  8
10000_FRONT
  6
Continuous
 62
     7
370
    20
100
AcDbLine
 39
0.25
 10
-128.0338136523232
 20
763.1512339223863
 30
0.0
 11
-128.0338116523232
 21
762.9709339223863
 31
0.0
1001
AUSTER_ANSICHT
1002
{
1000
Det03
1002
}
1001
AUSTER_FOLIE
1002
{
1000
S00_W_VERDRAHTUNGSBAUSATZ
1002
}
  0
LINE
  5
10B93
330
20
100
AcDbEntity
  8
10000_FRONT
  6
Continuous
 62
     7
370
    20
100
AcDbLine
 39
0.25
 10
-129.0638117523232
 20
761.5820339223863
 30
0.0
 11
-129.0638117523232
 21
761.7623339223863
 31
0.0
1001
AUSTER_ANSICHT
1002
{
1000
Det03
1002
}
1001
AUSTER_FOLIE
1002
{
1000
S00_W_VERDRAHTUNGSBAUSATZ
1002
}
  0
LINE
  5
10B94
330
20
100
AcDbEntity
  8
10000_FRONT
  6
Continuous
 62
     7
370
    20
100
AcDbLine
 39
0.25
 10
-129.0638102523232
 20
763.1512339223863
 30
0.0
 11
-129.0638117523232
 21
762.9709339223863
 31
0.0
1001
AUSTER_ANSICHT
1002
{
1000
Det03
1002
}
1001
AUSTER_FOLIE
1002
{
1000
S00_W_VERDRAHTUNGSBAUSATZ
1002
}
  0
LINE
  5
10B95
330
20
100
AcDbEntity
  8
10000_FRONT
  6
Continuous
 62
     7
370
    20
100
AcDbLine
 39
0.25
 10
-129.0638117523232
 20
760.5897339223863
 30
0.0
 11
-129.0638117523232
 21
761.5820339223863
 31
0.0
1001
AUSTER_ANSICHT
1002
{
1000
Det03
1002
}
1001
AUSTER_FOLIE
1002
{
1000
S00_W_VERDRAHTUNGSBAUSATZ
1002
}
  0
LINE
  5
10B96
330
20
100
AcDbEntity
  8
10000_FRONT
  6
Continuous
 62
     7
370
    20
100
AcDbLine
 39
0.25
 10
-128.0338116523232
 20
761.5820339223863
 30
0.0
 11
-128.0338116523232
 21
760.5897339223863
 31
0.0
1001
AUSTER_ANSICHT
1002
{
1000
Det03
1002
}
1001
AUSTER_FOLIE
1002
{
1000
S00_W_VERDRAHTUNGSBAUSATZ
1002
}
  0
LINE
  5
10B97
330
20
100
AcDbEntity
  8
10000_FRONT
  6
Continuous
 62
     7
370
    20
100
AcDbLine
 39
0.25
 10
-120.4638116523232
 20
760.5897339223863
 30
0.0
 11
-120.4638116523232
 21
761.5820339223863
 31
0.0
1001
AUSTER_ANSICHT
1002
{
1000
Det03
1002
}
1001
AUSTER_FOLIE
1002
{
1000
S00_W_VERDRAHTUNGSBAUSATZ
1002
}
  0
LINE
  5
10B98
330
20
100
AcDbEntity
  8
10000_FRONT
  6
Continuous
 62
     7
370
    20
100
AcDbLine
 39
0.25
 10
-120.4638116523232
 20
761.5820339223863
 30
0.0
 11
-120.4638116523232
 21
761.7623339223863
 31
0.0
1001
AUSTER_ANSICHT
1002
{
1000
Det03
1002
}
1001
AUSTER_FOLIE
1002
{
1000
S00_W_VERDRAHTUNGSBAUSATZ
1002
}
  0
LINE
  5
10B99
330
20
100
AcDbEntity
  8
10000_FRONT
  6
Continuous
 62
     7
370
    20
100
AcDbLine
 39
0.25
 10
-120.4638106523232
 20
763.1512339223863
 30
0.0
 11
-120.4638116523232
 21
762.9709339223863
 31
0.0
1001
AUSTER_ANSICHT
1002
{
1000
Det03
1002
}
1001
AUSTER_FOLIE
1002
{
1000
S00_W_VERDRAHTUNGSBAUSATZ
1002
}
  0
LINE
  5
10B9A
330
20
100
AcDbEntity
  8
10000_FRONT
  6
Continuous
 62
     7
370
    20
100
AcDbLine
 39
0.25
 10
-122.7345096523232
 20
762.9709339223863
 30
0.0
 11
-120.4638116523232
 21
762.9709339223863
 31
0.0
1001
AUSTER_ANSICHT
1002
{
1000
Det03
1002
}
1001
AUSTER_FOLIE
1002
{
1000
S00_W_VERDRAHTUNGSBAUSATZ
1002
}
  0
LINE
  5
10B9B
330
20
100
AcDbEntity
  8
10000_FRONT
  6
Continuous
 62
     7
370
    20
100
AcDbLine
 39
0.25
 10
-120.4638116523232
 20
761.7623339223863
 30
0.0
 11
-122.7345096523232
 21
761.7623339223863
 31
0.0
1001
AUSTER_ANSICHT
1002
{
1000
Det03
1002
}
1001
AUSTER_FOLIE
1002
{
1000
S00_W_VERDRAHTUNGSBAUSATZ
1002
}
  0
LINE
  5
10B9C
330
20
100
AcDbEntity
  8
10000_FRONT
  6
Continuous
 62
     7
370
    20
100
AcDbLine
 39
0.25
 10
-120.4638106523232
 20
763.1512339223863
 30
0.0
 11
-120.4638116523232
 21
764.1435339223862
 31
0.0
1001
AUSTER_ANSICHT
1002
{
1000
Det03
1002
}
1001
AUSTER_FOLIE
1002
{
1000
S00_W_VERDRAHTUNGSBAUSATZ
1002
}
  0
LINE
  5
10B9D
330
20
100
AcDbEntity
  8
10000_FRONT
  6
Continuous
 62
     7
370
    20
100
AcDbLine
 39
0.25
 10
-139.4799686523232
 20
742.0666339223863
 30
0.0
 11
-143.4187986523232
 21
742.0666339223863
 31
0.0
1001
AUSTER_ANSICHT
1002
{
1000
Det03
1002
}
1001
AUSTER_FOLIE
1002
{
1000
S00_W_VERDRAHTUNGSBAUSATZ
1002
}
  0
LINE
  5
10B9E
330
20
100
AcDbEntity
  8
10000_FRONT
  6
Continuous
 62
     7
370
    20
100
AcDbLine
 39
0.25
 10
-139.4799686523232
 20
746.6666339223863
 30
0.0
 11
-143.4187986523232
 21
746.6666339223863
 31
0.0
1001
AUSTER_ANSICHT
1002
{
1000
Det03
1002
}
1001
AUSTER_FOLIE
1002
{
1000
S00_W_VERDRAHTUNGSBAUSATZ
1002
}
  0
LINE
  5
10B9F
330
20
100
AcDbEntity
  8
10000_FRONT
  6
Continuous
 62
     7
370
    20
100
AcDbLine
 39
0.25
 10
-143.4187986523232
 20
746.6666339223863
 30
0.0
 11
-143.4187986523232
 21
742.0666339223863
 31
0.0
1001
AUSTER_ANSICHT
1002
{
1000
Det03
1002
}
1001
AUSTER_FOLIE
1002
{
1000
S00_W_VERDRAHTUNGSBAUSATZ
1002
}
  0
LINE
  5
10BA0
330
20
100
AcDbEntity
  8
10000_FRONT
  6
Continuous
 62
     7
370
    20
100
AcDbLine
 39
0.25
 10
-139.4799686523232
 20
742.0666339223863
 30
0.0
 11
-139.4799686523232
 21
746.6666339223863
 31
0.0
1001
AUSTER_ANSICHT
1002
{
1000
Det03
1002
}
1001
AUSTER_FOLIE
1002
{
1000
S00_W_VERDRAHTUNGSBAUSATZ
1002
}
  0
LINE
  5
10BA1
330
20
100
AcDbEntity
  8
10000_FRONT
  6
Continuous
 62
     7
370
    20
100
AcDbLine
 39
0.25
 10
-136.9354146523232
 20
738.5032339223863
 30
0.0
 11
-135.3488116523232
 21
738.5032339223863
 31
0.0
1001
AUSTER_ANSICHT
1002
{
1000
Det03
1002
}
1001
AUSTER_FOLIE
1002
{
1000
S00_W_VERDRAHTUNGSBAUSATZ
1002
}
  0
LINE
  5
10BA2
330
20
100
AcDbEntity
  8
10000_FRONT
  6
Continuous
 62
     7
370
    20
100
AcDbLine
 39
0.25
 10
-136.9354146523232
 20
739.4800339223863
 30
0.0
 11
-136.9354146523232
 21
732.3300339223862
 31
0.0
1001
AUSTER_ANSICHT
1002
{
1000
Det03
1002
}
1001
AUSTER_FOLIE
1002
{
1000
S00_W_VERDRAHTUNGSBAUSATZ
1002
}
  0
LINE
  5
10BA3
330
20
100
AcDbEntity
  8
10000_FRONT
  6
Continuous
 62
     7
370
    20
100
AcDbLine
 39
0.25
 10
-156.9354186523232
 20
732.3300339223862
 30
0.0
 11
-135.3488116523232
 21
732.3300339223862
 31
0.0
1001
AUSTER_ANSICHT
1002
{
1000
Det03
1002
}
1001
AUSTER_FOLIE
1002
{
1000
S00_W_VERDRAHTUNGSBAUSATZ
1002
}
  0
LINE
  5
10BA4
330
20
100
AcDbEntity
  8
10000_FRONT
  6
Continuous
 62
     7
370
    20
100
AcDbLine
 39
0.25
 10
-156.9354186523232
 20
739.4800339223863
 30
0.0
 11
-156.9354186523232
 21
732.3300339223862
 31
0.0
1001
AUSTER_ANSICHT
1002
{
1000
Det03
1002
}
1001
AUSTER_FOLIE
1002
{
1000
S00_W_VERDRAHTUNGSBAUSATZ
1002
}
  0
LINE
  5
10BA5
330
20
100
AcDbEntity
  8
10000_FRONT
  6
Continuous
 62
     7
370
    20
100
AcDbLine
 39
0.25
 10
-152.6488086523232
 20
755.1666339223863
 30
0.0
 11
-147.6488086523232
 21
755.1666339223863
 31
0.0
1001
AUSTER_ANSICHT
1002
{
1000
Det03
1002
}
1001
AUSTER_FOLIE
1002
{
1000
S00_W_VERDRAHTUNGSBAUSATZ
1002
}
  0
LINE
  5
10BA6
330
20
100
AcDbEntity
  8
10000_FRONT
  6
Continuous
 62
     7
370
    20
100
AcDbLine
 39
0.25
 10
-147.6488086523232
 20
755.1666339223863
 30
0.0
 11
-147.6488086523232
 21
741.1698339223863
 31
0.0
1001
AUSTER_ANSICHT
1002
{
1000
Det03
1002
}
1001
AUSTER_FOLIE
1002
{
1000
S00_W_VERDRAHTUNGSBAUSATZ
1002
}
  0
LINE
  5
10BA7
330
20
100
AcDbEntity
  8
10000_FRONT
  6
Continuous
 62
     7
370
    20
100
AcDbLine
 39
0.25
 10
-147.6488086523232
 20
741.1698339223863
 30
0.0
 11
-151.0488086523232
 21
741.1698339223863
 31
0.0
1001
AUSTER_ANSICHT
1002
{
1000
Det03
1002
}
1001
AUSTER_FOLIE
1002
{
1000
S00_W_VERDRAHTUNGSBAUSATZ
1002
}
  0
LINE
  5
10BA8
330
20
100
AcDbEntity
  8
10000_FRONT
  6
Continuous
 62
     7
370
    20
100
AcDbLine
 39
0.25
 10
-151.0488086523232
 20
741.1698339223863
 30
0.0
 11
-151.0488086523232
 21
749.9666339223863
 31
0.0
1001
AUSTER_ANSICHT
1002
{
1000
Det03
1002
}
1001
AUSTER_FOLIE
1002
{
1000
S00_W_VERDRAHTUNGSBAUSATZ
1002
}
  0
LINE
  5
10BA9
330
20
100
AcDbEntity
  8
10000_FRONT
  6
Continuous
 62
     7
370
    20
100
AcDbLine
 39
0.25
 10
-151.0488086523232
 20
749.9666339223863
 30
0.0
 11
-152.6488086523232
 21
749.9666339223863
 31
0.0
1001
AUSTER_ANSICHT
1002
{
1000
Det03
1002
}
1001
AUSTER_FOLIE
1002
{
1000
S00_W_VERDRAHTUNGSBAUSATZ
1002
}
  0
LINE
  5
10BAA
330
20
100
AcDbEntity
  8
10000_FRONT
  6
Continuous
 62
     7
370
    20
100
AcDbLine
 39
0.25
 10
-152.6488086523232
 20
749.9666339223863
 30
0.0
 11
-152.6488086523232
 21
755.1666339223863
 31
0.0
1001
AUSTER_ANSICHT
1002
{
1000
Det03
1002
}
1001
AUSTER_FOLIE
1002
{
1000
S00_W_VERDRAHTUNGSBAUSATZ
1002
}
  0
LINE
  5
10BAB
330
20
100
AcDbEntity
  8
10000_FRONT
  6
Continuous
 62
     7
370
    20
100
AcDbLine
 39
0.25
 10
-130.2488118523232
 20
755.1666339223863
 30
0.0
 11
-135.2488116523232
 21
755.1666339223863
 31
0.0
1001
AUSTER_ANSICHT
1002
{
1000
Det03
1002
}
1001
AUSTER_FOLIE
1002
{
1000
S00_W_VERDRAHTUNGSBAUSATZ
1002
}
  0
LINE
  5
10BAC
330
20
100
AcDbEntity
  8
10000_FRONT
  6
Continuous
 62
     7
370
    20
100
AcDbLine
 39
0.25
 10
-135.2488116523232
 20
755.1666339223863
 30
0.0
 11
-135.2488116523232
 21
741.1698339223863
 31
0.0
1001
AUSTER_ANSICHT
1002
{
1000
Det03
1002
}
1001
AUSTER_FOLIE
1002
{
1000
S00_W_VERDRAHTUNGSBAUSATZ
1002
}
  0
LINE
  5
10BAD
330
20
100
AcDbEntity
  8
10000_FRONT
  6
Continuous
 62
     7
370
    20
100
AcDbLine
 39
0.25
 10
-135.2488116523232
 20
741.1698339223863
 30
0.0
 11
-131.8488116523232
 21
741.1698339223863
 31
0.0
1001
AUSTER_ANSICHT
1002
{
1000
Det03
1002
}
1001
AUSTER_FOLIE
1002
{
1000
S00_W_VERDRAHTUNGSBAUSATZ
1002
}
  0
LINE
  5
10BAE
330
20
100
AcDbEntity
  8
10000_FRONT
  6
Continuous
 62
     7
370
    20
100
AcDbLine
 39
0.25
 10
-131.8488116523232
 20
741.1698339223863
 30
0.0
 11
-131.8488116523232
 21
749.9666339223863
 31
0.0
1001
AUSTER_ANSICHT
1002
{
1000
Det03
1002
}
1001
AUSTER_FOLIE
1002
{
1000
S00_W_VERDRAHTUNGSBAUSATZ
1002
}
  0
LINE
  5
10BAF
330
20
100
AcDbEntity
  8
10000_FRONT
  6
Continuous
 62
     7
370
    20
100
AcDbLine
 39
0.25
 10
-131.8488116523232
 20
749.9666339223863
 30
0.0
 11
-130.2488118523232
 21
749.9666339223863
 31
0.0
1001
AUSTER_ANSICHT
1002
{
1000
Det03
1002
}
1001
AUSTER_FOLIE
1002
{
1000
S00_W_VERDRAHTUNGSBAUSATZ
1002
}
  0
LINE
  5
10BB0
330
20
100
AcDbEntity
  8
10000_FRONT
  6
Continuous
 62
     7
370
    20
100
AcDbLine
 39
0.25
 10
-130.2488118523232
 20
749.9666339223863
 30
0.0
 11
-130.2488118523232
 21
755.1666339223863
 31
0.0
1001
AUSTER_ANSICHT
1002
{
1000
Det03
1002
}
1001
AUSTER_FOLIE
1002
{
1000
S00_W_VERDRAHTUNGSBAUSATZ
1002
}
  0
LINE
  5
10BB1
330
20
100
AcDbEntity
  8
10000_FRONT
  6
Continuous
 62
     7
370
    20
100
AcDbLine
 39
0.25
 10
-129.4988118523232
 20
744.4167339223863
 30
0.0
 11
-129.4988118523232
 21
736.4765339223863
 31
0.0
1001
AUSTER_ANSICHT
1002
{
1000
Det03
1002
}
1001
AUSTER_FOLIE
1002
{
1000
S00_W_VERDRAHTUNGSBAUSATZ
1002
}
  0
LINE
  5
10BB2
330
20
100
AcDbEntity
  8
10000_FRONT
  6
Continuous
 62
     7
370
    20
100
AcDbLine
 39
0.25
 10
-129.6488118990332
 20
735.9167339223863
 30
0.0
 11
-129.6488118990332
 21
732.4167339223863
 31
0.0
1001
AUSTER_ANSICHT
1002
{
1000
Det03
1002
}
1001
AUSTER_FOLIE
1002
{
1000
S00_W_VERDRAHTUNGSBAUSATZ
1002
}
  0
LINE
  5
10BB3
330
20
100
AcDbEntity
  8
10000_FRONT
  6
Continuous
 62
     7
370
    20
100
AcDbLine
 39
0.25
 10
-129.6488118990332
 20
732.4167339223863
 30
0.0
 11
-130.8488116523232
 21
732.4167339223863
 31
0.0
1001
AUSTER_ANSICHT
1002
{
1000
Det03
1002
}
1001
AUSTER_FOLIE
1002
{
1000
S00_W_VERDRAHTUNGSBAUSATZ
1002
}
  0
LINE
  5
10BB4
330
20
100
AcDbEntity
  8
10000_FRONT
  6
Continuous
 62
     7
370
    20
100
AcDbLine
 39
0.25
 10
-130.8488116523232
 20
732.4167339223863
 30
0.0
 11
-130.8488116523232
 21
735.9049339223863
 31
0.0
1001
AUSTER_ANSICHT
1002
{
1000
Det03
1002
}
1001
AUSTER_FOLIE
1002
{
1000
S00_W_VERDRAHTUNGSBAUSATZ
1002
}
  0
LINE
  5
10BB5
330
20
100
AcDbEntity
  8
10000_FRONT
  6
Continuous
 62
     7
370
    20
100
AcDbLine
 39
0.25
 10
-130.9988116523232
 20
736.4765339223863
 30
0.0
 11
-130.9988116523232
 21
744.4167339223863
 31
0.0
1001
AUSTER_ANSICHT
1002
{
1000
Det03
1002
}
1001
AUSTER_FOLIE
1002
{
1000
S00_W_VERDRAHTUNGSBAUSATZ
1002
}
  0
LINE
  5
10BB6
330
20
100
AcDbEntity
  8
10000_FRONT
  6
Continuous
 62
     7
370
    20
100
AcDbLine
 39
0.25
 10
-145.1988086523232
 20
752.6666339223861
 30
0.0
 11
-137.6988116523232
 21
752.6666339223861
 31
0.0
1001
AUSTER_ANSICHT
1002
{
1000
Det03
1002
}
1001
AUSTER_FOLIE
1002
{
1000
S00_W_VERDRAHTUNGSBAUSATZ
1002
}
  0
LINE
  5
10BB7
330
20
100
AcDbEntity
  8
10000_FRONT
  6
Continuous
 62
     7
370
    20
100
AcDbLine
 39
0.25
 10
-137.6988116523232
 20
752.6666339223861
 30
0.0
 11
-137.6988116523232
 21
741.1666339223861
 31
0.0
1001
AUSTER_ANSICHT
1002
{
1000
Det03
1002
}
1001
AUSTER_FOLIE
1002
{
1000
S00_W_VERDRAHTUNGSBAUSATZ
1002
}
  0
LINE
  5
10BB8
330
20
100
AcDbEntity
  8
10000_FRONT
  6
Continuous
 62
     7
370
    20
100
AcDbLine
 39
0.25
 10
-137.6988116523232
 20
741.1666339223861
 30
0.0
 11
-145.1988086523232
 21
741.1666339223861
 31
0.0
1001
AUSTER_ANSICHT
1002
{
1000
Det03
1002
}
1001
AUSTER_FOLIE
1002
{
1000
S00_W_VERDRAHTUNGSBAUSATZ
1002
}
  0
LINE
  5
10BB9
330
20
100
AcDbEntity
  8
10000_FRONT
  6
Continuous
 62
     7
370
    20
100
AcDbLine
 39
0.25
 10
-145.1988086523232
 20
741.1666339223861
 30
0.0
 11
-145.1988086523232
 21
752.6666339223861
 31
0.0
1001
AUSTER_ANSICHT
1002
{
1000
Det03
1002
}
1001
AUSTER_FOLIE
1002
{
1000
S00_W_VERDRAHTUNGSBAUSATZ
1002
}
  0
LINE
  5
10BBA
330
20
100
AcDbEntity
  8
10000_FRONT
  6
Continuous
 62
     7
370
    20
100
AcDbLine
 39
0.25
 10
-135.3488116523232
 20
738.5032339223863
 30
0.0
 11
-135.3488116523232
 21
732.3300339223862
 31
0.0
1001
AUSTER_ANSICHT
1002
{
1000
Det03
1002
}
1001
AUSTER_FOLIE
1002
{
1000
S00_W_VERDRAHTUNGSBAUSATZ
1002
}
  0
LINE
  5
10BBB
330
20
100
AcDbEntity
  8
10000_FRONT
  6
Continuous
 62
     7
370
    20
100
AcDbLine
 39
0.25
 10
-129.4988118523232
 20
736.4765339223863
 30
0.0
 11
-129.6488118990332
 21
735.9167339223863
 31
0.0
1001
AUSTER_ANSICHT
1002
{
1000
Det03
1002
}
1001
AUSTER_FOLIE
1002
{
1000
S00_W_VERDRAHTUNGSBAUSATZ
1002
}
  0
LINE
  5
10BBC
330
20
100
AcDbEntity
  8
10000_FRONT
  6
Continuous
 62
     7
370
    20
100
AcDbLine
 39
0.25
 10
-130.8488116523232
 20
735.9167339223863
 30
0.0
 11
-130.9988116523232
 21
736.4765339223863
 31
0.0
1001
AUSTER_ANSICHT
1002
{
1000
Det03
1002
}
1001
AUSTER_FOLIE
1002
{
1000
S00_W_VERDRAHTUNGSBAUSATZ
1002
}
  0
LINE
  5
10BBD
330
20
100
AcDbEntity
  8
10000_FRONT
  6
Continuous
 62
     7
370
    20
100
AcDbLine
 39
0.25
 10
-139.4488116523232
 20
755.4686339223863
 30
0.0
 11
-139.4488116523232
 21
752.6666339223861
 31
0.0
1001
AUSTER_ANSICHT
1002
{
1000
Det03
1002
}
1001
AUSTER_FOLIE
1002
{
1000
S00_W_VERDRAHTUNGSBAUSATZ
1002
}
  0
LINE
  5
10BBE
330
20
100
AcDbEntity
  8
10000_FRONT
  6
Continuous
 62
     7
370
    20
100
AcDbLine
 39
0.25
 10
-143.4488086523232
 20
752.6666339223861
 30
0.0
 11
-143.4488086523232
 21
752.7257339223863
 31
0.0
1001
AUSTER_ANSICHT
1002
{
1000
Det03
1002
}
1001
AUSTER_FOLIE
1002
{
1000
S00_W_VERDRAHTUNGSBAUSATZ
1002
}
  0
LINE
  5
10BBF
330
20
100
AcDbEntity
  8
10000_FRONT
  6
Continuous
 62
     7
370
    20
100
AcDbLine
 39
0.25
 10
-143.4488086523232
 20
752.7257339223863
 30
0.0
 11
-143.4488086523232
 21
755.4686339223863
 31
0.0
1001
AUSTER_ANSICHT
1002
{
1000
Det03
1002
}
1001
AUSTER_FOLIE
1002
{
1000
S00_W_VERDRAHTUNGSBAUSATZ
1002
}
  0
LINE
  5
10BC0
330
20
100
AcDbEntity
  8
10000_FRONT
  6
Continuous
 62
     7
370
    20
100
AcDbLine
 39
0.25
 10
-143.4488086523232
 20
755.4686339223863
 30
0.0
 11
-139.4488116523232
 21
755.4686339223863
 31
0.0
1001
AUSTER_ANSICHT
1002
{
1000
Det03
1002
}
1001
AUSTER_FOLIE
1002
{
1000
S00_W_VERDRAHTUNGSBAUSATZ
1002
}
  0
LINE
  5
10BC1
330
20
100
AcDbEntity
  8
10000_FRONT
  6
Continuous
 62
     7
370
    20
100
AcDbLine
 39
0.25
 10
-156.9354186523232
 20
739.4800339223863
 30
0.0
 11
-154.4960986523232
 21
739.4800339223863
 31
0.0
1001
AUSTER_ANSICHT
1002
{
1000
Det03
1002
}
1001
AUSTER_FOLIE
1002
{
1000
S00_W_VERDRAHTUNGSBAUSATZ
1002
}
  0
LINE
  5
10BC2
330
20
100
AcDbEntity
  8
10000_FRONT
  6
Continuous
 62
     7
370
    20
100
AcDbLine
 39
0.25
 10
-150.3753086523231
 20
739.4800339223863
 30
0.0
 11
-143.4975386523232
 21
739.4800339223863
 31
0.0
1001
AUSTER_ANSICHT
1002
{
1000
Det03
1002
}
1001
AUSTER_FOLIE
1002
{
1000
S00_W_VERDRAHTUNGSBAUSATZ
1002
}
  0
LINE
  5
10BC3
330
20
100
AcDbEntity
  8
10000_FRONT
  6
Continuous
 62
     7
370
    20
100
AcDbLine
 39
0.25
 10
-139.3791996523232
 20
739.4800339223863
 30
0.0
 11
-136.9354146523232
 21
739.4800339223863
 31
0.0
1001
AUSTER_ANSICHT
1002
{
1000
Det03
1002
}
1001
AUSTER_FOLIE
1002
{
1000
S00_W_VERDRAHTUNGSBAUSATZ
1002
}
  0
LINE
  5
10BC4
330
20
100
AcDbEntity
  8
10000_FRONT
  6
Continuous
 62
     7
370
    20
100
AcDbLine
 39
0.25
 10
-139.3791996523232
 20
739.4800339223863
 30
0.0
 11
-143.4975386523232
 21
739.4800339223863
 31
0.0
1001
AUSTER_ANSICHT
1002
{
1000
Det03
1002
}
1001
AUSTER_FOLIE
1002
{
1000
S00_W_VERDRAHTUNGSBAUSATZ
1002
}
  0
LINE
  5
10BC5
330
20
100
AcDbEntity
  8
10000_FRONT
  6
Continuous
 62
     7
370
    20
100
AcDbLine
 39
0.25
 10
-150.3753086523231
 20
739.4800339223863
 30
0.0
 11
-154.4960986523232
 21
739.4800339223863
 31
0.0
1001
AUSTER_ANSICHT
1002
{
1000
Det03
1002
}
1001
AUSTER_FOLIE
1002
{
1000
S00_W_VERDRAHTUNGSBAUSATZ
1002
}
  0
LINE
  5
10BC6
330
20
100
AcDbEntity
  8
10000_FRONT
  6
Continuous
 62
     7
370
    20
100
AcDbLine
 39
0.25
 10
-121.0488116523232
 20
749.4666339223863
 30
0.0
 11
-121.0488116523232
 21
748.0166339223861
 31
0.0
1001
AUSTER_ANSICHT
1002
{
1000
Det03
1002
}
1001
AUSTER_FOLIE
1002
{
1000
S00_W_VERDRAHTUNGSBAUSATZ
1002
}
  0
LINE
  5
10BC7
330
20
100
AcDbEntity
  8
10000_FRONT
  6
Continuous
 62
     7
370
    20
100
AcDbLine
 39
0.25
 10
-121.0488116523232
 20
752.7666339223863
 30
0.0
 11
-121.0488116523232
 21
754.2666339223861
 31
0.0
1001
AUSTER_ANSICHT
1002
{
1000
Det03
1002
}
1001
AUSTER_FOLIE
1002
{
1000
S00_W_VERDRAHTUNGSBAUSATZ
1002
}
  0
LINE
  5
10BC8
330
20
100
AcDbEntity
  8
10000_FRONT
  6
Continuous
 62
     7
370
    20
100
AcDbLine
 39
0.25
 10
-121.0488116523232
 20
739.2666339223863
 30
0.0
 11
-121.0488116523232
 21
740.7166339223863
 31
0.0
1001
AUSTER_ANSICHT
1002
{
1000
Det03
1002
}
1001
AUSTER_FOLIE
1002
{
1000
S00_W_VERDRAHTUNGSBAUSATZ
1002
}
  0
LINE
  5
10BC9
330
20
100
AcDbEntity
  8
10000_FRONT
  6
Continuous
 62
     7
370
    20
100
AcDbLine
 39
0.25
 10
-121.0488116523232
 20
735.9666339223863
 30
0.0
 11
-121.0488116523232
 21
734.4666339223863
 31
0.0
1001
AUSTER_ANSICHT
1002
{
1000
Det03
1002
}
1001
AUSTER_FOLIE
1002
{
1000
S00_W_VERDRAHTUNGSBAUSATZ
1002
}
  0
LINE
  5
10BCA
330
20
100
AcDbEntity
  8
10000_FRONT
  6
Continuous
 62
     7
370
    20
100
AcDbLine
 39
0.25
 10
-130.9988116523232
 20
744.4167339223863
 30
0.0
 11
-129.4988118523232
 21
744.4167339223863
 31
0.0
1001
AUSTER_ANSICHT
1002
{
1000
Det03
1002
}
1001
AUSTER_FOLIE
1002
{
1000
S00_W_VERDRAHTUNGSBAUSATZ
1002
}
  0
LINE
  5
10BCB
330
20
100
AcDbEntity
  8
10000_FRONT
  6
Continuous
 62
     7
370
    20
100
AcDbLine
 39
0.25
 10
-132.5987286523232
 20
771.8666339223863
 30
0.0
 11
-132.5987286523232
 21
775.0666339223863
 31
0.0
1001
AUSTER_ANSICHT
1002
{
1000
Det03
1002
}
1001
AUSTER_FOLIE
1002
{
1000
S00_W_VERDRAHTUNGSBAUSATZ
1002
}
  0
LINE
  5
10BCC
330
20
100
AcDbEntity
  8
10000_FRONT
  6
Continuous
 62
     7
370
    20
100
AcDbLine
 39
0.25
 10
-137.6987286523232
 20
774.3666339223863
 30
0.0
 11
-132.5972646523232
 21
774.3666339223863
 31
0.0
1001
AUSTER_ANSICHT
1002
{
1000
Det03
1002
}
1001
AUSTER_FOLIE
1002
{
1000
S00_W_VERDRAHTUNGSBAUSATZ
1002
}
  0
LINE
  5
10BCD
330
20
100
AcDbEntity
  8
10000_FRONT
  6
Continuous
 62
     7
370
    20
100
AcDbLine
 39
0.25
 10
-146.2987286523232
 20
778.8666339223863
 30
0.0
 11
-141.1987286523233
 21
778.8666339223863
 31
0.0
1001
AUSTER_ANSICHT
1002
{
1000
Det03
1002
}
1001
AUSTER_FOLIE
1002
{
1000
S00_W_VERDRAHTUNGSBAUSATZ
1002
}
  0
LINE
  5
10BCE
330
20
100
AcDbEntity
  8
10000_FRONT
  6
Continuous
 62
     7
370
    20
100
AcDbLine
 39
0.25
 10
-154.8987286523232
 20
778.8666339223863
 30
0.0
 11
-149.7987286523231
 21
778.8666339223863
 31
0.0
1001
AUSTER_ANSICHT
1002
{
1000
Det03
1002
}
1001
AUSTER_FOLIE
1002
{
1000
S00_W_VERDRAHTUNGSBAUSATZ
1002
}
  0
LINE
  5
10BCF
330
20
100
AcDbEntity
  8
10000_FRONT
  6
Continuous
 62
     7
370
    20
100
AcDbLine
 39
0.25
 10
-154.8987286523232
 20
780.3666339223862
 30
0.0
 11
-154.8987286523232
 21
771.8666339223863
 31
0.0
1001
AUSTER_ANSICHT
1002
{
1000
Det03
1002
}
1001
AUSTER_FOLIE
1002
{
1000
S00_W_VERDRAHTUNGSBAUSATZ
1002
}
  0
LINE
  5
10BD0
330
20
100
AcDbEntity
  8
10000_FRONT
  6
Continuous
 62
     7
370
    20
100
AcDbLine
 39
0.25
 10
-149.7987286523231
 20
771.8666339223863
 30
0.0
 11
-149.7987286523231
 21
780.3666339223862
 31
0.0
1001
AUSTER_ANSICHT
1002
{
1000
Det03
1002
}
1001
AUSTER_FOLIE
1002
{
1000
S00_W_VERDRAHTUNGSBAUSATZ
1002
}
  0
LINE
  5
10BD1
330
20
100
AcDbEntity
  8
10000_FRONT
  6
Continuous
 62
     7
370
    20
100
AcDbLine
 39
0.25
 10
-146.2987286523232
 20
780.3666339223862
 30
0.0
 11
-146.2987286523232
 21
771.8666339223863
 31
0.0
1001
AUSTER_ANSICHT
1002
{
1000
Det03
1002
}
1001
AUSTER_FOLIE
1002
{
1000
S00_W_VERDRAHTUNGSBAUSATZ
1002
}
  0
LINE
  5
10BD2
330
20
100
AcDbEntity
  8
10000_FRONT
  6
Continuous
 62
     7
370
    20
100
AcDbLine
 39
0.25
 10
-141.1987286523233
 20
780.3666339223862
 30
0.0
 11
-141.1987286523233
 21
771.8666339223863
 31
0.0
1001
AUSTER_ANSICHT
1002
{
1000
Det03
1002
}
1001
AUSTER_FOLIE
1002
{
1000
S00_W_VERDRAHTUNGSBAUSATZ
1002
}
  0
LINE
  5
10BD3
330
20
100
AcDbEntity
  8
10000_FRONT
  6
Continuous
 62
     7
370
    20
100
AcDbLine
 39
0.25
 10
-137.6985366523232
 20
780.3666339223862
 30
0.0
 11
-137.6985606523232
 21
771.8666339223863
 31
0.0
1001
AUSTER_ANSICHT
1002
{
1000
Det03
1002
}
1001
AUSTER_FOLIE
1002
{
1000
S00_W_VERDRAHTUNGSBAUSATZ
1002
}
  0
LINE
  5
10BD5
330
20
100
AcDbEntity
  8
10000_FRONT
  6
Continuous
 62
     7
370
    50
100
AcDbLine
 39
0.7
 10
-155.5987286523231
 20
780.3666339223862
 30
0.0
 11
-149.0987286523232
 21
780.3666339223862
 31
0.0
1001
AUSTER_ANSICHT
1002
{
1000
Det03
1002
}
1001
AUSTER_FOLIE
1002
{
1000
S00_W_VERDRAHTUNGSBAUSATZ
1002
}
  0
LINE
  5
10BD6
330
20
100
AcDbEntity
  8
10000_FRONT
  6
Continuous
 62
     7
370
    50
100
AcDbLine
 39
0.7
 10
-149.0987286523232
 20
780.3666339223862
 30
0.0
 11
-146.9987286523232
 21
780.3666339223862
 31
0.0
1001
AUSTER_ANSICHT
1002
{
1000
Det03
1002
}
1001
AUSTER_FOLIE
1002
{
1000
S00_W_VERDRAHTUNGSBAUSATZ
1002
}
  0
LINE
  5
10BD7
330
20
100
AcDbEntity
  8
10000_FRONT
  6
Continuous
 62
     7
370
    50
100
AcDbLine
 39
0.7
 10
-146.9987286523232
 20
780.3666339223862
 30
0.0
 11
-140.4987286523232
 21
780.3666339223862
 31
0.0
1001
AUSTER_ANSICHT
1002
{
1000
Det03
1002
}
1001
AUSTER_FOLIE
1002
{
1000
S00_W_VERDRAHTUNGSBAUSATZ
1002
}
  0
LINE
  5
10BD8
330
20
100
AcDbEntity
  8
10000_FRONT
  6
Continuous
 62
     7
370
    50
100
AcDbLine
 39
0.7
 10
-154.8987286523232
 20
780.3666339223862
 30
0.0
 11
-157.5987286523232
 21
780.3666339223862
 31
0.0
1001
AUSTER_ANSICHT
1002
{
1000
Det03
1002
}
1001
AUSTER_FOLIE
1002
{
1000
S00_W_VERDRAHTUNGSBAUSATZ
1002
}
  0
LINE
  5
10BD9
330
20
100
AcDbEntity
  8
10000_FRONT
  6
Continuous
 62
     7
370
    50
100
AcDbLine
 39
0.7
 10
-158.3987286523232
 20
773.1166339223863
 30
0.0
 11
-158.3987286523232
 21
779.5666339223863
 31
0.0
1001
AUSTER_ANSICHT
1002
{
1000
Det03
1002
}
1001
AUSTER_FOLIE
1002
{
1000
S00_W_VERDRAHTUNGSBAUSATZ
1002
}
  0
ARC
  5
10BDB
330
20
100
AcDbEntity
  8
10000_FRONT
  6
Continuous
 62
     7
370
    20
100
AcDbCircle
 39
0.25
 10
-131.7987286523232
 20
775.0666339223863
 30
0.0
 40
0.8
100
AcDbArc
 50
90.0
 51
180.0
1001
AUSTER_ANSICHT
1002
{
1000
Det03
1002
}
1001
AUSTER_FOLIE
1002
{
1000
S00_W_VERDRAHTUNGSBAUSATZ
1002
}
  0
CIRCLE
  5
10BDC
330
20
100
AcDbEntity
  8
10000_FRONT
  6
Continuous
 62
     7
370
    20
100
AcDbCircle
 39
0.25
 10
-154.3488086523232
 20
762.3666339223863
 30
0.0
 40
3.1
1001
AUSTER_ANSICHT
1002
{
1000
Det03
1002
}
1001
AUSTER_FOLIE
1002
{
1000
S00_W_VERDRAHTUNGSBAUSATZ
1002
}
  0
CIRCLE
  5
10BDD
330
20
100
AcDbEntity
  8
10000_FRONT
  6
Continuous
 62
     7
370
    20
100
AcDbCircle
 39
0.25
 10
-145.7488086523232
 20
762.3666339223863
 30
0.0
 40
3.1
1001
AUSTER_ANSICHT
1002
{
1000
Det03
1002
}
1001
AUSTER_FOLIE
1002
{
1000
S00_W_VERDRAHTUNGSBAUSATZ
1002
}
  0
CIRCLE
  5
10BDE
330
20
100
AcDbEntity
  8
10000_FRONT
  6
Continuous
 62
     7
370
    20
100
AcDbCircle
 39
0.25
 10
-137.1488116523233
 20
762.3666339223863
 30
0.0
 40
3.1
1001
AUSTER_ANSICHT
1002
{
1000
Det03
1002
}
1001
AUSTER_FOLIE
1002
{
1000
S00_W_VERDRAHTUNGSBAUSATZ
1002
}
  0
CIRCLE
  5
10BDF
330
20
100
AcDbEntity
  8
10000_FRONT
  6
Continuous
 62
     7
370
    20
100
AcDbCircle
 39
0.25
 10
-128.5488116523232
 20
762.3666339223863
 30
0.0
 40
3.1
1001
AUSTER_ANSICHT
1002
{
1000
Det03
1002
}
1001
AUSTER_FOLIE
1002
{
1000
S00_W_VERDRAHTUNGSBAUSATZ
1002
}
  0
ARC
  5
10BE0
330
20
100
AcDbEntity
  8
10000_FRONT
  6
Continuous
 62
     7
370
    20
100
AcDbCircle
 39
0.25
 10
-154.3488086523232
 20
762.3666339223863
 30
0.0
 40
2.850490999999998
100
AcDbArc
 50
347.7603999999987
 51
12.23960000000143
1001
AUSTER_ANSICHT
1002
{
1000
Det03
1002
}
1001
AUSTER_FOLIE
1002
{
1000
S00_W_VERDRAHTUNGSBAUSATZ
1002
}
  0
ARC
  5
10BE1
330
20
100
AcDbEntity
  8
10000_FRONT
  6
Continuous
 62
     7
370
    20
100
AcDbCircle
 39
0.25
 10
-145.7488086523232
 20
762.3666339223863
 30
0.0
 40
2.850490999999998
100
AcDbArc
 50
347.7603999999987
 51
12.23960000000143
1001
AUSTER_ANSICHT
1002
{
1000
Det03
1002
}
1001
AUSTER_FOLIE
1002
{
1000
S00_W_VERDRAHTUNGSBAUSATZ
1002
}
  0
ARC
  5
10BE2
330
20
100
AcDbEntity
  8
10000_FRONT
  6
Continuous
 62
     7
370
    20
100
AcDbCircle
 39
0.25
 10
-154.3488086523232
 20
762.3666339223863
 30
0.0
 40
1.85
100
AcDbArc
 50
253.8365999999982
 51
286.1634000000003
1001
AUSTER_ANSICHT
1002
{
1000
Det03
1002
}
1001
AUSTER_FOLIE
1002
{
1000
S00_W_VERDRAHTUNGSBAUSATZ
1002
}
  0
ARC
  5
10BE3
330
20
100
AcDbEntity
  8
10000_FRONT
  6
Continuous
 62
     7
370
    20
100
AcDbCircle
 39
0.25
 10
-145.7488086523232
 20
762.3666339223863
 30
0.0
 40
1.85
100
AcDbArc
 50
253.8365999999982
 51
286.1634000000003
1001
AUSTER_ANSICHT
1002
{
1000
Det03
1002
}
1001
AUSTER_FOLIE
1002
{
1000
S00_W_VERDRAHTUNGSBAUSATZ
1002
}
  0
ARC
  5
10BE4
330
20
100
AcDbEntity
  8
10000_FRONT
  6
Continuous
 62
     7
370
    20
100
AcDbCircle
 39
0.25
 10
-154.3488086523232
 20
762.3666339223863
 30
0.0
 40
1.85
100
AcDbArc
 50
73.8365499999981
 51
106.1634000000003
1001
AUSTER_ANSICHT
1002
{
1000
Det03
1002
}
1001
AUSTER_FOLIE
1002
{
1000
S00_W_VERDRAHTUNGSBAUSATZ
1002
}
  0
ARC
  5
10BE5
330
20
100
AcDbEntity
  8
10000_FRONT
  6
Continuous
 62
     7
370
    20
100
AcDbCircle
 39
0.25
 10
-145.7488086523232
 20
762.3666339223863
 30
0.0
 40
1.85
100
AcDbArc
 50
73.8365499999981
 51
106.1634000000003
1001
AUSTER_ANSICHT
1002
{
1000
Det03
1002
}
1001
AUSTER_FOLIE
1002
{
1000
S00_W_VERDRAHTUNGSBAUSATZ
1002
}
  0
ARC
  5
10BE6
330
20
100
AcDbEntity
  8
10000_FRONT
  6
Continuous
 62
     7
370
    20
100
AcDbCircle
 39
0.25
 10
-154.3488086523232
 20
762.3666339223863
 30
0.0
 40
2.850490999999998
100
AcDbArc
 50
167.7603999999986
 51
192.2396000000014
1001
AUSTER_ANSICHT
1002
{
1000
Det03
1002
}
1001
AUSTER_FOLIE
1002
{
1000
S00_W_VERDRAHTUNGSBAUSATZ
1002
}
  0
ARC
  5
10BE7
330
20
100
AcDbEntity
  8
10000_FRONT
  6
Continuous
 62
     7
370
    20
100
AcDbCircle
 39
0.25
 10
-145.7488086523232
 20
762.3666339223863
 30
0.0
 40
2.850490999999998
100
AcDbArc
 50
167.7603999999986
 51
192.2396000000014
1001
AUSTER_ANSICHT
1002
{
1000
Det03
1002
}
1001
AUSTER_FOLIE
1002
{
1000
S00_W_VERDRAHTUNGSBAUSATZ
1002
}
  0
ARC
  5
10BE8
330
20
100
AcDbEntity
  8
10000_FRONT
  6
Continuous
 62
     7
370
    20
100
AcDbCircle
 39
0.25
 10
-137.1488116523233
 20
762.3666339223863
 30
0.0
 40
1.85
100
AcDbArc
 50
253.8365999999982
 51
286.1634000000003
1001
AUSTER_ANSICHT
1002
{
1000
Det03
1002
}
1001
AUSTER_FOLIE
1002
{
1000
S00_W_VERDRAHTUNGSBAUSATZ
1002
}
  0
ARC
  5
10BE9
330
20
100
AcDbEntity
  8
10000_FRONT
  6
Continuous
 62
     7
370
    20
100
AcDbCircle
 39
0.25
 10
-137.1488116523233
 20
762.3666339223863
 30
0.0
 40
2.850490999999998
100
AcDbArc
 50
347.7603999999987
 51
12.23960000000143
1001
AUSTER_ANSICHT
1002
{
1000
Det03
1002
}
1001
AUSTER_FOLIE
1002
{
1000
S00_W_VERDRAHTUNGSBAUSATZ
1002
}
  0
ARC
  5
10BEA
330
20
100
AcDbEntity
  8
10000_FRONT
  6
Continuous
 62
     7
370
    20
100
AcDbCircle
 39
0.25
 10
-137.1488116523233
 20
762.3666339223863
 30
0.0
 40
1.85
100
AcDbArc
 50
73.8365499999981
 51
106.1634000000003
1001
AUSTER_ANSICHT
1002
{
1000
Det03
1002
}
1001
AUSTER_FOLIE
1002
{
1000
S00_W_VERDRAHTUNGSBAUSATZ
1002
}
  0
ARC
  5
10BEB
330
20
100
AcDbEntity
  8
10000_FRONT
  6
Continuous
 62
     7
370
    20
100
AcDbCircle
 39
0.25
 10
-137.1488116523233
 20
762.3666339223863
 30
0.0
 40
2.850490999999998
100
AcDbArc
 50
167.7603999999986
 51
192.2396000000014
1001
AUSTER_ANSICHT
1002
{
1000
Det03
1002
}
1001
AUSTER_FOLIE
1002
{
1000
S00_W_VERDRAHTUNGSBAUSATZ
1002
}
  0
ARC
  5
10BEC
330
20
100
AcDbEntity
  8
10000_FRONT
  6
Continuous
 62
     7
370
    20
100
AcDbCircle
 39
0.25
 10
-128.5488116523232
 20
762.3666339223863
 30
0.0
 40
2.850490999999998
100
AcDbArc
 50
347.7603999999987
 51
12.23960000000143
1001
AUSTER_ANSICHT
1002
{
1000
Det03
1002
}
1001
AUSTER_FOLIE
1002
{
1000
S00_W_VERDRAHTUNGSBAUSATZ
1002
}
  0
ARC
  5
10BED
330
20
100
AcDbEntity
  8
10000_FRONT
  6
Continuous
 62
     7
370
    20
100
AcDbCircle
 39
0.25
 10
-128.5488116523232
 20
762.3666339223863
 30
0.0
 40
1.85
100
AcDbArc
 50
73.8365499999981
 51
106.1634000000003
1001
AUSTER_ANSICHT
1002
{
1000
Det03
1002
}
1001
AUSTER_FOLIE
1002
{
1000
S00_W_VERDRAHTUNGSBAUSATZ
1002
}
  0
ARC
  5
10BEE
330
20
100
AcDbEntity
  8
10000_FRONT
  6
Continuous
 62
     7
370
    20
100
AcDbCircle
 39
0.25
 10
-128.5488116523232
 20
762.3666339223863
 30
0.0
 40
2.850490999999998
100
AcDbArc
 50
167.7603999999986
 51
192.2396000000014
1001
AUSTER_ANSICHT
1002
{
1000
Det03
1002
}
1001
AUSTER_FOLIE
1002
{
1000
S00_W_VERDRAHTUNGSBAUSATZ
1002
}
  0
ARC
  5
10BEF
330
20
100
AcDbEntity
  8
10000_FRONT
  6
Continuous
 62
     7
370
    20
100
AcDbCircle
 39
0.25
 10
-128.5488116523232
 20
762.3666339223863
 30
0.0
 40
1.85
100
AcDbArc
 50
253.8365999999982
 51
286.1634000000003
1001
AUSTER_ANSICHT
1002
{
1000
Det03
1002
}
1001
AUSTER_FOLIE
1002
{
1000
S00_W_VERDRAHTUNGSBAUSATZ
1002
}
  0
ARC
  5
10BF0
330
20
100
AcDbEntity
  8
10000_FRONT
  6
Continuous
 62
     7
370
    20
100
AcDbCircle
 39
0.25
 10
-119.9488116523232
 20
762.3666339223863
 30
0.0
 40
2.850490999999998
100
AcDbArc
 50
167.7603999999986
 51
192.2396000000014
1001
AUSTER_ANSICHT
1002
{
1000
Det03
1002
}
1001
AUSTER_FOLIE
1002
{
1000
S00_W_VERDRAHTUNGSBAUSATZ
1002
}
  0
ARC
  5
10BF1
330
20
100
AcDbEntity
  8
10000_FRONT
  6
Continuous
 62
     7
370
    50
100
AcDbCircle
 39
0.7
 10
-157.5987286523232
 20
779.5666339223863
 30
0.0
 40
0.8
100
AcDbArc
 50
90.0
 51
180.0
1001
AUSTER_ANSICHT
1002
{
1000
Det03
1002
}
1001
AUSTER_FOLIE
1002
{
1000
S00_W_VERDRAHTUNGSBAUSATZ
1002
}
  0
TEXT
  5
10BF4
330
20
100
AcDbEntity
  8
10000_FRONT
  6
Continuous
 62
     7
370
    20
100
AcDbText
 39
0.25
 10
-157.6487286523232
 20
755.9666339223863
 30
0.0
 40
2.5
  1
SIEMENS
 41
0.6600000000000003
100
AcDbText
1001
AUSTER_ANSICHT
1002
{
1000
Det03
1002
}
1001
AUSTER_FOLIE
1002
{
1000
S00_W_VERDRAHTUNGSBAUSATZ
1002
}
  0
LINE
  5
10BF6
330
20
100
AcDbEntity
  8
10000_FRONT
  6
Continuous
 62
     7
370
    50
100
AcDbLine
 39
0.7
 10
-69.64872865232326
 20
773.1166339223863
 30
0.0
 11
-69.64872865232326
 21
715.6166339223863
 31
0.0
1001
AUSTER_ANSICHT
1002
{
1000
Det03
1002
}
1001
AUSTER_FOLIE
1002
{
1000
S00_W_VERDRAHTUNGSBAUSATZ
1002
}
  0
LINE
  5
10BF7
330
20
100
AcDbEntity
  8
10000_FRONT
  6
Continuous
 62
     7
370
    20
100
AcDbLine
 39
0.25
 10
-114.6487286523232
 20
716.8666339223863
 30
0.0
 11
-114.6487286523232
 21
771.8666339223863
 31
0.0
1001
AUSTER_ANSICHT
1002
{
1000
Det03
1002
}
1001
AUSTER_FOLIE
1002
{
1000
S00_W_VERDRAHTUNGSBAUSATZ
1002
}
  0
CIRCLE
  5
10BF8
330
20
100
AcDbEntity
  8
10000_FRONT
  6
Continuous
 62
     7
370
    20
100
AcDbCircle
 39
0.25
 10
-109.3488086523233
 20
726.3666339223862
 30
0.0
 40
3.1
1001
AUSTER_ANSICHT
1002
{
1000
Det03
1002
}
1001
AUSTER_FOLIE
1002
{
1000
S00_W_VERDRAHTUNGSBAUSATZ
1002
}
  0
CIRCLE
  5
10BF9
330
20
100
AcDbEntity
  8
10000_FRONT
  6
Continuous
 62
     7
370
    20
100
AcDbCircle
 39
0.25
 10
-100.7488086523232
 20
726.3666339223862
 30
0.0
 40
3.1
1001
AUSTER_ANSICHT
1002
{
1000
Det03
1002
}
1001
AUSTER_FOLIE
1002
{
1000
S00_W_VERDRAHTUNGSBAUSATZ
1002
}
  0
CIRCLE
  5
10BFA
330
20
100
AcDbEntity
  8
10000_FRONT
  6
Continuous
 62
     7
370
    20
100
AcDbCircle
 39
0.25
 10
-92.14880865232322
 20
726.3666339223862
 30
0.0
 40
3.1
1001
AUSTER_ANSICHT
1002
{
1000
Det03
1002
}
1001
AUSTER_FOLIE
1002
{
1000
S00_W_VERDRAHTUNGSBAUSATZ
1002
}
  0
CIRCLE
  5
10BFB
330
20
100
AcDbEntity
  8
10000_FRONT
  6
Continuous
 62
     7
370
    20
100
AcDbCircle
 39
0.25
 10
-83.54880865232326
 20
726.3666339223862
 30
0.0
 40
3.1
1001
AUSTER_ANSICHT
1002
{
1000
Det03
1002
}
1001
AUSTER_FOLIE
1002
{
1000
S00_W_VERDRAHTUNGSBAUSATZ
1002
}
  0
CIRCLE
  5
10BFC
330
20
100
AcDbEntity
  8
10000_FRONT
  6
Continuous
 62
     7
370
    20
100
AcDbCircle
 39
0.25
 10
-74.94880865232326
 20
726.3666339223862
 30
0.0
 40
3.1
1001
AUSTER_ANSICHT
1002
{
1000
Det03
1002
}
1001
AUSTER_FOLIE
1002
{
1000
S00_W_VERDRAHTUNGSBAUSATZ
1002
}
  0
LINE
  5
10BFD
330
20
100
AcDbEntity
  8
10000_FRONT
  6
Continuous
 62
     7
370
    20
100
AcDbLine
 39
0.25
 10
-69.64872865232326
 20
716.8666339223863
 30
0.0
 11
-75.59872865232325
 21
716.8666339223863
 31
0.0
1001
AUSTER_ANSICHT
1002
{
1000
Det03
1002
}
1001
AUSTER_FOLIE
1002
{
1000
S00_W_VERDRAHTUNGSBAUSATZ
1002
}
  0
LINE
  5
10C00
330
20
100
AcDbEntity
  8
10000_FRONT
  6
Continuous
 62
     7
370
    20
100
AcDbLine
 39
0.7
 10
-75.59872865232325
 20
716.8666339223863
 30
0.0
 11
-75.59872865232325
 21
715.6166339223863
 31
0.0
1001
AUSTER_ANSICHT
1002
{
1000
Det03
1002
}
1001
AUSTER_FOLIE
1002
{
1000
S00_W_VERDRAHTUNGSBAUSATZ
1002
}
  0
ARC
  5
10C01
330
20
100
AcDbEntity
  8
10000_FRONT
  6
Continuous
 62
     7
370
    50
100
AcDbCircle
 39
0.7
 10
-76.39872865232327
 20
713.6666339223863
 30
0.0
 40
0.8
100
AcDbArc
 50
270.0
 51
0.0
1001
AUSTER_ANSICHT
1002
{
1000
Det03
1002
}
1001
AUSTER_FOLIE
1002
{
1000
S00_W_VERDRAHTUNGSBAUSATZ
1002
}
  0
LINE
  5
10C02
330
20
100
AcDbEntity
  8
10000_FRONT
  6
Continuous
 62
     7
370
    20
100
AcDbLine
 39
0.25
 10
-112.1345086523232
 20
725.7623339223863
 30
0.0
 11
-109.8638086523232
 21
725.7623339223863
 31
0.0
1001
AUSTER_ANSICHT
1002
{
1000
Det03
1002
}
1001
AUSTER_FOLIE
1002
{
1000
S00_W_VERDRAHTUNGSBAUSATZ
1002
}
  0
LINE
  5
10C03
330
20
100
AcDbEntity
  8
10000_FRONT
  6
Continuous
 62
     7
370
    20
100
AcDbLine
 39
0.25
 10
-108.8338086523232
 20
725.7623339223863
 30
0.0
 11
-106.5631086523232
 21
725.7623339223863
 31
0.0
1001
AUSTER_ANSICHT
1002
{
1000
Det03
1002
}
1001
AUSTER_FOLIE
1002
{
1000
S00_W_VERDRAHTUNGSBAUSATZ
1002
}
  0
LINE
  5
10C04
330
20
100
AcDbEntity
  8
10000_FRONT
  6
Continuous
 62
     7
370
    20
100
AcDbLine
 39
0.25
 10
-106.5631086523232
 20
726.9709339223862
 30
0.0
 11
-108.8338086523232
 21
726.9709339223862
 31
0.0
1001
AUSTER_ANSICHT
1002
{
1000
Det03
1002
}
1001
AUSTER_FOLIE
1002
{
1000
S00_W_VERDRAHTUNGSBAUSATZ
1002
}
  0
LINE
  5
10C05
330
20
100
AcDbEntity
  8
10000_FRONT
  6
Continuous
 62
     7
370
    20
100
AcDbLine
 39
0.25
 10
-109.8638086523232
 20
726.9709339223862
 30
0.0
 11
-112.1345086523232
 21
726.9709339223862
 31
0.0
1001
AUSTER_ANSICHT
1002
{
1000
Det03
1002
}
1001
AUSTER_FOLIE
1002
{
1000
S00_W_VERDRAHTUNGSBAUSATZ
1002
}
  0
LINE
  5
10C06
330
20
100
AcDbEntity
  8
10000_FRONT
  6
Continuous
 62
     7
370
    20
100
AcDbLine
 39
0.25
 10
-109.8638086523232
 20
728.1435339223862
 30
0.0
 11
-109.8638086523232
 21
727.1512339223862
 31
0.0
1001
AUSTER_ANSICHT
1002
{
1000
Det03
1002
}
1001
AUSTER_FOLIE
1002
{
1000
S00_W_VERDRAHTUNGSBAUSATZ
1002
}
  0
LINE
  5
10C07
330
20
100
AcDbEntity
  8
10000_FRONT
  6
Continuous
 62
     7
370
    20
100
AcDbLine
 39
0.25
 10
-108.8338086523232
 20
727.1512339223862
 30
0.0
 11
-108.8338086523232
 21
728.1435339223862
 31
0.0
1001
AUSTER_ANSICHT
1002
{
1000
Det03
1002
}
1001
AUSTER_FOLIE
1002
{
1000
S00_W_VERDRAHTUNGSBAUSATZ
1002
}
  0
LINE
  5
10C08
330
20
100
AcDbEntity
  8
10000_FRONT
  6
Continuous
 62
     7
370
    20
100
AcDbLine
 39
0.25
 10
-108.8338086523232
 20
724.5897339223863
 30
0.0
 11
-108.8338086523232
 21
725.5820339223864
 31
0.0
1001
AUSTER_ANSICHT
1002
{
1000
Det03
1002
}
1001
AUSTER_FOLIE
1002
{
1000
S00_W_VERDRAHTUNGSBAUSATZ
1002
}
  0
LINE
  5
10C09
330
20
100
AcDbEntity
  8
10000_FRONT
  6
Continuous
 62
     7
370
    20
100
AcDbLine
 39
0.25
 10
-109.8638086523232
 20
725.5820339223864
 30
0.0
 11
-109.8638086523232
 21
724.5897339223863
 31
0.0
1001
AUSTER_ANSICHT
1002
{
1000
Det03
1002
}
1001
AUSTER_FOLIE
1002
{
1000
S00_W_VERDRAHTUNGSBAUSATZ
1002
}
  0
LINE
  5
10C0A
330
20
100
AcDbEntity
  8
10000_FRONT
  6
Continuous
 62
     7
370
    20
100
AcDbLine
 39
0.25
 10
-108.8338086523232
 20
727.1512339223862
 30
0.0
 11
-108.8338086523232
 21
726.9709339223862
 31
0.0
1001
AUSTER_ANSICHT
1002
{
1000
Det03
1002
}
1001
AUSTER_FOLIE
1002
{
1000
S00_W_VERDRAHTUNGSBAUSATZ
1002
}
  0
LINE
  5
10C0B
330
20
100
AcDbEntity
  8
10000_FRONT
  6
Continuous
 62
     7
370
    20
100
AcDbLine
 39
0.25
 10
-108.8338086523232
 20
725.5820339223864
 30
0.0
 11
-108.8338086523232
 21
725.7623339223863
 31
0.0
1001
AUSTER_ANSICHT
1002
{
1000
Det03
1002
}
1001
AUSTER_FOLIE
1002
{
1000
S00_W_VERDRAHTUNGSBAUSATZ
1002
}
  0
LINE
  5
10C0C
330
20
100
AcDbEntity
  8
10000_FRONT
  6
Continuous
 62
     7
370
    20
100
AcDbLine
 39
0.25
 10
-109.8638086523232
 20
727.1512339223862
 30
0.0
 11
-109.8638086523232
 21
726.9709339223862
 31
0.0
1001
AUSTER_ANSICHT
1002
{
1000
Det03
1002
}
1001
AUSTER_FOLIE
1002
{
1000
S00_W_VERDRAHTUNGSBAUSATZ
1002
}
  0
LINE
  5
10C0D
330
20
100
AcDbEntity
  8
10000_FRONT
  6
Continuous
 62
     7
370
    20
100
AcDbLine
 39
0.25
 10
-109.8638086523232
 20
725.5820339223864
 30
0.0
 11
-109.8638086523232
 21
725.7623339223863
 31
0.0
1001
AUSTER_ANSICHT
1002
{
1000
Det03
1002
}
1001
AUSTER_FOLIE
1002
{
1000
S00_W_VERDRAHTUNGSBAUSATZ
1002
}
  0
LINE
  5
10C0E
330
20
100
AcDbEntity
  8
10000_FRONT
  6
Continuous
 62
     7
370
    20
100
AcDbLine
 39
0.25
 10
-103.5345086523232
 20
725.7623339223863
 30
0.0
 11
-101.2638086523232
 21
725.7623339223863
 31
0.0
1001
AUSTER_ANSICHT
1002
{
1000
Det03
1002
}
1001
AUSTER_FOLIE
1002
{
1000
S00_W_VERDRAHTUNGSBAUSATZ
1002
}
  0
LINE
  5
10C0F
330
20
100
AcDbEntity
  8
10000_FRONT
  6
Continuous
 62
     7
370
    20
100
AcDbLine
 39
0.25
 10
-100.2338086523232
 20
725.7623339223863
 30
0.0
 11
-97.96310865232328
 21
725.7623339223863
 31
0.0
1001
AUSTER_ANSICHT
1002
{
1000
Det03
1002
}
1001
AUSTER_FOLIE
1002
{
1000
S00_W_VERDRAHTUNGSBAUSATZ
1002
}
  0
LINE
  5
10C10
330
20
100
AcDbEntity
  8
10000_FRONT
  6
Continuous
 62
     7
370
    20
100
AcDbLine
 39
0.25
 10
-97.96310865232328
 20
726.9709339223862
 30
0.0
 11
-100.2338086523232
 21
726.9709339223862
 31
0.0
1001
AUSTER_ANSICHT
1002
{
1000
Det03
1002
}
1001
AUSTER_FOLIE
1002
{
1000
S00_W_VERDRAHTUNGSBAUSATZ
1002
}
  0
LINE
  5
10C11
330
20
100
AcDbEntity
  8
10000_FRONT
  6
Continuous
 62
     7
370
    20
100
AcDbLine
 39
0.25
 10
-101.2638086523232
 20
726.9709339223862
 30
0.0
 11
-103.5345086523232
 21
726.9709339223862
 31
0.0
1001
AUSTER_ANSICHT
1002
{
1000
Det03
1002
}
1001
AUSTER_FOLIE
1002
{
1000
S00_W_VERDRAHTUNGSBAUSATZ
1002
}
  0
LINE
  5
10C12
330
20
100
AcDbEntity
  8
10000_FRONT
  6
Continuous
 62
     7
370
    20
100
AcDbLine
 39
0.25
 10
-101.2638086523232
 20
728.1435339223862
 30
0.0
 11
-101.2638086523232
 21
727.1512339223862
 31
0.0
1001
AUSTER_ANSICHT
1002
{
1000
Det03
1002
}
1001
AUSTER_FOLIE
1002
{
1000
S00_W_VERDRAHTUNGSBAUSATZ
1002
}
  0
LINE
  5
10C13
330
20
100
AcDbEntity
  8
10000_FRONT
  6
Continuous
 62
     7
370
    20
100
AcDbLine
 39
0.25
 10
-100.2338086523232
 20
727.1512339223862
 30
0.0
 11
-100.2338086523232
 21
728.1435339223862
 31
0.0
1001
AUSTER_ANSICHT
1002
{
1000
Det03
1002
}
1001
AUSTER_FOLIE
1002
{
1000
S00_W_VERDRAHTUNGSBAUSATZ
1002
}
  0
LINE
  5
10C14
330
20
100
AcDbEntity
  8
10000_FRONT
  6
Continuous
 62
     7
370
    20
100
AcDbLine
 39
0.25
 10
-100.2338086523232
 20
724.5897339223863
 30
0.0
 11
-100.2338086523232
 21
725.5820339223864
 31
0.0
1001
AUSTER_ANSICHT
1002
{
1000
Det03
1002
}
1001
AUSTER_FOLIE
1002
{
1000
S00_W_VERDRAHTUNGSBAUSATZ
1002
}
  0
LINE
  5
10C15
330
20
100
AcDbEntity
  8
10000_FRONT
  6
Continuous
 62
     7
370
    20
100
AcDbLine
 39
0.25
 10
-101.2638086523232
 20
725.5820339223864
 30
0.0
 11
-101.2638086523232
 21
724.5897339223863
 31
0.0
1001
AUSTER_ANSICHT
1002
{
1000
Det03
1002
}
1001
AUSTER_FOLIE
1002
{
1000
S00_W_VERDRAHTUNGSBAUSATZ
1002
}
  0
LINE
  5
10C16
330
20
100
AcDbEntity
  8
10000_FRONT
  6
Continuous
 62
     7
370
    20
100
AcDbLine
 39
0.25
 10
-100.2338086523232
 20
727.1512339223862
 30
0.0
 11
-100.2338086523232
 21
726.9709339223862
 31
0.0
1001
AUSTER_ANSICHT
1002
{
1000
Det03
1002
}
1001
AUSTER_FOLIE
1002
{
1000
S00_W_VERDRAHTUNGSBAUSATZ
1002
}
  0
LINE
  5
10C17
330
20
100
AcDbEntity
  8
10000_FRONT
  6
Continuous
 62
     7
370
    20
100
AcDbLine
 39
0.25
 10
-100.2338086523232
 20
725.5820339223864
 30
0.0
 11
-100.2338086523232
 21
725.7623339223863
 31
0.0
1001
AUSTER_ANSICHT
1002
{
1000
Det03
1002
}
1001
AUSTER_FOLIE
1002
{
1000
S00_W_VERDRAHTUNGSBAUSATZ
1002
}
  0
LINE
  5
10C18
330
20
100
AcDbEntity
  8
10000_FRONT
  6
Continuous
 62
     7
370
    20
100
AcDbLine
 39
0.25
 10
-101.2638086523232
 20
727.1512339223862
 30
0.0
 11
-101.2638086523232
 21
726.9709339223862
 31
0.0
1001
AUSTER_ANSICHT
1002
{
1000
Det03
1002
}
1001
AUSTER_FOLIE
1002
{
1000
S00_W_VERDRAHTUNGSBAUSATZ
1002
}
  0
LINE
  5
10C19
330
20
100
AcDbEntity
  8
10000_FRONT
  6
Continuous
 62
     7
370
    20
100
AcDbLine
 39
0.25
 10
-101.2638086523232
 20
725.5820339223864
 30
0.0
 11
-101.2638086523232
 21
725.7623339223863
 31
0.0
1001
AUSTER_ANSICHT
1002
{
1000
Det03
1002
}
1001
AUSTER_FOLIE
1002
{
1000
S00_W_VERDRAHTUNGSBAUSATZ
1002
}
  0
LINE
  5
10C1A
330
20
100
AcDbEntity
  8
10000_FRONT
  6
Continuous
 62
     7
370
    20
100
AcDbLine
 39
0.25
 10
-94.93450865232324
 20
725.7623339223863
 30
0.0
 11
-92.66380865232326
 21
725.7623339223863
 31
0.0
1001
AUSTER_ANSICHT
1002
{
1000
Det03
1002
}
1001
AUSTER_FOLIE
1002
{
1000
S00_W_VERDRAHTUNGSBAUSATZ
1002
}
  0
LINE
  5
10C1B
330
20
100
AcDbEntity
  8
10000_FRONT
  6
Continuous
 62
     7
370
    20
100
AcDbLine
 39
0.25
 10
-91.63380865232323
 20
725.7623339223863
 30
0.0
 11
-89.36310865232327
 21
725.7623339223863
 31
0.0
1001
AUSTER_ANSICHT
1002
{
1000
Det03
1002
}
1001
AUSTER_FOLIE
1002
{
1000
S00_W_VERDRAHTUNGSBAUSATZ
1002
}
  0
LINE
  5
10C1C
330
20
100
AcDbEntity
  8
10000_FRONT
  6
Continuous
 62
     7
370
    20
100
AcDbLine
 39
0.25
 10
-89.36310865232327
 20
726.9709339223862
 30
0.0
 11
-91.63380865232323
 21
726.9709339223862
 31
0.0
1001
AUSTER_ANSICHT
1002
{
1000
Det03
1002
}
1001
AUSTER_FOLIE
1002
{
1000
S00_W_VERDRAHTUNGSBAUSATZ
1002
}
  0
LINE
  5
10C1D
330
20
100
AcDbEntity
  8
10000_FRONT
  6
Continuous
 62
     7
370
    20
100
AcDbLine
 39
0.25
 10
-92.66380865232326
 20
726.9709339223862
 30
0.0
 11
-94.93450865232324
 21
726.9709339223862
 31
0.0
1001
AUSTER_ANSICHT
1002
{
1000
Det03
1002
}
1001
AUSTER_FOLIE
1002
{
1000
S00_W_VERDRAHTUNGSBAUSATZ
1002
}
  0
LINE
  5
10C1E
330
20
100
AcDbEntity
  8
10000_FRONT
  6
Continuous
 62
     7
370
    20
100
AcDbLine
 39
0.25
 10
-92.66380865232326
 20
728.1435339223862
 30
0.0
 11
-92.66380865232326
 21
727.1512339223862
 31
0.0
1001
AUSTER_ANSICHT
1002
{
1000
Det03
1002
}
1001
AUSTER_FOLIE
1002
{
1000
S00_W_VERDRAHTUNGSBAUSATZ
1002
}
  0
LINE
  5
10C1F
330
20
100
AcDbEntity
  8
10000_FRONT
  6
Continuous
 62
     7
370
    20
100
AcDbLine
 39
0.25
 10
-91.63380865232323
 20
727.1512339223862
 30
0.0
 11
-91.63380865232323
 21
728.1435339223862
 31
0.0
1001
AUSTER_ANSICHT
1002
{
1000
Det03
1002
}
1001
AUSTER_FOLIE
1002
{
1000
S00_W_VERDRAHTUNGSBAUSATZ
1002
}
  0
LINE
  5
10C20
330
20
100
AcDbEntity
  8
10000_FRONT
  6
Continuous
 62
     7
370
    20
100
AcDbLine
 39
0.25
 10
-91.63380865232323
 20
724.5897339223863
 30
0.0
 11
-91.63380865232323
 21
725.5820339223864
 31
0.0
1001
AUSTER_ANSICHT
1002
{
1000
Det03
1002
}
1001
AUSTER_FOLIE
1002
{
1000
S00_W_VERDRAHTUNGSBAUSATZ
1002
}
  0
LINE
  5
10C21
330
20
100
AcDbEntity
  8
10000_FRONT
  6
Continuous
 62
     7
370
    20
100
AcDbLine
 39
0.25
 10
-92.66380865232326
 20
725.5820339223864
 30
0.0
 11
-92.66380865232326
 21
724.5897339223863
 31
0.0
1001
AUSTER_ANSICHT
1002
{
1000
Det03
1002
}
1001
AUSTER_FOLIE
1002
{
1000
S00_W_VERDRAHTUNGSBAUSATZ
1002
}
  0
LINE
  5
10C22
330
20
100
AcDbEntity
  8
10000_FRONT
  6
Continuous
 62
     7
370
    20
100
AcDbLine
 39
0.25
 10
-91.63380865232323
 20
727.1512339223862
 30
0.0
 11
-91.63380865232323
 21
726.9709339223862
 31
0.0
1001
AUSTER_ANSICHT
1002
{
1000
Det03
1002
}
1001
AUSTER_FOLIE
1002
{
1000
S00_W_VERDRAHTUNGSBAUSATZ
1002
}
  0
LINE
  5
10C23
330
20
100
AcDbEntity
  8
10000_FRONT
  6
Continuous
 62
     7
370
    20
100
AcDbLine
 39
0.25
 10
-91.63380865232323
 20
725.5820339223864
 30
0.0
 11
-91.63380865232323
 21
725.7623339223863
 31
0.0
1001
AUSTER_ANSICHT
1002
{
1000
Det03
1002
}
1001
AUSTER_FOLIE
1002
{
1000
S00_W_VERDRAHTUNGSBAUSATZ
1002
}
  0
LINE
  5
10C24
330
20
100
AcDbEntity
  8
10000_FRONT
  6
Continuous
 62
     7
370
    20
100
AcDbLine
 39
0.25
 10
-92.66380865232326
 20
727.1512339223862
 30
0.0
 11
-92.66380865232326
 21
726.9709339223862
 31
0.0
1001
AUSTER_ANSICHT
1002
{
1000
Det03
1002
}
1001
AUSTER_FOLIE
1002
{
1000
S00_W_VERDRAHTUNGSBAUSATZ
1002
}
  0
LINE
  5
10C25
330
20
100
AcDbEntity
  8
10000_FRONT
  6
Continuous
 62
     7
370
    20
100
AcDbLine
 39
0.25
 10
-92.66380865232326
 20
725.5820339223864
 30
0.0
 11
-92.66380865232326
 21
725.7623339223863
 31
0.0
1001
AUSTER_ANSICHT
1002
{
1000
Det03
1002
}
1001
AUSTER_FOLIE
1002
{
1000
S00_W_VERDRAHTUNGSBAUSATZ
1002
}
  0
LINE
  5
10C26
330
20
100
AcDbEntity
  8
10000_FRONT
  6
Continuous
 62
     7
370
    20
100
AcDbLine
 39
0.25
 10
-86.33450865232322
 20
725.7623339223863
 30
0.0
 11
-84.06380865232325
 21
725.7623339223863
 31
0.0
1001
AUSTER_ANSICHT
1002
{
1000
Det03
1002
}
1001
AUSTER_FOLIE
1002
{
1000
S00_W_VERDRAHTUNGSBAUSATZ
1002
}
  0
LINE
  5
10C27
330
20
100
AcDbEntity
  8
10000_FRONT
  6
Continuous
 62
     7
370
    20
100
AcDbLine
 39
0.25
 10
-83.03380865232325
 20
725.7623339223863
 30
0.0
 11
-80.76310865232324
 21
725.7623339223863
 31
0.0
1001
AUSTER_ANSICHT
1002
{
1000
Det03
1002
}
1001
AUSTER_FOLIE
1002
{
1000
S00_W_VERDRAHTUNGSBAUSATZ
1002
}
  0
LINE
  5
10C28
330
20
100
AcDbEntity
  8
10000_FRONT
  6
Continuous
 62
     7
370
    20
100
AcDbLine
 39
0.25
 10
-80.76310865232324
 20
726.9709339223862
 30
0.0
 11
-83.03380865232325
 21
726.9709339223862
 31
0.0
1001
AUSTER_ANSICHT
1002
{
1000
Det03
1002
}
1001
AUSTER_FOLIE
1002
{
1000
S00_W_VERDRAHTUNGSBAUSATZ
1002
}
  0
LINE
  5
10C29
330
20
100
AcDbEntity
  8
10000_FRONT
  6
Continuous
 62
     7
370
    20
100
AcDbLine
 39
0.25
 10
-84.06380865232325
 20
726.9709339223862
 30
0.0
 11
-86.33450865232322
 21
726.9709339223862
 31
0.0
1001
AUSTER_ANSICHT
1002
{
1000
Det03
1002
}
1001
AUSTER_FOLIE
1002
{
1000
S00_W_VERDRAHTUNGSBAUSATZ
1002
}
  0
LINE
  5
10C2A
330
20
100
AcDbEntity
  8
10000_FRONT
  6
Continuous
 62
     7
370
    20
100
AcDbLine
 39
0.25
 10
-84.06380865232325
 20
728.1435339223862
 30
0.0
 11
-84.06380865232325
 21
727.1512339223862
 31
0.0
1001
AUSTER_ANSICHT
1002
{
1000
Det03
1002
}
1001
AUSTER_FOLIE
1002
{
1000
S00_W_VERDRAHTUNGSBAUSATZ
1002
}
  0
LINE
  5
10C2B
330
20
100
AcDbEntity
  8
10000_FRONT
  6
Continuous
 62
     7
370
    20
100
AcDbLine
 39
0.25
 10
-83.03380865232325
 20
727.1512339223862
 30
0.0
 11
-83.03380865232325
 21
728.1435339223862
 31
0.0
1001
AUSTER_ANSICHT
1002
{
1000
Det03
1002
}
1001
AUSTER_FOLIE
1002
{
1000
S00_W_VERDRAHTUNGSBAUSATZ
1002
}
  0
LINE
  5
10C2C
330
20
100
AcDbEntity
  8
10000_FRONT
  6
Continuous
 62
     7
370
    20
100
AcDbLine
 39
0.25
 10
-83.03380865232325
 20
724.5897339223863
 30
0.0
 11
-83.03380865232325
 21
725.5820339223864
 31
0.0
1001
AUSTER_ANSICHT
1002
{
1000
Det03
1002
}
1001
AUSTER_FOLIE
1002
{
1000
S00_W_VERDRAHTUNGSBAUSATZ
1002
}
  0
LINE
  5
10C2D
330
20
100
AcDbEntity
  8
10000_FRONT
  6
Continuous
 62
     7
370
    20
100
AcDbLine
 39
0.25
 10
-84.06380865232325
 20
725.5820339223864
 30
0.0
 11
-84.06380865232325
 21
724.5897339223863
 31
0.0
1001
AUSTER_ANSICHT
1002
{
1000
Det03
1002
}
1001
AUSTER_FOLIE
1002
{
1000
S00_W_VERDRAHTUNGSBAUSATZ
1002
}
  0
LINE
  5
10C2E
330
20
100
AcDbEntity
  8
10000_FRONT
  6
Continuous
 62
     7
370
    20
100
AcDbLine
 39
0.25
 10
-83.03380865232325
 20
727.1512339223862
 30
0.0
 11
-83.03380865232325
 21
726.9709339223862
 31
0.0
1001
AUSTER_ANSICHT
1002
{
1000
Det03
1002
}
1001
AUSTER_FOLIE
1002
{
1000
S00_W_VERDRAHTUNGSBAUSATZ
1002
}
  0
LINE
  5
10C2F
330
20
100
AcDbEntity
  8
10000_FRONT
  6
Continuous
 62
     7
370
    20
100
AcDbLine
 39
0.25
 10
-83.03380865232325
 20
725.5820339223864
 30
0.0
 11
-83.03380865232325
 21
725.7623339223863
 31
0.0
1001
AUSTER_ANSICHT
1002
{
1000
Det03
1002
}
1001
AUSTER_FOLIE
1002
{
1000
S00_W_VERDRAHTUNGSBAUSATZ
1002
}
  0
LINE
  5
10C30
330
20
100
AcDbEntity
  8
10000_FRONT
  6
Continuous
 62
     7
370
    20
100
AcDbLine
 39
0.25
 10
-84.06380865232325
 20
727.1512339223862
 30
0.0
 11
-84.06380865232325
 21
726.9709339223862
 31
0.0
1001
AUSTER_ANSICHT
1002
{
1000
Det03
1002
}
1001
AUSTER_FOLIE
1002
{
1000
S00_W_VERDRAHTUNGSBAUSATZ
1002
}
  0
LINE
  5
10C31
330
20
100
AcDbEntity
  8
10000_FRONT
  6
Continuous
 62
     7
370
    20
100
AcDbLine
 39
0.25
 10
-84.06380865232325
 20
725.5820339223864
 30
0.0
 11
-84.06380865232325
 21
725.7623339223863
 31
0.0
1001
AUSTER_ANSICHT
1002
{
1000
Det03
1002
}
1001
AUSTER_FOLIE
1002
{
1000
S00_W_VERDRAHTUNGSBAUSATZ
1002
}
  0
LINE
  5
10C32
330
20
100
AcDbEntity
  8
10000_FRONT
  6
Continuous
 62
     7
370
    20
100
AcDbLine
 39
0.25
 10
-77.73450865232327
 20
725.7623339223863
 30
0.0
 11
-75.46380865232325
 21
725.7623339223863
 31
0.0
1001
AUSTER_ANSICHT
1002
{
1000
Det03
1002
}
1001
AUSTER_FOLIE
1002
{
1000
S00_W_VERDRAHTUNGSBAUSATZ
1002
}
  0
LINE
  5
10C33
330
20
100
AcDbEntity
  8
10000_FRONT
  6
Continuous
 62
     7
370
    20
100
AcDbLine
 39
0.25
 10
-74.43380865232325
 20
725.7623339223863
 30
0.0
 11
-72.16310865232326
 21
725.7623339223863
 31
0.0
1001
AUSTER_ANSICHT
1002
{
1000
Det03
1002
}
1001
AUSTER_FOLIE
1002
{
1000
S00_W_VERDRAHTUNGSBAUSATZ
1002
}
  0
LINE
  5
10C34
330
20
100
AcDbEntity
  8
10000_FRONT
  6
Continuous
 62
     7
370
    20
100
AcDbLine
 39
0.25
 10
-72.16310865232326
 20
726.9709339223862
 30
0.0
 11
-74.43380865232325
 21
726.9709339223862
 31
0.0
1001
AUSTER_ANSICHT
1002
{
1000
Det03
1002
}
1001
AUSTER_FOLIE
1002
{
1000
S00_W_VERDRAHTUNGSBAUSATZ
1002
}
  0
LINE
  5
10C35
330
20
100
AcDbEntity
  8
10000_FRONT
  6
Continuous
 62
     7
370
    20
100
AcDbLine
 39
0.25
 10
-75.46380865232325
 20
726.9709339223862
 30
0.0
 11
-77.73450865232327
 21
726.9709339223862
 31
0.0
1001
AUSTER_ANSICHT
1002
{
1000
Det03
1002
}
1001
AUSTER_FOLIE
1002
{
1000
S00_W_VERDRAHTUNGSBAUSATZ
1002
}
  0
LINE
  5
10C36
330
20
100
AcDbEntity
  8
10000_FRONT
  6
Continuous
 62
     7
370
    20
100
AcDbLine
 39
0.25
 10
-75.46380865232325
 20
728.1435339223862
 30
0.0
 11
-75.46380865232325
 21
727.1512339223862
 31
0.0
1001
AUSTER_ANSICHT
1002
{
1000
Det03
1002
}
1001
AUSTER_FOLIE
1002
{
1000
S00_W_VERDRAHTUNGSBAUSATZ
1002
}
  0
LINE
  5
10C37
330
20
100
AcDbEntity
  8
10000_FRONT
  6
Continuous
 62
     7
370
    20
100
AcDbLine
 39
0.25
 10
-74.43380865232325
 20
727.1512339223862
 30
0.0
 11
-74.43380865232325
 21
728.1435339223862
 31
0.0
1001
AUSTER_ANSICHT
1002
{
1000
Det03
1002
}
1001
AUSTER_FOLIE
1002
{
1000
S00_W_VERDRAHTUNGSBAUSATZ
1002
}
  0
LINE
  5
10C38
330
20
100
AcDbEntity
  8
10000_FRONT
  6
Continuous
 62
     7
370
    20
100
AcDbLine
 39
0.25
 10
-74.43380865232325
 20
724.5897339223863
 30
0.0
 11
-74.43380865232325
 21
725.5820339223864
 31
0.0
1001
AUSTER_ANSICHT
1002
{
1000
Det03
1002
}
1001
AUSTER_FOLIE
1002
{
1000
S00_W_VERDRAHTUNGSBAUSATZ
1002
}
  0
LINE
  5
10C39
330
20
100
AcDbEntity
  8
10000_FRONT
  6
Continuous
 62
     7
370
    20
100
AcDbLine
 39
0.25
 10
-75.46380865232325
 20
725.5820339223864
 30
0.0
 11
-75.46380865232325
 21
724.5897339223863
 31
0.0
1001
AUSTER_ANSICHT
1002
{
1000
Det03
1002
}
1001
AUSTER_FOLIE
1002
{
1000
S00_W_VERDRAHTUNGSBAUSATZ
1002
}
  0
LINE
  5
10C3A
330
20
100
AcDbEntity
  8
10000_FRONT
  6
Continuous
 62
     7
370
    20
100
AcDbLine
 39
0.25
 10
-74.43380865232325
 20
727.1512339223862
 30
0.0
 11
-74.43380865232325
 21
726.9709339223862
 31
0.0
1001
AUSTER_ANSICHT
1002
{
1000
Det03
1002
}
1001
AUSTER_FOLIE
1002
{
1000
S00_W_VERDRAHTUNGSBAUSATZ
1002
}
  0
LINE
  5
10C3B
330
20
100
AcDbEntity
  8
10000_FRONT
  6
Continuous
 62
     7
370
    20
100
AcDbLine
 39
0.25
 10
-74.43380865232325
 20
725.5820339223864
 30
0.0
 11
-74.43380865232325
 21
725.7623339223863
 31
0.0
1001
AUSTER_ANSICHT
1002
{
1000
Det03
1002
}
1001
AUSTER_FOLIE
1002
{
1000
S00_W_VERDRAHTUNGSBAUSATZ
1002
}
  0
LINE
  5
10C3C
330
20
100
AcDbEntity
  8
10000_FRONT
  6
Continuous
 62
     7
370
    20
100
AcDbLine
 39
0.25
 10
-75.46380865232325
 20
727.1512339223862
 30
0.0
 11
-75.46380865232325
 21
726.9709339223862
 31
0.0
1001
AUSTER_ANSICHT
1002
{
1000
Det03
1002
}
1001
AUSTER_FOLIE
1002
{
1000
S00_W_VERDRAHTUNGSBAUSATZ
1002
}
  0
LINE
  5
10C3D
330
20
100
AcDbEntity
  8
10000_FRONT
  6
Continuous
 62
     7
370
    20
100
AcDbLine
 39
0.25
 10
-75.46380865232325
 20
725.5820339223864
 30
0.0
 11
-75.46380865232325
 21
725.7623339223863
 31
0.0
1001
AUSTER_ANSICHT
1002
{
1000
Det03
1002
}
1001
AUSTER_FOLIE
1002
{
1000
S00_W_VERDRAHTUNGSBAUSATZ
1002
}
  0
LINE
  5
10C3E
330
20
100
AcDbEntity
  8
10000_FRONT
  6
Continuous
 62
     7
370
    20
100
AcDbLine
 39
0.25
 10
-92.66380865232326
 20
728.2035339223863
 30
0.0
 11
-92.66380865232326
 21
727.2112339223863
 31
0.0
1001
AUSTER_ANSICHT
1002
{
1000
Det03
1002
}
1001
AUSTER_FOLIE
1002
{
1000
S00_W_VERDRAHTUNGSBAUSATZ
1002
}
  0
LINE
  5
10C3F
330
20
100
AcDbEntity
  8
10000_FRONT
  6
Continuous
 62
     7
370
    20
100
AcDbLine
 39
0.25
 10
-91.63380865232323
 20
727.2112339223863
 30
0.0
 11
-91.63380865232323
 21
728.2035339223863
 31
0.0
1001
AUSTER_ANSICHT
1002
{
1000
Det03
1002
}
1001
AUSTER_FOLIE
1002
{
1000
S00_W_VERDRAHTUNGSBAUSATZ
1002
}
  0
LINE
  5
10C40
330
20
100
AcDbEntity
  8
10000_FRONT
  6
Continuous
 62
     7
370
    20
100
AcDbLine
 39
0.25
 10
-119.4338086523232
 20
725.7623339223863
 30
0.0
 11
-117.1631086523232
 21
725.7623339223863
 31
0.0
1001
AUSTER_ANSICHT
1002
{
1000
Det03
1002
}
1001
AUSTER_FOLIE
1002
{
1000
S00_W_VERDRAHTUNGSBAUSATZ
1002
}
  0
LINE
  5
10C41
330
20
100
AcDbEntity
  8
10000_FRONT
  6
Continuous
 62
     7
370
    20
100
AcDbLine
 39
0.25
 10
-117.1631086523232
 20
726.9709339223862
 30
0.0
 11
-119.4338086523232
 21
726.9709339223862
 31
0.0
1001
AUSTER_ANSICHT
1002
{
1000
Det03
1002
}
1001
AUSTER_FOLIE
1002
{
1000
S00_W_VERDRAHTUNGSBAUSATZ
1002
}
  0
LINE
  5
10C42
330
20
100
AcDbEntity
  8
10000_FRONT
  6
Continuous
 62
     7
370
    20
100
AcDbLine
 39
0.25
 10
-119.4338086523232
 20
727.1512339223862
 30
0.0
 11
-119.4338086523232
 21
728.1435339223862
 31
0.0
1001
AUSTER_ANSICHT
1002
{
1000
Det03
1002
}
1001
AUSTER_FOLIE
1002
{
1000
S00_W_VERDRAHTUNGSBAUSATZ
1002
}
  0
LINE
  5
10C43
330
20
100
AcDbEntity
  8
10000_FRONT
  6
Continuous
 62
     7
370
    20
100
AcDbLine
 39
0.25
 10
-119.4338086523232
 20
724.5897339223863
 30
0.0
 11
-119.4338086523232
 21
725.5820339223864
 31
0.0
1001
AUSTER_ANSICHT
1002
{
1000
Det03
1002
}
1001
AUSTER_FOLIE
1002
{
1000
S00_W_VERDRAHTUNGSBAUSATZ
1002
}
  0
LINE
  5
10C44
330
20
100
AcDbEntity
  8
10000_FRONT
  6
Continuous
 62
     7
370
    20
100
AcDbLine
 39
0.25
 10
-119.4338086523232
 20
727.1512339223862
 30
0.0
 11
-119.4338086523232
 21
726.9709339223862
 31
0.0
1001
AUSTER_ANSICHT
1002
{
1000
Det03
1002
}
1001
AUSTER_FOLIE
1002
{
1000
S00_W_VERDRAHTUNGSBAUSATZ
1002
}
  0
LINE
  5
10C45
330
20
100
AcDbEntity
  8
10000_FRONT
  6
Continuous
 62
     7
370
    20
100
AcDbLine
 39
0.25
 10
-119.4338086523232
 20
725.5820339223864
 30
0.0
 11
-119.4338086523232
 21
725.7623339223863
 31
0.0
1001
AUSTER_ANSICHT
1002
{
1000
Det03
1002
}
1001
AUSTER_FOLIE
1002
{
1000
S00_W_VERDRAHTUNGSBAUSATZ
1002
}
  0
LINE
  5
10C46
330
20
100
AcDbEntity
  8
10000_FRONT
  6
Continuous
 62
     7
370
    50
100
AcDbLine
 39
0.7
 10
-69.64872865232326
 20
715.6166339223863
 30
0.0
 11
-75.59872865232325
 21
715.6166339223863
 31
0.0
1001
AUSTER_ANSICHT
1002
{
1000
Det03
1002
}
1001
AUSTER_FOLIE
1002
{
1000
S00_W_VERDRAHTUNGSBAUSATZ
1002
}
  0
LINE
  5
10C47
330
20
100
AcDbEntity
  8
10000_FRONT
  6
Continuous
 62
     7
370
    50
100
AcDbLine
 39
0.7
 10
-76.39872865232327
 20
712.8666339223863
 30
0.0
 11
-76.59872865232323
 21
712.8666339223863
 31
0.0
1001
AUSTER_ANSICHT
1002
{
1000
Det03
1002
}
1001
AUSTER_FOLIE
1002
{
1000
S00_W_VERDRAHTUNGSBAUSATZ
1002
}
  0
ARC
  5
10C4B
330
20
100
AcDbEntity
  8
10000_FRONT
  6
Continuous
 62
     7
370
    20
100
AcDbCircle
 39
0.25
 10
-109.3488086523233
 20
726.3666339223862
 30
0.0
 40
2.850490999999998
100
AcDbArc
 50
167.7603999999986
 51
192.2396000000014
1001
AUSTER_ANSICHT
1002
{
1000
Det03
1002
}
1001
AUSTER_FOLIE
1002
{
1000
S00_W_VERDRAHTUNGSBAUSATZ
1002
}
  0
ARC
  5
10C4C
330
20
100
AcDbEntity
  8
10000_FRONT
  6
Continuous
 62
     7
370
    20
100
AcDbCircle
 39
0.25
 10
-109.3488086523233
 20
726.3666339223862
 30
0.0
 40
1.85
100
AcDbArc
 50
73.8365499999981
 51
106.1634000000003
1001
AUSTER_ANSICHT
1002
{
1000
Det03
1002
}
1001
AUSTER_FOLIE
1002
{
1000
S00_W_VERDRAHTUNGSBAUSATZ
1002
}
  0
ARC
  5
10C4D
330
20
100
AcDbEntity
  8
10000_FRONT
  6
Continuous
 62
     7
370
    20
100
AcDbCircle
 39
0.25
 10
-109.3488086523233
 20
726.3666339223862
 30
0.0
 40
1.85
100
AcDbArc
 50
253.8365999999982
 51
286.1634000000003
1001
AUSTER_ANSICHT
1002
{
1000
Det03
1002
}
1001
AUSTER_FOLIE
1002
{
1000
S00_W_VERDRAHTUNGSBAUSATZ
1002
}
  0
ARC
  5
10C4E
330
20
100
AcDbEntity
  8
10000_FRONT
  6
Continuous
 62
     7
370
    20
100
AcDbCircle
 39
0.25
 10
-109.3488086523233
 20
726.3666339223862
 30
0.0
 40
2.850490999999998
100
AcDbArc
 50
347.7603999999987
 51
12.23960000000143
1001
AUSTER_ANSICHT
1002
{
1000
Det03
1002
}
1001
AUSTER_FOLIE
1002
{
1000
S00_W_VERDRAHTUNGSBAUSATZ
1002
}
  0
ARC
  5
10C4F
330
20
100
AcDbEntity
  8
10000_FRONT
  6
Continuous
 62
     7
370
    20
100
AcDbCircle
 39
0.25
 10
-100.7488086523232
 20
726.3666339223862
 30
0.0
 40
1.85
100
AcDbArc
 50
73.8365499999981
 51
106.1634000000003
1001
AUSTER_ANSICHT
1002
{
1000
Det03
1002
}
1001
AUSTER_FOLIE
1002
{
1000
S00_W_VERDRAHTUNGSBAUSATZ
1002
}
  0
ARC
  5
10C50
330
20
100
AcDbEntity
  8
10000_FRONT
  6
Continuous
 62
     7
370
    20
100
AcDbCircle
 39
0.25
 10
-100.7488086523232
 20
726.3666339223862
 30
0.0
 40
1.85
100
AcDbArc
 50
253.8365999999982
 51
286.1634000000003
1001
AUSTER_ANSICHT
1002
{
1000
Det03
1002
}
1001
AUSTER_FOLIE
1002
{
1000
S00_W_VERDRAHTUNGSBAUSATZ
1002
}
  0
ARC
  5
10C51
330
20
100
AcDbEntity
  8
10000_FRONT
  6
Continuous
 62
     7
370
    20
100
AcDbCircle
 39
0.25
 10
-100.7488086523232
 20
726.3666339223862
 30
0.0
 40
2.850490999999998
100
AcDbArc
 50
347.7603999999987
 51
12.23960000000143
1001
AUSTER_ANSICHT
1002
{
1000
Det03
1002
}
1001
AUSTER_FOLIE
1002
{
1000
S00_W_VERDRAHTUNGSBAUSATZ
1002
}
  0
ARC
  5
10C52
330
20
100
AcDbEntity
  8
10000_FRONT
  6
Continuous
 62
     7
370
    20
100
AcDbCircle
 39
0.25
 10
-100.7488086523232
 20
726.3666339223862
 30
0.0
 40
2.850490999999998
100
AcDbArc
 50
167.7603999999986
 51
192.2396000000014
1001
AUSTER_ANSICHT
1002
{
1000
Det03
1002
}
1001
AUSTER_FOLIE
1002
{
1000
S00_W_VERDRAHTUNGSBAUSATZ
1002
}
  0
ARC
  5
10C53
330
20
100
AcDbEntity
  8
10000_FRONT
  6
Continuous
 62
     7
370
    20
100
AcDbCircle
 39
0.25
 10
-92.14880865232322
 20
726.3666339223862
 30
0.0
 40
1.85
100
AcDbArc
 50
73.8365499999981
 51
106.1634000000003
1001
AUSTER_ANSICHT
1002
{
1000
Det03
1002
}
1001
AUSTER_FOLIE
1002
{
1000
S00_W_VERDRAHTUNGSBAUSATZ
1002
}
  0
ARC
  5
10C54
330
20
100
AcDbEntity
  8
10000_FRONT
  6
Continuous
 62
     7
370
    20
100
AcDbCircle
 39
0.25
 10
-92.14880865232322
 20
726.3666339223862
 30
0.0
 40
1.85
100
AcDbArc
 50
253.8365999999982
 51
286.1634000000003
1001
AUSTER_ANSICHT
1002
{
1000
Det03
1002
}
1001
AUSTER_FOLIE
1002
{
1000
S00_W_VERDRAHTUNGSBAUSATZ
1002
}
  0
ARC
  5
10C55
330
20
100
AcDbEntity
  8
10000_FRONT
  6
Continuous
 62
     7
370
    20
100
AcDbCircle
 39
0.25
 10
-92.14880865232322
 20
726.3666339223862
 30
0.0
 40
2.850490999999998
100
AcDbArc
 50
347.7603999999987
 51
12.23960000000143
1001
AUSTER_ANSICHT
1002
{
1000
Det03
1002
}
1001
AUSTER_FOLIE
1002
{
1000
S00_W_VERDRAHTUNGSBAUSATZ
1002
}
  0
ARC
  5
10C56
330
20
100
AcDbEntity
  8
10000_FRONT
  6
Continuous
 62
     7
370
    20
100
AcDbCircle
 39
0.25
 10
-92.14880865232322
 20
726.3666339223862
 30
0.0
 40
2.850490999999998
100
AcDbArc
 50
167.7603999999986
 51
192.2396000000014
1001
AUSTER_ANSICHT
1002
{
1000
Det03
1002
}
1001
AUSTER_FOLIE
1002
{
1000
S00_W_VERDRAHTUNGSBAUSATZ
1002
}
  0
ARC
  5
10C57
330
20
100
AcDbEntity
  8
10000_FRONT
  6
Continuous
 62
     7
370
    20
100
AcDbCircle
 39
0.25
 10
-83.54880865232326
 20
726.3666339223862
 30
0.0
 40
1.85
100
AcDbArc
 50
73.8365499999981
 51
106.1634000000003
1001
AUSTER_ANSICHT
1002
{
1000
Det03
1002
}
1001
AUSTER_FOLIE
1002
{
1000
S00_W_VERDRAHTUNGSBAUSATZ
1002
}
  0
ARC
  5
10C58
330
20
100
AcDbEntity
  8
10000_FRONT
  6
Continuous
 62
     7
370
    20
100
AcDbCircle
 39
0.25
 10
-83.54880865232326
 20
726.3666339223862
 30
0.0
 40
1.85
100
AcDbArc
 50
253.8365999999982
 51
286.1634000000003
1001
AUSTER_ANSICHT
1002
{
1000
Det03
1002
}
1001
AUSTER_FOLIE
1002
{
1000
S00_W_VERDRAHTUNGSBAUSATZ
1002
}
  0
ARC
  5
10C59
330
20
100
AcDbEntity
  8
10000_FRONT
  6
Continuous
 62
     7
370
    20
100
AcDbCircle
 39
0.25
 10
-83.54880865232326
 20
726.3666339223862
 30
0.0
 40
2.850490999999998
100
AcDbArc
 50
347.7603999999987
 51
12.23960000000143
1001
AUSTER_ANSICHT
1002
{
1000
Det03
1002
}
1001
AUSTER_FOLIE
1002
{
1000
S00_W_VERDRAHTUNGSBAUSATZ
1002
}
  0
ARC
  5
10C5A
330
20
100
AcDbEntity
  8
10000_FRONT
  6
Continuous
 62
     7
370
    20
100
AcDbCircle
 39
0.25
 10
-83.54880865232326
 20
726.3666339223862
 30
0.0
 40
2.850490999999998
100
AcDbArc
 50
167.7603999999986
 51
192.2396000000014
1001
AUSTER_ANSICHT
1002
{
1000
Det03
1002
}
1001
AUSTER_FOLIE
1002
{
1000
S00_W_VERDRAHTUNGSBAUSATZ
1002
}
  0
ARC
  5
10C5B
330
20
100
AcDbEntity
  8
10000_FRONT
  6
Continuous
 62
     7
370
    20
100
AcDbCircle
 39
0.25
 10
-74.94880865232326
 20
726.3666339223862
 30
0.0
 40
2.850490999999998
100
AcDbArc
 50
347.7603999999987
 51
12.23960000000143
1001
AUSTER_ANSICHT
1002
{
1000
Det03
1002
}
1001
AUSTER_FOLIE
1002
{
1000
S00_W_VERDRAHTUNGSBAUSATZ
1002
}
  0
ARC
  5
10C5C
330
20
100
AcDbEntity
  8
10000_FRONT
  6
Continuous
 62
     7
370
    20
100
AcDbCircle
 39
0.25
 10
-74.94880865232326
 20
726.3666339223862
 30
0.0
 40
1.85
100
AcDbArc
 50
73.8365499999981
 51
106.1634000000003
1001
AUSTER_ANSICHT
1002
{
1000
Det03
1002
}
1001
AUSTER_FOLIE
1002
{
1000
S00_W_VERDRAHTUNGSBAUSATZ
1002
}
  0
ARC
  5
10C5D
330
20
100
AcDbEntity
  8
10000_FRONT
  6
Continuous
 62
     7
370
    20
100
AcDbCircle
 39
0.25
 10
-74.94880865232326
 20
726.3666339223862
 30
0.0
 40
1.85
100
AcDbArc
 50
253.8365999999982
 51
286.1634000000003
1001
AUSTER_ANSICHT
1002
{
1000
Det03
1002
}
1001
AUSTER_FOLIE
1002
{
1000
S00_W_VERDRAHTUNGSBAUSATZ
1002
}
  0
ARC
  5
10C5E
330
20
100
AcDbEntity
  8
10000_FRONT
  6
Continuous
 62
     7
370
    20
100
AcDbCircle
 39
0.25
 10
-74.94880865232326
 20
726.3666339223862
 30
0.0
 40
2.850490999999998
100
AcDbArc
 50
167.7603999999986
 51
192.2396000000014
1001
AUSTER_ANSICHT
1002
{
1000
Det03
1002
}
1001
AUSTER_FOLIE
1002
{
1000
S00_W_VERDRAHTUNGSBAUSATZ
1002
}
  0
ARC
  5
10C5F
330
20
100
AcDbEntity
  8
10000_FRONT
  6
Continuous
 62
     7
370
    20
100
AcDbCircle
 39
0.25
 10
-119.9488116523232
 20
726.3666339223862
 30
0.0
 40
2.850490999999998
100
AcDbArc
 50
347.7603999999987
 51
12.23960000000143
1001
AUSTER_ANSICHT
1002
{
1000
Det03
1002
}
1001
AUSTER_FOLIE
1002
{
1000
S00_W_VERDRAHTUNGSBAUSATZ
1002
}
  0
LINE
  5
10C63
330
20
100
AcDbEntity
  8
10000_FRONT
  6
Continuous
 62
     7
370
    20
100
AcDbLine
 39
0.25
 10
-114.6487286523232
 20
771.8666339223863
 30
0.0
 11
-71.34872865232323
 21
771.8666339223863
 31
0.0
1001
AUSTER_ANSICHT
1002
{
1000
Det03
1002
}
1001
AUSTER_FOLIE
1002
{
1000
S00_W_VERDRAHTUNGSBAUSATZ
1002
}
  0
LINE
  5
10C64
330
20
100
AcDbEntity
  8
10000_FRONT
  6
Continuous
 62
     7
370
    50
100
AcDbLine
 39
0.7
 10
-82.14872865232328
 20
775.8166339223863
 30
0.0
 11
-82.14872865232328
 21
779.3666339223863
 31
0.0
1001
AUSTER_ANSICHT
1002
{
1000
Det03
1002
}
1001
AUSTER_FOLIE
1002
{
1000
S00_W_VERDRAHTUNGSBAUSATZ
1002
}
  0
LINE
  5
10C65
330
20
100
AcDbEntity
  8
10000_FRONT
  6
Continuous
 62
     7
370
    50
100
AcDbLine
 39
0.7
 10
-71.34872865232323
 20
773.1166339223863
 30
0.0
 11
-69.64872865232326
 21
773.1166339223863
 31
0.0
1001
AUSTER_ANSICHT
1002
{
1000
Det03
1002
}
1001
AUSTER_FOLIE
1002
{
1000
S00_W_VERDRAHTUNGSBAUSATZ
1002
}
  0
LINE
  5
10C66
330
20
100
AcDbEntity
  8
10000_FRONT
  6
Continuous
 62
     7
370
    20
100
AcDbLine
 39
0.7
 10
-71.34872865232323
 20
771.8666339223863
 30
0.0
 11
-71.34872865232323
 21
773.1166339223863
 31
0.0
1001
AUSTER_ANSICHT
1002
{
1000
Det03
1002
}
1001
AUSTER_FOLIE
1002
{
1000
S00_W_VERDRAHTUNGSBAUSATZ
1002
}
  0
LINE
  5
10C67
330
20
100
AcDbEntity
  8
10000_FRONT
  6
Continuous
 62
     7
370
    20
100
AcDbLine
 39
0.25
 10
-114.6487286523232
 20
771.8666339223863
 30
0.0
 11
-87.54872865232327
 21
771.8666339223863
 31
0.0
1001
AUSTER_ANSICHT
1002
{
1000
Det03
1002
}
1001
AUSTER_FOLIE
1002
{
1000
S00_W_VERDRAHTUNGSBAUSATZ
1002
}
  0
LINE
  5
10C69
330
20
100
AcDbEntity
  8
10000_FRONT
  6
Continuous
 62
     7
370
    50
100
AcDbLine
 39
0.7
 10
-82.14872865232328
 20
775.8255339223863
 30
0.0
 11
-72.34789865232324
 21
775.8174339223862
 31
0.0
1001
AUSTER_ANSICHT
1002
{
1000
Det03
1002
}
1001
AUSTER_FOLIE
1002
{
1000
S00_W_VERDRAHTUNGSBAUSATZ
1002
}
  0
ARC
  5
10C6A
330
20
100
AcDbEntity
  8
10000_FRONT
  6
Continuous
 62
     7
370
    50
100
AcDbCircle
 39
0.7
 10
-83.14872865232327
 20
779.3666339223863
 30
0.0
 40
1.0
100
AcDbArc
 50
0.0
 51
90.0
1001
AUSTER_ANSICHT
1002
{
1000
Det03
1002
}
1001
AUSTER_FOLIE
1002
{
1000
S00_W_VERDRAHTUNGSBAUSATZ
1002
}
  0
ARC
  5
10C6B
330
20
100
AcDbEntity
  8
10000_FRONT
  6
Continuous
 62
     7
370
    50
100
AcDbCircle
 39
0.7
 10
-72.34872865232325
 20
774.8174339223862
 30
0.0
 40
1.0
100
AcDbArc
 50
0.0
 51
89.95261000000006
1001
AUSTER_ANSICHT
1002
{
1000
Det03
1002
}
1001
AUSTER_FOLIE
1002
{
1000
S00_W_VERDRAHTUNGSBAUSATZ
1002
}
  0
LINE
  5
10C6C
330
20
100
AcDbEntity
  8
10000_FRONT
  6
Continuous
 62
     7
370
    20
100
AcDbLine
 39
0.25
 10
-119.4338086523232
 20
762.9709339223863
 30
0.0
 11
-117.1631086523232
 21
762.9709339223863
 31
0.0
1001
AUSTER_ANSICHT
1002
{
1000
Det03
1002
}
1001
AUSTER_FOLIE
1002
{
1000
S00_W_VERDRAHTUNGSBAUSATZ
1002
}
  0
LINE
  5
10C6D
330
20
100
AcDbEntity
  8
10000_FRONT
  6
Continuous
 62
     7
370
    20
100
AcDbLine
 39
0.25
 10
-117.1631086523232
 20
761.7623339223863
 30
0.0
 11
-119.4338086523232
 21
761.7623339223863
 31
0.0
1001
AUSTER_ANSICHT
1002
{
1000
Det03
1002
}
1001
AUSTER_FOLIE
1002
{
1000
S00_W_VERDRAHTUNGSBAUSATZ
1002
}
  0
LINE
  5
10C6E
330
20
100
AcDbEntity
  8
10000_FRONT
  6
Continuous
 62
     7
370
    20
100
AcDbLine
 39
0.25
 10
-119.4338086523232
 20
761.5820339223863
 30
0.0
 11
-119.4338086523232
 21
760.5897339223863
 31
0.0
1001
AUSTER_ANSICHT
1002
{
1000
Det03
1002
}
1001
AUSTER_FOLIE
1002
{
1000
S00_W_VERDRAHTUNGSBAUSATZ
1002
}
  0
LINE
  5
10C6F
330
20
100
AcDbEntity
  8
10000_FRONT
  6
Continuous
 62
     7
370
    20
100
AcDbLine
 39
0.25
 10
-119.4338086523232
 20
761.5820339223863
 30
0.0
 11
-119.4338086523232
 21
761.7623339223863
 31
0.0
1001
AUSTER_ANSICHT
1002
{
1000
Det03
1002
}
1001
AUSTER_FOLIE
1002
{
1000
S00_W_VERDRAHTUNGSBAUSATZ
1002
}
  0
LINE
  5
10C70
330
20
100
AcDbEntity
  8
10000_FRONT
  6
Continuous
 62
     7
370
    20
100
AcDbLine
 39
0.25
 10
-119.4338086523232
 20
763.1512339223863
 30
0.0
 11
-119.4338086523232
 21
762.9709339223863
 31
0.0
1001
AUSTER_ANSICHT
1002
{
1000
Det03
1002
}
1001
AUSTER_FOLIE
1002
{
1000
S00_W_VERDRAHTUNGSBAUSATZ
1002
}
  0
LINE
  5
10C71
330
20
100
AcDbEntity
  8
10000_FRONT
  6
Continuous
 62
     7
370
    20
100
AcDbLine
 39
0.25
 10
-119.4338086523232
 20
764.1435339223862
 30
0.0
 11
-119.4338086523232
 21
763.1512339223863
 31
0.0
1001
AUSTER_ANSICHT
1002
{
1000
Det03
1002
}
1001
AUSTER_FOLIE
1002
{
1000
S00_W_VERDRAHTUNGSBAUSATZ
1002
}
  0
LINE
  5
10C72
330
20
100
AcDbEntity
  8
10000_FRONT
  6
Continuous
 62
     7
370
    20
100
AcDbLine
 39
0.25
 10
-108.8338086523232
 20
762.9709339223863
 30
0.0
 11
-106.5631086523232
 21
762.9709339223863
 31
0.0
1001
AUSTER_ANSICHT
1002
{
1000
Det03
1002
}
1001
AUSTER_FOLIE
1002
{
1000
S00_W_VERDRAHTUNGSBAUSATZ
1002
}
  0
LINE
  5
10C73
330
20
100
AcDbEntity
  8
10000_FRONT
  6
Continuous
 62
     7
370
    20
100
AcDbLine
 39
0.25
 10
-100.2338086523232
 20
762.9709339223863
 30
0.0
 11
-97.96310865232328
 21
762.9709339223863
 31
0.0
1001
AUSTER_ANSICHT
1002
{
1000
Det03
1002
}
1001
AUSTER_FOLIE
1002
{
1000
S00_W_VERDRAHTUNGSBAUSATZ
1002
}
  0
LINE
  5
10C74
330
20
100
AcDbEntity
  8
10000_FRONT
  6
Continuous
 62
     7
370
    20
100
AcDbLine
 39
0.25
 10
-106.5631086523232
 20
761.7623339223863
 30
0.0
 11
-108.8338086523232
 21
761.7623339223863
 31
0.0
1001
AUSTER_ANSICHT
1002
{
1000
Det03
1002
}
1001
AUSTER_FOLIE
1002
{
1000
S00_W_VERDRAHTUNGSBAUSATZ
1002
}
  0
LINE
  5
10C75
330
20
100
AcDbEntity
  8
10000_FRONT
  6
Continuous
 62
     7
370
    20
100
AcDbLine
 39
0.25
 10
-97.96310865232328
 20
761.7623339223863
 30
0.0
 11
-100.2338086523232
 21
761.7623339223863
 31
0.0
1001
AUSTER_ANSICHT
1002
{
1000
Det03
1002
}
1001
AUSTER_FOLIE
1002
{
1000
S00_W_VERDRAHTUNGSBAUSATZ
1002
}
  0
LINE
  5
10C76
330
20
100
AcDbEntity
  8
10000_FRONT
  6
Continuous
 62
     7
370
    20
100
AcDbLine
 39
0.25
 10
-112.1345086523232
 20
762.9709339223863
 30
0.0
 11
-109.8638086523232
 21
762.9709339223863
 31
0.0
1001
AUSTER_ANSICHT
1002
{
1000
Det03
1002
}
1001
AUSTER_FOLIE
1002
{
1000
S00_W_VERDRAHTUNGSBAUSATZ
1002
}
  0
LINE
  5
10C77
330
20
100
AcDbEntity
  8
10000_FRONT
  6
Continuous
 62
     7
370
    20
100
AcDbLine
 39
0.25
 10
-103.5345086523232
 20
762.9709339223863
 30
0.0
 11
-101.2638086523232
 21
762.9709339223863
 31
0.0
1001
AUSTER_ANSICHT
1002
{
1000
Det03
1002
}
1001
AUSTER_FOLIE
1002
{
1000
S00_W_VERDRAHTUNGSBAUSATZ
1002
}
  0
LINE
  5
10C78
330
20
100
AcDbEntity
  8
10000_FRONT
  6
Continuous
 62
     7
370
    20
100
AcDbLine
 39
0.25
 10
-109.8638086523232
 20
761.7623339223863
 30
0.0
 11
-112.1345086523232
 21
761.7623339223863
 31
0.0
1001
AUSTER_ANSICHT
1002
{
1000
Det03
1002
}
1001
AUSTER_FOLIE
1002
{
1000
S00_W_VERDRAHTUNGSBAUSATZ
1002
}
  0
LINE
  5
10C79
330
20
100
AcDbEntity
  8
10000_FRONT
  6
Continuous
 62
     7
370
    20
100
AcDbLine
 39
0.25
 10
-101.2638086523232
 20
761.7623339223863
 30
0.0
 11
-103.5345086523232
 21
761.7623339223863
 31
0.0
1001
AUSTER_ANSICHT
1002
{
1000
Det03
1002
}
1001
AUSTER_FOLIE
1002
{
1000
S00_W_VERDRAHTUNGSBAUSATZ
1002
}
  0
LINE
  5
10C7A
330
20
100
AcDbEntity
  8
10000_FRONT
  6
Continuous
 62
     7
370
    20
100
AcDbLine
 39
0.25
 10
-109.8638086523232
 20
760.5897339223863
 30
0.0
 11
-109.8638086523232
 21
761.5820339223863
 31
0.0
1001
AUSTER_ANSICHT
1002
{
1000
Det03
1002
}
1001
AUSTER_FOLIE
1002
{
1000
S00_W_VERDRAHTUNGSBAUSATZ
1002
}
  0
LINE
  5
10C7B
330
20
100
AcDbEntity
  8
10000_FRONT
  6
Continuous
 62
     7
370
    20
100
AcDbLine
 39
0.25
 10
-101.2638086523232
 20
760.5897339223863
 30
0.0
 11
-101.2638086523232
 21
761.5820339223863
 31
0.0
1001
AUSTER_ANSICHT
1002
{
1000
Det03
1002
}
1001
AUSTER_FOLIE
1002
{
1000
S00_W_VERDRAHTUNGSBAUSATZ
1002
}
  0
LINE
  5
10C7C
330
20
100
AcDbEntity
  8
10000_FRONT
  6
Continuous
 62
     7
370
    20
100
AcDbLine
 39
0.25
 10
-108.8338086523232
 20
761.5820339223863
 30
0.0
 11
-108.8338086523232
 21
760.5897339223863
 31
0.0
1001
AUSTER_ANSICHT
1002
{
1000
Det03
1002
}
1001
AUSTER_FOLIE
1002
{
1000
S00_W_VERDRAHTUNGSBAUSATZ
1002
}
  0
LINE
  5
10C7D
330
20
100
AcDbEntity
  8
10000_FRONT
  6
Continuous
 62
     7
370
    20
100
AcDbLine
 39
0.25
 10
-100.2338086523232
 20
761.5820339223863
 30
0.0
 11
-100.2338086523232
 21
760.5897339223863
 31
0.0
1001
AUSTER_ANSICHT
1002
{
1000
Det03
1002
}
1001
AUSTER_FOLIE
1002
{
1000
S00_W_VERDRAHTUNGSBAUSATZ
1002
}
  0
LINE
  5
10C7E
330
20
100
AcDbEntity
  8
10000_FRONT
  6
Continuous
 62
     7
370
    20
100
AcDbLine
 39
0.25
 10
-108.8338086523232
 20
761.5820339223863
 30
0.0
 11
-108.8338086523232
 21
761.7623339223863
 31
0.0
1001
AUSTER_ANSICHT
1002
{
1000
Det03
1002
}
1001
AUSTER_FOLIE
1002
{
1000
S00_W_VERDRAHTUNGSBAUSATZ
1002
}
  0
LINE
  5
10C7F
330
20
100
AcDbEntity
  8
10000_FRONT
  6
Continuous
 62
     7
370
    20
100
AcDbLine
 39
0.25
 10
-100.2338086523232
 20
761.5820339223863
 30
0.0
 11
-100.2338086523232
 21
761.7623339223863
 31
0.0
1001
AUSTER_ANSICHT
1002
{
1000
Det03
1002
}
1001
AUSTER_FOLIE
1002
{
1000
S00_W_VERDRAHTUNGSBAUSATZ
1002
}
  0
LINE
  5
10C80
330
20
100
AcDbEntity
  8
10000_FRONT
  6
Continuous
 62
     7
370
    20
100
AcDbLine
 39
0.25
 10
-108.8338086523232
 20
763.1512339223863
 30
0.0
 11
-108.8338086523232
 21
762.9709339223863
 31
0.0
1001
AUSTER_ANSICHT
1002
{
1000
Det03
1002
}
1001
AUSTER_FOLIE
1002
{
1000
S00_W_VERDRAHTUNGSBAUSATZ
1002
}
  0
LINE
  5
10C81
330
20
100
AcDbEntity
  8
10000_FRONT
  6
Continuous
 62
     7
370
    20
100
AcDbLine
 39
0.25
 10
-100.2338086523232
 20
763.1512339223863
 30
0.0
 11
-100.2338086523232
 21
762.9709339223863
 31
0.0
1001
AUSTER_ANSICHT
1002
{
1000
Det03
1002
}
1001
AUSTER_FOLIE
1002
{
1000
S00_W_VERDRAHTUNGSBAUSATZ
1002
}
  0
LINE
  5
10C82
330
20
100
AcDbEntity
  8
10000_FRONT
  6
Continuous
 62
     7
370
    20
100
AcDbLine
 39
0.25
 10
-109.8638086523232
 20
761.5820339223863
 30
0.0
 11
-109.8638086523232
 21
761.7623339223863
 31
0.0
1001
AUSTER_ANSICHT
1002
{
1000
Det03
1002
}
1001
AUSTER_FOLIE
1002
{
1000
S00_W_VERDRAHTUNGSBAUSATZ
1002
}
  0
LINE
  5
10C83
330
20
100
AcDbEntity
  8
10000_FRONT
  6
Continuous
 62
     7
370
    20
100
AcDbLine
 39
0.25
 10
-101.2638086523232
 20
761.5820339223863
 30
0.0
 11
-101.2638086523232
 21
761.7623339223863
 31
0.0
1001
AUSTER_ANSICHT
1002
{
1000
Det03
1002
}
1001
AUSTER_FOLIE
1002
{
1000
S00_W_VERDRAHTUNGSBAUSATZ
1002
}
  0
LINE
  5
10C84
330
20
100
AcDbEntity
  8
10000_FRONT
  6
Continuous
 62
     7
370
    20
100
AcDbLine
 39
0.25
 10
-109.8638086523232
 20
763.1512339223863
 30
0.0
 11
-109.8638086523232
 21
762.9709339223863
 31
0.0
1001
AUSTER_ANSICHT
1002
{
1000
Det03
1002
}
1001
AUSTER_FOLIE
1002
{
1000
S00_W_VERDRAHTUNGSBAUSATZ
1002
}
  0
LINE
  5
10C85
330
20
100
AcDbEntity
  8
10000_FRONT
  6
Continuous
 62
     7
370
    20
100
AcDbLine
 39
0.25
 10
-101.2638086523232
 20
763.1512339223863
 30
0.0
 11
-101.2638086523232
 21
762.9709339223863
 31
0.0
1001
AUSTER_ANSICHT
1002
{
1000
Det03
1002
}
1001
AUSTER_FOLIE
1002
{
1000
S00_W_VERDRAHTUNGSBAUSATZ
1002
}
  0
LINE
  5
10C86
330
20
100
AcDbEntity
  8
10000_FRONT
  6
Continuous
 62
     7
370
    20
100
AcDbLine
 39
0.25
 10
-108.8338086523232
 20
764.1435339223862
 30
0.0
 11
-108.8338086523232
 21
763.1512339223863
 31
0.0
1001
AUSTER_ANSICHT
1002
{
1000
Det03
1002
}
1001
AUSTER_FOLIE
1002
{
1000
S00_W_VERDRAHTUNGSBAUSATZ
1002
}
  0
LINE
  5
10C87
330
20
100
AcDbEntity
  8
10000_FRONT
  6
Continuous
 62
     7
370
    20
100
AcDbLine
 39
0.25
 10
-100.2338086523232
 20
764.1435339223862
 30
0.0
 11
-100.2338086523232
 21
763.1512339223863
 31
0.0
1001
AUSTER_ANSICHT
1002
{
1000
Det03
1002
}
1001
AUSTER_FOLIE
1002
{
1000
S00_W_VERDRAHTUNGSBAUSATZ
1002
}
  0
LINE
  5
10C88
330
20
100
AcDbEntity
  8
10000_FRONT
  6
Continuous
 62
     7
370
    20
100
AcDbLine
 39
0.25
 10
-109.8638086523232
 20
763.1512339223863
 30
0.0
 11
-109.8638086523232
 21
764.1435339223862
 31
0.0
1001
AUSTER_ANSICHT
1002
{
1000
Det03
1002
}
1001
AUSTER_FOLIE
1002
{
1000
S00_W_VERDRAHTUNGSBAUSATZ
1002
}
  0
LINE
  5
10C89
330
20
100
AcDbEntity
  8
10000_FRONT
  6
Continuous
 62
     7
370
    20
100
AcDbLine
 39
0.25
 10
-101.2638086523232
 20
763.1512339223863
 30
0.0
 11
-101.2638086523232
 21
764.1435339223862
 31
0.0
1001
AUSTER_ANSICHT
1002
{
1000
Det03
1002
}
1001
AUSTER_FOLIE
1002
{
1000
S00_W_VERDRAHTUNGSBAUSATZ
1002
}
  0
LINE
  5
10C8A
330
20
100
AcDbEntity
  8
10000_FRONT
  6
Continuous
 62
     7
370
    20
100
AcDbLine
 39
0.25
 10
-94.93450865232324
 20
762.9709339223863
 30
0.0
 11
-92.66380865232326
 21
762.9709339223863
 31
0.0
1001
AUSTER_ANSICHT
1002
{
1000
Det03
1002
}
1001
AUSTER_FOLIE
1002
{
1000
S00_W_VERDRAHTUNGSBAUSATZ
1002
}
  0
LINE
  5
10C8B
330
20
100
AcDbEntity
  8
10000_FRONT
  6
Continuous
 62
     7
370
    20
100
AcDbLine
 39
0.25
 10
-91.63380865232323
 20
762.9709339223863
 30
0.0
 11
-89.36310865232327
 21
762.9709339223863
 31
0.0
1001
AUSTER_ANSICHT
1002
{
1000
Det03
1002
}
1001
AUSTER_FOLIE
1002
{
1000
S00_W_VERDRAHTUNGSBAUSATZ
1002
}
  0
LINE
  5
10C8C
330
20
100
AcDbEntity
  8
10000_FRONT
  6
Continuous
 62
     7
370
    20
100
AcDbLine
 39
0.25
 10
-89.36310865232327
 20
761.7623339223863
 30
0.0
 11
-91.63380865232323
 21
761.7623339223863
 31
0.0
1001
AUSTER_ANSICHT
1002
{
1000
Det03
1002
}
1001
AUSTER_FOLIE
1002
{
1000
S00_W_VERDRAHTUNGSBAUSATZ
1002
}
  0
LINE
  5
10C8D
330
20
100
AcDbEntity
  8
10000_FRONT
  6
Continuous
 62
     7
370
    20
100
AcDbLine
 39
0.25
 10
-92.66380865232326
 20
761.7623339223863
 30
0.0
 11
-94.93450865232324
 21
761.7623339223863
 31
0.0
1001
AUSTER_ANSICHT
1002
{
1000
Det03
1002
}
1001
AUSTER_FOLIE
1002
{
1000
S00_W_VERDRAHTUNGSBAUSATZ
1002
}
  0
LINE
  5
10C8E
330
20
100
AcDbEntity
  8
10000_FRONT
  6
Continuous
 62
     7
370
    20
100
AcDbLine
 39
0.25
 10
-91.63380865232323
 20
764.1435339223862
 30
0.0
 11
-91.63380865232323
 21
763.1512339223863
 31
0.0
1001
AUSTER_ANSICHT
1002
{
1000
Det03
1002
}
1001
AUSTER_FOLIE
1002
{
1000
S00_W_VERDRAHTUNGSBAUSATZ
1002
}
  0
LINE
  5
10C8F
330
20
100
AcDbEntity
  8
10000_FRONT
  6
Continuous
 62
     7
370
    20
100
AcDbLine
 39
0.25
 10
-92.66380865232326
 20
763.1512339223863
 30
0.0
 11
-92.66380865232326
 21
764.1435339223862
 31
0.0
1001
AUSTER_ANSICHT
1002
{
1000
Det03
1002
}
1001
AUSTER_FOLIE
1002
{
1000
S00_W_VERDRAHTUNGSBAUSATZ
1002
}
  0
LINE
  5
10C90
330
20
100
AcDbEntity
  8
10000_FRONT
  6
Continuous
 62
     7
370
    20
100
AcDbLine
 39
0.25
 10
-91.63380865232323
 20
761.5820339223863
 30
0.0
 11
-91.63380865232323
 21
761.7623339223863
 31
0.0
1001
AUSTER_ANSICHT
1002
{
1000
Det03
1002
}
1001
AUSTER_FOLIE
1002
{
1000
S00_W_VERDRAHTUNGSBAUSATZ
1002
}
  0
LINE
  5
10C91
330
20
100
AcDbEntity
  8
10000_FRONT
  6
Continuous
 62
     7
370
    20
100
AcDbLine
 39
0.25
 10
-91.63380865232323
 20
763.1512339223863
 30
0.0
 11
-91.63380865232323
 21
762.9709339223863
 31
0.0
1001
AUSTER_ANSICHT
1002
{
1000
Det03
1002
}
1001
AUSTER_FOLIE
1002
{
1000
S00_W_VERDRAHTUNGSBAUSATZ
1002
}
  0
LINE
  5
10C92
330
20
100
AcDbEntity
  8
10000_FRONT
  6
Continuous
 62
     7
370
    20
100
AcDbLine
 39
0.25
 10
-92.66380865232326
 20
761.5820339223863
 30
0.0
 11
-92.66380865232326
 21
761.7623339223863
 31
0.0
1001
AUSTER_ANSICHT
1002
{
1000
Det03
1002
}
1001
AUSTER_FOLIE
1002
{
1000
S00_W_VERDRAHTUNGSBAUSATZ
1002
}
  0
LINE
  5
10C93
330
20
100
AcDbEntity
  8
10000_FRONT
  6
Continuous
 62
     7
370
    20
100
AcDbLine
 39
0.25
 10
-92.66380865232326
 20
763.1512339223863
 30
0.0
 11
-92.66380865232326
 21
762.9709339223863
 31
0.0
1001
AUSTER_ANSICHT
1002
{
1000
Det03
1002
}
1001
AUSTER_FOLIE
1002
{
1000
S00_W_VERDRAHTUNGSBAUSATZ
1002
}
  0
LINE
  5
10C94
330
20
100
AcDbEntity
  8
10000_FRONT
  6
Continuous
 62
     7
370
    20
100
AcDbLine
 39
0.25
 10
-92.66380865232326
 20
760.5897339223863
 30
0.0
 11
-92.66380865232326
 21
761.5820339223863
 31
0.0
1001
AUSTER_ANSICHT
1002
{
1000
Det03
1002
}
1001
AUSTER_FOLIE
1002
{
1000
S00_W_VERDRAHTUNGSBAUSATZ
1002
}
  0
LINE
  5
10C95
330
20
100
AcDbEntity
  8
10000_FRONT
  6
Continuous
 62
     7
370
    20
100
AcDbLine
 39
0.25
 10
-91.63380865232323
 20
761.5820339223863
 30
0.0
 11
-91.63380865232323
 21
760.5897339223863
 31
0.0
1001
AUSTER_ANSICHT
1002
{
1000
Det03
1002
}
1001
AUSTER_FOLIE
1002
{
1000
S00_W_VERDRAHTUNGSBAUSATZ
1002
}
  0
LINE
  5
10C96
330
20
100
AcDbEntity
  8
10000_FRONT
  6
Continuous
 62
     7
370
    20
100
AcDbLine
 39
0.25
 10
-86.33450865232322
 20
762.9709339223863
 30
0.0
 11
-84.06380865232325
 21
762.9709339223863
 31
0.0
1001
AUSTER_ANSICHT
1002
{
1000
Det03
1002
}
1001
AUSTER_FOLIE
1002
{
1000
S00_W_VERDRAHTUNGSBAUSATZ
1002
}
  0
LINE
  5
10C97
330
20
100
AcDbEntity
  8
10000_FRONT
  6
Continuous
 62
     7
370
    20
100
AcDbLine
 39
0.25
 10
-83.03380865232325
 20
762.9709339223863
 30
0.0
 11
-80.76310865232324
 21
762.9709339223863
 31
0.0
1001
AUSTER_ANSICHT
1002
{
1000
Det03
1002
}
1001
AUSTER_FOLIE
1002
{
1000
S00_W_VERDRAHTUNGSBAUSATZ
1002
}
  0
LINE
  5
10C98
330
20
100
AcDbEntity
  8
10000_FRONT
  6
Continuous
 62
     7
370
    20
100
AcDbLine
 39
0.25
 10
-80.76310865232324
 20
761.7623339223863
 30
0.0
 11
-83.03380865232325
 21
761.7623339223863
 31
0.0
1001
AUSTER_ANSICHT
1002
{
1000
Det03
1002
}
1001
AUSTER_FOLIE
1002
{
1000
S00_W_VERDRAHTUNGSBAUSATZ
1002
}
  0
LINE
  5
10C99
330
20
100
AcDbEntity
  8
10000_FRONT
  6
Continuous
 62
     7
370
    20
100
AcDbLine
 39
0.25
 10
-84.06380865232325
 20
761.7623339223863
 30
0.0
 11
-86.33450865232322
 21
761.7623339223863
 31
0.0
1001
AUSTER_ANSICHT
1002
{
1000
Det03
1002
}
1001
AUSTER_FOLIE
1002
{
1000
S00_W_VERDRAHTUNGSBAUSATZ
1002
}
  0
LINE
  5
10C9A
330
20
100
AcDbEntity
  8
10000_FRONT
  6
Continuous
 62
     7
370
    20
100
AcDbLine
 39
0.25
 10
-83.03380865232325
 20
764.1435339223862
 30
0.0
 11
-83.03380865232325
 21
763.1512339223863
 31
0.0
1001
AUSTER_ANSICHT
1002
{
1000
Det03
1002
}
1001
AUSTER_FOLIE
1002
{
1000
S00_W_VERDRAHTUNGSBAUSATZ
1002
}
  0
LINE
  5
10C9B
330
20
100
AcDbEntity
  8
10000_FRONT
  6
Continuous
 62
     7
370
    20
100
AcDbLine
 39
0.25
 10
-84.06380865232325
 20
763.1512339223863
 30
0.0
 11
-84.06380865232325
 21
764.1435339223862
 31
0.0
1001
AUSTER_ANSICHT
1002
{
1000
Det03
1002
}
1001
AUSTER_FOLIE
1002
{
1000
S00_W_VERDRAHTUNGSBAUSATZ
1002
}
  0
LINE
  5
10C9C
330
20
100
AcDbEntity
  8
10000_FRONT
  6
Continuous
 62
     7
370
    20
100
AcDbLine
 39
0.25
 10
-83.03380865232325
 20
761.5820339223863
 30
0.0
 11
-83.03380865232325
 21
761.7623339223863
 31
0.0
1001
AUSTER_ANSICHT
1002
{
1000
Det03
1002
}
1001
AUSTER_FOLIE
1002
{
1000
S00_W_VERDRAHTUNGSBAUSATZ
1002
}
  0
LINE
  5
10C9D
330
20
100
AcDbEntity
  8
10000_FRONT
  6
Continuous
 62
     7
370
    20
100
AcDbLine
 39
0.25
 10
-83.03380865232325
 20
763.1512339223863
 30
0.0
 11
-83.03380865232325
 21
762.9709339223863
 31
0.0
1001
AUSTER_ANSICHT
1002
{
1000
Det03
1002
}
1001
AUSTER_FOLIE
1002
{
1000
S00_W_VERDRAHTUNGSBAUSATZ
1002
}
  0
LINE
  5
10C9E
330
20
100
AcDbEntity
  8
10000_FRONT
  6
Continuous
 62
     7
370
    20
100
AcDbLine
 39
0.25
 10
-84.06380865232325
 20
761.5820339223863
 30
0.0
 11
-84.06380865232325
 21
761.7623339223863
 31
0.0
1001
AUSTER_ANSICHT
1002
{
1000
Det03
1002
}
1001
AUSTER_FOLIE
1002
{
1000
S00_W_VERDRAHTUNGSBAUSATZ
1002
}
  0
LINE
  5
10C9F
330
20
100
AcDbEntity
  8
10000_FRONT
  6
Continuous
 62
     7
370
    20
100
AcDbLine
 39
0.25
 10
-84.06380865232325
 20
763.1512339223863
 30
0.0
 11
-84.06380865232325
 21
762.9709339223863
 31
0.0
1001
AUSTER_ANSICHT
1002
{
1000
Det03
1002
}
1001
AUSTER_FOLIE
1002
{
1000
S00_W_VERDRAHTUNGSBAUSATZ
1002
}
  0
LINE
  5
10CA0
330
20
100
AcDbEntity
  8
10000_FRONT
  6
Continuous
 62
     7
370
    20
100
AcDbLine
 39
0.25
 10
-84.06380865232325
 20
760.5897339223863
 30
0.0
 11
-84.06380865232325
 21
761.5820339223863
 31
0.0
1001
AUSTER_ANSICHT
1002
{
1000
Det03
1002
}
1001
AUSTER_FOLIE
1002
{
1000
S00_W_VERDRAHTUNGSBAUSATZ
1002
}
  0
LINE
  5
10CA1
330
20
100
AcDbEntity
  8
10000_FRONT
  6
Continuous
 62
     7
370
    20
100
AcDbLine
 39
0.25
 10
-83.03380865232325
 20
761.5820339223863
 30
0.0
 11
-83.03380865232325
 21
760.5897339223863
 31
0.0
1001
AUSTER_ANSICHT
1002
{
1000
Det03
1002
}
1001
AUSTER_FOLIE
1002
{
1000
S00_W_VERDRAHTUNGSBAUSATZ
1002
}
  0
LINE
  5
10CA2
330
20
100
AcDbEntity
  8
10000_FRONT
  6
Continuous
 62
     7
370
    20
100
AcDbLine
 39
0.25
 10
-74.43380865232325
 20
762.9709339223863
 30
0.0
 11
-72.16310865232326
 21
762.9709339223863
 31
0.0
1001
AUSTER_ANSICHT
1002
{
1000
Det03
1002
}
1001
AUSTER_FOLIE
1002
{
1000
S00_W_VERDRAHTUNGSBAUSATZ
1002
}
  0
LINE
  5
10CA3
330
20
100
AcDbEntity
  8
10000_FRONT
  6
Continuous
 62
     7
370
    20
100
AcDbLine
 39
0.25
 10
-72.16310865232326
 20
761.7623339223863
 30
0.0
 11
-74.43380865232325
 21
761.7623339223863
 31
0.0
1001
AUSTER_ANSICHT
1002
{
1000
Det03
1002
}
1001
AUSTER_FOLIE
1002
{
1000
S00_W_VERDRAHTUNGSBAUSATZ
1002
}
  0
LINE
  5
10CA4
330
20
100
AcDbEntity
  8
10000_FRONT
  6
Continuous
 62
     7
370
    20
100
AcDbLine
 39
0.25
 10
-75.46380865232325
 20
760.5897339223863
 30
0.0
 11
-75.46380865232325
 21
761.5820339223863
 31
0.0
1001
AUSTER_ANSICHT
1002
{
1000
Det03
1002
}
1001
AUSTER_FOLIE
1002
{
1000
S00_W_VERDRAHTUNGSBAUSATZ
1002
}
  0
LINE
  5
10CA5
330
20
100
AcDbEntity
  8
10000_FRONT
  6
Continuous
 62
     7
370
    20
100
AcDbLine
 39
0.25
 10
-74.43380865232325
 20
761.5820339223863
 30
0.0
 11
-74.43380865232325
 21
760.5897339223863
 31
0.0
1001
AUSTER_ANSICHT
1002
{
1000
Det03
1002
}
1001
AUSTER_FOLIE
1002
{
1000
S00_W_VERDRAHTUNGSBAUSATZ
1002
}
  0
LINE
  5
10CA6
330
20
100
AcDbEntity
  8
10000_FRONT
  6
Continuous
 62
     7
370
    20
100
AcDbLine
 39
0.25
 10
-74.43380865232325
 20
761.5820339223863
 30
0.0
 11
-74.43380865232325
 21
761.7623339223863
 31
0.0
1001
AUSTER_ANSICHT
1002
{
1000
Det03
1002
}
1001
AUSTER_FOLIE
1002
{
1000
S00_W_VERDRAHTUNGSBAUSATZ
1002
}
  0
LINE
  5
10CA7
330
20
100
AcDbEntity
  8
10000_FRONT
  6
Continuous
 62
     7
370
    20
100
AcDbLine
 39
0.25
 10
-74.43380865232325
 20
763.1512339223863
 30
0.0
 11
-74.43380865232325
 21
762.9709339223863
 31
0.0
1001
AUSTER_ANSICHT
1002
{
1000
Det03
1002
}
1001
AUSTER_FOLIE
1002
{
1000
S00_W_VERDRAHTUNGSBAUSATZ
1002
}
  0
LINE
  5
10CA8
330
20
100
AcDbEntity
  8
10000_FRONT
  6
Continuous
 62
     7
370
    20
100
AcDbLine
 39
0.25
 10
-75.46380865232325
 20
761.5820339223863
 30
0.0
 11
-75.46380865232325
 21
761.7623339223863
 31
0.0
1001
AUSTER_ANSICHT
1002
{
1000
Det03
1002
}
1001
AUSTER_FOLIE
1002
{
1000
S00_W_VERDRAHTUNGSBAUSATZ
1002
}
  0
LINE
  5
10CA9
330
20
100
AcDbEntity
  8
10000_FRONT
  6
Continuous
 62
     7
370
    20
100
AcDbLine
 39
0.25
 10
-75.46380865232325
 20
763.1512339223863
 30
0.0
 11
-75.46380865232325
 21
762.9709339223863
 31
0.0
1001
AUSTER_ANSICHT
1002
{
1000
Det03
1002
}
1001
AUSTER_FOLIE
1002
{
1000
S00_W_VERDRAHTUNGSBAUSATZ
1002
}
  0
LINE
  5
10CAA
330
20
100
AcDbEntity
  8
10000_FRONT
  6
Continuous
 62
     7
370
    20
100
AcDbLine
 39
0.25
 10
-77.73450865232327
 20
762.9709339223863
 30
0.0
 11
-75.46380865232325
 21
762.9709339223863
 31
0.0
1001
AUSTER_ANSICHT
1002
{
1000
Det03
1002
}
1001
AUSTER_FOLIE
1002
{
1000
S00_W_VERDRAHTUNGSBAUSATZ
1002
}
  0
LINE
  5
10CAB
330
20
100
AcDbEntity
  8
10000_FRONT
  6
Continuous
 62
     7
370
    20
100
AcDbLine
 39
0.25
 10
-75.46380865232325
 20
761.7623339223863
 30
0.0
 11
-77.73450865232327
 21
761.7623339223863
 31
0.0
1001
AUSTER_ANSICHT
1002
{
1000
Det03
1002
}
1001
AUSTER_FOLIE
1002
{
1000
S00_W_VERDRAHTUNGSBAUSATZ
1002
}
  0
LINE
  5
10CAC
330
20
100
AcDbEntity
  8
10000_FRONT
  6
Continuous
 62
     7
370
    20
100
AcDbLine
 39
0.25
 10
-74.43380865232325
 20
764.1435339223862
 30
0.0
 11
-74.43380865232325
 21
763.1512339223863
 31
0.0
1001
AUSTER_ANSICHT
1002
{
1000
Det03
1002
}
1001
AUSTER_FOLIE
1002
{
1000
S00_W_VERDRAHTUNGSBAUSATZ
1002
}
  0
LINE
  5
10CAD
330
20
100
AcDbEntity
  8
10000_FRONT
  6
Continuous
 62
     7
370
    20
100
AcDbLine
 39
0.25
 10
-75.46380865232325
 20
763.1512339223863
 30
0.0
 11
-75.46380865232325
 21
764.1435339223862
 31
0.0
1001
AUSTER_ANSICHT
1002
{
1000
Det03
1002
}
1001
AUSTER_FOLIE
1002
{
1000
S00_W_VERDRAHTUNGSBAUSATZ
1002
}
  0
LINE
  5
10CAE
330
20
100
AcDbEntity
  8
10000_FRONT
  6
Continuous
 62
     7
370
    20
100
AcDbLine
 39
0.25
 10
-94.47996865232326
 20
742.0666339223863
 30
0.0
 11
-98.41879865232328
 21
742.0666339223863
 31
0.0
1001
AUSTER_ANSICHT
1002
{
1000
Det03
1002
}
1001
AUSTER_FOLIE
1002
{
1000
S00_W_VERDRAHTUNGSBAUSATZ
1002
}
  0
LINE
  5
10CAF
330
20
100
AcDbEntity
  8
10000_FRONT
  6
Continuous
 62
     7
370
    20
100
AcDbLine
 39
0.25
 10
-94.47996865232326
 20
746.6666339223863
 30
0.0
 11
-98.41879865232328
 21
746.6666339223863
 31
0.0
1001
AUSTER_ANSICHT
1002
{
1000
Det03
1002
}
1001
AUSTER_FOLIE
1002
{
1000
S00_W_VERDRAHTUNGSBAUSATZ
1002
}
  0
LINE
  5
10CB0
330
20
100
AcDbEntity
  8
10000_FRONT
  6
Continuous
 62
     7
370
    20
100
AcDbLine
 39
0.25
 10
-98.41879865232328
 20
746.6666339223863
 30
0.0
 11
-98.41879865232328
 21
742.0666339223863
 31
0.0
1001
AUSTER_ANSICHT
1002
{
1000
Det03
1002
}
1001
AUSTER_FOLIE
1002
{
1000
S00_W_VERDRAHTUNGSBAUSATZ
1002
}
  0
LINE
  5
10CB1
330
20
100
AcDbEntity
  8
10000_FRONT
  6
Continuous
 62
     7
370
    20
100
AcDbLine
 39
0.25
 10
-94.47996865232326
 20
742.0666339223863
 30
0.0
 11
-94.47996865232326
 21
746.6666339223863
 31
0.0
1001
AUSTER_ANSICHT
1002
{
1000
Det03
1002
}
1001
AUSTER_FOLIE
1002
{
1000
S00_W_VERDRAHTUNGSBAUSATZ
1002
}
  0
LINE
  5
10CB2
330
20
100
AcDbEntity
  8
10000_FRONT
  6
Continuous
 62
     7
370
    20
100
AcDbLine
 39
0.25
 10
-91.93541865232322
 20
738.5032339223863
 30
0.0
 11
-90.34880865232329
 21
738.5032339223863
 31
0.0
1001
AUSTER_ANSICHT
1002
{
1000
Det03
1002
}
1001
AUSTER_FOLIE
1002
{
1000
S00_W_VERDRAHTUNGSBAUSATZ
1002
}
  0
LINE
  5
10CB3
330
20
100
AcDbEntity
  8
10000_FRONT
  6
Continuous
 62
     7
370
    20
100
AcDbLine
 39
0.25
 10
-91.93541865232322
 20
739.4800339223863
 30
0.0
 11
-91.93541865232322
 21
732.3300339223862
 31
0.0
1001
AUSTER_ANSICHT
1002
{
1000
Det03
1002
}
1001
AUSTER_FOLIE
1002
{
1000
S00_W_VERDRAHTUNGSBAUSATZ
1002
}
  0
LINE
  5
10CB4
330
20
100
AcDbEntity
  8
10000_FRONT
  6
Continuous
 62
     7
370
    20
100
AcDbLine
 39
0.25
 10
-111.9354186523232
 20
732.3300339223862
 30
0.0
 11
-90.34880865232329
 21
732.3300339223862
 31
0.0
1001
AUSTER_ANSICHT
1002
{
1000
Det03
1002
}
1001
AUSTER_FOLIE
1002
{
1000
S00_W_VERDRAHTUNGSBAUSATZ
1002
}
  0
LINE
  5
10CB5
330
20
100
AcDbEntity
  8
10000_FRONT
  6
Continuous
 62
     7
370
    20
100
AcDbLine
 39
0.25
 10
-111.9354186523232
 20
739.4800339223863
 30
0.0
 11
-111.9354186523232
 21
732.3300339223862
 31
0.0
1001
AUSTER_ANSICHT
1002
{
1000
Det03
1002
}
1001
AUSTER_FOLIE
1002
{
1000
S00_W_VERDRAHTUNGSBAUSATZ
1002
}
  0
LINE
  5
10CB6
330
20
100
AcDbEntity
  8
10000_FRONT
  6
Continuous
 62
     7
370
    20
100
AcDbLine
 39
0.25
 10
-107.6488086523232
 20
755.1666339223863
 30
0.0
 11
-102.6488086523232
 21
755.1666339223863
 31
0.0
1001
AUSTER_ANSICHT
1002
{
1000
Det03
1002
}
1001
AUSTER_FOLIE
1002
{
1000
S00_W_VERDRAHTUNGSBAUSATZ
1002
}
  0
LINE
  5
10CB7
330
20
100
AcDbEntity
  8
10000_FRONT
  6
Continuous
 62
     7
370
    20
100
AcDbLine
 39
0.25
 10
-102.6488086523232
 20
755.1666339223863
 30
0.0
 11
-102.6488086523232
 21
741.1698339223863
 31
0.0
1001
AUSTER_ANSICHT
1002
{
1000
Det03
1002
}
1001
AUSTER_FOLIE
1002
{
1000
S00_W_VERDRAHTUNGSBAUSATZ
1002
}
  0
LINE
  5
10CB8
330
20
100
AcDbEntity
  8
10000_FRONT
  6
Continuous
 62
     7
370
    20
100
AcDbLine
 39
0.25
 10
-102.6488086523232
 20
741.1698339223863
 30
0.0
 11
-106.0488086523232
 21
741.1698339223863
 31
0.0
1001
AUSTER_ANSICHT
1002
{
1000
Det03
1002
}
1001
AUSTER_FOLIE
1002
{
1000
S00_W_VERDRAHTUNGSBAUSATZ
1002
}
  0
LINE
  5
10CB9
330
20
100
AcDbEntity
  8
10000_FRONT
  6
Continuous
 62
     7
370
    20
100
AcDbLine
 39
0.25
 10
-106.0488086523232
 20
741.1698339223863
 30
0.0
 11
-106.0488086523232
 21
749.9666339223863
 31
0.0
1001
AUSTER_ANSICHT
1002
{
1000
Det03
1002
}
1001
AUSTER_FOLIE
1002
{
1000
S00_W_VERDRAHTUNGSBAUSATZ
1002
}
  0
LINE
  5
10CBA
330
20
100
AcDbEntity
  8
10000_FRONT
  6
Continuous
 62
     7
370
    20
100
AcDbLine
 39
0.25
 10
-106.0488086523232
 20
749.9666339223863
 30
0.0
 11
-107.6488086523232
 21
749.9666339223863
 31
0.0
1001
AUSTER_ANSICHT
1002
{
1000
Det03
1002
}
1001
AUSTER_FOLIE
1002
{
1000
S00_W_VERDRAHTUNGSBAUSATZ
1002
}
  0
LINE
  5
10CBB
330
20
100
AcDbEntity
  8
10000_FRONT
  6
Continuous
 62
     7
370
    20
100
AcDbLine
 39
0.25
 10
-107.6488086523232
 20
749.9666339223863
 30
0.0
 11
-107.6488086523232
 21
755.1666339223863
 31
0.0
1001
AUSTER_ANSICHT
1002
{
1000
Det03
1002
}
1001
AUSTER_FOLIE
1002
{
1000
S00_W_VERDRAHTUNGSBAUSATZ
1002
}
  0
LINE
  5
10CBC
330
20
100
AcDbEntity
  8
10000_FRONT
  6
Continuous
 62
     7
370
    20
100
AcDbLine
 39
0.25
 10
-85.24880865232324
 20
755.1666339223863
 30
0.0
 11
-90.24880865232324
 21
755.1666339223863
 31
0.0
1001
AUSTER_ANSICHT
1002
{
1000
Det03
1002
}
1001
AUSTER_FOLIE
1002
{
1000
S00_W_VERDRAHTUNGSBAUSATZ
1002
}
  0
LINE
  5
10CBD
330
20
100
AcDbEntity
  8
10000_FRONT
  6
Continuous
 62
     7
370
    20
100
AcDbLine
 39
0.25
 10
-90.24880865232324
 20
755.1666339223863
 30
0.0
 11
-90.24880865232324
 21
741.1698339223863
 31
0.0
1001
AUSTER_ANSICHT
1002
{
1000
Det03
1002
}
1001
AUSTER_FOLIE
1002
{
1000
S00_W_VERDRAHTUNGSBAUSATZ
1002
}
  0
LINE
  5
10CBE
330
20
100
AcDbEntity
  8
10000_FRONT
  6
Continuous
 62
     7
370
    20
100
AcDbLine
 39
0.25
 10
-90.24880865232324
 20
741.1698339223863
 30
0.0
 11
-86.84880865232328
 21
741.1698339223863
 31
0.0
1001
AUSTER_ANSICHT
1002
{
1000
Det03
1002
}
1001
AUSTER_FOLIE
1002
{
1000
S00_W_VERDRAHTUNGSBAUSATZ
1002
}
  0
LINE
  5
10CBF
330
20
100
AcDbEntity
  8
10000_FRONT
  6
Continuous
 62
     7
370
    20
100
AcDbLine
 39
0.25
 10
-86.84880865232328
 20
741.1698339223863
 30
0.0
 11
-86.84880865232328
 21
749.9666339223863
 31
0.0
1001
AUSTER_ANSICHT
1002
{
1000
Det03
1002
}
1001
AUSTER_FOLIE
1002
{
1000
S00_W_VERDRAHTUNGSBAUSATZ
1002
}
  0
LINE
  5
10CC0
330
20
100
AcDbEntity
  8
10000_FRONT
  6
Continuous
 62
     7
370
    20
100
AcDbLine
 39
0.25
 10
-86.84880865232328
 20
749.9666339223863
 30
0.0
 11
-85.24880865232324
 21
749.9666339223863
 31
0.0
1001
AUSTER_ANSICHT
1002
{
1000
Det03
1002
}
1001
AUSTER_FOLIE
1002
{
1000
S00_W_VERDRAHTUNGSBAUSATZ
1002
}
  0
LINE
  5
10CC1
330
20
100
AcDbEntity
  8
10000_FRONT
  6
Continuous
 62
     7
370
    20
100
AcDbLine
 39
0.25
 10
-85.24880865232324
 20
749.9666339223863
 30
0.0
 11
-85.24880865232324
 21
755.1666339223863
 31
0.0
1001
AUSTER_ANSICHT
1002
{
1000
Det03
1002
}
1001
AUSTER_FOLIE
1002
{
1000
S00_W_VERDRAHTUNGSBAUSATZ
1002
}
  0
LINE
  5
10CC2
330
20
100
AcDbEntity
  8
10000_FRONT
  6
Continuous
 62
     7
370
    20
100
AcDbLine
 39
0.25
 10
-85.99880865232325
 20
744.4167339223863
 30
0.0
 11
-84.49880865232325
 21
744.4167339223863
 31
0.0
1001
AUSTER_ANSICHT
1002
{
1000
Det03
1002
}
1001
AUSTER_FOLIE
1002
{
1000
S00_W_VERDRAHTUNGSBAUSATZ
1002
}
  0
LINE
  5
10CC3
330
20
100
AcDbEntity
  8
10000_FRONT
  6
Continuous
 62
     7
370
    20
100
AcDbLine
 39
0.25
 10
-84.49880865232325
 20
744.4167339223863
 30
0.0
 11
-84.49880865232325
 21
736.4765339223863
 31
0.0
1001
AUSTER_ANSICHT
1002
{
1000
Det03
1002
}
1001
AUSTER_FOLIE
1002
{
1000
S00_W_VERDRAHTUNGSBAUSATZ
1002
}
  0
LINE
  5
10CC4
330
20
100
AcDbEntity
  8
10000_FRONT
  6
Continuous
 62
     7
370
    20
100
AcDbLine
 39
0.25
 10
-84.64880865232323
 20
735.9167339223863
 30
0.0
 11
-84.64880865232323
 21
732.4167339223863
 31
0.0
1001
AUSTER_ANSICHT
1002
{
1000
Det03
1002
}
1001
AUSTER_FOLIE
1002
{
1000
S00_W_VERDRAHTUNGSBAUSATZ
1002
}
  0
LINE
  5
10CC5
330
20
100
AcDbEntity
  8
10000_FRONT
  6
Continuous
 62
     7
370
    20
100
AcDbLine
 39
0.25
 10
-84.64880865232323
 20
732.4167339223863
 30
0.0
 11
-85.84880865232326
 21
732.4167339223863
 31
0.0
1001
AUSTER_ANSICHT
1002
{
1000
Det03
1002
}
1001
AUSTER_FOLIE
1002
{
1000
S00_W_VERDRAHTUNGSBAUSATZ
1002
}
  0
LINE
  5
10CC6
330
20
100
AcDbEntity
  8
10000_FRONT
  6
Continuous
 62
     7
370
    20
100
AcDbLine
 39
0.25
 10
-85.84880865232326
 20
732.4167339223863
 30
0.0
 11
-85.84880865232326
 21
735.9049339223863
 31
0.0
1001
AUSTER_ANSICHT
1002
{
1000
Det03
1002
}
1001
AUSTER_FOLIE
1002
{
1000
S00_W_VERDRAHTUNGSBAUSATZ
1002
}
  0
LINE
  5
10CC7
330
20
100
AcDbEntity
  8
10000_FRONT
  6
Continuous
 62
     7
370
    20
100
AcDbLine
 39
0.25
 10
-85.99880865232325
 20
736.4765339223863
 30
0.0
 11
-85.99880865232325
 21
744.4167339223863
 31
0.0
1001
AUSTER_ANSICHT
1002
{
1000
Det03
1002
}
1001
AUSTER_FOLIE
1002
{
1000
S00_W_VERDRAHTUNGSBAUSATZ
1002
}
  0
LINE
  5
10CC8
330
20
100
AcDbEntity
  8
10000_FRONT
  6
Continuous
 62
     7
370
    20
100
AcDbLine
 39
0.25
 10
-100.1988086523232
 20
752.6666339223861
 30
0.0
 11
-92.69880865232329
 21
752.6666339223861
 31
0.0
1001
AUSTER_ANSICHT
1002
{
1000
Det03
1002
}
1001
AUSTER_FOLIE
1002
{
1000
S00_W_VERDRAHTUNGSBAUSATZ
1002
}
  0
LINE
  5
10CC9
330
20
100
AcDbEntity
  8
10000_FRONT
  6
Continuous
 62
     7
370
    20
100
AcDbLine
 39
0.25
 10
-92.69880865232329
 20
752.6666339223861
 30
0.0
 11
-92.69880865232329
 21
741.1666339223861
 31
0.0
1001
AUSTER_ANSICHT
1002
{
1000
Det03
1002
}
1001
AUSTER_FOLIE
1002
{
1000
S00_W_VERDRAHTUNGSBAUSATZ
1002
}
  0
LINE
  5
10CCA
330
20
100
AcDbEntity
  8
10000_FRONT
  6
Continuous
 62
     7
370
    20
100
AcDbLine
 39
0.25
 10
-92.69880865232329
 20
741.1666339223861
 30
0.0
 11
-100.1988086523232
 21
741.1666339223861
 31
0.0
1001
AUSTER_ANSICHT
1002
{
1000
Det03
1002
}
1001
AUSTER_FOLIE
1002
{
1000
S00_W_VERDRAHTUNGSBAUSATZ
1002
}
  0
LINE
  5
10CCB
330
20
100
AcDbEntity
  8
10000_FRONT
  6
Continuous
 62
     7
370
    20
100
AcDbLine
 39
0.25
 10
-100.1988086523232
 20
741.1666339223861
 30
0.0
 11
-100.1988086523232
 21
752.6666339223861
 31
0.0
1001
AUSTER_ANSICHT
1002
{
1000
Det03
1002
}
1001
AUSTER_FOLIE
1002
{
1000
S00_W_VERDRAHTUNGSBAUSATZ
1002
}
  0
LINE
  5
10CCC
330
20
100
AcDbEntity
  8
10000_FRONT
  6
Continuous
 62
     7
370
    20
100
AcDbLine
 39
0.25
 10
-90.34880865232329
 20
738.5032339223863
 30
0.0
 11
-90.34880865232329
 21
732.3300339223862
 31
0.0
1001
AUSTER_ANSICHT
1002
{
1000
Det03
1002
}
1001
AUSTER_FOLIE
1002
{
1000
S00_W_VERDRAHTUNGSBAUSATZ
1002
}
  0
LINE
  5
10CCD
330
20
100
AcDbEntity
  8
10000_FRONT
  6
Continuous
 62
     7
370
    20
100
AcDbLine
 39
0.25
 10
-84.49880865232325
 20
736.4765339223863
 30
0.0
 11
-84.64880865232323
 21
735.9167339223863
 31
0.0
1001
AUSTER_ANSICHT
1002
{
1000
Det03
1002
}
1001
AUSTER_FOLIE
1002
{
1000
S00_W_VERDRAHTUNGSBAUSATZ
1002
}
  0
LINE
  5
10CCE
330
20
100
AcDbEntity
  8
10000_FRONT
  6
Continuous
 62
     7
370
    20
100
AcDbLine
 39
0.25
 10
-85.84880865232326
 20
735.9167339223863
 30
0.0
 11
-85.99880865232325
 21
736.4765339223863
 31
0.0
1001
AUSTER_ANSICHT
1002
{
1000
Det03
1002
}
1001
AUSTER_FOLIE
1002
{
1000
S00_W_VERDRAHTUNGSBAUSATZ
1002
}
  0
LINE
  5
10CCF
330
20
100
AcDbEntity
  8
10000_FRONT
  6
Continuous
 62
     7
370
    20
100
AcDbLine
 39
0.25
 10
-94.44880865232326
 20
755.4686339223863
 30
0.0
 11
-94.44880865232326
 21
752.6666339223861
 31
0.0
1001
AUSTER_ANSICHT
1002
{
1000
Det03
1002
}
1001
AUSTER_FOLIE
1002
{
1000
S00_W_VERDRAHTUNGSBAUSATZ
1002
}
  0
LINE
  5
10CD0
330
20
100
AcDbEntity
  8
10000_FRONT
  6
Continuous
 62
     7
370
    20
100
AcDbLine
 39
0.25
 10
-98.44880865232322
 20
752.6666339223861
 30
0.0
 11
-98.44880865232322
 21
752.7257339223863
 31
0.0
1001
AUSTER_ANSICHT
1002
{
1000
Det03
1002
}
1001
AUSTER_FOLIE
1002
{
1000
S00_W_VERDRAHTUNGSBAUSATZ
1002
}
  0
LINE
  5
10CD1
330
20
100
AcDbEntity
  8
10000_FRONT
  6
Continuous
 62
     7
370
    20
100
AcDbLine
 39
0.25
 10
-98.44880865232322
 20
752.7257339223863
 30
0.0
 11
-98.44880865232322
 21
755.4686339223863
 31
0.0
1001
AUSTER_ANSICHT
1002
{
1000
Det03
1002
}
1001
AUSTER_FOLIE
1002
{
1000
S00_W_VERDRAHTUNGSBAUSATZ
1002
}
  0
LINE
  5
10CD2
330
20
100
AcDbEntity
  8
10000_FRONT
  6
Continuous
 62
     7
370
    20
100
AcDbLine
 39
0.25
 10
-98.44880865232322
 20
755.4686339223863
 30
0.0
 11
-94.44880865232326
 21
755.4686339223863
 31
0.0
1001
AUSTER_ANSICHT
1002
{
1000
Det03
1002
}
1001
AUSTER_FOLIE
1002
{
1000
S00_W_VERDRAHTUNGSBAUSATZ
1002
}
  0
LINE
  5
10CD3
330
20
100
AcDbEntity
  8
10000_FRONT
  6
Continuous
 62
     7
370
    20
100
AcDbLine
 39
0.25
 10
-111.9354186523232
 20
739.4800339223863
 30
0.0
 11
-109.4960986523233
 21
739.4800339223863
 31
0.0
1001
AUSTER_ANSICHT
1002
{
1000
Det03
1002
}
1001
AUSTER_FOLIE
1002
{
1000
S00_W_VERDRAHTUNGSBAUSATZ
1002
}
  0
LINE
  5
10CD4
330
20
100
AcDbEntity
  8
10000_FRONT
  6
Continuous
 62
     7
370
    20
100
AcDbLine
 39
0.25
 10
-105.3753086523232
 20
739.4800339223863
 30
0.0
 11
-98.49753865232329
 21
739.4800339223863
 31
0.0
1001
AUSTER_ANSICHT
1002
{
1000
Det03
1002
}
1001
AUSTER_FOLIE
1002
{
1000
S00_W_VERDRAHTUNGSBAUSATZ
1002
}
  0
LINE
  5
10CD5
330
20
100
AcDbEntity
  8
10000_FRONT
  6
Continuous
 62
     7
370
    20
100
AcDbLine
 39
0.25
 10
-94.37919865232322
 20
739.4800339223863
 30
0.0
 11
-91.93541865232322
 21
739.4800339223863
 31
0.0
1001
AUSTER_ANSICHT
1002
{
1000
Det03
1002
}
1001
AUSTER_FOLIE
1002
{
1000
S00_W_VERDRAHTUNGSBAUSATZ
1002
}
  0
LINE
  5
10CD6
330
20
100
AcDbEntity
  8
10000_FRONT
  6
Continuous
 62
     7
370
    20
100
AcDbLine
 39
0.25
 10
-94.37919865232322
 20
739.4800339223863
 30
0.0
 11
-98.49753865232329
 21
739.4800339223863
 31
0.0
1001
AUSTER_ANSICHT
1002
{
1000
Det03
1002
}
1001
AUSTER_FOLIE
1002
{
1000
S00_W_VERDRAHTUNGSBAUSATZ
1002
}
  0
LINE
  5
10CD7
330
20
100
AcDbEntity
  8
10000_FRONT
  6
Continuous
 62
     7
370
    20
100
AcDbLine
 39
0.25
 10
-105.3753086523232
 20
739.4800339223863
 30
0.0
 11
-109.4960986523233
 21
739.4800339223863
 31
0.0
1001
AUSTER_ANSICHT
1002
{
1000
Det03
1002
}
1001
AUSTER_FOLIE
1002
{
1000
S00_W_VERDRAHTUNGSBAUSATZ
1002
}
  0
LINE
  5
10CD8
330
20
100
AcDbEntity
  8
10000_FRONT
  6
Continuous
 62
     7
370
    20
100
AcDbLine
 39
0.25
 10
-76.04880865232326
 20
749.4666339223863
 30
0.0
 11
-76.04880865232326
 21
748.0166339223861
 31
0.0
1001
AUSTER_ANSICHT
1002
{
1000
Det03
1002
}
1001
AUSTER_FOLIE
1002
{
1000
S00_W_VERDRAHTUNGSBAUSATZ
1002
}
  0
LINE
  5
10CD9
330
20
100
AcDbEntity
  8
10000_FRONT
  6
Continuous
 62
     7
370
    20
100
AcDbLine
 39
0.25
 10
-71.84880865232327
 20
749.4666339223863
 30
0.0
 11
-71.84880865232327
 21
748.0166339223861
 31
0.0
1001
AUSTER_ANSICHT
1002
{
1000
Det03
1002
}
1001
AUSTER_FOLIE
1002
{
1000
S00_W_VERDRAHTUNGSBAUSATZ
1002
}
  0
LINE
  5
10CDA
330
20
100
AcDbEntity
  8
10000_FRONT
  6
Continuous
 62
     7
370
    20
100
AcDbLine
 39
0.25
 10
-76.04880865232326
 20
754.2666339223861
 30
0.0
 11
-74.14880865232324
 21
754.2666339223861
 31
0.0
1001
AUSTER_ANSICHT
1002
{
1000
Det03
1002
}
1001
AUSTER_FOLIE
1002
{
1000
S00_W_VERDRAHTUNGSBAUSATZ
1002
}
  0
LINE
  5
10CDB
330
20
100
AcDbEntity
  8
10000_FRONT
  6
Continuous
 62
     7
370
    20
100
AcDbLine
 39
0.25
 10
-74.14880865232324
 20
754.2666339223861
 30
0.0
 11
-74.14880865232324
 21
755.6666339223863
 31
0.0
1001
AUSTER_ANSICHT
1002
{
1000
Det03
1002
}
1001
AUSTER_FOLIE
1002
{
1000
S00_W_VERDRAHTUNGSBAUSATZ
1002
}
  0
LINE
  5
10CDC
330
20
100
AcDbEntity
  8
10000_FRONT
  6
Continuous
 62
     7
370
    20
100
AcDbLine
 39
0.25
 10
-74.14880865232324
 20
755.6666339223863
 30
0.0
 11
-71.84880865232327
 21
755.6666339223863
 31
0.0
1001
AUSTER_ANSICHT
1002
{
1000
Det03
1002
}
1001
AUSTER_FOLIE
1002
{
1000
S00_W_VERDRAHTUNGSBAUSATZ
1002
}
  0
LINE
  5
10CDD
330
20
100
AcDbEntity
  8
10000_FRONT
  6
Continuous
 62
     7
370
    20
100
AcDbLine
 39
0.25
 10
-71.84880865232327
 20
755.6666339223863
 30
0.0
 11
-71.84880865232327
 21
751.3666339223862
 31
0.0
1001
AUSTER_ANSICHT
1002
{
1000
Det03
1002
}
1001
AUSTER_FOLIE
1002
{
1000
S00_W_VERDRAHTUNGSBAUSATZ
1002
}
  0
LINE
  5
10CDE
330
20
100
AcDbEntity
  8
10000_FRONT
  6
Continuous
 62
     7
370
    20
100
AcDbLine
 39
0.25
 10
-71.84880865232327
 20
751.3666339223862
 30
0.0
 11
-74.14880865232324
 21
751.3666339223862
 31
0.0
1001
AUSTER_ANSICHT
1002
{
1000
Det03
1002
}
1001
AUSTER_FOLIE
1002
{
1000
S00_W_VERDRAHTUNGSBAUSATZ
1002
}
  0
LINE
  5
10CDF
330
20
100
AcDbEntity
  8
10000_FRONT
  6
Continuous
 62
     7
370
    20
100
AcDbLine
 39
0.25
 10
-74.14880865232324
 20
751.3666339223862
 30
0.0
 11
-74.14880865232324
 21
752.7666339223863
 31
0.0
1001
AUSTER_ANSICHT
1002
{
1000
Det03
1002
}
1001
AUSTER_FOLIE
1002
{
1000
S00_W_VERDRAHTUNGSBAUSATZ
1002
}
  0
LINE
  5
10CE0
330
20
100
AcDbEntity
  8
10000_FRONT
  6
Continuous
 62
     7
370
    20
100
AcDbLine
 39
0.25
 10
-74.14880865232324
 20
752.7666339223863
 30
0.0
 11
-76.04880865232326
 21
752.7666339223863
 31
0.0
1001
AUSTER_ANSICHT
1002
{
1000
Det03
1002
}
1001
AUSTER_FOLIE
1002
{
1000
S00_W_VERDRAHTUNGSBAUSATZ
1002
}
  0
LINE
  5
10CE1
330
20
100
AcDbEntity
  8
10000_FRONT
  6
Continuous
 62
     7
370
    20
100
AcDbLine
 39
0.25
 10
-76.04880865232326
 20
752.7666339223863
 30
0.0
 11
-76.04880865232326
 21
754.2666339223861
 31
0.0
1001
AUSTER_ANSICHT
1002
{
1000
Det03
1002
}
1001
AUSTER_FOLIE
1002
{
1000
S00_W_VERDRAHTUNGSBAUSATZ
1002
}
  0
LINE
  5
10CE2
330
20
100
AcDbEntity
  8
10000_FRONT
  6
Continuous
 62
     7
370
    20
100
AcDbLine
 39
0.25
 10
-76.04880865232326
 20
739.2666339223863
 30
0.0
 11
-76.04880865232326
 21
740.7166339223863
 31
0.0
1001
AUSTER_ANSICHT
1002
{
1000
Det03
1002
}
1001
AUSTER_FOLIE
1002
{
1000
S00_W_VERDRAHTUNGSBAUSATZ
1002
}
  0
LINE
  5
10CE3
330
20
100
AcDbEntity
  8
10000_FRONT
  6
Continuous
 62
     7
370
    20
100
AcDbLine
 39
0.25
 10
-71.84880865232327
 20
739.2666339223863
 30
0.0
 11
-71.84880865232327
 21
740.7166339223863
 31
0.0
1001
AUSTER_ANSICHT
1002
{
1000
Det03
1002
}
1001
AUSTER_FOLIE
1002
{
1000
S00_W_VERDRAHTUNGSBAUSATZ
1002
}
  0
LINE
  5
10CE4
330
20
100
AcDbEntity
  8
10000_FRONT
  6
Continuous
 62
     7
370
    20
100
AcDbLine
 39
0.25
 10
-76.04880865232326
 20
734.4666339223863
 30
0.0
 11
-74.14880865232324
 21
734.4666339223863
 31
0.0
1001
AUSTER_ANSICHT
1002
{
1000
Det03
1002
}
1001
AUSTER_FOLIE
1002
{
1000
S00_W_VERDRAHTUNGSBAUSATZ
1002
}
  0
LINE
  5
10CE5
330
20
100
AcDbEntity
  8
10000_FRONT
  6
Continuous
 62
     7
370
    20
100
AcDbLine
 39
0.25
 10
-74.14880865232324
 20
734.4666339223863
 30
0.0
 11
-74.14880865232324
 21
733.0666339223864
 31
0.0
1001
AUSTER_ANSICHT
1002
{
1000
Det03
1002
}
1001
AUSTER_FOLIE
1002
{
1000
S00_W_VERDRAHTUNGSBAUSATZ
1002
}
  0
LINE
  5
10CE6
330
20
100
AcDbEntity
  8
10000_FRONT
  6
Continuous
 62
     7
370
    20
100
AcDbLine
 39
0.25
 10
-74.14880865232324
 20
733.0666339223864
 30
0.0
 11
-71.84880865232327
 21
733.0666339223864
 31
0.0
1001
AUSTER_ANSICHT
1002
{
1000
Det03
1002
}
1001
AUSTER_FOLIE
1002
{
1000
S00_W_VERDRAHTUNGSBAUSATZ
1002
}
  0
LINE
  5
10CE7
330
20
100
AcDbEntity
  8
10000_FRONT
  6
Continuous
 62
     7
370
    20
100
AcDbLine
 39
0.25
 10
-71.84880865232327
 20
733.0666339223864
 30
0.0
 11
-71.84880865232327
 21
737.3666339223863
 31
0.0
1001
AUSTER_ANSICHT
1002
{
1000
Det03
1002
}
1001
AUSTER_FOLIE
1002
{
1000
S00_W_VERDRAHTUNGSBAUSATZ
1002
}
  0
LINE
  5
10CE8
330
20
100
AcDbEntity
  8
10000_FRONT
  6
Continuous
 62
     7
370
    20
100
AcDbLine
 39
0.25
 10
-71.84880865232327
 20
737.3666339223863
 30
0.0
 11
-74.14880865232324
 21
737.3666339223863
 31
0.0
1001
AUSTER_ANSICHT
1002
{
1000
Det03
1002
}
1001
AUSTER_FOLIE
1002
{
1000
S00_W_VERDRAHTUNGSBAUSATZ
1002
}
  0
LINE
  5
10CE9
330
20
100
AcDbEntity
  8
10000_FRONT
  6
Continuous
 62
     7
370
    20
100
AcDbLine
 39
0.25
 10
-74.14880865232324
 20
737.3666339223863
 30
0.0
 11
-74.14880865232324
 21
735.9666339223863
 31
0.0
1001
AUSTER_ANSICHT
1002
{
1000
Det03
1002
}
1001
AUSTER_FOLIE
1002
{
1000
S00_W_VERDRAHTUNGSBAUSATZ
1002
}
  0
LINE
  5
10CEA
330
20
100
AcDbEntity
  8
10000_FRONT
  6
Continuous
 62
     7
370
    20
100
AcDbLine
 39
0.25
 10
-74.14880865232324
 20
735.9666339223863
 30
0.0
 11
-76.04880865232326
 21
735.9666339223863
 31
0.0
1001
AUSTER_ANSICHT
1002
{
1000
Det03
1002
}
1001
AUSTER_FOLIE
1002
{
1000
S00_W_VERDRAHTUNGSBAUSATZ
1002
}
  0
LINE
  5
10CEB
330
20
100
AcDbEntity
  8
10000_FRONT
  6
Continuous
 62
     7
370
    20
100
AcDbLine
 39
0.25
 10
-76.04880865232326
 20
735.9666339223863
 30
0.0
 11
-76.04880865232326
 21
734.4666339223863
 31
0.0
1001
AUSTER_ANSICHT
1002
{
1000
Det03
1002
}
1001
AUSTER_FOLIE
1002
{
1000
S00_W_VERDRAHTUNGSBAUSATZ
1002
}
  0
LINE
  5
10CEC
330
20
100
AcDbEntity
  8
10000_FRONT
  6
Continuous
 62
     7
370
    20
100
AcDbLine
 39
0.25
 10
-71.84880865232327
 20
748.0166339223861
 30
0.0
 11
-76.04880865232326
 21
748.0166339223861
 31
0.0
1001
AUSTER_ANSICHT
1002
{
1000
Det03
1002
}
1001
AUSTER_FOLIE
1002
{
1000
S00_W_VERDRAHTUNGSBAUSATZ
1002
}
  0
LINE
  5
10CED
330
20
100
AcDbEntity
  8
10000_FRONT
  6
Continuous
 62
     7
370
    20
100
AcDbLine
 39
0.25
 10
-71.84880865232327
 20
740.7166339223863
 30
0.0
 11
-76.04880865232326
 21
740.7166339223863
 31
0.0
1001
AUSTER_ANSICHT
1002
{
1000
Det03
1002
}
1001
AUSTER_FOLIE
1002
{
1000
S00_W_VERDRAHTUNGSBAUSATZ
1002
}
  0
LINE
  5
10CEE
330
20
100
AcDbEntity
  8
10000_FRONT
  6
Continuous
 62
     7
370
    20
100
AcDbLine
 39
0.25
 10
-76.04880865232326
 20
749.4666339223863
 30
0.0
 11
-71.84880865232327
 21
749.4666339223863
 31
0.0
1001
AUSTER_ANSICHT
1002
{
1000
Det03
1002
}
1001
AUSTER_FOLIE
1002
{
1000
S00_W_VERDRAHTUNGSBAUSATZ
1002
}
  0
LINE
  5
10CEF
330
20
100
AcDbEntity
  8
10000_FRONT
  6
Continuous
 62
     7
370
    20
100
AcDbLine
 39
0.25
 10
-76.04880865232326
 20
739.2666339223863
 30
0.0
 11
-71.84880865232327
 21
739.2666339223863
 31
0.0
1001
AUSTER_ANSICHT
1002
{
1000
Det03
1002
}
1001
AUSTER_FOLIE
1002
{
1000
S00_W_VERDRAHTUNGSBAUSATZ
1002
}
  0
LINE
  5
10CF0
330
20
100
AcDbEntity
  8
10000_FRONT
  6
Continuous
 62
     7
370
    20
100
AcDbLine
 39
0.25
 10
-116.8488086523232
 20
749.4666339223863
 30
0.0
 11
-116.8488086523232
 21
748.0166339223861
 31
0.0
1001
AUSTER_ANSICHT
1002
{
1000
Det03
1002
}
1001
AUSTER_FOLIE
1002
{
1000
S00_W_VERDRAHTUNGSBAUSATZ
1002
}
  0
LINE
  5
10CF1
330
20
100
AcDbEntity
  8
10000_FRONT
  6
Continuous
 62
     7
370
    20
100
AcDbLine
 39
0.25
 10
-119.1488086523232
 20
754.2666339223861
 30
0.0
 11
-119.1488086523232
 21
755.6666339223863
 31
0.0
1001
AUSTER_ANSICHT
1002
{
1000
Det03
1002
}
1001
AUSTER_FOLIE
1002
{
1000
S00_W_VERDRAHTUNGSBAUSATZ
1002
}
  0
LINE
  5
10CF2
330
20
100
AcDbEntity
  8
10000_FRONT
  6
Continuous
 62
     7
370
    20
100
AcDbLine
 39
0.25
 10
-119.1488086523232
 20
755.6666339223863
 30
0.0
 11
-116.8488086523232
 21
755.6666339223863
 31
0.0
1001
AUSTER_ANSICHT
1002
{
1000
Det03
1002
}
1001
AUSTER_FOLIE
1002
{
1000
S00_W_VERDRAHTUNGSBAUSATZ
1002
}
  0
LINE
  5
10CF3
330
20
100
AcDbEntity
  8
10000_FRONT
  6
Continuous
 62
     7
370
    20
100
AcDbLine
 39
0.25
 10
-116.8488086523232
 20
755.6666339223863
 30
0.0
 11
-116.8488086523232
 21
751.3666339223862
 31
0.0
1001
AUSTER_ANSICHT
1002
{
1000
Det03
1002
}
1001
AUSTER_FOLIE
1002
{
1000
S00_W_VERDRAHTUNGSBAUSATZ
1002
}
  0
LINE
  5
10CF4
330
20
100
AcDbEntity
  8
10000_FRONT
  6
Continuous
 62
     7
370
    20
100
AcDbLine
 39
0.25
 10
-116.8488086523232
 20
751.3666339223862
 30
0.0
 11
-119.1488086523232
 21
751.3666339223862
 31
0.0
1001
AUSTER_ANSICHT
1002
{
1000
Det03
1002
}
1001
AUSTER_FOLIE
1002
{
1000
S00_W_VERDRAHTUNGSBAUSATZ
1002
}
  0
LINE
  5
10CF5
330
20
100
AcDbEntity
  8
10000_FRONT
  6
Continuous
 62
     7
370
    20
100
AcDbLine
 39
0.25
 10
-119.1488086523232
 20
751.3666339223862
 30
0.0
 11
-119.1488086523232
 21
752.7666339223863
 31
0.0
1001
AUSTER_ANSICHT
1002
{
1000
Det03
1002
}
1001
AUSTER_FOLIE
1002
{
1000
S00_W_VERDRAHTUNGSBAUSATZ
1002
}
  0
LINE
  5
10CF6
330
20
100
AcDbEntity
  8
10000_FRONT
  6
Continuous
 62
     7
370
    20
100
AcDbLine
 39
0.25
 10
-116.8488086523232
 20
739.2666339223863
 30
0.0
 11
-116.8488086523232
 21
740.7166339223863
 31
0.0
1001
AUSTER_ANSICHT
1002
{
1000
Det03
1002
}
1001
AUSTER_FOLIE
1002
{
1000
S00_W_VERDRAHTUNGSBAUSATZ
1002
}
  0
LINE
  5
10CF7
330
20
100
AcDbEntity
  8
10000_FRONT
  6
Continuous
 62
     7
370
    20
100
AcDbLine
 39
0.25
 10
-119.1488086523232
 20
734.4666339223863
 30
0.0
 11
-119.1488086523232
 21
733.0666339223864
 31
0.0
1001
AUSTER_ANSICHT
1002
{
1000
Det03
1002
}
1001
AUSTER_FOLIE
1002
{
1000
S00_W_VERDRAHTUNGSBAUSATZ
1002
}
  0
LINE
  5
10CF8
330
20
100
AcDbEntity
  8
10000_FRONT
  6
Continuous
 62
     7
370
    20
100
AcDbLine
 39
0.25
 10
-119.1488086523232
 20
733.0666339223864
 30
0.0
 11
-116.8488086523232
 21
733.0666339223864
 31
0.0
1001
AUSTER_ANSICHT
1002
{
1000
Det03
1002
}
1001
AUSTER_FOLIE
1002
{
1000
S00_W_VERDRAHTUNGSBAUSATZ
1002
}
  0
LINE
  5
10CF9
330
20
100
AcDbEntity
  8
10000_FRONT
  6
Continuous
 62
     7
370
    20
100
AcDbLine
 39
0.25
 10
-116.8488086523232
 20
733.0666339223864
 30
0.0
 11
-116.8488086523232
 21
737.3666339223863
 31
0.0
1001
AUSTER_ANSICHT
1002
{
1000
Det03
1002
}
1001
AUSTER_FOLIE
1002
{
1000
S00_W_VERDRAHTUNGSBAUSATZ
1002
}
  0
LINE
  5
10CFA
330
20
100
AcDbEntity
  8
10000_FRONT
  6
Continuous
 62
     7
370
    20
100
AcDbLine
 39
0.25
 10
-116.8488086523232
 20
737.3666339223863
 30
0.0
 11
-119.1488086523232
 21
737.3666339223863
 31
0.0
1001
AUSTER_ANSICHT
1002
{
1000
Det03
1002
}
1001
AUSTER_FOLIE
1002
{
1000
S00_W_VERDRAHTUNGSBAUSATZ
1002
}
  0
LINE
  5
10CFB
330
20
100
AcDbEntity
  8
10000_FRONT
  6
Continuous
 62
     7
370
    20
100
AcDbLine
 39
0.25
 10
-119.1488086523232
 20
737.3666339223863
 30
0.0
 11
-119.1488086523232
 21
735.9666339223863
 31
0.0
1001
AUSTER_ANSICHT
1002
{
1000
Det03
1002
}
1001
AUSTER_FOLIE
1002
{
1000
S00_W_VERDRAHTUNGSBAUSATZ
1002
}
  0
ARC
  5
10CFD
330
20
100
AcDbEntity
  8
10000_FRONT
  6
Continuous
 62
     7
370
    20
100
AcDbCircle
 39
0.25
 10
-119.9488116523232
 20
762.3666339223863
 30
0.0
 40
2.850490999999998
100
AcDbArc
 50
347.7603999999987
 51
12.23960000000143
1001
AUSTER_ANSICHT
1002
{
1000
Det03
1002
}
1001
AUSTER_FOLIE
1002
{
1000
S00_W_VERDRAHTUNGSBAUSATZ
1002
}
  0
CIRCLE
  5
10CFE
330
20
100
AcDbEntity
  8
10000_FRONT
  6
Continuous
 62
     7
370
    20
100
AcDbCircle
 39
0.25
 10
-109.3488086523233
 20
762.3666339223863
 30
0.0
 40
3.1
1001
AUSTER_ANSICHT
1002
{
1000
Det03
1002
}
1001
AUSTER_FOLIE
1002
{
1000
S00_W_VERDRAHTUNGSBAUSATZ
1002
}
  0
CIRCLE
  5
10CFF
330
20
100
AcDbEntity
  8
10000_FRONT
  6
Continuous
 62
     7
370
    20
100
AcDbCircle
 39
0.25
 10
-92.14880865232322
 20
762.3666339223863
 30
0.0
 40
3.1
1001
AUSTER_ANSICHT
1002
{
1000
Det03
1002
}
1001
AUSTER_FOLIE
1002
{
1000
S00_W_VERDRAHTUNGSBAUSATZ
1002
}
  0
CIRCLE
  5
10D00
330
20
100
AcDbEntity
  8
10000_FRONT
  6
Continuous
 62
     7
370
    20
100
AcDbCircle
 39
0.25
 10
-83.54880865232326
 20
762.3666339223863
 30
0.0
 40
3.1
1001
AUSTER_ANSICHT
1002
{
1000
Det03
1002
}
1001
AUSTER_FOLIE
1002
{
1000
S00_W_VERDRAHTUNGSBAUSATZ
1002
}
  0
CIRCLE
  5
10D01
330
20
100
AcDbEntity
  8
10000_FRONT
  6
Continuous
 62
     7
370
    20
100
AcDbCircle
 39
0.25
 10
-74.94880865232326
 20
762.3666339223863
 30
0.0
 40
3.1
1001
AUSTER_ANSICHT
1002
{
1000
Det03
1002
}
1001
AUSTER_FOLIE
1002
{
1000
S00_W_VERDRAHTUNGSBAUSATZ
1002
}
  0
CIRCLE
  5
10D02
330
20
100
AcDbEntity
  8
10000_FRONT
  6
Continuous
 62
     7
370
    20
100
AcDbCircle
 39
0.25
 10
-100.7488086523232
 20
762.3666339223863
 30
0.0
 40
3.1
1001
AUSTER_ANSICHT
1002
{
1000
Det03
1002
}
1001
AUSTER_FOLIE
1002
{
1000
S00_W_VERDRAHTUNGSBAUSATZ
1002
}
  0
CIRCLE
  5
10D03
330
20
100
AcDbEntity
  8
10000_FRONT
  6
Continuous
 62
     7
370
    20
100
AcDbCircle
 39
0.25
 10
-100.7488086523232
 20
762.3666339223863
 30
0.0
 40
3.1
1001
AUSTER_ANSICHT
1002
{
1000
Det03
1002
}
1001
AUSTER_FOLIE
1002
{
1000
S00_W_VERDRAHTUNGSBAUSATZ
1002
}
  0
ARC
  5
10D04
330
20
100
AcDbEntity
  8
10000_FRONT
  6
Continuous
 62
     7
370
    20
100
AcDbCircle
 39
0.25
 10
-109.3488086523233
 20
762.3666339223863
 30
0.0
 40
2.850490999999998
100
AcDbArc
 50
347.7603999999987
 51
12.23960000000143
1001
AUSTER_ANSICHT
1002
{
1000
Det03
1002
}
1001
AUSTER_FOLIE
1002
{
1000
S00_W_VERDRAHTUNGSBAUSATZ
1002
}
  0
ARC
  5
10D05
330
20
100
AcDbEntity
  8
10000_FRONT
  6
Continuous
 62
     7
370
    20
100
AcDbCircle
 39
0.25
 10
-100.7488086523232
 20
762.3666339223863
 30
0.0
 40
2.850490999999998
100
AcDbArc
 50
347.7603999999987
 51
12.23960000000143
1001
AUSTER_ANSICHT
1002
{
1000
Det03
1002
}
1001
AUSTER_FOLIE
1002
{
1000
S00_W_VERDRAHTUNGSBAUSATZ
1002
}
  0
ARC
  5
10D06
330
20
100
AcDbEntity
  8
10000_FRONT
  6
Continuous
 62
     7
370
    20
100
AcDbCircle
 39
0.25
 10
-109.3488086523233
 20
762.3666339223863
 30
0.0
 40
1.85
100
AcDbArc
 50
253.8365999999982
 51
286.1634000000003
1001
AUSTER_ANSICHT
1002
{
1000
Det03
1002
}
1001
AUSTER_FOLIE
1002
{
1000
S00_W_VERDRAHTUNGSBAUSATZ
1002
}
  0
ARC
  5
10D07
330
20
100
AcDbEntity
  8
10000_FRONT
  6
Continuous
 62
     7
370
    20
100
AcDbCircle
 39
0.25
 10
-100.7488086523232
 20
762.3666339223863
 30
0.0
 40
1.85
100
AcDbArc
 50
253.8365999999982
 51
286.1634000000003
1001
AUSTER_ANSICHT
1002
{
1000
Det03
1002
}
1001
AUSTER_FOLIE
1002
{
1000
S00_W_VERDRAHTUNGSBAUSATZ
1002
}
  0
ARC
  5
10D08
330
20
100
AcDbEntity
  8
10000_FRONT
  6
Continuous
 62
     7
370
    20
100
AcDbCircle
 39
0.25
 10
-109.3488086523233
 20
762.3666339223863
 30
0.0
 40
1.85
100
AcDbArc
 50
73.8365499999981
 51
106.1634000000003
1001
AUSTER_ANSICHT
1002
{
1000
Det03
1002
}
1001
AUSTER_FOLIE
1002
{
1000
S00_W_VERDRAHTUNGSBAUSATZ
1002
}
  0
ARC
  5
10D09
330
20
100
AcDbEntity
  8
10000_FRONT
  6
Continuous
 62
     7
370
    20
100
AcDbCircle
 39
0.25
 10
-100.7488086523232
 20
762.3666339223863
 30
0.0
 40
1.85
100
AcDbArc
 50
73.8365499999981
 51
106.1634000000003
1001
AUSTER_ANSICHT
1002
{
1000
Det03
1002
}
1001
AUSTER_FOLIE
1002
{
1000
S00_W_VERDRAHTUNGSBAUSATZ
1002
}
  0
ARC
  5
10D0A
330
20
100
AcDbEntity
  8
10000_FRONT
  6
Continuous
 62
     7
370
    20
100
AcDbCircle
 39
0.25
 10
-109.3488086523233
 20
762.3666339223863
 30
0.0
 40
2.850490999999998
100
AcDbArc
 50
167.7603999999986
 51
192.2396000000014
1001
AUSTER_ANSICHT
1002
{
1000
Det03
1002
}
1001
AUSTER_FOLIE
1002
{
1000
S00_W_VERDRAHTUNGSBAUSATZ
1002
}
  0
ARC
  5
10D0B
330
20
100
AcDbEntity
  8
10000_FRONT
  6
Continuous
 62
     7
370
    20
100
AcDbCircle
 39
0.25
 10
-100.7488086523232
 20
762.3666339223863
 30
0.0
 40
2.850490999999998
100
AcDbArc
 50
167.7603999999986
 51
192.2396000000014
1001
AUSTER_ANSICHT
1002
{
1000
Det03
1002
}
1001
AUSTER_FOLIE
1002
{
1000
S00_W_VERDRAHTUNGSBAUSATZ
1002
}
  0
ARC
  5
10D0C
330
20
100
AcDbEntity
  8
10000_FRONT
  6
Continuous
 62
     7
370
    20
100
AcDbCircle
 39
0.25
 10
-92.14880865232322
 20
762.3666339223863
 30
0.0
 40
1.85
100
AcDbArc
 50
253.8365999999982
 51
286.1634000000003
1001
AUSTER_ANSICHT
1002
{
1000
Det03
1002
}
1001
AUSTER_FOLIE
1002
{
1000
S00_W_VERDRAHTUNGSBAUSATZ
1002
}
  0
ARC
  5
10D0D
330
20
100
AcDbEntity
  8
10000_FRONT
  6
Continuous
 62
     7
370
    20
100
AcDbCircle
 39
0.25
 10
-92.14880865232322
 20
762.3666339223863
 30
0.0
 40
2.850490999999998
100
AcDbArc
 50
347.7603999999987
 51
12.23960000000143
1001
AUSTER_ANSICHT
1002
{
1000
Det03
1002
}
1001
AUSTER_FOLIE
1002
{
1000
S00_W_VERDRAHTUNGSBAUSATZ
1002
}
  0
ARC
  5
10D0E
330
20
100
AcDbEntity
  8
10000_FRONT
  6
Continuous
 62
     7
370
    20
100
AcDbCircle
 39
0.25
 10
-92.14880865232322
 20
762.3666339223863
 30
0.0
 40
1.85
100
AcDbArc
 50
73.8365499999981
 51
106.1634000000003
1001
AUSTER_ANSICHT
1002
{
1000
Det03
1002
}
1001
AUSTER_FOLIE
1002
{
1000
S00_W_VERDRAHTUNGSBAUSATZ
1002
}
  0
ARC
  5
10D0F
330
20
100
AcDbEntity
  8
10000_FRONT
  6
Continuous
 62
     7
370
    20
100
AcDbCircle
 39
0.25
 10
-92.14880865232322
 20
762.3666339223863
 30
0.0
 40
2.850490999999998
100
AcDbArc
 50
167.7603999999986
 51
192.2396000000014
1001
AUSTER_ANSICHT
1002
{
1000
Det03
1002
}
1001
AUSTER_FOLIE
1002
{
1000
S00_W_VERDRAHTUNGSBAUSATZ
1002
}
  0
ARC
  5
10D10
330
20
100
AcDbEntity
  8
10000_FRONT
  6
Continuous
 62
     7
370
    20
100
AcDbCircle
 39
0.25
 10
-83.54880865232326
 20
762.3666339223863
 30
0.0
 40
2.850490999999998
100
AcDbArc
 50
347.7603999999987
 51
12.23960000000143
1001
AUSTER_ANSICHT
1002
{
1000
Det03
1002
}
1001
AUSTER_FOLIE
1002
{
1000
S00_W_VERDRAHTUNGSBAUSATZ
1002
}
  0
ARC
  5
10D11
330
20
100
AcDbEntity
  8
10000_FRONT
  6
Continuous
 62
     7
370
    20
100
AcDbCircle
 39
0.25
 10
-83.54880865232326
 20
762.3666339223863
 30
0.0
 40
1.85
100
AcDbArc
 50
73.8365499999981
 51
106.1634000000003
1001
AUSTER_ANSICHT
1002
{
1000
Det03
1002
}
1001
AUSTER_FOLIE
1002
{
1000
S00_W_VERDRAHTUNGSBAUSATZ
1002
}
  0
ARC
  5
10D12
330
20
100
AcDbEntity
  8
10000_FRONT
  6
Continuous
 62
     7
370
    20
100
AcDbCircle
 39
0.25
 10
-83.54880865232326
 20
762.3666339223863
 30
0.0
 40
2.850490999999998
100
AcDbArc
 50
167.7603999999986
 51
192.2396000000014
1001
AUSTER_ANSICHT
1002
{
1000
Det03
1002
}
1001
AUSTER_FOLIE
1002
{
1000
S00_W_VERDRAHTUNGSBAUSATZ
1002
}
  0
ARC
  5
10D13
330
20
100
AcDbEntity
  8
10000_FRONT
  6
Continuous
 62
     7
370
    20
100
AcDbCircle
 39
0.25
 10
-83.54880865232326
 20
762.3666339223863
 30
0.0
 40
1.85
100
AcDbArc
 50
253.8365999999982
 51
286.1634000000003
1001
AUSTER_ANSICHT
1002
{
1000
Det03
1002
}
1001
AUSTER_FOLIE
1002
{
1000
S00_W_VERDRAHTUNGSBAUSATZ
1002
}
  0
ARC
  5
10D14
330
20
100
AcDbEntity
  8
10000_FRONT
  6
Continuous
 62
     7
370
    20
100
AcDbCircle
 39
0.25
 10
-74.94880865232326
 20
762.3666339223863
 30
0.0
 40
2.850490999999998
100
AcDbArc
 50
347.7603999999987
 51
12.23960000000143
1001
AUSTER_ANSICHT
1002
{
1000
Det03
1002
}
1001
AUSTER_FOLIE
1002
{
1000
S00_W_VERDRAHTUNGSBAUSATZ
1002
}
  0
ARC
  5
10D15
330
20
100
AcDbEntity
  8
10000_FRONT
  6
Continuous
 62
     7
370
    20
100
AcDbCircle
 39
0.25
 10
-74.94880865232326
 20
762.3666339223863
 30
0.0
 40
1.85
100
AcDbArc
 50
253.8365999999982
 51
286.1634000000003
1001
AUSTER_ANSICHT
1002
{
1000
Det03
1002
}
1001
AUSTER_FOLIE
1002
{
1000
S00_W_VERDRAHTUNGSBAUSATZ
1002
}
  0
ARC
  5
10D16
330
20
100
AcDbEntity
  8
10000_FRONT
  6
Continuous
 62
     7
370
    20
100
AcDbCircle
 39
0.25
 10
-74.94880865232326
 20
762.3666339223863
 30
0.0
 40
1.85
100
AcDbArc
 50
73.8365499999981
 51
106.1634000000003
1001
AUSTER_ANSICHT
1002
{
1000
Det03
1002
}
1001
AUSTER_FOLIE
1002
{
1000
S00_W_VERDRAHTUNGSBAUSATZ
1002
}
  0
ARC
  5
10D17
330
20
100
AcDbEntity
  8
10000_FRONT
  6
Continuous
 62
     7
370
    20
100
AcDbCircle
 39
0.25
 10
-74.94880865232326
 20
762.3666339223863
 30
0.0
 40
2.850490999999998
100
AcDbArc
 50
167.7603999999986
 51
192.2396000000014
1001
AUSTER_ANSICHT
1002
{
1000
Det03
1002
}
1001
AUSTER_FOLIE
1002
{
1000
S00_W_VERDRAHTUNGSBAUSATZ
1002
}
  0
TEXT
  5
10D1A
330
20
100
AcDbEntity
  8
10000_FRONT
  6
Continuous
 62
     7
370
    20
100
AcDbText
 39
0.25
 10
-112.6487286523232
 20
755.9666339223863
 30
0.0
 40
2.5
  1
SIEMENS
 41
0.6600000000000003
100
AcDbText
1001
AUSTER_ANSICHT
1002
{
1000
Det03
1002
}
1001
AUSTER_FOLIE
1002
{
1000
S00_W_VERDRAHTUNGSBAUSATZ
1002
}
  0
LINE
  5
10D1C
330
20
100
AcDbEntity
  8
11000_Left
  6
DASHED
 62
     7
370
    20
100
AcDbLine
 39
0.25
 10
-25.58767411574695
 20
729.3670339223863
 30
-1.0
 11
-25.58767411574695
 21
726.8670339223863
 31
-1.0
1001
AUSTER_ANSICHT
1002
{
1000
Det03
1002
}
1001
AUSTER_FOLIE
1002
{
1000
S00_W_VERDRAHTUNGSBAUSATZ
1002
}
  0
LINE
  5
10D1E
330
20
100
AcDbEntity
  8
11000_Left
  6
DASHED
 62
     7
370
    20
100
AcDbLine
 39
0.25
 10
-25.58767411574695
 20
726.8670339223863
 30
-1.0
 11
-24.58767411574695
 21
726.8670339223863
 31
-1.0
1001
AUSTER_ANSICHT
1002
{
1000
Det03
1002
}
1001
AUSTER_FOLIE
1002
{
1000
S00_W_VERDRAHTUNGSBAUSATZ
1002
}
  0
ARC
  5
10D20
330
20
100
AcDbEntity
  8
11000_Left
  6
DASHED
 62
     7
370
    20
100
AcDbCircle
 39
0.25
 10
-28.48767411574693
 20
730.1170339223863
 30
-1.0
 40
1.9
100
AcDbArc
 50
0.0000000107542442
 51
90.0
1001
AUSTER_ANSICHT
1002
{
1000
Det03
1002
}
1001
AUSTER_FOLIE
1002
{
1000
S00_W_VERDRAHTUNGSBAUSATZ
1002
}
  0
ARC
  5
10D21
330
20
100
AcDbEntity
  8
11000_Left
  6
DASHED
 62
     7
370
    20
100
AcDbCircle
 39
0.25
 10
-26.08767411574695
 20
759.6670339223862
 30
-1.0
 40
0.5
100
AcDbArc
 50
270.0
 51
0.0
1001
AUSTER_ANSICHT
1002
{
1000
Det03
1002
}
1001
AUSTER_FOLIE
1002
{
1000
S00_W_VERDRAHTUNGSBAUSATZ
1002
}
  0
ARC
  5
10D22
330
20
100
AcDbEntity
  8
11000_Left
  6
DASHED
 62
     7
370
    20
100
AcDbCircle
 39
0.25
 10
-28.48767411574693
 20
758.9170339223862
 30
-1.0
 40
1.9
100
AcDbArc
 50
270.0
 51
0.0
1001
AUSTER_ANSICHT
1002
{
1000
Det03
1002
}
1001
AUSTER_FOLIE
1002
{
1000
S00_W_VERDRAHTUNGSBAUSATZ
1002
}
  0
ARC
  5
10D23
330
20
100
AcDbEntity
  8
11000_Left
  6
DASHED
 62
     7
370
    20
100
AcDbCircle
 39
0.25
 10
-28.58767411574695
 20
735.0170339223863
 30
-1.0
 40
1.0
100
AcDbArc
 50
180.0
 51
270.0
1001
AUSTER_ANSICHT
1002
{
1000
Det03
1002
}
1001
AUSTER_FOLIE
1002
{
1000
S00_W_VERDRAHTUNGSBAUSATZ
1002
}
  0
ARC
  5
10D24
330
20
100
AcDbEntity
  8
11000_Left
  6
DASHED
 62
     7
370
    20
100
AcDbCircle
 39
0.25
 10
-28.58767411574695
 20
754.0170339223863
 30
-1.0
 40
1.0
100
AcDbArc
 50
90.0
 51
180.0
1001
AUSTER_ANSICHT
1002
{
1000
Det03
1002
}
1001
AUSTER_FOLIE
1002
{
1000
S00_W_VERDRAHTUNGSBAUSATZ
1002
}
  0
LINE
  5
10D25
330
20
100
AcDbEntity
  8
11000_Left
  6
DASHED
 62
     7
370
    20
100
AcDbLine
 39
0.25
 10
-28.58767411574695
 20
734.0170339223862
 30
-1.0
 11
-26.58767411574695
 21
734.0170339223862
 31
-1.0
1001
AUSTER_ANSICHT
1002
{
1000
Det03
1002
}
1001
AUSTER_FOLIE
1002
{
1000
S00_W_VERDRAHTUNGSBAUSATZ
1002
}
  0
LINE
  5
10D26
330
20
100
AcDbEntity
  8
11000_Left
  6
DASHED
 62
     7
370
    20
100
AcDbLine
 39
0.25
 10
-28.58767411574695
 20
755.0170339223862
 30
-1.0
 11
-26.58767411574695
 21
755.0170339223862
 31
-1.0
1001
AUSTER_ANSICHT
1002
{
1000
Det03
1002
}
1001
AUSTER_FOLIE
1002
{
1000
S00_W_VERDRAHTUNGSBAUSATZ
1002
}
  0
LINE
  5
10D27
330
20
100
AcDbEntity
  8
11000_Left
  6
DASHED
 62
     7
370
    20
100
AcDbLine
 39
0.25
 10
-29.58767411574695
 20
735.0170339223863
 30
-1.0
 11
-29.58767411574695
 21
744.5170339223863
 31
-1.0
1001
AUSTER_ANSICHT
1002
{
1000
Det03
1002
}
1001
AUSTER_FOLIE
1002
{
1000
S00_W_VERDRAHTUNGSBAUSATZ
1002
}
  0
LINE
  5
10D28
330
20
100
AcDbEntity
  8
11000_Left
  6
DASHED
 62
     7
370
    20
100
AcDbLine
 39
0.25
 10
-29.58767411574695
 20
754.0170339223863
 30
-1.0
 11
-29.58767411574695
 21
744.5170339223863
 31
-1.0
1001
AUSTER_ANSICHT
1002
{
1000
Det03
1002
}
1001
AUSTER_FOLIE
1002
{
1000
S00_W_VERDRAHTUNGSBAUSATZ
1002
}
  0
LINE
  5
10D29
330
20
100
AcDbEntity
  8
11000_Left
  6
DASHED
 62
     7
370
    20
100
AcDbLine
 39
0.25
 10
-24.58767411574695
 20
732.0170339223863
 30
-1.0
 11
-26.58767411574695
 21
734.0170339223862
 31
-1.0
1001
AUSTER_ANSICHT
1002
{
1000
Det03
1002
}
1001
AUSTER_FOLIE
1002
{
1000
S00_W_VERDRAHTUNGSBAUSATZ
1002
}
  0
LINE
  5
10D2A
330
20
100
AcDbEntity
  8
11000_Left
  6
DASHED
 62
     7
370
    20
100
AcDbLine
 39
0.25
 10
-26.08767411574695
 20
729.8670339223863
 30
-1.0
 11
-26.58767411574695
 21
729.8670339223863
 31
-1.0
1001
AUSTER_ANSICHT
1002
{
1000
Det03
1002
}
1001
AUSTER_FOLIE
1002
{
1000
S00_W_VERDRAHTUNGSBAUSATZ
1002
}
  0
LINE
  5
10D2B
330
20
100
AcDbEntity
  8
11000_Left
  6
DASHED
 62
     7
370
    20
100
AcDbLine
 39
0.25
 10
-26.58767411574695
 20
730.1170339223863
 30
-1.0
 11
-26.58767411574695
 21
729.8670339223863
 31
-1.0
1001
AUSTER_ANSICHT
1002
{
1000
Det03
1002
}
1001
AUSTER_FOLIE
1002
{
1000
S00_W_VERDRAHTUNGSBAUSATZ
1002
}
  0
LINE
  5
10D2C
330
20
100
AcDbEntity
  8
11000_Left
  6
DASHED
 62
     7
370
    20
100
AcDbLine
 39
0.25
 10
-24.58767411574695
 20
757.0170339223863
 30
-1.0
 11
-26.58767411574695
 21
755.0170339223862
 31
-1.0
1001
AUSTER_ANSICHT
1002
{
1000
Det03
1002
}
1001
AUSTER_FOLIE
1002
{
1000
S00_W_VERDRAHTUNGSBAUSATZ
1002
}
  0
LINE
  5
10D2D
330
20
100
AcDbEntity
  8
11000_Left
  6
DASHED
 62
     7
370
    20
100
AcDbLine
 39
0.25
 10
-26.08767411574695
 20
759.1670339223862
 30
-1.0
 11
-26.58767411574695
 21
759.1670339223862
 31
-1.0
1001
AUSTER_ANSICHT
1002
{
1000
Det03
1002
}
1001
AUSTER_FOLIE
1002
{
1000
S00_W_VERDRAHTUNGSBAUSATZ
1002
}
  0
LINE
  5
10D2E
330
20
100
AcDbEntity
  8
11000_Left
  6
DASHED
 62
     7
370
    20
100
AcDbLine
 39
0.25
 10
-26.58767411574695
 20
758.9170339223862
 30
-1.0
 11
-26.58767411574695
 21
759.1670339223862
 31
-1.0
1001
AUSTER_ANSICHT
1002
{
1000
Det03
1002
}
1001
AUSTER_FOLIE
1002
{
1000
S00_W_VERDRAHTUNGSBAUSATZ
1002
}
  0
LINE
  5
10D2F
330
20
100
AcDbEntity
  8
11000_Left
  6
DASHED
 62
     7
370
    20
100
AcDbLine
 39
0.25
 10
-25.58767411574695
 20
759.6670339223862
 30
-1.0
 11
-25.58767411574695
 21
762.1670339223863
 31
-1.0
1001
AUSTER_ANSICHT
1002
{
1000
Det03
1002
}
1001
AUSTER_FOLIE
1002
{
1000
S00_W_VERDRAHTUNGSBAUSATZ
1002
}
  0
LINE
  5
10D30
330
20
100
AcDbEntity
  8
11000_Left
  6
DASHED
 62
     7
370
    20
100
AcDbLine
 39
0.25
 10
-25.58767411574695
 20
762.1670339223863
 30
-1.0
 11
-24.58767411574695
 21
762.1670339223863
 31
-1.0
1001
AUSTER_ANSICHT
1002
{
1000
Det03
1002
}
1001
AUSTER_FOLIE
1002
{
1000
S00_W_VERDRAHTUNGSBAUSATZ
1002
}
  0
LINE
  5
10D31
330
20
100
AcDbEntity
  8
11000_Left
  6
Continuous
 62
     7
370
    20
100
AcDbLine
 39
0.7
 10
6.611725884253075
 20
725.1166339223863
 30
0.0
 11
6.611725884253075
 21
730.1166339223863
 31
0.0
1001
AUSTER_ANSICHT
1002
{
1000
Det03
1002
}
1001
AUSTER_FOLIE
1002
{
1000
S00_W_VERDRAHTUNGSBAUSATZ
1002
}
  0
LINE
  5
10D32
330
20
100
AcDbEntity
  8
11000_Left
  6
Continuous
 62
     7
370
    20
100
AcDbLine
 39
0.7
 10
3.314725884253106
 20
725.1166339223863
 30
0.0
 11
3.314725884253106
 21
730.1166339223863
 31
0.0
1001
AUSTER_ANSICHT
1002
{
1000
Det03
1002
}
1001
AUSTER_FOLIE
1002
{
1000
S00_W_VERDRAHTUNGSBAUSATZ
1002
}
  0
LINE
  5
10D33
330
20
100
AcDbEntity
  8
11000_Left
  6
Continuous
 62
     7
370
    20
100
AcDbLine
 39
0.7
 10
37.81172588425306
 20
717.9166339223861
 30
0.0
 11
37.81172588425306
 21
740.0644339223863
 31
0.0
1001
AUSTER_ANSICHT
1002
{
1000
Det03
1002
}
1001
AUSTER_FOLIE
1002
{
1000
S00_W_VERDRAHTUNGSBAUSATZ
1002
}
  0
LINE
  5
10D37
330
20
100
AcDbEntity
  8
11000_Left
  6
Continuous
 62
     7
370
    50
100
AcDbLine
 39
0.7
 10
-24.58827411574691
 20
765.3666339223863
 30
0.0
 11
-24.58827411574691
 21
726.8678339223863
 31
0.0
1001
AUSTER_ANSICHT
1002
{
1000
Det03
1002
}
1001
AUSTER_FOLIE
1002
{
1000
S00_W_VERDRAHTUNGSBAUSATZ
1002
}
  0
LINE
  5
10D3C
330
20
100
AcDbEntity
  8
11000_Left
  6
Continuous
 62
     7
370
    20
100
AcDbLine
 39
0.7
 10
13.51172588425311
 20
720.3664339223863
 30
0.0
 11
12.01172588425311
 21
720.3664339223863
 31
0.0
1001
AUSTER_ANSICHT
1002
{
1000
Det03
1002
}
1001
AUSTER_FOLIE
1002
{
1000
S00_W_VERDRAHTUNGSBAUSATZ
1002
}
  0
LINE
  5
10D3E
330
20
100
AcDbEntity
  8
11000_Left
  6
Continuous
 62
     7
370
    20
100
AcDbLine
 39
0.7
 10
17.31172588425306
 20
716.9166339223862
 30
0.0
 11
13.51172588425311
 21
716.9166339223862
 31
0.0
1001
AUSTER_ANSICHT
1002
{
1000
Det03
1002
}
1001
AUSTER_FOLIE
1002
{
1000
S00_W_VERDRAHTUNGSBAUSATZ
1002
}
  0
LINE
  5
10D49
330
20
100
AcDbEntity
  8
11000_Left
  6
Continuous
 62
     7
370
    50
100
AcDbLine
 39
0.7
 10
41.4814258842531
 20
716.9166339223862
 30
0.0
 11
40.51172588425311
 21
716.9166339223862
 31
0.0
1001
AUSTER_ANSICHT
1002
{
1000
Det03
1002
}
1001
AUSTER_FOLIE
1002
{
1000
S00_W_VERDRAHTUNGSBAUSATZ
1002
}
  0
LINE
  5
10D4A
330
20
100
AcDbEntity
  8
11000_Left
  6
Continuous
 62
     7
370
    20
100
AcDbLine
 39
0.7
 10
-25.5382741157469
 20
726.8666339223862
 30
0.0
 11
-25.8061741157469
 21
727.8666339223863
 31
0.0
1001
AUSTER_ANSICHT
1002
{
1000
Det03
1002
}
1001
AUSTER_FOLIE
1002
{
1000
S00_W_VERDRAHTUNGSBAUSATZ
1002
}
  0
LINE
  5
10D4B
330
20
100
AcDbEntity
  8
11000_Left
  6
Continuous
 62
     7
370
    20
100
AcDbLine
 39
0.7
 10
-25.8061741157469
 20
727.8666339223863
 30
0.0
 11
-26.3061741157469
 21
727.8666339223863
 31
0.0
1001
AUSTER_ANSICHT
1002
{
1000
Det03
1002
}
1001
AUSTER_FOLIE
1002
{
1000
S00_W_VERDRAHTUNGSBAUSATZ
1002
}
  0
LINE
  5
10D4C
330
20
100
AcDbEntity
  8
11000_Left
  6
Continuous
 62
     7
370
    20
100
AcDbLine
 39
0.7
 10
-26.3061741157469
 20
727.8666339223863
 30
0.0
 11
-29.48827411574689
 21
724.8666339223863
 31
0.0
1001
AUSTER_ANSICHT
1002
{
1000
Det03
1002
}
1001
AUSTER_FOLIE
1002
{
1000
S00_W_VERDRAHTUNGSBAUSATZ
1002
}
  0
LINE
  5
10D4E
330
20
100
AcDbEntity
  8
11000_Left
  6
Continuous
 62
     7
370
    20
100
AcDbLine
 39
0.7
 10
13.51172588425311
 20
720.3664339223863
 30
0.0
 11
13.51172588425311
 21
716.9166339223862
 31
0.0
1001
AUSTER_ANSICHT
1002
{
1000
Det03
1002
}
1001
AUSTER_FOLIE
1002
{
1000
S00_W_VERDRAHTUNGSBAUSATZ
1002
}
  0
LINE
  5
10D4F
330
20
100
AcDbEntity
  8
11000_Left
  6
Continuous
 62
     7
370
    50
100
AcDbLine
 39
0.7
 10
13.01172588425311
 20
712.9166339223862
 30
0.0
 11
12.81172588425306
 21
712.9166339223862
 31
0.0
1001
AUSTER_ANSICHT
1002
{
1000
Det03
1002
}
1001
AUSTER_FOLIE
1002
{
1000
S00_W_VERDRAHTUNGSBAUSATZ
1002
}
  0
LINE
  5
10D51
330
20
100
AcDbEntity
  8
11000_Left
  6
Continuous
 62
     7
370
    50
100
AcDbLine
 39
0.7
 10
12.01172588425311
 20
716.9166339223862
 30
0.0
 11
12.01172588425311
 21
720.3664339223863
 31
0.0
1001
AUSTER_ANSICHT
1002
{
1000
Det03
1002
}
1001
AUSTER_FOLIE
1002
{
1000
S00_W_VERDRAHTUNGSBAUSATZ
1002
}
  0
LINE
  5
10D54
330
20
100
AcDbEntity
  8
11000_Left
  6
Continuous
 62
     7
370
    20
100
AcDbLine
 39
0.7
 10
12.01172588425311
 20
713.7166339223863
 30
0.0
 11
12.01172588425311
 21
716.9166339223862
 31
0.0
1001
AUSTER_ANSICHT
1002
{
1000
Det03
1002
}
1001
AUSTER_FOLIE
1002
{
1000
S00_W_VERDRAHTUNGSBAUSATZ
1002
}
  0
ARC
  5
10D5E
330
20
100
AcDbEntity
  8
11000_Left
  6
Continuous
 62
     7
370
    20
100
AcDbCircle
 39
0.7
 10
12.81172588425306
 20
713.7166339223863
 30
0.0
 40
0.8
100
AcDbArc
 50
180.0
 51
270.0
1001
AUSTER_ANSICHT
1002
{
1000
Det03
1002
}
1001
AUSTER_FOLIE
1002
{
1000
S00_W_VERDRAHTUNGSBAUSATZ
1002
}
  0
ARC
  5
10D5F
330
20
100
AcDbEntity
  8
11000_Left
  6
Continuous
 62
     7
370
    50
100
AcDbCircle
 39
0.7
 10
8.311725884253062
 20
713.7166339223863
 30
0.0
 40
0.8
100
AcDbArc
 50
180.0
 51
270.0
1001
AUSTER_ANSICHT
1002
{
1000
Det03
1002
}
1001
AUSTER_FOLIE
1002
{
1000
S00_W_VERDRAHTUNGSBAUSATZ
1002
}
  0
ARC
  5
10D60
330
20
100
AcDbEntity
  8
11000_Left
  6
Continuous
 62
     7
370
    50
100
AcDbCircle
 39
0.7
 10
10.01172588425311
 20
715.4166339223863
 30
0.0
 40
1.0
100
AcDbArc
 50
180.0
 51
270.0
1001
AUSTER_ANSICHT
1002
{
1000
Det03
1002
}
1001
AUSTER_FOLIE
1002
{
1000
S00_W_VERDRAHTUNGSBAUSATZ
1002
}
  0
ARC
  5
10D61
330
20
100
AcDbEntity
  8
11000_Left
  6
Continuous
 62
     7
370
    50
100
AcDbCircle
 39
0.7
 10
39.7117258842531
 20
713.7166339223863
 30
0.0
 40
0.8
100
AcDbArc
 50
270.0
 51
0.0
1001
AUSTER_ANSICHT
1002
{
1000
Det03
1002
}
1001
AUSTER_FOLIE
1002
{
1000
S00_W_VERDRAHTUNGSBAUSATZ
1002
}
  0
LINE
  5
10D62
330
20
100
AcDbEntity
  8
11000_Left
  6
Continuous
 62
     7
370
    20
100
AcDbLine
 39
0.7
 10
7.650925884253068
 20
721.5166339223863
 30
0.0
 11
17.31172588425306
 21
721.5166339223863
 31
0.0
1001
AUSTER_ANSICHT
1002
{
1000
Det03
1002
}
1001
AUSTER_FOLIE
1002
{
1000
S00_W_VERDRAHTUNGSBAUSATZ
1002
}
  0
LINE
  5
10D63
330
20
100
AcDbEntity
  8
11000_Left
  6
Continuous
 62
     7
370
    50
100
AcDbLine
 39
0.7
 10
12.01172588425311
 20
720.3664339223863
 30
0.0
 11
0.5117258842531101
 21
720.3666339223863
 31
0.0
1001
AUSTER_ANSICHT
1002
{
1000
Det03
1002
}
1001
AUSTER_FOLIE
1002
{
1000
S00_W_VERDRAHTUNGSBAUSATZ
1002
}
  0
LINE
  5
10D64
330
20
100
AcDbEntity
  8
11000_Left
  6
Continuous
 62
     7
370
    50
100
AcDbLine
 39
0.7
 10
12.81172588425306
 20
712.9166339223862
 30
0.0
 11
8.311725884253062
 21
712.9166339223862
 31
0.0
1001
AUSTER_ANSICHT
1002
{
1000
Det03
1002
}
1001
AUSTER_FOLIE
1002
{
1000
S00_W_VERDRAHTUNGSBAUSATZ
1002
}
  0
LINE
  5
10D65
330
20
100
AcDbEntity
  8
11000_Left
  6
Continuous
 62
     7
370
    50
100
AcDbLine
 39
0.7
 10
12.01172588425311
 20
714.4166339223862
 30
0.0
 11
10.01172588425311
 21
714.4166339223862
 31
0.0
1001
AUSTER_ANSICHT
1002
{
1000
Det03
1002
}
1001
AUSTER_FOLIE
1002
{
1000
S00_W_VERDRAHTUNGSBAUSATZ
1002
}
  0
LINE
  5
10D67
330
20
100
AcDbEntity
  8
11000_Left
  6
Continuous
 62
     7
370
    20
100
AcDbLine
 39
0.7
 10
-21.98827411574689
 20
720.3666339223863
 30
0.0
 11
-21.98827411574689
 21
723.9166339223863
 31
0.0
1001
AUSTER_ANSICHT
1002
{
1000
Det03
1002
}
1001
AUSTER_FOLIE
1002
{
1000
S00_W_VERDRAHTUNGSBAUSATZ
1002
}
  0
LINE
  5
10D68
330
20
100
AcDbEntity
  8
11000_Left
  6
Continuous
 62
     7
370
    20
100
AcDbLine
 39
0.7
 10
6.611725884253075
 20
725.1166339223863
 30
0.0
 11
3.314725884253106
 21
725.1166339223863
 31
0.0
1001
AUSTER_ANSICHT
1002
{
1000
Det03
1002
}
1001
AUSTER_FOLIE
1002
{
1000
S00_W_VERDRAHTUNGSBAUSATZ
1002
}
  0
LINE
  5
10D69
330
20
100
AcDbEntity
  8
11000_Left
  6
Continuous
 62
     7
370
    20
100
AcDbLine
 39
0.7
 10
7.650925884253068
 20
721.5166339223863
 30
0.0
 11
6.611725884253075
 21
722.1166339223863
 31
0.0
1001
AUSTER_ANSICHT
1002
{
1000
Det03
1002
}
1001
AUSTER_FOLIE
1002
{
1000
S00_W_VERDRAHTUNGSBAUSATZ
1002
}
  0
LINE
  5
10D6A
330
20
100
AcDbEntity
  8
11000_Left
  6
Continuous
 62
     7
370
    20
100
AcDbLine
 39
0.7
 10
6.611725884253075
 20
722.1166339223863
 30
0.0
 11
6.611725884253075
 21
725.1166339223863
 31
0.0
1001
AUSTER_ANSICHT
1002
{
1000
Det03
1002
}
1001
AUSTER_FOLIE
1002
{
1000
S00_W_VERDRAHTUNGSBAUSATZ
1002
}
  0
LINE
  5
10D6B
330
20
100
AcDbEntity
  8
11000_Left
  6
Continuous
 62
     7
370
    20
100
AcDbLine
 39
0.7
 10
-25.5382741157469
 20
726.8666339223862
 30
0.0
 11
-24.58827411574691
 21
726.8678339223863
 31
0.0
1001
AUSTER_ANSICHT
1002
{
1000
Det03
1002
}
1001
AUSTER_FOLIE
1002
{
1000
S00_W_VERDRAHTUNGSBAUSATZ
1002
}
  0
LINE
  5
10D6C
330
20
100
AcDbEntity
  8
11000_Left
  6
Continuous
 62
     7
370
    50
100
AcDbLine
 39
0.7
 10
-21.98827411574689
 20
715.6166339223863
 30
0.0
 11
-21.98827411574689
 21
720.3666339223863
 31
0.0
1001
AUSTER_ANSICHT
1002
{
1000
Det03
1002
}
1001
AUSTER_FOLIE
1002
{
1000
S00_W_VERDRAHTUNGSBAUSATZ
1002
}
  0
LINE
  5
10D6D
330
20
100
AcDbEntity
  8
11000_Left
  6
Continuous
 62
     7
370
    50
100
AcDbLine
 39
0.7
 10
-24.58827411574691
 20
726.8678339223863
 30
0.0
 11
-24.58827411574691
 21
724.8666339223863
 31
0.0
1001
AUSTER_ANSICHT
1002
{
1000
Det03
1002
}
1001
AUSTER_FOLIE
1002
{
1000
S00_W_VERDRAHTUNGSBAUSATZ
1002
}
  0
LINE
  5
10D6E
330
20
100
AcDbEntity
  8
11000_Left
  6
Continuous
 62
     7
370
    50
100
AcDbLine
 39
0.7
 10
-29.58827411574691
 20
724.8666339223863
 30
0.0
 11
-24.58827411574691
 21
724.8666339223863
 31
0.0
1001
AUSTER_ANSICHT
1002
{
1000
Det03
1002
}
1001
AUSTER_FOLIE
1002
{
1000
S00_W_VERDRAHTUNGSBAUSATZ
1002
}
  0
LINE
  5
10D6F
330
20
100
AcDbEntity
  8
11000_Left
  6
Continuous
 62
     7
370
    50
100
AcDbLine
 39
0.7
 10
-29.58827411574691
 20
715.6166339223863
 30
0.0
 11
-21.98827411574689
 21
715.6166339223863
 31
0.0
1001
AUSTER_ANSICHT
1002
{
1000
Det03
1002
}
1001
AUSTER_FOLIE
1002
{
1000
S00_W_VERDRAHTUNGSBAUSATZ
1002
}
  0
LINE
  5
10D70
330
20
100
AcDbEntity
  8
11000_Left
  6
Continuous
 62
     7
370
    50
100
AcDbLine
 39
0.7
 10
-29.58827411574691
 20
715.6166339223863
 30
0.0
 11
-29.58827411574691
 21
724.8666339223863
 31
0.0
1001
AUSTER_ANSICHT
1002
{
1000
Det03
1002
}
1001
AUSTER_FOLIE
1002
{
1000
S00_W_VERDRAHTUNGSBAUSATZ
1002
}
  0
LINE
  5
10D71
330
20
100
AcDbEntity
  8
11000_Left
  6
Continuous
 62
     7
370
    50
100
AcDbLine
 39
0.7
 10
0.5117258842531101
 20
720.3666339223863
 30
0.0
 11
-21.98827411574689
 21
720.3666339223863
 31
0.0
1001
AUSTER_ANSICHT
1002
{
1000
Det03
1002
}
1001
AUSTER_FOLIE
1002
{
1000
S00_W_VERDRAHTUNGSBAUSATZ
1002
}
  0
LINE
  5
10D72
330
20
100
AcDbEntity
  8
11000_Left
  6
Continuous
 62
     7
370
    50
100
AcDbLine
 39
0.7
 10
8.311725884253062
 20
718.4166339223862
 30
0.0
 11
7.51172588425311
 21
718.4166339223862
 31
0.0
1001
AUSTER_ANSICHT
1002
{
1000
Det03
1002
}
1001
AUSTER_FOLIE
1002
{
1000
S00_W_VERDRAHTUNGSBAUSATZ
1002
}
  0
LINE
  5
10D73
330
20
100
AcDbEntity
  8
11000_Left
  6
Continuous
 62
     7
370
    50
100
AcDbLine
 39
0.7
 10
7.51172588425311
 20
718.4166339223862
 30
0.0
 11
7.51172588425311
 21
713.7166339223863
 31
0.0
1001
AUSTER_ANSICHT
1002
{
1000
Det03
1002
}
1001
AUSTER_FOLIE
1002
{
1000
S00_W_VERDRAHTUNGSBAUSATZ
1002
}
  0
LINE
  5
10D74
330
20
100
AcDbEntity
  8
11000_Left
  6
Continuous
 62
     7
370
    50
100
AcDbLine
 39
0.7
 10
9.01172588425311
 20
715.4166339223863
 30
0.0
 11
9.01172588425311
 21
718.4166339223862
 31
0.0
1001
AUSTER_ANSICHT
1002
{
1000
Det03
1002
}
1001
AUSTER_FOLIE
1002
{
1000
S00_W_VERDRAHTUNGSBAUSATZ
1002
}
  0
LINE
  5
10D75
330
20
100
AcDbEntity
  8
11000_Left
  6
Continuous
 62
     7
370
    50
100
AcDbLine
 39
0.7
 10
9.01172588425311
 20
718.4166339223862
 30
0.0
 11
8.311725884253062
 21
718.4166339223862
 31
0.0
1001
AUSTER_ANSICHT
1002
{
1000
Det03
1002
}
1001
AUSTER_FOLIE
1002
{
1000
S00_W_VERDRAHTUNGSBAUSATZ
1002
}
  0
LINE
  5
10D76
330
20
100
AcDbEntity
  8
11000_Left
  6
Continuous
 62
     7
370
    20
100
AcDbLine
 39
0.7
 10
-21.98827411574689
 20
723.9166339223863
 30
0.0
 11
0.5117258842531101
 21
723.9166339223863
 31
0.0
1001
AUSTER_ANSICHT
1002
{
1000
Det03
1002
}
1001
AUSTER_FOLIE
1002
{
1000
S00_W_VERDRAHTUNGSBAUSATZ
1002
}
  0
LINE
  5
10D77
330
20
100
AcDbEntity
  8
11000_Left
  6
Continuous
 62
     7
370
    20
100
AcDbLine
 39
0.7
 10
0.5117258842531101
 20
723.9166339223863
 30
0.0
 11
0.5117258842531101
 21
720.3666339223863
 31
0.0
1001
AUSTER_ANSICHT
1002
{
1000
Det03
1002
}
1001
AUSTER_FOLIE
1002
{
1000
S00_W_VERDRAHTUNGSBAUSATZ
1002
}
  0
LINE
  5
10D7C
330
20
100
AcDbEntity
  8
11000_Left
  6
Continuous
 62
     7
370
    20
100
AcDbLine
 39
0.7
 10
17.31172588425306
 20
721.5166339223863
 30
0.0
 11
17.30982588425308
 21
720.3666339223863
 31
0.0
1001
AUSTER_ANSICHT
1002
{
1000
Det03
1002
}
1001
AUSTER_FOLIE
1002
{
1000
S00_W_VERDRAHTUNGSBAUSATZ
1002
}
  0
LINE
  5
10D7D
330
20
100
AcDbEntity
  8
11000_Left
  6
Continuous
 62
     7
370
    20
100
AcDbLine
 39
0.7
 10
37.81172588425306
 20
716.9166339223862
 30
0.0
 11
37.81172588425306
 21
717.9166339223861
 31
0.0
1001
AUSTER_ANSICHT
1002
{
1000
Det03
1002
}
1001
AUSTER_FOLIE
1002
{
1000
S00_W_VERDRAHTUNGSBAUSATZ
1002
}
  0
LINE
  5
10D7E
330
20
100
AcDbEntity
  8
11000_Left
  6
Continuous
 62
     7
370
    20
100
AcDbLine
 39
0.7
 10
17.31172588425306
 20
716.9166339223862
 30
0.0
 11
21.91172588425309
 21
716.9166339223862
 31
0.0
1001
AUSTER_ANSICHT
1002
{
1000
Det03
1002
}
1001
AUSTER_FOLIE
1002
{
1000
S00_W_VERDRAHTUNGSBAUSATZ
1002
}
  0
LINE
  5
10D7F
330
20
100
AcDbEntity
  8
11000_Left
  6
Continuous
 62
     7
370
    20
100
AcDbLine
 39
0.7
 10
37.81172588425306
 20
716.9166339223862
 30
0.0
 11
33.03592588425306
 21
716.9166339223862
 31
0.0
1001
AUSTER_ANSICHT
1002
{
1000
Det03
1002
}
1001
AUSTER_FOLIE
1002
{
1000
S00_W_VERDRAHTUNGSBAUSATZ
1002
}
  0
LINE
  5
10D80
330
20
100
AcDbEntity
  8
11000_Left
  6
Continuous
 62
     7
370
    20
100
AcDbLine
 39
0.7
 10
25.42882588425313
 20
716.9166339223862
 30
0.0
 11
33.0387258842531
 21
716.9166339223862
 31
0.0
1001
AUSTER_ANSICHT
1002
{
1000
Det03
1002
}
1001
AUSTER_FOLIE
1002
{
1000
S00_W_VERDRAHTUNGSBAUSATZ
1002
}
  0
LINE
  5
10D81
330
20
100
AcDbEntity
  8
11000_Left
  6
Continuous
 62
     7
370
    20
100
AcDbLine
 39
0.7
 10
40.51172588425311
 20
716.9166339223862
 30
0.0
 11
37.81172588425306
 21
716.9166339223862
 31
0.0
1001
AUSTER_ANSICHT
1002
{
1000
Det03
1002
}
1001
AUSTER_FOLIE
1002
{
1000
S00_W_VERDRAHTUNGSBAUSATZ
1002
}
  0
LINE
  5
10D82
330
20
100
AcDbEntity
  8
11000_Left
  6
Continuous
 62
     7
370
    20
100
AcDbLine
 39
0.7
 10
17.30982588425308
 20
720.3666339223863
 30
0.0
 11
13.51172588425311
 21
720.3664339223863
 31
0.0
1001
AUSTER_ANSICHT
1002
{
1000
Det03
1002
}
1001
AUSTER_FOLIE
1002
{
1000
S00_W_VERDRAHTUNGSBAUSATZ
1002
}
  0
LINE
  5
10D83
330
20
100
AcDbEntity
  8
11000_Left
  6
Continuous
 62
     7
370
    20
100
AcDbLine
 39
0.7
 10
21.91172588425309
 20
716.9166339223862
 30
0.0
 11
24.51172588425311
 21
716.9166339223862
 31
0.0
1001
AUSTER_ANSICHT
1002
{
1000
Det03
1002
}
1001
AUSTER_FOLIE
1002
{
1000
S00_W_VERDRAHTUNGSBAUSATZ
1002
}
  0
LINE
  5
10D84
330
20
100
AcDbEntity
  8
11000_Left
  6
Continuous
 62
     7
370
    20
100
AcDbLine
 39
0.7
 10
25.42882588425313
 20
716.9166339223862
 30
0.0
 11
24.51172588425311
 21
716.9166339223862
 31
0.0
1001
AUSTER_ANSICHT
1002
{
1000
Det03
1002
}
1001
AUSTER_FOLIE
1002
{
1000
S00_W_VERDRAHTUNGSBAUSATZ
1002
}
  0
LINE
  5
10D85
330
20
100
AcDbEntity
  8
11000_Left
  6
Continuous
 62
     7
370
    20
100
AcDbLine
 39
0.7
 10
17.30982588425308
 20
720.3666339223863
 30
0.0
 11
17.31172588425306
 21
716.9166339223862
 31
0.0
1001
AUSTER_ANSICHT
1002
{
1000
Det03
1002
}
1001
AUSTER_FOLIE
1002
{
1000
S00_W_VERDRAHTUNGSBAUSATZ
1002
}
  0
LINE
  5
10D86
330
20
100
AcDbEntity
  8
11000_Left
  6
Continuous
 62
     7
370
    50
100
AcDbLine
 39
0.7
 10
42.65922588425309
 20
722.7166339223863
 30
0.0
 11
42.27802588425311
 21
717.6431339223864
 31
0.0
1001
AUSTER_ANSICHT
1002
{
1000
Det03
1002
}
1001
AUSTER_FOLIE
1002
{
1000
S00_W_VERDRAHTUNGSBAUSATZ
1002
}
  0
LINE
  5
10D87
330
20
100
AcDbEntity
  8
11000_Left
  6
Continuous
 62
     7
370
    50
100
AcDbLine
 39
0.7
 10
42.91172588425308
 20
727.1666339223862
 30
0.0
 11
42.65922588425309
 21
722.7166339223863
 31
0.0
1001
AUSTER_ANSICHT
1002
{
1000
Det03
1002
}
1001
AUSTER_FOLIE
1002
{
1000
S00_W_VERDRAHTUNGSBAUSATZ
1002
}
  0
LINE
  5
10D88
330
20
100
AcDbEntity
  8
11000_Left
  6
Continuous
 62
     7
370
    50
100
AcDbLine
 39
0.7
 10
39.7117258842531
 20
712.9166339223862
 30
0.0
 11
39.51172588425311
 21
712.9166339223862
 31
0.0
1001
AUSTER_ANSICHT
1002
{
1000
Det03
1002
}
1001
AUSTER_FOLIE
1002
{
1000
S00_W_VERDRAHTUNGSBAUSATZ
1002
}
  0
LINE
  5
10D89
330
20
100
AcDbEntity
  8
11000_Left
  6
Continuous
 62
     7
370
    50
100
AcDbLine
 39
0.7
 10
39.51172588425311
 20
712.9166339223862
 30
0.0
 11
13.01172588425311
 21
712.9166339223862
 31
0.0
1001
AUSTER_ANSICHT
1002
{
1000
Det03
1002
}
1001
AUSTER_FOLIE
1002
{
1000
S00_W_VERDRAHTUNGSBAUSATZ
1002
}
  0
LINE
  5
10D8A
330
20
100
AcDbEntity
  8
11000_Left
  6
Continuous
 62
     7
370
    50
100
AcDbLine
 39
0.7
 10
40.51172588425311
 20
713.7166339223863
 30
0.0
 11
40.51172588425311
 21
716.9166339223862
 31
0.0
1001
AUSTER_ANSICHT
1002
{
1000
Det03
1002
}
1001
AUSTER_FOLIE
1002
{
1000
S00_W_VERDRAHTUNGSBAUSATZ
1002
}
  0
LINE
  5
10D8B
330
20
100
AcDbEntity
  8
11000_Left
  6
Continuous
 62
     7
370
    50
100
AcDbLine
 39
0.7
 10
12.01172588425311
 20
716.9166339223862
 30
0.0
 11
12.01172588425311
 21
714.4166339223862
 31
0.0
1001
AUSTER_ANSICHT
1002
{
1000
Det03
1002
}
1001
AUSTER_FOLIE
1002
{
1000
S00_W_VERDRAHTUNGSBAUSATZ
1002
}
  0
ARC
  5
10D8C
330
20
100
AcDbEntity
  8
11000_Left
  6
Continuous
 62
     7
370
    50
100
AcDbCircle
 39
0.7
 10
41.4814258842531
 20
717.7166339223863
 30
0.0
 40
0.8
100
AcDbArc
 50
270.0
 51
354.7314999999975
1001
AUSTER_ANSICHT
1002
{
1000
Det03
1002
}
1001
AUSTER_FOLIE
1002
{
1000
S00_W_VERDRAHTUNGSBAUSATZ
1002
}
  0
LINE
  5
10D8D
330
20
100
AcDbEntity
  8
11000_Left
  6
Continuous
 62
     7
370
    20
100
AcDbLine
 39
0.7
 10
28.51172588425311
 20
771.9166339223862
 30
0.0
 11
24.51172588425311
 21
771.9166339223862
 31
0.0
1001
AUSTER_ANSICHT
1002
{
1000
Det03
1002
}
1001
AUSTER_FOLIE
1002
{
1000
S00_W_VERDRAHTUNGSBAUSATZ
1002
}
  0
LINE
  5
10D90
330
20
100
AcDbEntity
  8
11000_Left
  6
Continuous
 62
     7
370
    50
100
AcDbLine
 39
0.7
 10
15.01172588425311
 20
775.3666339223863
 30
0.0
 11
12.51172588425311
 21
775.3666339223863
 31
0.0
1001
AUSTER_ANSICHT
1002
{
1000
Det03
1002
}
1001
AUSTER_FOLIE
1002
{
1000
S00_W_VERDRAHTUNGSBAUSATZ
1002
}
  0
LINE
  5
10D91
330
20
100
AcDbEntity
  8
11000_Left
  6
Continuous
 62
     7
370
    50
100
AcDbLine
 39
0.7
 10
15.01172588425311
 20
775.3666339223863
 30
0.0
 11
15.01172588425311
 21
776.8666339223863
 31
0.0
1001
AUSTER_ANSICHT
1002
{
1000
Det03
1002
}
1001
AUSTER_FOLIE
1002
{
1000
S00_W_VERDRAHTUNGSBAUSATZ
1002
}
  0
LINE
  5
10D92
330
20
100
AcDbEntity
  8
11000_Left
  6
Continuous
 62
     7
370
    50
100
AcDbLine
 39
0.7
 10
17.51172588425311
 20
777.8666339223863
 30
0.0
 11
16.01172588425311
 21
777.8666339223863
 31
0.0
1001
AUSTER_ANSICHT
1002
{
1000
Det03
1002
}
1001
AUSTER_FOLIE
1002
{
1000
S00_W_VERDRAHTUNGSBAUSATZ
1002
}
  0
LINE
  5
10D93
330
20
100
AcDbEntity
  8
11000_Left
  6
Continuous
 62
     7
370
    50
100
AcDbLine
 39
0.7
 10
17.51172588425311
 20
777.8666339223863
 30
0.0
 11
17.51172588425311
 21
779.3666339223863
 31
0.0
1001
AUSTER_ANSICHT
1002
{
1000
Det03
1002
}
1001
AUSTER_FOLIE
1002
{
1000
S00_W_VERDRAHTUNGSBAUSATZ
1002
}
  0
LINE
  5
10D94
330
20
100
AcDbEntity
  8
11000_Left
  6
Continuous
 62
     7
370
    50
100
AcDbLine
 39
0.7
 10
18.51172588425311
 20
780.3666339223862
 30
0.0
 11
27.51172588425311
 21
780.3666339223862
 31
0.0
1001
AUSTER_ANSICHT
1002
{
1000
Det03
1002
}
1001
AUSTER_FOLIE
1002
{
1000
S00_W_VERDRAHTUNGSBAUSATZ
1002
}
  0
LINE
  5
10D95
330
20
100
AcDbEntity
  8
11000_Left
  6
Continuous
 62
     7
370
    50
100
AcDbLine
 39
0.7
 10
28.51172588425311
 20
775.3666339223863
 30
0.0
 11
28.51172588425311
 21
779.3666339223863
 31
0.0
1001
AUSTER_ANSICHT
1002
{
1000
Det03
1002
}
1001
AUSTER_FOLIE
1002
{
1000
S00_W_VERDRAHTUNGSBAUSATZ
1002
}
  0
LINE
  5
10D96
330
20
100
AcDbEntity
  8
11000_Left
  6
Continuous
 62
     7
370
    50
100
AcDbLine
 39
0.7
 10
28.51172588425311
 20
775.3666339223863
 30
0.0
 11
39.51172588425311
 21
775.3666339223863
 31
0.0
1001
AUSTER_ANSICHT
1002
{
1000
Det03
1002
}
1001
AUSTER_FOLIE
1002
{
1000
S00_W_VERDRAHTUNGSBAUSATZ
1002
}
  0
LINE
  5
10D97
330
20
100
AcDbEntity
  8
11000_Left
  6
Continuous
 62
     7
370
    50
100
AcDbLine
 39
0.7
 10
40.51172588425311
 20
771.9166339223862
 30
0.0
 11
40.51172588425311
 21
774.3666339223863
 31
0.0
1001
AUSTER_ANSICHT
1002
{
1000
Det03
1002
}
1001
AUSTER_FOLIE
1002
{
1000
S00_W_VERDRAHTUNGSBAUSATZ
1002
}
  0
LINE
  5
10D98
330
20
100
AcDbEntity
  8
11000_Left
  6
Continuous
 62
     7
370
    50
100
AcDbLine
 39
0.7
 10
11.51172588425311
 20
774.3666339223863
 30
0.0
 11
11.51172588425311
 21
772.9166339223862
 31
0.0
1001
AUSTER_ANSICHT
1002
{
1000
Det03
1002
}
1001
AUSTER_FOLIE
1002
{
1000
S00_W_VERDRAHTUNGSBAUSATZ
1002
}
  0
LINE
  5
10D99
330
20
100
AcDbEntity
  8
11000_Left
  6
Continuous
 62
     7
370
    50
100
AcDbLine
 39
0.7
 10
17.31172588425306
 20
771.9166339223862
 30
0.0
 11
12.51172588425311
 21
771.9166339223862
 31
0.0
1001
AUSTER_ANSICHT
1002
{
1000
Det03
1002
}
1001
AUSTER_FOLIE
1002
{
1000
S00_W_VERDRAHTUNGSBAUSATZ
1002
}
  0
LINE
  5
10D9D
330
20
100
AcDbEntity
  8
11000_Left
  6
Continuous
 62
     7
370
    20
100
AcDbLine
 39
0.7
 10
28.51172588425311
 20
775.3666339223863
 30
0.0
 11
28.51172588425311
 21
771.9166339223862
 31
0.0
1001
AUSTER_ANSICHT
1002
{
1000
Det03
1002
}
1001
AUSTER_FOLIE
1002
{
1000
S00_W_VERDRAHTUNGSBAUSATZ
1002
}
  0
LINE
  5
10DA9
330
20
100
AcDbEntity
  8
11000_Left
  6
Continuous
 62
     7
370
    20
100
AcDbLine
 39
0.7
 10
-28.48827411574689
 20
765.3666339223863
 30
0.0
 11
-27.18827411574693
 21
760.3666339223863
 31
0.0
1001
AUSTER_ANSICHT
1002
{
1000
Det03
1002
}
1001
AUSTER_FOLIE
1002
{
1000
S00_W_VERDRAHTUNGSBAUSATZ
1002
}
  0
LINE
  5
10DAA
330
20
100
AcDbEntity
  8
11000_Left
  6
Continuous
 62
     7
370
    20
100
AcDbLine
 39
0.7
 10
-27.18827411574693
 20
760.3666339223863
 30
0.0
 11
-26.48827411574689
 21
760.3666339223863
 31
0.0
1001
AUSTER_ANSICHT
1002
{
1000
Det03
1002
}
1001
AUSTER_FOLIE
1002
{
1000
S00_W_VERDRAHTUNGSBAUSATZ
1002
}
  0
LINE
  5
10DAB
330
20
100
AcDbEntity
  8
11000_Left
  6
Continuous
 62
     7
370
    20
100
AcDbLine
 39
0.7
 10
-26.48827411574689
 20
760.3666339223863
 30
0.0
 11
-25.98827411574689
 21
761.3666339223863
 31
0.0
1001
AUSTER_ANSICHT
1002
{
1000
Det03
1002
}
1001
AUSTER_FOLIE
1002
{
1000
S00_W_VERDRAHTUNGSBAUSATZ
1002
}
  0
LINE
  5
10DAC
330
20
100
AcDbEntity
  8
11000_Left
  6
Continuous
 62
     7
370
    20
100
AcDbLine
 39
0.7
 10
-25.98827411574689
 20
765.3666339223863
 30
0.0
 11
-25.98827411574689
 21
761.3666339223863
 31
0.0
1001
AUSTER_ANSICHT
1002
{
1000
Det03
1002
}
1001
AUSTER_FOLIE
1002
{
1000
S00_W_VERDRAHTUNGSBAUSATZ
1002
}
  0
ARC
  5
10DB0
330
20
100
AcDbEntity
  8
11000_Left
  6
Continuous
 62
     7
370
    50
100
AcDbCircle
 39
0.7
 10
12.51172588425311
 20
774.3666339223863
 30
0.0
 40
1.0
100
AcDbArc
 50
90.0
 51
180.0
1001
AUSTER_ANSICHT
1002
{
1000
Det03
1002
}
1001
AUSTER_FOLIE
1002
{
1000
S00_W_VERDRAHTUNGSBAUSATZ
1002
}
  0
ARC
  5
10DB1
330
20
100
AcDbEntity
  8
11000_Left
  6
Continuous
 62
     7
370
    50
100
AcDbCircle
 39
0.7
 10
16.01172588425311
 20
776.8666339223863
 30
0.0
 40
1.0
100
AcDbArc
 50
90.0
 51
180.0
1001
AUSTER_ANSICHT
1002
{
1000
Det03
1002
}
1001
AUSTER_FOLIE
1002
{
1000
S00_W_VERDRAHTUNGSBAUSATZ
1002
}
  0
ARC
  5
10DB2
330
20
100
AcDbEntity
  8
11000_Left
  6
Continuous
 62
     7
370
    50
100
AcDbCircle
 39
0.7
 10
18.51172588425311
 20
779.3666339223863
 30
0.0
 40
1.0
100
AcDbArc
 50
90.0
 51
180.0
1001
AUSTER_ANSICHT
1002
{
1000
Det03
1002
}
1001
AUSTER_FOLIE
1002
{
1000
S00_W_VERDRAHTUNGSBAUSATZ
1002
}
  0
ARC
  5
10DB3
330
20
100
AcDbEntity
  8
11000_Left
  6
Continuous
 62
     7
370
    50
100
AcDbCircle
 39
0.7
 10
27.51172588425311
 20
779.3666339223863
 30
0.0
 40
1.0
100
AcDbArc
 50
0.0
 51
90.0
1001
AUSTER_ANSICHT
1002
{
1000
Det03
1002
}
1001
AUSTER_FOLIE
1002
{
1000
S00_W_VERDRAHTUNGSBAUSATZ
1002
}
  0
ARC
  5
10DB4
330
20
100
AcDbEntity
  8
11000_Left
  6
Continuous
 62
     7
370
    50
100
AcDbCircle
 39
0.7
 10
39.51172588425311
 20
774.3666339223863
 30
0.0
 40
1.0
100
AcDbArc
 50
0.0
 51
90.0
1001
AUSTER_ANSICHT
1002
{
1000
Det03
1002
}
1001
AUSTER_FOLIE
1002
{
1000
S00_W_VERDRAHTUNGSBAUSATZ
1002
}
  0
ARC
  5
10DB5
330
20
100
AcDbEntity
  8
11000_Left
  6
Continuous
 62
     7
370
    50
100
AcDbCircle
 39
0.7
 10
12.51172588425311
 20
772.9166339223862
 30
0.0
 40
1.0
100
AcDbArc
 50
180.0
 51
270.0
1001
AUSTER_ANSICHT
1002
{
1000
Det03
1002
}
1001
AUSTER_FOLIE
1002
{
1000
S00_W_VERDRAHTUNGSBAUSATZ
1002
}
  0
LINE
  5
10DB7
330
20
100
AcDbEntity
  8
11000_Left
  6
Continuous
 62
     7
370
    20
100
AcDbLine
 39
0.7
 10
7.650925884253068
 20
767.2166339223863
 30
0.0
 11
17.31172588425306
 21
767.2166339223863
 31
0.0
1001
AUSTER_ANSICHT
1002
{
1000
Det03
1002
}
1001
AUSTER_FOLIE
1002
{
1000
S00_W_VERDRAHTUNGSBAUSATZ
1002
}
  0
LINE
  5
10DB8
330
20
100
AcDbEntity
  8
11000_Left
  6
Continuous
 62
     7
370
    50
100
AcDbLine
 39
0.7
 10
0.5117258842531101
 20
768.3666339223862
 30
0.0
 11
16.7117258842531
 21
768.3666339223862
 31
0.0
1001
AUSTER_ANSICHT
1002
{
1000
Det03
1002
}
1001
AUSTER_FOLIE
1002
{
1000
S00_W_VERDRAHTUNGSBAUSATZ
1002
}
  0
LINE
  5
10DB9
330
20
100
AcDbEntity
  8
11000_Left
  6
Continuous
 62
     7
370
    20
100
AcDbLine
 39
0.7
 10
-21.98827411574689
 20
768.3666339223862
 30
0.0
 11
-21.98827411574689
 21
764.8166339223863
 31
0.0
1001
AUSTER_ANSICHT
1002
{
1000
Det03
1002
}
1001
AUSTER_FOLIE
1002
{
1000
S00_W_VERDRAHTUNGSBAUSATZ
1002
}
  0
LINE
  5
10DBA
330
20
100
AcDbEntity
  8
11000_Left
  6
Continuous
 62
     7
370
    20
100
AcDbLine
 39
0.7
 10
3.314725884253106
 20
763.6166339223863
 30
0.0
 11
6.611725884253075
 21
763.6166339223863
 31
0.0
1001
AUSTER_ANSICHT
1002
{
1000
Det03
1002
}
1001
AUSTER_FOLIE
1002
{
1000
S00_W_VERDRAHTUNGSBAUSATZ
1002
}
  0
LINE
  5
10DBB
330
20
100
AcDbEntity
  8
11000_Left
  6
Continuous
 62
     7
370
    20
100
AcDbLine
 39
0.7
 10
6.611725884253075
 20
758.6166339223863
 30
0.0
 11
6.611725884253075
 21
763.6166339223863
 31
0.0
1001
AUSTER_ANSICHT
1002
{
1000
Det03
1002
}
1001
AUSTER_FOLIE
1002
{
1000
S00_W_VERDRAHTUNGSBAUSATZ
1002
}
  0
LINE
  5
10DBC
330
20
100
AcDbEntity
  8
11000_Left
  6
Continuous
 62
     7
370
    20
100
AcDbLine
 39
0.7
 10
3.314725884253106
 20
758.6166339223863
 30
0.0
 11
3.314725884253106
 21
763.6166339223863
 31
0.0
1001
AUSTER_ANSICHT
1002
{
1000
Det03
1002
}
1001
AUSTER_FOLIE
1002
{
1000
S00_W_VERDRAHTUNGSBAUSATZ
1002
}
  0
LINE
  5
10DBD
330
20
100
AcDbEntity
  8
11000_Left
  6
Continuous
 62
     7
370
    20
100
AcDbLine
 39
0.7
 10
6.611725884253075
 20
758.6166339223863
 30
0.0
 11
3.314725884253106
 21
758.6166339223863
 31
0.0
1001
AUSTER_ANSICHT
1002
{
1000
Det03
1002
}
1001
AUSTER_FOLIE
1002
{
1000
S00_W_VERDRAHTUNGSBAUSATZ
1002
}
  0
LINE
  5
10DBE
330
20
100
AcDbEntity
  8
11000_Left
  6
Continuous
 62
     7
370
    20
100
AcDbLine
 39
0.7
 10
3.314725884253106
 20
730.1166339223863
 30
0.0
 11
6.611725884253075
 21
730.1166339223863
 31
0.0
1001
AUSTER_ANSICHT
1002
{
1000
Det03
1002
}
1001
AUSTER_FOLIE
1002
{
1000
S00_W_VERDRAHTUNGSBAUSATZ
1002
}
  0
LINE
  5
10DBF
330
20
100
AcDbEntity
  8
11000_Left
  6
Continuous
 62
     7
370
    20
100
AcDbLine
 39
0.7
 10
6.611725884253075
 20
763.6166339223863
 30
0.0
 11
6.611725884253075
 21
766.6166339223863
 31
0.0
1001
AUSTER_ANSICHT
1002
{
1000
Det03
1002
}
1001
AUSTER_FOLIE
1002
{
1000
S00_W_VERDRAHTUNGSBAUSATZ
1002
}
  0
LINE
  5
10DC0
330
20
100
AcDbEntity
  8
11000_Left
  6
Continuous
 62
     7
370
    20
100
AcDbLine
 39
0.7
 10
6.611725884253075
 20
730.1166339223863
 30
0.0
 11
6.611725884253075
 21
758.6166339223863
 31
0.0
1001
AUSTER_ANSICHT
1002
{
1000
Det03
1002
}
1001
AUSTER_FOLIE
1002
{
1000
S00_W_VERDRAHTUNGSBAUSATZ
1002
}
  0
LINE
  5
10DC1
330
20
100
AcDbEntity
  8
11000_Left
  6
Continuous
 62
     7
370
    20
100
AcDbLine
 39
0.7
 10
6.611725884253075
 20
766.6166339223863
 30
0.0
 11
7.650925884253068
 21
767.2166339223863
 31
0.0
1001
AUSTER_ANSICHT
1002
{
1000
Det03
1002
}
1001
AUSTER_FOLIE
1002
{
1000
S00_W_VERDRAHTUNGSBAUSATZ
1002
}
  0
LINE
  5
10DC2
330
20
100
AcDbEntity
  8
11000_Left
  6
Continuous
 62
     7
370
    50
100
AcDbLine
 39
0.7
 10
-21.98827411574689
 20
773.1166339223863
 30
0.0
 11
-21.98827411574689
 21
768.3666339223862
 31
0.0
1001
AUSTER_ANSICHT
1002
{
1000
Det03
1002
}
1001
AUSTER_FOLIE
1002
{
1000
S00_W_VERDRAHTUNGSBAUSATZ
1002
}
  0
LINE
  5
10DC3
330
20
100
AcDbEntity
  8
11000_Left
  6
Continuous
 62
     7
370
    50
100
AcDbLine
 39
0.7
 10
-29.58827411574691
 20
773.1166339223863
 30
0.0
 11
-21.98827411574689
 21
773.1166339223863
 31
0.0
1001
AUSTER_ANSICHT
1002
{
1000
Det03
1002
}
1001
AUSTER_FOLIE
1002
{
1000
S00_W_VERDRAHTUNGSBAUSATZ
1002
}
  0
LINE
  5
10DC4
330
20
100
AcDbEntity
  8
11000_Left
  6
Continuous
 62
     7
370
    50
100
AcDbLine
 39
0.7
 10
-29.58827411574691
 20
765.3666339223863
 30
0.0
 11
-24.58827411574691
 21
765.3666339223863
 31
0.0
1001
AUSTER_ANSICHT
1002
{
1000
Det03
1002
}
1001
AUSTER_FOLIE
1002
{
1000
S00_W_VERDRAHTUNGSBAUSATZ
1002
}
  0
LINE
  5
10DC5
330
20
100
AcDbEntity
  8
11000_Left
  6
Continuous
 62
     7
370
    50
100
AcDbLine
 39
0.7
 10
-29.58827411574691
 20
773.1166339223863
 30
0.0
 11
-29.58827411574691
 21
765.3666339223863
 31
0.0
1001
AUSTER_ANSICHT
1002
{
1000
Det03
1002
}
1001
AUSTER_FOLIE
1002
{
1000
S00_W_VERDRAHTUNGSBAUSATZ
1002
}
  0
LINE
  5
10DC6
330
20
100
AcDbEntity
  8
11000_Left
  6
Continuous
 62
     7
370
    50
100
AcDbLine
 39
0.7
 10
-21.98827411574689
 20
768.3666339223862
 30
0.0
 11
0.5117258842531101
 21
768.3666339223862
 31
0.0
1001
AUSTER_ANSICHT
1002
{
1000
Det03
1002
}
1001
AUSTER_FOLIE
1002
{
1000
S00_W_VERDRAHTUNGSBAUSATZ
1002
}
  0
LINE
  5
10DC8
330
20
100
AcDbEntity
  8
11000_Left
  6
Continuous
 62
     7
370
    20
100
AcDbLine
 39
0.7
 10
-21.98827411574689
 20
764.8166339223863
 30
0.0
 11
0.5117258842531101
 21
764.8166339223863
 31
0.0
1001
AUSTER_ANSICHT
1002
{
1000
Det03
1002
}
1001
AUSTER_FOLIE
1002
{
1000
S00_W_VERDRAHTUNGSBAUSATZ
1002
}
  0
LINE
  5
10DC9
330
20
100
AcDbEntity
  8
11000_Left
  6
Continuous
 62
     7
370
    20
100
AcDbLine
 39
0.7
 10
0.5117258842531101
 20
764.8166339223863
 30
0.0
 11
0.5117258842531101
 21
768.3666339223862
 31
0.0
1001
AUSTER_ANSICHT
1002
{
1000
Det03
1002
}
1001
AUSTER_FOLIE
1002
{
1000
S00_W_VERDRAHTUNGSBAUSATZ
1002
}
  0
ARC
  5
10DCA
330
20
100
AcDbEntity
  8
11000_Left
  6
DASHED
 62
     7
370
    20
100
AcDbCircle
 39
0.25
 10
-30.08767411574695
 20
755.0170339223862
 30
0.0
 40
2.0
100
AcDbArc
 50
90.0
 51
180.0
1001
AUSTER_ANSICHT
1002
{
1000
Det03
1002
}
1001
AUSTER_FOLIE
1002
{
1000
S00_W_VERDRAHTUNGSBAUSATZ
1002
}
  0
ARC
  5
10DCB
330
20
100
AcDbEntity
  8
11000_Left
  6
DASHED
 62
     7
370
    20
100
AcDbCircle
 39
0.25
 10
-30.08767411574695
 20
734.0170339223862
 30
0.0
 40
2.0
100
AcDbArc
 50
180.0
 51
270.0
1001
AUSTER_ANSICHT
1002
{
1000
Det03
1002
}
1001
AUSTER_FOLIE
1002
{
1000
S00_W_VERDRAHTUNGSBAUSATZ
1002
}
  0
LINE
  5
10DCF
330
20
100
AcDbEntity
  8
11000_Left
  6
DASHED
 62
     7
370
    20
100
AcDbLine
 39
0.25
 10
-32.08767411574695
 20
755.0170339223862
 30
0.0
 11
-32.08767411574695
 21
734.0170339223862
 31
0.0
1001
AUSTER_ANSICHT
1002
{
1000
Det03
1002
}
1001
AUSTER_FOLIE
1002
{
1000
S00_W_VERDRAHTUNGSBAUSATZ
1002
}
  0
LINE
  5
10DD0
330
20
100
AcDbEntity
  8
11000_Left
  6
DASHED
 62
     7
370
    20
100
AcDbLine
 39
0.25
 10
-28.48767411574693
 20
732.0170339223863
 30
0.0
 11
-30.08767411574695
 21
732.0170339223863
 31
0.0
1001
AUSTER_ANSICHT
1002
{
1000
Det03
1002
}
1001
AUSTER_FOLIE
1002
{
1000
S00_W_VERDRAHTUNGSBAUSATZ
1002
}
  0
LINE
  5
10DD1
330
20
100
AcDbEntity
  8
11000_Left
  6
DASHED
 62
     7
370
    20
100
AcDbLine
 39
0.25
 10
-28.48767411574693
 20
757.0170339223863
 30
0.0
 11
-30.08767411574695
 21
757.0170339223863
 31
0.0
1001
AUSTER_ANSICHT
1002
{
1000
Det03
1002
}
1001
AUSTER_FOLIE
1002
{
1000
S00_W_VERDRAHTUNGSBAUSATZ
1002
}
  0
LINE
  5
10DD2
330
20
100
AcDbEntity
  8
11000_Left
  6
Continuous
 62
     7
370
    50
100
AcDbLine
 39
0.7
 10
40.51172588425311
 20
771.9166339223862
 30
0.0
 11
41.4814258842531
 21
771.9166339223862
 31
0.0
1001
AUSTER_ANSICHT
1002
{
1000
Det03
1002
}
1001
AUSTER_FOLIE
1002
{
1000
S00_W_VERDRAHTUNGSBAUSATZ
1002
}
  0
LINE
  5
10DD3
330
20
100
AcDbEntity
  8
11000_Left
  6
Continuous
 62
     7
370
    20
100
AcDbLine
 39
0.7
 10
17.31172588425306
 20
767.2166339223863
 30
0.0
 11
17.31172588425306
 21
768.3666339223861
 31
0.0
1001
AUSTER_ANSICHT
1002
{
1000
Det03
1002
}
1001
AUSTER_FOLIE
1002
{
1000
S00_W_VERDRAHTUNGSBAUSATZ
1002
}
  0
LINE
  5
10DD4
330
20
100
AcDbEntity
  8
11000_Left
  6
Continuous
 62
     7
370
    20
100
AcDbLine
 39
0.7
 10
37.81172588425306
 20
740.0644339223863
 30
0.0
 11
37.81172588425306
 21
743.1666339223863
 31
0.0
1001
AUSTER_ANSICHT
1002
{
1000
Det03
1002
}
1001
AUSTER_FOLIE
1002
{
1000
S00_W_VERDRAHTUNGSBAUSATZ
1002
}
  0
LINE
  5
10DD5
330
20
100
AcDbEntity
  8
11000_Left
  6
Continuous
 62
     7
370
    20
100
AcDbLine
 39
0.7
 10
37.81172588425306
 20
743.1666339223863
 30
0.0
 11
21.41172588425309
 21
743.1666339223863
 31
0.0
1001
AUSTER_ANSICHT
1002
{
1000
Det03
1002
}
1001
AUSTER_FOLIE
1002
{
1000
S00_W_VERDRAHTUNGSBAUSATZ
1002
}
  0
LINE
  5
10DD6
330
20
100
AcDbEntity
  8
11000_Left
  6
Continuous
 62
     7
370
    20
100
AcDbLine
 39
0.7
 10
21.41172588425309
 20
743.1666339223863
 30
0.0
 11
21.41172588425309
 21
745.6666339223862
 31
0.0
1001
AUSTER_ANSICHT
1002
{
1000
Det03
1002
}
1001
AUSTER_FOLIE
1002
{
1000
S00_W_VERDRAHTUNGSBAUSATZ
1002
}
  0
LINE
  5
10DD7
330
20
100
AcDbEntity
  8
11000_Left
  6
Continuous
 62
     7
370
    20
100
AcDbLine
 39
0.7
 10
21.41172588425309
 20
745.6666339223862
 30
0.0
 11
37.81172588425306
 21
745.6666339223862
 31
0.0
1001
AUSTER_ANSICHT
1002
{
1000
Det03
1002
}
1001
AUSTER_FOLIE
1002
{
1000
S00_W_VERDRAHTUNGSBAUSATZ
1002
}
  0
LINE
  5
10DD8
330
20
100
AcDbEntity
  8
11000_Left
  6
Continuous
 62
     7
370
    20
100
AcDbLine
 39
0.7
 10
37.81172588425306
 20
745.6666339223862
 30
0.0
 11
37.81172588425306
 21
748.7688339223863
 31
0.0
1001
AUSTER_ANSICHT
1002
{
1000
Det03
1002
}
1001
AUSTER_FOLIE
1002
{
1000
S00_W_VERDRAHTUNGSBAUSATZ
1002
}
  0
LINE
  5
10DD9
330
20
100
AcDbEntity
  8
11000_Left
  6
Continuous
 62
     7
370
    20
100
AcDbLine
 39
0.7
 10
37.81172588425306
 20
748.7688339223863
 30
0.0
 11
37.81172588425306
 21
770.9166339223862
 31
0.0
1001
AUSTER_ANSICHT
1002
{
1000
Det03
1002
}
1001
AUSTER_FOLIE
1002
{
1000
S00_W_VERDRAHTUNGSBAUSATZ
1002
}
  0
LINE
  5
10DDA
330
20
100
AcDbEntity
  8
11000_Left
  6
Continuous
 62
     7
370
    20
100
AcDbLine
 39
0.7
 10
37.81172588425306
 20
770.9166339223862
 30
0.0
 11
37.81172588425306
 21
771.9166339223862
 31
0.0
1001
AUSTER_ANSICHT
1002
{
1000
Det03
1002
}
1001
AUSTER_FOLIE
1002
{
1000
S00_W_VERDRAHTUNGSBAUSATZ
1002
}
  0
LINE
  5
10DDB
330
20
100
AcDbEntity
  8
11000_Left
  6
Continuous
 62
     7
370
    20
100
AcDbLine
 39
0.7
 10
41.41172588425308
 20
740.0666339223863
 30
0.0
 11
37.81172588425306
 21
740.0644339223863
 31
0.0
1001
AUSTER_ANSICHT
1002
{
1000
Det03
1002
}
1001
AUSTER_FOLIE
1002
{
1000
S00_W_VERDRAHTUNGSBAUSATZ
1002
}
  0
LINE
  5
10DDC
330
20
100
AcDbEntity
  8
11000_Left
  6
Continuous
 62
     7
370
    20
100
AcDbLine
 39
0.7
 10
37.81172588425306
 20
748.7688339223863
 30
0.0
 11
41.41172588425308
 21
748.7666339223863
 31
0.0
1001
AUSTER_ANSICHT
1002
{
1000
Det03
1002
}
1001
AUSTER_FOLIE
1002
{
1000
S00_W_VERDRAHTUNGSBAUSATZ
1002
}
  0
LINE
  5
10DDD
330
20
100
AcDbEntity
  8
11000_Left
  6
Continuous
 62
     7
370
    20
100
AcDbLine
 39
0.7
 10
41.41172588425308
 20
748.7666339223863
 30
0.0
 11
41.41172588425308
 21
740.0666339223863
 31
0.0
1001
AUSTER_ANSICHT
1002
{
1000
Det03
1002
}
1001
AUSTER_FOLIE
1002
{
1000
S00_W_VERDRAHTUNGSBAUSATZ
1002
}
  0
LINE
  5
10DDE
330
20
100
AcDbEntity
  8
11000_Left
  6
Continuous
 62
     7
370
    50
100
AcDbLine
 39
0.7
 10
42.91172588425308
 20
757.4166339223863
 30
0.0
 11
42.91172588425308
 21
731.4166339223862
 31
0.0
1001
AUSTER_ANSICHT
1002
{
1000
Det03
1002
}
1001
AUSTER_FOLIE
1002
{
1000
S00_W_VERDRAHTUNGSBAUSATZ
1002
}
  0
LINE
  5
10DDF
330
20
100
AcDbEntity
  8
11000_Left
  6
Continuous
 62
     7
370
    50
100
AcDbLine
 39
0.7
 10
42.91172588425308
 20
761.6666339223861
 30
0.0
 11
42.91172588425308
 21
757.6594339223864
 31
0.0
1001
AUSTER_ANSICHT
1002
{
1000
Det03
1002
}
1001
AUSTER_FOLIE
1002
{
1000
S00_W_VERDRAHTUNGSBAUSATZ
1002
}
  0
LINE
  5
10DE0
330
20
100
AcDbEntity
  8
11000_Left
  6
Continuous
 62
     7
370
    20
100
AcDbLine
 39
0.7
 10
17.31172588425306
 20
771.9166339223862
 30
0.0
 11
21.91172588425309
 21
771.9166339223862
 31
0.0
1001
AUSTER_ANSICHT
1002
{
1000
Det03
1002
}
1001
AUSTER_FOLIE
1002
{
1000
S00_W_VERDRAHTUNGSBAUSATZ
1002
}
  0
LINE
  5
10DE1
330
20
100
AcDbEntity
  8
11000_Left
  6
Continuous
 62
     7
370
    20
100
AcDbLine
 39
0.7
 10
28.51172588425311
 20
771.9166339223862
 30
0.0
 11
40.51172588425311
 21
771.9166339223862
 31
0.0
1001
AUSTER_ANSICHT
1002
{
1000
Det03
1002
}
1001
AUSTER_FOLIE
1002
{
1000
S00_W_VERDRAHTUNGSBAUSATZ
1002
}
  0
LINE
  5
10DE2
330
20
100
AcDbEntity
  8
11000_Left
  6
Continuous
 62
     7
370
    50
100
AcDbLine
 39
0.7
 10
16.7117258842531
 20
768.3666339223862
 30
0.0
 11
17.30982588425308
 21
768.3666339223862
 31
0.0
1001
AUSTER_ANSICHT
1002
{
1000
Det03
1002
}
1001
AUSTER_FOLIE
1002
{
1000
S00_W_VERDRAHTUNGSBAUSATZ
1002
}
  0
LINE
  5
10DE3
330
20
100
AcDbEntity
  8
11000_Left
  6
Continuous
 62
     7
370
    20
100
AcDbLine
 39
0.7
 10
21.91172588425309
 20
771.9166339223862
 30
0.0
 11
24.51172588425311
 21
771.9166339223862
 31
0.0
1001
AUSTER_ANSICHT
1002
{
1000
Det03
1002
}
1001
AUSTER_FOLIE
1002
{
1000
S00_W_VERDRAHTUNGSBAUSATZ
1002
}
  0
LINE
  5
10DE4
330
20
100
AcDbEntity
  8
11000_Left
  6
Continuous
 62
     7
370
    50
100
AcDbLine
 39
0.7
 10
42.91172588425308
 20
761.6666339223861
 30
0.0
 11
42.65922588425309
 21
766.1166339223862
 31
0.0
1001
AUSTER_ANSICHT
1002
{
1000
Det03
1002
}
1001
AUSTER_FOLIE
1002
{
1000
S00_W_VERDRAHTUNGSBAUSATZ
1002
}
  0
LINE
  5
10DE5
330
20
100
AcDbEntity
  8
11000_Left
  6
Continuous
 62
     7
370
    50
100
AcDbLine
 39
0.7
 10
42.65922588425309
 20
766.1166339223862
 30
0.0
 11
42.27802588425311
 21
771.1900339223863
 31
0.0
1001
AUSTER_ANSICHT
1002
{
1000
Det03
1002
}
1001
AUSTER_FOLIE
1002
{
1000
S00_W_VERDRAHTUNGSBAUSATZ
1002
}
  0
ARC
  5
10DE6
330
20
100
AcDbEntity
  8
11000_Left
  6
Continuous
 62
     7
370
    50
100
AcDbCircle
 39
0.7
 10
41.4814258842531
 20
771.1166339223863
 30
0.0
 40
0.8
100
AcDbArc
 50
5.268495000002851
 51
90.0
1001
AUSTER_ANSICHT
1002
{
1000
Det03
1002
}
1001
AUSTER_FOLIE
1002
{
1000
S00_W_VERDRAHTUNGSBAUSATZ
1002
}
  0
LINE
  5
10DE7
330
20
100
AcDbEntity
  8
10000_FRONT
  6
Continuous
 62
     7
370
    20
100
AcDbLine
 39
0.25
 10
-75.59872865232325
 20
716.8666339223863
 30
0.0
 11
-114.6487286523232
 21
716.8666339223863
 31
0.0
1001
AUSTER_ANSICHT
1002
{
1000
Det03
1002
}
1001
AUSTER_FOLIE
1002
{
1000
S00_W_VERDRAHTUNGSBAUSATZ
1002
}
  0
LINE
  5
10DEB
330
20
100
AcDbEntity
  8
10000_FRONT
  6
Continuous
 62
     7
370
    50
100
AcDbLine
 39
0.7
 10
-159.3987286523232
 20
715.6093625576017
 30
0.0
 11
-159.6487286523232
 21
715.6093625576017
 31
0.0
1001
AUSTER_ANSICHT
1002
{
1000
Det03
1002
}
1001
AUSTER_FOLIE
1002
{
1000
S00_W_VERDRAHTUNGSBAUSATZ
1002
}
  0
LINE
  5
10DEC
330
20
100
AcDbEntity
  8
10000_FRONT
  6
Continuous
 62
     7
370
    20
100
AcDbLine
 39
0.25
 10
-71.34872865232323
 20
771.8666339223863
 30
0.0
 11
-69.64872865232326
 21
771.8666339223863
 31
0.0
1001
AUSTER_ANSICHT
1002
{
1000
Det03
1002
}
1001
AUSTER_FOLIE
1002
{
1000
S00_W_VERDRAHTUNGSBAUSATZ
1002
}
  0
LINE
  5
10DED
330
20
100
AcDbEntity
  8
10000_FRONT
  6
Continuous
 62
     7
370
    20
100
AcDbLine
 39
0.25
 10
-158.3987286523232
 20
771.8666339223863
 30
0.0
 11
-114.6487286523232
 21
771.8666339223863
 31
0.0
1001
AUSTER_ANSICHT
1002
{
1000
Det03
1002
}
1001
AUSTER_FOLIE
1002
{
1000
S00_W_VERDRAHTUNGSBAUSATZ
1002
}
  0
LINE
  5
10DEE
330
20
100
AcDbEntity
  8
11000_Left
  6
Continuous
 62
     7
370
    20
100
AcDbLine
 39
0.7
 10
17.31172588425312
 20
773.4166369223864
 30
0.0
 11
17.31172588425306
 21
771.9166339223862
 31
0.0
  0
LINE
  5
10DEF
330
20
100
AcDbEntity
  8
11000_Left
  6
Continuous
 62
     7
370
    20
100
AcDbLine
 39
0.7
 10
24.51172588425311
 20
771.9166339223862
 30
0.0
 11
24.51172588425311
 21
773.4166369223864
 31
0.0
  0
LINE
  5
10DF0
330
20
100
AcDbEntity
  8
11000_Left
  6
Continuous
 62
     7
370
    20
100
AcDbLine
 39
0.7
 10
23.51172588425311
 20
774.4166369223863
 30
0.0
 11
18.31172588425312
 21
774.4166369223863
 31
0.0
  0
ARC
  5
10DF1
330
20
100
AcDbEntity
  8
11000_Left
  6
Continuous
 62
     7
370
    20
100
AcDbCircle
 39
0.7
 10
23.51172588425311
 20
773.4166369223864
 30
0.0
 40
1.0
100
AcDbArc
 50
0.0
 51
90.0
  0
ARC
  5
10DF2
330
20
100
AcDbEntity
  8
11000_Left
  6
Continuous
 62
     7
370
    20
100
AcDbCircle
 39
0.7
 10
18.31172588425312
 20
773.4166369223864
 30
0.0
 40
1.0
100
AcDbArc
 50
90.0
 51
180.0
  0
LINE
  5
10DF3
330
20
100
AcDbEntity
  8
11000_Left
  6
Continuous
 62
     7
370
    20
100
AcDbLine
 39
0.7
 10
23.51172588425311
 20
714.4166309223862
 30
0.0
 11
18.31172588425312
 21
714.4166309223862
 31
0.0
  0
ARC
  5
10DF4
330
20
100
AcDbEntity
  8
11000_Left
  6
Continuous
 62
     7
370
    20
100
AcDbCircle
 39
0.7
 10
18.31172588425312
 20
715.4166309223862
 30
0.0
 40
1.0
100
AcDbArc
 50
180.0
 51
270.0
  0
LINE
  5
10DF5
330
20
100
AcDbEntity
  8
11000_Left
  6
Continuous
 62
     7
370
    20
100
AcDbLine
 39
0.7
 10
17.31172588425312
 20
715.4166309223862
 30
0.0
 11
17.31172588425306
 21
716.9166339223862
 31
0.0
  0
ARC
  5
10DF6
330
20
100
AcDbEntity
  8
11000_Left
  6
Continuous
 62
     7
370
    20
100
AcDbCircle
 39
0.7
 10
23.51172588425311
 20
715.4166309223862
 30
0.0
 40
1.0
100
AcDbArc
 50
270.0
 51
0.0
  0
LINE
  5
10DF7
330
20
100
AcDbEntity
  8
11000_Left
  6
Continuous
 62
     7
370
    20
100
AcDbLine
 39
0.7
 10
24.51172588425311
 20
716.9166339223862
 30
0.0
 11
24.51172588425311
 21
715.4166309223862
 31
0.0
  0
LINE
  5
10DF8
330
20
100
AcDbEntity
  8
10000_FRONT
  6
Continuous
 62
     7
370
    20
100
AcDbLine
 39
0.25
 10
-110.1487286523232
 20
715.1666339223861
 30
0.0
 11
-110.1487286523232
 21
716.8666339223863
 31
0.0
  0
LINE
  5
10DF9
330
20
100
AcDbEntity
  8
10000_FRONT
  6
Continuous
 62
     7
370
    20
100
AcDbLine
 39
0.25
 10
-119.1487286523232
 20
716.8666339223863
 30
0.0
 11
-119.1487286523232
 21
715.1666339223861
 31
0.0
  0
LINE
  5
10DFA
330
20
100
AcDbEntity
  8
10000_FRONT
  6
Continuous
 62
     7
370
    20
100
AcDbLine
 39
0.25
 10
-111.1487286523232
 20
714.1666339223863
 30
0.0
 11
-111.6487286523232
 21
714.1666339223863
 31
0.0
  0
ARC
  5
10DFB
330
20
100
AcDbEntity
  8
10000_FRONT
  6
Continuous
 62
     7
370
    20
100
AcDbCircle
 39
0.25
 10
-111.1487286523232
 20
715.1666339223861
 30
0.0
 40
1.0
100
AcDbArc
 50
270.0
 51
0.0
  0
LINE
  5
10DFC
330
20
100
AcDbEntity
  8
10000_FRONT
  6
Continuous
 62
     7
370
    20
100
AcDbLine
 39
0.25
 10
-114.1487286523232
 20
714.1666339223863
 30
0.0
 11
-115.1487286523232
 21
714.1666339223863
 31
0.0
  0
LINE
  5
10DFD
330
20
100
AcDbEntity
  8
10000_FRONT
  6
Continuous
 62
     7
370
    20
100
AcDbLine
 39
0.25
 10
-115.1487286523232
 20
714.1666339223863
 30
0.0
 11
-116.6487286523232
 21
714.1666339223863
 31
0.0
  0
LINE
  5
10DFE
330
20
100
AcDbEntity
  8
10000_FRONT
  6
Continuous
 62
     7
370
    20
100
AcDbLine
 39
0.25
 10
-116.6487286523232
 20
714.1666339223863
 30
0.0
 11
-117.6487286523232
 21
714.1666339223863
 31
0.0
  0
LINE
  5
10DFF
330
20
100
AcDbEntity
  8
10000_FRONT
  6
Continuous
 62
     7
370
    20
100
AcDbLine
 39
0.25
 10
-117.6487286523232
 20
714.1666339223863
 30
0.0
 11
-118.1487286523232
 21
714.1666339223863
 31
0.0
  0
LINE
  5
10E00
330
20
100
AcDbEntity
  8
10000_FRONT
  6
Continuous
 62
     7
370
    20
100
AcDbLine
 39
0.25
 10
-112.6487286523232
 20
714.1666339223863
 30
0.0
 11
-114.1487286523232
 21
714.1666339223863
 31
0.0
  0
ARC
  5
10E01
330
20
100
AcDbEntity
  8
10000_FRONT
  6
Continuous
 62
     7
370
    20
100
AcDbCircle
 39
0.25
 10
-118.1487286523232
 20
715.1666339223861
 30
0.0
 40
1.0
100
AcDbArc
 50
180.0
 51
270.0
  0
LINE
  5
10E02
330
20
100
AcDbEntity
  8
10000_FRONT
  6
Continuous
 62
     7
370
    20
100
AcDbLine
 39
0.25
 10
-111.6487286523232
 20
714.1666339223863
 30
0.0
 11
-112.6487286523232
 21
714.1666339223863
 31
0.0
  0
LINE
  5
10E03
330
20
100
AcDbEntity
  8
10000_FRONT
  6
Continuous
 62
     7
370
    20
100
AcDbLine
 39
0.25
 10
-111.6487286523232
 20
774.5666339223864
 30
0.0
 11
-111.1487286523232
 21
774.5666339223864
 31
0.0
  0
LINE
  5
10E04
330
20
100
AcDbEntity
  8
10000_FRONT
  6
Continuous
 62
     7
370
    20
100
AcDbLine
 39
0.25
 10
-119.1487286523232
 20
773.5666339223863
 30
0.0
 11
-119.1487286523232
 21
771.8666339223863
 31
0.0
  0
ARC
  5
10E05
330
20
100
AcDbEntity
  8
10000_FRONT
  6
Continuous
 62
     7
370
    20
100
AcDbCircle
 39
0.25
 10
-118.1487286523232
 20
773.5666339223863
 30
0.0
 40
1.0
100
AcDbArc
 50
90.0
 51
180.0
  0
LINE
  5
10E06
330
20
100
AcDbEntity
  8
10000_FRONT
  6
Continuous
 62
     7
370
    20
100
AcDbLine
 39
0.25
 10
-117.6487286523232
 20
774.5666339223864
 30
0.0
 11
-116.6487286523232
 21
774.5666339223864
 31
0.0
  0
LINE
  5
10E07
330
20
100
AcDbEntity
  8
10000_FRONT
  6
Continuous
 62
     7
370
    20
100
AcDbLine
 39
0.25
 10
-116.6487286523232
 20
774.5666339223864
 30
0.0
 11
-115.1487286523232
 21
774.5666339223864
 31
0.0
  0
LINE
  5
10E08
330
20
100
AcDbEntity
  8
10000_FRONT
  6
Continuous
 62
     7
370
    20
100
AcDbLine
 39
0.25
 10
-112.6487286523232
 20
774.5666339223864
 30
0.0
 11
-111.6487286523232
 21
774.5666339223864
 31
0.0
  0
LINE
  5
10E09
330
20
100
AcDbEntity
  8
10000_FRONT
  6
Continuous
 62
     7
370
    20
100
AcDbLine
 39
0.25
 10
-114.1487286523232
 20
774.5666339223864
 30
0.0
 11
-112.6487286523232
 21
774.5666339223864
 31
0.0
  0
LINE
  5
10E0A
330
20
100
AcDbEntity
  8
10000_FRONT
  6
Continuous
 62
     7
370
    20
100
AcDbLine
 39
0.25
 10
-115.1487286523232
 20
774.5666339223864
 30
0.0
 11
-114.1487286523232
 21
774.5666339223864
 31
0.0
  0
LINE
  5
10E0B
330
20
100
AcDbEntity
  8
10000_FRONT
  6
Continuous
 62
     7
370
    20
100
AcDbLine
 39
0.25
 10
-118.1487286523232
 20
774.5666339223864
 30
0.0
 11
-117.6487286523232
 21
774.5666339223864
 31
0.0
  0
LINE
  5
10E0C
330
20
100
AcDbEntity
  8
10000_FRONT
  6
Continuous
 62
     7
370
    20
100
AcDbLine
 39
0.25
 10
-110.1487286523232
 20
771.8666339223863
 30
0.0
 11
-110.1487286523232
 21
773.5666339223863
 31
0.0
  0
ARC
  5
10E0D
330
20
100
AcDbEntity
  8
10000_FRONT
  6
Continuous
 62
     7
370
    20
100
AcDbCircle
 39
0.25
 10
-111.1487286523232
 20
773.5666339223863
 30
0.0
 40
1.0
100
AcDbArc
 50
0.0
 51
90.0
  0
LINE
  5
10E12
330
20
100
AcDbEntity
  8
30000_Drilling
  6
Continuous
 62
     7
370
    50
100
AcDbLine
 39
0.7
 10
161.7770165334
 20
766.9166339223862
 30
0.0
 11
160.7770165334
 21
766.9166339223862
 31
0.0
1001
AUSTER_ANSICHT
1002
{
1000
Det03
1002
}
1001
AUSTER_FOLIE
1002
{
1000
S00_W_VERDRAHTUNGSBAUSATZ
1002
}
  0
ARC
  5
10E13
330
20
100
AcDbEntity
  8
30000_Drilling
  6
Continuous
 62
     7
370
    50
100
AcDbCircle
 39
0.7
 10
161.7770165334
 20
769.4166339223863
 30
0.0
 40
2.5
100
AcDbArc
 50
270.0
 51
90.0
1001
AUSTER_ANSICHT
1002
{
1000
Det03
1002
}
1001
AUSTER_FOLIE
1002
{
1000
S00_W_VERDRAHTUNGSBAUSATZ
1002
}
  0
ARC
  5
10E14
330
20
100
AcDbEntity
  8
30000_Drilling
  6
Continuous
 62
     7
370
    50
100
AcDbCircle
 39
0.7
 10
160.7770165334
 20
769.4166339223863
 30
0.0
 40
2.5
100
AcDbArc
 50
90.0
 51
270.0
1001
AUSTER_ANSICHT
1002
{
1000
Det03
1002
}
1001
AUSTER_FOLIE
1002
{
1000
S00_W_VERDRAHTUNGSBAUSATZ
1002
}
  0
LINE
  5
10E15
330
20
100
AcDbEntity
  8
30000_Drilling
  6
Continuous
 62
     7
370
    50
100
AcDbLine
 39
0.7
 10
80.7770165334
 20
766.9166339223862
 30
0.0
 11
81.77701653339999
 21
766.9166339223862
 31
0.0
1001
AUSTER_ANSICHT
1002
{
1000
Det03
1002
}
1001
AUSTER_FOLIE
1002
{
1000
S00_W_VERDRAHTUNGSBAUSATZ
1002
}
  0
ARC
  5
10E16
330
20
100
AcDbEntity
  8
30000_Drilling
  6
Continuous
 62
     7
370
    50
100
AcDbCircle
 39
0.7
 10
80.7770165334
 20
769.4166339223863
 30
0.0
 40
2.5
100
AcDbArc
 50
90.0
 51
270.0
1001
AUSTER_ANSICHT
1002
{
1000
Det03
1002
}
1001
AUSTER_FOLIE
1002
{
1000
S00_W_VERDRAHTUNGSBAUSATZ
1002
}
  0
ARC
  5
10E17
330
20
100
AcDbEntity
  8
30000_Drilling
  6
Continuous
 62
     7
370
    50
100
AcDbCircle
 39
0.7
 10
81.77701653339999
 20
769.4166339223863
 30
0.0
 40
2.5
100
AcDbArc
 50
270.0
 51
90.0
1001
AUSTER_ANSICHT
1002
{
1000
Det03
1002
}
1001
AUSTER_FOLIE
1002
{
1000
S00_W_VERDRAHTUNGSBAUSATZ
1002
}
  0
ARC
  5
10E18
330
20
100
AcDbEntity
  8
30000_Drilling
  6
Continuous
 62
     7
370
    50
100
AcDbCircle
 39
0.7
 10
81.77701653339999
 20
719.3166339223863
 30
0.0
 40
2.5
100
AcDbArc
 50
270.0
 51
90.0
1001
AUSTER_ANSICHT
1002
{
1000
Det03
1002
}
1001
AUSTER_FOLIE
1002
{
1000
S00_W_VERDRAHTUNGSBAUSATZ
1002
}
  0
LINE
  5
10E19
330
20
100
AcDbEntity
  8
30000_Drilling
  6
Continuous
 62
     7
370
    50
100
AcDbLine
 39
0.7
 10
80.7770165334
 20
721.8166339223863
 30
0.0
 11
81.77701653339999
 21
721.8166339223863
 31
0.0
1001
AUSTER_ANSICHT
1002
{
1000
Det03
1002
}
1001
AUSTER_FOLIE
1002
{
1000
S00_W_VERDRAHTUNGSBAUSATZ
1002
}
  0
ARC
  5
10E1A
330
20
100
AcDbEntity
  8
30000_Drilling
  6
Continuous
 62
     7
370
    50
100
AcDbCircle
 39
0.7
 10
80.7770165334
 20
719.3166339223863
 30
0.0
 40
2.5
100
AcDbArc
 50
90.0
 51
270.0
1001
AUSTER_ANSICHT
1002
{
1000
Det03
1002
}
1001
AUSTER_FOLIE
1002
{
1000
S00_W_VERDRAHTUNGSBAUSATZ
1002
}
  0
LINE
  5
10E1B
330
20
100
AcDbEntity
  8
30000_Drilling
  6
Continuous
 62
     7
370
    50
100
AcDbLine
 39
0.7
 10
161.7770165334
 20
721.8166339223863
 30
0.0
 11
160.7770165334
 21
721.8166339223863
 31
0.0
1001
AUSTER_ANSICHT
1002
{
1000
Det03
1002
}
1001
AUSTER_FOLIE
1002
{
1000
S00_W_VERDRAHTUNGSBAUSATZ
1002
}
  0
ARC
  5
10E1C
330
20
100
AcDbEntity
  8
30000_Drilling
  6
Continuous
 62
     7
370
    50
100
AcDbCircle
 39
0.7
 10
161.7770165334
 20
719.3166339223863
 30
0.0
 40
2.5
100
AcDbArc
 50
270.0
 51
90.0
1001
AUSTER_ANSICHT
1002
{
1000
Det03
1002
}
1001
AUSTER_FOLIE
1002
{
1000
S00_W_VERDRAHTUNGSBAUSATZ
1002
}
  0
ARC
  5
10E1D
330
20
100
AcDbEntity
  8
30000_Drilling
  6
Continuous
 62
     7
370
    50
100
AcDbCircle
 39
0.7
 10
160.7770165334
 20
719.3166339223863
 30
0.0
 40
2.5
100
AcDbArc
 50
90.0
 51
270.0
1001
AUSTER_ANSICHT
1002
{
1000
Det03
1002
}
1001
AUSTER_FOLIE
1002
{
1000
S00_W_VERDRAHTUNGSBAUSATZ
1002
}
  0
LINE
  5
10E1E
330
20
100
AcDbEntity
  8
30000_Drilling
  6
Continuous
 62
     7
370
    50
100
AcDbLine
 39
0.7
 10
160.7770165334
 20
716.8166339223863
 30
0.0
 11
161.7770165334
 21
716.8166339223863
 31
0.0
1001
AUSTER_ANSICHT
1002
{
1000
Det03
1002
}
1001
AUSTER_FOLIE
1002
{
1000
S00_W_VERDRAHTUNGSBAUSATZ
1002
}
  0
LINE
  5
10E1F
330
20
100
AcDbEntity
  8
30000_Drilling
  6
Continuous
 62
     7
370
    50
100
AcDbLine
 39
0.7
 10
81.77701653339999
 20
716.8166339223863
 30
0.0
 11
80.7770165334
 21
716.8166339223863
 31
0.0
1001
AUSTER_ANSICHT
1002
{
1000
Det03
1002
}
1001
AUSTER_FOLIE
1002
{
1000
S00_W_VERDRAHTUNGSBAUSATZ
1002
}
  0
LINE
  5
10E20
330
20
100
AcDbEntity
  8
30000_Drilling
  6
Continuous
 62
     7
370
    50
100
AcDbLine
 39
0.7
 10
81.77701653339999
 20
771.9166339223862
 30
0.0
 11
80.7770165334
 21
771.9166339223862
 31
0.0
1001
AUSTER_ANSICHT
1002
{
1000
Det03
1002
}
1001
AUSTER_FOLIE
1002
{
1000
S00_W_VERDRAHTUNGSBAUSATZ
1002
}
  0
LINE
  5
10E21
330
20
100
AcDbEntity
  8
30000_Drilling
  6
Continuous
 62
     7
370
    50
100
AcDbLine
 39
0.7
 10
160.7770165334
 20
771.9166339223862
 30
0.0
 11
161.7770165334
 21
771.9166339223862
 31
0.0
1001
AUSTER_ANSICHT
1002
{
1000
Det03
1002
}
1001
AUSTER_FOLIE
1002
{
1000
S00_W_VERDRAHTUNGSBAUSATZ
1002
}
  0
DIMENSION
  5
10E22
330
20
100
AcDbEntity
  8
30100_Drilling_Dim
  6
Continuous
 62
     7
370
    13
100
AcDbDimension
  2
*D19
 10
161.3557010467293
 20
771.8487367643796
 30
0.0
 11
157.4658501487551
 21
755.5004205299275
 31
0.0
 70
   163
 71
     5
 42
4.999999999999545
  3
H035
100
AcDbDiametricDimension
 15
160.1983320200701
 25
766.9845310803932
 35
0.0
 40
0.0
1001
AUSTER_FOLIE
1002
{
1000
NSB00755_S3
1002
}
1001
AUSTER_ANSICHT
1002
{
1000
Det03
1002
}
1001
ACAD
1000
DSTYLE
1002
{
1070
    40
1040
1.0
1070
    77
1070
     0
1070
   147
1040
1.5
1070
   272
1070
     0
1070
   279
1070
     1
1070
   288
1070
     1
1002
}
  0
DIMENSION
  5
10E4F
330
20
100
AcDbEntity
  8
30100_Drilling_Dim
  6
Continuous
 62
     7
370
    13
100
AcDbDimension
  2
*D20
 10
160.7770165333997
 20
778.7135737985562
 30
0.0
 11
120.7770165333998
 21
778.7135737985562
 31
0.0
 70
    32
 71
     5
 42
79.99999999999968
  3
H035
100
AcDbAlignedDimension
 13
80.7770165334
 23
771.9166339223862
 33
0.0
 14
160.7770165333997
 24
771.9166339223862
 34
0.0
100
AcDbRotatedDimension
1001
AUSTER_FOLIE
1002
{
1000
NSB00755_S3
1002
}
1001
AUSTER_ANSICHT
1002
{
1000
Det03
1002
}
1001
ACAD
1000
DSTYLE
1002
{
1070
    40
1040
1.0
1070
    77
1070
     0
1070
   147
1040
1.5
1070
   272
1070
     0
1070
   279
1070
     1
1070
   288
1070
     1
1002
}
  0
DIMENSION
  5
10EB1
330
20
100
AcDbEntity
  8
30100_Drilling_Dim
  6
Continuous
 62
     7
370
    13
100
AcDbDimension
  2
*D22
 10
68.93711893588058
 20
719.3166339223863
 30
0.0
 11
68.93711893588046
 21
744.3666339223863
 31
0.0
 70
    32
 71
     5
 42
50.10000000000001
  3
H035
100
AcDbAlignedDimension
 13
78.2770165334
 23
769.4166339223863
 33
0.0
 14
78.2770165334
 24
719.3166339223863
 34
0.0
 50
90.0
100
AcDbRotatedDimension
1001
AUSTER_FOLIE
1002
{
1000
NSB00755_S3
1002
}
1001
AUSTER_ANSICHT
1002
{
1000
Det03
1002
}
1001
ACAD
1000
DSTYLE
1002
{
1070
    40
1040
1.0
1070
    77
1070
     0
1070
   147
1040
1.5
1070
   272
1070
     0
1070
   279
1070
     1
1070
   288
1070
     1
1002
}
  0
DIMENSION
  5
10EFD
330
20
100
AcDbEntity
  8
10100_FRONT_DIM
  6
Continuous
 62
     7
370
    13
100
AcDbDimension
  2
*D23
 10
-69.64872865232326
 20
705.5347090239092
 30
0.0
 11
-114.6487286523232
 21
705.5347090239092
 31
0.0
 70
    32
 71
     5
 42
89.99999999999994
  3
H035
100
AcDbAlignedDimension
 13
-159.6487286523232
 23
715.6093625576017
 33
0.0
 14
-69.64872865232326
 24
715.6093625576016
 34
0.0
100
AcDbRotatedDimension
1001
ACAD
1000
DSTYLE
1002
{
1070
    40
1040
1.0
1070
    77
1070
     0
1070
   147
1040
1.5
1070
   272
1070
     0
1070
   279
1070
     1
1070
   288
1070
     1
1002
}
  0
DIMENSION
  5
10F13
330
20
100
AcDbEntity
  8
11100_LEFT_DIM
  6
Continuous
 62
     7
370
    13
100
AcDbDimension
  2
*D24
 10
-24.58827411574688
 20
705.9090339223859
 30
0.0
 11
-27.08827411574688
 21
705.9090339223859
 31
0.0
 70
   160
 71
     5
 42
5.0
  3
H035
100
AcDbAlignedDimension
 13
-29.58827411574688
 23
715.617033922386
 33
0.0
 14
-24.58827411574688
 24
724.8666339223863
 34
0.0
100
AcDbRotatedDimension
1001
ACAD
1000
DSTYLE
1002
{
1070
   282
1070
     1
1070
   281
1070
     0
1070
    75
1070
     0
1070
    40
1040
1.0
1070
    77
1070
     0
1070
   147
1040
1.5
1070
   272
1070
     0
1070
   279
1070
     1
1070
   288
1070
     1
1002
}
  0
DIMENSION
  5
10F22
330
20
100
AcDbEntity
  8
11100_LEFT_DIM
  6
Continuous
 62
     7
370
    13
100
AcDbDimension
  2
*D25
 10
26.51172588425314
 20
705.9090339223859
 30
0.0
 11
0.9617258842531272
 21
705.9090339223859
 31
0.0
 70
    32
 71
     5
 42
51.10000000000002
  3
H035
100
AcDbAlignedDimension
 13
-24.58827411574688
 23
715.6166339223863
 33
0.0
 14
26.51172588425314
 24
716.9170339223858
 34
0.0
100
AcDbRotatedDimension
1001
ACAD
1000
DSTYLE
1002
{
1070
    40
1040
1.0
1070
    77
1070
     0
1070
   147
1040
1.5
1070
   272
1070
     0
1070
   279
1070
     1
1070
   288
1070
     1
1002
}
  0
DIMENSION
  5
10F2F
330
20
100
AcDbEntity
  8
11100_LEFT_DIM
  6
Continuous
 62
     7
370
    13
100
AcDbDimension
  2
*D26
 10
42.91172588425309
 20
699.7050563672297
 30
0.0
 11
9.161725884253103
 21
699.7050563672297
 31
0.0
 70
    32
 71
     5
 42
67.49999999999997
  3
H035
100
AcDbAlignedDimension
 13
-24.58827411574688
 23
715.6166339223863
 33
0.0
 14
42.91172588425309
 24
731.4166339223862
 34
0.0
100
AcDbRotatedDimension
1001
ACAD
1000
DSTYLE
1002
{
1070
    40
1040
1.0
1070
    77
1070
     0
1070
   147
1040
1.5
1070
   272
1070
     0
1070
   279
1070
     1
1070
   288
1070
     1
1002
}
  0
DIMENSION
  5
10FA4
330
20
100
AcDbEntity
  8
10100_FRONT_DIM
  6
Continuous
 62
     7
370
    13
100
AcDbDimension
  2
*D27
 10
-61.04822764994242
 20
712.8666339223862
 30
0.0
 11
-61.04822764994253
 21
746.6166339223861
 31
0.0
 70
    32
 71
     5
 42
67.50000000000023
  3
H035
100
AcDbAlignedDimension
 13
-83.14872865232327
 23
780.3666339223862
 33
0.0
 14
-76.39872865232327
 24
712.8666339223862
 34
0.0
 50
90.0
100
AcDbRotatedDimension
1001
ACAD
1000
DSTYLE
1002
{
1070
    40
1040
1.0
1070
    77
1070
     0
1070
   147
1040
1.5
1070
   272
1070
     0
1070
   279
1070
     1
1070
   288
1070
     1
1002
}
  0
LINE
  5
10FD7
330
20
100
AcDbEntity
  8
11000_Left
  6
Continuous
 62
     7
370
    50
100
AcDbLine
 39
0.7
 10
42.91172588425308
 20
731.4166339223862
 30
0.0
 11
42.91172588425308
 21
727.1666339223862
 31
0.0
  0
LINE
  5
1102E
330
20
100
AcDbEntity
  8
11000_Left
  6
Continuous
 62
     7
370
    50
100
AcDbLine
 39
0.7
 10
17.31172588425306
 20
768.3666339223861
 30
0.0
 11
17.31172588425306
 21
771.9166339223862
 31
0.0
1001
AUSTER_ANSICHT
1002
{
1000
Det03
1002
}
1001
AUSTER_FOLIE
1002
{
1000
S00_W_VERDRAHTUNGSBAUSATZ
1002
}
  0
LINE
  5
1102F
330
20
100
AcDbEntity
  8
10000_FRONT
  6
Continuous
 62
     7
370
    50
100
AcDbLine
 39
0.7
 10
-71.34872865232323
 20
773.1166339223863
 30
0.0
 11
-71.34872865232323
 21
774.8174339223862
 31
0.0
1001
AUSTER_ANSICHT
1002
{
1000
Det03
1002
}
1001
AUSTER_FOLIE
1002
{
1000
S00_W_VERDRAHTUNGSBAUSATZ
1002
}
  0
LINE
  5
11030
330
20
100
AcDbEntity
  8
10000_FRONT
  6
Continuous
 62
     7
370
    50
100
AcDbLine
 39
0.7
 10
-75.59872865232325
 20
715.6166339223863
 30
0.0
 11
-75.59872865232325
 21
713.6666339223863
 31
0.0
1001
AUSTER_ANSICHT
1002
{
1000
Det03
1002
}
1001
AUSTER_FOLIE
1002
{
1000
S00_W_VERDRAHTUNGSBAUSATZ
1002
}
  0
ENDSEC
  0
SECTION
  2
OBJECTS
  0
DICTIONARY
  5
C
330
0
100
AcDbDictionary
281
     1
  3
ACAD_COLOR
350
1B
  3
ACAD_GROUP
350
D
  3
ACAD_LAYOUT
350
19
  3
ACAD_MATERIAL
350
1A
  3
ACAD_MLINESTYLE
350
16
  3
ACAD_PLOTSETTINGS
350
18
  3
ACAD_PLOTSTYLENAME
350
E
  3
ACDBHEADERROUNDTRIPXREC
350
11042
  3
AcDbVariableDictionary
350
687E
  3
DWGPROPS
350
11041
  0
DICTIONARY
  5
1B
102
{ACAD_REACTORS
330
C
102
}
330
C
100
AcDbDictionary
281
     1
  0
DICTIONARY
  5
D
102
{ACAD_REACTORS
330
C
102
}
330
C
100
AcDbDictionary
281
     1
  0
DICTIONARY
  5
19
102
{ACAD_REACTORS
330
C
102
}
330
C
100
AcDbDictionary
281
     1
  3
Layout1
350
1F
  3
Model
350
23
  0
DICTIONARY
  5
1A
102
{ACAD_REACTORS
330
C
102
}
330
C
100
AcDbDictionary
281
     1
  0
DICTIONARY
  5
16
102
{ACAD_REACTORS
330
C
102
}
330
C
100
AcDbDictionary
281
     1
  3
Standard
350
17
  0
DICTIONARY
  5
18
102
{ACAD_REACTORS
330
C
102
}
330
C
100
AcDbDictionary
281
     1
  0
ACDBDICTIONARYWDFLT
  5
E
102
{ACAD_REACTORS
330
C
102
}
330
C
100
AcDbDictionary
281
     1
  3
Normal
350
F
100
AcDbDictionaryWithDefault
340
F
  0
DICTIONARY
  5
11042
102
{ACAD_REACTORS
330
C
102
}
330
C
100
AcDbDictionary
281
     1
  3
COLORDICT
350
11044
  3
MATERIALDICT
350
11043
  0
DICTIONARY
  5
687E
102
{ACAD_REACTORS
330
C
102
}
330
C
100
AcDbDictionary
281
     1
  3
DIMASSOC
350
687F
  3
PROJECTNAME
350
6880
  0
XRECORD
  5
11041
102
{ACAD_REACTORS
330
C
102
}
330
C
100
AcDbXrecord
280
     1
  1
DWGPROPS COOKIE
  2

  3

  4

  6

  7

  8

  9

300
=
301
=
302
=
303
=
304
=
305
=
306
=
307
=
308
=
309
=
 40
2.506448796296296
 41
2452829.417613079
 42
2453423.420376273
  1

 90
        0
  0
LAYOUT
  5
1F
102
{ACAD_XDICTIONARY
360
11045
102
}
102
{ACAD_REACTORS
330
19
102
}
330
19
100
AcDbPlotSettings
  1

  2
HP LaserJet 5000 Series PS
  4

  6

 40
0.0
 41
0.0
 42
0.0
 43
0.0
 44
0.0
 45
0.0
 46
0.0
 47
0.0
 48
0.0
 49
0.0
140
0.0
141
0.0
142
1.0
143
1.0
 70
   688
 72
     0
 73
     0
 74
     5
  7
monochrome.ctb
 75
    16
147
1.0
148
0.0
149
0.0
100
AcDbLayout
  1
Layout1
 70
     1
 71
     1
 10
0.0
 20
0.0
 11
12.0
 21
9.0
 12
0.0
 22
0.0
 32
0.0
 14
1.000000000000000E+20
 24
1.000000000000000E+20
 34
1.000000000000000E+20
 15
-1.000000000000000E+20
 25
-1.000000000000000E+20
 35
-1.000000000000000E+20
146
0.0
 13
0.0
 23
0.0
 33
0.0
 16
1.0
 26
0.0
 36
0.0
 17
0.0
 27
1.0
 37
0.0
 76
     0
330
1C
  0
LAYOUT
  5
23
102
{ACAD_XDICTIONARY
360
11047
102
}
102
{ACAD_REACTORS
330
19
102
}
330
19
100
AcDbPlotSettings
  1

  2
\\AMBW779A\A_P00873 (Canon iR2200-3300 PCL6)
  4
A3
  6

 40
4.815416812896728
 41
4.815412044525146
 42
4.815399169921875
 43
4.8154296875
 44
296.9259948730469
 45
419.9466552734373
 46
0.0
 47
0.0
 48
0.0
 49
0.0
140
0.0
141
0.0
142
1.0
143
1.0
 70
 11952
 72
     1
 73
     1
 74
     1
  7
monochrome.ctb
 75
    16
147
1.0
148
191.1380277262886
149
-570.2479685684587
100
AcDbLayout
  1
Model
 70
     1
 71
     0
 10
0.0
 20
0.0
 11
12.0
 21
9.0
 12
0.0
 22
0.0
 32
0.0
 14
0.0
 24
0.0
 34
0.0
 15
0.0
 25
0.0
 35
0.0
146
0.0
 13
0.0
 23
0.0
 33
0.0
 16
1.0
 26
0.0
 36
0.0
 17
0.0
 27
1.0
 37
0.0
 76
     0
330
20
  0
MLINESTYLE
  5
17
102
{ACAD_REACTORS
330
16
102
}
330
16
100
AcDbMlineStyle
  2
STANDARD
 70
     0
  3

 62
   256
 51
90.0
 52
90.0
 71
     2
 49
0.5
 62
   256
  6
BYLAYER
 49
-0.5
 62
   256
  6
BYLAYER
  0
ACDBPLACEHOLDER
  5
F
102
{ACAD_REACTORS
330
E
102
}
330
E
  0
XRECORD
  5
11044
102
{ACAD_REACTORS
330
11042
102
}
330
11042
100
AcDbXrecord
280
     1
340
1B
  0
XRECORD
  5
11043
102
{ACAD_REACTORS
330
11042
102
}
330
11042
100
AcDbXrecord
280
     1
340
1A
  0
DICTIONARYVAR
  5
687F
102
{ACAD_REACTORS
330
687E
102
}
330
687E
100
DictionaryVariables
280
     0
  1
1
  0
DICTIONARYVAR
  5
6880
102
{ACAD_REACTORS
330
687E
102
}
330
687E
100
DictionaryVariables
280
     0
  1

  0
DICTIONARY
  5
11045
330
1F
100
AcDbDictionary
280
     1
281
     1
  3
ACAD_XREC_ROUNDTRIP
360
11046
  0
DICTIONARY
  5
11047
330
23
100
AcDbDictionary
280
     1
281
     1
  3
ACAD_XREC_ROUNDTRIP
360
11048
  0
XRECORD
  5
11046
102
{ACAD_REACTORS
330
11045
102
}
330
11045
100
AcDbXrecord
280
     1
102
SHADEPLOT
 70
     0
102
SHADEPLOTRESLEVEL
 70
     2
102
SHADEPLOTCUSTOMDPI
 70
   300
  0
XRECORD
  5
11048
102
{ACAD_REACTORS
330
11047
102
}
330
11047
100
AcDbXrecord
280
     1
102
SHADEPLOT
 70
     1
102
SHADEPLOTRESLEVEL
 70
     2
102
SHADEPLOTCUSTOMDPI
 70
   300
  0
ENDSEC
  0
EOF
