  0
SECTION
  2
HEADER
  9
$ACADVER
  1
AC1015
  9
$ACADMAINTVER
 70
    20
  9
$DWGCODEPAGE
  3
ANSI_1252
  9
$INSBASE
 10
0.0
 20
0.0
 30
0.0
  9
$EXTMIN
 10
-147.7584589679968
 20
50.22382648192911
 30
0.0
  9
$EXTMAX
 10
262.2415410320032
 20
320.2238264819291
 30
0.7
  9
$LIMMIN
 10
0.0
 20
0.0
  9
$LIMMAX
 10
420.0
 20
297.0
  9
$ORTHOMODE
 70
     1
  9
$REGENMODE
 70
     1
  9
$FILLMODE
 70
     1
  9
$QTEXTMODE
 70
     0
  9
$MIRRTEXT
 70
     0
  9
$LTSCALE
 40
1.0
  9
$ATTMODE
 70
     1
  9
$TEXTSIZE
 40
2.5
  9
$TRACEWID
 40
1.0
  9
$TEXTSTYLE
  7
Standard
  9
$CLAYER
  8
0
  9
$CELTYPE
  6
ByLayer
  9
$CECOLOR
 62
   256
  9
$CELTSCALE
 40
1.0
  9
$DISPSILH
 70
     0
  9
$DIMSCALE
 40
1.0
  9
$DIMASZ
 40
2.5
  9
$DIMEXO
 40
0.625
  9
$DIMDLI
 40
3.75
  9
$DIMRND
 40
0.0
  9
$DIMDLE
 40
0.0
  9
$DIMEXE
 40
1.25
  9
$DIMTP
 40
0.0
  9
$DIMTM
 40
0.0
  9
$DIMTXT
 40
2.5
  9
$DIMCEN
 40
2.5
  9
$DIMTSZ
 40
0.0
  9
$DIMTOL
 70
     0
  9
$DIMLIM
 70
     0
  9
$DIMTIH
 70
     0
  9
$DIMTOH
 70
     0
  9
$DIMSE1
 70
     0
  9
$DIMSE2
 70
     0
  9
$DIMTAD
 70
     1
  9
$DIMZIN
 70
     8
  9
$DIMBLK
  1

  9
$DIMASO
 70
     1
  9
$DIMSHO
 70
     1
  9
$DIMPOST
  1

  9
$DIMAPOST
  1

  9
$DIMALT
 70
     0
  9
$DIMALTD
 70
     3
  9
$DIMALTF
 40
0.03937007874016
  9
$DIMLFAC
 40
1.0
  9
$DIMTOFL
 70
     1
  9
$DIMTVP
 40
0.0
  9
$DIMTIX
 70
     0
  9
$DIMSOXD
 70
     0
  9
$DIMSAH
 70
     0
  9
$DIMBLK1
  1

  9
$DIMBLK2
  1

  9
$DIMSTYLE
  2
ISO-25
  9
$DIMCLRD
 70
     0
  9
$DIMCLRE
 70
     0
  9
$DIMCLRT
 70
     0
  9
$DIMTFAC
 40
1.0
  9
$DIMGAP
 40
0.625
  9
$DIMJUST
 70
     0
  9
$DIMSD1
 70
     0
  9
$DIMSD2
 70
     0
  9
$DIMTOLJ
 70
     0
  9
$DIMTZIN
 70
     8
  9
$DIMALTZ
 70
     0
  9
$DIMALTTZ
 70
     0
  9
$DIMUPT
 70
     0
  9
$DIMDEC
 70
     2
  9
$DIMTDEC
 70
     2
  9
$DIMALTU
 70
     2
  9
$DIMALTTD
 70
     3
  9
$DIMTXSTY
  7
Standard
  9
$DIMAUNIT
 70
     0
  9
$DIMADEC
 70
     0
  9
$DIMALTRND
 40
0.0
  9
$DIMAZIN
 70
     0
  9
$DIMDSEP
 70
    44
  9
$DIMATFIT
 70
     3
  9
$DIMFRAC
 70
     0
  9
$DIMLDRBLK
  1

  9
$DIMLUNIT
 70
     2
  9
$DIMLWD
 70
    -2
  9
$DIMLWE
 70
    -2
  9
$DIMTMOVE
 70
     0
  9
$LUNITS
 70
     2
  9
$LUPREC
 70
     4
  9
$SKETCHINC
 40
1.0
  9
$FILLETRAD
 40
10.0
  9
$AUNITS
 70
     0
  9
$AUPREC
 70
     0
  9
$MENU
  1
.
  9
$ELEVATION
 40
0.0
  9
$PELEVATION
 40
0.0
  9
$THICKNESS
 40
0.0
  9
$LIMCHECK
 70
     0
  9
$CHAMFERA
 40
10.0
  9
$CHAMFERB
 40
10.0
  9
$CHAMFERC
 40
20.0
  9
$CHAMFERD
 40
0.0
  9
$SKPOLY
 70
     0
  9
$TDCREATE
 40
2453200.479237720
  9
$TDUCREATE
 40
2453200.437571053
  9
$TDUPDATE
 40
2453424.449972373
  9
$TDUUPDATE
 40
2453424.408305706
  9
$TDINDWG
 40
0.6105635185
  9
$TDUSRTIMER
 40
0.6105604398
  9
$USRTIMER
 70
     1
  9
$ANGBASE
 50
0.0
  9
$ANGDIR
 70
     0
  9
$PDMODE
 70
     0
  9
$PDSIZE
 40
0.0
  9
$PLINEWID
 40
0.0
  9
$SPLFRAME
 70
     0
  9
$SPLINETYPE
 70
     6
  9
$SPLINESEGS
 70
     8
  9
$HANDSEED
  5
1116D
  9
$SURFTAB1
 70
     6
  9
$SURFTAB2
 70
     6
  9
$SURFTYPE
 70
     6
  9
$SURFU
 70
     6
  9
$SURFV
 70
     6
  9
$UCSBASE
  2

  9
$UCSNAME
  2

  9
$UCSORG
 10
0.0
 20
0.0
 30
0.0
  9
$UCSXDIR
 10
1.0
 20
0.0
 30
0.0
  9
$UCSYDIR
 10
0.0
 20
1.0
 30
0.0
  9
$UCSORTHOREF
  2

  9
$UCSORTHOVIEW
 70
     0
  9
$UCSORGTOP
 10
0.0
 20
0.0
 30
0.0
  9
$UCSORGBOTTOM
 10
0.0
 20
0.0
 30
0.0
  9
$UCSORGLEFT
 10
0.0
 20
0.0
 30
0.0
  9
$UCSORGRIGHT
 10
0.0
 20
0.0
 30
0.0
  9
$UCSORGFRONT
 10
0.0
 20
0.0
 30
0.0
  9
$UCSORGBACK
 10
0.0
 20
0.0
 30
0.0
  9
$PUCSBASE
  2

  9
$PUCSNAME
  2

  9
$PUCSORG
 10
0.0
 20
0.0
 30
0.0
  9
$PUCSXDIR
 10
1.0
 20
0.0
 30
0.0
  9
$PUCSYDIR
 10
0.0
 20
1.0
 30
0.0
  9
$PUCSORTHOREF
  2

  9
$PUCSORTHOVIEW
 70
     0
  9
$PUCSORGTOP
 10
0.0
 20
0.0
 30
0.0
  9
$PUCSORGBOTTOM
 10
0.0
 20
0.0
 30
0.0
  9
$PUCSORGLEFT
 10
0.0
 20
0.0
 30
0.0
  9
$PUCSORGRIGHT
 10
0.0
 20
0.0
 30
0.0
  9
$PUCSORGFRONT
 10
0.0
 20
0.0
 30
0.0
  9
$PUCSORGBACK
 10
0.0
 20
0.0
 30
0.0
  9
$USERI1
 70
     0
  9
$USERI2
 70
     0
  9
$USERI3
 70
     0
  9
$USERI4
 70
     0
  9
$USERI5
 70
     0
  9
$USERR1
 40
0.0
  9
$USERR2
 40
0.0
  9
$USERR3
 40
0.0
  9
$USERR4
 40
0.0
  9
$USERR5
 40
0.0
  9
$WORLDVIEW
 70
     1
  9
$SHADEDGE
 70
     3
  9
$SHADEDIF
 70
    70
  9
$TILEMODE
 70
     1
  9
$MAXACTVP
 70
    64
  9
$PINSBASE
 10
0.0
 20
0.0
 30
0.0
  9
$PLIMCHECK
 70
     0
  9
$PEXTMIN
 10
0.0
 20
0.0
 30
0.0
  9
$PEXTMAX
 10
0.0
 20
0.0
 30
0.0
  9
$PLIMMIN
 10
0.0
 20
0.0
  9
$PLIMMAX
 10
12.0
 20
9.0
  9
$UNITMODE
 70
     0
  9
$VISRETAIN
 70
     1
  9
$PLINEGEN
 70
     0
  9
$PSLTSCALE
 70
     1
  9
$TREEDEPTH
 70
  3020
  9
$CMLSTYLE
  2
Standard
  9
$CMLJUST
 70
     0
  9
$CMLSCALE
 40
20.0
  9
$PROXYGRAPHICS
 70
     1
  9
$MEASUREMENT
 70
     1
  9
$CELWEIGHT
370
    -1
  9
$ENDCAPS
280
     0
  9
$JOINSTYLE
280
     0
  9
$LWDISPLAY
290
     0
  9
$INSUNITS
 70
     4
  9
$HYPERLINKBASE
  1

  9
$STYLESHEET
  1

  9
$XEDIT
290
     1
  9
$CEPSNTYPE
380
     0
  9
$PSTYLEMODE
290
     1
  9
$FINGERPRINTGUID
  2
{FDEAD578-A652-11D2-9A35-0060089B3A3F}
  9
$VERSIONGUID
  2
{590E4937-FCAF-4AE6-A6D2-DB39A1377FD3}
  9
$EXTNAMES
290
     1
  9
$PSVPSCALE
 40
0.0
  9
$OLESTARTUP
290
     0
  0
ENDSEC
  0
SECTION
  2
CLASSES
  0
CLASS
  1
ACDBDICTIONARYWDFLT
  2
AcDbDictionaryWithDefault
  3
ObjectDBX Classes
 90
        0
280
     0
281
     0
  0
CLASS
  1
DICTIONARYVAR
  2
AcDbDictionaryVar
  3
ObjectDBX Classes
 90
        0
280
     0
281
     0
  0
CLASS
  1
DIMASSOC
  2
AcDbDimAssoc
  3
"AcDbDimAssoc|Product Desc:     AcDim ARX App For Dimension|Company:          Autodesk, Inc.|WEB Address:      www.autodesk.com"
 90
    32768
280
     0
281
     0
  0
CLASS
  1
ACDBPLACEHOLDER
  2
AcDbPlaceHolder
  3
ObjectDBX Classes
 90
        0
280
     0
281
     0
  0
CLASS
  1
LAYOUT
  2
AcDbLayout
  3
ObjectDBX Classes
 90
        0
280
     0
281
     0
  0
ENDSEC
  0
SECTION
  2
TABLES
  0
TABLE
  2
VPORT
  5
8
330
0
100
AcDbSymbolTable
 70
     2
  0
VPORT
  5
11162
330
8
100
AcDbSymbolTableRecord
100
AcDbViewportTableRecord
  2
*Active
 70
     0
 10
0.0
 20
0.0
 11
1.0
 21
1.0
 12
58.67463194390518
 22
185.219399232789
 13
0.0
 23
0.0
 14
10.0
 24
10.0
 15
10.0
 25
10.0
 16
0.0
 26
0.0
 36
1.0
 17
0.0
 27
0.0
 37
0.0
 40
272.1001013077692
 41
1.571994715984147
 42
50.0
 43
0.0
 44
0.0
 50
0.0
 51
0.0
 71
     0
 72
  1000
 73
     1
 74
     3
 75
     0
 76
     0
 77
     0
 78
     0
281
     0
 65
     1
110
0.0
120
0.0
130
0.0
111
1.0
121
0.0
131
0.0
112
0.0
122
1.0
132
0.0
 79
     0
146
0.0
  0
ENDTAB
  0
TABLE
  2
LTYPE
  5
5
330
0
100
AcDbSymbolTable
 70
     4
  0
LTYPE
  5
14
330
5
100
AcDbSymbolTableRecord
100
AcDbLinetypeTableRecord
  2
ByBlock
 70
     0
  3

 72
    65
 73
     0
 40
0.0
  0
LTYPE
  5
15
330
5
100
AcDbSymbolTableRecord
100
AcDbLinetypeTableRecord
  2
ByLayer
 70
     0
  3

 72
    65
 73
     0
 40
0.0
  0
LTYPE
  5
16
330
5
100
AcDbSymbolTableRecord
100
AcDbLinetypeTableRecord
  2
Continuous
 70
     0
  3
Solid line
 72
    65
 73
     0
 40
0.0
  0
LTYPE
  5
118
330
5
100
AcDbSymbolTableRecord
100
AcDbLinetypeTableRecord
  2
CENTER
 70
     0
  3
____ _ ____ _ ____ _ ____ _ ____ _ ____ _ ____
 72
    65
 73
     4
 40
0.6
 49
0.375
 74
     0
 49
-0.075
 74
     0
 49
0.075
 74
     0
 49
-0.075
 74
     0
  0
LTYPE
  5
55D3
330
5
100
AcDbSymbolTableRecord
100
AcDbLinetypeTableRecord
  2
HIDDEN
 70
     0
  3
_ 
 72
    65
 73
     3
 40
4.5
 49
1.5
 74
     0
 49
-1.5
 74
     0
 49
1.5
 74
     0
  0
LTYPE
  5
F4E1
330
5
100
AcDbSymbolTableRecord
100
AcDbLinetypeTableRecord
  2
CENTERLINE
 70
     0
  3
_ 
 72
    65
 73
     5
 40
30.0
 49
12.0
 74
     0
 49
-1.5
 74
     0
 49
3.0
 74
     0
 49
-1.5
 74
     0
 49
12.0
 74
     0
  0
ENDTAB
  0
TABLE
  2
LAYER
  5
2
330
0
100
AcDbSymbolTable
 70
     8
  0
LAYER
  5
10
330
2
100
AcDbSymbolTableRecord
100
AcDbLayerTableRecord
  2
0
 70
     0
 62
     7
  6
Continuous
370
    -3
390
F
  0
LAYER
  5
119
330
2
100
AcDbSymbolTableRecord
100
AcDbLayerTableRecord
  2
Defpoints
 70
     0
 62
     7
  6
Continuous
290
     0
370
    -3
390
F
  0
LAYER
  5
11A
330
2
100
AcDbSymbolTableRecord
100
AcDbLayerTableRecord
  2
91000_TIP
 70
     0
 62
     7
  6
Continuous
370
    -3
390
F
  0
LAYER
  5
11B
330
2
100
AcDbSymbolTableRecord
100
AcDbLayerTableRecord
  2
11000_Left
 70
     0
 62
     7
  6
Continuous
370
    -3
390
F
  0
LAYER
  5
11C
330
2
100
AcDbSymbolTableRecord
100
AcDbLayerTableRecord
  2
10000_FRONT
 70
     0
 62
     7
  6
Continuous
370
    -3
390
F
  0
LAYER
  5
11D
330
2
100
AcDbSymbolTableRecord
100
AcDbLayerTableRecord
  2
10100_FRONT_DIM
 70
     0
 62
     7
  6
Continuous
370
    -3
390
F
  0
LAYER
  5
11E
330
2
100
AcDbSymbolTableRecord
100
AcDbLayerTableRecord
  2
90000_FRAME
 70
     0
 62
     7
  6
Continuous
370
    -3
390
F
  0
LAYER
  5
11F
330
2
100
AcDbSymbolTableRecord
100
AcDbLayerTableRecord
  2
11100_LEFT_DIM
 70
     0
 62
     7
  6
Continuous
370
    -3
390
F
  0
ENDTAB
  0
TABLE
  2
STYLE
  5
3
330
0
100
AcDbSymbolTable
 70
     1
  0
STYLE
  5
11
330
3
100
AcDbSymbolTableRecord
100
AcDbTextStyleTableRecord
  2
Standard
 70
     0
 40
0.0
 41
1.0
 50
0.0
 71
     0
 42
2.5
  3
txt
  4

  0
ENDTAB
  0
TABLE
  2
VIEW
  5
6
330
0
100
AcDbSymbolTable
 70
     0
  0
ENDTAB
  0
TABLE
  2
UCS
  5
7
330
0
100
AcDbSymbolTable
 70
     0
  0
ENDTAB
  0
TABLE
  2
APPID
  5
9
330
0
100
AcDbSymbolTable
 70
     3
  0
APPID
  5
12
330
9
100
AcDbSymbolTableRecord
100
AcDbRegAppTableRecord
  2
ACAD
 70
     0
  0
APPID
  5
121
330
9
100
AcDbSymbolTableRecord
100
AcDbRegAppTableRecord
  2
AUSTER_ANSICHT
 70
     0
  0
APPID
  5
122
330
9
100
AcDbSymbolTableRecord
100
AcDbRegAppTableRecord
  2
AUSTER_FOLIE
 70
     0
  0
ENDTAB
  0
TABLE
  2
DIMSTYLE
  5
A
330
0
100
AcDbSymbolTable
 70
     2
100
AcDbDimStyleTable
 71
     1
340
120
  0
DIMSTYLE
105
27
330
A
100
AcDbSymbolTableRecord
100
AcDbDimStyleTableRecord
  2
ISO-25
 70
     0
 41
2.5
 42
0.625
 43
3.75
 44
1.25
 73
     0
 74
     0
 77
     1
 78
     8
140
2.5
141
2.5
143
0.03937007874016
147
0.625
171
     3
172
     1
271
     2
272
     2
274
     3
278
    44
283
     0
284
     8
340
11
  0
DIMSTYLE
105
120
102
{ACAD_REACTORS
330
1020A
330
10220
330
1021B
330
1020D
330
10219
330
1021D
330
1021A
330
1021C
330
1021E
330
1021F
330
FD45
330
FD44
102
}
330
A
100
AcDbSymbolTableRecord
100
AcDbDimStyleTableRecord
  2
DSTYLE1
 70
     0
 41
3.0
 42
0.0
 44
1.0
 73
     0
 74
     0
 77
     1
 78
     3
140
2.5
143
0.039370079
147
1.0
271
     3
272
     3
274
     0
279
     2
340
11
  0
ENDTAB
  0
TABLE
  2
BLOCK_RECORD
  5
1
330
0
100
AcDbSymbolTable
 70
    14
  0
BLOCK_RECORD
  5
1F
330
1
100
AcDbSymbolTableRecord
100
AcDbBlockTableRecord
  2
*Model_Space
340
22
  0
BLOCK_RECORD
  5
50
330
1
100
AcDbSymbolTableRecord
100
AcDbBlockTableRecord
  2
*Paper_Space
340
51
  0
BLOCK_RECORD
  5
55
330
1
100
AcDbSymbolTableRecord
100
AcDbBlockTableRecord
  2
*Paper_Space0
340
56
  0
BLOCK_RECORD
  5
86
330
1
100
AcDbSymbolTableRecord
100
AcDbBlockTableRecord
  2
SIEMENS_OUTLINE_BL0
340
0
102
{BLKREFS
331
C5B
102
}
  0
BLOCK_RECORD
  5
10324
330
1
100
AcDbSymbolTableRecord
100
AcDbBlockTableRecord
  2
*D2
340
0
  0
BLOCK_RECORD
  5
10331
330
1
100
AcDbSymbolTableRecord
100
AcDbBlockTableRecord
  2
*D3
340
0
  0
BLOCK_RECORD
  5
10364
330
1
100
AcDbSymbolTableRecord
100
AcDbBlockTableRecord
  2
*D4
340
0
  0
BLOCK_RECORD
  5
10371
330
1
100
AcDbSymbolTableRecord
100
AcDbBlockTableRecord
  2
*D5
340
0
  0
BLOCK_RECORD
  5
1038B
330
1
100
AcDbSymbolTableRecord
100
AcDbBlockTableRecord
  2
*D6
340
0
  0
BLOCK_RECORD
  5
10398
330
1
100
AcDbSymbolTableRecord
100
AcDbBlockTableRecord
  2
*D7
340
0
  0
BLOCK_RECORD
  5
103A5
330
1
100
AcDbSymbolTableRecord
100
AcDbBlockTableRecord
  2
*D8
340
0
  0
BLOCK_RECORD
  5
103B2
330
1
100
AcDbSymbolTableRecord
100
AcDbBlockTableRecord
  2
*D9
340
0
  0
BLOCK_RECORD
  5
103BF
330
1
100
AcDbSymbolTableRecord
100
AcDbBlockTableRecord
  2
*D10
340
0
  0
BLOCK_RECORD
  5
103CC
330
1
100
AcDbSymbolTableRecord
100
AcDbBlockTableRecord
  2
*D11
340
0
  0
BLOCK_RECORD
  5
103D9
330
1
100
AcDbSymbolTableRecord
100
AcDbBlockTableRecord
  2
*D12
340
0
  0
BLOCK_RECORD
  5
103E6
330
1
100
AcDbSymbolTableRecord
100
AcDbBlockTableRecord
  2
*D13
340
0
  0
ENDTAB
  0
ENDSEC
  0
SECTION
  2
BLOCKS
  0
BLOCK
  5
20
330
1F
100
AcDbEntity
  8
0
100
AcDbBlockBegin
  2
*Model_Space
 70
     0
 10
0.0
 20
0.0
 30
0.0
  3
*Model_Space
  1

  0
ENDBLK
  5
21
330
1F
100
AcDbEntity
  8
0
100
AcDbBlockEnd
  0
BLOCK
  5
52
330
50
100
AcDbEntity
 67
     1
  8
0
100
AcDbBlockBegin
  2
*Paper_Space
 70
     0
 10
0.0
 20
0.0
 30
0.0
  3
*Paper_Space
  1

  0
ENDBLK
  5
53
330
50
100
AcDbEntity
 67
     1
  8
0
100
AcDbBlockEnd
  0
BLOCK
  5
57
330
55
100
AcDbEntity
  8
0
100
AcDbBlockBegin
  2
*Paper_Space0
 70
     0
 10
0.0
 20
0.0
 30
0.0
  3
*Paper_Space0
  1

  0
ENDBLK
  5
58
330
55
100
AcDbEntity
  8
0
100
AcDbBlockEnd
  0
BLOCK
  5
87
330
86
100
AcDbEntity
  8
0
  6
Continuous
 62
     7
100
AcDbBlockBegin
  2
SIEMENS_OUTLINE_BL0
 70
     0
 10
0.0
 20
0.0
 30
0.0
  3
SIEMENS_OUTLINE_BL0
  1

  0
LINE
  5
88
330
86
100
AcDbEntity
  8
0
  6
Continuous
 62
     7
100
AcDbLine
 10
79.186200508
 20
21.4145478991
 30
0.0
 11
79.186200508
 21
16.6612788158
 31
0.0
  0
LINE
  5
89
330
86
100
AcDbEntity
  8
0
  6
Continuous
 62
     7
100
AcDbLine
 10
80.61218123299999
 20
21.4145478991
 30
0.0
 11
80.61218123299999
 21
16.6612788158
 31
0.0
  0
LINE
  5
8A
330
86
100
AcDbEntity
  8
0
  6
Continuous
 62
     7
100
AcDbLine
 10
79.186200508
 20
16.6612788158
 30
0.0
 11
80.61218123299999
 21
16.6612788158
 31
0.0
  0
LINE
  5
8B
330
86
100
AcDbEntity
  8
0
  6
Continuous
 62
     7
100
AcDbLine
 10
79.186200508
 20
21.4145478991
 30
0.0
 11
80.61218123299999
 21
21.4145478991
 31
0.0
  0
LINE
  5
8C
330
86
100
AcDbEntity
  8
0
  6
Continuous
 62
     7
100
AcDbLine
 10
81.7054331221
 20
21.4145478991
 30
0.0
 11
81.7054331221
 21
16.6612788158
 31
0.0
  0
LINE
  5
8D
330
86
100
AcDbEntity
  8
0
  6
Continuous
 62
     7
100
AcDbLine
 10
81.7054331221
 20
16.6612788158
 30
0.0
 11
85.2703849346
 21
16.6612788158
 31
0.0
  0
LINE
  5
8E
330
86
100
AcDbEntity
  8
0
  6
Continuous
 62
     7
100
AcDbLine
 10
85.2703849346
 20
17.56439994169999
 30
0.0
 11
83.0838811563
 21
17.56439994169999
 31
0.0
  0
LINE
  5
8F
330
86
100
AcDbEntity
  8
0
  6
Continuous
 62
     7
100
AcDbLine
 10
85.2703849346
 20
17.56439994169999
 30
0.0
 11
85.2703849346
 21
16.6612788158
 31
0.0
  0
LINE
  5
90
330
86
100
AcDbEntity
  8
0
  6
Continuous
 62
     7
100
AcDbLine
 10
85.2228522438
 20
21.4145478991
 30
0.0
 11
81.7054331221
 21
21.4145478991
 31
0.0
  0
LINE
  5
91
330
86
100
AcDbEntity
  8
0
  6
Continuous
 62
     7
100
AcDbLine
 10
85.2228522438
 20
20.5351931187
 30
0.0
 11
83.0838811563
 21
20.5351931187
 31
0.0
  0
LINE
  5
92
330
86
100
AcDbEntity
  8
0
  6
Continuous
 62
     7
100
AcDbLine
 10
85.2228522438
 20
21.4145478991
 30
0.0
 11
85.2228522438
 21
20.5351931187
 31
0.0
  0
LINE
  5
93
330
86
100
AcDbEntity
  8
0
  6
Continuous
 62
     7
100
AcDbLine
 10
84.9376560988
 20
18.68141817619999
 30
0.0
 11
83.0838811563
 21
18.68141817619999
 31
0.0
  0
LINE
  5
94
330
86
100
AcDbEntity
  8
0
  6
Continuous
 62
     7
100
AcDbLine
 10
84.9376560988
 20
19.46570757499999
 30
0.0
 11
84.9376560988
 21
18.68141817619999
 31
0.0
  0
LINE
  5
95
330
86
100
AcDbEntity
  8
0
  6
Continuous
 62
     7
100
AcDbLine
 10
84.9376560988
 20
19.46570757499999
 30
0.0
 11
83.0838811563
 21
19.46570757499999
 31
0.0
  0
LINE
  5
96
330
86
100
AcDbEntity
  8
0
  6
Continuous
 62
     7
100
AcDbLine
 10
83.0838811563
 20
20.5351931187
 30
0.0
 11
83.0838811563
 21
19.46570757499999
 31
0.0
  0
LINE
  5
97
330
86
100
AcDbEntity
  8
0
  6
Continuous
 62
     7
100
AcDbLine
 10
83.0838811563
 20
18.68141817619999
 30
0.0
 11
83.0838811563
 21
17.56439994169999
 31
0.0
  0
LINE
  5
98
330
86
100
AcDbEntity
  8
0
  6
Continuous
 62
     7
100
AcDbLine
 10
86.0784406788
 20
16.6612788158
 30
0.0
 11
86.0784406788
 21
21.4145478991
 31
0.0
  0
LINE
  5
99
330
86
100
AcDbEntity
  8
0
  6
Continuous
 62
     7
100
AcDbLine
 10
86.0784406788
 20
16.6612788158
 30
0.0
 11
87.02909449539999
 21
16.6612788158
 31
0.0
  0
LINE
  5
9A
330
86
100
AcDbEntity
  8
0
  6
Continuous
 62
     7
100
AcDbLine
 10
91.92496165120001
 20
21.4145478991
 30
0.0
 11
91.92496165120001
 21
16.6612788158
 31
0.0
  0
LINE
  5
9B
330
86
100
AcDbEntity
  8
0
  6
Continuous
 62
     7
100
AcDbLine
 10
91.92496165120001
 20
16.6612788158
 30
0.0
 11
90.54651361700001
 21
16.6612788158
 31
0.0
  0
LINE
  5
9C
330
86
100
AcDbEntity
  8
0
  6
Continuous
 62
     7
100
AcDbLine
 10
88.3600098387
 20
16.61374612499999
 30
0.0
 11
89.21559827370002
 21
16.61374612499999
 31
0.0
  0
LINE
  5
9D
330
86
100
AcDbEntity
  8
0
  6
Continuous
 62
     7
100
AcDbLine
 10
88.3600098387
 20
16.61374612499999
 30
0.0
 11
87.02909449539999
 21
19.7033710291
 31
0.0
  0
LINE
  5
9E
330
86
100
AcDbEntity
  8
0
  6
Continuous
 62
     7
100
AcDbLine
 10
87.02909449539999
 20
16.6612788158
 30
0.0
 11
87.02909449539999
 21
19.7033710291
 31
0.0
  0
LINE
  5
9F
330
86
100
AcDbEntity
  8
0
  6
Continuous
 62
     7
100
AcDbLine
 10
90.54651361700001
 20
19.75090372
 30
0.0
 11
89.21559827370002
 21
16.61374612499999
 31
0.0
  0
LINE
  5
A0
330
86
100
AcDbEntity
  8
0
  6
Continuous
 62
     7
100
AcDbLine
 10
87.78961754870001
 20
21.4145478991
 30
0.0
 11
86.0784406788
 21
21.4145478991
 31
0.0
  0
LINE
  5
A1
330
86
100
AcDbEntity
  8
0
  6
Continuous
 62
     7
100
AcDbLine
 10
91.92496165120001
 20
21.4145478991
 30
0.0
 11
90.2137847812
 21
21.4145478991
 31
0.0
  0
LINE
  5
A2
330
86
100
AcDbEntity
  8
0
  6
Continuous
 62
     7
100
AcDbLine
 10
87.78961754870001
 20
21.4145478991
 30
0.0
 11
89.0254675104
 21
18.51505375829999
 31
0.0
  0
LINE
  5
A3
330
86
100
AcDbEntity
  8
0
  6
Continuous
 62
     7
100
AcDbLine
 10
90.2137847812
 20
21.4145478991
 30
0.0
 11
89.0254675104
 21
18.51505375829999
 31
0.0
  0
LINE
  5
A4
330
86
100
AcDbEntity
  8
0
  6
Continuous
 62
     7
100
AcDbLine
 10
90.54651361700001
 20
19.75090372
 30
0.0
 11
90.54651361700001
 21
16.6612788158
 31
0.0
  0
LINE
  5
A5
330
86
100
AcDbEntity
  8
0
  6
Continuous
 62
     7
100
AcDbLine
 10
93.01821354030002
 20
21.4145478991
 30
0.0
 11
93.01821354030002
 21
16.6612788158
 31
0.0
  0
LINE
  5
A6
330
86
100
AcDbEntity
  8
0
  6
Continuous
 62
     7
100
AcDbLine
 10
93.01821354030002
 20
16.6612788158
 30
0.0
 11
96.5831653528
 21
16.6612788158
 31
0.0
  0
LINE
  5
A7
330
86
100
AcDbEntity
  8
0
  6
Continuous
 62
     7
100
AcDbLine
 10
96.5831653528
 20
17.56439994169999
 30
0.0
 11
94.3966615745
 21
17.56439994169999
 31
0.0
  0
LINE
  5
A8
330
86
100
AcDbEntity
  8
0
  6
Continuous
 62
     7
100
AcDbLine
 10
96.5831653528
 20
17.56439994169999
 30
0.0
 11
96.5831653528
 21
16.6612788158
 31
0.0
  0
LINE
  5
A9
330
86
100
AcDbEntity
  8
0
  6
Continuous
 62
     7
100
AcDbLine
 10
96.53563266200002
 20
21.4145478991
 30
0.0
 11
93.01821354030002
 21
21.4145478991
 31
0.0
  0
LINE
  5
AA
330
86
100
AcDbEntity
  8
0
  6
Continuous
 62
     7
100
AcDbLine
 10
96.53563266200002
 20
20.5351931187
 30
0.0
 11
94.3966615745
 21
20.5351931187
 31
0.0
  0
LINE
  5
AB
330
86
100
AcDbEntity
  8
0
  6
Continuous
 62
     7
100
AcDbLine
 10
96.53563266200002
 20
21.4145478991
 30
0.0
 11
96.53563266200002
 21
20.5351931187
 31
0.0
  0
LINE
  5
AC
330
86
100
AcDbEntity
  8
0
  6
Continuous
 62
     7
100
AcDbLine
 10
96.25043651700002
 20
18.68141817619999
 30
0.0
 11
94.3966615745
 21
18.68141817619999
 31
0.0
  0
LINE
  5
AD
330
86
100
AcDbEntity
  8
0
  6
Continuous
 62
     7
100
AcDbLine
 10
96.25043651700002
 20
19.46570757499999
 30
0.0
 11
96.25043651700002
 21
18.68141817619999
 31
0.0
  0
LINE
  5
AE
330
86
100
AcDbEntity
  8
0
  6
Continuous
 62
     7
100
AcDbLine
 10
96.25043651700002
 20
19.46570757499999
 30
0.0
 11
94.3966615745
 21
19.46570757499999
 31
0.0
  0
LINE
  5
AF
330
86
100
AcDbEntity
  8
0
  6
Continuous
 62
     7
100
AcDbLine
 10
94.3966615745
 20
20.5351931187
 30
0.0
 11
94.3966615745
 21
19.46570757499999
 31
0.0
  0
LINE
  5
B0
330
86
100
AcDbEntity
  8
0
  6
Continuous
 62
     7
100
AcDbLine
 10
94.3966615745
 20
18.68141817619999
 30
0.0
 11
94.3966615745
 21
17.56439994169999
 31
0.0
  0
LINE
  5
B1
330
86
100
AcDbEntity
  8
0
  6
Continuous
 62
     7
100
AcDbLine
 10
97.3674547515
 20
16.6612788158
 30
0.0
 11
97.3674547515
 21
21.4145478991
 31
0.0
  0
LINE
  5
B2
330
86
100
AcDbEntity
  8
0
  6
Continuous
 62
     7
100
AcDbLine
 10
101.5503315447999
 20
21.4145478991
 30
0.0
 11
101.5503315447999
 21
16.6612788158
 31
0.0
  0
LINE
  5
B3
330
86
100
AcDbEntity
  8
0
  6
Continuous
 62
     7
100
AcDbLine
 10
97.3674547515
 20
16.6612788158
 30
0.0
 11
98.3181085682
 21
16.6612788158
 31
0.0
  0
LINE
  5
B4
330
86
100
AcDbEntity
  8
0
  6
Continuous
 62
     7
100
AcDbLine
 10
101.5503315447999
 20
21.4145478991
 30
0.0
 11
100.5996777281999
 21
21.4145478991
 31
0.0
  0
LINE
  5
B5
330
86
100
AcDbEntity
  8
0
  6
Continuous
 62
     7
100
AcDbLine
 10
98.91226720360002
 20
21.4145478991
 30
0.0
 11
97.3674547515
 21
21.4145478991
 31
0.0
  0
LINE
  5
B6
330
86
100
AcDbEntity
  8
0
  6
Continuous
 62
     7
100
AcDbLine
 10
101.5503315447999
 20
16.6612788158
 30
0.0
 11
100.0292854381999
 21
16.6612788158
 31
0.0
  0
LINE
  5
B7
330
86
100
AcDbEntity
  8
0
  6
Continuous
 62
     7
100
AcDbLine
 10
100.0292854381999
 20
16.6612788158
 30
0.0
 11
98.3181085682
 21
19.7033710291
 31
0.0
  0
LINE
  5
B8
330
86
100
AcDbEntity
  8
0
  6
Continuous
 62
     7
100
AcDbLine
 10
98.91226720360002
 20
21.4145478991
 30
0.0
 11
100.5996777281999
 21
18.4675210675
 31
0.0
  0
LINE
  5
B9
330
86
100
AcDbEntity
  8
0
  6
Continuous
 62
     7
100
AcDbLine
 10
100.5996777281999
 20
21.4145478991
 30
0.0
 11
100.5996777281999
 21
18.4675210675
 31
0.0
  0
LINE
  5
BA
330
86
100
AcDbEntity
  8
0
  6
Continuous
 62
     7
100
AcDbLine
 10
98.3181085682
 20
16.6612788158
 30
0.0
 11
98.3181085682
 21
19.7033710291
 31
0.0
  0
LINE
  5
BB
330
86
100
AcDbEntity
  8
0
  6
Continuous
 62
     7
100
AcDbLine
 10
102.3583872889999
 20
16.75634419749999
 30
0.0
 11
102.3583872889999
 21
17.7069980142
 31
0.0
  0
LINE
  5
BC
330
86
100
AcDbEntity
  8
0
  6
Continuous
 62
     7
100
AcDbLine
 10
105.6856756473
 20
20.4163613916
 30
0.0
 11
105.6856756473
 21
21.36701520829999
 31
0.0
  0
ARC
  5
BD
330
86
100
AcDbEntity
  8
0
  6
Continuous
 62
     7
100
AcDbCircle
 10
104.063028414
 20
18.61843736089998
 30
0.0
 40
1.111619360599997
100
AcDbArc
 50
277.7099956934
 51
295.6884927745999
  0
ARC
  5
BE
330
86
100
AcDbEntity
  8
0
  6
Continuous
 62
     7
100
AcDbCircle
 10
104.3473383967
 20
17.8936115972
 30
0.0
 40
0.3401689265
100
AcDbArc
 50
305.503221255
 51
72.46528985229999
  0
ARC
  5
BF
330
86
100
AcDbEntity
  8
0
  6
Continuous
 62
     7
100
AcDbCircle
 10
103.7813445885999
 20
21.2953185068
 30
0.0
 40
4.756794641099999
100
AcDbArc
 50
252.5939200548001
 51
280.9816604255999
  0
ARC
  5
C0
330
86
100
AcDbEntity
  8
0
  6
Continuous
 62
     7
100
AcDbCircle
 10
104.2361799517
 20
18.6773047703
 30
0.0
 40
2.100726595299998
100
AcDbArc
 50
282.4058358519999
 51
311.8644433928
  0
ARC
  5
C1
330
86
100
AcDbEntity
  8
0
  6
Continuous
 62
     7
100
AcDbCircle
 10
103.9626156045999
 20
20.2856464918
 30
0.0
 40
0.3029626476
100
AcDbArc
 50
154.4400348282
 51
221.8201698800999
  0
ARC
  5
C2
330
86
100
AcDbEntity
  8
0
  6
Continuous
 62
     7
100
AcDbCircle
 10
104.0418367559
 20
20.2064253405
 30
0.0
 40
0.4103089737
100
AcDbArc
 50
102.8287828680999
 51
149.2259639003
  0
ARC
  5
C3
330
86
100
AcDbEntity
  8
0
  6
Continuous
 62
     7
100
AcDbCircle
 10
104.4588635915999
 20
18.46409001059999
 30
0.0
 40
2.201836557
100
AcDbArc
 50
84.0400061857
 51
103.3427657870999
  0
ARC
  5
C4
330
86
100
AcDbEntity
  8
0
  6
Continuous
 62
     7
100
AcDbCircle
 10
104.1178997669
 20
16.0467260867
 30
0.0
 40
4.642373736499997
100
AcDbArc
 50
70.2625858546
 51
82.95241863799999
  0
ARC
  5
C5
330
86
100
AcDbEntity
  8
0
  6
Continuous
 62
     7
100
AcDbCircle
 10
103.6038815646999
 20
20.7183489764
 30
0.0
 40
3.258755990899997
100
AcDbArc
 50
247.5300206145
 51
280.7579522143
  0
ARC
  5
C6
330
86
100
AcDbEntity
  8
0
  6
Continuous
 62
     7
100
AcDbCircle
 10
97.21891509270001
 20
2.4668290159
 30
0.0
 40
17.3316084133
100
AcDbArc
 50
65.34146746500001
 51
67.39977707359999
  0
ARC
  5
C7
330
86
100
AcDbEntity
  8
0
  6
Continuous
 62
     7
100
AcDbCircle
 10
108.0147774981
 20
28.259255379
 30
0.0
 40
10.6291642039
100
AcDbArc
 50
242.8620101252001
 51
247.1042029186
  0
ARC
  5
C8
330
86
100
AcDbEntity
  8
0
  6
Continuous
 62
     7
100
AcDbCircle
 10
104.1598762715
 20
20.725323882
 30
0.0
 40
2.166291629199998
100
AcDbArc
 50
227.3119280793999
 51
242.7040315235
  0
ARC
  5
C9
330
86
100
AcDbEntity
  8
0
  6
Continuous
 62
     7
100
AcDbCircle
 10
103.5558454618999
 20
20.0196462412
 30
0.0
 40
1.238521734
100
AcDbArc
 50
194.7952194236
 51
225.7176549047
  0
ARC
  5
CA
330
86
100
AcDbEntity
  8
0
  6
Continuous
 62
     7
100
AcDbCircle
 10
103.6180035961
 20
20.05986621039999
 30
0.0
 40
1.309092072899999
100
AcDbArc
 50
164.1974860461
 51
195.8025139539
  0
ARC
  5
CB
330
86
100
AcDbEntity
  8
0
  6
Continuous
 62
     7
100
AcDbCircle
 10
104.1750273167
 20
19.1715990505
 30
0.0
 40
2.366924815299999
100
AcDbArc
 50
86.22180229280001
 51
120.4272602309
  0
ARC
  5
CC
330
86
100
AcDbEntity
  8
0
  6
Continuous
 62
     7
100
AcDbCircle
 10
103.9061705341999
 20
12.4754312294
 30
0.0
 40
9.0679051661
100
AcDbArc
 50
78.68270492259998
 51
87.3147599624
  0
ARC
  5
CD
330
86
100
AcDbEntity
  8
0
  6
Continuous
 62
     7
100
AcDbCircle
 10
103.4501013557999
 20
20.1673739729
 30
0.0
 40
1.119747444
100
AcDbArc
 50
142.8139179029999
 51
167.1522951416999
  0
ARC
  5
CE
330
86
100
AcDbEntity
  8
0
  6
Continuous
 62
     7
100
AcDbCircle
 10
103.7954106973999
 20
19.86079227619999
 30
0.0
 40
1.580546684499998
100
AcDbArc
 50
121.2140948535
 51
141.5254768286
  0
ARC
  5
CF
330
86
100
AcDbEntity
  8
0
  6
Continuous
 62
     7
100
AcDbCircle
 10
104.372585063
 20
20.6718496049
 30
0.0
 40
0.8661276051999998
100
AcDbArc
 50
222.7760387596
 51
239.0362434679
  0
ARC
  5
D0
330
86
100
AcDbEntity
  8
0
  6
Continuous
 62
     7
100
AcDbCircle
 10
101.8658754847
 20
13.3415774063
 30
0.0
 40
6.858773576299999
100
AcDbArc
 50
59.90202725600001
 51
68.2036481279
  0
ARC
  5
D1
330
86
100
AcDbEntity
  8
0
  6
Continuous
 62
     7
100
AcDbCircle
 10
105.2743699785
 20
22.26746391349999
 30
0.0
 40
2.698741017099999
100
AcDbArc
 50
240.0481997804
 51
251.3779673736999
  0
ARC
  5
D2
330
86
100
AcDbEntity
  8
0
  6
Continuous
 62
     7
100
AcDbCircle
 10
104.6089128116999
 20
18.1105652982
 30
0.0
 40
1.4334474881
100
AcDbArc
 50
315.8904553224
 51
333.5229264372999
  0
ARC
  5
D3
330
86
100
AcDbEntity
  8
0
  6
Continuous
 62
     7
100
AcDbCircle
 10
104.6135510555
 20
18.057158148
 30
0.0
 40
1.406228711899998
100
AcDbArc
 50
335.3867972702
 51
24.39151194019999
  0
ARC
  5
D4
330
86
100
AcDbEntity
  8
0
  6
Continuous
 62
     7
100
AcDbCircle
 10
104.5413461519
 20
17.97930145619999
 30
0.0
 40
1.504702514799999
100
AcDbArc
 50
25.95629166050001
 51
59.4834829668
  0
LINE
  5
D5
330
86
100
AcDbEntity
  8
0
  6
Continuous
 62
     7
100
AcDbLine
 10
74.7656602606
 20
16.75634419749999
 30
0.0
 11
74.7656602606
 21
17.7069980142
 31
0.0
  0
LINE
  5
D6
330
86
100
AcDbEntity
  8
0
  6
Continuous
 62
     7
100
AcDbLine
 10
78.09294861879997
 20
20.4163613916
 30
0.0
 11
78.09294861879997
 21
21.36701520829999
 31
0.0
  0
ARC
  5
D7
330
86
100
AcDbEntity
  8
0
  6
Continuous
 62
     7
100
AcDbCircle
 10
76.4703013855
 20
18.61843736089998
 30
0.0
 40
1.111619360599997
100
AcDbArc
 50
277.7099956934
 51
295.6884927745999
  0
ARC
  5
D8
330
86
100
AcDbEntity
  8
0
  6
Continuous
 62
     7
100
AcDbCircle
 10
76.7546113683
 20
17.8936115972
 30
0.0
 40
0.3401689265
100
AcDbArc
 50
305.5032212556
 51
72.4652898515
  0
ARC
  5
D9
330
86
100
AcDbEntity
  8
0
  6
Continuous
 62
     7
100
AcDbCircle
 10
76.1886175602
 20
21.2953185068
 30
0.0
 40
4.756794641099999
100
AcDbArc
 50
252.5939200545
 51
280.9816604253
  0
ARC
  5
DA
330
86
100
AcDbEntity
  8
0
  6
Continuous
 62
     7
100
AcDbCircle
 10
76.64345292330001
 20
18.6773047703
 30
0.0
 40
2.100726595299998
100
AcDbArc
 50
282.4058358513
 51
311.8644433923
  0
ARC
  5
DB
330
86
100
AcDbEntity
  8
0
  6
Continuous
 62
     7
100
AcDbCircle
 10
76.3698885762
 20
20.2856464918
 30
0.0
 40
0.3029626476
100
AcDbArc
 50
154.4400348282
 51
221.8201698800999
  0
ARC
  5
DC
330
86
100
AcDbEntity
  8
0
  6
Continuous
 62
     7
100
AcDbCircle
 10
76.4491097276
 20
20.2064253405
 30
0.0
 40
0.4103089737
100
AcDbArc
 50
102.8287828727
 51
149.2259639027
  0
ARC
  5
DD
330
86
100
AcDbEntity
  8
0
  6
Continuous
 62
     7
100
AcDbCircle
 10
76.8661365632
 20
18.46409001059999
 30
0.0
 40
2.201836557
100
AcDbArc
 50
84.0400061859
 51
103.3427657871999
  0
ARC
  5
DE
330
86
100
AcDbEntity
  8
0
  6
Continuous
 62
     7
100
AcDbCircle
 10
76.5251727384
 20
16.0467260867
 30
0.0
 40
4.642373736499997
100
AcDbArc
 50
70.2625858546
 51
82.9524186379
  0
ARC
  5
DF
330
86
100
AcDbEntity
  8
0
  6
Continuous
 62
     7
100
AcDbCircle
 10
76.0111545363
 20
20.7183489764
 30
0.0
 40
3.258755990899997
100
AcDbArc
 50
247.5300206148
 51
280.7579522145
  0
ARC
  5
E0
330
86
100
AcDbEntity
  8
0
  6
Continuous
 62
     7
100
AcDbCircle
 10
69.6261880643
 20
2.4668290159
 30
0.0
 40
17.3316084133
100
AcDbArc
 50
65.34146746500001
 51
67.39977707359999
  0
ARC
  5
E1
330
86
100
AcDbEntity
  8
0
  6
Continuous
 62
     7
100
AcDbCircle
 10
80.4220504697
 20
28.259255379
 30
0.0
 40
10.6291642039
100
AcDbArc
 50
242.8620101252001
 51
247.1042029184999
  0
ARC
  5
E2
330
86
100
AcDbEntity
  8
0
  6
Continuous
 62
     7
100
AcDbCircle
 10
76.56714924310001
 20
20.725323882
 30
0.0
 40
2.166291629199998
100
AcDbArc
 50
227.3119280793999
 51
242.7040315235
  0
ARC
  5
E3
330
86
100
AcDbEntity
  8
0
  6
Continuous
 62
     7
100
AcDbCircle
 10
75.9631184335
 20
20.0196462412
 30
0.0
 40
1.238521734
100
AcDbArc
 50
194.7952194234
 51
225.7176549041999
  0
ARC
  5
E4
330
86
100
AcDbEntity
  8
0
  6
Continuous
 62
     7
100
AcDbCircle
 10
76.58230028830002
 20
19.1715990505
 30
0.0
 40
2.366924815299999
100
AcDbArc
 50
86.22180229280001
 51
120.4272602309
  0
ARC
  5
E5
330
86
100
AcDbEntity
  8
0
  6
Continuous
 62
     7
100
AcDbCircle
 10
76.3134435058
 20
12.4754312294
 30
0.0
 40
9.0679051661
100
AcDbArc
 50
78.68270492259998
 51
87.3147599624
  0
ARC
  5
E6
330
86
100
AcDbEntity
  8
0
  6
Continuous
 62
     7
100
AcDbCircle
 10
76.20268366899998
 20
19.86079227619999
 30
0.0
 40
1.580546684599998
100
AcDbArc
 50
121.2140948540999
 51
141.5254768289999
  0
ARC
  5
E7
330
86
100
AcDbEntity
  8
0
  6
Continuous
 62
     7
100
AcDbCircle
 10
76.7798580346
 20
20.6718496049
 30
0.0
 40
0.8661276051999998
100
AcDbArc
 50
222.7760387596
 51
239.0362434679
  0
ARC
  5
E8
330
86
100
AcDbEntity
  8
0
  6
Continuous
 62
     7
100
AcDbCircle
 10
74.2731484563
 20
13.3415774063
 30
0.0
 40
6.858773576299999
100
AcDbArc
 50
59.90202725620001
 51
68.20364812820002
  0
ARC
  5
E9
330
86
100
AcDbEntity
  8
0
  6
Continuous
 62
     7
100
AcDbCircle
 10
77.6816429501
 20
22.26746391349999
 30
0.0
 40
2.698741017099999
100
AcDbArc
 50
240.0481997804
 51
251.3779673734
  0
ARC
  5
EA
330
86
100
AcDbEntity
  8
0
  6
Continuous
 62
     7
100
AcDbCircle
 10
77.0161857833
 20
18.1105652982
 30
0.0
 40
1.4334474881
100
AcDbArc
 50
315.8904553225998
 51
333.5229264375
  0
ARC
  5
EB
330
86
100
AcDbEntity
  8
0
  6
Continuous
 62
     7
100
AcDbCircle
 10
77.020824027
 20
18.057158148
 30
0.0
 40
1.406228711899998
100
AcDbArc
 50
335.3867972703
 51
24.3915119403
  0
ARC
  5
EC
330
86
100
AcDbEntity
  8
0
  6
Continuous
 62
     7
100
AcDbCircle
 10
76.94861912350001
 20
17.97930145619999
 30
0.0
 40
1.504702514699999
100
AcDbArc
 50
25.9562916611
 51
59.4834829676
  0
LINE
  5
ED
330
86
100
AcDbEntity
  8
0
  6
Continuous
 62
     7
100
AcDbLine
 10
74.9574888499
 20
20.8337423583
 30
0.0
 11
75.2315546745
 21
21.10781543579999
 31
0.0
  0
ARC
  5
EE
330
86
100
AcDbEntity
  8
0
  6
Continuous
 62
     7
100
AcDbCircle
 10
76.0252765676
 20
20.05986621039999
 30
0.0
 40
1.309092072899999
100
AcDbArc
 50
164.1974860461
 51
195.8025139539
  0
ARC
  5
EF
330
86
100
AcDbEntity
  8
0
  6
Continuous
 62
     7
100
AcDbCircle
 10
75.8573743274
 20
20.1673739729
 30
0.0
 40
1.119747444
100
AcDbArc
 50
142.8139179029999
 51
167.1522951416999
  0
ENDBLK
  5
F0
330
86
100
AcDbEntity
  8
0
100
AcDbBlockEnd
  0
BLOCK
  5
1032F
330
10324
100
AcDbEntity
  8
0
100
AcDbBlockBegin
  2
*D2
 70
     1
 10
0.0
 20
0.0
 30
0.0
  3
*D2
  1

  0
LINE
  5
1112A
330
10324
100
AcDbEntity
  8
10100_FRONT_DIM
  6
Continuous
 62
     0
370
    -2
100
AcDbLine
 10
-49.11878180905688
 20
180.7677935384806
 30
0.0
 11
-60.19103180905685
 21
180.7677935384806
 31
0.0
  0
LINE
  5
1112B
330
10324
100
AcDbEntity
  8
10100_FRONT_DIM
  6
Continuous
 62
     0
370
    -2
100
AcDbLine
 10
-48.56892180905687
 20
195.2377935384806
 30
0.0
 11
-60.19103180905685
 21
195.2377935384806
 31
0.0
  0
LINE
  5
1112C
330
10324
100
AcDbEntity
  8
10100_FRONT_DIM
  6
Continuous
 62
     0
370
    -2
100
AcDbLine
 10
-59.19103180905685
 20
183.7677935384806
 30
0.0
 11
-59.19103180905685
 21
184.0027935384806
 31
0.0
  0
LINE
  5
1112D
330
10324
100
AcDbEntity
  8
10100_FRONT_DIM
  6
Continuous
 62
     0
370
    -2
100
AcDbLine
 10
-59.19103180905685
 20
192.2377935384806
 30
0.0
 11
-59.19103180905685
 21
192.0027935384806
 31
0.0
  0
SOLID
  5
1112E
330
10324
100
AcDbEntity
  8
10100_FRONT_DIM
  6
Continuous
 62
     0
100
AcDbTrace
 10
-59.69103180905685
 20
183.7677935384806
 30
0.0
 11
-58.69103180905685
 21
183.7677935384806
 31
0.0
 12
-59.19103180905685
 22
180.7677935384806
 32
0.0
 13
-59.19103180905685
 23
180.7677935384806
 33
0.0
  0
SOLID
  5
1112F
330
10324
100
AcDbEntity
  8
10100_FRONT_DIM
  6
Continuous
 62
     0
100
AcDbTrace
 10
-59.69103180905685
 20
192.2377935384806
 30
0.0
 11
-58.69103180905685
 21
192.2377935384806
 31
0.0
 12
-59.19103180905685
 22
195.2377935384806
 32
0.0
 13
-59.19103180905685
 23
195.2377935384806
 33
0.0
  0
MTEXT
  5
11130
330
10324
100
AcDbEntity
  8
10100_FRONT_DIM
  6
Continuous
 62
     0
370
    13
100
AcDbMText
 10
-59.19103180905688
 20
188.0027935384806
 30
0.0
 40
4.5
 41
0.0
 71
     5
 72
     1
  1
\A1;14
 11
0.0000000000000001
 21
1.0
 31
0.0
 73
     1
 44
1.0
1001
ACAD
1000
MTEXTBEGIN
1070
    73
1070
     1
1070
    44
1040
1.0
1070
    74
1070
     0
1000
MTEXTEND
  0
POINT
  5
11131
330
10324
100
AcDbEntity
  8
Defpoints
  6
Continuous
 62
     0
100
AcDbPoint
 10
-48.11878180905688
 20
180.7677935384806
 30
0.0
  0
POINT
  5
11132
330
10324
100
AcDbEntity
  8
Defpoints
  6
Continuous
 62
     0
100
AcDbPoint
 10
-47.56892180905686
 20
195.2377935384806
 30
0.0
  0
POINT
  5
11133
330
10324
100
AcDbEntity
  8
Defpoints
  6
Continuous
 62
     0
100
AcDbPoint
 10
-59.19103180905685
 20
195.2377935384806
 30
0.0
  0
ENDBLK
  5
10330
330
10324
100
AcDbEntity
  8
0
100
AcDbBlockEnd
  0
BLOCK
  5
1033C
330
10331
100
AcDbEntity
  8
0
100
AcDbBlockBegin
  2
*D3
 70
     1
 10
0.0
 20
0.0
 30
0.0
  3
*D3
  1

  0
LINE
  5
11120
330
10331
100
AcDbEntity
  8
10100_FRONT_DIM
  6
Continuous
 62
     0
370
    -2
100
AcDbLine
 10
-49.11878180905688
 20
180.7677935384806
 30
0.0
 11
-72.74297708913306
 21
180.7677935384806
 31
0.0
  0
LINE
  5
11121
330
10331
100
AcDbEntity
  8
10100_FRONT_DIM
  6
Continuous
 62
     0
370
    -2
100
AcDbLine
 10
-50.00252180905686
 20
205.5177935384806
 30
0.0
 11
-72.74297708913306
 21
205.5177935384807
 31
0.0
  0
LINE
  5
11122
330
10331
100
AcDbEntity
  8
10100_FRONT_DIM
  6
Continuous
 62
     0
370
    -2
100
AcDbLine
 10
-71.74297708913306
 20
183.7677935384806
 30
0.0
 11
-71.74297708913306
 21
188.3927935384807
 31
0.0
  0
LINE
  5
11123
330
10331
100
AcDbEntity
  8
10100_FRONT_DIM
  6
Continuous
 62
     0
370
    -2
100
AcDbLine
 10
-71.74297708913306
 20
202.5177935384807
 30
0.0
 11
-71.74297708913306
 21
197.8927935384806
 31
0.0
  0
SOLID
  5
11124
330
10331
100
AcDbEntity
  8
10100_FRONT_DIM
  6
Continuous
 62
     0
100
AcDbTrace
 10
-72.24297708913306
 20
183.7677935384806
 30
0.0
 11
-71.24297708913307
 21
183.7677935384806
 31
0.0
 12
-71.74297708913306
 22
180.7677935384806
 32
0.0
 13
-71.74297708913306
 23
180.7677935384806
 33
0.0
  0
SOLID
  5
11125
330
10331
100
AcDbEntity
  8
10100_FRONT_DIM
  6
Continuous
 62
     0
100
AcDbTrace
 10
-72.24297708913306
 20
202.5177935384807
 30
0.0
 11
-71.24297708913307
 21
202.5177935384807
 31
0.0
 12
-71.74297708913306
 22
205.5177935384807
 32
0.0
 13
-71.74297708913306
 23
205.5177935384807
 33
0.0
  0
MTEXT
  5
11126
330
10331
100
AcDbEntity
  8
10100_FRONT_DIM
  6
Continuous
 62
     0
370
    13
100
AcDbMText
 10
-71.74297708913309
 20
193.1427935384806
 30
0.0
 40
4.5
 41
0.0
 71
     5
 72
     1
  1
\A1;25
 11
0.0000000000000001
 21
1.0
 31
0.0
 73
     1
 44
1.0
1001
ACAD
1000
MTEXTBEGIN
1070
    73
1070
     1
1070
    44
1040
1.0
1070
    74
1070
     0
1000
MTEXTEND
  0
POINT
  5
11127
330
10331
100
AcDbEntity
  8
Defpoints
  6
Continuous
 62
     0
100
AcDbPoint
 10
-48.11878180905688
 20
180.7677935384806
 30
0.0
  0
POINT
  5
11128
330
10331
100
AcDbEntity
  8
Defpoints
  6
Continuous
 62
     0
100
AcDbPoint
 10
-49.00252180905686
 20
205.5177935384806
 30
0.0
  0
POINT
  5
11129
330
10331
100
AcDbEntity
  8
Defpoints
  6
Continuous
 62
     0
100
AcDbPoint
 10
-71.74297708913306
 20
205.5177935384807
 30
0.0
  0
ENDBLK
  5
1033D
330
10331
100
AcDbEntity
  8
0
100
AcDbBlockEnd
  0
BLOCK
  5
1036F
330
10364
100
AcDbEntity
  8
0
100
AcDbBlockBegin
  2
*D4
 70
     1
 10
0.0
 20
0.0
 30
0.0
  3
*D4
  1

  0
LINE
  5
11093
330
10364
100
AcDbEntity
  8
11100_LEFT_DIM
  6
Continuous
 62
     0
370
    -2
100
AcDbLine
 10
87.87606228675725
 20
305.4177935384807
 30
0.0
 11
87.87606228675725
 21
313.9594214364742
 31
0.0
  0
LINE
  5
11094
330
10364
100
AcDbEntity
  8
11100_LEFT_DIM
  6
Continuous
 62
     0
370
    -2
100
AcDbLine
 10
238.0760582867571
 20
305.4177935384807
 30
0.0
 11
238.0760582867571
 21
313.9594214364742
 31
0.0
  0
LINE
  5
11095
330
10364
100
AcDbEntity
  8
11100_LEFT_DIM
  6
Continuous
 62
     0
370
    -2
100
AcDbLine
 10
90.87606228675724
 20
312.9594214364742
 30
0.0
 11
159.4750050109467
 21
312.9594214364742
 31
0.0
  0
LINE
  5
11096
330
10364
100
AcDbEntity
  8
11100_LEFT_DIM
  6
Continuous
 62
     0
370
    -2
100
AcDbLine
 10
235.0760582867571
 20
312.9594214364742
 30
0.0
 11
177.9750050109467
 21
312.9594214364742
 31
0.0
  0
SOLID
  5
11097
330
10364
100
AcDbEntity
  8
11100_LEFT_DIM
  6
Continuous
 62
     0
100
AcDbTrace
 10
90.87606228675724
 20
313.4594214364742
 30
0.0
 11
90.87606228675724
 21
312.4594214364742
 31
0.0
 12
87.87606228675725
 22
312.9594214364742
 32
0.0
 13
87.87606228675725
 23
312.9594214364742
 33
0.0
  0
SOLID
  5
11098
330
10364
100
AcDbEntity
  8
11100_LEFT_DIM
  6
Continuous
 62
     0
100
AcDbTrace
 10
235.0760582867571
 20
313.4594214364742
 30
0.0
 11
235.0760582867571
 21
312.4594214364742
 31
0.0
 12
238.0760582867571
 22
312.9594214364742
 32
0.0
 13
238.0760582867571
 23
312.9594214364742
 33
0.0
  0
MTEXT
  5
11099
330
10364
100
AcDbEntity
  8
11100_LEFT_DIM
  6
Continuous
 62
     0
370
    13
100
AcDbMText
 10
168.7250050109467
 20
312.9594214364742
 30
0.0
 40
4.5
 41
0.0
 71
     5
 72
     1
  1
\A1;150,5
 73
     1
 44
1.0
1001
ACAD
1000
MTEXTBEGIN
1070
    73
1070
     1
1070
    44
1040
1.0
1070
    74
1070
     0
1000
MTEXTEND
  0
POINT
  5
1109A
330
10364
100
AcDbEntity
  8
Defpoints
  6
Continuous
 62
     0
100
AcDbPoint
 10
87.87606228675725
 20
304.4177935384807
 30
0.0
  0
POINT
  5
1109B
330
10364
100
AcDbEntity
  8
Defpoints
  6
Continuous
 62
     0
100
AcDbPoint
 10
238.0760582867571
 20
304.4177935384807
 30
0.0
  0
POINT
  5
1109C
330
10364
100
AcDbEntity
  8
Defpoints
  6
Continuous
 62
     0
100
AcDbPoint
 10
238.0760582867571
 20
312.9594214364742
 30
0.0
  0
ENDBLK
  5
10370
330
10364
100
AcDbEntity
  8
0
100
AcDbBlockEnd
  0
BLOCK
  5
1037C
330
10371
100
AcDbEntity
  8
0
100
AcDbBlockBegin
  2
*D5
 70
     1
 10
0.0
 20
0.0
 30
0.0
  3
*D5
  1

  0
LINE
  5
11089
330
10371
100
AcDbEntity
  8
11100_LEFT_DIM
  6
Continuous
 62
     0
370
    -2
100
AcDbLine
 10
86.87606228675724
 20
304.4177935384808
 30
0.0
 11
73.53358228675728
 21
304.4177935384808
 31
0.0
  0
LINE
  5
1108A
330
10371
100
AcDbEntity
  8
11100_LEFT_DIM
  6
Continuous
 62
     0
370
    -2
100
AcDbLine
 10
86.87606228675724
 20
104.6177935384805
 30
0.0
 11
73.53358228675723
 21
104.6177935384805
 31
0.0
  0
LINE
  5
1108B
330
10371
100
AcDbEntity
  8
11100_LEFT_DIM
  6
Continuous
 62
     0
370
    -2
100
AcDbLine
 10
74.53358228675728
 20
301.4177935384808
 30
0.0
 11
74.53358228675725
 21
210.7677935384806
 31
0.0
  0
LINE
  5
1108C
330
10371
100
AcDbEntity
  8
11100_LEFT_DIM
  6
Continuous
 62
     0
370
    -2
100
AcDbLine
 10
74.53358228675724
 20
107.6177935384805
 30
0.0
 11
74.53358228675725
 21
198.2677935384806
 31
0.0
  0
SOLID
  5
1108D
330
10371
100
AcDbEntity
  8
11100_LEFT_DIM
  6
Continuous
 62
     0
100
AcDbTrace
 10
74.03358228675728
 20
301.4177935384808
 30
0.0
 11
75.03358228675728
 21
301.4177935384808
 31
0.0
 12
74.53358228675728
 22
304.4177935384808
 32
0.0
 13
74.53358228675728
 23
304.4177935384808
 33
0.0
  0
SOLID
  5
1108E
330
10371
100
AcDbEntity
  8
11100_LEFT_DIM
  6
Continuous
 62
     0
100
AcDbTrace
 10
74.03358228675724
 20
107.6177935384805
 30
0.0
 11
75.03358228675724
 21
107.6177935384805
 31
0.0
 12
74.53358228675724
 22
104.6177935384805
 32
0.0
 13
74.53358228675724
 23
104.6177935384805
 33
0.0
  0
MTEXT
  5
1108F
330
10371
100
AcDbEntity
  8
11100_LEFT_DIM
  6
Continuous
 62
     0
370
    13
100
AcDbMText
 10
74.53358228675722
 20
204.5177935384806
 30
0.0
 40
4.5
 41
0.0
 71
     5
 72
     1
  1
\A1;200
 11
0.0000000000000001
 21
1.0
 31
0.0
 73
     1
 44
1.0
1001
ACAD
1000
MTEXTBEGIN
1070
    73
1070
     1
1070
    44
1040
1.0
1070
    74
1070
     0
1000
MTEXTEND
  0
POINT
  5
11090
330
10371
100
AcDbEntity
  8
Defpoints
  6
Continuous
 62
     0
100
AcDbPoint
 10
87.87606228675725
 20
304.4177935384808
 30
0.0
  0
POINT
  5
11091
330
10371
100
AcDbEntity
  8
Defpoints
  6
Continuous
 62
     0
100
AcDbPoint
 10
87.87606228675725
 20
104.6177935384805
 30
0.0
  0
POINT
  5
11092
330
10371
100
AcDbEntity
  8
Defpoints
  6
Continuous
 62
     0
100
AcDbPoint
 10
74.53358228675724
 20
104.6177935384805
 30
0.0
  0
ENDBLK
  5
1037D
330
10371
100
AcDbEntity
  8
0
100
AcDbBlockEnd
  0
BLOCK
  5
10396
330
1038B
100
AcDbEntity
  8
0
100
AcDbBlockBegin
  2
*D6
 70
     1
 10
0.0
 20
0.0
 30
0.0
  3
*D6
  1

  0
LINE
  5
11148
330
1038B
100
AcDbEntity
  8
10100_FRONT_DIM
  6
Continuous
 62
     0
370
    -2
100
AcDbLine
 10
-127.5692518090568
 20
113.5177935384806
 30
0.0
 11
-127.5692518090568
 21
93.88432553848064
 31
0.0
  0
LINE
  5
11149
330
1038B
100
AcDbEntity
  8
10100_FRONT_DIM
  6
Continuous
 62
     0
370
    -2
100
AcDbLine
 10
-123.0692518090568
 20
113.5177935384806
 30
0.0
 11
-123.0692518090568
 21
93.88432553848064
 31
0.0
  0
LINE
  5
1114A
330
1038B
100
AcDbEntity
  8
10100_FRONT_DIM
  6
Continuous
 62
     0
370
    -2
100
AcDbLine
 10
-130.5692518090568
 20
94.88432553848063
 30
0.0
 11
-133.5692518090568
 21
94.88432553848063
 31
0.0
  0
LINE
  5
1114B
330
1038B
100
AcDbEntity
  8
10100_FRONT_DIM
  6
Continuous
 62
     0
370
    -2
100
AcDbLine
 10
-120.0692518090568
 20
94.88432553848063
 30
0.0
 11
-109.1410118090568
 21
94.88432553848063
 31
0.0
  0
LINE
  5
1114C
330
1038B
100
AcDbEntity
  8
10100_FRONT_DIM
  6
Continuous
 62
     0
370
    -2
100
AcDbLine
 10
-127.5692518090568
 20
94.88432553848063
 30
0.0
 11
-123.0692518090568
 21
94.88432553848063
 31
0.0
  0
SOLID
  5
1114D
330
1038B
100
AcDbEntity
  8
10100_FRONT_DIM
  6
Continuous
 62
     0
100
AcDbTrace
 10
-130.5692518090568
 20
95.38432553848066
 30
0.0
 11
-130.5692518090568
 21
94.38432553848064
 31
0.0
 12
-127.5692518090568
 22
94.88432553848063
 32
0.0
 13
-127.5692518090568
 23
94.88432553848063
 33
0.0
  0
SOLID
  5
1114E
330
1038B
100
AcDbEntity
  8
10100_FRONT_DIM
  6
Continuous
 62
     0
100
AcDbTrace
 10
-120.0692518090568
 20
95.38432553848066
 30
0.0
 11
-120.0692518090568
 21
94.38432553848064
 31
0.0
 12
-123.0692518090568
 22
94.88432553848063
 32
0.0
 13
-123.0692518090568
 23
94.88432553848063
 33
0.0
  0
MTEXT
  5
1114F
330
1038B
100
AcDbEntity
  8
10100_FRONT_DIM
  6
Continuous
 62
     0
370
    13
100
AcDbMText
 10
-106.6410118090568
 20
94.88432553848063
 30
0.0
 40
4.5
 41
0.0
 71
     5
 72
     1
  1
\A1;5
 73
     1
 44
1.0
1001
ACAD
1000
MTEXTBEGIN
1070
    73
1070
     1
1070
    44
1040
1.0
1070
    74
1070
     0
1000
MTEXTEND
  0
POINT
  5
11150
330
1038B
100
AcDbEntity
  8
Defpoints
  6
Continuous
 62
     0
100
AcDbPoint
 10
-127.5692518090568
 20
114.5177935384806
 30
0.0
  0
POINT
  5
11151
330
1038B
100
AcDbEntity
  8
Defpoints
  6
Continuous
 62
     0
100
AcDbPoint
 10
-123.0692518090568
 20
114.5177935384806
 30
0.0
  0
POINT
  5
11152
330
1038B
100
AcDbEntity
  8
Defpoints
  6
Continuous
 62
     0
100
AcDbPoint
 10
-123.0692518090568
 20
94.88432553848063
 30
0.0
  0
ENDBLK
  5
10397
330
1038B
100
AcDbEntity
  8
0
100
AcDbBlockEnd
  0
BLOCK
  5
103A3
330
10398
100
AcDbEntity
  8
0
100
AcDbBlockBegin
  2
*D7
 70
     1
 10
0.0
 20
0.0
 30
0.0
  3
*D7
  1

  0
LINE
  5
11102
330
10398
100
AcDbEntity
  8
10100_FRONT_DIM
  6
Continuous
 62
     0
370
    -2
100
AcDbLine
 10
48.43074819094319
 20
103.6177935384806
 30
0.0
 11
48.43074819094319
 21
84.46976128671485
 31
0.0
  0
LINE
  5
11103
330
10398
100
AcDbEntity
  8
10100_FRONT_DIM
  6
Continuous
 62
     0
370
    -2
100
AcDbLine
 10
-131.0692518090568
 20
103.6177935384806
 30
0.0
 11
-131.0692518090568
 21
84.46976128671485
 31
0.0
  0
LINE
  5
11104
330
10398
100
AcDbEntity
  8
10100_FRONT_DIM
  6
Continuous
 62
     0
370
    -2
100
AcDbLine
 10
45.43074819094317
 20
85.46976128671486
 30
0.0
 11
-35.44425180905682
 21
85.46976128671486
 31
0.0
  0
LINE
  5
11105
330
10398
100
AcDbEntity
  8
10100_FRONT_DIM
  6
Continuous
 62
     0
370
    -2
100
AcDbLine
 10
-128.0692518090568
 20
85.46976128671486
 30
0.0
 11
-47.19425180905681
 21
85.46976128671486
 31
0.0
  0
SOLID
  5
11106
330
10398
100
AcDbEntity
  8
10100_FRONT_DIM
  6
Continuous
 62
     0
100
AcDbTrace
 10
45.43074819094317
 20
85.96976128671483
 30
0.0
 11
45.43074819094317
 21
84.96976128671484
 31
0.0
 12
48.43074819094319
 22
85.46976128671486
 32
0.0
 13
48.43074819094319
 23
85.46976128671486
 33
0.0
  0
SOLID
  5
11107
330
10398
100
AcDbEntity
  8
10100_FRONT_DIM
  6
Continuous
 62
     0
100
AcDbTrace
 10
-128.0692518090568
 20
85.96976128671483
 30
0.0
 11
-128.0692518090568
 21
84.96976128671484
 31
0.0
 12
-131.0692518090568
 22
85.46976128671486
 32
0.0
 13
-131.0692518090568
 23
85.46976128671486
 33
0.0
  0
MTEXT
  5
11108
330
10398
100
AcDbEntity
  8
10100_FRONT_DIM
  6
Continuous
 62
     0
370
    13
100
AcDbMText
 10
-41.31925180905682
 20
85.46976128671486
 30
0.0
 40
4.5
 41
0.0
 71
     5
 72
     1
  1
\A1;180
 73
     1
 44
1.0
1001
ACAD
1000
MTEXTBEGIN
1070
    73
1070
     1
1070
    44
1040
1.0
1070
    74
1070
     0
1000
MTEXTEND
  0
POINT
  5
11109
330
10398
100
AcDbEntity
  8
Defpoints
  6
Continuous
 62
     0
100
AcDbPoint
 10
48.43074819094319
 20
104.6177935384805
 30
0.0
  0
POINT
  5
1110A
330
10398
100
AcDbEntity
  8
Defpoints
  6
Continuous
 62
     0
100
AcDbPoint
 10
-131.0692518090568
 20
104.6177935384805
 30
0.0
  0
POINT
  5
1110B
330
10398
100
AcDbEntity
  8
Defpoints
  6
Continuous
 62
     0
100
AcDbPoint
 10
-131.0692518090568
 20
85.46976128671486
 30
0.0
  0
ENDBLK
  5
103A4
330
10398
100
AcDbEntity
  8
0
100
AcDbBlockEnd
  0
BLOCK
  5
103B0
330
103A5
100
AcDbEntity
  8
0
100
AcDbBlockBegin
  2
*D8
 70
     1
 10
0.0
 20
0.0
 30
0.0
  3
*D8
  1

  0
LINE
  5
1106A
330
103A5
100
AcDbEntity
  8
11100_LEFT_DIM
  6
Continuous
 62
     0
370
    -2
100
AcDbLine
 10
87.87606228675725
 20
103.6177935384806
 30
0.0
 11
87.87606228675725
 21
84.68915092629107
 31
0.0
  0
LINE
  5
1106B
330
103A5
100
AcDbEntity
  8
11100_LEFT_DIM
  6
Continuous
 62
     0
370
    -2
100
AcDbLine
 10
250.2760582867572
 20
190.3877935384806
 30
0.0
 11
250.2760582867572
 21
84.68915092629107
 31
0.0
  0
LINE
  5
1106C
330
103A5
100
AcDbEntity
  8
11100_LEFT_DIM
  6
Continuous
 62
     0
370
    -2
100
AcDbLine
 10
90.87606228675724
 20
85.68915092629106
 30
0.0
 11
159.4510622867572
 21
85.68915092629106
 31
0.0
  0
LINE
  5
1106D
330
103A5
100
AcDbEntity
  8
11100_LEFT_DIM
  6
Continuous
 62
     0
370
    -2
100
AcDbLine
 10
247.2760582867572
 20
85.68915092629106
 30
0.0
 11
178.7010622867571
 21
85.68915092629106
 31
0.0
  0
SOLID
  5
1106E
330
103A5
100
AcDbEntity
  8
11100_LEFT_DIM
  6
Continuous
 62
     0
100
AcDbTrace
 10
90.87606228675724
 20
86.18915092629107
 30
0.0
 11
90.87606228675724
 21
85.18915092629105
 31
0.0
 12
87.87606228675725
 22
85.68915092629106
 32
0.0
 13
87.87606228675725
 23
85.68915092629106
 33
0.0
  0
SOLID
  5
1106F
330
103A5
100
AcDbEntity
  8
11100_LEFT_DIM
  6
Continuous
 62
     0
100
AcDbTrace
 10
247.2760582867572
 20
86.18915092629107
 30
0.0
 11
247.2760582867572
 21
85.18915092629105
 31
0.0
 12
250.2760582867572
 22
85.68915092629106
 32
0.0
 13
250.2760582867572
 23
85.68915092629106
 33
0.0
  0
MTEXT
  5
11070
330
103A5
100
AcDbEntity
  8
11100_LEFT_DIM
  6
Continuous
 62
     0
370
    13
100
AcDbMText
 10
169.0760622867571
 20
85.68915092629106
 30
0.0
 40
4.5
 41
0.0
 71
     5
 72
     1
  1
\A1;162,5
 73
     1
 44
1.0
1001
ACAD
1000
MTEXTBEGIN
1070
    73
1070
     1
1070
    44
1040
1.0
1070
    74
1070
     0
1000
MTEXTEND
  0
POINT
  5
11071
330
103A5
100
AcDbEntity
  8
Defpoints
  6
Continuous
 62
     0
100
AcDbPoint
 10
87.87606228675725
 20
104.6177935384805
 30
0.0
  0
POINT
  5
11072
330
103A5
100
AcDbEntity
  8
Defpoints
  6
Continuous
 62
     0
100
AcDbPoint
 10
250.2760582867572
 20
191.3877935384806
 30
0.0
  0
POINT
  5
11073
330
103A5
100
AcDbEntity
  8
Defpoints
  6
Continuous
 62
     0
100
AcDbPoint
 10
250.2760582867572
 20
85.68915092629106
 30
0.0
  0
ENDBLK
  5
103B1
330
103A5
100
AcDbEntity
  8
0
100
AcDbBlockEnd
  0
BLOCK
  5
103BD
330
103B2
100
AcDbEntity
  8
0
100
AcDbBlockBegin
  2
*D9
 70
     1
 10
0.0
 20
0.0
 30
0.0
  3
*D9
  1

  0
LINE
  5
1113E
330
103B2
100
AcDbEntity
  8
10100_FRONT_DIM
  6
Continuous
 62
     0
370
    -2
100
AcDbLine
 10
-125.3192518090568
 20
298.2822735384806
 30
0.0
 11
-125.3192518090568
 21
313.9594214364742
 31
0.0
  0
LINE
  5
1113F
330
103B2
100
AcDbEntity
  8
10100_FRONT_DIM
  6
Continuous
 62
     0
370
    -2
100
AcDbLine
 10
42.68074819094318
 20
297.7677935384806
 30
0.0
 11
42.68074819094318
 21
313.9594214364742
 31
0.0
  0
LINE
  5
11140
330
103B2
100
AcDbEntity
  8
10100_FRONT_DIM
  6
Continuous
 62
     0
370
    -2
100
AcDbLine
 10
-122.3192518090568
 20
312.9594214364742
 30
0.0
 11
-47.56925180905681
 21
312.9594214364742
 31
0.0
  0
LINE
  5
11141
330
103B2
100
AcDbEntity
  8
10100_FRONT_DIM
  6
Continuous
 62
     0
370
    -2
100
AcDbLine
 10
39.68074819094318
 20
312.9594214364742
 30
0.0
 11
-35.06925180905682
 21
312.9594214364742
 31
0.0
  0
SOLID
  5
11142
330
103B2
100
AcDbEntity
  8
10100_FRONT_DIM
  6
Continuous
 62
     0
100
AcDbTrace
 10
-122.3192518090568
 20
313.4594214364742
 30
0.0
 11
-122.3192518090568
 21
312.4594214364742
 31
0.0
 12
-125.3192518090568
 22
312.9594214364742
 32
0.0
 13
-125.3192518090568
 23
312.9594214364742
 33
0.0
  0
SOLID
  5
11143
330
103B2
100
AcDbEntity
  8
10100_FRONT_DIM
  6
Continuous
 62
     0
100
AcDbTrace
 10
39.68074819094318
 20
313.4594214364742
 30
0.0
 11
39.68074819094318
 21
312.4594214364742
 31
0.0
 12
42.68074819094318
 22
312.9594214364742
 32
0.0
 13
42.68074819094318
 23
312.9594214364742
 33
0.0
  0
MTEXT
  5
11144
330
103B2
100
AcDbEntity
  8
10100_FRONT_DIM
  6
Continuous
 62
     0
370
    13
100
AcDbMText
 10
-41.31925180905682
 20
312.9594214364742
 30
0.0
 40
4.5
 41
0.0
 71
     5
 72
     1
  1
\A1;168
 73
     1
 44
1.0
1001
ACAD
1000
MTEXTBEGIN
1070
    73
1070
     1
1070
    44
1040
1.0
1070
    74
1070
     0
1000
MTEXTEND
  0
POINT
  5
11145
330
103B2
100
AcDbEntity
  8
Defpoints
  6
Continuous
 62
     0
100
AcDbPoint
 10
-125.3192518090568
 20
297.2822735384806
 30
0.0
  0
POINT
  5
11146
330
103B2
100
AcDbEntity
  8
Defpoints
  6
Continuous
 62
     0
100
AcDbPoint
 10
42.68074819094318
 20
296.7677935384806
 30
0.0
  0
POINT
  5
11147
330
103B2
100
AcDbEntity
  8
Defpoints
  6
Continuous
 62
     0
100
AcDbPoint
 10
42.68074819094318
 20
312.9594214364742
 30
0.0
  0
ENDBLK
  5
103BE
330
103B2
100
AcDbEntity
  8
0
100
AcDbBlockEnd
  0
BLOCK
  5
103CA
330
103BF
100
AcDbEntity
  8
0
100
AcDbBlockBegin
  2
*D10
 70
     1
 10
0.0
 20
0.0
 30
0.0
  3
*D10
  1

  0
LINE
  5
11134
330
103BF
100
AcDbEntity
  8
10100_FRONT_DIM
  6
Continuous
 62
     0
370
    -2
100
AcDbLine
 10
-129.2921318090568
 20
294.5177935384806
 30
0.0
 11
-138.2089218090568
 21
294.5177935384806
 31
0.0
  0
LINE
  5
11135
330
103BF
100
AcDbEntity
  8
10100_FRONT_DIM
  6
Continuous
 62
     0
370
    -2
100
AcDbLine
 10
-129.2921318090568
 20
114.5177935384806
 30
0.0
 11
-138.2089218090568
 21
114.5177935384806
 31
0.0
  0
LINE
  5
11136
330
103BF
100
AcDbEntity
  8
10100_FRONT_DIM
  6
Continuous
 62
     0
370
    -2
100
AcDbLine
 10
-137.2089218090568
 20
291.5177935384806
 30
0.0
 11
-137.2089218090568
 21
210.3927935384807
 31
0.0
  0
LINE
  5
11137
330
103BF
100
AcDbEntity
  8
10100_FRONT_DIM
  6
Continuous
 62
     0
370
    -2
100
AcDbLine
 10
-137.2089218090568
 20
117.5177935384806
 30
0.0
 11
-137.2089218090568
 21
198.6427935384807
 31
0.0
  0
SOLID
  5
11138
330
103BF
100
AcDbEntity
  8
10100_FRONT_DIM
  6
Continuous
 62
     0
100
AcDbTrace
 10
-137.7089218090568
 20
291.5177935384806
 30
0.0
 11
-136.7089218090568
 21
291.5177935384806
 31
0.0
 12
-137.2089218090568
 22
294.5177935384806
 32
0.0
 13
-137.2089218090568
 23
294.5177935384806
 33
0.0
  0
SOLID
  5
11139
330
103BF
100
AcDbEntity
  8
10100_FRONT_DIM
  6
Continuous
 62
     0
100
AcDbTrace
 10
-137.7089218090568
 20
117.5177935384806
 30
0.0
 11
-136.7089218090568
 21
117.5177935384806
 31
0.0
 12
-137.2089218090568
 22
114.5177935384806
 32
0.0
 13
-137.2089218090568
 23
114.5177935384806
 33
0.0
  0
MTEXT
  5
1113A
330
103BF
100
AcDbEntity
  8
10100_FRONT_DIM
  6
Continuous
 62
     0
370
    13
100
AcDbMText
 10
-137.2089218090569
 20
204.5177935384806
 30
0.0
 40
4.5
 41
0.0
 71
     5
 72
     1
  1
\A1;180
 11
0.0000000000000001
 21
1.0
 31
0.0
 73
     1
 44
1.0
1001
ACAD
1000
MTEXTBEGIN
1070
    73
1070
     1
1070
    44
1040
1.0
1070
    74
1070
     0
1000
MTEXTEND
  0
POINT
  5
1113B
330
103BF
100
AcDbEntity
  8
Defpoints
  6
Continuous
 62
     0
100
AcDbPoint
 10
-128.2921318090568
 20
294.5177935384806
 30
0.0
  0
POINT
  5
1113C
330
103BF
100
AcDbEntity
  8
Defpoints
  6
Continuous
 62
     0
100
AcDbPoint
 10
-128.2921318090568
 20
114.5177935384806
 30
0.0
  0
POINT
  5
1113D
330
103BF
100
AcDbEntity
  8
Defpoints
  6
Continuous
 62
     0
100
AcDbPoint
 10
-137.2089218090568
 20
114.5177935384806
 30
0.0
  0
ENDBLK
  5
103CB
330
103BF
100
AcDbEntity
  8
0
100
AcDbBlockEnd
  0
BLOCK
  5
103D7
330
103CC
100
AcDbEntity
  8
0
100
AcDbBlockBegin
  2
*D11
 70
     1
 10
0.0
 20
0.0
 30
0.0
  3
*D11
  1

  0
LINE
  5
11116
330
103CC
100
AcDbEntity
  8
10100_FRONT_DIM
  6
Continuous
 62
     0
370
    -2
100
AcDbLine
 10
-35.0622918090569
 20
239.0177935384807
 30
0.0
 11
64.32201872613243
 21
239.0177935384807
 31
0.0
  0
LINE
  5
11117
330
103CC
100
AcDbEntity
  8
10100_FRONT_DIM
  6
Continuous
 62
     0
370
    -2
100
AcDbLine
 10
-35.0622918090569
 20
170.0177935384806
 30
0.0
 11
64.32201872613244
 21
170.0177935384806
 31
0.0
  0
LINE
  5
11118
330
103CC
100
AcDbEntity
  8
10100_FRONT_DIM
  6
Continuous
 62
     0
370
    -2
100
AcDbLine
 10
63.32201872613243
 20
236.0177935384807
 30
0.0
 11
63.32201872613243
 21
207.6601296927802
 31
0.0
  0
LINE
  5
11119
330
103CC
100
AcDbEntity
  8
10100_FRONT_DIM
  6
Continuous
 62
     0
370
    -2
100
AcDbLine
 10
63.32201872613242
 20
173.0177935384806
 30
0.0
 11
63.32201872613243
 21
198.1601296927802
 31
0.0
  0
SOLID
  5
1111A
330
103CC
100
AcDbEntity
  8
10100_FRONT_DIM
  6
Continuous
 62
     0
100
AcDbTrace
 10
62.82201872613243
 20
236.0177935384807
 30
0.0
 11
63.82201872613244
 21
236.0177935384807
 31
0.0
 12
63.32201872613243
 22
239.0177935384807
 32
0.0
 13
63.32201872613243
 23
239.0177935384807
 33
0.0
  0
SOLID
  5
1111B
330
103CC
100
AcDbEntity
  8
10100_FRONT_DIM
  6
Continuous
 62
     0
100
AcDbTrace
 10
62.82201872613242
 20
173.0177935384806
 30
0.0
 11
63.82201872613242
 21
173.0177935384806
 31
0.0
 12
63.32201872613242
 22
170.0177935384806
 32
0.0
 13
63.32201872613242
 23
170.0177935384806
 33
0.0
  0
MTEXT
  5
1111C
330
103CC
100
AcDbEntity
  8
10100_FRONT_DIM
  6
Continuous
 62
     0
370
    13
100
AcDbMText
 10
63.32201872613239
 20
202.9101296927802
 30
0.0
 40
4.5
 41
0.0
 71
     5
 72
     1
  1
\A1;69
 11
0.0000000000000001
 21
1.0
 31
0.0
 73
     1
 44
1.0
1001
ACAD
1000
MTEXTBEGIN
1070
    73
1070
     1
1070
    44
1040
1.0
1070
    74
1070
     0
1000
MTEXTEND
  0
POINT
  5
1111D
330
103CC
100
AcDbEntity
  8
Defpoints
  6
Continuous
 62
     0
100
AcDbPoint
 10
-36.06229180905689
 20
239.0177935384807
 30
0.0
  0
POINT
  5
1111E
330
103CC
100
AcDbEntity
  8
Defpoints
  6
Continuous
 62
     0
100
AcDbPoint
 10
-36.06229180905689
 20
170.0177935384806
 30
0.0
  0
POINT
  5
1111F
330
103CC
100
AcDbEntity
  8
Defpoints
  6
Continuous
 62
     0
100
AcDbPoint
 10
63.32201872613242
 20
170.0177935384806
 30
0.0
  0
ENDBLK
  5
103D8
330
103CC
100
AcDbEntity
  8
0
100
AcDbBlockEnd
  0
BLOCK
  5
103E4
330
103D9
100
AcDbEntity
  8
0
100
AcDbBlockBegin
  2
*D12
 70
     1
 10
0.0
 20
0.0
 30
0.0
  3
*D12
  1

  0
LINE
  5
1110C
330
103D9
100
AcDbEntity
  8
10100_FRONT_DIM
  6
Continuous
 62
     0
370
    -2
100
AcDbLine
 10
-33.9668718090569
 20
228.2677935384807
 30
0.0
 11
57.21407798905621
 21
228.2677935384807
 31
0.0
  0
LINE
  5
1110D
330
103D9
100
AcDbEntity
  8
10100_FRONT_DIM
  6
Continuous
 62
     0
370
    -2
100
AcDbLine
 10
-33.9668718090569
 20
180.7677935384806
 30
0.0
 11
57.21407798905621
 21
180.7677935384806
 31
0.0
  0
LINE
  5
1110E
330
103D9
100
AcDbEntity
  8
10100_FRONT_DIM
  6
Continuous
 62
     0
370
    -2
100
AcDbLine
 10
56.21407798905622
 20
225.2677935384807
 30
0.0
 11
56.21407798905622
 21
209.2677935384807
 31
0.0
  0
LINE
  5
1110F
330
103D9
100
AcDbEntity
  8
10100_FRONT_DIM
  6
Continuous
 62
     0
370
    -2
100
AcDbLine
 10
56.21407798905622
 20
183.7677935384806
 30
0.0
 11
56.21407798905622
 21
199.7677935384806
 31
0.0
  0
SOLID
  5
11110
330
103D9
100
AcDbEntity
  8
10100_FRONT_DIM
  6
Continuous
 62
     0
100
AcDbTrace
 10
55.71407798905622
 20
225.2677935384807
 30
0.0
 11
56.71407798905621
 21
225.2677935384807
 31
0.0
 12
56.21407798905622
 22
228.2677935384807
 32
0.0
 13
56.21407798905622
 23
228.2677935384807
 33
0.0
  0
SOLID
  5
11111
330
103D9
100
AcDbEntity
  8
10100_FRONT_DIM
  6
Continuous
 62
     0
100
AcDbTrace
 10
55.71407798905621
 20
183.7677935384806
 30
0.0
 11
56.71407798905621
 21
183.7677935384806
 31
0.0
 12
56.21407798905622
 22
180.7677935384806
 32
0.0
 13
56.21407798905622
 23
180.7677935384806
 33
0.0
  0
MTEXT
  5
11112
330
103D9
100
AcDbEntity
  8
10100_FRONT_DIM
  6
Continuous
 62
     0
370
    13
100
AcDbMText
 10
56.21407798905618
 20
204.5177935384806
 30
0.0
 40
4.5
 41
0.0
 71
     5
 72
     1
  1
\A1;48
 11
0.0000000000000001
 21
1.0
 31
0.0
 73
     1
 44
1.0
1001
ACAD
1000
MTEXTBEGIN
1070
    73
1070
     1
1070
    44
1040
1.0
1070
    74
1070
     0
1000
MTEXTEND
  0
POINT
  5
11113
330
103D9
100
AcDbEntity
  8
Defpoints
  6
Continuous
 62
     0
100
AcDbPoint
 10
-34.9668718090569
 20
228.2677935384807
 30
0.0
  0
POINT
  5
11114
330
103D9
100
AcDbEntity
  8
Defpoints
  6
Continuous
 62
     0
100
AcDbPoint
 10
-34.9668718090569
 20
180.7677935384806
 30
0.0
  0
POINT
  5
11115
330
103D9
100
AcDbEntity
  8
Defpoints
  6
Continuous
 62
     0
100
AcDbPoint
 10
56.21407798905622
 20
180.7677935384806
 30
0.0
  0
ENDBLK
  5
103E5
330
103D9
100
AcDbEntity
  8
0
100
AcDbBlockEnd
  0
BLOCK
  5
103F1
330
103E6
100
AcDbEntity
  8
0
100
AcDbBlockBegin
  2
*D13
 70
     1
 10
0.0
 20
0.0
 30
0.0
  3
*D13
  1

  0
LINE
  5
11038
330
103E6
100
AcDbEntity
  8
11100_LEFT_DIM
  6
Continuous
 62
     0
370
    -2
100
AcDbLine
 10
87.87606228675725
 20
103.6177935384806
 30
0.0
 11
87.87606228675725
 21
92.97864419970323
 31
0.0
  0
LINE
  5
11039
330
103E6
100
AcDbEntity
  8
11100_LEFT_DIM
  6
Continuous
 62
     0
370
    -2
100
AcDbLine
 10
215.3760582867573
 20
161.2177935384806
 30
0.0
 11
215.3760582867573
 21
92.97864419970323
 31
0.0
  0
LINE
  5
1103A
330
103E6
100
AcDbEntity
  8
11100_LEFT_DIM
  6
Continuous
 62
     0
370
    -2
100
AcDbLine
 10
90.87606228675724
 20
93.97864419970323
 30
0.0
 11
145.3760622867572
 21
93.97864419970323
 31
0.0
  0
LINE
  5
1103B
330
103E6
100
AcDbEntity
  8
11100_LEFT_DIM
  6
Continuous
 62
     0
370
    -2
100
AcDbLine
 10
212.3760582867573
 20
93.97864419970323
 30
0.0
 11
157.8760622867572
 21
93.97864419970323
 31
0.0
  0
SOLID
  5
1103C
330
103E6
100
AcDbEntity
  8
11100_LEFT_DIM
  6
Continuous
 62
     0
100
AcDbTrace
 10
90.87606228675724
 20
94.47864419970324
 30
0.0
 11
90.87606228675724
 21
93.47864419970324
 31
0.0
 12
87.87606228675725
 22
93.97864419970323
 32
0.0
 13
87.87606228675725
 23
93.97864419970323
 33
0.0
  0
SOLID
  5
1103D
330
103E6
100
AcDbEntity
  8
11100_LEFT_DIM
  6
Continuous
 62
     0
100
AcDbTrace
 10
212.3760582867573
 20
94.47864419970324
 30
0.0
 11
212.3760582867573
 21
93.47864419970324
 31
0.0
 12
215.3760582867573
 22
93.97864419970323
 32
0.0
 13
215.3760582867573
 23
93.97864419970323
 33
0.0
  0
MTEXT
  5
1103E
330
103E6
100
AcDbEntity
  8
11100_LEFT_DIM
  6
Continuous
 62
     0
370
    13
100
AcDbMText
 10
151.6260622867572
 20
93.97864419970323
 30
0.0
 40
4.5
 41
0.0
 71
     5
 72
     1
  1
\A1;127
 73
     1
 44
1.0
1001
ACAD
1000
MTEXTBEGIN
1070
    73
1070
     1
1070
    44
1040
1.0
1070
    74
1070
     0
1000
MTEXTEND
  0
POINT
  5
1103F
330
103E6
100
AcDbEntity
  8
Defpoints
  6
Continuous
 62
     0
100
AcDbPoint
 10
87.87606228675725
 20
104.6177935384805
 30
0.0
  0
POINT
  5
11040
330
103E6
100
AcDbEntity
  8
Defpoints
  6
Continuous
 62
     0
100
AcDbPoint
 10
215.3760582867573
 20
162.2177935384805
 30
0.0
  0
POINT
  5
11041
330
103E6
100
AcDbEntity
  8
Defpoints
  6
Continuous
 62
     0
100
AcDbPoint
 10
215.3760582867573
 20
93.97864419970323
 30
0.0
  0
ENDBLK
  5
103F2
330
103E6
100
AcDbEntity
  8
0
100
AcDbBlockEnd
  0
ENDSEC
  0
SECTION
  2
ENTITIES
  0
INSERT
  5
C5B
330
1F
100
AcDbEntity
  8
90000_FRAME
  6
Continuous
 62
     7
100
AcDbBlockReference
  2
SIEMENS_OUTLINE_BL0
 10
49.88743841592327
 20
49.88556725432579
 30
0.0
  0
LINE
  5
C5C
330
1F
100
AcDbEntity
  8
90000_FRAME
  6
Continuous
 62
     7
100
AcDbLine
 10
117.2415410320022
 20
60.22382648192911
 30
0.0
 11
252.2415410320022
 21
60.22382648192911
 31
0.0
  0
LINE
  5
C5D
330
1F
100
AcDbEntity
  8
90000_FRAME
  6
Continuous
 62
     7
100
AcDbLine
 10
117.2415410320022
 20
60.22382648192911
 30
0.0
 11
117.2415410320022
 21
78.22382648192911
 31
0.0
  0
LINE
  5
C5E
330
1F
100
AcDbEntity
  8
90000_FRAME
  6
Continuous
 62
     7
100
AcDbLine
 10
167.2415410320021
 20
66.2238264819291
 30
0.0
 11
252.2415410320022
 21
66.2238264819291
 31
0.0
  0
LINE
  5
C5F
330
1F
100
AcDbEntity
  8
90000_FRAME
  6
Continuous
 62
     7
100
AcDbLine
 10
117.2415410320022
 20
78.22382648192911
 30
0.0
 11
252.2415410320022
 21
78.22382648192911
 31
0.0
  0
LINE
  5
C60
330
1F
100
AcDbEntity
  8
90000_FRAME
  6
Continuous
 62
     7
100
AcDbLine
 10
167.2415410320021
 20
60.22382648192911
 30
0.0
 11
167.2415410320021
 21
78.22382648192911
 31
0.0
  0
LINE
  5
C61
330
1F
100
AcDbEntity
  8
90000_FRAME
  6
Continuous
 62
     7
100
AcDbLine
 10
209.7415410320023
 20
60.22382648192911
 30
0.0
 11
209.7415410320023
 21
66.2238264819291
 31
0.0
  0
LINE
  5
C62
330
1F
100
AcDbEntity
  8
90000_FRAME
  6
Continuous
 62
     7
100
AcDbLine
 10
252.2415410320022
 20
60.22382648192911
 30
0.0
 11
252.2415410320022
 21
78.22382648192911
 31
0.0
  0
TEXT
  5
C63
330
1F
100
AcDbEntity
  8
90000_FRAME
  6
Continuous
 62
     7
100
AcDbText
 10
167.9015410320021
 20
62.12382648192908
 30
0.0
 40
2.2
  1
Format / Size: DIN A3
 41
0.7994987468660266
 72
     5
 11
201.320588651002
 21
62.12382648192908
 31
0.0
100
AcDbText
  0
TEXT
  5
C64
330
1F
100
AcDbEntity
  8
90000_FRAME
  6
Continuous
 62
     7
100
AcDbText
 10
210.4015410320021
 20
62.12382648192908
 30
0.0
 40
2.2
  1
Massstab / Scale: 1:1
 41
0.7732634338148426
 72
     5
 11
241.306302936802
 21
62.12382648192908
 31
0.0
100
AcDbText
  0
TEXT
  5
C65
330
1F
100
AcDbEntity
  8
90000_FRAME
  6
Continuous
 62
     7
100
AcDbText
 10
180.547465555953
 20
70.47382648192911
 30
0.0
 40
3.5
  1
3RF2390_00000396_000_ALL
 41
0.720672482309557
 72
     5
 11
236.4596389751361
 21
70.47382648192911
 31
0.0
100
AcDbText
  0
LINE
  5
C66
330
1F
100
AcDbEntity
  8
90000_FRAME
  6
Continuous
 62
     7
100
AcDbLine
 10
-147.7584589679968
 20
50.22382648192911
 30
0.0
 11
262.2415410320032
 21
50.22382648192911
 31
0.0
  0
LINE
  5
C67
330
1F
100
AcDbEntity
  8
90000_FRAME
  6
Continuous
 62
     7
100
AcDbLine
 10
262.2415410320032
 20
50.22382648192911
 30
0.0
 11
262.2415410320032
 21
320.2238264819291
 31
0.0
  0
TEXT
  5
C68
330
1F
100
AcDbEntity
  8
91000_TIP
  6
Continuous
 62
     7
100
AcDbText
 10
-143.7051091853329
 20
58.95606310360578
 30
0.0
 40
2.5
  1
Alle Bemassungswerte sind in Millimeter (mm) angegeben.
 41
0.6056311217924568
 72
     5
 11
-70.01998936725062
 21
58.95606310360578
 31
0.0
100
AcDbText
  0
TEXT
  5
C69
330
1F
100
AcDbEntity
  8
91000_TIP
  6
Continuous
 62
     7
100
AcDbText
 10
-143.7051091853329
 20
53.70606310360578
 30
0.0
 40
2.5
  1
All dimensions are in millimeters (mm).
 41
0.7513350295680256
 72
     5
 11
-83.59830681989086
 21
53.70606310360578
 31
0.0
100
AcDbText
  0
LINE
  5
C6A
330
1F
100
AcDbEntity
  8
91000_TIP
  6
Continuous
 62
     7
100
AcDbLine
 10
92.0562111360282
 20
71.5475640042997
 30
0.0
 11
102.0562109318282
 21
74.04756395329968
 31
0.0
  0
LINE
  5
C6B
330
1F
100
AcDbEntity
  8
91000_TIP
  6
CENTER
 62
     7
100
AcDbLine
 10
90.77670066402719
 20
69.04756405539972
 30
0.0
 11
114.3786899281272
 21
69.04756405539972
 31
0.0
  0
LINE
  5
C6C
330
1F
100
AcDbEntity
  8
91000_TIP
  6
Continuous
 62
     7
100
AcDbLine
 10
92.0562111360282
 20
66.54756410649969
 30
0.0
 11
102.0562109318282
 21
64.04756415749961
 31
0.0
  0
LINE
  5
C6D
330
1F
100
AcDbEntity
  8
91000_TIP
  6
Continuous
 62
     7
100
AcDbLine
 10
92.0562111360282
 20
71.5475640042997
 30
0.0
 11
92.0562111360282
 21
66.54756410649969
 31
0.0
  0
LINE
  5
C6E
330
1F
100
AcDbEntity
  8
91000_TIP
  6
Continuous
 62
     7
100
AcDbLine
 10
102.0562109318282
 20
74.04756395329968
 30
0.0
 11
102.0562109318282
 21
64.04756415749961
 31
0.0
  0
LINE
  5
C6F
330
1F
100
AcDbEntity
  8
91000_TIP
  6
CENTER
 62
     7
100
AcDbLine
 10
108.5562107990281
 20
63.3260828489997
 30
0.0
 11
108.5562107990281
 21
74.60946884899965
 31
0.0
  0
CIRCLE
  5
C70
330
1F
100
AcDbEntity
  8
91000_TIP
  6
Continuous
 62
     7
100
AcDbCircle
 10
108.5562107990281
 20
69.04756405539972
 30
0.0
 40
4.9999998979
  0
CIRCLE
  5
C71
330
1F
100
AcDbEntity
  8
91000_TIP
  6
Continuous
 62
     7
100
AcDbCircle
 10
108.5562107990281
 20
69.04756405539972
 30
0.0
 40
2.499999948899997
  0
LINE
  5
E39B
330
1F
100
AcDbEntity
  8
90000_FRAME
  6
Continuous
 62
     7
100
AcDbLine
 10
-147.7584589679968
 20
50.22382648192911
 30
0.0
 11
-147.7584589679968
 21
320.223826481929
 31
0.0
  0
LINE
  5
E39C
330
1F
100
AcDbEntity
  8
90000_FRAME
  6
Continuous
 62
     7
100
AcDbLine
 10
-147.7584589679968
 20
320.223826481929
 30
0.0
 11
262.2415410320032
 21
320.2238264819291
 31
0.0
  0
DIMENSION
  5
FD44
330
1F
100
AcDbEntity
  8
10100_FRONT_DIM
  6
Continuous
 62
     7
370
    13
100
AcDbDimension
  2
*D2
 10
-59.19103180905685
 20
195.2377935384806
 30
0.0
 11
-59.19103180905688
 21
188.0027935384806
 31
0.0
 70
   160
 71
     5
 42
14.46999999999997
  3
DSTYLE1
100
AcDbAlignedDimension
 13
-48.11878180905688
 23
180.7677935384806
 33
0.0
 14
-47.56892180905686
 24
195.2377935384806
 34
0.0
 50
90.0
100
AcDbRotatedDimension
1001
ACAD
1000
DSTYLE
1002
{
1070
    42
1040
1.0
1070
    43
1040
1.0
1070
    47
1040
0.005
1070
    48
1040
-0.005
1070
    77
1070
     0
1070
    78
1070
     0
1070
   140
1040
4.5
1070
   143
1040
25.4
1070
   171
1070
     0
1070
   172
1070
     1
1070
   271
1070
     0
1070
   272
1070
     1
1070
   277
1070
     6
1070
   279
1070
     0
1002
}
  0
DIMENSION
  5
FD45
330
1F
100
AcDbEntity
  8
10100_FRONT_DIM
  6
Continuous
 62
     7
370
    13
100
AcDbDimension
  2
*D3
 10
-71.74297708913306
 20
205.5177935384807
 30
0.0
 11
-71.74297708913309
 21
193.1427935384806
 31
0.0
 70
   160
 71
     5
 42
24.75
  3
DSTYLE1
100
AcDbAlignedDimension
 13
-48.11878180905688
 23
180.7677935384806
 33
0.0
 14
-49.00252180905686
 24
205.5177935384806
 34
0.0
 50
90.0
100
AcDbRotatedDimension
1001
ACAD
1000
DSTYLE
1002
{
1070
    42
1040
1.0
1070
    43
1040
1.0
1070
    47
1040
0.005
1070
    48
1040
-0.005
1070
    77
1070
     0
1070
    78
1070
     0
1070
   140
1040
4.5
1070
   143
1040
25.4
1070
   171
1070
     0
1070
   172
1070
     1
1070
   271
1070
     0
1070
   272
1070
     1
1070
   277
1070
     6
1070
   279
1070
     0
1002
}
  0
LINE
  5
101D0
330
1F
100
AcDbEntity
  8
10000_FRONT
 62
     7
370
    50
100
AcDbLine
 39
0.7
 10
-131.0692518090568
 20
304.4177935384807
 30
0.0
 11
-131.0692518090568
 21
104.6177935384805
 31
0.0
  0
LINE
  5
101D1
330
1F
100
AcDbEntity
  8
10000_FRONT
 62
     7
370
    50
100
AcDbLine
 39
0.7
 10
48.43064819094315
 20
104.6177935384805
 30
0.0
 11
48.43064819094315
 21
304.4178135384806
 31
0.0
  0
LINE
  5
101D2
330
1F
100
AcDbEntity
  8
10000_FRONT
  6
Continuous
 62
     7
370
    13
100
AcDbLine
 10
-116.5692518090568
 20
304.4177935384807
 30
0.0
 11
-116.5692518090568
 21
104.6177935384805
 31
0.0
  0
LINE
  5
101D3
330
1F
100
AcDbEntity
  8
10000_FRONT
  6
Continuous
 62
     7
370
    13
100
AcDbLine
 10
-67.31925180905682
 20
104.6177935384805
 30
0.0
 11
-67.31925180905682
 21
304.4177935384807
 31
0.0
  0
LINE
  5
101D4
330
1F
100
AcDbEntity
  8
10000_FRONT
  6
Continuous
 62
     7
370
    13
100
AcDbLine
 10
-64.31925180905682
 20
104.6177935384805
 30
0.0
 11
-64.31925180905682
 21
304.4177935384807
 31
0.0
  0
LINE
  5
101D5
330
1F
100
AcDbEntity
  8
10000_FRONT
  6
Continuous
 62
     7
370
    13
100
AcDbLine
 10
-18.31925180905682
 20
304.4177935384807
 30
0.0
 11
-18.31925180905682
 21
104.6177935384805
 31
0.0
  0
LINE
  5
101D6
330
1F
100
AcDbEntity
  8
10000_FRONT
  6
Continuous
 62
     7
370
    13
100
AcDbLine
 10
-15.31925180905682
 20
304.4177935384807
 30
0.0
 11
-15.31925180905682
 21
104.6177935384805
 31
0.0
  0
LINE
  5
101D7
330
1F
100
AcDbEntity
  8
10000_FRONT
  6
Continuous
 62
     7
370
    13
100
AcDbLine
 10
33.93074819094318
 20
104.6177935384805
 30
0.0
 11
33.93074819094318
 21
304.4177935384807
 31
0.0
  0
CIRCLE
  5
101D8
330
1F
100
AcDbEntity
  8
10000_FRONT
  6
Continuous
 62
     7
370
    20
100
AcDbCircle
 10
42.68074819094318
 20
114.5177935384806
 30
0.0
 40
2.25
  0
CIRCLE
  5
101D9
330
1F
100
AcDbEntity
  8
10000_FRONT
  6
Continuous
 62
     7
370
    20
100
AcDbCircle
 10
42.68074819094318
 20
294.5177935384806
 30
0.0
 40
2.25
  0
CIRCLE
  5
101DA
330
1F
100
AcDbEntity
  8
10000_FRONT
  6
Continuous
 62
     7
370
    20
100
AcDbCircle
 10
-125.3192518090568
 20
294.5177935384806
 30
0.0
 40
2.25
  0
CIRCLE
  5
101DB
330
1F
100
AcDbEntity
  8
10000_FRONT
  6
Continuous
 62
     7
370
    20
100
AcDbCircle
 10
-125.3192518090568
 20
114.5177935384806
 30
0.0
 40
2.25
  0
LINE
  5
101DC
330
1F
100
AcDbEntity
  8
10000_FRONT
  6
Continuous
 62
     7
370
    13
100
AcDbLine
 10
-51.51925180905686
 20
244.7177935384806
 30
0.0
 11
-51.51925180905686
 21
304.4177935384807
 31
0.0
  0
LINE
  5
101DD
330
1F
100
AcDbEntity
  8
10000_FRONT
  6
Continuous
 62
     7
370
    13
100
AcDbLine
 10
-51.51925180905686
 20
104.6177935384805
 30
0.0
 11
-51.51925180905686
 21
164.3177935384806
 31
0.0
  0
LINE
  5
101DE
330
1F
100
AcDbEntity
  8
10000_FRONT
  6
Continuous
 62
     7
370
    13
100
AcDbLine
 10
-31.11925180905689
 20
244.7177935384806
 30
0.0
 11
-31.11925180905689
 21
304.4177935384807
 31
0.0
  0
LINE
  5
101DF
330
1F
100
AcDbEntity
  8
10000_FRONT
  6
Continuous
 62
     7
370
    13
100
AcDbLine
 10
-31.11925180905689
 20
104.6177935384805
 30
0.0
 11
-31.11925180905689
 21
164.3177935384806
 31
0.0
  0
LINE
  5
101E0
330
1F
100
AcDbEntity
  8
10000_FRONT
 62
     7
370
    50
100
AcDbLine
 39
0.7
 10
33.93074819094318
 20
304.4177935384807
 30
0.0
 11
36.43074819094318
 21
304.4177935384807
 31
0.0
  0
LINE
  5
101E1
330
1F
100
AcDbEntity
  8
10000_FRONT
 62
     7
370
    50
100
AcDbLine
 39
0.7
 10
-15.31925180905682
 20
304.4177935384807
 30
0.0
 11
33.93074819094318
 21
304.4177935384807
 31
0.0
  0
LINE
  5
101E2
330
1F
100
AcDbEntity
  8
10000_FRONT
 62
     7
370
    50
100
AcDbLine
 39
0.7
 10
-16.31925180905682
 20
304.4177935384807
 30
0.0
 11
-15.31925180905682
 21
304.4177935384807
 31
0.0
  0
LINE
  5
101E3
330
1F
100
AcDbEntity
  8
10000_FRONT
 62
     7
370
    50
100
AcDbLine
 39
0.7
 10
-18.31925180905682
 20
304.4177935384807
 30
0.0
 11
-16.31925180905682
 21
304.4177935384807
 31
0.0
  0
LINE
  5
101E4
330
1F
100
AcDbEntity
  8
10000_FRONT
 62
     7
370
    50
100
AcDbLine
 39
0.7
 10
-30.11925180905689
 20
304.4177935384807
 30
0.0
 11
-18.31925180905682
 21
304.4177935384807
 31
0.0
  0
LINE
  5
101E5
330
1F
100
AcDbEntity
  8
10000_FRONT
 62
     7
370
    50
100
AcDbLine
 39
0.7
 10
-30.81925180905682
 20
304.4177935384807
 30
0.0
 11
-30.11925180905689
 21
304.4177935384807
 31
0.0
  0
LINE
  5
101E6
330
1F
100
AcDbEntity
  8
10000_FRONT
 62
     7
370
    50
100
AcDbLine
 39
0.7
 10
-31.11925180905689
 20
304.4177935384807
 30
0.0
 11
-30.81925180905682
 21
304.4177935384807
 31
0.0
  0
LINE
  5
101E7
330
1F
100
AcDbEntity
  8
10000_FRONT
 62
     7
370
    50
100
AcDbLine
 39
0.7
 10
-51.51925180905686
 20
304.4177935384807
 30
0.0
 11
-31.11925180905689
 21
304.4177935384807
 31
0.0
  0
LINE
  5
101E8
330
1F
100
AcDbEntity
  8
10000_FRONT
 62
     7
370
    50
100
AcDbLine
 39
0.7
 10
-51.81925180905682
 20
304.4177935384807
 30
0.0
 11
-51.51925180905686
 21
304.4177935384807
 31
0.0
  0
LINE
  5
101E9
330
1F
100
AcDbEntity
  8
10000_FRONT
 62
     7
370
    50
100
AcDbLine
 39
0.7
 10
-52.51925180905686
 20
304.4177935384807
 30
0.0
 11
-51.81925180905682
 21
304.4177935384807
 31
0.0
  0
LINE
  5
101EA
330
1F
100
AcDbEntity
  8
10000_FRONT
 62
     7
370
    50
100
AcDbLine
 39
0.7
 10
-64.31925180905682
 20
304.4177935384807
 30
0.0
 11
-52.51925180905686
 21
304.4177935384807
 31
0.0
  0
LINE
  5
101EB
330
1F
100
AcDbEntity
  8
10000_FRONT
 62
     7
370
    50
100
AcDbLine
 39
0.7
 10
-66.31925180905682
 20
304.4177935384807
 30
0.0
 11
-64.31925180905682
 21
304.4177935384807
 31
0.0
  0
LINE
  5
101EC
330
1F
100
AcDbEntity
  8
10000_FRONT
 62
     7
370
    50
100
AcDbLine
 39
0.7
 10
-67.31925180905682
 20
304.4177935384807
 30
0.0
 11
-66.31925180905682
 21
304.4177935384807
 31
0.0
  0
LINE
  5
101ED
330
1F
100
AcDbEntity
  8
10000_FRONT
 62
     7
370
    50
100
AcDbLine
 39
0.7
 10
-116.5692518090568
 20
304.4177935384807
 30
0.0
 11
-67.31925180905682
 21
304.4177935384807
 31
0.0
  0
LINE
  5
101EE
330
1F
100
AcDbEntity
  8
10000_FRONT
 62
     7
370
    50
100
AcDbLine
 39
0.7
 10
-119.0692518090568
 20
304.4177935384807
 30
0.0
 11
-116.5692518090568
 21
304.4177935384807
 31
0.0
  0
LINE
  5
101EF
330
1F
100
AcDbEntity
  8
10000_FRONT
 62
     7
370
    50
100
AcDbLine
 39
0.7
 10
-119.5692518090568
 20
304.4177935384807
 30
0.0
 11
-119.0692518090568
 21
304.4177935384807
 31
0.0
  0
LINE
  5
101F0
330
1F
100
AcDbEntity
  8
10000_FRONT
 62
     7
370
    50
100
AcDbLine
 39
0.7
 10
-129.5692518090568
 20
304.4177935384807
 30
0.0
 11
-119.5692518090568
 21
304.4177935384807
 31
0.0
  0
LINE
  5
101F1
330
1F
100
AcDbEntity
  8
10000_FRONT
 62
     7
370
    50
100
AcDbLine
 39
0.7
 10
-131.0692518090568
 20
304.4177935384807
 30
0.0
 11
-129.5692518090568
 21
304.4177935384807
 31
0.0
  0
LINE
  5
101F2
330
1F
100
AcDbEntity
  8
10000_FRONT
 62
     7
370
    50
100
AcDbLine
 39
0.7
 10
46.93074819094317
 20
304.4177935384807
 30
0.0
 11
48.43064819094315
 21
304.4177935384807
 31
0.0
  0
LINE
  5
101F3
330
1F
100
AcDbEntity
  8
10000_FRONT
 62
     7
370
    50
100
AcDbLine
 39
0.7
 10
36.93074819094318
 20
304.4177935384807
 30
0.0
 11
46.93074819094317
 21
304.4177935384807
 31
0.0
  0
LINE
  5
101F4
330
1F
100
AcDbEntity
  8
10000_FRONT
 62
     7
370
    50
100
AcDbLine
 39
0.7
 10
36.43074819094318
 20
304.4177935384807
 30
0.0
 11
36.93074819094318
 21
304.4177935384807
 31
0.0
  0
LINE
  5
101F5
330
1F
100
AcDbEntity
  8
10000_FRONT
 62
     7
370
    50
100
AcDbLine
 39
0.7
 10
36.93074819094318
 20
104.6177935384805
 30
0.0
 11
36.43074819094318
 21
104.6177935384805
 31
0.0
  0
LINE
  5
101F6
330
1F
100
AcDbEntity
  8
10000_FRONT
 62
     7
370
    50
100
AcDbLine
 39
0.7
 10
46.93074819094317
 20
104.6177935384805
 30
0.0
 11
36.93074819094318
 21
104.6177935384805
 31
0.0
  0
LINE
  5
101F7
330
1F
100
AcDbEntity
  8
10000_FRONT
 62
     7
370
    50
100
AcDbLine
 39
0.7
 10
48.43064819094315
 20
104.6177935384805
 30
0.0
 11
46.93074819094317
 21
104.6177935384805
 31
0.0
  0
LINE
  5
101F8
330
1F
100
AcDbEntity
  8
10000_FRONT
 62
     7
370
    50
100
AcDbLine
 39
0.7
 10
-129.5692518090568
 20
104.6177935384805
 30
0.0
 11
-131.0692518090568
 21
104.6177935384805
 31
0.0
  0
LINE
  5
101F9
330
1F
100
AcDbEntity
  8
10000_FRONT
 62
     7
370
    50
100
AcDbLine
 39
0.7
 10
-119.5692518090568
 20
104.6177935384805
 30
0.0
 11
-129.5692518090568
 21
104.6177935384805
 31
0.0
  0
LINE
  5
101FA
330
1F
100
AcDbEntity
  8
10000_FRONT
 62
     7
370
    50
100
AcDbLine
 39
0.7
 10
-119.0692518090568
 20
104.6177935384805
 30
0.0
 11
-119.5692518090568
 21
104.6177935384805
 31
0.0
  0
LINE
  5
101FB
330
1F
100
AcDbEntity
  8
10000_FRONT
 62
     7
370
    50
100
AcDbLine
 39
0.7
 10
-116.5692518090568
 20
104.6177935384805
 30
0.0
 11
-119.0692518090568
 21
104.6177935384805
 31
0.0
  0
LINE
  5
101FC
330
1F
100
AcDbEntity
  8
10000_FRONT
 62
     7
370
    50
100
AcDbLine
 39
0.7
 10
-67.31925180905682
 20
104.6177935384805
 30
0.0
 11
-116.5692518090568
 21
104.6177935384805
 31
0.0
  0
LINE
  5
101FD
330
1F
100
AcDbEntity
  8
10000_FRONT
 62
     7
370
    50
100
AcDbLine
 39
0.7
 10
-66.31925180905682
 20
104.6177935384805
 30
0.0
 11
-67.31925180905682
 21
104.6177935384805
 31
0.0
  0
LINE
  5
101FE
330
1F
100
AcDbEntity
  8
10000_FRONT
 62
     7
370
    50
100
AcDbLine
 39
0.7
 10
-64.31925180905682
 20
104.6177935384805
 30
0.0
 11
-66.31925180905682
 21
104.6177935384805
 31
0.0
  0
LINE
  5
101FF
330
1F
100
AcDbEntity
  8
10000_FRONT
 62
     7
370
    50
100
AcDbLine
 39
0.7
 10
-52.51925180905686
 20
104.6177935384805
 30
0.0
 11
-64.31925180905682
 21
104.6177935384805
 31
0.0
  0
LINE
  5
10200
330
1F
100
AcDbEntity
  8
10000_FRONT
 62
     7
370
    50
100
AcDbLine
 39
0.7
 10
-51.81925180905682
 20
104.6177935384805
 30
0.0
 11
-52.51925180905686
 21
104.6177935384805
 31
0.0
  0
LINE
  5
10201
330
1F
100
AcDbEntity
  8
10000_FRONT
 62
     7
370
    50
100
AcDbLine
 39
0.7
 10
-51.51925180905686
 20
104.6177935384805
 30
0.0
 11
-51.81925180905682
 21
104.6177935384805
 31
0.0
  0
LINE
  5
10202
330
1F
100
AcDbEntity
  8
10000_FRONT
 62
     7
370
    50
100
AcDbLine
 39
0.7
 10
-31.11925180905689
 20
104.6177935384805
 30
0.0
 11
-51.51925180905686
 21
104.6177935384805
 31
0.0
  0
LINE
  5
10203
330
1F
100
AcDbEntity
  8
10000_FRONT
 62
     7
370
    50
100
AcDbLine
 39
0.7
 10
-30.81925180905682
 20
104.6177935384805
 30
0.0
 11
-31.11925180905689
 21
104.6177935384805
 31
0.0
  0
LINE
  5
10204
330
1F
100
AcDbEntity
  8
10000_FRONT
 62
     7
370
    50
100
AcDbLine
 39
0.7
 10
-30.11925180905689
 20
104.6177935384805
 30
0.0
 11
-30.81925180905682
 21
104.6177935384805
 31
0.0
  0
LINE
  5
10205
330
1F
100
AcDbEntity
  8
10000_FRONT
 62
     7
370
    50
100
AcDbLine
 39
0.7
 10
-18.31925180905682
 20
104.6177935384805
 30
0.0
 11
-30.11925180905689
 21
104.6177935384805
 31
0.0
  0
LINE
  5
10206
330
1F
100
AcDbEntity
  8
10000_FRONT
 62
     7
370
    50
100
AcDbLine
 39
0.7
 10
-16.31925180905682
 20
104.6177935384805
 30
0.0
 11
-18.31925180905682
 21
104.6177935384805
 31
0.0
  0
LINE
  5
10207
330
1F
100
AcDbEntity
  8
10000_FRONT
 62
     7
370
    50
100
AcDbLine
 39
0.7
 10
-15.31925180905682
 20
104.6177935384805
 30
0.0
 11
-16.31925180905682
 21
104.6177935384805
 31
0.0
  0
LINE
  5
10208
330
1F
100
AcDbEntity
  8
10000_FRONT
 62
     7
370
    50
100
AcDbLine
 39
0.7
 10
33.93074819094318
 20
104.6177935384805
 30
0.0
 11
-15.31925180905682
 21
104.6177935384805
 31
0.0
  0
LINE
  5
10209
330
1F
100
AcDbEntity
  8
10000_FRONT
 62
     7
370
    50
100
AcDbLine
 39
0.7
 10
36.43074819094318
 20
104.6177935384805
 30
0.0
 11
33.93074819094318
 21
104.6177935384805
 31
0.0
  0
DIMENSION
  5
1020A
330
1F
100
AcDbEntity
  8
11100_LEFT_DIM
  6
Continuous
 62
     7
370
    13
100
AcDbDimension
  2
*D4
 10
238.0760582867571
 20
312.9594214364742
 30
0.0
 11
168.7250050109467
 21
312.9594214364742
 31
0.0
 70
   160
  1
150,5
 71
     5
 42
150.1999959999998
  3
DSTYLE1
100
AcDbAlignedDimension
 13
87.87606228675725
 23
304.4177935384807
 33
0.0
 14
238.0760582867571
 24
304.4177935384807
 34
0.0
 50
180.0
100
AcDbRotatedDimension
1001
ACAD
1000
DSTYLE
1002
{
1070
    41
1040
3.0
1070
    42
1040
1.0
1070
    43
1040
1.0
1070
    47
1040
0.005
1070
    48
1040
-0.005
1070
    77
1070
     0
1070
    78
1070
     0
1070
   140
1040
4.5
1070
   143
1040
25.4
1070
   171
1070
     0
1070
   172
1070
     1
1070
   271
1070
     0
1070
   272
1070
     1
1070
   277
1070
     6
1070
   279
1070
     0
1002
}
  0
LINE
  5
1020B
330
1F
100
AcDbEntity
  8
11000_Left
  6
CENTERLINE
 62
     7
370
     9
100
AcDbLine
 10
86.1090822867572
 20
204.5177935384806
 30
0.0
 11
242.0729342867572
 21
204.5177935384806
 31
0.0
  0
DIMENSION
  5
1020D
330
1F
100
AcDbEntity
  8
11100_LEFT_DIM
  6
Continuous
 62
     7
370
    13
100
AcDbDimension
  2
*D5
 10
74.53358228675724
 20
104.6177935384805
 30
0.0
 11
74.53358228675722
 21
204.5177935384806
 31
0.0
 70
   160
 71
     5
 42
199.8
  3
DSTYLE1
100
AcDbAlignedDimension
 13
87.87606228675725
 23
304.4177935384808
 33
0.0
 14
87.87606228675725
 24
104.6177935384805
 34
0.0
 50
270.0
100
AcDbRotatedDimension
1001
ACAD
1000
DSTYLE
1002
{
1070
    42
1040
1.0
1070
    43
1040
1.0
1070
    47
1040
0.005
1070
    48
1040
-0.005
1070
    77
1070
     0
1070
    78
1070
     0
1070
   140
1040
4.5
1070
   143
1040
25.4
1070
   171
1070
     0
1070
   172
1070
     1
1070
   271
1070
     0
1070
   272
1070
     1
1070
   277
1070
     6
1070
   279
1070
     0
1002
}
  0
DIMENSION
  5
10219
330
1F
100
AcDbEntity
  8
10100_FRONT_DIM
  6
Continuous
 62
     7
370
    13
100
AcDbDimension
  2
*D6
 10
-123.0692518090568
 20
94.88432553848063
 30
0.0
 11
-106.6410118090568
 21
94.88432553848063
 31
0.0
 70
   161
 71
     5
 42
4.5
  3
DSTYLE1
100
AcDbAlignedDimension
 13
-127.5692518090568
 23
114.5177935384806
 33
0.0
 14
-123.0692518090568
 24
114.5177935384806
 34
0.0
1001
ACAD
1000
DSTYLE
1002
{
1070
    42
1040
1.0
1070
    43
1040
1.0
1070
    47
1040
0.005
1070
    48
1040
-0.005
1070
    77
1070
     0
1070
    78
1070
     0
1070
   140
1040
4.5
1070
   143
1040
25.4
1070
   171
1070
     0
1070
   172
1070
     1
1070
   271
1070
     0
1070
   272
1070
     1
1070
   277
1070
     6
1070
   279
1070
     0
1002
}
  0
DIMENSION
  5
1021A
330
1F
100
AcDbEntity
  8
10100_FRONT_DIM
  6
Continuous
 62
     7
370
    13
100
AcDbDimension
  2
*D7
 10
-131.0692518090568
 20
85.46976128671486
 30
0.0
 11
-41.31925180905682
 21
85.46976128671486
 31
0.0
 70
   160
  1
180
 71
     5
 42
179.5
  3
DSTYLE1
100
AcDbAlignedDimension
 13
48.43074819094319
 23
104.6177935384805
 33
0.0
 14
-131.0692518090568
 24
104.6177935384805
 34
0.0
100
AcDbRotatedDimension
1001
ACAD
1000
DSTYLE
1002
{
1070
    42
1040
1.0
1070
    43
1040
1.0
1070
    47
1040
0.005
1070
    48
1040
-0.005
1070
    77
1070
     0
1070
    78
1070
     0
1070
   140
1040
4.5
1070
   143
1040
25.4
1070
   171
1070
     0
1070
   172
1070
     1
1070
   271
1070
     0
1070
   272
1070
     1
1070
   277
1070
     6
1070
   279
1070
     0
1002
}
  0
DIMENSION
  5
1021B
330
1F
100
AcDbEntity
  8
11100_LEFT_DIM
  6
Continuous
 62
     7
370
    13
100
AcDbDimension
  2
*D8
 10
250.2760582867572
 20
85.68915092629106
 30
0.0
 11
169.0760622867571
 21
85.68915092629106
 31
0.0
 70
   160
  1
162,5
 71
     5
 42
162.3999959999999
  3
DSTYLE1
100
AcDbAlignedDimension
 13
87.87606228675725
 23
104.6177935384805
 33
0.0
 14
250.2760582867572
 24
191.3877935384806
 34
0.0
 50
180.0
100
AcDbRotatedDimension
1001
ACAD
1000
DSTYLE
1002
{
1070
    42
1040
1.0
1070
    43
1040
1.0
1070
    47
1040
0.005
1070
    48
1040
-0.005
1070
    77
1070
     0
1070
    78
1070
     0
1070
   140
1040
4.5
1070
   143
1040
25.4
1070
   171
1070
     0
1070
   172
1070
     1
1070
   271
1070
     0
1070
   272
1070
     1
1070
   277
1070
     6
1070
   279
1070
     0
1002
}
  0
DIMENSION
  5
1021C
330
1F
100
AcDbEntity
  8
10100_FRONT_DIM
  6
Continuous
 62
     7
370
    13
100
AcDbDimension
  2
*D9
 10
42.68074819094318
 20
312.9594214364742
 30
0.0
 11
-41.31925180905682
 21
312.9594214364742
 31
0.0
 70
   160
 71
     5
 42
168.0
  3
DSTYLE1
100
AcDbAlignedDimension
 13
-125.3192518090568
 23
297.2822735384806
 33
0.0
 14
42.68074819094318
 24
296.7677935384806
 34
0.0
100
AcDbRotatedDimension
1001
ACAD
1000
DSTYLE
1002
{
1070
    42
1040
1.0
1070
    43
1040
1.0
1070
    47
1040
0.005
1070
    48
1040
-0.005
1070
    77
1070
     0
1070
    78
1070
     0
1070
   140
1040
4.5
1070
   143
1040
25.4
1070
   171
1070
     0
1070
   172
1070
     1
1070
   271
1070
     0
1070
   272
1070
     1
1070
   277
1070
     6
1070
   279
1070
     0
1002
}
  0
DIMENSION
  5
1021D
330
1F
100
AcDbEntity
  8
10100_FRONT_DIM
  6
Continuous
 62
     7
370
    13
100
AcDbDimension
  2
*D10
 10
-137.2089218090568
 20
114.5177935384806
 30
0.0
 11
-137.2089218090569
 21
204.5177935384806
 31
0.0
 70
   160
 71
     5
 42
179.9999999999999
  3
DSTYLE1
100
AcDbAlignedDimension
 13
-128.2921318090568
 23
294.5177935384806
 33
0.0
 14
-128.2921318090568
 24
114.5177935384806
 34
0.0
 50
90.0
100
AcDbRotatedDimension
1001
ACAD
1000
DSTYLE
1002
{
1070
    42
1040
1.0
1070
    43
1040
1.0
1070
    47
1040
0.005
1070
    48
1040
-0.005
1070
    77
1070
     0
1070
    78
1070
     0
1070
   140
1040
4.5
1070
   143
1040
25.4
1070
   171
1070
     0
1070
   172
1070
     1
1070
   271
1070
     0
1070
   272
1070
     1
1070
   277
1070
     6
1070
   279
1070
     0
1002
}
  0
DIMENSION
  5
1021E
330
1F
100
AcDbEntity
  8
10100_FRONT_DIM
  6
Continuous
 62
     7
370
    13
100
AcDbDimension
  2
*D11
 10
63.32201872613242
 20
170.0177935384806
 30
0.0
 11
63.32201872613239
 21
202.9101296927802
 31
0.0
 70
   160
 71
     5
 42
69.00000000000004
  3
DSTYLE1
100
AcDbAlignedDimension
 13
-36.06229180905689
 23
239.0177935384807
 33
0.0
 14
-36.06229180905689
 24
170.0177935384806
 34
0.0
 50
90.0
100
AcDbRotatedDimension
1001
ACAD
1000
DSTYLE
1002
{
1070
    42
1040
1.0
1070
    43
1040
1.0
1070
    47
1040
0.005
1070
    48
1040
-0.005
1070
    77
1070
     0
1070
    78
1070
     0
1070
   140
1040
4.5
1070
   143
1040
25.4
1070
   171
1070
     0
1070
   172
1070
     1
1070
   271
1070
     0
1070
   272
1070
     1
1070
   277
1070
     6
1070
   279
1070
     0
1002
}
  0
DIMENSION
  5
1021F
330
1F
100
AcDbEntity
  8
10100_FRONT_DIM
  6
Continuous
 62
     7
370
    13
100
AcDbDimension
  2
*D12
 10
56.21407798905622
 20
180.7677935384806
 30
0.0
 11
56.21407798905618
 21
204.5177935384806
 31
0.0
 70
   160
 71
     5
 42
47.50000000000006
  3
DSTYLE1
100
AcDbAlignedDimension
 13
-34.9668718090569
 23
228.2677935384807
 33
0.0
 14
-34.9668718090569
 24
180.7677935384806
 34
0.0
 50
90.0
100
AcDbRotatedDimension
1001
ACAD
1000
DSTYLE
1002
{
1070
    42
1040
1.0
1070
    43
1040
1.0
1070
    47
1040
0.005
1070
    48
1040
-0.005
1070
    77
1070
     0
1070
    78
1070
     0
1070
   140
1040
4.5
1070
   143
1040
25.4
1070
   171
1070
     0
1070
   172
1070
     1
1070
   271
1070
     0
1070
   272
1070
     1
1070
   277
1070
     6
1070
   279
1070
     0
1002
}
  0
DIMENSION
  5
10220
330
1F
100
AcDbEntity
  8
11100_LEFT_DIM
  6
Continuous
 62
     7
370
    13
100
AcDbDimension
  2
*D13
 10
215.3760582867573
 20
93.97864419970323
 30
0.0
 11
151.6260622867572
 21
93.97864419970323
 31
0.0
 70
   160
 71
     5
 42
127.499996
  3
DSTYLE1
100
AcDbAlignedDimension
 13
87.87606228675725
 23
104.6177935384805
 33
0.0
 14
215.3760582867573
 24
162.2177935384805
 34
0.0
 50
180.0
100
AcDbRotatedDimension
1001
ACAD
1000
DSTYLE
1002
{
1070
    42
1040
1.0
1070
    43
1040
1.0
1070
    47
1040
0.005
1070
    48
1040
-0.005
1070
    77
1070
     0
1070
    78
1070
     0
1070
   140
1040
4.5
1070
   143
1040
25.4
1070
   171
1070
     0
1070
   172
1070
     1
1070
   271
1070
     0
1070
   272
1070
     1
1070
   277
1070
     6
1070
   279
1070
     0
1002
}
  0
LINE
  5
10221
330
1F
100
AcDbEntity
  8
11000_Left
  6
HIDDEN
 62
     7
370
    13
100
AcDbLine
 10
215.3760582867573
 20
173.3909335384806
 30
0.0
 11
215.3760582867573
 21
162.2177935384805
 31
0.0
  0
LINE
  5
10222
330
1F
100
AcDbEntity
  8
11000_Left
  6
HIDDEN
 62
     7
370
    13
100
AcDbLine
 10
215.3760582867573
 20
246.8177935384807
 30
0.0
 11
215.3760582867573
 21
234.6074135384807
 31
0.0
  0
LINE
  5
10223
330
1F
100
AcDbEntity
  8
11000_Left
  6
HIDDEN
 62
     7
370
    20
100
AcDbLine
 10
231.8558462867572
 20
246.8177935384807
 30
0.0
 11
229.4760762867572
 21
246.8177935384807
 31
0.0
  0
ARC
  5
10224
330
1F
100
AcDbEntity
  8
11000_Left
  6
HIDDEN
 62
     7
370
    20
100
AcDbCircle
 10
231.897846286757
 20
246.0177935384807
 30
0.0
 40
0.8
100
AcDbArc
 50
2.976529999999026
 51
90.0
  0
ARC
  5
10225
330
1F
100
AcDbEntity
  8
11000_Left
  6
HIDDEN
 62
     7
370
    20
100
AcDbCircle
 10
-566.2239377132425
 20
204.5177935384806
 30
0.0
 40
800.0
100
AcDbArc
 50
2.825790000000843
 51
2.976529999999026
  0
LINE
  5
10226
330
1F
100
AcDbEntity
  8
10000_FRONT
  6
CENTERLINE
 62
     7
370
     9
100
AcDbLine
 10
-132.735866554578
 20
204.5177935384806
 30
0.0
 11
50.04223044872833
 21
204.5177935384806
 31
0.0
  0
ARC
  5
1022F
330
1F
100
AcDbEntity
  8
11000_Left
  6
HIDDEN
 62
     7
370
    20
100
AcDbCircle
 10
-566.2239377132425
 20
204.5177935384806
 30
0.0
 40
800.0
100
AcDbArc
 50
357.1742099999992
 51
2.825790000000843
  0
ARC
  5
10230
330
1F
100
AcDbEntity
  8
11000_Left
  6
HIDDEN
 62
     7
370
    20
100
AcDbCircle
 10
231.897846286757
 20
163.0177935384805
 30
0.0
 40
0.8
100
AcDbArc
 50
270.0
 51
357.023470000001
  0
LINE
  5
10231
330
1F
100
AcDbEntity
  8
11000_Left
  6
HIDDEN
 62
     7
370
    20
100
AcDbLine
 10
229.4760762867572
 20
162.2177935384805
 30
0.0
 11
231.897846286757
 21
162.2177935384805
 31
0.0
  0
LINE
  5
10232
330
1F
100
AcDbEntity
  8
11000_Left
  6
HIDDEN
 62
     7
370
    20
100
AcDbLine
 10
229.4760582867572
 20
162.2177935384805
 30
0.0
 11
202.3760582867572
 21
162.2177935384805
 31
0.0
  0
LINE
  5
10233
330
1F
100
AcDbEntity
  8
11000_Left
  6
HIDDEN
 62
     7
370
    20
100
AcDbLine
 10
229.4760582867572
 20
246.8177935384807
 30
0.0
 11
202.3760582867572
 21
246.8177935384807
 31
0.0
  0
LINE
  5
10234
330
1F
100
AcDbEntity
  8
11000_Left
  6
HIDDEN
 62
     7
370
    20
100
AcDbLine
 10
202.3760582867572
 20
304.4177935384807
 30
0.0
 11
202.3760582867572
 21
104.6177935384805
 31
0.0
  0
ARC
  5
10235
330
1F
100
AcDbEntity
  8
11000_Left
  6
Continuous
 62
     7
370
    13
100
AcDbCircle
 10
248.065262286757
 20
197.9035935384806
 30
0.0
 40
0.21079582
100
AcDbArc
 50
270.0
 51
0.000000000000007
  0
LINE
  5
10236
330
1F
100
AcDbEntity
  8
11000_Left
  6
Continuous
 62
     7
370
    13
100
AcDbLine
 10
245.4868362867572
 20
197.6927935384806
 30
0.0
 11
245.4868542867571
 21
197.6927935384806
 31
0.0
  0
LINE
  5
10237
330
1F
100
AcDbEntity
  8
11000_Left
  6
Continuous
 62
     7
370
    13
100
AcDbLine
 10
245.4868542867571
 20
200.6927935384805
 30
0.0
 11
245.4868362867572
 21
200.6927935384805
 31
0.0
  0
LINE
  5
10238
330
1F
100
AcDbEntity
  8
11000_Left
  6
Continuous
 62
     7
370
    50
100
AcDbLine
 10
243.9760582867572
 20
190.6627935384804
 30
0.0
 11
243.9760582867572
 21
190.6627735384806
 31
0.0
  0
LINE
  5
10239
330
1F
100
AcDbEntity
  8
11000_Left
  6
Continuous
 62
     7
370
    50
100
AcDbLine
 10
243.9760582867572
 20
190.9714535384806
 30
0.0
 11
243.9760582867572
 21
190.9714535384806
 31
0.0
  0
LINE
  5
1023A
330
1F
100
AcDbEntity
  8
11000_Left
  6
Continuous
 62
     7
370
    50
100
AcDbLine
 10
244.1984122867573
 20
191.2612135384806
 30
0.0
 11
244.1983982867571
 21
191.2612135384806
 31
0.0
  0
LINE
  5
1023B
330
1F
100
AcDbEntity
  8
11000_Left
  6
Continuous
 62
     7
370
    50
100
AcDbLine
 10
248.7760582867572
 20
191.3877735384806
 30
0.0
 11
248.7760582867572
 21
191.3877935384806
 31
0.0
  0
ARC
  5
1023C
330
1F
100
AcDbEntity
  8
11000_Left
  6
Continuous
 62
     7
370
    50
100
AcDbCircle
 10
249.9760582867573
 20
191.3877935384806
 30
0.0
 40
0.3
100
AcDbArc
 50
270.0
 51
0.000000000000007
  0
LINE
  5
1023D
330
1F
100
AcDbEntity
  8
11000_Left
  6
Continuous
 62
     7
370
    50
100
AcDbLine
 10
250.2760582867572
 20
191.3877935384806
 30
0.0
 11
250.2760582867572
 21
191.3877735384806
 31
0.0
  0
LINE
  5
1023E
330
1F
100
AcDbEntity
  8
11000_Left
  6
Continuous
 62
     7
370
    50
100
AcDbLine
 10
250.2760582867572
 20
197.4078135384806
 30
0.0
 11
250.2760582867572
 21
197.4077935384806
 31
0.0
  0
LINE
  5
1023F
330
1F
100
AcDbEntity
  8
11000_Left
  6
Continuous
 62
     7
370
    50
100
AcDbLine
 10
249.9460582867571
 20
197.7077935384806
 30
0.0
 11
249.9760582867573
 21
197.7077935384806
 31
0.0
  0
LINE
  5
10240
330
1F
100
AcDbEntity
  8
11000_Left
  6
Continuous
 62
     7
370
    50
100
AcDbLine
 10
248.7760582867572
 20
201.1927935384806
 30
0.0
 11
248.7760582867572
 21
201.1927935384806
 31
0.0
  0
ARC
  5
10241
330
1F
100
AcDbEntity
  8
11000_Left
  6
Continuous
 62
     7
370
    50
100
AcDbCircle
 10
249.9760582867573
 20
197.4077935384806
 30
0.0
 40
0.3
100
AcDbArc
 50
0.000000000000007
 51
90.0
  0
LINE
  5
10242
330
1F
100
AcDbEntity
  8
11000_Left
  6
Continuous
 62
     7
370
    50
100
AcDbLine
 10
249.9460582867571
 20
197.7077935384806
 30
0.0
 11
249.9460582867571
 21
201.6877935384806
 31
0.0
  0
ARC
  5
10243
330
1F
100
AcDbEntity
  8
11000_Left
  6
Continuous
 62
     7
370
    13
100
AcDbCircle
 10
248.065262286757
 20
200.4819935384806
 30
0.0
 40
0.21079582
100
AcDbArc
 50
0.000000000000007
 51
90.0
  0
POLYLINE
  5
10244
330
1F
100
AcDbEntity
  8
11000_Left
  6
Continuous
 62
     7
370
    13
100
AcDb2dPolyline
 66
     1
 10
0.0
 20
0.0
 30
0.0
 70
     2
  0
VERTEX
  5
10245
330
10244
100
AcDbEntity
  8
11000_Left
  6
Continuous
 62
     7
370
    13
100
AcDbVertex
100
AcDb2dVertex
 10
248.2760582867572
 20
197.9035935384806
 30
0.0
  0
VERTEX
  5
10246
330
10244
100
AcDbEntity
  8
11000_Left
  6
Continuous
 62
     7
370
    13
100
AcDbVertex
100
AcDb2dVertex
 10
248.2758242867572
 20
197.8935535384806
 30
0.0
 42
-0.01280324
 70
     1
  0
VERTEX
  5
10247
330
10244
100
AcDbEntity
  8
11000_Left
  6
Continuous
 62
     7
370
    13
100
AcDbVertex
100
AcDb2dVertex
 10
248.2750862867572
 20
197.8833735384806
 30
0.0
 42
-0.012156197
  0
VERTEX
  5
10248
330
10244
100
AcDbEntity
  8
11000_Left
  6
Continuous
 62
     7
370
    13
100
AcDbVertex
100
AcDb2dVertex
 10
248.2738242867572
 20
197.8730535384806
 30
0.0
 42
-0.011974228
 70
     1
  0
VERTEX
  5
10249
330
10244
100
AcDbEntity
  8
11000_Left
  6
Continuous
 62
     7
370
    13
100
AcDbVertex
100
AcDb2dVertex
 10
248.2720382867571
 20
197.8626335384807
 30
0.0
 42
-0.012480874
  0
VERTEX
  5
1024A
330
10244
100
AcDbEntity
  8
11000_Left
  6
Continuous
 62
     7
370
    13
100
AcDbVertex
100
AcDb2dVertex
 10
248.2696782867572
 20
197.8521535384806
 30
0.0
 42
-0.012719875
 70
     1
  0
VERTEX
  5
1024B
330
10244
100
AcDbEntity
  8
11000_Left
  6
Continuous
 62
     7
370
    13
100
AcDbVertex
100
AcDb2dVertex
 10
248.2667542867571
 20
197.8416535384806
 30
0.0
 42
-0.012875536
  0
VERTEX
  5
1024C
330
10244
100
AcDbEntity
  8
11000_Left
  6
Continuous
 62
     7
370
    13
100
AcDbVertex
100
AcDb2dVertex
 10
248.2632302867572
 20
197.8311935384806
 30
0.0
 42
-0.01297708
 70
     1
  0
VERTEX
  5
1024D
330
10244
100
AcDbEntity
  8
11000_Left
  6
Continuous
 62
     7
370
    13
100
AcDbVertex
100
AcDb2dVertex
 10
248.2591282867572
 20
197.8208335384806
 30
0.0
 42
-0.013184301
  0
VERTEX
  5
1024E
330
10244
100
AcDbEntity
  8
11000_Left
  6
Continuous
 62
     7
370
    13
100
AcDbVertex
100
AcDb2dVertex
 10
248.2544182867571
 20
197.8105735384806
 30
0.0
 42
-0.013294073
 70
     1
  0
VERTEX
  5
1024F
330
10244
100
AcDbEntity
  8
11000_Left
  6
Continuous
 62
     7
370
    13
100
AcDbVertex
100
AcDb2dVertex
 10
248.2491302867572
 20
197.8005135384806
 30
0.0
 42
-0.013438636
  0
VERTEX
  5
10250
330
10244
100
AcDbEntity
  8
11000_Left
  6
Continuous
 62
     7
370
    13
100
AcDbVertex
100
AcDb2dVertex
 10
248.2432482867571
 20
197.7906735384806
 30
0.0
 42
-0.013510871
 70
     1
  0
VERTEX
  5
10251
330
10244
100
AcDbEntity
  8
11000_Left
  6
Continuous
 62
     7
370
    13
100
AcDbVertex
100
AcDb2dVertex
 10
248.2368122867572
 20
197.7810935384806
 30
0.0
 42
-0.013608778
  0
VERTEX
  5
10252
330
10244
100
AcDbEntity
  8
11000_Left
  6
Continuous
 62
     7
370
    13
100
AcDbVertex
100
AcDb2dVertex
 10
248.2298202867572
 20
197.7718535384807
 30
0.0
 42
-0.013662856
 70
     1
  0
VERTEX
  5
10253
330
10244
100
AcDbEntity
  8
11000_Left
  6
Continuous
 62
     7
370
    13
100
AcDbVertex
100
AcDb2dVertex
 10
248.2223162867572
 20
197.7629935384804
 30
0.0
 42
-0.013732641
  0
VERTEX
  5
10254
330
10244
100
AcDbEntity
  8
11000_Left
  6
Continuous
 62
     7
370
    13
100
AcDbVertex
100
AcDb2dVertex
 10
248.2143102867571
 20
197.7545335384806
 30
0.0
 42
-0.013722952
 70
     1
  0
VERTEX
  5
10255
330
10244
100
AcDbEntity
  8
11000_Left
  6
Continuous
 62
     7
370
    13
100
AcDbVertex
100
AcDb2dVertex
 10
248.2058642867571
 20
197.7465335384806
 30
0.0
 42
-0.013659262
  0
VERTEX
  5
10256
330
10244
100
AcDbEntity
  8
11000_Left
  6
Continuous
 62
     7
370
    13
100
AcDbVertex
100
AcDb2dVertex
 10
248.1969982867572
 20
197.7390335384806
 30
0.0
 42
-0.013732727
 70
     1
  0
VERTEX
  5
10257
330
10244
100
AcDbEntity
  8
11000_Left
  6
Continuous
 62
     7
370
    13
100
AcDbVertex
100
AcDb2dVertex
 10
248.1877562867572
 20
197.7320335384806
 30
0.0
 42
-0.013897641
  0
VERTEX
  5
10258
330
10244
100
AcDbEntity
  8
11000_Left
  6
Continuous
 62
     7
370
    13
100
AcDbVertex
100
AcDb2dVertex
 10
248.1781682867572
 20
197.7256135384807
 30
0.0
 42
-0.013543887
 70
     1
  0
VERTEX
  5
10259
330
10244
100
AcDbEntity
  8
11000_Left
  6
Continuous
 62
     7
370
    13
100
AcDbVertex
100
AcDb2dVertex
 10
248.1683502867572
 20
197.7197335384806
 30
0.0
 42
-0.012726539
  0
VERTEX
  5
1025A
330
10244
100
AcDbEntity
  8
11000_Left
  6
Continuous
 62
     7
370
    13
100
AcDbVertex
100
AcDb2dVertex
 10
248.1583582867572
 20
197.7144335384806
 30
0.0
 42
-0.013686455
 70
     1
  0
VERTEX
  5
1025B
330
10244
100
AcDbEntity
  8
11000_Left
  6
Continuous
 62
     7
370
    13
100
AcDbVertex
100
AcDb2dVertex
 10
248.1480302867572
 20
197.7097335384806
 30
0.0
 42
-0.015725722
  0
VERTEX
  5
1025C
330
10244
100
AcDbEntity
  8
11000_Left
  6
Continuous
 62
     7
370
    13
100
AcDbVertex
100
AcDb2dVertex
 10
248.1373342867572
 20
197.7056135384806
 30
0.0
 42
-0.012376153
 70
     1
  0
VERTEX
  5
1025D
330
10244
100
AcDbEntity
  8
11000_Left
  6
Continuous
 62
     7
370
    13
100
AcDbVertex
100
AcDb2dVertex
 10
248.1271962867572
 20
197.7020935384806
 30
0.0
 42
-0.0053921038
  0
VERTEX
  5
1025E
330
10244
100
AcDbEntity
  8
11000_Left
  6
Continuous
 62
     7
370
    13
100
AcDbVertex
100
AcDb2dVertex
 10
248.1179622867572
 20
197.6992335384806
 30
0.0
 42
-0.016185648
 70
     1
  0
VERTEX
  5
1025F
330
10244
100
AcDbEntity
  8
11000_Left
  6
Continuous
 62
     7
370
    13
100
AcDbVertex
100
AcDb2dVertex
 10
248.1062302867571
 20
197.6968135384806
 30
0.0
 42
-0.027066972
  0
VERTEX
  5
10260
330
10244
100
AcDbEntity
  8
11000_Left
  6
Continuous
 62
     7
370
    13
100
AcDbVertex
100
AcDb2dVertex
 10
248.0884262867572
 20
197.6946735384807
 30
0.0
 42
-0.013868237
 70
     1
  0
VERTEX
  5
10261
330
10244
100
AcDbEntity
  8
11000_Left
  6
Continuous
 62
     7
370
    13
100
AcDbVertex
100
AcDb2dVertex
 10
248.065262286757
 20
197.6927935384806
 30
0.0
 42
-0.0076245554
  0
SEQEND
  5
10262
330
10244
100
AcDbEntity
  8
11000_Left
  6
Continuous
 62
     7
370
    13
  0
LINE
  5
10263
330
1F
100
AcDbEntity
  8
11000_Left
  6
Continuous
 62
     7
370
    13
100
AcDbLine
 10
248.2760582867572
 20
200.4819935384806
 30
0.0
 11
248.2760582867572
 21
197.9035935384806
 31
0.0
  0
ARC
  5
10264
330
1F
100
AcDbEntity
  8
11000_Left
  6
Continuous
 62
     7
370
    13
100
AcDbCircle
 10
245.4868542867571
 20
197.9035935384806
 30
0.0
 40
0.21079582
100
AcDbArc
 50
180.0
 51
270.0
  0
LINE
  5
10265
330
1F
100
AcDbEntity
  8
11000_Left
  6
Continuous
 62
     7
370
    13
100
AcDbLine
 10
245.2760582867572
 20
197.9035935384806
 30
0.0
 11
245.2760582867572
 21
200.4819935384806
 31
0.0
  0
ARC
  5
10266
330
1F
100
AcDbEntity
  8
11000_Left
  6
Continuous
 62
     7
370
    13
100
AcDbCircle
 10
245.4868542867571
 20
200.4819935384806
 30
0.0
 40
0.21079582
100
AcDbArc
 50
90.0
 51
180.0
  0
LINE
  5
10267
330
1F
100
AcDbEntity
  8
11000_Left
  6
Continuous
 62
     7
370
    13
100
AcDbLine
 10
248.065262286757
 20
197.6927935384806
 30
0.0
 11
245.4868542867571
 21
197.6927935384806
 31
0.0
  0
LINE
  5
10268
330
1F
100
AcDbEntity
  8
11000_Left
  6
Continuous
 62
     7
370
    13
100
AcDbLine
 10
245.4868542867571
 20
200.6927935384805
 30
0.0
 11
248.065262286757
 21
200.6927935384805
 31
0.0
  0
LINE
  5
10269
330
1F
100
AcDbEntity
  8
11000_Left
  6
Continuous
 62
     7
370
    50
100
AcDbLine
 10
248.7760582867572
 20
201.1927935384806
 30
0.0
 11
238.0760382867572
 21
201.1927935384806
 31
0.0
  0
LINE
  5
1026A
330
1F
100
AcDbEntity
  8
11000_Left
  6
Continuous
 62
     7
370
    50
100
AcDbLine
 10
249.6460582867572
 20
201.9877935384806
 30
0.0
 11
249.0760582867572
 21
201.9877935384806
 31
0.0
  0
LINE
  5
1026B
330
1F
100
AcDbEntity
  8
11000_Left
  6
Continuous
 62
     7
370
    50
100
AcDbLine
 10
248.7760582867572
 20
201.6877935384806
 30
0.0
 11
248.7760582867572
 21
201.1927935384806
 31
0.0
  0
ARC
  5
1026C
330
1F
100
AcDbEntity
  8
11000_Left
  6
Continuous
 62
     7
370
    50
100
AcDbCircle
 10
249.0760582867572
 20
201.6877935384806
 30
0.0
 40
0.3
100
AcDbArc
 50
90.0
 51
180.0
  0
LINE
  5
1026D
330
1F
100
AcDbEntity
  8
11000_Left
  6
Continuous
 62
     7
370
    50
100
AcDbLine
 10
243.9760582867572
 20
190.6627935384804
 30
0.0
 11
243.9760582867572
 21
190.9714535384806
 31
0.0
  0
LINE
  5
1026E
330
1F
100
AcDbEntity
  8
11000_Left
  6
Continuous
 62
     7
370
    50
100
AcDbLine
 10
248.7760582867572
 20
192.4877935384806
 30
0.0
 11
248.7760582867572
 21
191.3877935384806
 31
0.0
  0
ARC
  5
1026F
330
1F
100
AcDbEntity
  8
11000_Left
  6
Continuous
 62
     7
370
    50
100
AcDbCircle
 10
249.6460582867572
 20
201.6877935384806
 30
0.0
 40
0.3
100
AcDbArc
 50
0.000000000000007
 51
90.0
  0
LINE
  5
10270
330
1F
100
AcDbEntity
  8
11000_Left
  6
Continuous
 62
     7
370
    50
100
AcDbLine
 10
249.0760582867572
 20
191.0877935384806
 30
0.0
 11
249.9760582867573
 21
191.0877935384806
 31
0.0
  0
LINE
  5
10271
330
1F
100
AcDbEntity
  8
11000_Left
  6
Continuous
 62
     7
370
    50
100
AcDbLine
 10
250.2760582867572
 20
191.3877935384806
 30
0.0
 11
250.2760582867572
 21
197.4077935384806
 31
0.0
  0
LINE
  5
10272
330
1F
100
AcDbEntity
  8
11000_Left
  6
Continuous
 62
     7
370
    50
100
AcDbLine
 10
244.1984122867573
 20
191.2612135384806
 30
0.0
 11
248.7760582867572
 21
192.4877935384806
 31
0.0
  0
POLYLINE
  5
10273
330
1F
100
AcDbEntity
  8
11000_Left
  6
Continuous
 62
     7
370
    50
100
AcDb2dPolyline
 66
     1
 10
0.0
 20
0.0
 30
0.0
 70
     2
  0
VERTEX
  5
10274
330
10273
100
AcDbEntity
  8
11000_Left
  6
Continuous
 62
     7
370
    50
100
AcDbVertex
100
AcDb2dVertex
 10
249.9760582867573
 20
191.0877935384806
 30
0.0
  0
VERTEX
  5
10275
330
10273
100
AcDbEntity
  8
11000_Left
  6
Continuous
 62
     7
370
    50
100
AcDbVertex
100
AcDb2dVertex
 10
249.9903542867571
 20
191.0881335384807
 30
0.0
 42
0.01280324
 70
     1
  0
VERTEX
  5
10276
330
10273
100
AcDbEntity
  8
11000_Left
  6
Continuous
 62
     7
370
    50
100
AcDbVertex
100
AcDb2dVertex
 10
250.0048382867571
 20
191.0891735384806
 30
0.0
 42
0.012156197
  0
VERTEX
  5
10277
330
10273
100
AcDbEntity
  8
11000_Left
  6
Continuous
 62
     7
370
    50
100
AcDbVertex
100
AcDb2dVertex
 10
250.0195302867572
 20
191.0909735384807
 30
0.0
 42
0.011974228
 70
     1
  0
VERTEX
  5
10278
330
10273
100
AcDbEntity
  8
11000_Left
  6
Continuous
 62
     7
370
    50
100
AcDbVertex
100
AcDb2dVertex
 10
250.0343642867571
 20
191.0935135384806
 30
0.0
 42
0.012480874
  0
VERTEX
  5
10279
330
10273
100
AcDbEntity
  8
11000_Left
  6
Continuous
 62
     7
370
    50
100
AcDbVertex
100
AcDb2dVertex
 10
250.0492742867573
 20
191.0968735384807
 30
0.0
 42
0.012719875
 70
     1
  0
VERTEX
  5
1027A
330
10273
100
AcDbEntity
  8
11000_Left
  6
Continuous
 62
     7
370
    50
100
AcDbVertex
100
AcDb2dVertex
 10
250.0642022867572
 20
191.1010335384806
 30
0.0
 42
0.012875536
  0
VERTEX
  5
1027B
330
10273
100
AcDbEntity
  8
11000_Left
  6
Continuous
 62
     7
370
    50
100
AcDbVertex
100
AcDb2dVertex
 10
250.0790822867572
 20
191.1060535384806
 30
0.0
 42
0.01297708
 70
     1
  0
VERTEX
  5
1027C
330
10273
100
AcDbEntity
  8
11000_Left
  6
Continuous
 62
     7
370
    50
100
AcDbVertex
100
AcDb2dVertex
 10
250.0938522867572
 20
191.1118935384806
 30
0.0
 42
0.013184301
  0
VERTEX
  5
1027D
330
10273
100
AcDbEntity
  8
11000_Left
  6
Continuous
 62
     7
370
    50
100
AcDbVertex
100
AcDb2dVertex
 10
250.1084362867572
 20
191.1185935384806
 30
0.0
 42
0.013294073
 70
     1
  0
VERTEX
  5
1027E
330
10273
100
AcDbEntity
  8
11000_Left
  6
Continuous
 62
     7
370
    50
100
AcDbVertex
100
AcDb2dVertex
 10
250.1227702867572
 20
191.1261135384806
 30
0.0
 42
0.013438636
  0
VERTEX
  5
1027F
330
10273
100
AcDbEntity
  8
11000_Left
  6
Continuous
 62
     7
370
    50
100
AcDbVertex
100
AcDb2dVertex
 10
250.1367742867572
 20
191.1344935384806
 30
0.0
 42
0.013510871
 70
     1
  0
VERTEX
  5
10280
330
10273
100
AcDbEntity
  8
11000_Left
  6
Continuous
 62
     7
370
    50
100
AcDbVertex
100
AcDb2dVertex
 10
250.1503902867572
 20
191.1436535384806
 30
0.0
 42
0.013608778
  0
VERTEX
  5
10281
330
10273
100
AcDbEntity
  8
11000_Left
  6
Continuous
 62
     7
370
    50
100
AcDbVertex
100
AcDb2dVertex
 10
250.1635342867572
 20
191.1535935384806
 30
0.0
 42
0.013662856
 70
     1
  0
VERTEX
  5
10282
330
10273
100
AcDbEntity
  8
11000_Left
  6
Continuous
 62
     7
370
    50
100
AcDbVertex
100
AcDb2dVertex
 10
250.1761602867571
 20
191.1642735384806
 30
0.0
 42
0.013732641
  0
VERTEX
  5
10283
330
10273
100
AcDbEntity
  8
11000_Left
  6
Continuous
 62
     7
370
    50
100
AcDbVertex
100
AcDb2dVertex
 10
250.188182286757
 20
191.1756735384807
 30
0.0
 42
0.013722952
 70
     1
  0
VERTEX
  5
10284
330
10273
100
AcDbEntity
  8
11000_Left
  6
Continuous
 62
     7
370
    50
100
AcDbVertex
100
AcDb2dVertex
 10
250.199574286757
 20
191.1876935384806
 30
0.0
 42
0.013659262
  0
VERTEX
  5
10285
330
10273
100
AcDbEntity
  8
11000_Left
  6
Continuous
 62
     7
370
    50
100
AcDbVertex
100
AcDb2dVertex
 10
250.210252286757
 20
191.2003135384806
 30
0.0
 42
0.013732727
 70
     1
  0
VERTEX
  5
10286
330
10273
100
AcDbEntity
  8
11000_Left
  6
Continuous
 62
     7
370
    50
100
AcDbVertex
100
AcDb2dVertex
 10
250.2202062867572
 20
191.2134735384806
 30
0.0
 42
0.013897641
  0
VERTEX
  5
10287
330
10273
100
AcDbEntity
  8
11000_Left
  6
Continuous
 62
     7
370
    50
100
AcDbVertex
100
AcDb2dVertex
 10
250.2293662867572
 20
191.2271135384806
 30
0.0
 42
0.013543887
 70
     1
  0
VERTEX
  5
10288
330
10273
100
AcDbEntity
  8
11000_Left
  6
Continuous
 62
     7
370
    50
100
AcDbVertex
100
AcDb2dVertex
 10
250.2377362867572
 20
191.2410935384806
 30
0.0
 42
0.012726539
  0
VERTEX
  5
10289
330
10273
100
AcDbEntity
  8
11000_Left
  6
Continuous
 62
     7
370
    50
100
AcDbVertex
100
AcDb2dVertex
 10
250.2452562867572
 20
191.2553135384806
 30
0.0
 42
0.013686455
 70
     1
  0
VERTEX
  5
1028A
330
10273
100
AcDbEntity
  8
11000_Left
  6
Continuous
 62
     7
370
    50
100
AcDbVertex
100
AcDb2dVertex
 10
250.2519642867572
 20
191.2700135384806
 30
0.0
 42
0.015725722
  0
VERTEX
  5
1028B
330
10273
100
AcDbEntity
  8
11000_Left
  6
Continuous
 62
     7
370
    50
100
AcDbVertex
100
AcDb2dVertex
 10
250.2578262867572
 20
191.2852335384807
 30
0.0
 42
0.012376153
 70
     1
  0
VERTEX
  5
1028C
330
10273
100
AcDbEntity
  8
11000_Left
  6
Continuous
 62
     7
370
    50
100
AcDbVertex
100
AcDb2dVertex
 10
250.2628162867572
 20
191.2996535384806
 30
0.0
 42
0.0053921038
  0
VERTEX
  5
1028D
330
10273
100
AcDbEntity
  8
11000_Left
  6
Continuous
 62
     7
370
    50
100
AcDbVertex
100
AcDb2dVertex
 10
250.2668882867571
 20
191.3127935384807
 30
0.0
 42
0.016185648
 70
     1
  0
VERTEX
  5
1028E
330
10273
100
AcDbEntity
  8
11000_Left
  6
Continuous
 62
     7
370
    50
100
AcDbVertex
100
AcDb2dVertex
 10
250.2703362867572
 20
191.3294935384806
 30
0.0
 42
0.027066972
  0
VERTEX
  5
1028F
330
10273
100
AcDbEntity
  8
11000_Left
  6
Continuous
 62
     7
370
    50
100
AcDbVertex
100
AcDb2dVertex
 10
250.2734002867572
 20
191.3548335384806
 30
0.0
 42
0.013868237
 70
     1
  0
VERTEX
  5
10290
330
10273
100
AcDbEntity
  8
11000_Left
  6
Continuous
 62
     7
370
    50
100
AcDbVertex
100
AcDb2dVertex
 10
250.2760582867572
 20
191.3877935384806
 30
0.0
 42
0.0076245554
  0
SEQEND
  5
10291
330
10273
100
AcDbEntity
  8
11000_Left
  6
Continuous
 62
     7
370
    50
  0
ARC
  5
10292
330
1F
100
AcDbEntity
  8
11000_Left
  6
Continuous
 62
     7
370
    50
100
AcDbCircle
 10
249.0760582867572
 20
191.3877935384806
 30
0.0
 40
0.3
100
AcDbArc
 50
180.0
 51
270.0
  0
ARC
  5
10293
330
1F
100
AcDbEntity
  8
11000_Left
  6
Continuous
 62
     7
370
    50
100
AcDbCircle
 10
244.2760582867572
 20
190.9714535384806
 30
0.0
 40
0.3
100
AcDbArc
 50
105.0000000000016
 51
180.0
  0
ARC
  5
10294
330
1F
100
AcDbEntity
  8
11000_Left
  6
Continuous
 62
     7
370
    50
100
AcDbCircle
 10
243.6760582867572
 20
190.6627935384804
 30
0.0
 40
0.3
100
AcDbArc
 50
270.0
 51
0.000000000000007
  0
LINE
  5
10295
330
1F
100
AcDbEntity
  8
11000_Left
  6
Continuous
 62
     7
370
    50
100
AcDbLine
 10
238.0760382867572
 20
190.3627935384806
 30
0.0
 11
243.6760582867572
 21
190.3627935384806
 31
0.0
  0
LINE
  5
10296
330
1F
100
AcDbEntity
  8
11000_Left
  6
Continuous
 62
     7
370
    13
100
AcDbLine
 10
101.6760622867571
 20
304.4177935384807
 30
0.0
 11
101.6760622867571
 21
104.6177935384805
 31
0.0
  0
LINE
  5
10297
330
1F
100
AcDbEntity
  8
11000_Left
  6
Continuous
 62
     7
370
    13
100
AcDbLine
 10
196.3760582867572
 20
104.6177935384805
 30
0.0
 11
196.3760582867572
 21
304.4177935384807
 31
0.0
  0
LINE
  5
10298
330
1F
100
AcDbEntity
  8
11000_Left
  6
Continuous
 62
     7
370
    13
100
AcDbLine
 10
187.4760582867573
 20
104.6177935384805
 30
0.0
 11
187.4760582867573
 21
304.4177935384807
 31
0.0
  0
LINE
  5
10299
330
1F
100
AcDbEntity
  8
11000_Left
  6
Continuous
 62
     7
370
    13
100
AcDbLine
 10
184.9760582867572
 20
304.4177935384807
 30
0.0
 11
184.9760582867572
 21
104.6177935384805
 31
0.0
  0
LINE
  5
1029A
330
1F
100
AcDbEntity
  8
11000_Left
  6
Continuous
 62
     7
370
    13
100
AcDbLine
 10
175.5760622867571
 20
104.6177935384805
 30
0.0
 11
175.5760622867571
 21
304.4177935384807
 31
0.0
  0
LINE
  5
1029B
330
1F
100
AcDbEntity
  8
11000_Left
  6
Continuous
 62
     7
370
    13
100
AcDbLine
 10
173.0760622867571
 20
304.4177935384807
 30
0.0
 11
173.0760622867571
 21
104.6177935384805
 31
0.0
  0
LINE
  5
1029C
330
1F
100
AcDbEntity
  8
11000_Left
  6
Continuous
 62
     7
370
    13
100
AcDbLine
 10
163.6760622867571
 20
104.6177935384805
 30
0.0
 11
163.6760622867571
 21
304.4177935384807
 31
0.0
  0
LINE
  5
1029D
330
1F
100
AcDbEntity
  8
11000_Left
  6
Continuous
 62
     7
370
    13
100
AcDbLine
 10
161.1760622867571
 20
304.4177935384807
 30
0.0
 11
161.1760622867571
 21
104.6177935384805
 31
0.0
  0
LINE
  5
1029E
330
1F
100
AcDbEntity
  8
11000_Left
  6
Continuous
 62
     7
370
    13
100
AcDbLine
 10
151.7760622867572
 20
104.6177935384805
 30
0.0
 11
151.7760622867572
 21
304.4177935384807
 31
0.0
  0
LINE
  5
1029F
330
1F
100
AcDbEntity
  8
11000_Left
  6
Continuous
 62
     7
370
    13
100
AcDbLine
 10
149.2760622867572
 20
304.4177935384807
 30
0.0
 11
149.2760622867572
 21
104.6177935384805
 31
0.0
  0
LINE
  5
102A0
330
1F
100
AcDbEntity
  8
11000_Left
  6
Continuous
 62
     7
370
    13
100
AcDbLine
 10
139.8760622867572
 20
104.6177935384805
 30
0.0
 11
139.8760622867572
 21
304.4177935384807
 31
0.0
  0
LINE
  5
102A1
330
1F
100
AcDbEntity
  8
11000_Left
  6
Continuous
 62
     7
370
    13
100
AcDbLine
 10
137.3760622867572
 20
304.4177935384807
 30
0.0
 11
137.3760622867572
 21
104.6177935384805
 31
0.0
  0
LINE
  5
102A2
330
1F
100
AcDbEntity
  8
11000_Left
  6
Continuous
 62
     7
370
    13
100
AcDbLine
 10
127.9760622867572
 20
104.6177935384805
 30
0.0
 11
127.9760622867572
 21
304.4177935384807
 31
0.0
  0
LINE
  5
102A3
330
1F
100
AcDbEntity
  8
11000_Left
  6
Continuous
 62
     7
370
    13
100
AcDbLine
 10
125.4760622867572
 20
304.4177935384807
 30
0.0
 11
125.4760622867572
 21
104.6177935384805
 31
0.0
  0
LINE
  5
102A4
330
1F
100
AcDbEntity
  8
11000_Left
  6
Continuous
 62
     7
370
    13
100
AcDbLine
 10
116.0760622867571
 20
104.6177935384805
 30
0.0
 11
116.0760622867571
 21
304.4177935384807
 31
0.0
  0
LINE
  5
102A5
330
1F
100
AcDbEntity
  8
11000_Left
  6
Continuous
 62
     7
370
    13
100
AcDbLine
 10
113.5760622867571
 20
304.4177935384807
 30
0.0
 11
113.5760622867571
 21
104.6177935384805
 31
0.0
  0
LINE
  5
102A6
330
1F
100
AcDbEntity
  8
11000_Left
  6
Continuous
 62
     7
370
    13
100
AcDbLine
 10
104.1760622867571
 20
104.6177935384805
 30
0.0
 11
104.1760622867571
 21
304.4177935384807
 31
0.0
  0
LINE
  5
102A7
330
1F
100
AcDbEntity
  8
11000_Left
  6
Continuous
 62
     7
370
    13
100
AcDbLine
 10
92.37606228675725
 20
104.6177935384805
 30
0.0
 11
92.37606228675725
 21
304.4177935384807
 31
0.0
  0
LINE
  5
102A8
330
1F
100
AcDbEntity
  8
11000_Left
  6
Continuous
 62
     7
370
    13
100
AcDbLine
 10
223.1760582867571
 20
104.6177935384805
 30
0.0
 11
223.1760582867571
 21
304.4177935384807
 31
0.0
  0
LINE
  5
102A9
330
1F
100
AcDbEntity
  8
11000_Left
  6
Continuous
 62
     7
370
    13
100
AcDbLine
 10
220.6760582867572
 20
304.4177935384807
 30
0.0
 11
220.6760582867572
 21
104.6177935384805
 31
0.0
  0
LINE
  5
102AA
330
1F
100
AcDbEntity
  8
11000_Left
  6
Continuous
 62
     7
370
    13
100
AcDbLine
 10
211.2760582867572
 20
104.6177935384805
 30
0.0
 11
211.2760582867572
 21
304.4177935384807
 31
0.0
  0
LINE
  5
102AB
330
1F
100
AcDbEntity
  8
11000_Left
  6
Continuous
 62
     7
370
    13
100
AcDbLine
 10
208.7760582867572
 20
304.4177935384807
 30
0.0
 11
208.7760582867572
 21
104.6177935384805
 31
0.0
  0
LINE
  5
102AC
330
1F
100
AcDbEntity
  8
11000_Left
  6
Continuous
 62
     7
370
    13
100
AcDbLine
 10
199.3760582867572
 20
104.6177935384805
 30
0.0
 11
199.3760582867572
 21
304.4177935384807
 31
0.0
  0
LINE
  5
102AD
330
1F
100
AcDbEntity
  8
11000_Left
  6
Continuous
 62
     7
370
    50
100
AcDbLine
 10
90.87606228675724
 20
104.6177935384805
 30
0.0
 11
90.87606228675724
 21
304.4177935384807
 31
0.0
  0
LINE
  5
102AE
330
1F
100
AcDbEntity
  8
11000_Left
  6
Continuous
 62
     7
370
    50
100
AcDbLine
 10
87.87606228675725
 20
304.4177935384807
 30
0.0
 11
87.87606228675725
 21
104.6177935384805
 31
0.0
  0
LINE
  5
102AF
330
1F
100
AcDbEntity
  8
11000_Left
  6
Continuous
 62
     7
370
    50
100
AcDbLine
 10
238.0760582867571
 20
104.6177935384805
 30
0.0
 11
238.0760582867571
 21
304.4177935384807
 31
0.0
  0
LINE
  5
102B0
330
1F
100
AcDbEntity
  8
11000_Left
  6
Continuous
 62
     7
370
    13
100
AcDbLine
 10
233.0760582867572
 20
104.6177935384805
 30
0.0
 11
233.0760582867572
 21
304.4177935384807
 31
0.0
  0
LINE
  5
102B1
330
1F
100
AcDbEntity
  8
11000_Left
  6
Continuous
 62
     7
370
    50
100
AcDbLine
 10
208.7760582867572
 20
304.4177935384807
 30
0.0
 11
199.3760582867572
 21
304.4177935384807
 31
0.0
  0
LINE
  5
102B2
330
1F
100
AcDbEntity
  8
11000_Left
  6
Continuous
 62
     7
370
    50
100
AcDbLine
 10
209.2760582867572
 20
304.4177935384807
 30
0.0
 11
208.7760582867572
 21
304.4177935384807
 31
0.0
  0
LINE
  5
102B3
330
1F
100
AcDbEntity
  8
11000_Left
  6
Continuous
 62
     7
370
    50
100
AcDbLine
 10
210.7760582867572
 20
304.4177935384807
 30
0.0
 11
209.2760582867572
 21
304.4177935384807
 31
0.0
  0
LINE
  5
102B4
330
1F
100
AcDbEntity
  8
11000_Left
  6
Continuous
 62
     7
370
    50
100
AcDbLine
 10
211.2760582867572
 20
304.4177935384807
 30
0.0
 11
210.7760582867572
 21
304.4177935384807
 31
0.0
  0
LINE
  5
102B5
330
1F
100
AcDbEntity
  8
11000_Left
  6
Continuous
 62
     7
370
    50
100
AcDbLine
 10
220.6760582867572
 20
304.4177935384807
 30
0.0
 11
211.2760582867572
 21
304.4177935384807
 31
0.0
  0
LINE
  5
102B6
330
1F
100
AcDbEntity
  8
11000_Left
  6
Continuous
 62
     7
370
    50
100
AcDbLine
 10
221.1760582867571
 20
304.4177935384807
 30
0.0
 11
220.6760582867572
 21
304.4177935384807
 31
0.0
  0
LINE
  5
102B7
330
1F
100
AcDbEntity
  8
11000_Left
  6
Continuous
 62
     7
370
    50
100
AcDbLine
 10
222.6760582867572
 20
304.4177935384807
 30
0.0
 11
221.1760582867571
 21
304.4177935384807
 31
0.0
  0
LINE
  5
102B8
330
1F
100
AcDbEntity
  8
11000_Left
  6
Continuous
 62
     7
370
    50
100
AcDbLine
 10
223.1760582867571
 20
304.4177935384807
 30
0.0
 11
222.6760582867572
 21
304.4177935384807
 31
0.0
  0
LINE
  5
102B9
330
1F
100
AcDbEntity
  8
11000_Left
  6
Continuous
 62
     7
370
    50
100
AcDbLine
 10
232.5760582867572
 20
304.4177935384807
 30
0.0
 11
223.1760582867571
 21
304.4177935384807
 31
0.0
  0
LINE
  5
102BA
330
1F
100
AcDbEntity
  8
11000_Left
  6
Continuous
 62
     7
370
    50
100
AcDbLine
 10
233.0760582867572
 20
304.4177935384807
 30
0.0
 11
232.5760582867572
 21
304.4177935384807
 31
0.0
  0
LINE
  5
102BB
330
1F
100
AcDbEntity
  8
11000_Left
  6
Continuous
 62
     7
370
    50
100
AcDbLine
 10
238.0760582867571
 20
304.4177935384807
 30
0.0
 11
233.0760582867572
 21
304.4177935384807
 31
0.0
  0
LINE
  5
102BC
330
1F
100
AcDbEntity
  8
11000_Left
  6
Continuous
 62
     7
370
    50
100
AcDbLine
 10
90.87606228675724
 20
304.4177935384807
 30
0.0
 11
87.87606228675725
 21
304.4177935384807
 31
0.0
  0
LINE
  5
102BD
330
1F
100
AcDbEntity
  8
11000_Left
  6
Continuous
 62
     7
370
    50
100
AcDbLine
 10
91.37606228675725
 20
304.4177935384807
 30
0.0
 11
90.87606228675724
 21
304.4177935384807
 31
0.0
  0
LINE
  5
102BE
330
1F
100
AcDbEntity
  8
11000_Left
  6
Continuous
 62
     7
370
    50
100
AcDbLine
 10
91.87606228675724
 20
304.4177935384807
 30
0.0
 11
91.37606228675725
 21
304.4177935384807
 31
0.0
  0
LINE
  5
102BF
330
1F
100
AcDbEntity
  8
11000_Left
  6
Continuous
 62
     7
370
    50
100
AcDbLine
 10
92.37606228675725
 20
304.4177935384807
 30
0.0
 11
91.87606228675724
 21
304.4177935384807
 31
0.0
  0
LINE
  5
102C0
330
1F
100
AcDbEntity
  8
11000_Left
  6
Continuous
 62
     7
370
    50
100
AcDbLine
 10
101.6760622867571
 20
304.4177935384807
 30
0.0
 11
92.37606228675725
 21
304.4177935384807
 31
0.0
  0
LINE
  5
102C1
330
1F
100
AcDbEntity
  8
11000_Left
  6
Continuous
 62
     7
370
    50
100
AcDbLine
 10
102.1760622867571
 20
304.4177935384807
 30
0.0
 11
101.6760622867571
 21
304.4177935384807
 31
0.0
  0
LINE
  5
102C2
330
1F
100
AcDbEntity
  8
11000_Left
  6
Continuous
 62
     7
370
    50
100
AcDbLine
 10
103.6760622867572
 20
304.4177935384807
 30
0.0
 11
102.1760622867571
 21
304.4177935384807
 31
0.0
  0
LINE
  5
102C3
330
1F
100
AcDbEntity
  8
11000_Left
  6
Continuous
 62
     7
370
    50
100
AcDbLine
 10
104.1760622867571
 20
304.4177935384807
 30
0.0
 11
103.6760622867572
 21
304.4177935384807
 31
0.0
  0
LINE
  5
102C4
330
1F
100
AcDbEntity
  8
11000_Left
  6
Continuous
 62
     7
370
    50
100
AcDbLine
 10
113.5760622867571
 20
304.4177935384807
 30
0.0
 11
104.1760622867571
 21
304.4177935384807
 31
0.0
  0
LINE
  5
102C5
330
1F
100
AcDbEntity
  8
11000_Left
  6
Continuous
 62
     7
370
    50
100
AcDbLine
 10
114.0760622867571
 20
304.4177935384807
 30
0.0
 11
113.5760622867571
 21
304.4177935384807
 31
0.0
  0
LINE
  5
102C6
330
1F
100
AcDbEntity
  8
11000_Left
  6
Continuous
 62
     7
370
    50
100
AcDbLine
 10
115.5760622867571
 20
304.4177935384807
 30
0.0
 11
114.0760622867571
 21
304.4177935384807
 31
0.0
  0
LINE
  5
102C7
330
1F
100
AcDbEntity
  8
11000_Left
  6
Continuous
 62
     7
370
    50
100
AcDbLine
 10
116.0760622867571
 20
304.4177935384807
 30
0.0
 11
115.5760622867571
 21
304.4177935384807
 31
0.0
  0
LINE
  5
102C8
330
1F
100
AcDbEntity
  8
11000_Left
  6
Continuous
 62
     7
370
    50
100
AcDbLine
 10
125.4760622867572
 20
304.4177935384807
 30
0.0
 11
116.0760622867571
 21
304.4177935384807
 31
0.0
  0
LINE
  5
102C9
330
1F
100
AcDbEntity
  8
11000_Left
  6
Continuous
 62
     7
370
    50
100
AcDbLine
 10
125.9760622867572
 20
304.4177935384807
 30
0.0
 11
125.4760622867572
 21
304.4177935384807
 31
0.0
  0
LINE
  5
102CA
330
1F
100
AcDbEntity
  8
11000_Left
  6
Continuous
 62
     7
370
    50
100
AcDbLine
 10
127.4760622867572
 20
304.4177935384807
 30
0.0
 11
125.9760622867572
 21
304.4177935384807
 31
0.0
  0
LINE
  5
102CB
330
1F
100
AcDbEntity
  8
11000_Left
  6
Continuous
 62
     7
370
    50
100
AcDbLine
 10
127.9760622867572
 20
304.4177935384807
 30
0.0
 11
127.4760622867572
 21
304.4177935384807
 31
0.0
  0
LINE
  5
102CC
330
1F
100
AcDbEntity
  8
11000_Left
  6
Continuous
 62
     7
370
    50
100
AcDbLine
 10
137.3760622867572
 20
304.4177935384807
 30
0.0
 11
127.9760622867572
 21
304.4177935384807
 31
0.0
  0
LINE
  5
102CD
330
1F
100
AcDbEntity
  8
11000_Left
  6
Continuous
 62
     7
370
    50
100
AcDbLine
 10
137.8760622867572
 20
304.4177935384807
 30
0.0
 11
137.3760622867572
 21
304.4177935384807
 31
0.0
  0
LINE
  5
102CE
330
1F
100
AcDbEntity
  8
11000_Left
  6
Continuous
 62
     7
370
    50
100
AcDbLine
 10
139.3760622867572
 20
304.4177935384807
 30
0.0
 11
137.8760622867572
 21
304.4177935384807
 31
0.0
  0
LINE
  5
102CF
330
1F
100
AcDbEntity
  8
11000_Left
  6
Continuous
 62
     7
370
    50
100
AcDbLine
 10
139.8760622867572
 20
304.4177935384807
 30
0.0
 11
139.3760622867572
 21
304.4177935384807
 31
0.0
  0
LINE
  5
102D0
330
1F
100
AcDbEntity
  8
11000_Left
  6
Continuous
 62
     7
370
    50
100
AcDbLine
 10
149.2760622867572
 20
304.4177935384807
 30
0.0
 11
139.8760622867572
 21
304.4177935384807
 31
0.0
  0
LINE
  5
102D1
330
1F
100
AcDbEntity
  8
11000_Left
  6
Continuous
 62
     7
370
    50
100
AcDbLine
 10
149.7760622867572
 20
304.4177935384807
 30
0.0
 11
149.2760622867572
 21
304.4177935384807
 31
0.0
  0
LINE
  5
102D2
330
1F
100
AcDbEntity
  8
11000_Left
  6
Continuous
 62
     7
370
    50
100
AcDbLine
 10
151.2760622867572
 20
304.4177935384807
 30
0.0
 11
149.7760622867572
 21
304.4177935384807
 31
0.0
  0
LINE
  5
102D3
330
1F
100
AcDbEntity
  8
11000_Left
  6
Continuous
 62
     7
370
    50
100
AcDbLine
 10
151.7760622867572
 20
304.4177935384807
 30
0.0
 11
151.2760622867572
 21
304.4177935384807
 31
0.0
  0
LINE
  5
102D4
330
1F
100
AcDbEntity
  8
11000_Left
  6
Continuous
 62
     7
370
    50
100
AcDbLine
 10
161.1760622867571
 20
304.4177935384807
 30
0.0
 11
151.7760622867572
 21
304.4177935384807
 31
0.0
  0
LINE
  5
102D5
330
1F
100
AcDbEntity
  8
11000_Left
  6
Continuous
 62
     7
370
    50
100
AcDbLine
 10
161.6760622867571
 20
304.4177935384807
 30
0.0
 11
161.1760622867571
 21
304.4177935384807
 31
0.0
  0
LINE
  5
102D6
330
1F
100
AcDbEntity
  8
11000_Left
  6
Continuous
 62
     7
370
    50
100
AcDbLine
 10
163.1760622867571
 20
304.4177935384807
 30
0.0
 11
161.6760622867571
 21
304.4177935384807
 31
0.0
  0
LINE
  5
102D7
330
1F
100
AcDbEntity
  8
11000_Left
  6
Continuous
 62
     7
370
    50
100
AcDbLine
 10
163.6760622867571
 20
304.4177935384807
 30
0.0
 11
163.1760622867571
 21
304.4177935384807
 31
0.0
  0
LINE
  5
102D8
330
1F
100
AcDbEntity
  8
11000_Left
  6
Continuous
 62
     7
370
    50
100
AcDbLine
 10
173.0760622867571
 20
304.4177935384807
 30
0.0
 11
163.6760622867571
 21
304.4177935384807
 31
0.0
  0
LINE
  5
102D9
330
1F
100
AcDbEntity
  8
11000_Left
  6
Continuous
 62
     7
370
    50
100
AcDbLine
 10
173.5760622867571
 20
304.4177935384807
 30
0.0
 11
173.0760622867571
 21
304.4177935384807
 31
0.0
  0
LINE
  5
102DA
330
1F
100
AcDbEntity
  8
11000_Left
  6
Continuous
 62
     7
370
    50
100
AcDbLine
 10
175.0760622867571
 20
304.4177935384807
 30
0.0
 11
173.5760622867571
 21
304.4177935384807
 31
0.0
  0
LINE
  5
102DB
330
1F
100
AcDbEntity
  8
11000_Left
  6
Continuous
 62
     7
370
    50
100
AcDbLine
 10
175.5760622867571
 20
304.4177935384807
 30
0.0
 11
175.0760622867571
 21
304.4177935384807
 31
0.0
  0
LINE
  5
102DC
330
1F
100
AcDbEntity
  8
11000_Left
  6
Continuous
 62
     7
370
    50
100
AcDbLine
 10
184.9760582867572
 20
304.4177935384807
 30
0.0
 11
175.5760622867571
 21
304.4177935384807
 31
0.0
  0
LINE
  5
102DD
330
1F
100
AcDbEntity
  8
11000_Left
  6
Continuous
 62
     7
370
    50
100
AcDbLine
 10
185.4760582867571
 20
304.4177935384807
 30
0.0
 11
184.9760582867572
 21
304.4177935384807
 31
0.0
  0
LINE
  5
102DE
330
1F
100
AcDbEntity
  8
11000_Left
  6
Continuous
 62
     7
370
    50
100
AcDbLine
 10
186.9760582867573
 20
304.4177935384807
 30
0.0
 11
185.4760582867571
 21
304.4177935384807
 31
0.0
  0
LINE
  5
102DF
330
1F
100
AcDbEntity
  8
11000_Left
  6
Continuous
 62
     7
370
    50
100
AcDbLine
 10
187.4760582867573
 20
304.4177935384807
 30
0.0
 11
186.9760582867573
 21
304.4177935384807
 31
0.0
  0
LINE
  5
102E0
330
1F
100
AcDbEntity
  8
11000_Left
  6
Continuous
 62
     7
370
    50
100
AcDbLine
 10
196.3760582867572
 20
304.4177935384807
 30
0.0
 11
187.4760582867573
 21
304.4177935384807
 31
0.0
  0
LINE
  5
102E1
330
1F
100
AcDbEntity
  8
11000_Left
  6
Continuous
 62
     7
370
    50
100
AcDbLine
 10
197.3760582867572
 20
304.4177935384807
 30
0.0
 11
196.3760582867572
 21
304.4177935384807
 31
0.0
  0
LINE
  5
102E2
330
1F
100
AcDbEntity
  8
11000_Left
  6
Continuous
 62
     7
370
    50
100
AcDbLine
 10
198.8760582867572
 20
304.4177935384807
 30
0.0
 11
197.3760582867572
 21
304.4177935384807
 31
0.0
  0
LINE
  5
102E3
330
1F
100
AcDbEntity
  8
11000_Left
  6
Continuous
 62
     7
370
    50
100
AcDbLine
 10
199.3760582867572
 20
304.4177935384807
 30
0.0
 11
198.8760582867572
 21
304.4177935384807
 31
0.0
  0
LINE
  5
102E4
330
1F
100
AcDbEntity
  8
11000_Left
  6
Continuous
 62
     7
370
    50
100
AcDbLine
 10
197.3760582867572
 20
104.6177935384805
 30
0.0
 11
198.8760582867572
 21
104.6177935384805
 31
0.0
  0
LINE
  5
102E5
330
1F
100
AcDbEntity
  8
11000_Left
  6
Continuous
 62
     7
370
    50
100
AcDbLine
 10
196.3760582867572
 20
104.6177935384805
 30
0.0
 11
197.3760582867572
 21
104.6177935384805
 31
0.0
  0
LINE
  5
102E6
330
1F
100
AcDbEntity
  8
11000_Left
  6
Continuous
 62
     7
370
    50
100
AcDbLine
 10
187.4760582867573
 20
104.6177935384805
 30
0.0
 11
196.3760582867572
 21
104.6177935384805
 31
0.0
  0
LINE
  5
102E7
330
1F
100
AcDbEntity
  8
11000_Left
  6
Continuous
 62
     7
370
    50
100
AcDbLine
 10
186.9760582867573
 20
104.6177935384805
 30
0.0
 11
187.4760582867573
 21
104.6177935384805
 31
0.0
  0
LINE
  5
102E8
330
1F
100
AcDbEntity
  8
11000_Left
  6
Continuous
 62
     7
370
    50
100
AcDbLine
 10
185.4760582867571
 20
104.6177935384805
 30
0.0
 11
186.9760582867573
 21
104.6177935384805
 31
0.0
  0
LINE
  5
102E9
330
1F
100
AcDbEntity
  8
11000_Left
  6
Continuous
 62
     7
370
    50
100
AcDbLine
 10
184.9760582867572
 20
104.6177935384805
 30
0.0
 11
185.4760582867571
 21
104.6177935384805
 31
0.0
  0
LINE
  5
102EA
330
1F
100
AcDbEntity
  8
11000_Left
  6
Continuous
 62
     7
370
    50
100
AcDbLine
 10
175.5760622867571
 20
104.6177935384805
 30
0.0
 11
184.9760582867572
 21
104.6177935384805
 31
0.0
  0
LINE
  5
102EB
330
1F
100
AcDbEntity
  8
11000_Left
  6
Continuous
 62
     7
370
    50
100
AcDbLine
 10
175.0760622867571
 20
104.6177935384805
 30
0.0
 11
175.5760622867571
 21
104.6177935384805
 31
0.0
  0
LINE
  5
102EC
330
1F
100
AcDbEntity
  8
11000_Left
  6
Continuous
 62
     7
370
    50
100
AcDbLine
 10
173.5760622867571
 20
104.6177935384805
 30
0.0
 11
175.0760622867571
 21
104.6177935384805
 31
0.0
  0
LINE
  5
102ED
330
1F
100
AcDbEntity
  8
11000_Left
  6
Continuous
 62
     7
370
    50
100
AcDbLine
 10
173.0760622867571
 20
104.6177935384805
 30
0.0
 11
173.5760622867571
 21
104.6177935384805
 31
0.0
  0
LINE
  5
102EE
330
1F
100
AcDbEntity
  8
11000_Left
  6
Continuous
 62
     7
370
    50
100
AcDbLine
 10
163.6760622867571
 20
104.6177935384805
 30
0.0
 11
173.0760622867571
 21
104.6177935384805
 31
0.0
  0
LINE
  5
102EF
330
1F
100
AcDbEntity
  8
11000_Left
  6
Continuous
 62
     7
370
    50
100
AcDbLine
 10
163.1760622867571
 20
104.6177935384805
 30
0.0
 11
163.6760622867571
 21
104.6177935384805
 31
0.0
  0
LINE
  5
102F0
330
1F
100
AcDbEntity
  8
11000_Left
  6
Continuous
 62
     7
370
    50
100
AcDbLine
 10
161.6760622867571
 20
104.6177935384805
 30
0.0
 11
163.1760622867571
 21
104.6177935384805
 31
0.0
  0
LINE
  5
102F1
330
1F
100
AcDbEntity
  8
11000_Left
  6
Continuous
 62
     7
370
    50
100
AcDbLine
 10
161.1760622867571
 20
104.6177935384805
 30
0.0
 11
161.6760622867571
 21
104.6177935384805
 31
0.0
  0
LINE
  5
102F2
330
1F
100
AcDbEntity
  8
11000_Left
  6
Continuous
 62
     7
370
    50
100
AcDbLine
 10
151.7760622867572
 20
104.6177935384805
 30
0.0
 11
161.1760622867571
 21
104.6177935384805
 31
0.0
  0
LINE
  5
102F3
330
1F
100
AcDbEntity
  8
11000_Left
  6
Continuous
 62
     7
370
    50
100
AcDbLine
 10
151.2760622867572
 20
104.6177935384805
 30
0.0
 11
151.7760622867572
 21
104.6177935384805
 31
0.0
  0
LINE
  5
102F4
330
1F
100
AcDbEntity
  8
11000_Left
  6
Continuous
 62
     7
370
    50
100
AcDbLine
 10
149.7760622867572
 20
104.6177935384805
 30
0.0
 11
151.2760622867572
 21
104.6177935384805
 31
0.0
  0
LINE
  5
102F5
330
1F
100
AcDbEntity
  8
11000_Left
  6
Continuous
 62
     7
370
    50
100
AcDbLine
 10
149.2760622867572
 20
104.6177935384805
 30
0.0
 11
149.7760622867572
 21
104.6177935384805
 31
0.0
  0
LINE
  5
102F6
330
1F
100
AcDbEntity
  8
11000_Left
  6
Continuous
 62
     7
370
    50
100
AcDbLine
 10
139.8760622867572
 20
104.6177935384805
 30
0.0
 11
149.2760622867572
 21
104.6177935384805
 31
0.0
  0
LINE
  5
102F7
330
1F
100
AcDbEntity
  8
11000_Left
  6
Continuous
 62
     7
370
    50
100
AcDbLine
 10
139.3760622867572
 20
104.6177935384805
 30
0.0
 11
139.8760622867572
 21
104.6177935384805
 31
0.0
  0
LINE
  5
102F8
330
1F
100
AcDbEntity
  8
11000_Left
  6
Continuous
 62
     7
370
    50
100
AcDbLine
 10
137.8760622867572
 20
104.6177935384805
 30
0.0
 11
139.3760622867572
 21
104.6177935384805
 31
0.0
  0
LINE
  5
102F9
330
1F
100
AcDbEntity
  8
11000_Left
  6
Continuous
 62
     7
370
    50
100
AcDbLine
 10
137.3760622867572
 20
104.6177935384805
 30
0.0
 11
137.8760622867572
 21
104.6177935384805
 31
0.0
  0
LINE
  5
102FA
330
1F
100
AcDbEntity
  8
11000_Left
  6
Continuous
 62
     7
370
    50
100
AcDbLine
 10
127.9760622867572
 20
104.6177935384805
 30
0.0
 11
137.3760622867572
 21
104.6177935384805
 31
0.0
  0
LINE
  5
102FB
330
1F
100
AcDbEntity
  8
11000_Left
  6
Continuous
 62
     7
370
    50
100
AcDbLine
 10
127.4760622867572
 20
104.6177935384805
 30
0.0
 11
127.9760622867572
 21
104.6177935384805
 31
0.0
  0
LINE
  5
102FC
330
1F
100
AcDbEntity
  8
11000_Left
  6
Continuous
 62
     7
370
    50
100
AcDbLine
 10
125.9760622867572
 20
104.6177935384805
 30
0.0
 11
127.4760622867572
 21
104.6177935384805
 31
0.0
  0
LINE
  5
102FD
330
1F
100
AcDbEntity
  8
11000_Left
  6
Continuous
 62
     7
370
    50
100
AcDbLine
 10
125.4760622867572
 20
104.6177935384805
 30
0.0
 11
125.9760622867572
 21
104.6177935384805
 31
0.0
  0
LINE
  5
102FE
330
1F
100
AcDbEntity
  8
11000_Left
  6
Continuous
 62
     7
370
    50
100
AcDbLine
 10
116.0760622867571
 20
104.6177935384805
 30
0.0
 11
125.4760622867572
 21
104.6177935384805
 31
0.0
  0
LINE
  5
102FF
330
1F
100
AcDbEntity
  8
11000_Left
  6
Continuous
 62
     7
370
    50
100
AcDbLine
 10
115.5760622867571
 20
104.6177935384805
 30
0.0
 11
116.0760622867571
 21
104.6177935384805
 31
0.0
  0
LINE
  5
10300
330
1F
100
AcDbEntity
  8
11000_Left
  6
Continuous
 62
     7
370
    50
100
AcDbLine
 10
114.0760622867571
 20
104.6177935384805
 30
0.0
 11
115.5760622867571
 21
104.6177935384805
 31
0.0
  0
LINE
  5
10301
330
1F
100
AcDbEntity
  8
11000_Left
  6
Continuous
 62
     7
370
    50
100
AcDbLine
 10
113.5760622867571
 20
104.6177935384805
 30
0.0
 11
114.0760622867571
 21
104.6177935384805
 31
0.0
  0
LINE
  5
10302
330
1F
100
AcDbEntity
  8
11000_Left
  6
Continuous
 62
     7
370
    50
100
AcDbLine
 10
104.1760622867571
 20
104.6177935384805
 30
0.0
 11
113.5760622867571
 21
104.6177935384805
 31
0.0
  0
LINE
  5
10303
330
1F
100
AcDbEntity
  8
11000_Left
  6
Continuous
 62
     7
370
    50
100
AcDbLine
 10
103.6760622867572
 20
104.6177935384805
 30
0.0
 11
104.1760622867571
 21
104.6177935384805
 31
0.0
  0
LINE
  5
10304
330
1F
100
AcDbEntity
  8
11000_Left
  6
Continuous
 62
     7
370
    50
100
AcDbLine
 10
102.1760622867571
 20
104.6177935384805
 30
0.0
 11
103.6760622867572
 21
104.6177935384805
 31
0.0
  0
LINE
  5
10305
330
1F
100
AcDbEntity
  8
11000_Left
  6
Continuous
 62
     7
370
    50
100
AcDbLine
 10
101.6760622867571
 20
104.6177935384805
 30
0.0
 11
102.1760622867571
 21
104.6177935384805
 31
0.0
  0
LINE
  5
10306
330
1F
100
AcDbEntity
  8
11000_Left
  6
Continuous
 62
     7
370
    50
100
AcDbLine
 10
92.37606228675725
 20
104.6177935384805
 30
0.0
 11
101.6760622867571
 21
104.6177935384805
 31
0.0
  0
LINE
  5
10307
330
1F
100
AcDbEntity
  8
11000_Left
  6
Continuous
 62
     7
370
    50
100
AcDbLine
 10
91.87606228675724
 20
104.6177935384805
 30
0.0
 11
92.37606228675725
 21
104.6177935384805
 31
0.0
  0
LINE
  5
10308
330
1F
100
AcDbEntity
  8
11000_Left
  6
Continuous
 62
     7
370
    50
100
AcDbLine
 10
91.37606228675725
 20
104.6177935384805
 30
0.0
 11
91.87606228675724
 21
104.6177935384805
 31
0.0
  0
LINE
  5
10309
330
1F
100
AcDbEntity
  8
11000_Left
  6
Continuous
 62
     7
370
    50
100
AcDbLine
 10
90.87606228675724
 20
104.6177935384805
 30
0.0
 11
91.37606228675725
 21
104.6177935384805
 31
0.0
  0
LINE
  5
1030A
330
1F
100
AcDbEntity
  8
11000_Left
  6
Continuous
 62
     7
370
    50
100
AcDbLine
 10
87.87606228675725
 20
104.6177935384805
 30
0.0
 11
90.87606228675724
 21
104.6177935384805
 31
0.0
  0
LINE
  5
1030B
330
1F
100
AcDbEntity
  8
11000_Left
  6
Continuous
 62
     7
370
    50
100
AcDbLine
 10
233.0760582867572
 20
104.6177935384805
 30
0.0
 11
238.0760582867571
 21
104.6177935384805
 31
0.0
  0
LINE
  5
1030C
330
1F
100
AcDbEntity
  8
11000_Left
  6
Continuous
 62
     7
370
    50
100
AcDbLine
 10
232.5760582867572
 20
104.6177935384805
 30
0.0
 11
233.0760582867572
 21
104.6177935384805
 31
0.0
  0
LINE
  5
1030D
330
1F
100
AcDbEntity
  8
11000_Left
  6
Continuous
 62
     7
370
    50
100
AcDbLine
 10
223.1760582867571
 20
104.6177935384805
 30
0.0
 11
232.5760582867572
 21
104.6177935384805
 31
0.0
  0
LINE
  5
1030E
330
1F
100
AcDbEntity
  8
11000_Left
  6
Continuous
 62
     7
370
    50
100
AcDbLine
 10
222.6760582867572
 20
104.6177935384805
 30
0.0
 11
223.1760582867571
 21
104.6177935384805
 31
0.0
  0
LINE
  5
1030F
330
1F
100
AcDbEntity
  8
11000_Left
  6
Continuous
 62
     7
370
    50
100
AcDbLine
 10
221.1760582867571
 20
104.6177935384805
 30
0.0
 11
222.6760582867572
 21
104.6177935384805
 31
0.0
  0
LINE
  5
10310
330
1F
100
AcDbEntity
  8
11000_Left
  6
Continuous
 62
     7
370
    50
100
AcDbLine
 10
220.6760582867572
 20
104.6177935384805
 30
0.0
 11
221.1760582867571
 21
104.6177935384805
 31
0.0
  0
LINE
  5
10311
330
1F
100
AcDbEntity
  8
11000_Left
  6
Continuous
 62
     7
370
    50
100
AcDbLine
 10
211.2760582867572
 20
104.6177935384805
 30
0.0
 11
220.6760582867572
 21
104.6177935384805
 31
0.0
  0
LINE
  5
10312
330
1F
100
AcDbEntity
  8
11000_Left
  6
Continuous
 62
     7
370
    50
100
AcDbLine
 10
210.7760582867572
 20
104.6177935384805
 30
0.0
 11
211.2760582867572
 21
104.6177935384805
 31
0.0
  0
LINE
  5
10313
330
1F
100
AcDbEntity
  8
11000_Left
  6
Continuous
 62
     7
370
    50
100
AcDbLine
 10
209.2760582867572
 20
104.6177935384805
 30
0.0
 11
210.7760582867572
 21
104.6177935384805
 31
0.0
  0
LINE
  5
10314
330
1F
100
AcDbEntity
  8
11000_Left
  6
Continuous
 62
     7
370
    50
100
AcDbLine
 10
208.7760582867572
 20
104.6177935384805
 30
0.0
 11
209.2760582867572
 21
104.6177935384805
 31
0.0
  0
LINE
  5
10315
330
1F
100
AcDbEntity
  8
11000_Left
  6
Continuous
 62
     7
370
    50
100
AcDbLine
 10
199.3760582867572
 20
104.6177935384805
 30
0.0
 11
208.7760582867572
 21
104.6177935384805
 31
0.0
  0
LINE
  5
10316
330
1F
100
AcDbEntity
  8
11000_Left
  6
Continuous
 62
     7
370
    50
100
AcDbLine
 10
198.8760582867572
 20
104.6177935384805
 30
0.0
 11
199.3760582867572
 21
104.6177935384805
 31
0.0
  0
ARC
  5
10B74
330
1F
100
AcDbEntity
  8
10000_FRONT
  6
Continuous
 62
     7
370
    13
100
AcDbCircle
 10
-43.99660652992298
 20
195.0337088176145
 30
0.0
 40
1.608735860898169
100
AcDbArc
 50
212.4342371029543
 51
237.5657628970486
  0
LINE
  5
10B75
330
1F
100
AcDbEntity
  8
10000_FRONT
  6
Continuous
 62
     7
370
    13
100
AcDbLine
 10
-44.85942180905686
 20
193.6759235384806
 30
0.0
 11
-42.23065180905684
 21
196.3046935384806
 31
0.0
  0
ARC
  5
10B76
330
1F
100
AcDbEntity
  8
10000_FRONT
  6
Continuous
 62
     7
370
    13
100
AcDbCircle
 10
-43.49608225972199
 20
195.5342330878153
 30
0.0
 40
1.481527431912745
100
AcDbArc
 50
31.33524820289027
 51
58.6647517971156
  0
LINE
  5
10B77
330
1F
100
AcDbEntity
  8
10000_FRONT
  6
Continuous
 62
     7
370
    13
100
AcDbLine
 10
-42.72562180905686
 20
196.7996635384806
 30
0.0
 11
-45.35439180905682
 21
194.1708935384806
 31
0.0
  0
CIRCLE
  5
10B78
330
1F
100
AcDbEntity
  8
10000_FRONT
  6
Continuous
 62
     7
370
    13
100
AcDbCircle
 10
-43.79252180905689
 20
195.2377935384806
 30
0.0
 40
2.046954500448149
  0
ARC
  5
10B79
330
1F
100
AcDbEntity
  8
10000_FRONT
  6
Continuous
 62
     7
370
    13
100
AcDbCircle
 10
-38.916606529923
 20
195.0337088176145
 30
0.0
 40
1.608735860898169
100
AcDbArc
 50
212.4342371029543
 51
237.5657628970486
  0
ARC
  5
10B7A
330
1F
100
AcDbEntity
  8
10000_FRONT
  6
Continuous
 62
     7
370
    13
100
AcDbCircle
 10
-38.41608225972203
 20
195.5342330878153
 30
0.0
 40
1.481527431912745
100
AcDbArc
 50
31.33524820289027
 51
58.6647517971156
  0
CIRCLE
  5
10B7B
330
1F
100
AcDbEntity
  8
10000_FRONT
  6
Continuous
 62
     7
370
    13
100
AcDbCircle
 10
-38.71252180905691
 20
195.2377935384806
 30
0.0
 40
2.046954500448149
  0
ARC
  5
10B7C
330
1F
100
AcDbEntity
  8
10000_FRONT
  6
Continuous
 62
     7
370
    13
100
AcDbCircle
 10
-41.25252180905686
 20
239.0177935384806
 30
0.0
 40
2.4351511
100
AcDbArc
 50
347.7905599999987
 51
12.20944000000136
  0
LINE
  5
10B7D
330
1F
100
AcDbEntity
  8
10000_FRONT
  6
Continuous
 62
     7
370
    13
100
AcDbLine
 10
-43.63259180905686
 20
239.5327935384806
 30
0.0
 11
-42.40944180905683
 21
239.5327935384806
 31
0.0
  0
LINE
  5
10B7E
330
1F
100
AcDbEntity
  8
10000_FRONT
  6
Continuous
 62
     7
370
    13
100
AcDbLine
 10
-42.40944180905683
 20
238.5027935384806
 30
0.0
 11
-43.63259180905686
 21
238.5027935384806
 31
0.0
  0
LINE
  5
10B7F
330
1F
100
AcDbEntity
  8
10000_FRONT
  6
Continuous
 62
     7
370
    13
100
AcDbLine
 10
-41.80252180905688
 20
240.0774435384806
 30
0.0
 11
-41.80252180905688
 21
241.9645335384806
 31
0.0
  0
LINE
  5
10B80
330
1F
100
AcDbEntity
  8
10000_FRONT
  6
Continuous
 62
     7
370
    13
100
AcDbLine
 10
-41.80252180905688
 20
241.9645335384806
 30
0.0
 11
-41.80252180905688
 21
242.2680735384806
 31
0.0
  0
LINE
  5
10B81
330
1F
100
AcDbEntity
  8
10000_FRONT
  6
Continuous
 62
     7
370
    13
100
AcDbLine
 10
-41.80252180905688
 20
242.2680735384806
 30
0.0
 11
-41.80252180905688
 21
242.3501835384806
 31
0.0
  0
LINE
  5
10B82
330
1F
100
AcDbEntity
  8
10000_FRONT
  6
Continuous
 62
     7
370
    13
100
AcDbLine
 10
-40.70252180905685
 20
242.3501835384806
 30
0.0
 11
-40.70252180905685
 21
242.2680735384806
 31
0.0
  0
LINE
  5
10B83
330
1F
100
AcDbEntity
  8
10000_FRONT
  6
Continuous
 62
     7
370
    13
100
AcDbLine
 10
-40.70252180905685
 20
242.2680735384806
 30
0.0
 11
-40.70252180905685
 21
241.9645335384806
 31
0.0
  0
LINE
  5
10B84
330
1F
100
AcDbEntity
  8
10000_FRONT
  6
Continuous
 62
     7
370
    13
100
AcDbLine
 10
-40.70252180905685
 20
241.9645335384806
 30
0.0
 11
-40.70252180905685
 21
240.0774435384806
 31
0.0
  0
ARC
  5
10B85
330
1F
100
AcDbEntity
  8
10000_FRONT
  6
Continuous
 62
     7
370
    13
100
AcDbCircle
 10
-41.25252180905686
 20
239.0177935384806
 30
0.0
 40
2.4351511
100
AcDbArc
 50
167.7905599999986
 51
192.2094400000013
  0
ARC
  5
10B86
330
1F
100
AcDbEntity
  8
10000_FRONT
  6
Continuous
 62
     7
370
    13
100
AcDbCircle
 10
-41.25252180905686
 20
239.0177935384806
 30
0.0
 40
3.3775159
100
AcDbArc
 50
80.62813000000033
 51
99.37186999999966
  0
ARC
  5
10B87
330
1F
100
AcDbEntity
  8
10000_FRONT
  6
Continuous
 62
     7
370
    13
100
AcDbCircle
 10
-40.09560180905686
 20
240.1432732124914
 30
0.0
 40
0.6104796740108327
100
AcDbArc
 50
186.1903954726314
 51
270.0
  0
ARC
  5
10B88
330
1F
100
AcDbEntity
  8
10000_FRONT
  6
Continuous
 62
     7
370
    13
100
AcDbCircle
 10
-42.35036626046722
 20
240.0774435384806
 30
0.0
 40
0.5478444514103558
100
AcDbArc
 50
263.8096045273638
 51
359.9999999999968
  0
ARC
  5
10B89
330
1F
100
AcDbEntity
  8
10000_FRONT
  6
Continuous
 62
     7
370
    13
100
AcDbCircle
 10
-40.09560180905686
 20
237.8923126556956
 30
0.0
 40
0.6104808827849695
100
AcDbArc
 50
89.99999999999836
 51
173.8085586785215
  0
ARC
  5
10B8A
330
1F
100
AcDbEntity
  8
10000_FRONT
  6
Continuous
 62
     7
370
    13
100
AcDbCircle
 10
-42.35035728654975
 20
237.9581535384806
 30
0.0
 40
0.5478354774929244
100
AcDbArc
 50
0.0
 51
96.19144132147688
  0
LINE
  5
10B8B
330
1F
100
AcDbEntity
  8
10000_FRONT
  6
Continuous
 62
     7
370
    13
100
AcDbLine
 10
-40.09560180905686
 20
239.5327935384806
 30
0.0
 11
-38.87245180905689
 21
239.5327935384806
 31
0.0
  0
LINE
  5
10B8C
330
1F
100
AcDbEntity
  8
10000_FRONT
  6
Continuous
 62
     7
370
    13
100
AcDbLine
 10
-38.87245180905689
 20
238.5027935384806
 30
0.0
 11
-40.09560180905686
 21
238.5027935384806
 31
0.0
  0
LINE
  5
10B8D
330
1F
100
AcDbEntity
  8
10000_FRONT
  6
Continuous
 62
     7
370
    13
100
AcDbLine
 10
-41.80252180905688
 20
235.6854035384806
 30
0.0
 11
-41.80252180905688
 21
235.7675135384806
 31
0.0
  0
LINE
  5
10B8E
330
1F
100
AcDbEntity
  8
10000_FRONT
  6
Continuous
 62
     7
370
    13
100
AcDbLine
 10
-41.80252180905688
 20
235.7675135384806
 30
0.0
 11
-41.80252180905688
 21
236.0710535384806
 31
0.0
  0
LINE
  5
10B8F
330
1F
100
AcDbEntity
  8
10000_FRONT
  6
Continuous
 62
     7
370
    13
100
AcDbLine
 10
-40.70252180905685
 20
236.0710535384806
 30
0.0
 11
-40.70252180905685
 21
235.7675135384806
 31
0.0
  0
LINE
  5
10B90
330
1F
100
AcDbEntity
  8
10000_FRONT
  6
Continuous
 62
     7
370
    13
100
AcDbLine
 10
-40.70252180905685
 20
235.7675135384806
 30
0.0
 11
-40.70252180905685
 21
235.6854035384806
 31
0.0
  0
ARC
  5
10B91
330
1F
100
AcDbEntity
  8
10000_FRONT
  6
Continuous
 62
     7
370
    13
100
AcDbCircle
 10
-41.25252180905686
 20
239.0177935384806
 30
0.0
 40
3.3775159
100
AcDbArc
 50
260.6281300000004
 51
279.3718699999997
  0
LINE
  5
10B92
330
1F
100
AcDbEntity
  8
10000_FRONT
  6
Continuous
 62
     7
370
    13
100
AcDbLine
 10
-41.80252180905688
 20
236.0710535384806
 30
0.0
 11
-41.80252180905688
 21
237.9581535384806
 31
0.0
  0
LINE
  5
10B93
330
1F
100
AcDbEntity
  8
10000_FRONT
  6
Continuous
 62
     7
370
    13
100
AcDbLine
 10
-40.70252180905685
 20
237.9581535384806
 30
0.0
 11
-40.70252180905685
 21
236.0710535384806
 31
0.0
  0
CIRCLE
  5
10B94
330
1F
100
AcDbEntity
  8
10000_FRONT
  6
Continuous
 62
     7
370
    13
100
AcDbCircle
 10
-41.25252180905686
 20
239.0177935384806
 30
0.0
 40
3.594805618812927
  0
CIRCLE
  5
10B95
330
1F
100
AcDbEntity
  8
10000_FRONT
  6
Continuous
 62
     7
370
    13
100
AcDbCircle
 10
-41.25252180905686
 20
170.0177935384806
 30
0.0
 40
3.594805618812927
  0
ARC
  5
10B96
330
1F
100
AcDbEntity
  8
10000_FRONT
  6
Continuous
 62
     7
370
    13
100
AcDbCircle
 10
-42.35035728654975
 20
168.9581535384806
 30
0.0
 40
0.5478354774929244
100
AcDbArc
 50
0.0
 51
96.19144132147688
  0
ARC
  5
10B97
330
1F
100
AcDbEntity
  8
10000_FRONT
  6
Continuous
 62
     7
370
    13
100
AcDbCircle
 10
-40.09560180905686
 20
168.8923126556956
 30
0.0
 40
0.6104808827849695
100
AcDbArc
 50
89.99999999999836
 51
173.8085586785215
  0
ARC
  5
10B98
330
1F
100
AcDbEntity
  8
10000_FRONT
  6
Continuous
 62
     7
370
    13
100
AcDbCircle
 10
-42.35036626046722
 20
171.0774435384806
 30
0.0
 40
0.5478444514103558
100
AcDbArc
 50
263.8096045273638
 51
359.9999999999968
  0
ARC
  5
10B99
330
1F
100
AcDbEntity
  8
10000_FRONT
  6
Continuous
 62
     7
370
    13
100
AcDbCircle
 10
-40.09560180905686
 20
171.1432732124913
 30
0.0
 40
0.6104796740108327
100
AcDbArc
 50
186.1903954726314
 51
270.0
  0
CIRCLE
  5
10B9A
330
1F
100
AcDbEntity
  8
10000_FRONT
  6
Continuous
 62
     7
370
    13
100
AcDbCircle
 10
-41.25252180905686
 20
228.2677935384807
 30
0.0
 40
3.8299302
  0
CIRCLE
  5
10B9B
330
1F
100
AcDbEntity
  8
10000_FRONT
  6
Continuous
 62
     7
370
    13
100
AcDbCircle
 10
-41.25252180905686
 20
228.2677935384807
 30
0.0
 40
1.975
  0
ARC
  5
10B9C
330
1F
100
AcDbEntity
  8
10000_FRONT
  6
Continuous
 62
     7
370
    13
100
AcDbCircle
 10
-42.96943180905685
 20
228.2677935384807
 30
0.0
 40
0.1
100
AcDbArc
 50
123.1064399999986
 51
236.8935600000014
  0
ARC
  5
10B9D
330
1F
100
AcDbEntity
  8
10000_FRONT
  6
Continuous
 62
     7
370
    13
100
AcDbCircle
 10
-42.11098180905685
 20
229.7546835384807
 30
0.0
 40
0.1
100
AcDbArc
 50
63.10643699999999
 51
176.89356
  0
ARC
  5
10B9E
330
1F
100
AcDbEntity
  8
10000_FRONT
  6
Continuous
 62
     7
370
    13
100
AcDbCircle
 10
-40.39406180905689
 20
229.7546835384807
 30
0.0
 40
0.1
100
AcDbArc
 50
3.106436500001144
 51
116.8935599999994
  0
ARC
  5
10B9F
330
1F
100
AcDbEntity
  8
10000_FRONT
  6
Continuous
 62
     7
370
    13
100
AcDbCircle
 10
-39.53560180905686
 20
228.2677935384807
 30
0.0
 40
0.1
100
AcDbArc
 50
303.1064399999986
 51
56.89356000000139
  0
ARC
  5
10BA0
330
1F
100
AcDbEntity
  8
10000_FRONT
  6
Continuous
 62
     7
370
    13
100
AcDbCircle
 10
-40.39406180905689
 20
226.7809035384806
 30
0.0
 40
0.1
100
AcDbArc
 50
243.1064400000006
 51
356.8935600000001
  0
ARC
  5
10BA1
330
1F
100
AcDbEntity
  8
10000_FRONT
  6
Continuous
 62
     7
370
    13
100
AcDbCircle
 10
-42.11098180905685
 20
226.7809035384806
 30
0.0
 40
0.1
100
AcDbArc
 50
183.1064399999999
 51
296.8935599999994
  0
LINE
  5
10BA2
330
1F
100
AcDbEntity
  8
10000_FRONT
  6
Continuous
 62
     7
370
    13
100
AcDbLine
 10
-42.38770180905685
 20
227.7690935384807
 30
0.0
 11
-43.02405180905686
 21
228.1840335384806
 31
0.0
  0
LINE
  5
10BA3
330
1F
100
AcDbEntity
  8
10000_FRONT
  6
Continuous
 62
     7
370
    13
100
AcDbLine
 10
-43.02405180905686
 20
228.3515635384806
 30
0.0
 11
-42.38770180905685
 21
228.7664935384806
 31
0.0
  0
ARC
  5
10BA4
330
1F
100
AcDbEntity
  8
10000_FRONT
  6
Continuous
 62
     7
370
    13
100
AcDbCircle
 10
-42.55156180905685
 20
229.0177935384806
 30
0.0
 40
0.3
100
AcDbArc
 50
303.1064399999986
 51
356.8935600000001
  0
LINE
  5
10BA5
330
1F
100
AcDbEntity
  8
10000_FRONT
  6
Continuous
 62
     7
370
    13
100
AcDbLine
 10
-42.25200180905686
 20
229.0015335384806
 30
0.0
 11
-42.21083180905686
 21
229.7601035384806
 31
0.0
  0
LINE
  5
10BA6
330
1F
100
AcDbEntity
  8
10000_FRONT
  6
Continuous
 62
     7
370
    13
100
AcDbLine
 10
-42.06574180905686
 20
229.8438735384806
 30
0.0
 11
-41.38822180905686
 21
229.5002435384806
 31
0.0
  0
ARC
  5
10BA7
330
1F
100
AcDbEntity
  8
10000_FRONT
  6
Continuous
 62
     7
370
    13
100
AcDbCircle
 10
-41.25252180905686
 20
229.7677935384807
 30
0.0
 40
0.3
100
AcDbArc
 50
243.1064400000006
 51
296.8935599999994
  0
LINE
  5
10BA8
330
1F
100
AcDbEntity
  8
10000_FRONT
  6
Continuous
 62
     7
370
    13
100
AcDbLine
 10
-41.11682180905687
 20
229.5002435384806
 30
0.0
 11
-40.43929180905684
 21
229.8438735384806
 31
0.0
  0
LINE
  5
10BA9
330
1F
100
AcDbEntity
  8
10000_FRONT
  6
Continuous
 62
     7
370
    13
100
AcDbLine
 10
-40.29421180905688
 20
229.7601035384806
 30
0.0
 11
-40.25304180905687
 21
229.0015335384806
 31
0.0
  0
ARC
  5
10BAA
330
1F
100
AcDbEntity
  8
10000_FRONT
  6
Continuous
 62
     7
370
    13
100
AcDbCircle
 10
-39.95348180905683
 20
229.0177935384806
 30
0.0
 40
0.3
100
AcDbArc
 50
183.1064399999999
 51
236.8935600000014
  0
LINE
  5
10BAB
330
1F
100
AcDbEntity
  8
10000_FRONT
  6
Continuous
 62
     7
370
    13
100
AcDbLine
 10
-40.11734180905688
 20
228.7664935384806
 30
0.0
 11
-39.48098180905686
 21
228.3515635384806
 31
0.0
  0
LINE
  5
10BAC
330
1F
100
AcDbEntity
  8
10000_FRONT
  6
Continuous
 62
     7
370
    13
100
AcDbLine
 10
-39.48098180905686
 20
228.1840335384806
 30
0.0
 11
-40.11734180905688
 21
227.7690935384807
 31
0.0
  0
ARC
  5
10BAD
330
1F
100
AcDbEntity
  8
10000_FRONT
  6
Continuous
 62
     7
370
    13
100
AcDbCircle
 10
-39.95348180905683
 20
227.5177935384807
 30
0.0
 40
0.3
100
AcDbArc
 50
123.1064399999986
 51
176.89356
  0
LINE
  5
10BAE
330
1F
100
AcDbEntity
  8
10000_FRONT
  6
Continuous
 62
     7
370
    13
100
AcDbLine
 10
-40.25304180905687
 20
227.5340535384806
 30
0.0
 11
-40.29421180905688
 21
226.7754835384806
 31
0.0
  0
LINE
  5
10BAF
330
1F
100
AcDbEntity
  8
10000_FRONT
  6
Continuous
 62
     7
370
    13
100
AcDbLine
 10
-40.43929180905684
 20
226.6917135384805
 30
0.0
 11
-41.11682180905687
 21
227.0353535384806
 31
0.0
  0
ARC
  5
10BB0
330
1F
100
AcDbEntity
  8
10000_FRONT
  6
Continuous
 62
     7
370
    13
100
AcDbCircle
 10
-41.25252180905686
 20
226.7677935384806
 30
0.0
 40
0.3
100
AcDbArc
 50
63.10643699999999
 51
116.8935599999994
  0
LINE
  5
10BB1
330
1F
100
AcDbEntity
  8
10000_FRONT
  6
Continuous
 62
     7
370
    13
100
AcDbLine
 10
-41.38822180905686
 20
227.0353535384806
 30
0.0
 11
-42.06574180905686
 21
226.6917135384805
 31
0.0
  0
LINE
  5
10BB2
330
1F
100
AcDbEntity
  8
10000_FRONT
  6
Continuous
 62
     7
370
    13
100
AcDbLine
 10
-42.21083180905686
 20
226.7754835384806
 30
0.0
 11
-42.25200180905686
 21
227.5340535384806
 31
0.0
  0
ARC
  5
10BB3
330
1F
100
AcDbEntity
  8
10000_FRONT
  6
Continuous
 62
     7
370
    13
100
AcDbCircle
 10
-42.55156180905685
 20
227.5177935384807
 30
0.0
 40
0.3
100
AcDbArc
 50
3.106436500001144
 51
56.89356299999839
  0
CIRCLE
  5
10BB4
330
1F
100
AcDbEntity
  8
10000_FRONT
  6
Continuous
 62
     7
370
    13
100
AcDbCircle
 10
-41.25252180905686
 20
180.7677935384806
 30
0.0
 40
3.8299302
  0
CIRCLE
  5
10BB5
330
1F
100
AcDbEntity
  8
10000_FRONT
  6
Continuous
 62
     7
370
    13
100
AcDbCircle
 10
-41.25252180905686
 20
180.7677935384806
 30
0.0
 40
1.975
  0
ARC
  5
10BB6
330
1F
100
AcDbEntity
  8
10000_FRONT
  6
Continuous
 62
     7
370
    13
100
AcDbCircle
 10
-42.96943180905685
 20
180.7677935384806
 30
0.0
 40
0.1
100
AcDbArc
 50
123.1064399999986
 51
236.8935600000014
  0
ARC
  5
10BB7
330
1F
100
AcDbEntity
  8
10000_FRONT
  6
Continuous
 62
     7
370
    13
100
AcDbCircle
 10
-42.11098180905685
 20
182.2546835384806
 30
0.0
 40
0.1
100
AcDbArc
 50
63.10643699999999
 51
176.89356
  0
ARC
  5
10BB8
330
1F
100
AcDbEntity
  8
10000_FRONT
  6
Continuous
 62
     7
370
    13
100
AcDbCircle
 10
-40.39406180905689
 20
182.2546835384806
 30
0.0
 40
0.1
100
AcDbArc
 50
3.106436500001144
 51
116.8935599999994
  0
ARC
  5
10BB9
330
1F
100
AcDbEntity
  8
10000_FRONT
  6
Continuous
 62
     7
370
    13
100
AcDbCircle
 10
-39.53560180905686
 20
180.7677935384806
 30
0.0
 40
0.1
100
AcDbArc
 50
303.1064399999986
 51
56.89356000000139
  0
ARC
  5
10BBA
330
1F
100
AcDbEntity
  8
10000_FRONT
  6
Continuous
 62
     7
370
    13
100
AcDbCircle
 10
-40.39406180905689
 20
179.2809035384806
 30
0.0
 40
0.1
100
AcDbArc
 50
243.1064400000006
 51
356.8935600000001
  0
ARC
  5
10BBB
330
1F
100
AcDbEntity
  8
10000_FRONT
  6
Continuous
 62
     7
370
    13
100
AcDbCircle
 10
-42.11098180905685
 20
179.2809035384806
 30
0.0
 40
0.1
100
AcDbArc
 50
183.1064399999999
 51
296.8935599999994
  0
LINE
  5
10BBC
330
1F
100
AcDbEntity
  8
10000_FRONT
  6
Continuous
 62
     7
370
    13
100
AcDbLine
 10
-42.38770180905685
 20
180.2690935384805
 30
0.0
 11
-43.02405180905686
 21
180.6840335384806
 31
0.0
  0
LINE
  5
10BBD
330
1F
100
AcDbEntity
  8
10000_FRONT
  6
Continuous
 62
     7
370
    13
100
AcDbLine
 10
-43.02405180905686
 20
180.8515635384805
 30
0.0
 11
-42.38770180905685
 21
181.2664935384806
 31
0.0
  0
ARC
  5
10BBE
330
1F
100
AcDbEntity
  8
10000_FRONT
  6
Continuous
 62
     7
370
    13
100
AcDbCircle
 10
-42.55156180905685
 20
181.5177935384806
 30
0.0
 40
0.3
100
AcDbArc
 50
303.1064399999986
 51
356.8935600000001
  0
LINE
  5
10BBF
330
1F
100
AcDbEntity
  8
10000_FRONT
  6
Continuous
 62
     7
370
    13
100
AcDbLine
 10
-42.25200180905686
 20
181.5015335384806
 30
0.0
 11
-42.21083180905686
 21
182.2601035384806
 31
0.0
  0
LINE
  5
10BC0
330
1F
100
AcDbEntity
  8
10000_FRONT
  6
Continuous
 62
     7
370
    13
100
AcDbLine
 10
-42.06574180905686
 20
182.3438735384806
 30
0.0
 11
-41.38822180905686
 21
182.0002435384805
 31
0.0
  0
ARC
  5
10BC1
330
1F
100
AcDbEntity
  8
10000_FRONT
  6
Continuous
 62
     7
370
    13
100
AcDbCircle
 10
-41.25252180905686
 20
182.2677935384806
 30
0.0
 40
0.3
100
AcDbArc
 50
243.1064400000006
 51
296.8935599999994
  0
LINE
  5
10BC2
330
1F
100
AcDbEntity
  8
10000_FRONT
  6
Continuous
 62
     7
370
    13
100
AcDbLine
 10
-41.11682180905687
 20
182.0002435384805
 30
0.0
 11
-40.43929180905684
 21
182.3438735384806
 31
0.0
  0
LINE
  5
10BC3
330
1F
100
AcDbEntity
  8
10000_FRONT
  6
Continuous
 62
     7
370
    13
100
AcDbLine
 10
-40.29421180905688
 20
182.2601035384806
 30
0.0
 11
-40.25304180905687
 21
181.5015335384806
 31
0.0
  0
ARC
  5
10BC4
330
1F
100
AcDbEntity
  8
10000_FRONT
  6
Continuous
 62
     7
370
    13
100
AcDbCircle
 10
-39.95348180905683
 20
181.5177935384806
 30
0.0
 40
0.3
100
AcDbArc
 50
183.1064399999999
 51
236.8935600000014
  0
LINE
  5
10BC5
330
1F
100
AcDbEntity
  8
10000_FRONT
  6
Continuous
 62
     7
370
    13
100
AcDbLine
 10
-40.11734180905688
 20
181.2664935384806
 30
0.0
 11
-39.48098180905686
 21
180.8515635384805
 31
0.0
  0
LINE
  5
10BC6
330
1F
100
AcDbEntity
  8
10000_FRONT
  6
Continuous
 62
     7
370
    13
100
AcDbLine
 10
-39.48098180905686
 20
180.6840335384806
 30
0.0
 11
-40.11734180905688
 21
180.2690935384805
 31
0.0
  0
ARC
  5
10BC7
330
1F
100
AcDbEntity
  8
10000_FRONT
  6
Continuous
 62
     7
370
    13
100
AcDbCircle
 10
-39.95348180905683
 20
180.0177935384806
 30
0.0
 40
0.3
100
AcDbArc
 50
123.1064399999986
 51
176.89356
  0
LINE
  5
10BC8
330
1F
100
AcDbEntity
  8
10000_FRONT
  6
Continuous
 62
     7
370
    13
100
AcDbLine
 10
-40.25304180905687
 20
180.0340535384806
 30
0.0
 11
-40.29421180905688
 21
179.2754835384806
 31
0.0
  0
LINE
  5
10BC9
330
1F
100
AcDbEntity
  8
10000_FRONT
  6
Continuous
 62
     7
370
    13
100
AcDbLine
 10
-40.43929180905684
 20
179.1917135384805
 30
0.0
 11
-41.11682180905687
 21
179.5353535384806
 31
0.0
  0
ARC
  5
10BCA
330
1F
100
AcDbEntity
  8
10000_FRONT
  6
Continuous
 62
     7
370
    13
100
AcDbCircle
 10
-41.25252180905686
 20
179.2677935384806
 30
0.0
 40
0.3
100
AcDbArc
 50
63.10643699999999
 51
116.8935599999994
  0
LINE
  5
10BCB
330
1F
100
AcDbEntity
  8
10000_FRONT
  6
Continuous
 62
     7
370
    13
100
AcDbLine
 10
-41.38822180905686
 20
179.5353535384806
 30
0.0
 11
-42.06574180905686
 21
179.1917135384805
 31
0.0
  0
LINE
  5
10BCC
330
1F
100
AcDbEntity
  8
10000_FRONT
  6
Continuous
 62
     7
370
    13
100
AcDbLine
 10
-42.21083180905686
 20
179.2754835384806
 30
0.0
 11
-42.25200180905686
 21
180.0340535384806
 31
0.0
  0
ARC
  5
10BCD
330
1F
100
AcDbEntity
  8
10000_FRONT
  6
Continuous
 62
     7
370
    13
100
AcDbCircle
 10
-42.55156180905685
 20
180.0177935384806
 30
0.0
 40
0.3
100
AcDbArc
 50
3.106436500001144
 51
56.89356299999839
  0
CIRCLE
  5
10BCE
330
1F
100
AcDbEntity
  8
10000_FRONT
  6
Continuous
 62
     7
370
    13
100
AcDbCircle
 10
-33.50252180905687
 20
226.0177935384807
 30
0.0
 40
1.0
  0
CIRCLE
  5
10BCF
330
1F
100
AcDbEntity
  8
10000_FRONT
  6
Continuous
 62
     7
370
    13
100
AcDbCircle
 10
-49.00252180905686
 20
226.0177935384807
 30
0.0
 40
1.0
  0
CIRCLE
  5
10BD0
330
1F
100
AcDbEntity
  8
10000_FRONT
  6
Continuous
 62
     7
370
    13
100
AcDbCircle
 10
-49.00252180905686
 20
211.0177935384807
 30
0.0
 40
1.0
  0
CIRCLE
  5
10BD1
330
1F
100
AcDbEntity
  8
10000_FRONT
  6
Continuous
 62
     7
370
    13
100
AcDbCircle
 10
-33.50252180905687
 20
211.0177935384807
 30
0.0
 40
1.0
  0
LINE
  5
10BD2
330
1F
100
AcDbEntity
  8
10000_FRONT
  6
Continuous
 62
     7
370
    13
100
AcDbLine
 10
-36.17251180905686
 20
197.7077935384805
 30
0.0
 11
-46.33253180905682
 21
197.7077935384805
 31
0.0
  0
POLYLINE
  5
10BD3
330
1F
100
AcDbEntity
  8
10000_FRONT
  6
Continuous
 62
     7
370
    13
100
AcDb2dPolyline
 66
     1
 10
0.0
 20
0.0
 30
0.0
 70
     2
  0
VERTEX
  5
10BD4
330
10BD3
100
AcDbEntity
  8
10000_FRONT
  6
Continuous
 62
     7
370
    13
100
AcDbVertex
100
AcDb2dVertex
 10
-46.33252180905685
 20
189.5678035384806
 30
0.0
  0
VERTEX
  5
10BD5
330
10BD3
100
AcDbEntity
  8
10000_FRONT
  6
Continuous
 62
     7
370
    13
100
AcDbVertex
100
AcDb2dVertex
 10
-46.33252180905685
 20
189.5678035384806
 30
0.0
 70
     1
  0
VERTEX
  5
10BD6
330
10BD3
100
AcDbEntity
  8
10000_FRONT
  6
Continuous
 62
     7
370
    13
100
AcDbVertex
100
AcDb2dVertex
 10
-46.33252180905685
 20
189.5678035384806
 30
0.0
  0
VERTEX
  5
10BD7
330
10BD3
100
AcDbEntity
  8
10000_FRONT
  6
Continuous
 62
     7
370
    13
100
AcDbVertex
100
AcDb2dVertex
 10
-46.33252180905685
 20
189.5678035384806
 30
0.0
 70
     1
  0
VERTEX
  5
10BD8
330
10BD3
100
AcDbEntity
  8
10000_FRONT
  6
Continuous
 62
     7
370
    13
100
AcDbVertex
100
AcDb2dVertex
 10
-46.33252180905685
 20
189.5678035384806
 30
0.0
  0
VERTEX
  5
10BD9
330
10BD3
100
AcDbEntity
  8
10000_FRONT
  6
Continuous
 62
     7
370
    13
100
AcDbVertex
100
AcDb2dVertex
 10
-46.33252180905685
 20
189.5678035384806
 30
0.0
 70
     1
  0
VERTEX
  5
10BDA
330
10BD3
100
AcDbEntity
  8
10000_FRONT
  6
Continuous
 62
     7
370
    13
100
AcDbVertex
100
AcDb2dVertex
 10
-46.33253180905682
 20
189.5678035384806
 30
0.0
  0
VERTEX
  5
10BDB
330
10BD3
100
AcDbEntity
  8
10000_FRONT
  6
Continuous
 62
     7
370
    13
100
AcDbVertex
100
AcDb2dVertex
 10
-46.33253180905682
 20
189.5678035384806
 30
0.0
 70
     1
  0
VERTEX
  5
10BDC
330
10BD3
100
AcDbEntity
  8
10000_FRONT
  6
Continuous
 62
     7
370
    13
100
AcDbVertex
100
AcDb2dVertex
 10
-46.33253180905682
 20
189.5678035384806
 30
0.0
  0
VERTEX
  5
10BDD
330
10BD3
100
AcDbEntity
  8
10000_FRONT
  6
Continuous
 62
     7
370
    13
100
AcDbVertex
100
AcDb2dVertex
 10
-46.33253180905682
 20
189.5678035384806
 30
0.0
 70
     1
  0
VERTEX
  5
10BDE
330
10BD3
100
AcDbEntity
  8
10000_FRONT
  6
Continuous
 62
     7
370
    13
100
AcDbVertex
100
AcDb2dVertex
 10
-46.33253180905682
 20
189.5678035384806
 30
0.0
  0
VERTEX
  5
10BDF
330
10BD3
100
AcDbEntity
  8
10000_FRONT
  6
Continuous
 62
     7
370
    13
100
AcDbVertex
100
AcDb2dVertex
 10
-46.33253180905682
 20
189.5678035384806
 30
0.0
 70
     1
  0
VERTEX
  5
10BE0
330
10BD3
100
AcDbEntity
  8
10000_FRONT
  6
Continuous
 62
     7
370
    13
100
AcDbVertex
100
AcDb2dVertex
 10
-46.33254180905686
 20
189.5678035384806
 30
0.0
  0
VERTEX
  5
10BE1
330
10BD3
100
AcDbEntity
  8
10000_FRONT
  6
Continuous
 62
     7
370
    13
100
AcDbVertex
100
AcDb2dVertex
 10
-46.33254180905686
 20
189.5678035384806
 30
0.0
 70
     1
  0
VERTEX
  5
10BE2
330
10BD3
100
AcDbEntity
  8
10000_FRONT
  6
Continuous
 62
     7
370
    13
100
AcDbVertex
100
AcDb2dVertex
 10
-46.33254180905686
 20
189.5678035384806
 30
0.0
  0
VERTEX
  5
10BE3
330
10BD3
100
AcDbEntity
  8
10000_FRONT
  6
Continuous
 62
     7
370
    13
100
AcDbVertex
100
AcDb2dVertex
 10
-46.33254180905686
 20
189.5678035384806
 30
0.0
 70
     1
  0
VERTEX
  5
10BE4
330
10BD3
100
AcDbEntity
  8
10000_FRONT
  6
Continuous
 62
     7
370
    13
100
AcDbVertex
100
AcDb2dVertex
 10
-46.33254180905686
 20
189.5678035384806
 30
0.0
  0
VERTEX
  5
10BE5
330
10BD3
100
AcDbEntity
  8
10000_FRONT
  6
Continuous
 62
     7
370
    13
100
AcDbVertex
100
AcDb2dVertex
 10
-46.33255180905684
 20
189.5678035384806
 30
0.0
 70
     1
  0
VERTEX
  5
10BE6
330
10BD3
100
AcDbEntity
  8
10000_FRONT
  6
Continuous
 62
     7
370
    13
100
AcDbVertex
100
AcDb2dVertex
 10
-46.33255180905684
 20
189.5678035384806
 30
0.0
  0
SEQEND
  5
10BE7
330
10BD3
100
AcDbEntity
  8
10000_FRONT
  6
Continuous
 62
     7
370
    13
  0
LINE
  5
10BE8
330
1F
100
AcDbEntity
  8
10000_FRONT
  6
Continuous
 62
     7
370
    13
100
AcDbLine
 10
-36.17251180905686
 20
202.1677935384806
 30
0.0
 11
-46.33253180905682
 21
202.1677935384806
 31
0.0
  0
LINE
  5
10BE9
330
1F
100
AcDbEntity
  8
10000_FRONT
  6
Continuous
 62
     7
370
    13
100
AcDbLine
 10
-46.33253180905682
 20
189.5677935384806
 30
0.0
 11
-36.17251180905686
 21
189.5677935384806
 31
0.0
  0
LINE
  5
10BEA
330
1F
100
AcDbEntity
  8
10000_FRONT
  6
Continuous
 62
     7
370
    13
100
AcDbLine
 10
-46.33252180905685
 20
191.3877935384806
 30
0.0
 11
-36.1725218090569
 21
191.3877935384806
 31
0.0
  0
LINE
  5
10BEB
330
1F
100
AcDbEntity
  8
10000_FRONT
  6
Continuous
 62
     7
370
    13
100
AcDbLine
 10
-46.33252180905685
 20
189.5677935384806
 30
0.0
 11
-46.33252180905685
 21
189.5677935384806
 31
0.0
  0
LINE
  5
10BEC
330
1F
100
AcDbEntity
  8
10000_FRONT
  6
Continuous
 62
     7
370
    13
100
AcDbLine
 10
-36.1725218090569
 20
189.5677935384806
 30
0.0
 11
-36.1725218090569
 21
189.5677935384806
 31
0.0
  0
LINE
  5
10BED
330
1F
100
AcDbEntity
  8
10000_FRONT
  6
Continuous
 62
     7
370
    13
100
AcDbLine
 10
-37.64562180905688
 20
196.7996635384806
 30
0.0
 11
-40.27439180905685
 21
194.1708935384806
 31
0.0
  0
LINE
  5
10BEE
330
1F
100
AcDbEntity
  8
10000_FRONT
  6
Continuous
 62
     7
370
    13
100
AcDbLine
 10
-46.33252180905685
 20
201.9877935384806
 30
0.0
 11
-46.33252180905685
 21
202.1677935384806
 31
0.0
  0
LINE
  5
10BEF
330
1F
100
AcDbEntity
  8
10000_FRONT
  6
Continuous
 62
     7
370
    13
100
AcDbLine
 10
-46.33252180905685
 20
201.6877935384806
 30
0.0
 11
-46.33252180905685
 21
201.9877935384806
 31
0.0
  0
LINE
  5
10BF0
330
1F
100
AcDbEntity
  8
10000_FRONT
  6
Continuous
 62
     7
370
    13
100
AcDbLine
 10
-46.33252180905685
 20
197.7077935384805
 30
0.0
 11
-46.33252180905685
 21
201.6877935384806
 31
0.0
  0
LINE
  5
10BF1
330
1F
100
AcDbEntity
  8
10000_FRONT
  6
Continuous
 62
     7
370
    13
100
AcDbLine
 10
-46.33252180905685
 20
197.4077935384806
 30
0.0
 11
-46.33252180905685
 21
197.7077935384805
 31
0.0
  0
LINE
  5
10BF2
330
1F
100
AcDbEntity
  8
10000_FRONT
  6
Continuous
 62
     7
370
    13
100
AcDbLine
 10
-46.33252180905685
 20
191.3877935384806
 30
0.0
 11
-46.33252180905685
 21
197.4077935384806
 31
0.0
  0
LINE
  5
10BF3
330
1F
100
AcDbEntity
  8
10000_FRONT
  6
Continuous
 62
     7
370
    13
100
AcDbLine
 10
-46.33252180905685
 20
191.0877935384806
 30
0.0
 11
-46.33252180905685
 21
191.3877935384806
 31
0.0
  0
LINE
  5
10BF4
330
1F
100
AcDbEntity
  8
10000_FRONT
  6
Continuous
 62
     7
370
    13
100
AcDbLine
 10
-46.33252180905685
 20
190.9714435384806
 30
0.0
 11
-46.33252180905685
 21
191.0877935384806
 31
0.0
  0
LINE
  5
10BF5
330
1F
100
AcDbEntity
  8
10000_FRONT
  6
Continuous
 62
     7
370
    13
100
AcDbLine
 10
-46.33252180905685
 20
190.6627935384806
 30
0.0
 11
-46.33252180905685
 21
190.9714435384806
 31
0.0
  0
LINE
  5
10BF6
330
1F
100
AcDbEntity
  8
10000_FRONT
  6
Continuous
 62
     7
370
    13
100
AcDbLine
 10
-46.33252180905685
 20
190.3627935384806
 30
0.0
 11
-46.33252180905685
 21
190.6627935384806
 31
0.0
  0
LINE
  5
10BF7
330
1F
100
AcDbEntity
  8
10000_FRONT
  6
Continuous
 62
     7
370
    13
100
AcDbLine
 10
-46.33252180905685
 20
189.8677935384806
 30
0.0
 11
-46.33252180905685
 21
190.3627935384806
 31
0.0
  0
LINE
  5
10BF8
330
1F
100
AcDbEntity
  8
10000_FRONT
  6
Continuous
 62
     7
370
    13
100
AcDbLine
 10
-46.33252180905685
 20
189.5677935384806
 30
0.0
 11
-46.33252180905685
 21
189.8677935384806
 31
0.0
  0
LINE
  5
10BF9
330
1F
100
AcDbEntity
  8
10000_FRONT
  6
Continuous
 62
     7
370
    13
100
AcDbLine
 10
-36.1725218090569
 20
202.1677935384806
 30
0.0
 11
-36.1725218090569
 21
202.1677935384806
 31
0.0
  0
LINE
  5
10BFA
330
1F
100
AcDbEntity
  8
10000_FRONT
  6
Continuous
 62
     7
370
    13
100
AcDbLine
 10
-46.33252180905685
 20
202.1677935384806
 30
0.0
 11
-46.33252180905685
 21
202.1677935384806
 31
0.0
  0
LINE
  5
10BFB
330
1F
100
AcDbEntity
  8
10000_FRONT
  6
Continuous
 62
     7
370
    13
100
AcDbLine
 10
-36.1725218090569
 20
201.9877935384806
 30
0.0
 11
-36.1725218090569
 21
201.9877935384806
 31
0.0
  0
LINE
  5
10BFC
330
1F
100
AcDbEntity
  8
10000_FRONT
  6
Continuous
 62
     7
370
    13
100
AcDbLine
 10
-46.33252180905685
 20
201.9877935384806
 30
0.0
 11
-46.33252180905685
 21
201.9877935384806
 31
0.0
  0
LINE
  5
10BFD
330
1F
100
AcDbEntity
  8
10000_FRONT
  6
Continuous
 62
     7
370
    13
100
AcDbLine
 10
-39.77942180905689
 20
193.6759235384806
 30
0.0
 11
-37.15065180905686
 21
196.3046935384806
 31
0.0
  0
LINE
  5
10BFE
330
1F
100
AcDbEntity
  8
10000_FRONT
  6
Continuous
 62
     7
370
    13
100
AcDbLine
 10
-46.33252180905685
 20
191.0877935384806
 30
0.0
 11
-46.33252180905685
 21
191.0877935384806
 31
0.0
  0
LINE
  5
10BFF
330
1F
100
AcDbEntity
  8
10000_FRONT
  6
Continuous
 62
     7
370
    13
100
AcDbLine
 10
-36.1725218090569
 20
191.0877935384806
 30
0.0
 11
-36.1725218090569
 21
191.0877935384806
 31
0.0
  0
LINE
  5
10C00
330
1F
100
AcDbEntity
  8
10000_FRONT
  6
Continuous
 62
     7
370
    13
100
AcDbLine
 10
-36.1725218090569
 20
189.8677935384806
 30
0.0
 11
-36.1725218090569
 21
189.5677935384806
 31
0.0
  0
LINE
  5
10C01
330
1F
100
AcDbEntity
  8
10000_FRONT
  6
Continuous
 62
     7
370
    13
100
AcDbLine
 10
-36.1725218090569
 20
190.3627935384806
 30
0.0
 11
-36.1725218090569
 21
189.8677935384806
 31
0.0
  0
LINE
  5
10C02
330
1F
100
AcDbEntity
  8
10000_FRONT
  6
Continuous
 62
     7
370
    13
100
AcDbLine
 10
-36.1725218090569
 20
190.6627935384806
 30
0.0
 11
-36.1725218090569
 21
190.3627935384806
 31
0.0
  0
LINE
  5
10C03
330
1F
100
AcDbEntity
  8
10000_FRONT
  6
Continuous
 62
     7
370
    13
100
AcDbLine
 10
-36.1725218090569
 20
190.9714435384806
 30
0.0
 11
-36.1725218090569
 21
190.6627935384806
 31
0.0
  0
LINE
  5
10C04
330
1F
100
AcDbEntity
  8
10000_FRONT
  6
Continuous
 62
     7
370
    13
100
AcDbLine
 10
-36.1725218090569
 20
191.0877935384806
 30
0.0
 11
-36.1725218090569
 21
190.9714435384806
 31
0.0
  0
LINE
  5
10C05
330
1F
100
AcDbEntity
  8
10000_FRONT
  6
Continuous
 62
     7
370
    13
100
AcDbLine
 10
-36.1725218090569
 20
191.3877935384806
 30
0.0
 11
-36.1725218090569
 21
191.0877935384806
 31
0.0
  0
LINE
  5
10C06
330
1F
100
AcDbEntity
  8
10000_FRONT
  6
Continuous
 62
     7
370
    13
100
AcDbLine
 10
-36.1725218090569
 20
197.4077935384806
 30
0.0
 11
-36.1725218090569
 21
191.3877935384806
 31
0.0
  0
LINE
  5
10C07
330
1F
100
AcDbEntity
  8
10000_FRONT
  6
Continuous
 62
     7
370
    13
100
AcDbLine
 10
-36.1725218090569
 20
197.7077935384805
 30
0.0
 11
-36.1725218090569
 21
197.4077935384806
 31
0.0
  0
LINE
  5
10C08
330
1F
100
AcDbEntity
  8
10000_FRONT
  6
Continuous
 62
     7
370
    13
100
AcDbLine
 10
-36.1725218090569
 20
201.6877935384806
 30
0.0
 11
-36.1725218090569
 21
197.7077935384805
 31
0.0
  0
LINE
  5
10C09
330
1F
100
AcDbEntity
  8
10000_FRONT
  6
Continuous
 62
     7
370
    13
100
AcDbLine
 10
-36.1725218090569
 20
201.9877935384806
 30
0.0
 11
-36.1725218090569
 21
201.6877935384806
 31
0.0
  0
LINE
  5
10C0A
330
1F
100
AcDbEntity
  8
10000_FRONT
  6
Continuous
 62
     7
370
    13
100
AcDbLine
 10
-36.1725218090569
 20
202.1677935384806
 30
0.0
 11
-36.1725218090569
 21
201.9877935384806
 31
0.0
  0
LINE
  5
10C0B
330
1F
100
AcDbEntity
  8
10000_FRONT
  6
Continuous
 62
     7
370
    13
100
AcDbLine
 10
-46.33252180905685
 20
190.3627935384806
 30
0.0
 11
-46.33252180905685
 21
190.3627935384806
 31
0.0
  0
LINE
  5
10C0C
330
1F
100
AcDbEntity
  8
10000_FRONT
  6
Continuous
 62
     7
370
    13
100
AcDbLine
 10
-36.1725218090569
 20
190.3627935384806
 30
0.0
 11
-36.1725218090569
 21
190.3627935384806
 31
0.0
  0
CIRCLE
  5
10C0D
330
1F
100
AcDbEntity
  8
10000_FRONT
  6
Continuous
 62
     7
370
    13
100
AcDbCircle
 10
-49.00252180905686
 20
205.5177935384806
 30
0.0
 40
1.95
  0
POLYLINE
  5
10C0E
330
1F
100
AcDbEntity
  8
10000_FRONT
  6
Continuous
 62
     7
370
    13
100
AcDb2dPolyline
 66
     1
 10
0.0
 20
0.0
 30
0.0
 70
     2
  0
VERTEX
  5
10C0F
330
10C0E
100
AcDbEntity
  8
10000_FRONT
  6
Continuous
 62
     7
370
    13
100
AcDbVertex
100
AcDb2dVertex
 10
-36.86120180905687
 20
183.5475635384806
 30
0.0
  0
VERTEX
  5
10C10
330
10C0E
100
AcDbEntity
  8
10000_FRONT
  6
Continuous
 62
     7
370
    13
100
AcDbVertex
100
AcDb2dVertex
 10
-36.86919180905687
 20
183.5425035384806
 30
0.0
 42
-0.00028071
 70
     1
  0
VERTEX
  5
10C11
330
10C0E
100
AcDbEntity
  8
10000_FRONT
  6
Continuous
 62
     7
370
    13
100
AcDbVertex
100
AcDb2dVertex
 10
-36.87728180905685
 20
183.5373935384806
 30
0.0
 42
-0.0002683797
  0
VERTEX
  5
10C12
330
10C0E
100
AcDbEntity
  8
10000_FRONT
  6
Continuous
 62
     7
370
    13
100
AcDbVertex
100
AcDb2dVertex
 10
-36.88549180905687
 20
183.5322235384806
 30
0.0
 42
-0.000267293
 70
     1
  0
VERTEX
  5
10C13
330
10C0E
100
AcDbEntity
  8
10000_FRONT
  6
Continuous
 62
     7
370
    13
100
AcDbVertex
100
AcDb2dVertex
 10
-36.89378180905686
 20
183.5270135384806
 30
0.0
 42
-0.000282683
  0
VERTEX
  5
10C14
330
10C0E
100
AcDbEntity
  8
10000_FRONT
  6
Continuous
 62
     7
370
    13
100
AcDbVertex
100
AcDb2dVertex
 10
-36.90211180905687
 20
183.5217935384806
 30
0.0
 42
-0.000294324
 70
     1
  0
VERTEX
  5
10C15
330
10C0E
100
AcDbEntity
  8
10000_FRONT
  6
Continuous
 62
     7
370
    13
100
AcDbVertex
100
AcDb2dVertex
 10
-36.91044180905687
 20
183.5165835384806
 30
0.0
 42
-0.0003058338
  0
VERTEX
  5
10C16
330
10C0E
100
AcDbEntity
  8
10000_FRONT
  6
Continuous
 62
     7
370
    13
100
AcDbVertex
100
AcDb2dVertex
 10
-36.91875180905686
 20
183.5113935384806
 30
0.0
 42
-0.0003187554
 70
     1
  0
VERTEX
  5
10C17
330
10C0E
100
AcDbEntity
  8
10000_FRONT
  6
Continuous
 62
     7
370
    13
100
AcDbVertex
100
AcDb2dVertex
 10
-36.92700180905689
 20
183.5062635384806
 30
0.0
 42
-0.0003365007
  0
VERTEX
  5
10C18
330
10C0E
100
AcDbEntity
  8
10000_FRONT
  6
Continuous
 62
     7
370
    13
100
AcDbVertex
100
AcDb2dVertex
 10
-36.93515180905689
 20
183.5012135384806
 30
0.0
 42
-0.0003557074
 70
     1
  0
VERTEX
  5
10C19
330
10C0E
100
AcDbEntity
  8
10000_FRONT
  6
Continuous
 62
     7
370
    13
100
AcDbVertex
100
AcDb2dVertex
 10
-36.94316180905685
 20
183.4962735384806
 30
0.0
 42
-0.0003789141
  0
VERTEX
  5
10C1A
330
10C0E
100
AcDbEntity
  8
10000_FRONT
  6
Continuous
 62
     7
370
    13
100
AcDbVertex
100
AcDb2dVertex
 10
-36.95099180905686
 20
183.4914535384806
 30
0.0
 42
-0.0004056223
 70
     1
  0
VERTEX
  5
10C1B
330
10C0E
100
AcDbEntity
  8
10000_FRONT
  6
Continuous
 62
     7
370
    13
100
AcDbVertex
100
AcDb2dVertex
 10
-36.95861180905689
 20
183.4867735384806
 30
0.0
 42
-0.0004374401
  0
VERTEX
  5
10C1C
330
10C0E
100
AcDbEntity
  8
10000_FRONT
  6
Continuous
 62
     7
370
    13
100
AcDbVertex
100
AcDb2dVertex
 10
-36.9659718090569
 20
183.4822835384806
 30
0.0
 42
-0.0004760227
 70
     1
  0
VERTEX
  5
10C1D
330
10C0E
100
AcDbEntity
  8
10000_FRONT
  6
Continuous
 62
     7
370
    13
100
AcDbVertex
100
AcDb2dVertex
 10
-36.97304180905685
 20
183.4779835384806
 30
0.0
 42
-0.0005218584
  0
VERTEX
  5
10C1E
330
10C0E
100
AcDbEntity
  8
10000_FRONT
  6
Continuous
 62
     7
370
    13
100
AcDbVertex
100
AcDb2dVertex
 10
-36.97979180905685
 20
183.4739035384805
 30
0.0
 42
-0.0005771913
 70
     1
  0
VERTEX
  5
10C1F
330
10C0E
100
AcDbEntity
  8
10000_FRONT
  6
Continuous
 62
     7
370
    13
100
AcDbVertex
100
AcDb2dVertex
 10
-36.98619180905685
 20
183.4700535384806
 30
0.0
 42
-0.0006401491
  0
VERTEX
  5
10C20
330
10C0E
100
AcDbEntity
  8
10000_FRONT
  6
Continuous
 62
     7
370
    13
100
AcDbVertex
100
AcDb2dVertex
 10
-36.99219180905686
 20
183.4664535384806
 30
0.0
 42
-0.0007298694
 70
     1
  0
VERTEX
  5
10C21
330
10C0E
100
AcDbEntity
  8
10000_FRONT
  6
Continuous
 62
     7
370
    13
100
AcDbVertex
100
AcDb2dVertex
 10
-36.99781180905688
 20
183.4631235384806
 30
0.0
 42
-0.000846522
  0
VERTEX
  5
10C22
330
10C0E
100
AcDbEntity
  8
10000_FRONT
  6
Continuous
 62
     7
370
    13
100
AcDbVertex
100
AcDb2dVertex
 10
-37.00298180905685
 20
183.4600835384806
 30
0.0
 42
-0.0009672157
 70
     1
  0
VERTEX
  5
10C23
330
10C0E
100
AcDbEntity
  8
10000_FRONT
  6
Continuous
 62
     7
370
    13
100
AcDbVertex
100
AcDb2dVertex
 10
-37.00772180905687
 20
183.4573135384806
 30
0.0
 42
-0.001069521
  0
VERTEX
  5
10C24
330
10C0E
100
AcDbEntity
  8
10000_FRONT
  6
Continuous
 62
     7
370
    13
100
AcDbVertex
100
AcDb2dVertex
 10
-37.01199180905685
 20
183.4548535384806
 30
0.0
 42
-0.0013897697
 70
     1
  0
VERTEX
  5
10C25
330
10C0E
100
AcDbEntity
  8
10000_FRONT
  6
Continuous
 62
     7
370
    13
100
AcDbVertex
100
AcDb2dVertex
 10
-37.0158218090569
 20
183.4526735384806
 30
0.0
 42
-0.0020246282
  0
VERTEX
  5
10C26
330
10C0E
100
AcDbEntity
  8
10000_FRONT
  6
Continuous
 62
     7
370
    13
100
AcDbVertex
100
AcDb2dVertex
 10
-37.01919180905685
 20
183.4508035384805
 30
0.0
 42
-0.0021249753
 70
     1
  0
VERTEX
  5
10C27
330
10C0E
100
AcDbEntity
  8
10000_FRONT
  6
Continuous
 62
     7
370
    13
100
AcDbVertex
100
AcDb2dVertex
 10
-37.02206180905689
 20
183.4492335384806
 30
0.0
 42
-0.0011137701
  0
VERTEX
  5
10C28
330
10C0E
100
AcDbEntity
  8
10000_FRONT
  6
Continuous
 62
     7
370
    13
100
AcDbVertex
100
AcDb2dVertex
 10
-37.02442180905689
 20
183.4479635384806
 30
0.0
 42
-0.0040963022
 70
     1
  0
VERTEX
  5
10C29
330
10C0E
100
AcDbEntity
  8
10000_FRONT
  6
Continuous
 62
     7
370
    13
100
AcDbVertex
100
AcDb2dVertex
 10
-37.02646180905686
 20
183.4469535384806
 30
0.0
 42
-0.014427243
  0
VERTEX
  5
10C2A
330
10C0E
100
AcDbEntity
  8
10000_FRONT
  6
Continuous
 62
     7
370
    13
100
AcDbVertex
100
AcDb2dVertex
 10
-37.02836180905689
 20
183.4461935384806
 30
0.0
 42
-0.020559446
 70
     1
  0
VERTEX
  5
10C2B
330
10C0E
100
AcDbEntity
  8
10000_FRONT
  6
Continuous
 62
     7
370
    13
100
AcDbVertex
100
AcDb2dVertex
 10
-37.03009180905684
 20
183.4456635384806
 30
0.0
 42
-0.024313109
  0
SEQEND
  5
10C2C
330
10C0E
100
AcDbEntity
  8
10000_FRONT
  6
Continuous
 62
     7
370
    13
  0
POLYLINE
  5
10C2D
330
1F
100
AcDbEntity
  8
10000_FRONT
  6
Continuous
 62
     7
370
    13
100
AcDb2dPolyline
 66
     1
 10
0.0
 20
0.0
 30
0.0
 70
     2
  0
VERTEX
  5
10C2E
330
10C2D
100
AcDbEntity
  8
10000_FRONT
  6
Continuous
 62
     7
370
    13
100
AcDbVertex
100
AcDb2dVertex
 10
-36.05253180905686
 20
180.7618635384805
 30
0.0
  0
VERTEX
  5
10C2F
330
10C2D
100
AcDbEntity
  8
10000_FRONT
  6
Continuous
 62
     7
370
    13
100
AcDbVertex
100
AcDb2dVertex
 10
-36.0620618090569
 20
180.7618735384806
 30
0.0
 42
-0.0003803338
 70
     1
  0
VERTEX
  5
10C30
330
10C2D
100
AcDbEntity
  8
10000_FRONT
  6
Continuous
 62
     7
370
    13
100
AcDbVertex
100
AcDb2dVertex
 10
-36.0717218090569
 20
180.7618935384806
 30
0.0
 42
-0.0003628159
  0
VERTEX
  5
10C31
330
10C2D
100
AcDbEntity
  8
10000_FRONT
  6
Continuous
 62
     7
370
    13
100
AcDbVertex
100
AcDb2dVertex
 10
-36.08151180905685
 20
180.7619235384806
 30
0.0
 42
-0.0003608153
 70
     1
  0
VERTEX
  5
10C32
330
10C2D
100
AcDbEntity
  8
10000_FRONT
  6
Continuous
 62
     7
370
    13
100
AcDbVertex
100
AcDb2dVertex
 10
-36.09140180905689
 20
180.7619735384806
 30
0.0
 42
-0.0003814272
  0
VERTEX
  5
10C33
330
10C2D
100
AcDbEntity
  8
10000_FRONT
  6
Continuous
 62
     7
370
    13
100
AcDbVertex
100
AcDb2dVertex
 10
-36.10134180905686
 20
180.7620435384805
 30
0.0
 42
-0.000396794
 70
     1
  0
VERTEX
  5
10C34
330
10C2D
100
AcDbEntity
  8
10000_FRONT
  6
Continuous
 62
     7
370
    13
100
AcDbVertex
100
AcDb2dVertex
 10
-36.11129180905687
 20
180.7621235384806
 30
0.0
 42
-0.0004119696
  0
VERTEX
  5
10C35
330
10C2D
100
AcDbEntity
  8
10000_FRONT
  6
Continuous
 62
     7
370
    13
100
AcDbVertex
100
AcDb2dVertex
 10
-36.1212118090569
 20
180.7622235384805
 30
0.0
 42
-0.0004289843
 70
     1
  0
VERTEX
  5
10C36
330
10C2D
100
AcDbEntity
  8
10000_FRONT
  6
Continuous
 62
     7
370
    13
100
AcDbVertex
100
AcDb2dVertex
 10
-36.13106180905686
 20
180.7623435384806
 30
0.0
 42
-0.0004525616
  0
VERTEX
  5
10C37
330
10C2D
100
AcDbEntity
  8
10000_FRONT
  6
Continuous
 62
     7
370
    13
100
AcDbVertex
100
AcDb2dVertex
 10
-36.14078180905682
 20
180.7624735384806
 30
0.0
 42
-0.0004780087
 70
     1
  0
VERTEX
  5
10C38
330
10C2D
100
AcDbEntity
  8
10000_FRONT
  6
Continuous
 62
     7
370
    13
100
AcDbVertex
100
AcDb2dVertex
 10
-36.15033180905687
 20
180.7626235384806
 30
0.0
 42
-0.000508866
  0
VERTEX
  5
10C39
330
10C2D
100
AcDbEntity
  8
10000_FRONT
  6
Continuous
 62
     7
370
    13
100
AcDbVertex
100
AcDb2dVertex
 10
-36.15967180905688
 20
180.7627835384806
 30
0.0
 42
-0.0005443389
 70
     1
  0
VERTEX
  5
10C3A
330
10C2D
100
AcDbEntity
  8
10000_FRONT
  6
Continuous
 62
     7
370
    13
100
AcDbVertex
100
AcDb2dVertex
 10
-36.16874180905683
 20
180.7629635384806
 30
0.0
 42
-0.000586694
  0
VERTEX
  5
10C3B
330
10C2D
100
AcDbEntity
  8
10000_FRONT
  6
Continuous
 62
     7
370
    13
100
AcDbVertex
100
AcDb2dVertex
 10
-36.17751180905685
 20
180.7631635384806
 30
0.0
 42
-0.0006380303
 70
     1
  0
VERTEX
  5
10C3C
330
10C2D
100
AcDbEntity
  8
10000_FRONT
  6
Continuous
 62
     7
370
    13
100
AcDbVertex
100
AcDb2dVertex
 10
-36.18592180905689
 20
180.7633735384806
 30
0.0
 42
-0.00069908
  0
VERTEX
  5
10C3D
330
10C2D
100
AcDbEntity
  8
10000_FRONT
  6
Continuous
 62
     7
370
    13
100
AcDbVertex
100
AcDb2dVertex
 10
-36.19394180905687
 20
180.7635935384806
 30
0.0
 42
-0.0007727773
 70
     1
  0
VERTEX
  5
10C3E
330
10C2D
100
AcDbEntity
  8
10000_FRONT
  6
Continuous
 62
     7
370
    13
100
AcDbVertex
100
AcDb2dVertex
 10
-36.20153180905686
 20
180.7638335384805
 30
0.0
 42
-0.0008566569
  0
VERTEX
  5
10C3F
330
10C2D
100
AcDbEntity
  8
10000_FRONT
  6
Continuous
 62
     7
370
    13
100
AcDbVertex
100
AcDb2dVertex
 10
-36.20865180905685
 20
180.7640835384806
 30
0.0
 42
-0.0009762093
 70
     1
  0
VERTEX
  5
10C40
330
10C2D
100
AcDbEntity
  8
10000_FRONT
  6
Continuous
 62
     7
370
    13
100
AcDbVertex
100
AcDb2dVertex
 10
-36.21528180905682
 20
180.7643435384806
 30
0.0
 42
-0.0011315862
  0
VERTEX
  5
10C41
330
10C2D
100
AcDbEntity
  8
10000_FRONT
  6
Continuous
 62
     7
370
    13
100
AcDbVertex
100
AcDb2dVertex
 10
-36.22139180905686
 20
180.7646135384805
 30
0.0
 42
-0.0012924448
 70
     1
  0
VERTEX
  5
10C42
330
10C2D
100
AcDbEntity
  8
10000_FRONT
  6
Continuous
 62
     7
370
    13
100
AcDbVertex
100
AcDb2dVertex
 10
-36.22697180905686
 20
180.7648935384806
 30
0.0
 42
-0.0014287763
  0
VERTEX
  5
10C43
330
10C2D
100
AcDbEntity
  8
10000_FRONT
  6
Continuous
 62
     7
370
    13
100
AcDbVertex
100
AcDb2dVertex
 10
-36.23198180905685
 20
180.7651735384806
 30
0.0
 42
-0.0018551589
 70
     1
  0
VERTEX
  5
10C44
330
10C2D
100
AcDbEntity
  8
10000_FRONT
  6
Continuous
 62
     7
370
    13
100
AcDbVertex
100
AcDb2dVertex
 10
-36.23645180905686
 20
180.7654635384806
 30
0.0
 42
-0.0026993551
  0
VERTEX
  5
10C45
330
10C2D
100
AcDbEntity
  8
10000_FRONT
  6
Continuous
 62
     7
370
    13
100
AcDbVertex
100
AcDb2dVertex
 10
-36.24036180905689
 20
180.7657635384806
 30
0.0
 42
-0.002832653
 70
     1
  0
VERTEX
  5
10C46
330
10C2D
100
AcDbEntity
  8
10000_FRONT
  6
Continuous
 62
     7
370
    13
100
AcDbVertex
100
AcDb2dVertex
 10
-36.24369180905683
 20
180.7660535384806
 30
0.0
 42
-0.0014892689
  0
VERTEX
  5
10C47
330
10C2D
100
AcDbEntity
  8
10000_FRONT
  6
Continuous
 62
     7
370
    13
100
AcDbVertex
100
AcDb2dVertex
 10
-36.24640180905686
 20
180.7663135384806
 30
0.0
 42
-0.0054501821
 70
     1
  0
VERTEX
  5
10C48
330
10C2D
100
AcDbEntity
  8
10000_FRONT
  6
Continuous
 62
     7
370
    13
100
AcDbVertex
100
AcDb2dVertex
 10
-36.24870180905686
 20
180.7666435384806
 30
0.0
 42
-0.019086491
  0
VERTEX
  5
10C49
330
10C2D
100
AcDbEntity
  8
10000_FRONT
  6
Continuous
 62
     7
370
    13
100
AcDbVertex
100
AcDb2dVertex
 10
-36.25074180905688
 20
180.7671435384806
 30
0.0
 42
-0.026791191
 70
     1
  0
VERTEX
  5
10C4A
330
10C2D
100
AcDbEntity
  8
10000_FRONT
  6
Continuous
 62
     7
370
    13
100
AcDbVertex
100
AcDb2dVertex
 10
-36.2525118090569
 20
180.7677935384806
 30
0.0
 42
-0.030848651
  0
SEQEND
  5
10C4B
330
10C2D
100
AcDbEntity
  8
10000_FRONT
  6
Continuous
 62
     7
370
    13
  0
POLYLINE
  5
10C4C
330
1F
100
AcDbEntity
  8
10000_FRONT
  6
Continuous
 62
     7
370
    13
100
AcDb2dPolyline
 66
     1
 10
0.0
 20
0.0
 30
0.0
 70
     2
  0
VERTEX
  5
10C4D
330
10C4C
100
AcDbEntity
  8
10000_FRONT
  6
Continuous
 62
     7
370
    13
100
AcDbVertex
100
AcDb2dVertex
 10
-45.47494180905686
 20
183.4456635384806
 30
0.0
  0
VERTEX
  5
10C4E
330
10C4C
100
AcDbEntity
  8
10000_FRONT
  6
Continuous
 62
     7
370
    13
100
AcDbVertex
100
AcDb2dVertex
 10
-45.47524180905685
 20
183.4456035384806
 30
0.0
 42
-0.29669411
 70
     1
  0
VERTEX
  5
10C4F
330
10C4C
100
AcDbEntity
  8
10000_FRONT
  6
Continuous
 62
     7
370
    13
100
AcDbVertex
100
AcDb2dVertex
 10
-45.47594180905686
 20
183.4457935384806
 30
0.0
 42
-0.048302868
  0
VERTEX
  5
10C50
330
10C4C
100
AcDbEntity
  8
10000_FRONT
  6
Continuous
 62
     7
370
    13
100
AcDbVertex
100
AcDb2dVertex
 10
-45.4770518090569
 20
183.4462435384806
 30
0.0
 42
-0.0176917
 70
     1
  0
VERTEX
  5
10C51
330
10C4C
100
AcDbEntity
  8
10000_FRONT
  6
Continuous
 62
     7
370
    13
100
AcDbVertex
100
AcDb2dVertex
 10
-45.47857180905686
 20
183.4469535384806
 30
0.0
 42
-0.0096162036
  0
VERTEX
  5
10C52
330
10C4C
100
AcDbEntity
  8
10000_FRONT
  6
Continuous
 62
     7
370
    13
100
AcDbVertex
100
AcDb2dVertex
 10
-45.48055180905686
 20
183.4479535384806
 30
0.0
 42
-0.0058191518
 70
     1
  0
VERTEX
  5
10C53
330
10C4C
100
AcDbEntity
  8
10000_FRONT
  6
Continuous
 62
     7
370
    13
100
AcDbVertex
100
AcDb2dVertex
 10
-45.48297180905689
 20
183.4492335384806
 30
0.0
 42
-0.0039512894
  0
VERTEX
  5
10C54
330
10C4C
100
AcDbEntity
  8
10000_FRONT
  6
Continuous
 62
     7
370
    13
100
AcDbVertex
100
AcDb2dVertex
 10
-45.48587180905696
 20
183.4508135384806
 30
0.0
 42
-0.002822104
 70
     1
  0
VERTEX
  5
10C55
330
10C4C
100
AcDbEntity
  8
10000_FRONT
  6
Continuous
 62
     7
370
    13
100
AcDbVertex
100
AcDb2dVertex
 10
-45.48921180905688
 20
183.4526735384806
 30
0.0
 42
-0.0021637636
  0
VERTEX
  5
10C56
330
10C4C
100
AcDbEntity
  8
10000_FRONT
  6
Continuous
 62
     7
370
    13
100
AcDbVertex
100
AcDb2dVertex
 10
-45.49304180905686
 20
183.4548535384806
 30
0.0
 42
-0.001691442
 70
     1
  0
VERTEX
  5
10C57
330
10C4C
100
AcDbEntity
  8
10000_FRONT
  6
Continuous
 62
     7
370
    13
100
AcDbVertex
100
AcDb2dVertex
 10
-45.49732180905686
 20
183.4573135384806
 30
0.0
 42
-0.0013802936
  0
VERTEX
  5
10C58
330
10C4C
100
AcDbEntity
  8
10000_FRONT
  6
Continuous
 62
     7
370
    13
100
AcDbVertex
100
AcDb2dVertex
 10
-45.50206180905688
 20
183.4600835384806
 30
0.0
 42
-0.0011390433
 70
     1
  0
VERTEX
  5
10C59
330
10C4C
100
AcDbEntity
  8
10000_FRONT
  6
Continuous
 62
     7
370
    13
100
AcDbVertex
100
AcDb2dVertex
 10
-45.50723180905686
 20
183.4631235384806
 30
0.0
 42
-0.000969381
  0
VERTEX
  5
10C5A
330
10C4C
100
AcDbEntity
  8
10000_FRONT
  6
Continuous
 62
     7
370
    13
100
AcDbVertex
100
AcDb2dVertex
 10
-45.51284180905684
 20
183.4664535384806
 30
0.0
 42
-0.0008317696
 70
     1
  0
VERTEX
  5
10C5B
330
10C4C
100
AcDbEntity
  8
10000_FRONT
  6
Continuous
 62
     7
370
    13
100
AcDbVertex
100
AcDb2dVertex
 10
-45.51885180905685
 20
183.4700535384806
 30
0.0
 42
-0.0007304043
  0
VERTEX
  5
10C5C
330
10C4C
100
AcDbEntity
  8
10000_FRONT
  6
Continuous
 62
     7
370
    13
100
AcDbVertex
100
AcDb2dVertex
 10
-45.52525180905685
 20
183.4739035384805
 30
0.0
 42
-0.0006432363
 70
     1
  0
VERTEX
  5
10C5D
330
10C4C
100
AcDbEntity
  8
10000_FRONT
  6
Continuous
 62
     7
370
    13
100
AcDbVertex
100
AcDb2dVertex
 10
-45.53199180905686
 20
183.4779835384806
 30
0.0
 42
-0.0005745764
  0
VERTEX
  5
10C5E
330
10C4C
100
AcDbEntity
  8
10000_FRONT
  6
Continuous
 62
     7
370
    13
100
AcDbVertex
100
AcDb2dVertex
 10
-45.53906180905686
 20
183.4822835384806
 30
0.0
 42
-0.000522162
 70
     1
  0
VERTEX
  5
10C5F
330
10C4C
100
AcDbEntity
  8
10000_FRONT
  6
Continuous
 62
     7
370
    13
100
AcDbVertex
100
AcDb2dVertex
 10
-45.54643180905685
 20
183.4867735384806
 30
0.0
 42
-0.0004841477
  0
VERTEX
  5
10C60
330
10C4C
100
AcDbEntity
  8
10000_FRONT
  6
Continuous
 62
     7
370
    13
100
AcDbVertex
100
AcDb2dVertex
 10
-45.55406180905686
 20
183.4914635384805
 30
0.0
 42
-0.0004348714
 70
     1
  0
VERTEX
  5
10C61
330
10C4C
100
AcDbEntity
  8
10000_FRONT
  6
Continuous
 62
     7
370
    13
100
AcDbVertex
100
AcDb2dVertex
 10
-45.56187180905686
 20
183.4962735384806
 30
0.0
 42
-0.0003824126
  0
VERTEX
  5
10C62
330
10C4C
100
AcDbEntity
  8
10000_FRONT
  6
Continuous
 62
     7
370
    13
100
AcDbVertex
100
AcDb2dVertex
 10
-45.56982180905686
 20
183.5011735384806
 30
0.0
 42
-0.0003872328
 70
     1
  0
VERTEX
  5
10C63
330
10C4C
100
AcDbEntity
  8
10000_FRONT
  6
Continuous
 62
     7
370
    13
100
AcDbVertex
100
AcDb2dVertex
 10
-45.57803180905676
 20
183.5062635384806
 30
0.0
 42
-0.0004200578
  0
VERTEX
  5
10C64
330
10C4C
100
AcDbEntity
  8
10000_FRONT
  6
Continuous
 62
     7
370
    13
100
AcDbVertex
100
AcDb2dVertex
 10
-45.58654180905683
 20
183.5115535384806
 30
0.0
 42
-0.0003136101
 70
     1
  0
VERTEX
  5
10C65
330
10C4C
100
AcDbEntity
  8
10000_FRONT
  6
Continuous
 62
     7
370
    13
100
AcDbVertex
100
AcDb2dVertex
 10
-45.59459180905685
 20
183.5165835384806
 30
0.0
 42
-0.0001326904
  0
VERTEX
  5
10C66
330
10C4C
100
AcDbEntity
  8
10000_FRONT
  6
Continuous
 62
     7
370
    13
100
AcDbVertex
100
AcDb2dVertex
 10
-45.60193180905685
 20
183.5211635384806
 30
0.0
 42
-0.0003915413
 70
     1
  0
VERTEX
  5
10C67
330
10C4C
100
AcDbEntity
  8
10000_FRONT
  6
Continuous
 62
     7
370
    13
100
AcDbVertex
100
AcDb2dVertex
 10
-45.61126180905688
 20
183.5270135384806
 30
0.0
 42
-0.0006226651
  0
VERTEX
  5
10C68
330
10C4C
100
AcDbEntity
  8
10000_FRONT
  6
Continuous
 62
     7
370
    13
100
AcDbVertex
100
AcDb2dVertex
 10
-45.6254218090569
 20
183.5359335384806
 30
0.0
 42
-0.0003093329
 70
     1
  0
VERTEX
  5
10C69
330
10C4C
100
AcDbEntity
  8
10000_FRONT
  6
Continuous
 62
     7
370
    13
100
AcDbVertex
100
AcDb2dVertex
 10
-45.64384180905686
 20
183.5475635384806
 30
0.0
 42
-0.0001683842
  0
SEQEND
  5
10C6A
330
10C4C
100
AcDbEntity
  8
10000_FRONT
  6
Continuous
 62
     7
370
    13
  0
POLYLINE
  5
10C6B
330
1F
100
AcDbEntity
  8
10000_FRONT
  6
Continuous
 62
     7
370
    13
100
AcDb2dPolyline
 66
     1
 10
0.0
 20
0.0
 30
0.0
 70
     2
  0
VERTEX
  5
10C6C
330
10C6B
100
AcDbEntity
  8
10000_FRONT
  6
Continuous
 62
     7
370
    13
100
AcDbVertex
100
AcDb2dVertex
 10
-37.95252180905686
 20
220.6748935384807
 30
0.0
  0
VERTEX
  5
10C6D
330
10C6B
100
AcDbEntity
  8
10000_FRONT
  6
Continuous
 62
     7
370
    13
100
AcDbVertex
100
AcDb2dVertex
 10
-37.95252180905686
 20
220.7381435384806
 30
0.0
 42
-0.0000002254
 70
     1
  0
VERTEX
  5
10C6E
330
10C6B
100
AcDbEntity
  8
10000_FRONT
  6
Continuous
 62
     7
370
    13
100
AcDbVertex
100
AcDb2dVertex
 10
-37.95252180905686
 20
220.8013735384806
 30
0.0
 42
-0.0000002256
  0
VERTEX
  5
10C6F
330
10C6B
100
AcDbEntity
  8
10000_FRONT
  6
Continuous
 62
     7
370
    13
100
AcDbVertex
100
AcDb2dVertex
 10
-37.95252180905686
 20
220.8645935384806
 30
0.0
 42
-0.0000002257
 70
     1
  0
VERTEX
  5
10C70
330
10C6B
100
AcDbEntity
  8
10000_FRONT
  6
Continuous
 62
     7
370
    13
100
AcDbVertex
100
AcDb2dVertex
 10
-37.95252180905686
 20
220.9278135384806
 30
0.0
 42
-0.0000002258
  0
VERTEX
  5
10C71
330
10C6B
100
AcDbEntity
  8
10000_FRONT
  6
Continuous
 62
     7
370
    13
100
AcDbVertex
100
AcDb2dVertex
 10
-37.95252180905686
 20
220.9910135384806
 30
0.0
 42
-0.0000002258
 70
     1
  0
VERTEX
  5
10C72
330
10C6B
100
AcDbEntity
  8
10000_FRONT
  6
Continuous
 62
     7
370
    13
100
AcDbVertex
100
AcDb2dVertex
 10
-37.95252180905686
 20
221.0542035384806
 30
0.0
 42
-0.0000002259
  0
VERTEX
  5
10C73
330
10C6B
100
AcDbEntity
  8
10000_FRONT
  6
Continuous
 62
     7
370
    13
100
AcDbVertex
100
AcDb2dVertex
 10
-37.95252180905686
 20
221.1173835384806
 30
0.0
 42
-0.000000226
 70
     1
  0
VERTEX
  5
10C74
330
10C6B
100
AcDbEntity
  8
10000_FRONT
  6
Continuous
 62
     7
370
    13
100
AcDbVertex
100
AcDb2dVertex
 10
-37.95252180905686
 20
221.1805635384806
 30
0.0
 42
-0.000000226
  0
VERTEX
  5
10C75
330
10C6B
100
AcDbEntity
  8
10000_FRONT
  6
Continuous
 62
     7
370
    13
100
AcDbVertex
100
AcDb2dVertex
 10
-37.95252180905686
 20
221.2437235384806
 30
0.0
 42
-0.000000226
 70
     1
  0
VERTEX
  5
10C76
330
10C6B
100
AcDbEntity
  8
10000_FRONT
  6
Continuous
 62
     7
370
    13
100
AcDbVertex
100
AcDb2dVertex
 10
-37.95252180905686
 20
221.3068735384807
 30
0.0
 42
-0.0000002261
  0
VERTEX
  5
10C77
330
10C6B
100
AcDbEntity
  8
10000_FRONT
  6
Continuous
 62
     7
370
    13
100
AcDbVertex
100
AcDb2dVertex
 10
-37.95252180905686
 20
221.3700135384805
 30
0.0
 42
-0.0000002262
 70
     1
  0
VERTEX
  5
10C78
330
10C6B
100
AcDbEntity
  8
10000_FRONT
  6
Continuous
 62
     7
370
    13
100
AcDbVertex
100
AcDb2dVertex
 10
-37.95252180905686
 20
221.4331535384806
 30
0.0
 42
-0.0000002261
  0
VERTEX
  5
10C79
330
10C6B
100
AcDbEntity
  8
10000_FRONT
  6
Continuous
 62
     7
370
    13
100
AcDbVertex
100
AcDb2dVertex
 10
-37.95252180905686
 20
221.4962635384805
 30
0.0
 42
-0.0000002263
 70
     1
  0
VERTEX
  5
10C7A
330
10C6B
100
AcDbEntity
  8
10000_FRONT
  6
Continuous
 62
     7
370
    13
100
AcDbVertex
100
AcDb2dVertex
 10
-37.95252180905686
 20
221.5593835384806
 30
0.0
 42
-0.0000002269
  0
VERTEX
  5
10C7B
330
10C6B
100
AcDbEntity
  8
10000_FRONT
  6
Continuous
 62
     7
370
    13
100
AcDbVertex
100
AcDb2dVertex
 10
-37.95252180905686
 20
221.6224935384806
 30
0.0
 42
-0.0000002263
 70
     1
  0
VERTEX
  5
10C7C
330
10C6B
100
AcDbEntity
  8
10000_FRONT
  6
Continuous
 62
     7
370
    13
100
AcDbVertex
100
AcDb2dVertex
 10
-37.95252180905686
 20
221.6855735384807
 30
0.0
 42
-0.000000225
  0
VERTEX
  5
10C7D
330
10C6B
100
AcDbEntity
  8
10000_FRONT
  6
Continuous
 62
     7
370
    13
100
AcDbVertex
100
AcDb2dVertex
 10
-37.95252180905686
 20
221.7486235384806
 30
0.0
 42
-0.000000227
 70
     1
  0
VERTEX
  5
10C7E
330
10C6B
100
AcDbEntity
  8
10000_FRONT
  6
Continuous
 62
     7
370
    13
100
AcDbVertex
100
AcDb2dVertex
 10
-37.95252180905686
 20
221.8117335384806
 30
0.0
 42
-0.0000002318
  0
VERTEX
  5
10C7F
330
10C6B
100
AcDbEntity
  8
10000_FRONT
  6
Continuous
 62
     7
370
    13
100
AcDbVertex
100
AcDb2dVertex
 10
-37.95252180905686
 20
221.8749235384806
 30
0.0
 42
-0.0000002252
 70
     1
  0
VERTEX
  5
10C80
330
10C6B
100
AcDbEntity
  8
10000_FRONT
  6
Continuous
 62
     7
370
    13
100
AcDbVertex
100
AcDb2dVertex
 10
-37.95252180905686
 20
221.9378435384806
 30
0.0
 42
-0.0000002103
  0
VERTEX
  5
10C81
330
10C6B
100
AcDbEntity
  8
10000_FRONT
  6
Continuous
 62
     7
370
    13
100
AcDbVertex
100
AcDb2dVertex
 10
-37.95252180905686
 20
222.0003835384806
 30
0.0
 42
-0.0000002322
 70
     1
  0
VERTEX
  5
10C82
330
10C6B
100
AcDbEntity
  8
10000_FRONT
  6
Continuous
 62
     7
370
    13
100
AcDbVertex
100
AcDb2dVertex
 10
-37.95252180905686
 20
222.0639135384806
 30
0.0
 42
-0.000000277
  0
VERTEX
  5
10C83
330
10C6B
100
AcDbEntity
  8
10000_FRONT
  6
Continuous
 62
     7
370
    13
100
AcDbVertex
100
AcDb2dVertex
 10
-37.95252180905686
 20
222.1289235384806
 30
0.0
 42
-0.0000002103
 70
     1
  0
VERTEX
  5
10C84
330
10C6B
100
AcDbEntity
  8
10000_FRONT
  6
Continuous
 62
     7
370
    13
100
AcDbVertex
100
AcDb2dVertex
 10
-37.95252180905686
 20
222.1899535384806
 30
0.0
 42
-0.0000000722
  0
VERTEX
  5
10C85
330
10C6B
100
AcDbEntity
  8
10000_FRONT
  6
Continuous
 62
     7
370
    13
100
AcDbVertex
100
AcDb2dVertex
 10
-37.95252180905686
 20
222.2451135384806
 30
0.0
 42
-0.0000002968
 70
     1
  0
VERTEX
  5
10C86
330
10C6B
100
AcDbEntity
  8
10000_FRONT
  6
Continuous
 62
     7
370
    13
100
AcDbVertex
100
AcDb2dVertex
 10
-37.95252180905686
 20
222.3159435384805
 30
0.0
 42
-0.000000511
  0
VERTEX
  5
10C87
330
10C6B
100
AcDbEntity
  8
10000_FRONT
  6
Continuous
 62
     7
370
    13
100
AcDbVertex
100
AcDb2dVertex
 10
-37.95252180905686
 20
222.4250035384806
 30
0.0
 42
-0.00000025
 70
     1
  0
VERTEX
  5
10C88
330
10C6B
100
AcDbEntity
  8
10000_FRONT
  6
Continuous
 62
     7
370
    13
100
AcDbVertex
100
AcDb2dVertex
 10
-37.95252180905686
 20
222.5678035384806
 30
0.0
 42
-0.0000001326
  0
SEQEND
  5
10C89
330
10C6B
100
AcDbEntity
  8
10000_FRONT
  6
Continuous
 62
     7
370
    13
  0
POLYLINE
  5
10C8A
330
1F
100
AcDbEntity
  8
10000_FRONT
  6
Continuous
 62
     7
370
    13
100
AcDb2dPolyline
 66
     1
 10
0.0
 20
0.0
 30
0.0
 70
     2
  0
VERTEX
  5
10C8B
330
10C8A
100
AcDbEntity
  8
10000_FRONT
  6
Continuous
 62
     7
370
    13
100
AcDbVertex
100
AcDb2dVertex
 10
-44.55252180905688
 20
222.5678035384806
 30
0.0
  0
VERTEX
  5
10C8C
330
10C8A
100
AcDbEntity
  8
10000_FRONT
  6
Continuous
 62
     7
370
    13
100
AcDbVertex
100
AcDb2dVertex
 10
-44.55252180905688
 20
222.5048535384806
 30
0.0
 42
0.000000139
 70
     1
  0
VERTEX
  5
10C8D
330
10C8A
100
AcDbEntity
  8
10000_FRONT
  6
Continuous
 62
     7
370
    13
100
AcDbVertex
100
AcDb2dVertex
 10
-44.55252180905688
 20
222.4418935384806
 30
0.0
 42
0.0000001389
  0
VERTEX
  5
10C8E
330
10C8A
100
AcDbEntity
  8
10000_FRONT
  6
Continuous
 62
     7
370
    13
100
AcDbVertex
100
AcDb2dVertex
 10
-44.55252180905688
 20
222.3789235384806
 30
0.0
 42
0.0000001389
 70
     1
  0
VERTEX
  5
10C8F
330
10C8A
100
AcDbEntity
  8
10000_FRONT
  6
Continuous
 62
     7
370
    13
100
AcDbVertex
100
AcDb2dVertex
 10
-44.55252180905688
 20
222.3159435384805
 30
0.0
 42
0.0000001388
  0
VERTEX
  5
10C90
330
10C8A
100
AcDbEntity
  8
10000_FRONT
  6
Continuous
 62
     7
370
    13
100
AcDbVertex
100
AcDb2dVertex
 10
-44.55252180905688
 20
222.2529535384806
 30
0.0
 42
0.0000001388
 70
     1
  0
VERTEX
  5
10C91
330
10C8A
100
AcDbEntity
  8
10000_FRONT
  6
Continuous
 62
     7
370
    13
100
AcDbVertex
100
AcDb2dVertex
 10
-44.55252180905688
 20
222.1899535384806
 30
0.0
 42
0.0000001387
  0
VERTEX
  5
10C92
330
10C8A
100
AcDbEntity
  8
10000_FRONT
  6
Continuous
 62
     7
370
    13
100
AcDbVertex
100
AcDb2dVertex
 10
-44.55252180905688
 20
222.1269335384806
 30
0.0
 42
0.0000001387
 70
     1
  0
VERTEX
  5
10C93
330
10C8A
100
AcDbEntity
  8
10000_FRONT
  6
Continuous
 62
     7
370
    13
100
AcDbVertex
100
AcDb2dVertex
 10
-44.55252180905688
 20
222.0639135384806
 30
0.0
 42
0.0000001386
  0
VERTEX
  5
10C94
330
10C8A
100
AcDbEntity
  8
10000_FRONT
  6
Continuous
 62
     7
370
    13
100
AcDbVertex
100
AcDb2dVertex
 10
-44.55252180905688
 20
222.0008835384806
 30
0.0
 42
0.0000001386
 70
     1
  0
VERTEX
  5
10C95
330
10C8A
100
AcDbEntity
  8
10000_FRONT
  6
Continuous
 62
     7
370
    13
100
AcDbVertex
100
AcDb2dVertex
 10
-44.55252180905688
 20
221.9378435384806
 30
0.0
 42
0.0000001386
  0
VERTEX
  5
10C96
330
10C8A
100
AcDbEntity
  8
10000_FRONT
  6
Continuous
 62
     7
370
    13
100
AcDbVertex
100
AcDb2dVertex
 10
-44.55252180905688
 20
221.8747935384806
 30
0.0
 42
0.0000001384
 70
     1
  0
VERTEX
  5
10C97
330
10C8A
100
AcDbEntity
  8
10000_FRONT
  6
Continuous
 62
     7
370
    13
100
AcDbVertex
100
AcDb2dVertex
 10
-44.55252180905688
 20
221.8117335384806
 30
0.0
 42
0.0000001383
  0
VERTEX
  5
10C98
330
10C8A
100
AcDbEntity
  8
10000_FRONT
  6
Continuous
 62
     7
370
    13
100
AcDbVertex
100
AcDb2dVertex
 10
-44.55252180905688
 20
221.7486635384805
 30
0.0
 42
0.0000001384
 70
     1
  0
VERTEX
  5
10C99
330
10C8A
100
AcDbEntity
  8
10000_FRONT
  6
Continuous
 62
     7
370
    13
100
AcDbVertex
100
AcDb2dVertex
 10
-44.55252180905688
 20
221.6855735384807
 30
0.0
 42
0.0000001387
  0
VERTEX
  5
10C9A
330
10C8A
100
AcDbEntity
  8
10000_FRONT
  6
Continuous
 62
     7
370
    13
100
AcDbVertex
100
AcDb2dVertex
 10
-44.55252180905688
 20
221.6224735384806
 30
0.0
 42
0.0000001382
 70
     1
  0
VERTEX
  5
10C9B
330
10C8A
100
AcDbEntity
  8
10000_FRONT
  6
Continuous
 62
     7
370
    13
100
AcDbVertex
100
AcDb2dVertex
 10
-44.55252180905688
 20
221.5593835384806
 30
0.0
 42
0.0000001373
  0
VERTEX
  5
10C9C
330
10C8A
100
AcDbEntity
  8
10000_FRONT
  6
Continuous
 62
     7
370
    13
100
AcDbVertex
100
AcDb2dVertex
 10
-44.55252180905688
 20
221.4963035384806
 30
0.0
 42
0.0000001384
 70
     1
  0
VERTEX
  5
10C9D
330
10C8A
100
AcDbEntity
  8
10000_FRONT
  6
Continuous
 62
     7
370
    13
100
AcDbVertex
100
AcDb2dVertex
 10
-44.55252180905688
 20
221.4331535384806
 30
0.0
 42
0.0000001412
  0
VERTEX
  5
10C9E
330
10C8A
100
AcDbEntity
  8
10000_FRONT
  6
Continuous
 62
     7
370
    13
100
AcDbVertex
100
AcDb2dVertex
 10
-44.55252180905688
 20
221.3698835384806
 30
0.0
 42
0.0000001371
 70
     1
  0
VERTEX
  5
10C9F
330
10C8A
100
AcDbEntity
  8
10000_FRONT
  6
Continuous
 62
     7
370
    13
100
AcDbVertex
100
AcDb2dVertex
 10
-44.55252180905688
 20
221.3068735384807
 30
0.0
 42
0.000000128
  0
VERTEX
  5
10CA0
330
10C8A
100
AcDbEntity
  8
10000_FRONT
  6
Continuous
 62
     7
370
    13
100
AcDbVertex
100
AcDb2dVertex
 10
-44.55252180905688
 20
221.2442235384806
 30
0.0
 42
0.0000001412
 70
     1
  0
VERTEX
  5
10CA1
330
10C8A
100
AcDbEntity
  8
10000_FRONT
  6
Continuous
 62
     7
370
    13
100
AcDbVertex
100
AcDb2dVertex
 10
-44.55252180905688
 20
221.1805635384806
 30
0.0
 42
0.0000001683
  0
VERTEX
  5
10CA2
330
10C8A
100
AcDbEntity
  8
10000_FRONT
  6
Continuous
 62
     7
370
    13
100
AcDbVertex
100
AcDb2dVertex
 10
-44.55252180905688
 20
221.1153935384806
 30
0.0
 42
0.0000001278
 70
     1
  0
VERTEX
  5
10CA3
330
10C8A
100
AcDbEntity
  8
10000_FRONT
  6
Continuous
 62
     7
370
    13
100
AcDbVertex
100
AcDb2dVertex
 10
-44.55252180905688
 20
221.0542035384806
 30
0.0
 42
0.0000000439
  0
VERTEX
  5
10CA4
330
10C8A
100
AcDbEntity
  8
10000_FRONT
  6
Continuous
 62
     7
370
    13
100
AcDbVertex
100
AcDb2dVertex
 10
-44.55252180905688
 20
220.9988835384806
 30
0.0
 42
0.0000001801
 70
     1
  0
VERTEX
  5
10CA5
330
10C8A
100
AcDbEntity
  8
10000_FRONT
  6
Continuous
 62
     7
370
    13
100
AcDbVertex
100
AcDb2dVertex
 10
-44.55252180905688
 20
220.9278135384806
 30
0.0
 42
0.0000003098
  0
VERTEX
  5
10CA6
330
10C8A
100
AcDbEntity
  8
10000_FRONT
  6
Continuous
 62
     7
370
    13
100
AcDbVertex
100
AcDb2dVertex
 10
-44.55252180905688
 20
220.8183135384806
 30
0.0
 42
0.0000001513
 70
     1
  0
VERTEX
  5
10CA7
330
10C8A
100
AcDbEntity
  8
10000_FRONT
  6
Continuous
 62
     7
370
    13
100
AcDbVertex
100
AcDb2dVertex
 10
-44.55252180905688
 20
220.6748935384807
 30
0.0
 42
0.0000000801
  0
SEQEND
  5
10CA8
330
10C8A
100
AcDbEntity
  8
10000_FRONT
  6
Continuous
 62
     7
370
    13
  0
LINE
  5
10CA9
330
1F
100
AcDbEntity
  8
10000_FRONT
  6
Continuous
 62
     7
370
    13
100
AcDbLine
 10
-46.55252180905688
 20
183.5475535384806
 30
0.0
 11
-45.64385180905685
 21
183.5475535384806
 31
0.0
  0
POLYLINE
  5
10CAA
330
1F
100
AcDbEntity
  8
10000_FRONT
  6
Continuous
 62
     7
370
    13
100
AcDb2dPolyline
 66
     1
 10
0.0
 20
0.0
 30
0.0
 70
     2
  0
VERTEX
  5
10CAB
330
10CAA
100
AcDbEntity
  8
10000_FRONT
  6
Continuous
 62
     7
370
    13
100
AcDbVertex
100
AcDb2dVertex
 10
-46.95251180905688
 20
183.9476635384805
 30
0.0
  0
VERTEX
  5
10CAC
330
10CAA
100
AcDbEntity
  8
10000_FRONT
  6
Continuous
 62
     7
370
    13
100
AcDbVertex
100
AcDb2dVertex
 10
-46.9523718090569
 20
183.9372035384806
 30
0.0
 42
0.0067087221
 70
     1
  0
VERTEX
  5
10CAD
330
10CAA
100
AcDbEntity
  8
10000_FRONT
  6
Continuous
 62
     7
370
    13
100
AcDbVertex
100
AcDb2dVertex
 10
-46.95194180905684
 20
183.9267535384806
 30
0.0
 42
0.006744321
  0
VERTEX
  5
10CAE
330
10CAA
100
AcDbEntity
  8
10000_FRONT
  6
Continuous
 62
     7
370
    13
100
AcDbVertex
100
AcDb2dVertex
 10
-46.95123180905681
 20
183.9163135384806
 30
0.0
 42
0.0067167723
 70
     1
  0
VERTEX
  5
10CAF
330
10CAA
100
AcDbEntity
  8
10000_FRONT
  6
Continuous
 62
     7
370
    13
100
AcDbVertex
100
AcDb2dVertex
 10
-46.95024180905686
 20
183.9058935384806
 30
0.0
 42
0.006637733
  0
VERTEX
  5
10CB0
330
10CAA
100
AcDbEntity
  8
10000_FRONT
  6
Continuous
 62
     7
370
    13
100
AcDbVertex
100
AcDb2dVertex
 10
-46.9489718090569
 20
183.8955035384806
 30
0.0
 42
0.006584765
 70
     1
  0
VERTEX
  5
10CB1
330
10CAA
100
AcDbEntity
  8
10000_FRONT
  6
Continuous
 62
     7
370
    13
100
AcDbVertex
100
AcDb2dVertex
 10
-46.94743180905686
 20
183.8851535384806
 30
0.0
 42
0.0065405951
  0
VERTEX
  5
10CB2
330
10CAA
100
AcDbEntity
  8
10000_FRONT
  6
Continuous
 62
     7
370
    13
100
AcDbVertex
100
AcDb2dVertex
 10
-46.94562180905688
 20
183.8748435384805
 30
0.0
 42
0.0065018361
 70
     1
  0
VERTEX
  5
10CB3
330
10CAA
100
AcDbEntity
  8
10000_FRONT
  6
Continuous
 62
     7
370
    13
100
AcDbVertex
100
AcDb2dVertex
 10
-46.94354180905685
 20
183.8645835384806
 30
0.0
 42
0.0064608958
  0
VERTEX
  5
10CB4
330
10CAA
100
AcDbEntity
  8
10000_FRONT
  6
Continuous
 62
     7
370
    13
100
AcDbVertex
100
AcDb2dVertex
 10
-46.94119180905686
 20
183.8543735384806
 30
0.0
 42
0.0064289633
 70
     1
  0
VERTEX
  5
10CB5
330
10CAA
100
AcDbEntity
  8
10000_FRONT
  6
Continuous
 62
     7
370
    13
100
AcDbVertex
100
AcDb2dVertex
 10
-46.93859180905684
 20
183.8442235384806
 30
0.0
 42
0.0063986861
  0
VERTEX
  5
10CB6
330
10CAA
100
AcDbEntity
  8
10000_FRONT
  6
Continuous
 62
     7
370
    13
100
AcDbVertex
100
AcDb2dVertex
 10
-46.93571180905689
 20
183.8341435384806
 30
0.0
 42
0.0063756826
 70
     1
  0
VERTEX
  5
10CB7
330
10CAA
100
AcDbEntity
  8
10000_FRONT
  6
Continuous
 62
     7
370
    13
100
AcDbVertex
100
AcDb2dVertex
 10
-46.93259180905687
 20
183.8241435384806
 30
0.0
 42
0.0063550651
  0
VERTEX
  5
10CB8
330
10CAA
100
AcDbEntity
  8
10000_FRONT
  6
Continuous
 62
     7
370
    13
100
AcDbVertex
100
AcDb2dVertex
 10
-46.92921180905686
 20
183.8142235384806
 30
0.0
 42
0.0063410368
 70
     1
  0
VERTEX
  5
10CB9
330
10CAA
100
AcDbEntity
  8
10000_FRONT
  6
Continuous
 62
     7
370
    13
100
AcDbVertex
100
AcDb2dVertex
 10
-46.92558180905684
 20
183.8043935384806
 30
0.0
 42
0.0063306024
  0
VERTEX
  5
10CBA
330
10CAA
100
AcDbEntity
  8
10000_FRONT
  6
Continuous
 62
     7
370
    13
100
AcDbVertex
100
AcDb2dVertex
 10
-46.92169180905688
 20
183.7946535384806
 30
0.0
 42
0.0063257929
 70
     1
  0
VERTEX
  5
10CBB
330
10CAA
100
AcDbEntity
  8
10000_FRONT
  6
Continuous
 62
     7
370
    13
100
AcDbVertex
100
AcDb2dVertex
 10
-46.91756180905684
 20
183.7850135384806
 30
0.0
 42
0.006325619
  0
VERTEX
  5
10CBC
330
10CAA
100
AcDbEntity
  8
10000_FRONT
  6
Continuous
 62
     7
370
    13
100
AcDbVertex
100
AcDb2dVertex
 10
-46.91319180905686
 20
183.7754935384806
 30
0.0
 42
0.0063300883
 70
     1
  0
VERTEX
  5
10CBD
330
10CAA
100
AcDbEntity
  8
10000_FRONT
  6
Continuous
 62
     7
370
    13
100
AcDbVertex
100
AcDb2dVertex
 10
-46.90858180905684
 20
183.7660735384806
 30
0.0
 42
0.006340181
  0
VERTEX
  5
10CBE
330
10CAA
100
AcDbEntity
  8
10000_FRONT
  6
Continuous
 62
     7
370
    13
100
AcDbVertex
100
AcDb2dVertex
 10
-46.90372180905689
 20
183.7567835384806
 30
0.0
 42
0.0063538664
 70
     1
  0
VERTEX
  5
10CBF
330
10CAA
100
AcDbEntity
  8
10000_FRONT
  6
Continuous
 62
     7
370
    13
100
AcDbVertex
100
AcDb2dVertex
 10
-46.89864180905686
 20
183.7476235384806
 30
0.0
 42
0.006374107
  0
VERTEX
  5
10CC0
330
10CAA
100
AcDbEntity
  8
10000_FRONT
  6
Continuous
 62
     7
370
    13
100
AcDbVertex
100
AcDb2dVertex
 10
-46.89332180905688
 20
183.7386035384806
 30
0.0
 42
0.0063968084
 70
     1
  0
VERTEX
  5
10CC1
330
10CAA
100
AcDbEntity
  8
10000_FRONT
  6
Continuous
 62
     7
370
    13
100
AcDbVertex
100
AcDb2dVertex
 10
-46.88777180905685
 20
183.7297135384805
 30
0.0
 42
0.0064269284
  0
VERTEX
  5
10CC2
330
10CAA
100
AcDbEntity
  8
10000_FRONT
  6
Continuous
 62
     7
370
    13
100
AcDbVertex
100
AcDb2dVertex
 10
-46.88199180905683
 20
183.7209735384806
 30
0.0
 42
0.0064583286
 70
     1
  0
VERTEX
  5
10CC3
330
10CAA
100
AcDbEntity
  8
10000_FRONT
  6
Continuous
 62
     7
370
    13
100
AcDbVertex
100
AcDb2dVertex
 10
-46.87599180905686
 20
183.7123935384806
 30
0.0
 42
0.0064979958
  0
VERTEX
  5
10CC4
330
10CAA
100
AcDbEntity
  8
10000_FRONT
  6
Continuous
 62
     7
370
    13
100
AcDbVertex
100
AcDb2dVertex
 10
-46.86977180905688
 20
183.7039735384806
 30
0.0
 42
0.0065375136
 70
     1
  0
VERTEX
  5
10CC5
330
10CAA
100
AcDbEntity
  8
10000_FRONT
  6
Continuous
 62
     7
370
    13
100
AcDbVertex
100
AcDb2dVertex
 10
-46.86333180905682
 20
183.6957235384806
 30
0.0
 42
0.006585915
  0
VERTEX
  5
10CC6
330
10CAA
100
AcDbEntity
  8
10000_FRONT
  6
Continuous
 62
     7
370
    13
100
AcDbVertex
100
AcDb2dVertex
 10
-46.85667180905688
 20
183.6876535384806
 30
0.0
 42
0.0066332009
 70
     1
  0
VERTEX
  5
10CC7
330
10CAA
100
AcDbEntity
  8
10000_FRONT
  6
Continuous
 62
     7
370
    13
100
AcDbVertex
100
AcDb2dVertex
 10
-46.84980180905689
 20
183.6797535384806
 30
0.0
 42
0.0066905838
  0
VERTEX
  5
10CC8
330
10CAA
100
AcDbEntity
  8
10000_FRONT
  6
Continuous
 62
     7
370
    13
100
AcDbVertex
100
AcDb2dVertex
 10
-46.84272180905685
 20
183.6720535384806
 30
0.0
 42
0.0067434463
 70
     1
  0
VERTEX
  5
10CC9
330
10CAA
100
AcDbEntity
  8
10000_FRONT
  6
Continuous
 62
     7
370
    13
100
AcDbVertex
100
AcDb2dVertex
 10
-46.83543180905684
 20
183.6645435384806
 30
0.0
 42
0.0068049297
  0
VERTEX
  5
10CCA
330
10CAA
100
AcDbEntity
  8
10000_FRONT
  6
Continuous
 62
     7
370
    13
100
AcDbVertex
100
AcDb2dVertex
 10
-46.82794180905687
 20
183.6572335384806
 30
0.0
 42
0.0068047091
 70
     1
  0
VERTEX
  5
10CCB
330
10CAA
100
AcDbEntity
  8
10000_FRONT
  6
Continuous
 62
     7
370
    13
100
AcDbVertex
100
AcDb2dVertex
 10
-46.82025180905685
 20
183.6501335384806
 30
0.0
 42
0.0067444427
  0
VERTEX
  5
10CCC
330
10CAA
100
AcDbEntity
  8
10000_FRONT
  6
Continuous
 62
     7
370
    13
100
AcDbVertex
100
AcDb2dVertex
 10
-46.81237180905685
 20
183.6432335384806
 30
0.0
 42
0.0066944299
 70
     1
  0
VERTEX
  5
10CCD
330
10CAA
100
AcDbEntity
  8
10000_FRONT
  6
Continuous
 62
     7
370
    13
100
AcDbVertex
100
AcDb2dVertex
 10
-46.80430180905687
 20
183.6365535384806
 30
0.0
 42
0.0066432271
  0
VERTEX
  5
10CCE
330
10CAA
100
AcDbEntity
  8
10000_FRONT
  6
Continuous
 62
     7
370
    13
100
AcDbVertex
100
AcDb2dVertex
 10
-46.79606180905688
 20
183.6300835384806
 30
0.0
 42
0.00660206
 70
     1
  0
VERTEX
  5
10CCF
330
10CAA
100
AcDbEntity
  8
10000_FRONT
  6
Continuous
 62
     7
370
    13
100
AcDbVertex
100
AcDb2dVertex
 10
-46.78765180905685
 20
183.6238335384806
 30
0.0
 42
0.006561666
  0
VERTEX
  5
10CD0
330
10CAA
100
AcDbEntity
  8
10000_FRONT
  6
Continuous
 62
     7
370
    13
100
AcDbVertex
100
AcDb2dVertex
 10
-46.77907180905687
 20
183.6178135384805
 30
0.0
 42
0.006530141
 70
     1
  0
VERTEX
  5
10CD1
330
10CAA
100
AcDbEntity
  8
10000_FRONT
  6
Continuous
 62
     7
370
    13
100
AcDbVertex
100
AcDb2dVertex
 10
-46.77034180905685
 20
183.6120135384806
 30
0.0
 42
0.00650043
  0
VERTEX
  5
10CD2
330
10CAA
100
AcDbEntity
  8
10000_FRONT
  6
Continuous
 62
     7
370
    13
100
AcDbVertex
100
AcDb2dVertex
 10
-46.76146180905686
 20
183.6064435384806
 30
0.0
 42
0.006479608
 70
     1
  0
VERTEX
  5
10CD3
330
10CAA
100
AcDbEntity
  8
10000_FRONT
  6
Continuous
 62
     7
370
    13
100
AcDbVertex
100
AcDb2dVertex
 10
-46.75243180905686
 20
183.6011035384806
 30
0.0
 42
0.006462766
  0
VERTEX
  5
10CD4
330
10CAA
100
AcDbEntity
  8
10000_FRONT
  6
Continuous
 62
     7
370
    13
100
AcDbVertex
100
AcDb2dVertex
 10
-46.74327180905686
 20
183.5960035384806
 30
0.0
 42
0.0064506278
 70
     1
  0
VERTEX
  5
10CD5
330
10CAA
100
AcDbEntity
  8
10000_FRONT
  6
Continuous
 62
     7
370
    13
100
AcDbVertex
100
AcDb2dVertex
 10
-46.73399180905685
 20
183.5911435384806
 30
0.0
 42
0.0064404712
  0
VERTEX
  5
10CD6
330
10CAA
100
AcDbEntity
  8
10000_FRONT
  6
Continuous
 62
     7
370
    13
100
AcDbVertex
100
AcDb2dVertex
 10
-46.72458180905686
 20
183.5865235384806
 30
0.0
 42
0.00644589
 70
     1
  0
VERTEX
  5
10CD7
330
10CAA
100
AcDbEntity
  8
10000_FRONT
  6
Continuous
 62
     7
370
    13
100
AcDbVertex
100
AcDb2dVertex
 10
-46.71506180905686
 20
183.5821435384806
 30
0.0
 42
0.0064658516
  0
VERTEX
  5
10CD8
330
10CAA
100
AcDbEntity
  8
10000_FRONT
  6
Continuous
 62
     7
370
    13
100
AcDbVertex
100
AcDb2dVertex
 10
-46.70542180905687
 20
183.5780235384806
 30
0.0
 42
0.0064550781
 70
     1
  0
VERTEX
  5
10CD9
330
10CAA
100
AcDbEntity
  8
10000_FRONT
  6
Continuous
 62
     7
370
    13
100
AcDbVertex
100
AcDb2dVertex
 10
-46.69569180905688
 20
183.5741535384806
 30
0.0
 42
0.0064164
  0
VERTEX
  5
10CDA
330
10CAA
100
AcDbEntity
  8
10000_FRONT
  6
Continuous
 62
     7
370
    13
100
AcDbVertex
100
AcDb2dVertex
 10
-46.68587180905688
 20
183.5705435384806
 30
0.0
 42
0.0064670437
 70
     1
  0
VERTEX
  5
10CDB
330
10CAA
100
AcDbEntity
  8
10000_FRONT
  6
Continuous
 62
     7
370
    13
100
AcDbVertex
100
AcDb2dVertex
 10
-46.6759618090569
 20
183.5671835384806
 30
0.0
 42
0.0065859211
  0
VERTEX
  5
10CDC
330
10CAA
100
AcDbEntity
  8
10000_FRONT
  6
Continuous
 62
     7
370
    13
100
AcDbVertex
100
AcDb2dVertex
 10
-46.66594180905685
 20
183.5640835384806
 30
0.0
 42
0.00639623
 70
     1
  0
VERTEX
  5
10CDD
330
10CAA
100
AcDbEntity
  8
10000_FRONT
  6
Continuous
 62
     7
370
    13
100
AcDbVertex
100
AcDb2dVertex
 10
-46.65589180905686
 20
183.5612435384806
 30
0.0
 42
0.0059724203
  0
VERTEX
  5
10CDE
330
10CAA
100
AcDbEntity
  8
10000_FRONT
  6
Continuous
 62
     7
370
    13
100
AcDbVertex
100
AcDb2dVertex
 10
-46.64584180905682
 20
183.5586735384806
 30
0.0
 42
0.0065947466
 70
     1
  0
VERTEX
  5
10CDF
330
10CAA
100
AcDbEntity
  8
10000_FRONT
  6
Continuous
 62
     7
370
    13
100
AcDbVertex
100
AcDb2dVertex
 10
-46.63556180905686
 20
183.5563535384806
 30
0.0
 42
0.0078795082
  0
VERTEX
  5
10CE0
330
10CAA
100
AcDbEntity
  8
10000_FRONT
  6
Continuous
 62
     7
370
    13
100
AcDbVertex
100
AcDb2dVertex
 10
-46.62497180905687
 20
183.5543035384806
 30
0.0
 42
0.0059857816
 70
     1
  0
VERTEX
  5
10CE1
330
10CAA
100
AcDbEntity
  8
10000_FRONT
  6
Continuous
 62
     7
370
    13
100
AcDbVertex
100
AcDb2dVertex
 10
-46.61500180905686
 20
183.5525235384806
 30
0.0
 42
0.0020283281
  0
VERTEX
  5
10CE2
330
10CAA
100
AcDbEntity
  8
10000_FRONT
  6
Continuous
 62
     7
370
    13
100
AcDbVertex
100
AcDb2dVertex
 10
-46.60595180905686
 20
183.5510535384806
 30
0.0
 42
0.0084807987
 70
     1
  0
VERTEX
  5
10CE3
330
10CAA
100
AcDbEntity
  8
10000_FRONT
  6
Continuous
 62
     7
370
    13
100
AcDbVertex
100
AcDb2dVertex
 10
-46.59427180905686
 20
183.5497735384804
 30
0.0
 42
0.01472538
  0
VERTEX
  5
10CE4
330
10CAA
100
AcDbEntity
  8
10000_FRONT
  6
Continuous
 62
     7
370
    13
100
AcDbVertex
100
AcDb2dVertex
 10
-46.57621180905686
 20
183.5486135384806
 30
0.0
 42
0.0072085568
 70
     1
  0
VERTEX
  5
10CE5
330
10CAA
100
AcDbEntity
  8
10000_FRONT
  6
Continuous
 62
     7
370
    13
100
AcDbVertex
100
AcDb2dVertex
 10
-46.55251180905685
 20
183.5475635384806
 30
0.0
 42
0.0038067821
  0
SEQEND
  5
10CE6
330
10CAA
100
AcDbEntity
  8
10000_FRONT
  6
Continuous
 62
     7
370
    13
  0
LINE
  5
10CE7
330
1F
100
AcDbEntity
  8
10000_FRONT
  6
Continuous
 62
     7
370
    13
100
AcDbLine
 10
-46.95252180905685
 20
205.0611935384807
 30
0.0
 11
-46.95252180905685
 21
183.9476535384806
 31
0.0
  0
LINE
  5
10CE8
330
1F
100
AcDbEntity
  8
10000_FRONT
  6
Continuous
 62
     7
370
    13
100
AcDbLine
 10
-46.95252180905685
 20
207.5535535384806
 30
0.0
 11
-46.95252180905685
 21
205.9755435384806
 31
0.0
  0
POLYLINE
  5
10CE9
330
1F
100
AcDbEntity
  8
10000_FRONT
  6
Continuous
 62
     7
370
    13
100
AcDb2dPolyline
 66
     1
 10
0.0
 20
0.0
 30
0.0
 70
     2
  0
VERTEX
  5
10CEA
330
10CE9
100
AcDbEntity
  8
10000_FRONT
  6
Continuous
 62
     7
370
    13
100
AcDbVertex
100
AcDb2dVertex
 10
-46.55251180905685
 20
207.9536735384806
 30
0.0
  0
VERTEX
  5
10CEB
330
10CE9
100
AcDbEntity
  8
10000_FRONT
  6
Continuous
 62
     7
370
    13
100
AcDbVertex
100
AcDb2dVertex
 10
-46.56298180905685
 20
207.9535235384806
 30
0.0
 42
0.0065341888
 70
     1
  0
VERTEX
  5
10CEC
330
10CE9
100
AcDbEntity
  8
10000_FRONT
  6
Continuous
 62
     7
370
    13
100
AcDbVertex
100
AcDb2dVertex
 10
-46.57344180905687
 20
207.9531135384806
 30
0.0
 42
0.006552899
  0
VERTEX
  5
10CED
330
10CE9
100
AcDbEntity
  8
10000_FRONT
  6
Continuous
 62
     7
370
    13
100
AcDbVertex
100
AcDb2dVertex
 10
-46.58388180905682
 20
207.9524135384807
 30
0.0
 42
0.0065390303
 70
     1
  0
VERTEX
  5
10CEE
330
10CE9
100
AcDbEntity
  8
10000_FRONT
  6
Continuous
 62
     7
370
    13
100
AcDbVertex
100
AcDb2dVertex
 10
-46.59430180905684
 20
207.9514535384806
 30
0.0
 42
0.0065081514
  0
VERTEX
  5
10CEF
330
10CE9
100
AcDbEntity
  8
10000_FRONT
  6
Continuous
 62
     7
370
    13
100
AcDbVertex
100
AcDb2dVertex
 10
-46.60470180905686
 20
207.9502035384806
 30
0.0
 42
0.0064913663
 70
     1
  0
VERTEX
  5
10CF0
330
10CE9
100
AcDbEntity
  8
10000_FRONT
  6
Continuous
 62
     7
370
    13
100
AcDbVertex
100
AcDb2dVertex
 10
-46.61506180905688
 20
207.9487035384807
 30
0.0
 42
0.006480333
  0
VERTEX
  5
10CF1
330
10CE9
100
AcDbEntity
  8
10000_FRONT
  6
Continuous
 62
     7
370
    13
100
AcDbVertex
100
AcDb2dVertex
 10
-46.62538180905682
 20
207.9469135384806
 30
0.0
 42
0.0064732476
 70
     1
  0
VERTEX
  5
10CF2
330
10CE9
100
AcDbEntity
  8
10000_FRONT
  6
Continuous
 62
     7
370
    13
100
AcDbVertex
100
AcDb2dVertex
 10
-46.63565180905687
 20
207.9448735384807
 30
0.0
 42
0.0064700947
  0
VERTEX
  5
10CF3
330
10CE9
100
AcDbEntity
  8
10000_FRONT
  6
Continuous
 62
     7
370
    13
100
AcDbVertex
100
AcDb2dVertex
 10
-46.64587180905686
 20
207.9425535384806
 30
0.0
 42
0.0064713259
 70
     1
  0
VERTEX
  5
10CF4
330
10CE9
100
AcDbEntity
  8
10000_FRONT
  6
Continuous
 62
     7
370
    13
100
AcDbVertex
100
AcDb2dVertex
 10
-46.65603180905685
 20
207.9399735384806
 30
0.0
 42
0.0064774878
  0
VERTEX
  5
10CF5
330
10CE9
100
AcDbEntity
  8
10000_FRONT
  6
Continuous
 62
     7
370
    13
100
AcDbVertex
100
AcDb2dVertex
 10
-46.66611180905686
 20
207.9371335384806
 30
0.0
 42
0.0064873243
 70
     1
  0
VERTEX
  5
10CF6
330
10CE9
100
AcDbEntity
  8
10000_FRONT
  6
Continuous
 62
     7
370
    13
100
AcDbVertex
100
AcDb2dVertex
 10
-46.67612180905689
 20
207.9340235384807
 30
0.0
 42
0.0065038937
  0
VERTEX
  5
10CF7
330
10CE9
100
AcDbEntity
  8
10000_FRONT
  6
Continuous
 62
     7
370
    13
100
AcDbVertex
100
AcDb2dVertex
 10
-46.68604180905687
 20
207.9306535384806
 30
0.0
 42
0.0065205489
 70
     1
  0
VERTEX
  5
10CF8
330
10CE9
100
AcDbEntity
  8
10000_FRONT
  6
Continuous
 62
     7
370
    13
100
AcDbVertex
100
AcDb2dVertex
 10
-46.69588180905686
 20
207.9270335384806
 30
0.0
 42
0.0065420314
  0
VERTEX
  5
10CF9
330
10CE9
100
AcDbEntity
  8
10000_FRONT
  6
Continuous
 62
     7
370
    13
100
AcDbVertex
100
AcDb2dVertex
 10
-46.70561180905686
 20
207.9231435384806
 30
0.0
 42
0.0065377287
 70
     1
  0
VERTEX
  5
10CFA
330
10CE9
100
AcDbEntity
  8
10000_FRONT
  6
Continuous
 62
     7
370
    13
100
AcDbVertex
100
AcDb2dVertex
 10
-46.71525180905685
 20
207.9190035384806
 30
0.0
 42
0.0065077654
  0
VERTEX
  5
10CFB
330
10CE9
100
AcDbEntity
  8
10000_FRONT
  6
Continuous
 62
     7
370
    13
100
AcDbVertex
100
AcDb2dVertex
 10
-46.7247718090569
 20
207.9146135384806
 30
0.0
 42
0.0064864149
 70
     1
  0
VERTEX
  5
10CFC
330
10CE9
100
AcDbEntity
  8
10000_FRONT
  6
Continuous
 62
     7
370
    13
100
AcDbVertex
100
AcDb2dVertex
 10
-46.73417180905686
 20
207.9099735384806
 30
0.0
 42
0.0064687789
  0
VERTEX
  5
10CFD
330
10CE9
100
AcDbEntity
  8
10000_FRONT
  6
Continuous
 62
     7
370
    13
100
AcDbVertex
100
AcDb2dVertex
 10
-46.74346180905689
 20
207.9050935384806
 30
0.0
 42
0.0064576307
 70
     1
  0
VERTEX
  5
10CFE
330
10CE9
100
AcDbEntity
  8
10000_FRONT
  6
Continuous
 62
     7
370
    13
100
AcDbVertex
100
AcDb2dVertex
 10
-46.75261180905686
 20
207.8999735384806
 30
0.0
 42
0.0064503539
  0
VERTEX
  5
10CFF
330
10CE9
100
AcDbEntity
  8
10000_FRONT
  6
Continuous
 62
     7
370
    13
100
AcDbVertex
100
AcDb2dVertex
 10
-46.76162180905686
 20
207.8946135384806
 30
0.0
 42
0.0064488738
 70
     1
  0
VERTEX
  5
10D00
330
10CE9
100
AcDbEntity
  8
10000_FRONT
  6
Continuous
 62
     7
370
    13
100
AcDbVertex
100
AcDb2dVertex
 10
-46.77050180905682
 20
207.8890335384806
 30
0.0
 42
0.006452625
  0
VERTEX
  5
10D01
330
10CE9
100
AcDbEntity
  8
10000_FRONT
  6
Continuous
 62
     7
370
    13
100
AcDbVertex
100
AcDb2dVertex
 10
-46.77922180905688
 20
207.8832135384806
 30
0.0
 42
0.0064610064
 70
     1
  0
VERTEX
  5
10D02
330
10CE9
100
AcDbEntity
  8
10000_FRONT
  6
Continuous
 62
     7
370
    13
100
AcDbVertex
100
AcDb2dVertex
 10
-46.78779180905684
 20
207.8771735384806
 30
0.0
 42
0.0064755524
  0
VERTEX
  5
10D03
330
10CE9
100
AcDbEntity
  8
10000_FRONT
  6
Continuous
 62
     7
370
    13
100
AcDbVertex
100
AcDb2dVertex
 10
-46.79620180905685
 20
207.8709135384806
 30
0.0
 42
0.0064937231
 70
     1
  0
VERTEX
  5
10D04
330
10CE9
100
AcDbEntity
  8
10000_FRONT
  6
Continuous
 62
     7
370
    13
100
AcDbVertex
100
AcDb2dVertex
 10
-46.80444180905686
 20
207.8644435384806
 30
0.0
 42
0.0065191747
  0
VERTEX
  5
10D05
330
10CE9
100
AcDbEntity
  8
10000_FRONT
  6
Continuous
 62
     7
370
    13
100
AcDbVertex
100
AcDb2dVertex
 10
-46.81250180905686
 20
207.8577535384807
 30
0.0
 42
0.0065465682
 70
     1
  0
VERTEX
  5
10D06
330
10CE9
100
AcDbEntity
  8
10000_FRONT
  6
Continuous
 62
     7
370
    13
100
AcDbVertex
100
AcDb2dVertex
 10
-46.82038180905686
 20
207.8508535384807
 30
0.0
 42
0.0065816067
  0
VERTEX
  5
10D07
330
10CE9
100
AcDbEntity
  8
10000_FRONT
  6
Continuous
 62
     7
370
    13
100
AcDbVertex
100
AcDb2dVertex
 10
-46.82807180905689
 20
207.8437535384807
 30
0.0
 42
0.0066190852
 70
     1
  0
VERTEX
  5
10D08
330
10CE9
100
AcDbEntity
  8
10000_FRONT
  6
Continuous
 62
     7
370
    13
100
AcDbVertex
100
AcDb2dVertex
 10
-46.83557180905689
 20
207.8364535384806
 30
0.0
 42
0.0066671796
  0
VERTEX
  5
10D09
330
10CE9
100
AcDbEntity
  8
10000_FRONT
  6
Continuous
 62
     7
370
    13
100
AcDbVertex
100
AcDb2dVertex
 10
-46.84287180905687
 20
207.8289535384806
 30
0.0
 42
0.0067089426
 70
     1
  0
VERTEX
  5
10D0A
330
10CE9
100
AcDbEntity
  8
10000_FRONT
  6
Continuous
 62
     7
370
    13
100
AcDbVertex
100
AcDb2dVertex
 10
-46.84996180905686
 20
207.8212635384806
 30
0.0
 42
0.0067535507
  0
VERTEX
  5
10D0B
330
10CE9
100
AcDbEntity
  8
10000_FRONT
  6
Continuous
 62
     7
370
    13
100
AcDbVertex
100
AcDb2dVertex
 10
-46.85684180905684
 20
207.8133835384806
 30
0.0
 42
0.0067462012
 70
     1
  0
VERTEX
  5
10D0C
330
10CE9
100
AcDbEntity
  8
10000_FRONT
  6
Continuous
 62
     7
370
    13
100
AcDbVertex
100
AcDb2dVertex
 10
-46.86350180905686
 20
207.8053235384806
 30
0.0
 42
0.0066836264
  0
VERTEX
  5
10D0D
330
10CE9
100
AcDbEntity
  8
10000_FRONT
  6
Continuous
 62
     7
370
    13
100
AcDbVertex
100
AcDb2dVertex
 10
-46.86995180905689
 20
207.7970835384806
 30
0.0
 42
0.0066341764
 70
     1
  0
VERTEX
  5
10D0E
330
10CE9
100
AcDbEntity
  8
10000_FRONT
  6
Continuous
 62
     7
370
    13
100
AcDbVertex
100
AcDb2dVertex
 10
-46.87617180905686
 20
207.7886835384807
 30
0.0
 42
0.0065854786
  0
VERTEX
  5
10D0F
330
10CE9
100
AcDbEntity
  8
10000_FRONT
  6
Continuous
 62
     7
370
    13
100
AcDbVertex
100
AcDb2dVertex
 10
-46.8821718090569
 20
207.7801035384806
 30
0.0
 42
0.0065448424
 70
     1
  0
VERTEX
  5
10D10
330
10CE9
100
AcDbEntity
  8
10000_FRONT
  6
Continuous
 62
     7
370
    13
100
AcDbVertex
100
AcDb2dVertex
 10
-46.88795180905684
 20
207.7713835384806
 30
0.0
 42
0.0065025483
  0
VERTEX
  5
10D11
330
10CE9
100
AcDbEntity
  8
10000_FRONT
  6
Continuous
 62
     7
370
    13
100
AcDbVertex
100
AcDb2dVertex
 10
-46.89349180905685
 20
207.7625135384806
 30
0.0
 42
0.0064694153
 70
     1
  0
VERTEX
  5
10D12
330
10CE9
100
AcDbEntity
  8
10000_FRONT
  6
Continuous
 62
     7
370
    13
100
AcDbVertex
100
AcDb2dVertex
 10
-46.89881180905689
 20
207.7534935384806
 30
0.0
 42
0.0064376362
  0
VERTEX
  5
10D13
330
10CE9
100
AcDbEntity
  8
10000_FRONT
  6
Continuous
 62
     7
370
    13
100
AcDbVertex
100
AcDb2dVertex
 10
-46.90388180905681
 20
207.7443435384806
 30
0.0
 42
0.0064112292
 70
     1
  0
VERTEX
  5
10D14
330
10CE9
100
AcDbEntity
  8
10000_FRONT
  6
Continuous
 62
     7
370
    13
100
AcDbVertex
100
AcDb2dVertex
 10
-46.90873180905685
 20
207.7350635384806
 30
0.0
 42
0.0063846667
  0
VERTEX
  5
10D15
330
10CE9
100
AcDbEntity
  8
10000_FRONT
  6
Continuous
 62
     7
370
    13
100
AcDbVertex
100
AcDb2dVertex
 10
-46.91333180905684
 20
207.7256635384805
 30
0.0
 42
0.0063724529
 70
     1
  0
VERTEX
  5
10D16
330
10CE9
100
AcDbEntity
  8
10000_FRONT
  6
Continuous
 62
     7
370
    13
100
AcDbVertex
100
AcDb2dVertex
 10
-46.91770180905684
 20
207.7161435384807
 30
0.0
 42
0.0063700928
  0
VERTEX
  5
10D17
330
10CE9
100
AcDbEntity
  8
10000_FRONT
  6
Continuous
 62
     7
370
    13
100
AcDbVertex
100
AcDb2dVertex
 10
-46.92181180905686
 20
207.7065135384806
 30
0.0
 42
0.0063466447
 70
     1
  0
VERTEX
  5
10D18
330
10CE9
100
AcDbEntity
  8
10000_FRONT
  6
Continuous
 62
     7
370
    13
100
AcDbVertex
100
AcDb2dVertex
 10
-46.92569180905684
 20
207.6967935384806
 30
0.0
 42
0.0063041684
  0
VERTEX
  5
10D19
330
10CE9
100
AcDbEntity
  8
10000_FRONT
  6
Continuous
 62
     7
370
    13
100
AcDbVertex
100
AcDb2dVertex
 10
-46.92931180905685
 20
207.6869735384806
 30
0.0
 42
0.00635979
 70
     1
  0
VERTEX
  5
10D1A
330
10CE9
100
AcDbEntity
  8
10000_FRONT
  6
Continuous
 62
     7
370
    13
100
AcDbVertex
100
AcDb2dVertex
 10
-46.93268180905675
 20
207.6770535384806
 30
0.0
 42
0.0064963366
  0
VERTEX
  5
10D1B
330
10CE9
100
AcDbEntity
  8
10000_FRONT
  6
Continuous
 62
     7
370
    13
100
AcDbVertex
100
AcDb2dVertex
 10
-46.93579180905686
 20
207.6670335384806
 30
0.0
 42
0.0063208284
 70
     1
  0
VERTEX
  5
10D1C
330
10CE9
100
AcDbEntity
  8
10000_FRONT
  6
Continuous
 62
     7
370
    13
100
AcDbVertex
100
AcDb2dVertex
 10
-46.93865180905686
 20
207.6569835384806
 30
0.0
 42
0.0059106208
  0
VERTEX
  5
10D1D
330
10CE9
100
AcDbEntity
  8
10000_FRONT
  6
Continuous
 62
     7
370
    13
100
AcDbVertex
100
AcDb2dVertex
 10
-46.94125180905682
 20
207.6469235384806
 30
0.0
 42
0.006549508
 70
     1
  0
VERTEX
  5
10D1E
330
10CE9
100
AcDbEntity
  8
10000_FRONT
  6
Continuous
 62
     7
370
    13
100
AcDbVertex
100
AcDb2dVertex
 10
-46.94359180905684
 20
207.6366435384806
 30
0.0
 42
0.0078616804
  0
VERTEX
  5
10D1F
330
10CE9
100
AcDbEntity
  8
10000_FRONT
  6
Continuous
 62
     7
370
    13
100
AcDbVertex
100
AcDb2dVertex
 10
-46.94567180905686
 20
207.6260535384806
 30
0.0
 42
0.0059736192
 70
     1
  0
VERTEX
  5
10D20
330
10CE9
100
AcDbEntity
  8
10000_FRONT
  6
Continuous
 62
     7
370
    13
100
AcDbVertex
100
AcDb2dVertex
 10
-46.94746180905684
 20
207.6160735384807
 30
0.0
 42
0.0019942483
  0
VERTEX
  5
10D21
330
10CE9
100
AcDbEntity
  8
10000_FRONT
  6
Continuous
 62
     7
370
    13
100
AcDbVertex
100
AcDb2dVertex
 10
-46.94896180905685
 20
207.6070235384806
 30
0.0
 42
0.0085215182
 70
     1
  0
VERTEX
  5
10D22
330
10CE9
100
AcDbEntity
  8
10000_FRONT
  6
Continuous
 62
     7
370
    13
100
AcDbVertex
100
AcDb2dVertex
 10
-46.95025180905685
 20
207.5953335384806
 30
0.0
 42
0.014882283
  0
VERTEX
  5
10D23
330
10CE9
100
AcDbEntity
  8
10000_FRONT
  6
Continuous
 62
     7
370
    13
100
AcDbVertex
100
AcDb2dVertex
 10
-46.95144180905685
 20
207.5772735384806
 30
0.0
 42
0.0072935662
 70
     1
  0
VERTEX
  5
10D24
330
10CE9
100
AcDbEntity
  8
10000_FRONT
  6
Continuous
 62
     7
370
    13
100
AcDbVertex
100
AcDb2dVertex
 10
-46.95251180905688
 20
207.5535735384806
 30
0.0
 42
0.0038480467
  0
SEQEND
  5
10D25
330
10CE9
100
AcDbEntity
  8
10000_FRONT
  6
Continuous
 62
     7
370
    13
  0
LINE
  5
10D26
330
1F
100
AcDbEntity
  8
10000_FRONT
  6
Continuous
 62
     7
370
    13
100
AcDbLine
 10
-35.95252180905686
 20
207.9536535384806
 30
0.0
 11
-46.55252180905688
 21
207.9536535384806
 31
0.0
  0
POLYLINE
  5
10D27
330
1F
100
AcDbEntity
  8
10000_FRONT
  6
Continuous
 62
     7
370
    13
100
AcDb2dPolyline
 66
     1
 10
0.0
 20
0.0
 30
0.0
 70
     2
  0
VERTEX
  5
10D28
330
10D27
100
AcDbEntity
  8
10000_FRONT
  6
Continuous
 62
     7
370
    13
100
AcDbVertex
100
AcDb2dVertex
 10
-35.55252180905688
 20
207.5535735384806
 30
0.0
  0
VERTEX
  5
10D29
330
10D27
100
AcDbEntity
  8
10000_FRONT
  6
Continuous
 62
     7
370
    13
100
AcDbVertex
100
AcDb2dVertex
 10
-35.55267180905696
 20
207.5640335384806
 30
0.0
 42
0.0065434583
 70
     1
  0
VERTEX
  5
10D2A
330
10D27
100
AcDbEntity
  8
10000_FRONT
  6
Continuous
 62
     7
370
    13
100
AcDbVertex
100
AcDb2dVertex
 10
-35.55308180905683
 20
207.5744935384806
 30
0.0
 42
0.0065613438
  0
VERTEX
  5
10D2B
330
10D27
100
AcDbEntity
  8
10000_FRONT
  6
Continuous
 62
     7
370
    13
100
AcDbVertex
100
AcDb2dVertex
 10
-35.55377180905685
 20
207.5849335384806
 30
0.0
 42
0.0065461984
 70
     1
  0
VERTEX
  5
10D2C
330
10D27
100
AcDbEntity
  8
10000_FRONT
  6
Continuous
 62
     7
370
    13
100
AcDbVertex
100
AcDb2dVertex
 10
-35.55473180905682
 20
207.5953635384806
 30
0.0
 42
0.006514009
  0
VERTEX
  5
10D2D
330
10D27
100
AcDbEntity
  8
10000_FRONT
  6
Continuous
 62
     7
370
    13
100
AcDbVertex
100
AcDb2dVertex
 10
-35.55597180905687
 20
207.6057535384806
 30
0.0
 42
0.0064962723
 70
     1
  0
VERTEX
  5
10D2E
330
10D27
100
AcDbEntity
  8
10000_FRONT
  6
Continuous
 62
     7
370
    13
100
AcDbVertex
100
AcDb2dVertex
 10
-35.55747180905689
 20
207.6161235384806
 30
0.0
 42
0.0064845677
  0
VERTEX
  5
10D2F
330
10D27
100
AcDbEntity
  8
10000_FRONT
  6
Continuous
 62
     7
370
    13
100
AcDbVertex
100
AcDb2dVertex
 10
-35.5592518090569
 20
207.6264435384806
 30
0.0
 42
0.006477013
 70
     1
  0
VERTEX
  5
10D30
330
10D27
100
AcDbEntity
  8
10000_FRONT
  6
Continuous
 62
     7
370
    13
100
AcDbVertex
100
AcDb2dVertex
 10
-35.56130180905689
 20
207.6367235384806
 30
0.0
 42
0.00647365
  0
VERTEX
  5
10D31
330
10D27
100
AcDbEntity
  8
10000_FRONT
  6
Continuous
 62
     7
370
    13
100
AcDbVertex
100
AcDb2dVertex
 10
-35.56361180905685
 20
207.6469435384806
 30
0.0
 42
0.0064748846
 70
     1
  0
VERTEX
  5
10D32
330
10D27
100
AcDbEntity
  8
10000_FRONT
  6
Continuous
 62
     7
370
    13
100
AcDbVertex
100
AcDb2dVertex
 10
-35.56619180905688
 20
207.6571035384806
 30
0.0
 42
0.0064813057
  0
VERTEX
  5
10D33
330
10D27
100
AcDbEntity
  8
10000_FRONT
  6
Continuous
 62
     7
370
    13
100
AcDbVertex
100
AcDb2dVertex
 10
-35.56903180905687
 20
207.6671835384806
 30
0.0
 42
0.0064916168
 70
     1
  0
VERTEX
  5
10D34
330
10D27
100
AcDbEntity
  8
10000_FRONT
  6
Continuous
 62
     7
370
    13
100
AcDbVertex
100
AcDb2dVertex
 10
-35.57214180905686
 20
207.6771935384806
 30
0.0
 42
0.0065089477
  0
VERTEX
  5
10D35
330
10D27
100
AcDbEntity
  8
10000_FRONT
  6
Continuous
 62
     7
370
    13
100
AcDbVertex
100
AcDb2dVertex
 10
-35.57551180905689
 20
207.6871235384806
 30
0.0
 42
0.0065265088
 70
     1
  0
VERTEX
  5
10D36
330
10D27
100
AcDbEntity
  8
10000_FRONT
  6
Continuous
 62
     7
370
    13
100
AcDbVertex
100
AcDb2dVertex
 10
-35.57913180905683
 20
207.6969635384807
 30
0.0
 42
0.0065490968
  0
VERTEX
  5
10D37
330
10D27
100
AcDbEntity
  8
10000_FRONT
  6
Continuous
 62
     7
370
    13
100
AcDbVertex
100
AcDb2dVertex
 10
-35.5830218090569
 20
207.7066935384806
 30
0.0
 42
0.0065452853
 70
     1
  0
VERTEX
  5
10D38
330
10D27
100
AcDbEntity
  8
10000_FRONT
  6
Continuous
 62
     7
370
    13
100
AcDbVertex
100
AcDb2dVertex
 10
-35.58716180905685
 20
207.7163335384806
 30
0.0
 42
0.0065148382
  0
VERTEX
  5
10D39
330
10D27
100
AcDbEntity
  8
10000_FRONT
  6
Continuous
 62
     7
370
    13
100
AcDbVertex
100
AcDb2dVertex
 10
-35.59155180905686
 20
207.7258535384806
 30
0.0
 42
0.0064930689
 70
     1
  0
VERTEX
  5
10D3A
330
10D27
100
AcDbEntity
  8
10000_FRONT
  6
Continuous
 62
     7
370
    13
100
AcDbVertex
100
AcDb2dVertex
 10
-35.59618180905687
 20
207.7352635384806
 30
0.0
 42
0.0064747959
  0
VERTEX
  5
10D3B
330
10D27
100
AcDbEntity
  8
10000_FRONT
  6
Continuous
 62
     7
370
    13
100
AcDbVertex
100
AcDb2dVertex
 10
-35.60107180905686
 20
207.7445435384806
 30
0.0
 42
0.0064630494
 70
     1
  0
VERTEX
  5
10D3C
330
10D27
100
AcDbEntity
  8
10000_FRONT
  6
Continuous
 62
     7
370
    13
100
AcDbVertex
100
AcDb2dVertex
 10
-35.60619180905685
 20
207.7536935384807
 30
0.0
 42
0.0064549266
  0
VERTEX
  5
10D3D
330
10D27
100
AcDbEntity
  8
10000_FRONT
  6
Continuous
 62
     7
370
    13
100
AcDbVertex
100
AcDb2dVertex
 10
-35.61154180905686
 20
207.7627035384807
 30
0.0
 42
0.006452659
 70
     1
  0
VERTEX
  5
10D3E
330
10D27
100
AcDbEntity
  8
10000_FRONT
  6
Continuous
 62
     7
370
    13
100
AcDbVertex
100
AcDb2dVertex
 10
-35.61713180905684
 20
207.7715835384806
 30
0.0
 42
0.0064553943
  0
VERTEX
  5
10D3F
330
10D27
100
AcDbEntity
  8
10000_FRONT
  6
Continuous
 62
     7
370
    13
100
AcDbVertex
100
AcDb2dVertex
 10
-35.62294180905685
 20
207.7803035384806
 30
0.0
 42
0.0064628256
 70
     1
  0
VERTEX
  5
10D40
330
10D27
100
AcDbEntity
  8
10000_FRONT
  6
Continuous
 62
     7
370
    13
100
AcDbVertex
100
AcDb2dVertex
 10
-35.62898180905682
 20
207.7888735384806
 30
0.0
 42
0.0064761981
  0
VERTEX
  5
10D41
330
10D27
100
AcDbEntity
  8
10000_FRONT
  6
Continuous
 62
     7
370
    13
100
AcDbVertex
100
AcDb2dVertex
 10
-35.63524180905689
 20
207.7972735384806
 30
0.0
 42
0.0064932698
 70
     1
  0
VERTEX
  5
10D42
330
10D27
100
AcDbEntity
  8
10000_FRONT
  6
Continuous
 62
     7
370
    13
100
AcDbVertex
100
AcDb2dVertex
 10
-35.64171180905686
 20
207.8055135384806
 30
0.0
 42
0.0065174044
  0
VERTEX
  5
10D43
330
10D27
100
AcDbEntity
  8
10000_FRONT
  6
Continuous
 62
     7
370
    13
100
AcDbVertex
100
AcDb2dVertex
 10
-35.64840180905685
 20
207.8135735384806
 30
0.0
 42
0.0065435737
 70
     1
  0
VERTEX
  5
10D44
330
10D27
100
AcDbEntity
  8
10000_FRONT
  6
Continuous
 62
     7
370
    13
100
AcDbVertex
100
AcDb2dVertex
 10
-35.65530180905688
 20
207.8214535384806
 30
0.0
 42
0.0065771858
  0
VERTEX
  5
10D45
330
10D27
100
AcDbEntity
  8
10000_FRONT
  6
Continuous
 62
     7
370
    13
100
AcDbVertex
100
AcDb2dVertex
 10
-35.66240180905686
 20
207.8291435384806
 30
0.0
 42
0.0066133118
 70
     1
  0
VERTEX
  5
10D46
330
10D27
100
AcDbEntity
  8
10000_FRONT
  6
Continuous
 62
     7
370
    13
100
AcDbVertex
100
AcDb2dVertex
 10
-35.66970180905685
 20
207.8366435384806
 30
0.0
 42
0.006659821
  0
VERTEX
  5
10D47
330
10D27
100
AcDbEntity
  8
10000_FRONT
  6
Continuous
 62
     7
370
    13
100
AcDbVertex
100
AcDb2dVertex
 10
-35.67720180905685
 20
207.8439435384806
 30
0.0
 42
0.0067002144
 70
     1
  0
VERTEX
  5
10D48
330
10D27
100
AcDbEntity
  8
10000_FRONT
  6
Continuous
 62
     7
370
    13
100
AcDbVertex
100
AcDb2dVertex
 10
-35.68488180905685
 20
207.8510335384808
 30
0.0
 42
0.0067433809
  0
VERTEX
  5
10D49
330
10D27
100
AcDbEntity
  8
10000_FRONT
  6
Continuous
 62
     7
370
    13
100
AcDbVertex
100
AcDb2dVertex
 10
-35.69276180905689
 20
207.8579135384805
 30
0.0
 42
0.0067356786
 70
     1
  0
VERTEX
  5
10D4A
330
10D27
100
AcDbEntity
  8
10000_FRONT
  6
Continuous
 62
     7
370
    13
100
AcDbVertex
100
AcDb2dVertex
 10
-35.70082180905689
 20
207.8645735384806
 30
0.0
 42
0.006673848
  0
VERTEX
  5
10D4B
330
10D27
100
AcDbEntity
  8
10000_FRONT
  6
Continuous
 62
     7
370
    13
100
AcDbVertex
100
AcDb2dVertex
 10
-35.70906180905689
 20
207.8710235384806
 30
0.0
 42
0.006625025
 70
     1
  0
VERTEX
  5
10D4C
330
10D27
100
AcDbEntity
  8
10000_FRONT
  6
Continuous
 62
     7
370
    13
100
AcDbVertex
100
AcDb2dVertex
 10
-35.7174618090569
 20
207.8772435384806
 30
0.0
 42
0.0065770167
  0
VERTEX
  5
10D4D
330
10D27
100
AcDbEntity
  8
10000_FRONT
  6
Continuous
 62
     7
370
    13
100
AcDbVertex
100
AcDb2dVertex
 10
-35.72603180905685
 20
207.8832435384807
 30
0.0
 42
0.006537021
 70
     1
  0
VERTEX
  5
10D4E
330
10D27
100
AcDbEntity
  8
10000_FRONT
  6
Continuous
 62
     7
370
    13
100
AcDbVertex
100
AcDb2dVertex
 10
-35.7347518090569
 20
207.8890235384806
 30
0.0
 42
0.0064954852
  0
VERTEX
  5
10D4F
330
10D27
100
AcDbEntity
  8
10000_FRONT
  6
Continuous
 62
     7
370
    13
100
AcDbVertex
100
AcDb2dVertex
 10
-35.74363180905687
 20
207.8945735384806
 30
0.0
 42
0.0064630373
 70
     1
  0
VERTEX
  5
10D50
330
10D27
100
AcDbEntity
  8
10000_FRONT
  6
Continuous
 62
     7
370
    13
100
AcDbVertex
100
AcDb2dVertex
 10
-35.75264180905686
 20
207.8998935384806
 30
0.0
 42
0.0064320344
  0
VERTEX
  5
10D51
330
10D27
100
AcDbEntity
  8
10000_FRONT
  6
Continuous
 62
     7
370
    13
100
AcDbVertex
100
AcDb2dVertex
 10
-35.76179180905683
 20
207.9049735384806
 30
0.0
 42
0.0064063307
 70
     1
  0
VERTEX
  5
10D52
330
10D27
100
AcDbEntity
  8
10000_FRONT
  6
Continuous
 62
     7
370
    13
100
AcDbVertex
100
AcDb2dVertex
 10
-35.77106180905685
 20
207.9098235384806
 30
0.0
 42
0.0063805569
  0
VERTEX
  5
10D53
330
10D27
100
AcDbEntity
  8
10000_FRONT
  6
Continuous
 62
     7
370
    13
100
AcDbVertex
100
AcDb2dVertex
 10
-35.78046180905687
 20
207.9144235384806
 30
0.0
 42
0.0063690566
 70
     1
  0
VERTEX
  5
10D54
330
10D27
100
AcDbEntity
  8
10000_FRONT
  6
Continuous
 62
     7
370
    13
100
AcDbVertex
100
AcDb2dVertex
 10
-35.78998180905678
 20
207.9187935384806
 30
0.0
 42
0.0063674921
  0
VERTEX
  5
10D55
330
10D27
100
AcDbEntity
  8
10000_FRONT
  6
Continuous
 62
     7
370
    13
100
AcDbVertex
100
AcDb2dVertex
 10
-35.79960180905687
 20
207.9229135384807
 30
0.0
 42
0.006344747
 70
     1
  0
VERTEX
  5
10D56
330
10D27
100
AcDbEntity
  8
10000_FRONT
  6
Continuous
 62
     7
370
    13
100
AcDbVertex
100
AcDb2dVertex
 10
-35.80933180905686
 20
207.9267935384806
 30
0.0
 42
0.0063030296
  0
VERTEX
  5
10D57
330
10D27
100
AcDbEntity
  8
10000_FRONT
  6
Continuous
 62
     7
370
    13
100
AcDbVertex
100
AcDb2dVertex
 10
-35.81914180905688
 20
207.9304235384806
 30
0.0
 42
0.0063593753
 70
     1
  0
VERTEX
  5
10D58
330
10D27
100
AcDbEntity
  8
10000_FRONT
  6
Continuous
 62
     7
370
    13
100
AcDbVertex
100
AcDb2dVertex
 10
-35.8290618090569
 20
207.9337935384806
 30
0.0
 42
0.0064967742
  0
VERTEX
  5
10D59
330
10D27
100
AcDbEntity
  8
10000_FRONT
  6
Continuous
 62
     7
370
    13
100
AcDbVertex
100
AcDb2dVertex
 10
-35.83908180905684
 20
207.9369135384806
 30
0.0
 42
0.0063218206
 70
     1
  0
VERTEX
  5
10D5A
330
10D27
100
AcDbEntity
  8
10000_FRONT
  6
Continuous
 62
     7
370
    13
100
AcDbVertex
100
AcDb2dVertex
 10
-35.8491218090569
 20
207.9397735384806
 30
0.0
 42
0.005912008
  0
VERTEX
  5
10D5B
330
10D27
100
AcDbEntity
  8
10000_FRONT
  6
Continuous
 62
     7
370
    13
100
AcDbVertex
100
AcDb2dVertex
 10
-35.85918180905685
 20
207.9423735384807
 30
0.0
 42
0.0065519959
 70
     1
  0
VERTEX
  5
10D5C
330
10D27
100
AcDbEntity
  8
10000_FRONT
  6
Continuous
 62
     7
370
    13
100
AcDbVertex
100
AcDb2dVertex
 10
-35.86946180905687
 20
207.9447235384806
 30
0.0
 42
0.007866005
  0
VERTEX
  5
10D5D
330
10D27
100
AcDbEntity
  8
10000_FRONT
  6
Continuous
 62
     7
370
    13
100
AcDbVertex
100
AcDb2dVertex
 10
-35.88005180905685
 20
207.9468035384806
 30
0.0
 42
0.0059769221
 70
     1
  0
VERTEX
  5
10D5E
330
10D27
100
AcDbEntity
  8
10000_FRONT
  6
Continuous
 62
     7
370
    13
100
AcDbVertex
100
AcDb2dVertex
 10
-35.89003180905685
 20
207.9486035384806
 30
0.0
 42
0.0019943081
  0
VERTEX
  5
10D5F
330
10D27
100
AcDbEntity
  8
10000_FRONT
  6
Continuous
 62
     7
370
    13
100
AcDbVertex
100
AcDb2dVertex
 10
-35.89907180905687
 20
207.9501035384806
 30
0.0
 42
0.0085281868
 70
     1
  0
VERTEX
  5
10D60
330
10D27
100
AcDbEntity
  8
10000_FRONT
  6
Continuous
 62
     7
370
    13
100
AcDbVertex
100
AcDb2dVertex
 10
-35.91076180905685
 20
207.9514035384806
 30
0.0
 42
0.014896105
  0
VERTEX
  5
10D61
330
10D27
100
AcDbEntity
  8
10000_FRONT
  6
Continuous
 62
     7
370
    13
100
AcDbVertex
100
AcDb2dVertex
 10
-35.92882180905696
 20
207.9525935384806
 30
0.0
 42
0.0073002158
 70
     1
  0
VERTEX
  5
10D62
330
10D27
100
AcDbEntity
  8
10000_FRONT
  6
Continuous
 62
     7
370
    13
100
AcDbVertex
100
AcDb2dVertex
 10
-35.95252180905686
 20
207.9536735384806
 30
0.0
 42
0.0038513459
  0
SEQEND
  5
10D63
330
10D27
100
AcDbEntity
  8
10000_FRONT
  6
Continuous
 62
     7
370
    13
  0
LINE
  5
10D64
330
1F
100
AcDbEntity
  8
10000_FRONT
  6
Continuous
 62
     7
370
    13
100
AcDbLine
 10
-35.55252180905688
 20
183.9476535384806
 30
0.0
 11
-35.55252180905688
 21
207.5535535384806
 31
0.0
  0
POLYLINE
  5
10D65
330
1F
100
AcDbEntity
  8
10000_FRONT
  6
Continuous
 62
     7
370
    13
100
AcDb2dPolyline
 66
     1
 10
0.0
 20
0.0
 30
0.0
 70
     2
  0
VERTEX
  5
10D66
330
10D65
100
AcDbEntity
  8
10000_FRONT
  6
Continuous
 62
     7
370
    13
100
AcDbVertex
100
AcDb2dVertex
 10
-35.95252180905686
 20
183.5475635384806
 30
0.0
  0
VERTEX
  5
10D67
330
10D65
100
AcDbEntity
  8
10000_FRONT
  6
Continuous
 62
     7
370
    13
100
AcDbVertex
100
AcDb2dVertex
 10
-35.94205180905686
 20
183.5477035384806
 30
0.0
 42
0.0065518947
 70
     1
  0
VERTEX
  5
10D68
330
10D65
100
AcDbEntity
  8
10000_FRONT
  6
Continuous
 62
     7
370
    13
100
AcDbVertex
100
AcDb2dVertex
 10
-35.93160180905687
 20
183.5481135384805
 30
0.0
 42
0.0065707888
  0
VERTEX
  5
10D69
330
10D65
100
AcDbEntity
  8
10000_FRONT
  6
Continuous
 62
     7
370
    13
100
AcDbVertex
100
AcDb2dVertex
 10
-35.92115180905688
 20
183.5488035384806
 30
0.0
 42
0.0065560343
 70
     1
  0
VERTEX
  5
10D6A
330
10D65
100
AcDbEntity
  8
10000_FRONT
  6
Continuous
 62
     7
370
    13
100
AcDbVertex
100
AcDb2dVertex
 10
-35.9107218090569
 20
183.5497635384806
 30
0.0
 42
0.0065234148
  0
VERTEX
  5
10D6B
330
10D65
100
AcDbEntity
  8
10000_FRONT
  6
Continuous
 62
     7
370
    13
100
AcDbVertex
100
AcDb2dVertex
 10
-35.90032180905689
 20
183.5510035384806
 30
0.0
 42
0.006505443
 70
     1
  0
VERTEX
  5
10D6C
330
10D65
100
AcDbEntity
  8
10000_FRONT
  6
Continuous
 62
     7
370
    13
100
AcDbVertex
100
AcDb2dVertex
 10
-35.88996180905696
 20
183.5525135384806
 30
0.0
 42
0.0064934773
  0
VERTEX
  5
10D6D
330
10D65
100
AcDbEntity
  8
10000_FRONT
  6
Continuous
 62
     7
370
    13
100
AcDbVertex
100
AcDb2dVertex
 10
-35.87963180905685
 20
183.5542935384806
 30
0.0
 42
0.0064856444
 70
     1
  0
VERTEX
  5
10D6E
330
10D65
100
AcDbEntity
  8
10000_FRONT
  6
Continuous
 62
     7
370
    13
100
AcDbVertex
100
AcDb2dVertex
 10
-35.8693618090569
 20
183.5563335384806
 30
0.0
 42
0.0064817779
  0
VERTEX
  5
10D6F
330
10D65
100
AcDbEntity
  8
10000_FRONT
  6
Continuous
 62
     7
370
    13
100
AcDbVertex
100
AcDb2dVertex
 10
-35.85914180905684
 20
183.5586535384806
 30
0.0
 42
0.006482557
 70
     1
  0
VERTEX
  5
10D70
330
10D65
100
AcDbEntity
  8
10000_FRONT
  6
Continuous
 62
     7
370
    13
100
AcDbVertex
100
AcDb2dVertex
 10
-35.84898180905685
 20
183.5612235384806
 30
0.0
 42
0.0064883637
  0
VERTEX
  5
10D71
330
10D65
100
AcDbEntity
  8
10000_FRONT
  6
Continuous
 62
     7
370
    13
100
AcDbVertex
100
AcDb2dVertex
 10
-35.83890180905684
 20
183.5640735384806
 30
0.0
 42
0.0064980862
 70
     1
  0
VERTEX
  5
10D72
330
10D65
100
AcDbEntity
  8
10000_FRONT
  6
Continuous
 62
     7
370
    13
100
AcDbVertex
100
AcDb2dVertex
 10
-35.82889180905687
 20
183.5671835384806
 30
0.0
 42
0.0065146489
  0
VERTEX
  5
10D73
330
10D65
100
AcDbEntity
  8
10000_FRONT
  6
Continuous
 62
     7
370
    13
100
AcDbVertex
100
AcDb2dVertex
 10
-35.81896180905687
 20
183.5705535384806
 30
0.0
 42
0.0065315228
 70
     1
  0
VERTEX
  5
10D74
330
10D65
100
AcDbEntity
  8
10000_FRONT
  6
Continuous
 62
     7
370
    13
100
AcDbVertex
100
AcDb2dVertex
 10
-35.80913180905685
 20
183.5741735384805
 30
0.0
 42
0.0065533103
  0
VERTEX
  5
10D75
330
10D65
100
AcDbEntity
  8
10000_FRONT
  6
Continuous
 62
     7
370
    13
100
AcDbVertex
100
AcDb2dVertex
 10
-35.79939180905683
 20
183.5780635384806
 30
0.0
 42
0.006549016
 70
     1
  0
VERTEX
  5
10D76
330
10D65
100
AcDbEntity
  8
10000_FRONT
  6
Continuous
 62
     7
370
    13
100
AcDbVertex
100
AcDb2dVertex
 10
-35.78976180905687
 20
183.5822035384806
 30
0.0
 42
0.006518318
  0
VERTEX
  5
10D77
330
10D65
100
AcDbEntity
  8
10000_FRONT
  6
Continuous
 62
     7
370
    13
100
AcDbVertex
100
AcDb2dVertex
 10
-35.78024180905686
 20
183.5866035384806
 30
0.0
 42
0.0064962963
 70
     1
  0
VERTEX
  5
10D78
330
10D65
100
AcDbEntity
  8
10000_FRONT
  6
Continuous
 62
     7
370
    13
100
AcDbVertex
100
AcDb2dVertex
 10
-35.77083180905686
 20
183.5912435384805
 30
0.0
 42
0.0064777169
  0
VERTEX
  5
10D79
330
10D65
100
AcDbEntity
  8
10000_FRONT
  6
Continuous
 62
     7
370
    13
100
AcDbVertex
100
AcDb2dVertex
 10
-35.76155180905687
 20
183.5961235384806
 30
0.0
 42
0.006465694
 70
     1
  0
VERTEX
  5
10D7A
330
10D65
100
AcDbEntity
  8
10000_FRONT
  6
Continuous
 62
     7
370
    13
100
AcDbVertex
100
AcDb2dVertex
 10
-35.75240180905689
 20
183.6012435384806
 30
0.0
 42
0.0064572708
  0
VERTEX
  5
10D7B
330
10D65
100
AcDbEntity
  8
10000_FRONT
  6
Continuous
 62
     7
370
    13
100
AcDbVertex
100
AcDb2dVertex
 10
-35.74339180905685
 20
183.6066035384806
 30
0.0
 42
0.0064547259
 70
     1
  0
VERTEX
  5
10D7C
330
10D65
100
AcDbEntity
  8
10000_FRONT
  6
Continuous
 62
     7
370
    13
100
AcDbVertex
100
AcDb2dVertex
 10
-35.7345218090569
 20
183.6121935384806
 30
0.0
 42
0.006457156
  0
VERTEX
  5
10D7D
330
10D65
100
AcDbEntity
  8
10000_FRONT
  6
Continuous
 62
     7
370
    13
100
AcDbVertex
100
AcDb2dVertex
 10
-35.72580180905686
 20
183.6180135384806
 30
0.0
 42
0.006464308
 70
     1
  0
VERTEX
  5
10D7E
330
10D65
100
AcDbEntity
  8
10000_FRONT
  6
Continuous
 62
     7
370
    13
100
AcDbVertex
100
AcDb2dVertex
 10
-35.71723180905685
 20
183.6240535384806
 30
0.0
 42
0.0064773778
  0
VERTEX
  5
10D7F
330
10D65
100
AcDbEntity
  8
10000_FRONT
  6
Continuous
 62
     7
370
    13
100
AcDbVertex
100
AcDb2dVertex
 10
-35.70883180905685
 20
183.6303135384806
 30
0.0
 42
0.0064941722
 70
     1
  0
VERTEX
  5
10D80
330
10D65
100
AcDbEntity
  8
10000_FRONT
  6
Continuous
 62
     7
370
    13
100
AcDbVertex
100
AcDb2dVertex
 10
-35.70060180905688
 20
183.6367935384806
 30
0.0
 42
0.0065180068
  0
VERTEX
  5
10D81
330
10D65
100
AcDbEntity
  8
10000_FRONT
  6
Continuous
 62
     7
370
    13
100
AcDbVertex
100
AcDb2dVertex
 10
-35.69254180905689
 20
183.6434835384806
 30
0.0
 42
0.006543907
 70
     1
  0
VERTEX
  5
10D82
330
10D65
100
AcDbEntity
  8
10000_FRONT
  6
Continuous
 62
     7
370
    13
100
AcDbVertex
100
AcDb2dVertex
 10
-35.68466180905689
 20
183.6503835384806
 30
0.0
 42
0.0065772344
  0
VERTEX
  5
10D83
330
10D65
100
AcDbEntity
  8
10000_FRONT
  6
Continuous
 62
     7
370
    13
100
AcDbVertex
100
AcDb2dVertex
 10
-35.67697180905696
 20
183.6574835384806
 30
0.0
 42
0.0066130916
 70
     1
  0
VERTEX
  5
10D84
330
10D65
100
AcDbEntity
  8
10000_FRONT
  6
Continuous
 62
     7
370
    13
100
AcDbVertex
100
AcDb2dVertex
 10
-35.66947180905686
 20
183.6647835384806
 30
0.0
 42
0.0066592989
  0
VERTEX
  5
10D85
330
10D65
100
AcDbEntity
  8
10000_FRONT
  6
Continuous
 62
     7
370
    13
100
AcDbVertex
100
AcDb2dVertex
 10
-35.66218180905685
 20
183.6722835384806
 30
0.0
 42
0.0066994762
 70
     1
  0
VERTEX
  5
10D86
330
10D65
100
AcDbEntity
  8
10000_FRONT
  6
Continuous
 62
     7
370
    13
100
AcDbVertex
100
AcDb2dVertex
 10
-35.65509180905684
 20
183.6799735384806
 30
0.0
 42
0.0067424731
  0
VERTEX
  5
10D87
330
10D65
100
AcDbEntity
  8
10000_FRONT
  6
Continuous
 62
     7
370
    13
100
AcDbVertex
100
AcDb2dVertex
 10
-35.64821180905688
 20
183.6878635384804
 30
0.0
 42
0.0067347469
 70
     1
  0
VERTEX
  5
10D88
330
10D65
100
AcDbEntity
  8
10000_FRONT
  6
Continuous
 62
     7
370
    13
100
AcDbVertex
100
AcDb2dVertex
 10
-35.64155180905686
 20
183.6959235384806
 30
0.0
 42
0.0066730318
  0
VERTEX
  5
10D89
330
10D65
100
AcDbEntity
  8
10000_FRONT
  6
Continuous
 62
     7
370
    13
100
AcDbVertex
100
AcDb2dVertex
 10
-35.63511180905687
 20
183.7041635384806
 30
0.0
 42
0.0066242733
 70
     1
  0
VERTEX
  5
10D8A
330
10D65
100
AcDbEntity
  8
10000_FRONT
  6
Continuous
 62
     7
370
    13
100
AcDbVertex
100
AcDb2dVertex
 10
-35.62889180905688
 20
183.7125635384806
 30
0.0
 42
0.006576308
  0
VERTEX
  5
10D8B
330
10D65
100
AcDbEntity
  8
10000_FRONT
  6
Continuous
 62
     7
370
    13
100
AcDbVertex
100
AcDb2dVertex
 10
-35.62289180905685
 20
183.7211335384806
 30
0.0
 42
0.0065363447
 70
     1
  0
VERTEX
  5
10D8C
330
10D65
100
AcDbEntity
  8
10000_FRONT
  6
Continuous
 62
     7
370
    13
100
AcDbVertex
100
AcDb2dVertex
 10
-35.61711180905689
 20
183.7298535384806
 30
0.0
 42
0.006494853
  0
VERTEX
  5
10D8D
330
10D65
100
AcDbEntity
  8
10000_FRONT
  6
Continuous
 62
     7
370
    13
100
AcDbVertex
100
AcDb2dVertex
 10
-35.6115718090569
 20
183.7387335384806
 30
0.0
 42
0.0064624283
 70
     1
  0
VERTEX
  5
10D8E
330
10D65
100
AcDbEntity
  8
10000_FRONT
  6
Continuous
 62
     7
370
    13
100
AcDbVertex
100
AcDb2dVertex
 10
-35.60625180905686
 20
183.7477435384806
 30
0.0
 42
0.0064314507
  0
VERTEX
  5
10D8F
330
10D65
100
AcDbEntity
  8
10000_FRONT
  6
Continuous
 62
     7
370
    13
100
AcDbVertex
100
AcDb2dVertex
 10
-35.60117180905689
 20
183.7568935384806
 30
0.0
 42
0.0064057538
 70
     1
  0
VERTEX
  5
10D90
330
10D65
100
AcDbEntity
  8
10000_FRONT
  6
Continuous
 62
     7
370
    13
100
AcDbVertex
100
AcDb2dVertex
 10
-35.59633180905684
 20
183.7661735384806
 30
0.0
 42
0.0063799901
  0
VERTEX
  5
10D91
330
10D65
100
AcDbEntity
  8
10000_FRONT
  6
Continuous
 62
     7
370
    13
100
AcDbVertex
100
AcDb2dVertex
 10
-35.59172180905689
 20
183.7755735384806
 30
0.0
 42
0.006368481
 70
     1
  0
VERTEX
  5
10D92
330
10D65
100
AcDbEntity
  8
10000_FRONT
  6
Continuous
 62
     7
370
    13
100
AcDbVertex
100
AcDb2dVertex
 10
-35.58736180905686
 20
183.7850935384806
 30
0.0
 42
0.0063669091
  0
VERTEX
  5
10D93
330
10D65
100
AcDbEntity
  8
10000_FRONT
  6
Continuous
 62
     7
370
    13
100
AcDbVertex
100
AcDb2dVertex
 10
-35.58324180905686
 20
183.7947235384806
 30
0.0
 42
0.0063441382
 70
     1
  0
VERTEX
  5
10D94
330
10D65
100
AcDbEntity
  8
10000_FRONT
  6
Continuous
 62
     7
370
    13
100
AcDbVertex
100
AcDb2dVertex
 10
-35.57936180905688
 20
183.8044435384806
 30
0.0
 42
0.006302398
  0
VERTEX
  5
10D95
330
10D65
100
AcDbEntity
  8
10000_FRONT
  6
Continuous
 62
     7
370
    13
100
AcDbVertex
100
AcDb2dVertex
 10
-35.57574180905687
 20
183.8142635384806
 30
0.0
 42
0.0063586979
 70
     1
  0
VERTEX
  5
10D96
330
10D65
100
AcDbEntity
  8
10000_FRONT
  6
Continuous
 62
     7
370
    13
100
AcDbVertex
100
AcDb2dVertex
 10
-35.57237180905696
 20
183.8241835384806
 30
0.0
 42
0.0064960421
  0
VERTEX
  5
10D97
330
10D65
100
AcDbEntity
  8
10000_FRONT
  6
Continuous
 62
     7
370
    13
100
AcDbVertex
100
AcDb2dVertex
 10
-35.56925180905688
 20
183.8342035384807
 30
0.0
 42
0.0063210384
 70
     1
  0
VERTEX
  5
10D98
330
10D65
100
AcDbEntity
  8
10000_FRONT
  6
Continuous
 62
     7
370
    13
100
AcDbVertex
100
AcDb2dVertex
 10
-35.56639180905688
 20
183.8442535384806
 30
0.0
 42
0.0059112119
  0
VERTEX
  5
10D99
330
10D65
100
AcDbEntity
  8
10000_FRONT
  6
Continuous
 62
     7
370
    13
100
AcDbVertex
100
AcDb2dVertex
 10
-35.56380180905688
 20
183.8543035384806
 30
0.0
 42
0.006551056
 70
     1
  0
VERTEX
  5
10D9A
330
10D65
100
AcDbEntity
  8
10000_FRONT
  6
Continuous
 62
     7
370
    13
100
AcDbVertex
100
AcDb2dVertex
 10
-35.56145180905685
 20
183.8645935384806
 30
0.0
 42
0.0078647811
  0
VERTEX
  5
10D9B
330
10D65
100
AcDbEntity
  8
10000_FRONT
  6
Continuous
 62
     7
370
    13
100
AcDbVertex
100
AcDb2dVertex
 10
-35.55938180905684
 20
183.8751835384806
 30
0.0
 42
0.0059758597
 70
     1
  0
VERTEX
  5
10D9C
330
10D65
100
AcDbEntity
  8
10000_FRONT
  6
Continuous
 62
     7
370
    13
100
AcDbVertex
100
AcDb2dVertex
 10
-35.55758180905684
 20
183.8851635384806
 30
0.0
 42
0.001993893
  0
VERTEX
  5
10D9D
330
10D65
100
AcDbEntity
  8
10000_FRONT
  6
Continuous
 62
     7
370
    13
100
AcDbVertex
100
AcDb2dVertex
 10
-35.55608180905676
 20
183.8942035384806
 30
0.0
 42
0.008526562
 70
     1
  0
VERTEX
  5
10D9E
330
10D65
100
AcDbEntity
  8
10000_FRONT
  6
Continuous
 62
     7
370
    13
100
AcDbVertex
100
AcDb2dVertex
 10
-35.55478180905686
 20
183.9058935384806
 30
0.0
 42
0.014892695
  0
VERTEX
  5
10D9F
330
10D65
100
AcDbEntity
  8
10000_FRONT
  6
Continuous
 62
     7
370
    13
100
AcDbVertex
100
AcDb2dVertex
 10
-35.55359180905686
 20
183.9239635384805
 30
0.0
 42
0.0072982663
 70
     1
  0
VERTEX
  5
10DA0
330
10D65
100
AcDbEntity
  8
10000_FRONT
  6
Continuous
 62
     7
370
    13
100
AcDbVertex
100
AcDb2dVertex
 10
-35.55252180905688
 20
183.9476635384805
 30
0.0
 42
0.0038502512
  0
SEQEND
  5
10DA1
330
10D65
100
AcDbEntity
  8
10000_FRONT
  6
Continuous
 62
     7
370
    13
  0
LINE
  5
10DA2
330
1F
100
AcDbEntity
  8
10000_FRONT
  6
Continuous
 62
     7
370
    13
100
AcDbLine
 10
-36.86119180905683
 20
183.5475535384806
 30
0.0
 11
-35.95252180905686
 21
183.5475535384806
 31
0.0
  0
LINE
  5
10DA3
330
1F
100
AcDbEntity
  8
10000_FRONT
  6
Continuous
 62
     7
370
    13
100
AcDbLine
 10
-31.1025218090569
 20
220.6749035384806
 30
0.0
 11
-37.95252180905686
 21
220.6749035384806
 31
0.0
  0
LINE
  5
10DA4
330
1F
100
AcDbEntity
  8
10000_FRONT
  6
Continuous
 62
     7
370
    13
100
AcDbLine
 10
-44.55252180905688
 20
220.6749035384806
 30
0.0
 11
-51.40252180905696
 21
220.6749035384806
 31
0.0
  0
LINE
  5
10DA5
330
1F
100
AcDbEntity
  8
10000_FRONT
  6
Continuous
 62
     7
370
    13
100
AcDbLine
 10
-51.40252180905696
 20
213.2947335384806
 30
0.0
 11
-31.1025218090569
 21
213.2947335384806
 31
0.0
  0
LINE
  5
10DA6
330
1F
100
AcDbEntity
  8
10000_FRONT
  6
Continuous
 62
     7
370
    13
100
AcDbLine
 10
-38.95252180905686
 20
188.3678035384806
 30
0.0
 11
-38.95252180905686
 21
189.5678035384806
 31
0.0
  0
LINE
  5
10DA7
330
1F
100
AcDbEntity
  8
10000_FRONT
  6
Continuous
 62
     7
370
    13
100
AcDbLine
 10
-43.55252180905688
 20
188.3677935384806
 30
0.0
 11
-38.95252180905686
 21
188.3677935384806
 31
0.0
  0
LINE
  5
10DA8
330
1F
100
AcDbEntity
  8
10000_FRONT
  6
Continuous
 62
     7
370
    13
100
AcDbLine
 10
-43.55252180905688
 20
189.5678035384806
 30
0.0
 11
-43.55252180905688
 21
188.3678035384806
 31
0.0
  0
ARC
  5
10DA9
330
1F
100
AcDbEntity
  8
10000_FRONT
 62
     7
370
    50
100
AcDbCircle
 39
0.7
 10
-32.55252180905689
 20
163.0177935384805
 30
0.0
 40
0.8
100
AcDbArc
 50
270.0
 51
355.2156200000009
  0
ARC
  5
10DAA
330
1F
100
AcDbEntity
  8
10000_FRONT
 62
     7
370
    50
100
AcDbCircle
 39
0.7
 10
-32.55252180905689
 20
163.0177935384805
 30
0.0
 40
0.8
100
AcDbArc
 50
355.2156200000009
 51
0.0
  0
ARC
  5
10DAB
330
1F
100
AcDbEntity
  8
10000_FRONT
 62
     7
370
    50
100
AcDbCircle
 39
0.7
 10
-30.95252180905686
 20
165.1177935384806
 30
0.0
 40
0.8
100
AcDbArc
 50
270.0
 51
313.218050000001
  0
ARC
  5
10DAC
330
1F
100
AcDbEntity
  8
10000_FRONT
 62
     7
370
    50
100
AcDbCircle
 39
0.7
 10
-30.95252180905686
 20
165.1177935384806
 30
0.0
 40
0.8
100
AcDbArc
 50
313.218050000001
 51
0.0
  0
ARC
  5
10DAD
330
1F
100
AcDbEntity
  8
10000_FRONT
 62
     7
370
    50
100
AcDbCircle
 39
0.7
 10
-30.95252180905686
 20
243.9177935384806
 30
0.0
 40
0.8
100
AcDbArc
 50
0.0
 51
46.78195400000084
  0
ARC
  5
10DAE
330
1F
100
AcDbEntity
  8
10000_FRONT
 62
     7
370
    50
100
AcDbCircle
 39
0.7
 10
-30.95252180905686
 20
243.9177935384806
 30
0.0
 40
0.8
100
AcDbArc
 50
46.78195400000084
 51
90.0
  0
ARC
  5
10DAF
330
1F
100
AcDbEntity
  8
10000_FRONT
 62
     7
370
    50
100
AcDbCircle
 39
0.7
 10
-51.55252180905688
 20
243.9177935384806
 30
0.0
 40
0.8
100
AcDbArc
 50
90.0
 51
133.218050000001
  0
ARC
  5
10DB0
330
1F
100
AcDbEntity
  8
10000_FRONT
 62
     7
370
    50
100
AcDbCircle
 39
0.7
 10
-51.55252180905688
 20
243.9177935384806
 30
0.0
 40
0.8
100
AcDbArc
 50
133.218050000001
 51
180.0
  0
ARC
  5
10DB1
330
1F
100
AcDbEntity
  8
10000_FRONT
 62
     7
370
    50
100
AcDbCircle
 39
0.7
 10
-51.55252180905688
 20
165.1177935384806
 30
0.0
 40
0.8
100
AcDbArc
 50
180.0
 51
226.781949999999
  0
ARC
  5
10DB2
330
1F
100
AcDbEntity
  8
10000_FRONT
 62
     7
370
    50
100
AcDbCircle
 39
0.7
 10
-51.55252180905688
 20
165.1177935384806
 30
0.0
 40
0.8
100
AcDbArc
 50
226.781949999999
 51
270.0
  0
ARC
  5
10DB3
330
1F
100
AcDbEntity
  8
10000_FRONT
  6
Continuous
 62
     7
370
    13
100
AcDbCircle
 10
-35.8525218090569
 20
163.0177935384805
 30
0.0
 40
0.8
100
AcDbArc
 50
270.0
 51
0.0
  0
ARC
  5
10DB4
330
1F
100
AcDbEntity
  8
10000_FRONT
  6
Continuous
 62
     7
370
    13
100
AcDbCircle
 10
-46.65252180905695
 20
163.0177935384805
 30
0.0
 40
0.8
100
AcDbArc
 50
180.0
 51
270.0
  0
ARC
  5
10DB5
330
1F
100
AcDbEntity
  8
10000_FRONT
 62
     7
370
    50
100
AcDbCircle
 39
0.7
 10
-49.95252180905686
 20
163.0177935384805
 30
0.0
 40
0.8
100
AcDbArc
 50
180.0
 51
184.758839999999
  0
ARC
  5
10DB6
330
1F
100
AcDbEntity
  8
10000_FRONT
 62
     7
370
    50
100
AcDbCircle
 39
0.7
 10
-49.95252180905686
 20
163.0177935384805
 30
0.0
 40
0.8
100
AcDbArc
 50
184.758839999999
 51
270.0
  0
ARC
  5
10DB7
330
1F
100
AcDbEntity
  8
10000_FRONT
  6
Continuous
 62
     7
370
    13
100
AcDbCircle
 10
-46.65252180905695
 20
246.0177935384806
 30
0.0
 40
0.8
100
AcDbArc
 50
90.0
 51
180.0
  0
ARC
  5
10DB8
330
1F
100
AcDbEntity
  8
10000_FRONT
 62
     7
370
    50
100
AcDbCircle
 39
0.7
 10
-32.55252180905689
 20
246.0177935384806
 30
0.0
 40
0.8
100
AcDbArc
 50
0.0
 51
4.75883609999944
  0
ARC
  5
10DB9
330
1F
100
AcDbEntity
  8
10000_FRONT
 62
     7
370
    50
100
AcDbCircle
 39
0.7
 10
-32.55252180905689
 20
246.0177935384806
 30
0.0
 40
0.8
100
AcDbArc
 50
4.75883609999944
 51
90.0
  0
ARC
  5
10DBB
330
1F
100
AcDbEntity
  8
10000_FRONT
 62
     7
370
    50
100
AcDbCircle
 39
0.7
 10
-49.95252180905686
 20
246.0177935384806
 30
0.0
 40
0.8
100
AcDbArc
 50
90.0
 51
175.241160000001
  0
LINE
  5
10DBC
330
1F
100
AcDbEntity
  8
10000_FRONT
 62
     7
370
    50
100
AcDbLine
 39
0.7
 10
-49.65252180905689
 20
245.9177935384806
 30
0.0
 11
-49.65252180905689
 21
244.7177935384806
 31
0.0
  0
LINE
  5
10DBD
330
1F
100
AcDbEntity
  8
10000_FRONT
 62
     7
370
    50
100
AcDbLine
 39
0.7
 10
-50.75252180905686
 20
245.9177935384806
 30
0.0
 11
-49.65252180905689
 21
245.9177935384806
 31
0.0
  0
LINE
  5
10DBE
330
1F
100
AcDbEntity
  8
10000_FRONT
 62
     7
370
    50
100
AcDbLine
 39
0.7
 10
-32.8525218090569
 20
245.9177935384806
 30
0.0
 11
-32.8525218090569
 21
244.7177935384806
 31
0.0
  0
LINE
  5
10DBF
330
1F
100
AcDbEntity
  8
10000_FRONT
 62
     7
370
    50
100
AcDbLine
 39
0.7
 10
-31.75252180905687
 20
245.9177935384806
 30
0.0
 11
-32.8525218090569
 21
245.9177935384806
 31
0.0
  0
LINE
  5
10DC0
330
1F
100
AcDbEntity
  8
10000_FRONT
 62
     7
370
    50
100
AcDbLine
 39
0.7
 10
-49.65252180905689
 20
163.1177935384806
 30
0.0
 11
-49.65252180905689
 21
164.3177935384806
 31
0.0
  0
LINE
  5
10DC1
330
1F
100
AcDbEntity
  8
10000_FRONT
 62
     7
370
    50
100
AcDbLine
 39
0.7
 10
-50.75252180905686
 20
163.1177935384806
 30
0.0
 11
-49.65252180905689
 21
163.1177935384806
 31
0.0
  0
LINE
  5
10DC2
330
1F
100
AcDbEntity
  8
10000_FRONT
 62
     7
370
    50
100
AcDbLine
 39
0.7
 10
-32.8525218090569
 20
163.1177935384806
 30
0.0
 11
-32.8525218090569
 21
164.3177935384806
 31
0.0
  0
LINE
  5
10DC3
330
1F
100
AcDbEntity
  8
10000_FRONT
 62
     7
370
    50
100
AcDbLine
 39
0.7
 10
-31.75252180905687
 20
163.1177935384806
 30
0.0
 11
-32.8525218090569
 21
163.1177935384806
 31
0.0
  0
ARC
  5
10DC4
330
1F
100
AcDbEntity
  8
10000_FRONT
  6
Continuous
 62
     7
370
    13
100
AcDbCircle
 10
-41.25252180905686
 20
180.7677935384806
 30
0.0
 40
5.0
100
AcDbArc
 50
32.38304500000179
 51
37.77049000000045
  0
ARC
  5
10DC5
330
1F
100
AcDbEntity
  8
10000_FRONT
  6
Continuous
 62
     7
370
    13
100
AcDbCircle
 10
-41.25252180905686
 20
180.7677935384806
 30
0.0
 40
5.0
100
AcDbArc
 50
37.77049000000045
 51
142.2295099999995
  0
ARC
  5
10DC6
330
1F
100
AcDbEntity
  8
10000_FRONT
  6
Continuous
 62
     7
370
    13
100
AcDbCircle
 10
-41.25252180905686
 20
180.7677935384806
 30
0.0
 40
5.0
100
AcDbArc
 50
142.2295099999995
 51
147.616949999999
  0
ARC
  5
10DC7
330
1F
100
AcDbEntity
  8
10000_FRONT
  6
Continuous
 62
     7
370
    13
100
AcDbCircle
 10
-41.25252180905686
 20
180.7677935384806
 30
0.0
 40
5.0
100
AcDbArc
 50
147.616949999999
 51
0.0
  0
ARC
  5
10DC8
330
1F
100
AcDbEntity
  8
10000_FRONT
  6
Continuous
 62
     7
370
    13
100
AcDbCircle
 10
-41.25252180905686
 20
180.7677935384806
 30
0.0
 40
5.0
100
AcDbArc
 50
0.0
 51
32.38304500000179
  0
CIRCLE
  5
10DC9
330
1F
100
AcDbEntity
  8
10000_FRONT
  6
Continuous
 62
     7
370
    13
100
AcDbCircle
 10
-41.25252180905686
 20
228.2677935384807
 30
0.0
 40
5.0
  0
ARC
  5
10DCA
330
1F
100
AcDbEntity
  8
10000_FRONT
  6
Continuous
 62
     7
370
    13
100
AcDbCircle
 10
-49.00252180905686
 20
205.5177935384806
 30
0.0
 40
2.1
100
AcDbArc
 50
347.4433699999984
 51
12.58708999999885
  0
LINE
  5
10DCB
330
1F
100
AcDbEntity
  8
10000_FRONT
  6
Continuous
 62
     7
370
    13
100
AcDbLine
 10
-50.50252180905687
 20
212.5177935384806
 30
0.0
 11
-50.50252180905687
 21
209.5177935384807
 31
0.0
  0
LINE
  5
10DCC
330
1F
100
AcDbEntity
  8
10000_FRONT
  6
Continuous
 62
     7
370
    13
100
AcDbLine
 10
-32.00252180905688
 20
209.5177935384807
 30
0.0
 11
-32.00252180905688
 21
212.5177935384806
 31
0.0
  0
LINE
  5
10DCD
330
1F
100
AcDbEntity
  8
10000_FRONT
  6
Continuous
 62
     7
370
    13
100
AcDbLine
 10
-32.00252180905688
 20
224.5177935384806
 30
0.0
 11
-32.00252180905688
 21
227.5177935384807
 31
0.0
  0
LINE
  5
10DCE
330
1F
100
AcDbEntity
  8
10000_FRONT
  6
Continuous
 62
     7
370
    13
100
AcDbLine
 10
-50.50252180905687
 20
227.5177935384807
 30
0.0
 11
-50.50252180905687
 21
224.5177935384806
 31
0.0
  0
LINE
  5
10DCF
330
1F
100
AcDbEntity
  8
10000_FRONT
  6
Continuous
 62
     7
370
    13
100
AcDbLine
 10
-47.50252180905686
 20
224.5177935384806
 30
0.0
 11
-47.50252180905686
 21
227.5177935384807
 31
0.0
  0
LINE
  5
10DD0
330
1F
100
AcDbEntity
  8
10000_FRONT
  6
Continuous
 62
     7
370
    13
100
AcDbLine
 10
-47.50252180905686
 20
227.5177935384807
 30
0.0
 11
-50.50252180905687
 21
227.5177935384807
 31
0.0
  0
LINE
  5
10DD1
330
1F
100
AcDbEntity
  8
10000_FRONT
  6
Continuous
 62
     7
370
    13
100
AcDbLine
 10
-50.50252180905687
 20
224.5177935384806
 30
0.0
 11
-47.50252180905686
 21
224.5177935384806
 31
0.0
  0
LINE
  5
10DD2
330
1F
100
AcDbEntity
  8
10000_FRONT
  6
Continuous
 62
     7
370
    13
100
AcDbLine
 10
-35.00252180905687
 20
227.5177935384807
 30
0.0
 11
-35.00252180905687
 21
224.5177935384806
 31
0.0
  0
LINE
  5
10DD3
330
1F
100
AcDbEntity
  8
10000_FRONT
  6
Continuous
 62
     7
370
    13
100
AcDbLine
 10
-35.00252180905687
 20
224.5177935384806
 30
0.0
 11
-32.00252180905688
 21
224.5177935384806
 31
0.0
  0
LINE
  5
10DD4
330
1F
100
AcDbEntity
  8
10000_FRONT
  6
Continuous
 62
     7
370
    13
100
AcDbLine
 10
-32.00252180905688
 20
227.5177935384807
 30
0.0
 11
-35.00252180905687
 21
227.5177935384807
 31
0.0
  0
LINE
  5
10DD5
330
1F
100
AcDbEntity
  8
10000_FRONT
  6
Continuous
 62
     7
370
    13
100
AcDbLine
 10
-35.00252180905687
 20
212.5177935384806
 30
0.0
 11
-35.00252180905687
 21
209.5177935384807
 31
0.0
  0
LINE
  5
10DD6
330
1F
100
AcDbEntity
  8
10000_FRONT
  6
Continuous
 62
     7
370
    13
100
AcDbLine
 10
-35.00252180905687
 20
209.5177935384807
 30
0.0
 11
-32.00252180905688
 21
209.5177935384807
 31
0.0
  0
LINE
  5
10DD7
330
1F
100
AcDbEntity
  8
10000_FRONT
  6
Continuous
 62
     7
370
    13
100
AcDbLine
 10
-32.00252180905688
 20
212.5177935384806
 30
0.0
 11
-35.00252180905687
 21
212.5177935384806
 31
0.0
  0
LINE
  5
10DD8
330
1F
100
AcDbEntity
  8
10000_FRONT
  6
Continuous
 62
     7
370
    13
100
AcDbLine
 10
-50.50252180905687
 20
209.5177935384807
 30
0.0
 11
-47.50252180905686
 21
209.5177935384807
 31
0.0
  0
LINE
  5
10DD9
330
1F
100
AcDbEntity
  8
10000_FRONT
  6
Continuous
 62
     7
370
    13
100
AcDbLine
 10
-47.50252180905686
 20
209.5177935384807
 30
0.0
 11
-47.50252180905686
 21
212.5177935384806
 31
0.0
  0
LINE
  5
10DDA
330
1F
100
AcDbEntity
  8
10000_FRONT
  6
Continuous
 62
     7
370
    13
100
AcDbLine
 10
-47.50252180905686
 20
212.5177935384806
 30
0.0
 11
-50.50252180905687
 21
212.5177935384806
 31
0.0
  0
LINE
  5
10DDB
330
1F
100
AcDbEntity
  8
10000_FRONT
  6
Continuous
 62
     7
370
    13
100
AcDbLine
 10
-44.55252180905688
 20
222.5677935384806
 30
0.0
 11
-37.95252180905686
 21
222.5677935384806
 31
0.0
  0
LINE
  5
10DDC
330
1F
100
AcDbEntity
  8
10000_FRONT
  6
Continuous
 62
     7
370
    13
100
AcDbLine
 10
-31.1025218090569
 20
220.6749035384806
 30
0.0
 11
-31.1025218090569
 21
213.2947335384806
 31
0.0
  0
LINE
  5
10DDD
330
1F
100
AcDbEntity
  8
10000_FRONT
  6
Continuous
 62
     7
370
    13
100
AcDbLine
 10
-51.40252180905696
 20
213.2947335384806
 30
0.0
 11
-51.40252180905696
 21
220.6749035384806
 31
0.0
  0
LINE
  5
10DDE
330
1F
100
AcDbEntity
  8
10000_FRONT
 62
     7
370
    50
100
AcDbLine
 39
0.7
 10
-35.05252180905689
 20
246.8177935384807
 30
0.0
 11
-32.55252180905689
 21
246.8177935384807
 31
0.0
  0
LINE
  5
10DE0
330
1F
100
AcDbEntity
  8
10000_FRONT
 62
     7
370
    50
100
AcDbLine
 39
0.7
 10
-46.65252180905695
 20
246.8177935384807
 30
0.0
 11
-35.05362180905689
 21
246.8177935384807
 31
0.0
  0
LINE
  5
10DE1
330
1F
100
AcDbEntity
  8
10000_FRONT
 62
     7
370
    50
100
AcDbLine
 39
0.7
 10
-49.95252180905686
 20
246.8177935384807
 30
0.0
 11
-46.65252180905695
 21
246.8177935384807
 31
0.0
  0
LINE
  5
10DE2
330
1F
100
AcDbEntity
  8
10000_FRONT
 62
     7
370
    50
100
AcDbLine
 39
0.7
 10
-46.65252180905695
 20
162.2177935384805
 30
0.0
 11
-49.95252180905686
 21
162.2177935384805
 31
0.0
  0
LINE
  5
10DE3
330
1F
100
AcDbEntity
  8
10000_FRONT
 62
     7
370
    50
100
AcDbLine
 39
0.7
 10
-35.8525218090569
 20
162.2177935384805
 30
0.0
 11
-46.65252180905695
 21
162.2177935384805
 31
0.0
  0
LINE
  5
10DE4
330
1F
100
AcDbEntity
  8
10000_FRONT
 62
     7
370
    50
100
AcDbLine
 39
0.7
 10
-32.55252180905689
 20
162.2177935384805
 30
0.0
 11
-35.8525218090569
 21
162.2177935384805
 31
0.0
  0
LINE
  5
10DE5
330
1F
100
AcDbEntity
  8
10000_FRONT
  6
Continuous
 62
     7
370
    13
100
AcDbLine
 10
-35.05252180905689
 20
163.0177935384805
 30
0.0
 11
-35.05252180905689
 21
164.3177935384806
 31
0.0
  0
LINE
  5
10DE6
330
1F
100
AcDbEntity
  8
10000_FRONT
  6
Continuous
 62
     7
370
    13
100
AcDbLine
 10
-47.45252180905686
 20
163.0177935384805
 30
0.0
 11
-47.45252180905686
 21
164.3177935384806
 31
0.0
  0
LINE
  5
10DE7
330
1F
100
AcDbEntity
  8
10000_FRONT
  6
Continuous
 62
     7
370
    13
100
AcDbLine
 10
-35.05252180905689
 20
246.8177935384807
 30
0.0
 11
-35.05252180905689
 21
244.7177935384806
 31
0.0
  0
LINE
  5
10DE8
330
1F
100
AcDbEntity
  8
10000_FRONT
  6
Continuous
 62
     7
370
    13
100
AcDbLine
 10
-47.45252180905686
 20
246.0177935384806
 30
0.0
 11
-47.45252180905686
 21
244.7177935384806
 31
0.0
  0
LINE
  5
10DE9
330
1F
100
AcDbEntity
  8
10000_FRONT
  6
Continuous
 62
     7
370
    13
100
AcDbLine
 39
0.7
 10
-35.0535118090569
 20
164.3177935384806
 30
0.0
 11
-32.8525218090569
 21
164.3177935384806
 31
0.0
  0
LINE
  5
10DEA
330
1F
100
AcDbEntity
  8
10000_FRONT
 62
     7
370
    50
100
AcDbLine
 39
0.7
 10
-31.75252180905687
 20
163.0164635384806
 30
0.0
 11
-31.75252180905687
 21
163.1177935384806
 31
0.0
  0
LINE
  5
10DEB
330
1F
100
AcDbEntity
  8
10000_FRONT
  6
Continuous
 62
     7
370
    13
100
AcDbLine
 39
0.7
 10
-47.45153180905687
 20
164.3177935384806
 30
0.0
 11
-49.65252180905689
 21
164.3177935384806
 31
0.0
  0
LINE
  5
10DEC
330
1F
100
AcDbEntity
  8
10000_FRONT
 62
     7
370
    50
100
AcDbLine
 39
0.7
 10
-50.75252180905686
 20
163.0164635384806
 30
0.0
 11
-50.75252180905686
 21
163.1177935384806
 31
0.0
  0
LINE
  5
10DED
330
1F
100
AcDbEntity
  8
10000_FRONT
  6
Continuous
 62
     7
370
    13
100
AcDbLine
 39
0.7
 10
-35.0535118090569
 20
244.7177935384806
 30
0.0
 11
-32.8525218090569
 21
244.7177935384806
 31
0.0
  0
LINE
  5
10DEE
330
1F
100
AcDbEntity
  8
10000_FRONT
 62
     7
370
    50
100
AcDbLine
 39
0.7
 10
-31.75252180905687
 20
246.0191235384806
 30
0.0
 11
-31.75252180905687
 21
245.9177935384806
 31
0.0
  0
LINE
  5
10DEF
330
1F
100
AcDbEntity
  8
10000_FRONT
  6
Continuous
 62
     7
370
    13
100
AcDbLine
 39
0.7
 10
-47.45153180905687
 20
244.7177935384806
 30
0.0
 11
-49.65252180905689
 21
244.7177935384806
 31
0.0
  0
LINE
  5
10DF0
330
1F
100
AcDbEntity
  8
10000_FRONT
 62
     7
370
    50
100
AcDbLine
 39
0.7
 10
-50.75252180905686
 20
246.0191235384806
 30
0.0
 11
-50.75252180905686
 21
245.9177935384806
 31
0.0
  0
LINE
  5
10DF1
330
1F
100
AcDbEntity
  8
10000_FRONT
 62
     7
370
    50
100
AcDbLine
 39
0.7
 10
-30.15252180905696
 20
243.9177935384806
 30
0.0
 11
-30.15252180905696
 21
165.1177935384806
 31
0.0
  0
LINE
  5
10DF2
330
1F
100
AcDbEntity
  8
10000_FRONT
 62
     7
370
    50
100
AcDbLine
 39
0.7
 10
-52.35252180905689
 20
165.1177935384806
 30
0.0
 11
-52.35252180905689
 21
243.9177935384806
 31
0.0
  0
LINE
  5
10DF3
330
1F
100
AcDbEntity
  8
10000_FRONT
  6
Continuous
 62
     7
370
    13
100
AcDbLine
 10
-41.25252180905686
 20
173.5177935384806
 30
0.0
 11
-41.25252180905686
 21
173.8179535384806
 31
0.0
  0
ARC
  5
10DF4
330
1F
100
AcDbEntity
  8
10000_FRONT
  6
Continuous
 62
     7
370
    13
100
AcDbCircle
 10
-41.25252180905686
 20
170.0177935384806
 30
0.0
 40
3.3775159
100
AcDbArc
 50
80.62813000000033
 51
99.37186999999966
  0
ARC
  5
10DF5
330
1F
100
AcDbEntity
  8
10000_FRONT
  6
Continuous
 62
     7
370
    13
100
AcDbCircle
 10
-41.25252180905686
 20
170.0177935384806
 30
0.0
 40
3.3775159
100
AcDbArc
 50
260.6281300000004
 51
279.3718699999997
  0
ARC
  5
10DF6
330
1F
100
AcDbEntity
  8
10000_FRONT
  6
Continuous
 62
     7
370
    13
100
AcDbCircle
 10
-41.25252180905686
 20
170.0177935384806
 30
0.0
 40
2.4351511
100
AcDbArc
 50
347.7905599999987
 51
12.20944000000136
  0
ARC
  5
10DF7
330
1F
100
AcDbEntity
  8
10000_FRONT
  6
Continuous
 62
     7
370
    13
100
AcDbCircle
 10
-41.25252180905686
 20
170.0177935384806
 30
0.0
 40
2.4351511
100
AcDbArc
 50
167.7905599999986
 51
192.2094400000013
  0
LINE
  5
10DF8
330
1F
100
AcDbEntity
  8
10000_FRONT
  6
Continuous
 62
     7
370
    13
100
AcDbLine
 10
-40.70252180905685
 20
166.7675135384806
 30
0.0
 11
-40.70252180905685
 21
166.6854035384806
 31
0.0
  0
LINE
  5
10DF9
330
1F
100
AcDbEntity
  8
10000_FRONT
  6
Continuous
 62
     7
370
    13
100
AcDbLine
 10
-40.70252180905685
 20
167.0710535384806
 30
0.0
 11
-40.70252180905685
 21
166.7675135384806
 31
0.0
  0
LINE
  5
10DFA
330
1F
100
AcDbEntity
  8
10000_FRONT
  6
Continuous
 62
     7
370
    13
100
AcDbLine
 10
-40.70252180905685
 20
168.9581535384806
 30
0.0
 11
-40.70252180905685
 21
167.0710535384806
 31
0.0
  0
LINE
  5
10DFB
330
1F
100
AcDbEntity
  8
10000_FRONT
  6
Continuous
 62
     7
370
    13
100
AcDbLine
 10
-40.70252180905685
 20
172.9645335384806
 30
0.0
 11
-40.70252180905685
 21
171.0774435384806
 31
0.0
  0
LINE
  5
10DFC
330
1F
100
AcDbEntity
  8
10000_FRONT
  6
Continuous
 62
     7
370
    13
100
AcDbLine
 10
-40.70252180905685
 20
173.2680735384806
 30
0.0
 11
-40.70252180905685
 21
172.9645335384806
 31
0.0
  0
LINE
  5
10DFD
330
1F
100
AcDbEntity
  8
10000_FRONT
  6
Continuous
 62
     7
370
    13
100
AcDbLine
 10
-40.70252180905685
 20
173.3501835384806
 30
0.0
 11
-40.70252180905685
 21
173.2680735384806
 31
0.0
  0
LINE
  5
10DFE
330
1F
100
AcDbEntity
  8
10000_FRONT
  6
Continuous
 62
     7
370
    13
100
AcDbLine
 10
-41.80252180905688
 20
167.0710535384806
 30
0.0
 11
-41.80252180905688
 21
168.9581535384806
 31
0.0
  0
LINE
  5
10DFF
330
1F
100
AcDbEntity
  8
10000_FRONT
  6
Continuous
 62
     7
370
    13
100
AcDbLine
 10
-41.80252180905688
 20
166.7675135384806
 30
0.0
 11
-41.80252180905688
 21
167.0710535384806
 31
0.0
  0
LINE
  5
10E00
330
1F
100
AcDbEntity
  8
10000_FRONT
  6
Continuous
 62
     7
370
    13
100
AcDbLine
 10
-41.80252180905688
 20
166.6854035384806
 30
0.0
 11
-41.80252180905688
 21
166.7675135384806
 31
0.0
  0
LINE
  5
10E01
330
1F
100
AcDbEntity
  8
10000_FRONT
  6
Continuous
 62
     7
370
    13
100
AcDbLine
 10
-41.80252180905688
 20
173.2680735384806
 30
0.0
 11
-41.80252180905688
 21
173.3501835384806
 31
0.0
  0
LINE
  5
10E02
330
1F
100
AcDbEntity
  8
10000_FRONT
  6
Continuous
 62
     7
370
    13
100
AcDbLine
 10
-41.80252180905688
 20
172.9645335384806
 30
0.0
 11
-41.80252180905688
 21
173.2680735384806
 31
0.0
  0
LINE
  5
10E03
330
1F
100
AcDbEntity
  8
10000_FRONT
  6
Continuous
 62
     7
370
    13
100
AcDbLine
 10
-41.80252180905688
 20
171.0774435384806
 30
0.0
 11
-41.80252180905688
 21
172.9645335384806
 31
0.0
  0
LINE
  5
10E04
330
1F
100
AcDbEntity
  8
10000_FRONT
  6
Continuous
 62
     7
370
    13
100
AcDbLine
 10
-38.87245180905689
 20
169.5027935384805
 30
0.0
 11
-40.09560180905686
 21
169.5027935384805
 31
0.0
  0
LINE
  5
10E05
330
1F
100
AcDbEntity
  8
10000_FRONT
  6
Continuous
 62
     7
370
    13
100
AcDbLine
 10
-42.40944180905683
 20
169.5027935384805
 30
0.0
 11
-43.63259180905686
 21
169.5027935384805
 31
0.0
  0
LINE
  5
10E06
330
1F
100
AcDbEntity
  8
10000_FRONT
  6
Continuous
 62
     7
370
    13
100
AcDbLine
 10
-40.09560180905686
 20
170.5327935384806
 30
0.0
 11
-38.87245180905689
 21
170.5327935384806
 31
0.0
  0
LINE
  5
10E07
330
1F
100
AcDbEntity
  8
10000_FRONT
  6
Continuous
 62
     7
370
    13
100
AcDbLine
 10
-43.63259180905686
 20
170.5327935384806
 30
0.0
 11
-42.40944180905683
 21
170.5327935384806
 31
0.0
  0
LINE
  5
10E08
330
1F
100
AcDbEntity
  8
10000_FRONT
 62
     7
370
    50
100
AcDbLine
 39
0.7
 10
-32.8525218090569
 20
164.3177935384806
 30
0.0
 11
-30.95252180905686
 21
164.3177935384806
 31
0.0
  0
LINE
  5
10E09
330
1F
100
AcDbEntity
  8
10000_FRONT
 62
     7
370
    50
100
AcDbLine
 39
0.7
 10
-49.65252180905689
 20
164.3177935384806
 30
0.0
 11
-51.55252180905688
 21
164.3177935384806
 31
0.0
  0
LINE
  5
10E0A
330
1F
100
AcDbEntity
  8
10000_FRONT
 62
     7
370
    50
100
AcDbLine
 39
0.7
 10
-49.65252180905689
 20
244.7177935384806
 30
0.0
 11
-51.55252180905688
 21
244.7177935384806
 31
0.0
  0
LINE
  5
10E0B
330
1F
100
AcDbEntity
  8
10000_FRONT
 62
     7
370
    50
100
AcDbLine
 39
0.7
 10
-32.8525218090569
 20
244.7177935384806
 30
0.0
 11
-30.95252180905686
 21
244.7177935384806
 31
0.0
  0
ENDSEC
  0
SECTION
  2
OBJECTS
  0
DICTIONARY
  5
C
330
0
100
AcDbDictionary
281
     1
  3
ACAD_COLOR
350
6B
  3
ACAD_GROUP
350
D
  3
ACAD_LAYOUT
350
1A
  3
ACAD_MATERIAL
350
6A
  3
ACAD_MLINESTYLE
350
17
  3
ACAD_PLOTSETTINGS
350
19
  3
ACAD_PLOTSTYLENAME
350
E
  3
ACDBHEADERROUNDTRIPXREC
350
11164
  3
AcDbVariableDictionary
350
5E
  3
DWGPROPS
350
11163
  0
DICTIONARY
  5
6B
102
{ACAD_REACTORS
330
C
102
}
330
C
100
AcDbDictionary
281
     1
  0
DICTIONARY
  5
D
102
{ACAD_REACTORS
330
C
102
}
330
C
100
AcDbDictionary
281
     1
  0
DICTIONARY
  5
1A
102
{ACAD_REACTORS
330
C
102
}
330
C
100
AcDbDictionary
281
     1
  3
Layout1
350
51
  3
Layout2
350
56
  3
Model
350
22
  0
DICTIONARY
  5
6A
102
{ACAD_REACTORS
330
C
102
}
330
C
100
AcDbDictionary
281
     1
  0
DICTIONARY
  5
17
102
{ACAD_REACTORS
330
C
102
}
330
C
100
AcDbDictionary
281
     1
  3
Standard
350
18
  0
DICTIONARY
  5
19
102
{ACAD_REACTORS
330
C
102
}
330
C
100
AcDbDictionary
281
     1
  0
ACDBDICTIONARYWDFLT
  5
E
102
{ACAD_REACTORS
330
C
102
}
330
C
100
AcDbDictionary
281
     1
  3
Normal
350
F
100
AcDbDictionaryWithDefault
340
F
  0
DICTIONARY
  5
11164
102
{ACAD_REACTORS
330
C
102
}
330
C
100
AcDbDictionary
281
     1
  3
COLORDICT
350
11166
  3
MATERIALDICT
350
11165
  0
DICTIONARY
  5
5E
102
{ACAD_REACTORS
330
C
102
}
330
C
100
AcDbDictionary
281
     1
  3
DIMASSOC
350
5F
  3
HIDETEXT
350
63
  3
PROJECTNAME
350
876
  0
XRECORD
  5
11163
102
{ACAD_REACTORS
330
C
102
}
330
C
100
AcDbXrecord
280
     1
  1
DWGPROPS COOKIE
  2

  3

  4

  6

  7

  8

  9

300
=
301
=
302
=
303
=
304
=
305
=
306
=
307
=
308
=
309
=
 40
0.6105633333333334
 41
2453200.47923772
 42
2453424.449972373
  1

 90
        0
  0
LAYOUT
  5
51
102
{ACAD_XDICTIONARY
360
11169
102
}
102
{ACAD_REACTORS
330
1A
102
}
330
1A
100
AcDbPlotSettings
  1

  2
None
  4

  6

 40
0.0
 41
0.0
 42
0.0
 43
0.0
 44
0.0
 45
0.0
 46
0.0
 47
0.0
 48
0.0
 49
0.0
140
0.0
141
0.0
142
1.0
143
1.0
 70
   688
 72
     0
 73
     0
 74
     5
  7

 75
    16
147
1.0
148
0.0
149
0.0
100
AcDbLayout
  1
Layout1
 70
     1
 71
     1
 10
0.0
 20
0.0
 11
12.0
 21
9.0
 12
0.0
 22
0.0
 32
0.0
 14
0.0
 24
0.0
 34
0.0
 15
0.0
 25
0.0
 35
0.0
146
0.0
 13
0.0
 23
0.0
 33
0.0
 16
1.0
 26
0.0
 36
0.0
 17
0.0
 27
1.0
 37
0.0
 76
     0
330
50
  0
LAYOUT
  5
56
102
{ACAD_XDICTIONARY
360
1116B
102
}
102
{ACAD_REACTORS
330
1A
102
}
330
1A
100
AcDbPlotSettings
  1

  2
None
  4

  6

 40
0.0
 41
0.0
 42
0.0
 43
0.0
 44
0.0
 45
0.0
 46
0.0
 47
0.0
 48
0.0
 49
0.0
140
0.0
141
0.0
142
1.0
143
1.0
 70
   688
 72
     0
 73
     0
 74
     5
  7

 75
    16
147
1.0
148
0.0
149
0.0
100
AcDbLayout
  1
Layout2
 70
     1
 71
     2
 10
0.0
 20
0.0
 11
12.0
 21
9.0
 12
0.0
 22
0.0
 32
0.0
 14
0.0
 24
0.0
 34
0.0
 15
0.0
 25
0.0
 35
0.0
146
0.0
 13
0.0
 23
0.0
 33
0.0
 16
1.0
 26
0.0
 36
0.0
 17
0.0
 27
1.0
 37
0.0
 76
     0
330
55
  0
LAYOUT
  5
22
102
{ACAD_XDICTIONARY
360
11167
102
}
102
{ACAD_REACTORS
330
1A
102
}
330
1A
100
AcDbPlotSettings
  1

  2
\\AMBW779A\A_P00873 (Canon iR2200-3300 PCL6)
  4
A3
  6

 40
4.815416812896728
 41
4.815412044525146
 42
4.815399169921875
 43
4.8154296875
 44
296.9259948730469
 45
419.9466552734373
 46
0.0
 47
0.0
 48
0.0
 49
0.0
140
0.0
141
0.0
142
1.0
143
1.0
 70
 11952
 72
     1
 73
     1
 74
     1
  7

 75
    16
147
1.0
148
147.789064737227
149
-50.20394972456142
100
AcDbLayout
  1
Model
 70
     1
 71
     0
 10
0.0
 20
0.0
 11
12.0
 21
9.0
 12
0.0
 22
0.0
 32
0.0
 14
0.0
 24
0.0
 34
0.0
 15
0.0
 25
0.0
 35
0.0
146
0.0
 13
0.0
 23
0.0
 33
0.0
 16
1.0
 26
0.0
 36
0.0
 17
0.0
 27
1.0
 37
0.0
 76
     0
330
1F
  0
MLINESTYLE
  5
18
102
{ACAD_REACTORS
330
17
102
}
330
17
100
AcDbMlineStyle
  2
STANDARD
 70
     0
  3

 62
   256
 51
90.0
 52
90.0
 71
     2
 49
0.5
 62
   256
  6
BYLAYER
 49
-0.5
 62
   256
  6
BYLAYER
  0
ACDBPLACEHOLDER
  5
F
102
{ACAD_REACTORS
330
E
102
}
330
E
  0
XRECORD
  5
11166
102
{ACAD_REACTORS
330
11164
102
}
330
11164
100
AcDbXrecord
280
     1
340
6B
  0
XRECORD
  5
11165
102
{ACAD_REACTORS
330
11164
102
}
330
11164
100
AcDbXrecord
280
     1
340
6A
  0
DICTIONARYVAR
  5
5F
102
{ACAD_REACTORS
330
5E
102
}
330
5E
100
DictionaryVariables
280
     0
  1
2
  0
DICTIONARYVAR
  5
63
102
{ACAD_REACTORS
330
5E
102
}
330
5E
100
DictionaryVariables
280
     0
  1
1
  0
DICTIONARYVAR
  5
876
102
{ACAD_REACTORS
330
5E
102
}
330
5E
100
DictionaryVariables
280
     0
  1

  0
DICTIONARY
  5
11169
330
51
100
AcDbDictionary
280
     1
281
     1
  3
ACAD_XREC_ROUNDTRIP
360
1116A
  0
DICTIONARY
  5
1116B
330
56
100
AcDbDictionary
280
     1
281
     1
  3
ACAD_XREC_ROUNDTRIP
360
1116C
  0
DICTIONARY
  5
11167
330
22
100
AcDbDictionary
280
     1
281
     1
  3
ACAD_XREC_ROUNDTRIP
360
11168
  0
XRECORD
  5
1116A
102
{ACAD_REACTORS
330
11169
102
}
330
11169
100
AcDbXrecord
280
     1
102
SHADEPLOT
 70
     0
102
SHADEPLOTRESLEVEL
 70
     2
102
SHADEPLOTCUSTOMDPI
 70
   300
  0
XRECORD
  5
1116C
102
{ACAD_REACTORS
330
1116B
102
}
330
1116B
100
AcDbXrecord
280
     1
102
SHADEPLOT
 70
     0
102
SHADEPLOTRESLEVEL
 70
     2
102
SHADEPLOTCUSTOMDPI
 70
   300
  0
XRECORD
  5
11168
102
{ACAD_REACTORS
330
11167
102
}
330
11167
100
AcDbXrecord
280
     1
102
SHADEPLOT
 70
     0
102
SHADEPLOTRESLEVEL
 70
     2
102
SHADEPLOTCUSTOMDPI
 70
   300
  0
ENDSEC
  0
EOF
