  0
SECTION
  2
HEADER
  9
$ACADVER
  1
AC1015
  9
$ACADMAINTVER
 70
    20
  9
$DWGCODEPAGE
  3
ANSI_1252
  9
$INSBASE
 10
0.0
 20
0.0
 30
0.0
  9
$EXTMIN
 10
-78.32535682506284
 20
94.83825061875041
 30
-0.2501125268973299
  9
$EXTMAX
 10
191.7168335290928
 20
294.8907534599897
 30
1.000068674388083
  9
$LIMMIN
 10
0.0
 20
0.0
  9
$LIMMAX
 10
420.0
 20
297.0
  9
$ORTHOMODE
 70
     0
  9
$REGENMODE
 70
     1
  9
$FILLMODE
 70
     1
  9
$QTEXTMODE
 70
     0
  9
$MIRRTEXT
 70
     0
  9
$LTSCALE
 40
1.0
  9
$ATTMODE
 70
     1
  9
$TEXTSIZE
 40
2.5
  9
$TRACEWID
 40
1.0
  9
$TEXTSTYLE
  7
Standard
  9
$CLAYER
  8
0
  9
$CELTYPE
  6
ByLayer
  9
$CECOLOR
 62
   256
  9
$CELTSCALE
 40
1.0
  9
$DISPSILH
 70
     0
  9
$DIMSCALE
 40
1.0
  9
$DIMASZ
 40
2.5
  9
$DIMEXO
 40
0.625
  9
$DIMDLI
 40
3.75
  9
$DIMRND
 40
0.0
  9
$DIMDLE
 40
0.0
  9
$DIMEXE
 40
1.25
  9
$DIMTP
 40
0.0
  9
$DIMTM
 40
0.0
  9
$DIMTXT
 40
2.5
  9
$DIMCEN
 40
2.5
  9
$DIMTSZ
 40
0.0
  9
$DIMTOL
 70
     0
  9
$DIMLIM
 70
     0
  9
$DIMTIH
 70
     0
  9
$DIMTOH
 70
     0
  9
$DIMSE1
 70
     0
  9
$DIMSE2
 70
     0
  9
$DIMTAD
 70
     1
  9
$DIMZIN
 70
     8
  9
$DIMBLK
  1

  9
$DIMASO
 70
     1
  9
$DIMSHO
 70
     1
  9
$DIMPOST
  1

  9
$DIMAPOST
  1

  9
$DIMALT
 70
     0
  9
$DIMALTD
 70
     3
  9
$DIMALTF
 40
0.03937007874016
  9
$DIMLFAC
 40
1.0
  9
$DIMTOFL
 70
     1
  9
$DIMTVP
 40
0.0
  9
$DIMTIX
 70
     0
  9
$DIMSOXD
 70
     0
  9
$DIMSAH
 70
     0
  9
$DIMBLK1
  1

  9
$DIMBLK2
  1

  9
$DIMSTYLE
  2
ISO-25
  9
$DIMCLRD
 70
     0
  9
$DIMCLRE
 70
     0
  9
$DIMCLRT
 70
     0
  9
$DIMTFAC
 40
1.0
  9
$DIMGAP
 40
0.625
  9
$DIMJUST
 70
     0
  9
$DIMSD1
 70
     0
  9
$DIMSD2
 70
     0
  9
$DIMTOLJ
 70
     0
  9
$DIMTZIN
 70
     8
  9
$DIMALTZ
 70
     0
  9
$DIMALTTZ
 70
     0
  9
$DIMUPT
 70
     0
  9
$DIMDEC
 70
     2
  9
$DIMTDEC
 70
     2
  9
$DIMALTU
 70
     2
  9
$DIMALTTD
 70
     3
  9
$DIMTXSTY
  7
Standard
  9
$DIMAUNIT
 70
     0
  9
$DIMADEC
 70
     0
  9
$DIMALTRND
 40
0.0
  9
$DIMAZIN
 70
     0
  9
$DIMDSEP
 70
    44
  9
$DIMATFIT
 70
     3
  9
$DIMFRAC
 70
     0
  9
$DIMLDRBLK
  1

  9
$DIMLUNIT
 70
     2
  9
$DIMLWD
 70
    -2
  9
$DIMLWE
 70
    -2
  9
$DIMTMOVE
 70
     0
  9
$LUNITS
 70
     2
  9
$LUPREC
 70
     4
  9
$SKETCHINC
 40
1.0
  9
$FILLETRAD
 40
10.0
  9
$AUNITS
 70
     0
  9
$AUPREC
 70
     0
  9
$MENU
  1
.
  9
$ELEVATION
 40
0.0
  9
$PELEVATION
 40
0.0
  9
$THICKNESS
 40
0.0
  9
$LIMCHECK
 70
     0
  9
$CHAMFERA
 40
10.0
  9
$CHAMFERB
 40
10.0
  9
$CHAMFERC
 40
20.0
  9
$CHAMFERD
 40
0.0
  9
$SKPOLY
 70
     0
  9
$TDCREATE
 40
2453200.479237720
  9
$TDUCREATE
 40
2453200.437571053
  9
$TDUPDATE
 40
2453427.361833322
  9
$TDUUPDATE
 40
2453427.320166655
  9
$TDINDWG
 40
1.3227578935
  9
$TDUSRTIMER
 40
1.3227513657
  9
$USRTIMER
 70
     1
  9
$ANGBASE
 50
0.0
  9
$ANGDIR
 70
     0
  9
$PDMODE
 70
     0
  9
$PDSIZE
 40
0.0
  9
$PLINEWID
 40
0.0
  9
$SPLFRAME
 70
     0
  9
$SPLINETYPE
 70
     6
  9
$SPLINESEGS
 70
     8
  9
$HANDSEED
  5
1B715
  9
$SURFTAB1
 70
     6
  9
$SURFTAB2
 70
     6
  9
$SURFTYPE
 70
     6
  9
$SURFU
 70
     6
  9
$SURFV
 70
     6
  9
$UCSBASE
  2

  9
$UCSNAME
  2

  9
$UCSORG
 10
0.0
 20
0.0
 30
0.0
  9
$UCSXDIR
 10
1.0
 20
0.0
 30
0.0
  9
$UCSYDIR
 10
0.0
 20
1.0
 30
0.0
  9
$UCSORTHOREF
  2

  9
$UCSORTHOVIEW
 70
     0
  9
$UCSORGTOP
 10
0.0
 20
0.0
 30
0.0
  9
$UCSORGBOTTOM
 10
0.0
 20
0.0
 30
0.0
  9
$UCSORGLEFT
 10
0.0
 20
0.0
 30
0.0
  9
$UCSORGRIGHT
 10
0.0
 20
0.0
 30
0.0
  9
$UCSORGFRONT
 10
0.0
 20
0.0
 30
0.0
  9
$UCSORGBACK
 10
0.0
 20
0.0
 30
0.0
  9
$PUCSBASE
  2

  9
$PUCSNAME
  2

  9
$PUCSORG
 10
0.0
 20
0.0
 30
0.0
  9
$PUCSXDIR
 10
1.0
 20
0.0
 30
0.0
  9
$PUCSYDIR
 10
0.0
 20
1.0
 30
0.0
  9
$PUCSORTHOREF
  2

  9
$PUCSORTHOVIEW
 70
     0
  9
$PUCSORGTOP
 10
0.0
 20
0.0
 30
0.0
  9
$PUCSORGBOTTOM
 10
0.0
 20
0.0
 30
0.0
  9
$PUCSORGLEFT
 10
0.0
 20
0.0
 30
0.0
  9
$PUCSORGRIGHT
 10
0.0
 20
0.0
 30
0.0
  9
$PUCSORGFRONT
 10
0.0
 20
0.0
 30
0.0
  9
$PUCSORGBACK
 10
0.0
 20
0.0
 30
0.0
  9
$USERI1
 70
     0
  9
$USERI2
 70
     0
  9
$USERI3
 70
     0
  9
$USERI4
 70
     0
  9
$USERI5
 70
     0
  9
$USERR1
 40
0.0
  9
$USERR2
 40
0.0
  9
$USERR3
 40
0.0
  9
$USERR4
 40
0.0
  9
$USERR5
 40
0.0
  9
$WORLDVIEW
 70
     1
  9
$SHADEDGE
 70
     3
  9
$SHADEDIF
 70
    70
  9
$TILEMODE
 70
     1
  9
$MAXACTVP
 70
    64
  9
$PINSBASE
 10
0.0
 20
0.0
 30
0.0
  9
$PLIMCHECK
 70
     0
  9
$PEXTMIN
 10
0.0
 20
0.0
 30
0.0
  9
$PEXTMAX
 10
0.0
 20
0.0
 30
0.0
  9
$PLIMMIN
 10
0.0
 20
0.0
  9
$PLIMMAX
 10
12.0
 20
9.0
  9
$UNITMODE
 70
     0
  9
$VISRETAIN
 70
     1
  9
$PLINEGEN
 70
     0
  9
$PSLTSCALE
 70
     1
  9
$TREEDEPTH
 70
  3020
  9
$CMLSTYLE
  2
Standard
  9
$CMLJUST
 70
     0
  9
$CMLSCALE
 40
20.0
  9
$PROXYGRAPHICS
 70
     1
  9
$MEASUREMENT
 70
     1
  9
$CELWEIGHT
370
    -1
  9
$ENDCAPS
280
     0
  9
$JOINSTYLE
280
     0
  9
$LWDISPLAY
290
     0
  9
$INSUNITS
 70
     4
  9
$HYPERLINKBASE
  1

  9
$STYLESHEET
  1

  9
$XEDIT
290
     1
  9
$CEPSNTYPE
380
     0
  9
$PSTYLEMODE
290
     1
  9
$FINGERPRINTGUID
  2
{FDEAD578-A652-11D2-9A35-0060089B3A3F}
  9
$VERSIONGUID
  2
{A5E88383-625B-4EBB-A3B3-BFADE29D4193}
  9
$EXTNAMES
290
     1
  9
$PSVPSCALE
 40
0.0
  9
$OLESTARTUP
290
     0
  0
ENDSEC
  0
SECTION
  2
CLASSES
  0
CLASS
  1
ACDBDICTIONARYWDFLT
  2
AcDbDictionaryWithDefault
  3
ObjectDBX Classes
 90
        0
280
     0
281
     0
  0
CLASS
  1
DICTIONARYVAR
  2
AcDbDictionaryVar
  3
ObjectDBX Classes
 90
        0
280
     0
281
     0
  0
CLASS
  1
DIMASSOC
  2
AcDbDimAssoc
  3
"AcDbDimAssoc|Product Desc:     AcDim ARX App For Dimension|Company:          Autodesk, Inc.|WEB Address:      www.autodesk.com"
 90
        0
280
     0
281
     0
  0
CLASS
  1
ACDBPLACEHOLDER
  2
AcDbPlaceHolder
  3
ObjectDBX Classes
 90
        0
280
     0
281
     0
  0
CLASS
  1
LAYOUT
  2
AcDbLayout
  3
ObjectDBX Classes
 90
        0
280
     0
281
     0
  0
ENDSEC
  0
SECTION
  2
TABLES
  0
TABLE
  2
VPORT
  5
8
330
0
100
AcDbSymbolTable
 70
     6
  0
VPORT
  5
1B70A
330
8
100
AcDbSymbolTableRecord
100
AcDbViewportTableRecord
  2
*Active
 70
     0
 10
0.0
 20
0.0
 11
1.0
 21
1.0
 12
56.695738352015
 22
194.86450203937
 13
0.0
 23
0.0
 14
10.0
 24
10.0
 15
10.0
 25
10.0
 16
0.0
 26
0.0
 36
1.0
 17
0.0
 27
0.0
 37
0.0
 40
201.595324199912
 41
1.571428571428571
 42
50.0
 43
0.0
 44
0.0
 50
0.0
 51
0.0
 71
     0
 72
  1000
 73
     1
 74
     3
 75
     0
 76
     0
 77
     0
 78
     0
281
     0
 65
     1
110
0.0
120
0.0
130
0.0
111
1.0
121
0.0
131
0.0
112
0.0
122
1.0
132
0.0
 79
     0
146
0.0
  0
ENDTAB
  0
TABLE
  2
LTYPE
  5
5
330
0
100
AcDbSymbolTable
 70
     4
  0
LTYPE
  5
14
330
5
100
AcDbSymbolTableRecord
100
AcDbLinetypeTableRecord
  2
ByBlock
 70
     0
  3

 72
    65
 73
     0
 40
0.0
  0
LTYPE
  5
15
330
5
100
AcDbSymbolTableRecord
100
AcDbLinetypeTableRecord
  2
ByLayer
 70
     0
  3

 72
    65
 73
     0
 40
0.0
  0
LTYPE
  5
16
330
5
100
AcDbSymbolTableRecord
100
AcDbLinetypeTableRecord
  2
Continuous
 70
     0
  3
Solid line
 72
    65
 73
     0
 40
0.0
  0
LTYPE
  5
118
330
5
100
AcDbSymbolTableRecord
100
AcDbLinetypeTableRecord
  2
CENTER
 70
     0
  3
____ _ ____ _ ____ _ ____ _ ____ _ ____ _ ____
 72
    65
 73
     4
 40
0.6
 49
0.375
 74
     0
 49
-0.075
 74
     0
 49
0.075
 74
     0
 49
-0.075
 74
     0
  0
LTYPE
  5
127A8
330
5
100
AcDbSymbolTableRecord
100
AcDbLinetypeTableRecord
  2
HIDDEN
 70
     0
  3
_ 
 72
    65
 73
     2
 40
4.5
 49
3.0
 74
     0
 49
-1.5
 74
     0
  0
LTYPE
  5
1B047
330
5
100
AcDbSymbolTableRecord
100
AcDbLinetypeTableRecord
  2
DASHED
 70
     0
  3
_ _ _ _ _ _ _ _ _ _ _ _ _ _ _ _ _ _ _ _ _ _ _ _
 72
    65
 73
     2
 40
0.375
 49
0.25
 74
     0
 49
-0.125
 74
     0
  0
ENDTAB
  0
TABLE
  2
LAYER
  5
2
330
0
100
AcDbSymbolTable
 70
     9
  0
LAYER
  5
10
330
2
100
AcDbSymbolTableRecord
100
AcDbLayerTableRecord
  2
0
 70
     0
 62
     7
  6
Continuous
370
    -3
390
F
  0
LAYER
  5
119
330
2
100
AcDbSymbolTableRecord
100
AcDbLayerTableRecord
  2
Defpoints
 70
     0
 62
     7
  6
Continuous
290
     0
370
    -3
390
F
  0
LAYER
  5
11A
330
2
100
AcDbSymbolTableRecord
100
AcDbLayerTableRecord
  2
91000_TIP
 70
     0
 62
     7
  6
Continuous
370
    -3
390
F
  0
LAYER
  5
11B
330
2
100
AcDbSymbolTableRecord
100
AcDbLayerTableRecord
  2
11000_Left
 70
     0
 62
     7
  6
Continuous
370
    -3
390
F
  0
LAYER
  5
11C
330
2
100
AcDbSymbolTableRecord
100
AcDbLayerTableRecord
  2
10000_FRONT
 70
     0
 62
     7
  6
Continuous
370
    -3
390
F
  0
LAYER
  5
11D
330
2
100
AcDbSymbolTableRecord
100
AcDbLayerTableRecord
  2
10100_FRONT_DIM
 70
     0
 62
     7
  6
Continuous
370
    -3
390
F
  0
LAYER
  5
11E
330
2
100
AcDbSymbolTableRecord
100
AcDbLayerTableRecord
  2
90000_FRAME
 70
     0
 62
     7
  6
Continuous
370
    -3
390
F
  0
LAYER
  5
11F
330
2
100
AcDbSymbolTableRecord
100
AcDbLayerTableRecord
  2
11100_LEFT_DIM
 70
     0
 62
     7
  6
Continuous
370
    -3
390
F
  0
ENDTAB
  0
TABLE
  2
STYLE
  5
3
330
0
100
AcDbSymbolTable
 70
     2
  0
STYLE
  5
11
330
3
100
AcDbSymbolTableRecord
100
AcDbTextStyleTableRecord
  2
Standard
 70
     0
 40
0.0
 41
1.0
 50
0.0
 71
     0
 42
2.5
  3
txt
  4

  0
ENDTAB
  0
TABLE
  2
VIEW
  5
6
330
0
100
AcDbSymbolTable
 70
     0
  0
ENDTAB
  0
TABLE
  2
UCS
  5
7
330
0
100
AcDbSymbolTable
 70
     0
  0
ENDTAB
  0
TABLE
  2
APPID
  5
9
330
0
100
AcDbSymbolTable
 70
     3
  0
APPID
  5
12
330
9
100
AcDbSymbolTableRecord
100
AcDbRegAppTableRecord
  2
ACAD
 70
     0
  0
APPID
  5
121
330
9
100
AcDbSymbolTableRecord
100
AcDbRegAppTableRecord
  2
AUSTER_ANSICHT
 70
     0
  0
APPID
  5
122
330
9
100
AcDbSymbolTableRecord
100
AcDbRegAppTableRecord
  2
AUSTER_FOLIE
 70
     0
  0
ENDTAB
  0
TABLE
  2
DIMSTYLE
  5
A
330
0
100
AcDbSymbolTable
 70
     4
100
AcDbDimStyleTable
 71
     2
340
147AC
340
27
  0
DIMSTYLE
105
27
330
A
100
AcDbSymbolTableRecord
100
AcDbDimStyleTableRecord
  2
ISO-25
 70
     0
 41
2.5
 42
0.625
 43
3.75
 44
1.25
 73
     0
 74
     0
 77
     1
 78
     8
140
2.5
141
2.5
143
0.03937007874016
147
0.625
171
     3
172
     1
271
     2
272
     2
274
     3
278
    44
283
     0
284
     8
340
11
  0
DIMSTYLE
105
11E6E
330
A
100
AcDbSymbolTableRecord
100
AcDbDimStyleTableRecord
  2
STANDARD
 70
     0
340
11
  0
DIMSTYLE
105
147AC
102
{ACAD_REACTORS
330
1B47C
330
1B47D
330
1B47E
330
1B4B3
330
1B4B4
330
1B4B5
330
1B4B6
330
1B674
102
}
330
A
100
AcDbSymbolTableRecord
100
AcDbDimStyleTableRecord
  2
H035
 70
     0
 40
0.0
 41
2.5
 42
2.0
 43
4.0
 44
1.0
 73
     0
 74
     0
 78
     8
140
3.5
141
2.5
143
0.0394
147
2.0
171
     4
172
     1
176
     7
177
     7
178
     7
271
     0
272
     0
273
     8
274
     4
277
     6
340
11
  0
DIMSTYLE
105
1B04A
102
{ACAD_REACTORS
330
1B2C4
330
1B2C5
102
}
330
A
100
AcDbSymbolTableRecord
100
AcDbDimStyleTableRecord
  2
DSTYLE2
 70
     0
 41
3.0
 42
1.0
 43
0.5
 44
1.0
 73
     0
 74
     0
 78
     3
140
4.0
143
0.039370079
147
1.0
271
     0
340
11
  0
ENDTAB
  0
TABLE
  2
BLOCK_RECORD
  5
1
330
0
100
AcDbSymbolTable
 70
    35
  0
BLOCK_RECORD
  5
1F
330
1
100
AcDbSymbolTableRecord
100
AcDbBlockTableRecord
  2
*Model_Space
340
22
  0
BLOCK_RECORD
  5
50
330
1
100
AcDbSymbolTableRecord
100
AcDbBlockTableRecord
  2
*Paper_Space
340
51
  0
BLOCK_RECORD
  5
55
330
1
100
AcDbSymbolTableRecord
100
AcDbBlockTableRecord
  2
*Paper_Space0
340
56
  0
BLOCK_RECORD
  5
86
330
1
100
AcDbSymbolTableRecord
100
AcDbBlockTableRecord
  2
SIEMENS_OUTLINE_BL0
340
0
102
{BLKREFS
331
1AF89
102
}
  0
BLOCK_RECORD
  5
1B500
330
1
100
AcDbSymbolTableRecord
100
AcDbBlockTableRecord
  2
*D23
340
0
  0
BLOCK_RECORD
  5
1B50D
330
1
100
AcDbSymbolTableRecord
100
AcDbBlockTableRecord
  2
*D24
340
0
  0
BLOCK_RECORD
  5
1B527
330
1
100
AcDbSymbolTableRecord
100
AcDbBlockTableRecord
  2
*D26
340
0
  0
BLOCK_RECORD
  5
1B534
330
1
100
AcDbSymbolTableRecord
100
AcDbBlockTableRecord
  2
*D27
340
0
  0
BLOCK_RECORD
  5
1B541
330
1
100
AcDbSymbolTableRecord
100
AcDbBlockTableRecord
  2
*D28
340
0
  0
BLOCK_RECORD
  5
1B55B
330
1
100
AcDbSymbolTableRecord
100
AcDbBlockTableRecord
  2
*D30
340
0
  0
BLOCK_RECORD
  5
1B568
330
1
100
AcDbSymbolTableRecord
100
AcDbBlockTableRecord
  2
*D31
340
0
  0
BLOCK_RECORD
  5
1B578
330
1
100
AcDbSymbolTableRecord
100
AcDbBlockTableRecord
  2
*D32
340
0
  0
BLOCK_RECORD
  5
1B585
330
1
100
AcDbSymbolTableRecord
100
AcDbBlockTableRecord
  2
*D33
340
0
  0
BLOCK_RECORD
  5
1B675
330
1
100
AcDbSymbolTableRecord
100
AcDbBlockTableRecord
  2
*D34
340
0
  0
ENDTAB
  0
ENDSEC
  0
SECTION
  2
BLOCKS
  0
BLOCK
  5
20
330
1F
100
AcDbEntity
  8
0
100
AcDbBlockBegin
  2
*Model_Space
 70
     0
 10
0.0
 20
0.0
 30
0.0
  3
*Model_Space
  1

  0
ENDBLK
  5
21
330
1F
100
AcDbEntity
  8
0
100
AcDbBlockEnd
  0
BLOCK
  5
52
330
50
100
AcDbEntity
 67
     1
  8
0
100
AcDbBlockBegin
  2
*Paper_Space
 70
     0
 10
0.0
 20
0.0
 30
0.0
  3
*Paper_Space
  1

  0
ENDBLK
  5
53
330
50
100
AcDbEntity
 67
     1
  8
0
100
AcDbBlockEnd
  0
BLOCK
  5
57
330
55
100
AcDbEntity
  8
0
100
AcDbBlockBegin
  2
*Paper_Space0
 70
     0
 10
0.0
 20
0.0
 30
0.0
  3
*Paper_Space0
  1

  0
ENDBLK
  5
58
330
55
100
AcDbEntity
  8
0
100
AcDbBlockEnd
  0
BLOCK
  5
87
330
86
100
AcDbEntity
  8
0
  6
Continuous
 62
     7
100
AcDbBlockBegin
  2
SIEMENS_OUTLINE_BL0
 70
     0
 10
0.0
 20
0.0
 30
0.0
  3
SIEMENS_OUTLINE_BL0
  1

  0
LINE
  5
88
330
86
100
AcDbEntity
  8
0
  6
Continuous
 62
     7
100
AcDbLine
 10
79.186200508
 20
21.4145478991
 30
0.0
 11
79.186200508
 21
16.6612788158
 31
0.0
  0
LINE
  5
89
330
86
100
AcDbEntity
  8
0
  6
Continuous
 62
     7
100
AcDbLine
 10
80.61218123299999
 20
21.4145478991
 30
0.0
 11
80.61218123299999
 21
16.6612788158
 31
0.0
  0
LINE
  5
8A
330
86
100
AcDbEntity
  8
0
  6
Continuous
 62
     7
100
AcDbLine
 10
79.186200508
 20
16.6612788158
 30
0.0
 11
80.61218123299999
 21
16.6612788158
 31
0.0
  0
LINE
  5
8B
330
86
100
AcDbEntity
  8
0
  6
Continuous
 62
     7
100
AcDbLine
 10
79.186200508
 20
21.4145478991
 30
0.0
 11
80.61218123299999
 21
21.4145478991
 31
0.0
  0
LINE
  5
8C
330
86
100
AcDbEntity
  8
0
  6
Continuous
 62
     7
100
AcDbLine
 10
81.7054331221
 20
21.4145478991
 30
0.0
 11
81.7054331221
 21
16.6612788158
 31
0.0
  0
LINE
  5
8D
330
86
100
AcDbEntity
  8
0
  6
Continuous
 62
     7
100
AcDbLine
 10
81.7054331221
 20
16.6612788158
 30
0.0
 11
85.2703849346
 21
16.6612788158
 31
0.0
  0
LINE
  5
8E
330
86
100
AcDbEntity
  8
0
  6
Continuous
 62
     7
100
AcDbLine
 10
85.2703849346
 20
17.56439994169999
 30
0.0
 11
83.0838811563
 21
17.56439994169999
 31
0.0
  0
LINE
  5
8F
330
86
100
AcDbEntity
  8
0
  6
Continuous
 62
     7
100
AcDbLine
 10
85.2703849346
 20
17.56439994169999
 30
0.0
 11
85.2703849346
 21
16.6612788158
 31
0.0
  0
LINE
  5
90
330
86
100
AcDbEntity
  8
0
  6
Continuous
 62
     7
100
AcDbLine
 10
85.2228522438
 20
21.4145478991
 30
0.0
 11
81.7054331221
 21
21.4145478991
 31
0.0
  0
LINE
  5
91
330
86
100
AcDbEntity
  8
0
  6
Continuous
 62
     7
100
AcDbLine
 10
85.2228522438
 20
20.5351931187
 30
0.0
 11
83.0838811563
 21
20.5351931187
 31
0.0
  0
LINE
  5
92
330
86
100
AcDbEntity
  8
0
  6
Continuous
 62
     7
100
AcDbLine
 10
85.2228522438
 20
21.4145478991
 30
0.0
 11
85.2228522438
 21
20.5351931187
 31
0.0
  0
LINE
  5
93
330
86
100
AcDbEntity
  8
0
  6
Continuous
 62
     7
100
AcDbLine
 10
84.9376560988
 20
18.68141817619999
 30
0.0
 11
83.0838811563
 21
18.68141817619999
 31
0.0
  0
LINE
  5
94
330
86
100
AcDbEntity
  8
0
  6
Continuous
 62
     7
100
AcDbLine
 10
84.9376560988
 20
19.46570757499999
 30
0.0
 11
84.9376560988
 21
18.68141817619999
 31
0.0
  0
LINE
  5
95
330
86
100
AcDbEntity
  8
0
  6
Continuous
 62
     7
100
AcDbLine
 10
84.9376560988
 20
19.46570757499999
 30
0.0
 11
83.0838811563
 21
19.46570757499999
 31
0.0
  0
LINE
  5
96
330
86
100
AcDbEntity
  8
0
  6
Continuous
 62
     7
100
AcDbLine
 10
83.0838811563
 20
20.5351931187
 30
0.0
 11
83.0838811563
 21
19.46570757499999
 31
0.0
  0
LINE
  5
97
330
86
100
AcDbEntity
  8
0
  6
Continuous
 62
     7
100
AcDbLine
 10
83.0838811563
 20
18.68141817619999
 30
0.0
 11
83.0838811563
 21
17.56439994169999
 31
0.0
  0
LINE
  5
98
330
86
100
AcDbEntity
  8
0
  6
Continuous
 62
     7
100
AcDbLine
 10
86.0784406788
 20
16.6612788158
 30
0.0
 11
86.0784406788
 21
21.4145478991
 31
0.0
  0
LINE
  5
99
330
86
100
AcDbEntity
  8
0
  6
Continuous
 62
     7
100
AcDbLine
 10
86.0784406788
 20
16.6612788158
 30
0.0
 11
87.02909449539999
 21
16.6612788158
 31
0.0
  0
LINE
  5
9A
330
86
100
AcDbEntity
  8
0
  6
Continuous
 62
     7
100
AcDbLine
 10
91.92496165120001
 20
21.4145478991
 30
0.0
 11
91.92496165120001
 21
16.6612788158
 31
0.0
  0
LINE
  5
9B
330
86
100
AcDbEntity
  8
0
  6
Continuous
 62
     7
100
AcDbLine
 10
91.92496165120001
 20
16.6612788158
 30
0.0
 11
90.54651361700001
 21
16.6612788158
 31
0.0
  0
LINE
  5
9C
330
86
100
AcDbEntity
  8
0
  6
Continuous
 62
     7
100
AcDbLine
 10
88.3600098387
 20
16.61374612499999
 30
0.0
 11
89.21559827370002
 21
16.61374612499999
 31
0.0
  0
LINE
  5
9D
330
86
100
AcDbEntity
  8
0
  6
Continuous
 62
     7
100
AcDbLine
 10
88.3600098387
 20
16.61374612499999
 30
0.0
 11
87.02909449539999
 21
19.7033710291
 31
0.0
  0
LINE
  5
9E
330
86
100
AcDbEntity
  8
0
  6
Continuous
 62
     7
100
AcDbLine
 10
87.02909449539999
 20
16.6612788158
 30
0.0
 11
87.02909449539999
 21
19.7033710291
 31
0.0
  0
LINE
  5
9F
330
86
100
AcDbEntity
  8
0
  6
Continuous
 62
     7
100
AcDbLine
 10
90.54651361700001
 20
19.75090372
 30
0.0
 11
89.21559827370002
 21
16.61374612499999
 31
0.0
  0
LINE
  5
A0
330
86
100
AcDbEntity
  8
0
  6
Continuous
 62
     7
100
AcDbLine
 10
87.78961754870001
 20
21.4145478991
 30
0.0
 11
86.0784406788
 21
21.4145478991
 31
0.0
  0
LINE
  5
A1
330
86
100
AcDbEntity
  8
0
  6
Continuous
 62
     7
100
AcDbLine
 10
91.92496165120001
 20
21.4145478991
 30
0.0
 11
90.2137847812
 21
21.4145478991
 31
0.0
  0
LINE
  5
A2
330
86
100
AcDbEntity
  8
0
  6
Continuous
 62
     7
100
AcDbLine
 10
87.78961754870001
 20
21.4145478991
 30
0.0
 11
89.0254675104
 21
18.51505375829999
 31
0.0
  0
LINE
  5
A3
330
86
100
AcDbEntity
  8
0
  6
Continuous
 62
     7
100
AcDbLine
 10
90.2137847812
 20
21.4145478991
 30
0.0
 11
89.0254675104
 21
18.51505375829999
 31
0.0
  0
LINE
  5
A4
330
86
100
AcDbEntity
  8
0
  6
Continuous
 62
     7
100
AcDbLine
 10
90.54651361700001
 20
19.75090372
 30
0.0
 11
90.54651361700001
 21
16.6612788158
 31
0.0
  0
LINE
  5
A5
330
86
100
AcDbEntity
  8
0
  6
Continuous
 62
     7
100
AcDbLine
 10
93.01821354030002
 20
21.4145478991
 30
0.0
 11
93.01821354030002
 21
16.6612788158
 31
0.0
  0
LINE
  5
A6
330
86
100
AcDbEntity
  8
0
  6
Continuous
 62
     7
100
AcDbLine
 10
93.01821354030002
 20
16.6612788158
 30
0.0
 11
96.5831653528
 21
16.6612788158
 31
0.0
  0
LINE
  5
A7
330
86
100
AcDbEntity
  8
0
  6
Continuous
 62
     7
100
AcDbLine
 10
96.5831653528
 20
17.56439994169999
 30
0.0
 11
94.3966615745
 21
17.56439994169999
 31
0.0
  0
LINE
  5
A8
330
86
100
AcDbEntity
  8
0
  6
Continuous
 62
     7
100
AcDbLine
 10
96.5831653528
 20
17.56439994169999
 30
0.0
 11
96.5831653528
 21
16.6612788158
 31
0.0
  0
LINE
  5
A9
330
86
100
AcDbEntity
  8
0
  6
Continuous
 62
     7
100
AcDbLine
 10
96.53563266200002
 20
21.4145478991
 30
0.0
 11
93.01821354030002
 21
21.4145478991
 31
0.0
  0
LINE
  5
AA
330
86
100
AcDbEntity
  8
0
  6
Continuous
 62
     7
100
AcDbLine
 10
96.53563266200002
 20
20.5351931187
 30
0.0
 11
94.3966615745
 21
20.5351931187
 31
0.0
  0
LINE
  5
AB
330
86
100
AcDbEntity
  8
0
  6
Continuous
 62
     7
100
AcDbLine
 10
96.53563266200002
 20
21.4145478991
 30
0.0
 11
96.53563266200002
 21
20.5351931187
 31
0.0
  0
LINE
  5
AC
330
86
100
AcDbEntity
  8
0
  6
Continuous
 62
     7
100
AcDbLine
 10
96.25043651700002
 20
18.68141817619999
 30
0.0
 11
94.3966615745
 21
18.68141817619999
 31
0.0
  0
LINE
  5
AD
330
86
100
AcDbEntity
  8
0
  6
Continuous
 62
     7
100
AcDbLine
 10
96.25043651700002
 20
19.46570757499999
 30
0.0
 11
96.25043651700002
 21
18.68141817619999
 31
0.0
  0
LINE
  5
AE
330
86
100
AcDbEntity
  8
0
  6
Continuous
 62
     7
100
AcDbLine
 10
96.25043651700002
 20
19.46570757499999
 30
0.0
 11
94.3966615745
 21
19.46570757499999
 31
0.0
  0
LINE
  5
AF
330
86
100
AcDbEntity
  8
0
  6
Continuous
 62
     7
100
AcDbLine
 10
94.3966615745
 20
20.5351931187
 30
0.0
 11
94.3966615745
 21
19.46570757499999
 31
0.0
  0
LINE
  5
B0
330
86
100
AcDbEntity
  8
0
  6
Continuous
 62
     7
100
AcDbLine
 10
94.3966615745
 20
18.68141817619999
 30
0.0
 11
94.3966615745
 21
17.56439994169999
 31
0.0
  0
LINE
  5
B1
330
86
100
AcDbEntity
  8
0
  6
Continuous
 62
     7
100
AcDbLine
 10
97.3674547515
 20
16.6612788158
 30
0.0
 11
97.3674547515
 21
21.4145478991
 31
0.0
  0
LINE
  5
B2
330
86
100
AcDbEntity
  8
0
  6
Continuous
 62
     7
100
AcDbLine
 10
101.5503315447999
 20
21.4145478991
 30
0.0
 11
101.5503315447999
 21
16.6612788158
 31
0.0
  0
LINE
  5
B3
330
86
100
AcDbEntity
  8
0
  6
Continuous
 62
     7
100
AcDbLine
 10
97.3674547515
 20
16.6612788158
 30
0.0
 11
98.3181085682
 21
16.6612788158
 31
0.0
  0
LINE
  5
B4
330
86
100
AcDbEntity
  8
0
  6
Continuous
 62
     7
100
AcDbLine
 10
101.5503315447999
 20
21.4145478991
 30
0.0
 11
100.5996777281999
 21
21.4145478991
 31
0.0
  0
LINE
  5
B5
330
86
100
AcDbEntity
  8
0
  6
Continuous
 62
     7
100
AcDbLine
 10
98.91226720360002
 20
21.4145478991
 30
0.0
 11
97.3674547515
 21
21.4145478991
 31
0.0
  0
LINE
  5
B6
330
86
100
AcDbEntity
  8
0
  6
Continuous
 62
     7
100
AcDbLine
 10
101.5503315447999
 20
16.6612788158
 30
0.0
 11
100.0292854381999
 21
16.6612788158
 31
0.0
  0
LINE
  5
B7
330
86
100
AcDbEntity
  8
0
  6
Continuous
 62
     7
100
AcDbLine
 10
100.0292854381999
 20
16.6612788158
 30
0.0
 11
98.3181085682
 21
19.7033710291
 31
0.0
  0
LINE
  5
B8
330
86
100
AcDbEntity
  8
0
  6
Continuous
 62
     7
100
AcDbLine
 10
98.91226720360002
 20
21.4145478991
 30
0.0
 11
100.5996777281999
 21
18.4675210675
 31
0.0
  0
LINE
  5
B9
330
86
100
AcDbEntity
  8
0
  6
Continuous
 62
     7
100
AcDbLine
 10
100.5996777281999
 20
21.4145478991
 30
0.0
 11
100.5996777281999
 21
18.4675210675
 31
0.0
  0
LINE
  5
BA
330
86
100
AcDbEntity
  8
0
  6
Continuous
 62
     7
100
AcDbLine
 10
98.3181085682
 20
16.6612788158
 30
0.0
 11
98.3181085682
 21
19.7033710291
 31
0.0
  0
LINE
  5
BB
330
86
100
AcDbEntity
  8
0
  6
Continuous
 62
     7
100
AcDbLine
 10
102.3583872889999
 20
16.75634419749999
 30
0.0
 11
102.3583872889999
 21
17.7069980142
 31
0.0
  0
LINE
  5
BC
330
86
100
AcDbEntity
  8
0
  6
Continuous
 62
     7
100
AcDbLine
 10
105.6856756473
 20
20.4163613916
 30
0.0
 11
105.6856756473
 21
21.36701520829999
 31
0.0
  0
ARC
  5
BD
330
86
100
AcDbEntity
  8
0
  6
Continuous
 62
     7
100
AcDbCircle
 10
104.063028414
 20
18.61843736089998
 30
0.0
 40
1.111619360599997
100
AcDbArc
 50
277.7099956934
 51
295.6884927745999
  0
ARC
  5
BE
330
86
100
AcDbEntity
  8
0
  6
Continuous
 62
     7
100
AcDbCircle
 10
104.3473383967
 20
17.8936115972
 30
0.0
 40
0.3401689265
100
AcDbArc
 50
305.503221255
 51
72.46528985229999
  0
ARC
  5
BF
330
86
100
AcDbEntity
  8
0
  6
Continuous
 62
     7
100
AcDbCircle
 10
103.7813445885999
 20
21.2953185068
 30
0.0
 40
4.756794641099999
100
AcDbArc
 50
252.5939200548001
 51
280.9816604255999
  0
ARC
  5
C0
330
86
100
AcDbEntity
  8
0
  6
Continuous
 62
     7
100
AcDbCircle
 10
104.2361799517
 20
18.6773047703
 30
0.0
 40
2.100726595299998
100
AcDbArc
 50
282.4058358519999
 51
311.8644433928
  0
ARC
  5
C1
330
86
100
AcDbEntity
  8
0
  6
Continuous
 62
     7
100
AcDbCircle
 10
103.9626156045999
 20
20.2856464918
 30
0.0
 40
0.3029626476
100
AcDbArc
 50
154.4400348282
 51
221.8201698800999
  0
ARC
  5
C2
330
86
100
AcDbEntity
  8
0
  6
Continuous
 62
     7
100
AcDbCircle
 10
104.0418367559
 20
20.2064253405
 30
0.0
 40
0.4103089737
100
AcDbArc
 50
102.8287828680999
 51
149.2259639003
  0
ARC
  5
C3
330
86
100
AcDbEntity
  8
0
  6
Continuous
 62
     7
100
AcDbCircle
 10
104.4588635915999
 20
18.46409001059999
 30
0.0
 40
2.201836557
100
AcDbArc
 50
84.0400061857
 51
103.3427657870999
  0
ARC
  5
C4
330
86
100
AcDbEntity
  8
0
  6
Continuous
 62
     7
100
AcDbCircle
 10
104.1178997669
 20
16.0467260867
 30
0.0
 40
4.642373736499997
100
AcDbArc
 50
70.2625858546
 51
82.95241863799999
  0
ARC
  5
C5
330
86
100
AcDbEntity
  8
0
  6
Continuous
 62
     7
100
AcDbCircle
 10
103.6038815646999
 20
20.7183489764
 30
0.0
 40
3.258755990899997
100
AcDbArc
 50
247.5300206145
 51
280.7579522143
  0
ARC
  5
C6
330
86
100
AcDbEntity
  8
0
  6
Continuous
 62
     7
100
AcDbCircle
 10
97.21891509270001
 20
2.4668290159
 30
0.0
 40
17.3316084133
100
AcDbArc
 50
65.34146746500001
 51
67.39977707359999
  0
ARC
  5
C7
330
86
100
AcDbEntity
  8
0
  6
Continuous
 62
     7
100
AcDbCircle
 10
108.0147774981
 20
28.259255379
 30
0.0
 40
10.6291642039
100
AcDbArc
 50
242.8620101252001
 51
247.1042029186
  0
ARC
  5
C8
330
86
100
AcDbEntity
  8
0
  6
Continuous
 62
     7
100
AcDbCircle
 10
104.1598762715
 20
20.725323882
 30
0.0
 40
2.166291629199998
100
AcDbArc
 50
227.3119280793999
 51
242.7040315235
  0
ARC
  5
C9
330
86
100
AcDbEntity
  8
0
  6
Continuous
 62
     7
100
AcDbCircle
 10
103.5558454618999
 20
20.0196462412
 30
0.0
 40
1.238521734
100
AcDbArc
 50
194.7952194236
 51
225.7176549047
  0
ARC
  5
CA
330
86
100
AcDbEntity
  8
0
  6
Continuous
 62
     7
100
AcDbCircle
 10
103.6180035961
 20
20.05986621039999
 30
0.0
 40
1.309092072899999
100
AcDbArc
 50
164.1974860461
 51
195.8025139539
  0
ARC
  5
CB
330
86
100
AcDbEntity
  8
0
  6
Continuous
 62
     7
100
AcDbCircle
 10
104.1750273167
 20
19.1715990505
 30
0.0
 40
2.366924815299999
100
AcDbArc
 50
86.22180229280001
 51
120.4272602309
  0
ARC
  5
CC
330
86
100
AcDbEntity
  8
0
  6
Continuous
 62
     7
100
AcDbCircle
 10
103.9061705341999
 20
12.4754312294
 30
0.0
 40
9.0679051661
100
AcDbArc
 50
78.68270492259998
 51
87.3147599624
  0
ARC
  5
CD
330
86
100
AcDbEntity
  8
0
  6
Continuous
 62
     7
100
AcDbCircle
 10
103.4501013557999
 20
20.1673739729
 30
0.0
 40
1.119747444
100
AcDbArc
 50
142.8139179029999
 51
167.1522951416999
  0
ARC
  5
CE
330
86
100
AcDbEntity
  8
0
  6
Continuous
 62
     7
100
AcDbCircle
 10
103.7954106973999
 20
19.86079227619999
 30
0.0
 40
1.580546684499998
100
AcDbArc
 50
121.2140948535
 51
141.5254768286
  0
ARC
  5
CF
330
86
100
AcDbEntity
  8
0
  6
Continuous
 62
     7
100
AcDbCircle
 10
104.372585063
 20
20.6718496049
 30
0.0
 40
0.8661276051999998
100
AcDbArc
 50
222.7760387596
 51
239.0362434679
  0
ARC
  5
D0
330
86
100
AcDbEntity
  8
0
  6
Continuous
 62
     7
100
AcDbCircle
 10
101.8658754847
 20
13.3415774063
 30
0.0
 40
6.858773576299999
100
AcDbArc
 50
59.90202725600001
 51
68.2036481279
  0
ARC
  5
D1
330
86
100
AcDbEntity
  8
0
  6
Continuous
 62
     7
100
AcDbCircle
 10
105.2743699785
 20
22.26746391349999
 30
0.0
 40
2.698741017099999
100
AcDbArc
 50
240.0481997804
 51
251.3779673736999
  0
ARC
  5
D2
330
86
100
AcDbEntity
  8
0
  6
Continuous
 62
     7
100
AcDbCircle
 10
104.6089128116999
 20
18.1105652982
 30
0.0
 40
1.4334474881
100
AcDbArc
 50
315.8904553224
 51
333.5229264372999
  0
ARC
  5
D3
330
86
100
AcDbEntity
  8
0
  6
Continuous
 62
     7
100
AcDbCircle
 10
104.6135510555
 20
18.057158148
 30
0.0
 40
1.406228711899998
100
AcDbArc
 50
335.3867972702
 51
24.39151194019999
  0
ARC
  5
D4
330
86
100
AcDbEntity
  8
0
  6
Continuous
 62
     7
100
AcDbCircle
 10
104.5413461519
 20
17.97930145619999
 30
0.0
 40
1.504702514799999
100
AcDbArc
 50
25.95629166050001
 51
59.4834829668
  0
LINE
  5
D5
330
86
100
AcDbEntity
  8
0
  6
Continuous
 62
     7
100
AcDbLine
 10
74.7656602606
 20
16.75634419749999
 30
0.0
 11
74.7656602606
 21
17.7069980142
 31
0.0
  0
LINE
  5
D6
330
86
100
AcDbEntity
  8
0
  6
Continuous
 62
     7
100
AcDbLine
 10
78.09294861879997
 20
20.4163613916
 30
0.0
 11
78.09294861879997
 21
21.36701520829999
 31
0.0
  0
ARC
  5
D7
330
86
100
AcDbEntity
  8
0
  6
Continuous
 62
     7
100
AcDbCircle
 10
76.4703013855
 20
18.61843736089998
 30
0.0
 40
1.111619360599997
100
AcDbArc
 50
277.7099956934
 51
295.6884927745999
  0
ARC
  5
D8
330
86
100
AcDbEntity
  8
0
  6
Continuous
 62
     7
100
AcDbCircle
 10
76.7546113683
 20
17.8936115972
 30
0.0
 40
0.3401689265
100
AcDbArc
 50
305.5032212556
 51
72.4652898515
  0
ARC
  5
D9
330
86
100
AcDbEntity
  8
0
  6
Continuous
 62
     7
100
AcDbCircle
 10
76.1886175602
 20
21.2953185068
 30
0.0
 40
4.756794641099999
100
AcDbArc
 50
252.5939200545
 51
280.9816604253
  0
ARC
  5
DA
330
86
100
AcDbEntity
  8
0
  6
Continuous
 62
     7
100
AcDbCircle
 10
76.64345292330001
 20
18.6773047703
 30
0.0
 40
2.100726595299998
100
AcDbArc
 50
282.4058358513
 51
311.8644433923
  0
ARC
  5
DB
330
86
100
AcDbEntity
  8
0
  6
Continuous
 62
     7
100
AcDbCircle
 10
76.3698885762
 20
20.2856464918
 30
0.0
 40
0.3029626476
100
AcDbArc
 50
154.4400348282
 51
221.8201698800999
  0
ARC
  5
DC
330
86
100
AcDbEntity
  8
0
  6
Continuous
 62
     7
100
AcDbCircle
 10
76.4491097276
 20
20.2064253405
 30
0.0
 40
0.4103089737
100
AcDbArc
 50
102.8287828727
 51
149.2259639027
  0
ARC
  5
DD
330
86
100
AcDbEntity
  8
0
  6
Continuous
 62
     7
100
AcDbCircle
 10
76.8661365632
 20
18.46409001059999
 30
0.0
 40
2.201836557
100
AcDbArc
 50
84.0400061859
 51
103.3427657871999
  0
ARC
  5
DE
330
86
100
AcDbEntity
  8
0
  6
Continuous
 62
     7
100
AcDbCircle
 10
76.5251727384
 20
16.0467260867
 30
0.0
 40
4.642373736499997
100
AcDbArc
 50
70.2625858546
 51
82.9524186379
  0
ARC
  5
DF
330
86
100
AcDbEntity
  8
0
  6
Continuous
 62
     7
100
AcDbCircle
 10
76.0111545363
 20
20.7183489764
 30
0.0
 40
3.258755990899997
100
AcDbArc
 50
247.5300206148
 51
280.7579522145
  0
ARC
  5
E0
330
86
100
AcDbEntity
  8
0
  6
Continuous
 62
     7
100
AcDbCircle
 10
69.6261880643
 20
2.4668290159
 30
0.0
 40
17.3316084133
100
AcDbArc
 50
65.34146746500001
 51
67.39977707359999
  0
ARC
  5
E1
330
86
100
AcDbEntity
  8
0
  6
Continuous
 62
     7
100
AcDbCircle
 10
80.4220504697
 20
28.259255379
 30
0.0
 40
10.6291642039
100
AcDbArc
 50
242.8620101252001
 51
247.1042029184999
  0
ARC
  5
E2
330
86
100
AcDbEntity
  8
0
  6
Continuous
 62
     7
100
AcDbCircle
 10
76.56714924310001
 20
20.725323882
 30
0.0
 40
2.166291629199998
100
AcDbArc
 50
227.3119280793999
 51
242.7040315235
  0
ARC
  5
E3
330
86
100
AcDbEntity
  8
0
  6
Continuous
 62
     7
100
AcDbCircle
 10
75.9631184335
 20
20.0196462412
 30
0.0
 40
1.238521734
100
AcDbArc
 50
194.7952194234
 51
225.7176549041999
  0
ARC
  5
E4
330
86
100
AcDbEntity
  8
0
  6
Continuous
 62
     7
100
AcDbCircle
 10
76.58230028830002
 20
19.1715990505
 30
0.0
 40
2.366924815299999
100
AcDbArc
 50
86.22180229280001
 51
120.4272602309
  0
ARC
  5
E5
330
86
100
AcDbEntity
  8
0
  6
Continuous
 62
     7
100
AcDbCircle
 10
76.3134435058
 20
12.4754312294
 30
0.0
 40
9.0679051661
100
AcDbArc
 50
78.68270492259998
 51
87.3147599624
  0
ARC
  5
E6
330
86
100
AcDbEntity
  8
0
  6
Continuous
 62
     7
100
AcDbCircle
 10
76.20268366899998
 20
19.86079227619999
 30
0.0
 40
1.580546684599998
100
AcDbArc
 50
121.2140948540999
 51
141.5254768289999
  0
ARC
  5
E7
330
86
100
AcDbEntity
  8
0
  6
Continuous
 62
     7
100
AcDbCircle
 10
76.7798580346
 20
20.6718496049
 30
0.0
 40
0.8661276051999998
100
AcDbArc
 50
222.7760387596
 51
239.0362434679
  0
ARC
  5
E8
330
86
100
AcDbEntity
  8
0
  6
Continuous
 62
     7
100
AcDbCircle
 10
74.2731484563
 20
13.3415774063
 30
0.0
 40
6.858773576299999
100
AcDbArc
 50
59.90202725620001
 51
68.20364812820002
  0
ARC
  5
E9
330
86
100
AcDbEntity
  8
0
  6
Continuous
 62
     7
100
AcDbCircle
 10
77.6816429501
 20
22.26746391349999
 30
0.0
 40
2.698741017099999
100
AcDbArc
 50
240.0481997804
 51
251.3779673734
  0
ARC
  5
EA
330
86
100
AcDbEntity
  8
0
  6
Continuous
 62
     7
100
AcDbCircle
 10
77.0161857833
 20
18.1105652982
 30
0.0
 40
1.4334474881
100
AcDbArc
 50
315.8904553225998
 51
333.5229264375
  0
ARC
  5
EB
330
86
100
AcDbEntity
  8
0
  6
Continuous
 62
     7
100
AcDbCircle
 10
77.020824027
 20
18.057158148
 30
0.0
 40
1.406228711899998
100
AcDbArc
 50
335.3867972703
 51
24.3915119403
  0
ARC
  5
EC
330
86
100
AcDbEntity
  8
0
  6
Continuous
 62
     7
100
AcDbCircle
 10
76.94861912350001
 20
17.97930145619999
 30
0.0
 40
1.504702514699999
100
AcDbArc
 50
25.9562916611
 51
59.4834829676
  0
LINE
  5
ED
330
86
100
AcDbEntity
  8
0
  6
Continuous
 62
     7
100
AcDbLine
 10
74.9574888499
 20
20.8337423583
 30
0.0
 11
75.2315546745
 21
21.10781543579999
 31
0.0
  0
ARC
  5
EE
330
86
100
AcDbEntity
  8
0
  6
Continuous
 62
     7
100
AcDbCircle
 10
76.0252765676
 20
20.05986621039999
 30
0.0
 40
1.309092072899999
100
AcDbArc
 50
164.1974860461
 51
195.8025139539
  0
ARC
  5
EF
330
86
100
AcDbEntity
  8
0
  6
Continuous
 62
     7
100
AcDbCircle
 10
75.8573743274
 20
20.1673739729
 30
0.0
 40
1.119747444
100
AcDbArc
 50
142.8139179029999
 51
167.1522951416999
  0
ENDBLK
  5
F0
330
86
100
AcDbEntity
  8
0
100
AcDbBlockEnd
  0
BLOCK
  5
1B50B
330
1B500
100
AcDbEntity
  8
0
100
AcDbBlockBegin
  2
*D23
 70
     1
 10
0.0
 20
0.0
 30
0.0
  3
*D23
  1

  0
LINE
  5
1B66A
330
1B500
100
AcDbEntity
  8
10100_FRONT_DIM
  6
Continuous
 62
     0
370
    -2
100
AcDbLine
 10
9.280964015175813
 20
250.3088096943578
 30
0.0
 11
18.12388953421779
 21
250.3088096943578
 31
0.0
  0
LINE
  5
1B66B
330
1B500
100
AcDbEntity
  8
10100_FRONT_DIM
  6
Continuous
 62
     0
370
    -2
100
AcDbLine
 10
-5.677161635758356
 20
160.3088096943573
 30
0.0
 11
18.12388953421777
 21
160.3088096943573
 31
0.0
  0
LINE
  5
1B66C
330
1B500
100
AcDbEntity
  8
10100_FRONT_DIM
  6
Continuous
 62
     0
370
    -2
100
AcDbLine
 10
17.12388953421778
 20
247.3088096943578
 30
0.0
 11
17.12388953421777
 21
214.6421430276909
 31
0.0
  0
LINE
  5
1B66D
330
1B500
100
AcDbEntity
  8
10100_FRONT_DIM
  6
Continuous
 62
     0
370
    -2
100
AcDbLine
 10
17.12388953421777
 20
163.3088096943573
 30
0.0
 11
17.12388953421777
 21
195.9754763610242
 31
0.0
  0
SOLID
  5
1B66E
330
1B500
100
AcDbEntity
  8
10100_FRONT_DIM
  6
Continuous
 62
     0
100
AcDbTrace
 10
16.62388953421778
 20
247.3088096943578
 30
0.0
 11
17.62388953421778
 21
247.3088096943578
 31
0.0
 12
17.12388953421779
 22
250.3088096943578
 32
0.0
 13
17.12388953421779
 23
250.3088096943578
 33
0.0
  0
SOLID
  5
1B66F
330
1B500
100
AcDbEntity
  8
10100_FRONT_DIM
  6
Continuous
 62
     0
100
AcDbTrace
 10
16.62388953421777
 20
163.3088096943573
 30
0.0
 11
17.62388953421776
 21
163.3088096943573
 31
0.0
 12
17.12388953421777
 22
160.3088096943573
 32
0.0
 13
17.12388953421777
 23
160.3088096943573
 33
0.0
  0
MTEXT
  5
1B670
330
1B500
100
AcDbEntity
  8
10100_FRONT_DIM
  6
Continuous
 62
     0
370
    13
100
AcDbMText
 10
17.12388953421774
 20
205.3088096943575
 30
0.0
 40
4.0
 41
0.0
 71
     5
 72
     1
  1
\A1;15x90
 11
0.0000000000000001
 21
1.0
 31
0.0
 73
     1
 44
1.0
1001
ACAD
1000
MTEXTBEGIN
1070
    73
1070
     1
1070
    44
1040
1.0
1070
    74
1070
     0
1000
MTEXTEND
  0
POINT
  5
1B671
330
1B500
100
AcDbEntity
  8
Defpoints
  6
Continuous
 62
     0
100
AcDbPoint
 10
8.280964015175813
 20
250.3088096943578
 30
0.0
  0
POINT
  5
1B672
330
1B500
100
AcDbEntity
  8
Defpoints
  6
Continuous
 62
     0
100
AcDbPoint
 10
-6.677161635758356
 20
160.3088096943573
 30
0.0
  0
POINT
  5
1B673
330
1B500
100
AcDbEntity
  8
Defpoints
  6
Continuous
 62
     0
100
AcDbPoint
 10
17.12388953421777
 20
160.3088096943573
 30
0.0
  0
ENDBLK
  5
1B50C
330
1B500
100
AcDbEntity
  8
0
100
AcDbBlockEnd
  0
BLOCK
  5
1B518
330
1B50D
100
AcDbEntity
  8
0
100
AcDbBlockBegin
  2
*D24
 70
     1
 10
0.0
 20
0.0
 30
0.0
  3
*D24
  1

  0
LINE
  5
1B660
330
1B50D
100
AcDbEntity
  8
10100_FRONT_DIM
  6
Continuous
 62
     0
370
    -2
100
AcDbLine
 10
9.280964015175813
 20
260.3088096943576
 30
0.0
 11
24.87764787139005
 21
260.3088096943576
 31
0.0
  0
LINE
  5
1B661
330
1B50D
100
AcDbEntity
  8
10100_FRONT_DIM
  6
Continuous
 62
     0
370
    -2
100
AcDbLine
 10
-5.677161635758356
 20
150.3088096943573
 30
0.0
 11
24.87764787139003
 21
150.3088096943573
 31
0.0
  0
LINE
  5
1B662
330
1B50D
100
AcDbEntity
  8
10100_FRONT_DIM
  6
Continuous
 62
     0
370
    -2
100
AcDbLine
 10
23.87764787139005
 20
257.3088096943576
 30
0.0
 11
23.87764787139004
 21
215.3088096943574
 31
0.0
  0
LINE
  5
1B663
330
1B50D
100
AcDbEntity
  8
10100_FRONT_DIM
  6
Continuous
 62
     0
370
    -2
100
AcDbLine
 10
23.87764787139003
 20
153.3088096943573
 30
0.0
 11
23.87764787139003
 21
195.3088096943574
 31
0.0
  0
SOLID
  5
1B664
330
1B50D
100
AcDbEntity
  8
10100_FRONT_DIM
  6
Continuous
 62
     0
100
AcDbTrace
 10
23.37764787139005
 20
257.3088096943576
 30
0.0
 11
24.37764787139005
 21
257.3088096943576
 31
0.0
 12
23.87764787139005
 22
260.3088096943576
 32
0.0
 13
23.87764787139005
 23
260.3088096943576
 33
0.0
  0
SOLID
  5
1B665
330
1B50D
100
AcDbEntity
  8
10100_FRONT_DIM
  6
Continuous
 62
     0
100
AcDbTrace
 10
23.37764787139003
 20
153.3088096943573
 30
0.0
 11
24.37764787139003
 21
153.3088096943573
 31
0.0
 12
23.87764787139003
 22
150.3088096943573
 32
0.0
 13
23.87764787139003
 23
150.3088096943573
 33
0.0
  0
MTEXT
  5
1B666
330
1B50D
100
AcDbEntity
  8
10100_FRONT_DIM
  6
Continuous
 62
     0
370
    13
100
AcDbMText
 10
23.87764787139001
 20
205.3088096943575
 30
0.0
 40
4.0
 41
0.0
 71
     5
 72
     1
  1
\A1;15x110
 11
0.0000000000000001
 21
1.0
 31
0.0
 73
     1
 44
1.0
1001
ACAD
1000
MTEXTBEGIN
1070
    73
1070
     1
1070
    44
1040
1.0
1070
    74
1070
     0
1000
MTEXTEND
  0
POINT
  5
1B667
330
1B50D
100
AcDbEntity
  8
Defpoints
  6
Continuous
 62
     0
100
AcDbPoint
 10
8.280964015175813
 20
260.3088096943576
 30
0.0
  0
POINT
  5
1B668
330
1B50D
100
AcDbEntity
  8
Defpoints
  6
Continuous
 62
     0
100
AcDbPoint
 10
-6.677161635758356
 20
150.3088096943573
 30
0.0
  0
POINT
  5
1B669
330
1B50D
100
AcDbEntity
  8
Defpoints
  6
Continuous
 62
     0
100
AcDbPoint
 10
23.87764787139003
 20
150.3088096943573
 30
0.0
  0
ENDBLK
  5
1B519
330
1B50D
100
AcDbEntity
  8
0
100
AcDbBlockEnd
  0
BLOCK
  5
1B532
330
1B527
100
AcDbEntity
  8
0
100
AcDbBlockBegin
  2
*D26
 70
     1
 10
0.0
 20
0.0
 30
0.0
  3
*D26
  1

  0
LINE
  5
1B6EA
330
1B527
100
AcDbEntity
  8
11100_LEFT_DIM
  6
Continuous
 62
     7
370
    -2
100
AcDbLine
 10
145.4075472306795
 20
248.4088096943571
 30
0.0
 11
152.2823072306797
 21
248.4088096943571
 31
0.0
  0
LINE
  5
1B6EB
330
1B527
100
AcDbEntity
  8
11100_LEFT_DIM
  6
Continuous
 62
     7
370
    -2
100
AcDbLine
 10
145.4075472306795
 20
162.2088096943571
 30
0.0
 11
152.2823072306797
 21
162.2088096943571
 31
0.0
  0
LINE
  5
1B6EC
330
1B527
100
AcDbEntity
  8
11100_LEFT_DIM
  6
Continuous
 62
     7
370
    -2
100
AcDbLine
 10
151.2823072306798
 20
245.9088096943571
 30
0.0
 11
151.2823072306798
 21
209.7254763610239
 31
0.0
  0
LINE
  5
1B6ED
330
1B527
100
AcDbEntity
  8
11100_LEFT_DIM
  6
Continuous
 62
     7
370
    -2
100
AcDbLine
 10
151.2823072306797
 20
164.7088096943571
 30
0.0
 11
151.2823072306798
 21
200.8921430276906
 31
0.0
  0
MTEXT
  5
1B6EE
330
1B527
100
AcDbEntity
  8
11100_LEFT_DIM
  6
Continuous
 62
     7
370
    13
100
AcDbMText
 10
150.9513292096849
 20
205.3088096943572
 30
0.0
 40
3.5
 41
0.0
 71
     5
 72
     1
  1
\A1;86
 11
0.0000000000000001
 21
1.0
 31
0.0
 73
     1
 44
1.0
1001
ACAD
1000
MTEXTBEGIN
1070
    73
1070
     1
1070
    44
1040
1.0
1070
    74
1070
     0
1000
MTEXTEND
  0
SOLID
  5
1B6EF
330
1B527
100
AcDbEntity
  8
11100_LEFT_DIM
  6
Continuous
 62
     7
100
AcDbTrace
 10
150.8656405640131
 20
245.9088096943571
 30
0.0
 11
151.6989738973464
 21
245.9088096943571
 31
0.0
 12
151.2823072306798
 22
248.4088096943571
 32
0.0
 13
151.2823072306798
 23
248.4088096943571
 33
0.0
  0
SOLID
  5
1B6F0
330
1B527
100
AcDbEntity
  8
11100_LEFT_DIM
  6
Continuous
 62
     7
100
AcDbTrace
 10
150.8656405640131
 20
164.7088096943571
 30
0.0
 11
151.6989738973464
 21
164.7088096943571
 31
0.0
 12
151.2823072306797
 22
162.2088096943571
 32
0.0
 13
151.2823072306797
 23
162.2088096943571
 33
0.0
  0
POINT
  5
1B6F1
330
1B527
100
AcDbEntity
  8
Defpoints
  6
Continuous
 62
     0
100
AcDbPoint
 10
143.4075472306795
 20
248.4088096943571
 30
0.0
  0
POINT
  5
1B6F2
330
1B527
100
AcDbEntity
  8
Defpoints
  6
Continuous
 62
     0
100
AcDbPoint
 10
143.4075472306795
 20
162.2088096943571
 30
0.0
  0
POINT
  5
1B6F3
330
1B527
100
AcDbEntity
  8
Defpoints
  6
Continuous
 62
     0
100
AcDbPoint
 10
151.2823072306797
 20
162.2088096943571
 30
0.0
  0
ENDBLK
  5
1B533
330
1B527
100
AcDbEntity
  8
0
100
AcDbBlockEnd
  0
BLOCK
  5
1B53F
330
1B534
100
AcDbEntity
  8
0
100
AcDbBlockBegin
  2
*D27
 70
     1
 10
0.0
 20
0.0
 30
0.0
  3
*D27
  1

  0
LINE
  5
1B6E0
330
1B534
100
AcDbEntity
  8
11100_LEFT_DIM
  6
Continuous
 62
     7
370
    -2
100
AcDbLine
 10
57.40754723067954
 20
232.3792330672903
 30
0.0
 11
57.40754723067954
 21
272.7276377743907
 31
0.0
  0
LINE
  5
1B6E1
330
1B534
100
AcDbEntity
  8
11100_LEFT_DIM
  6
Continuous
 62
     7
370
    -2
100
AcDbLine
 10
143.4075472306795
 20
248.6088096943571
 30
0.0
 11
143.4075472306795
 21
272.7276377743907
 31
0.0
  0
LINE
  5
1B6E2
330
1B534
100
AcDbEntity
  8
11100_LEFT_DIM
  6
Continuous
 62
     7
370
    -2
100
AcDbLine
 10
59.90754723067954
 20
271.7276377743906
 30
0.0
 11
95.99088056401287
 21
271.7276377743906
 31
0.0
  0
LINE
  5
1B6E3
330
1B534
100
AcDbEntity
  8
11100_LEFT_DIM
  6
Continuous
 62
     7
370
    -2
100
AcDbLine
 10
140.9075472306795
 20
271.7276377743906
 30
0.0
 11
104.8242138973462
 21
271.7276377743906
 31
0.0
  0
MTEXT
  5
1B6E4
330
1B534
100
AcDbEntity
  8
11100_LEFT_DIM
  6
Continuous
 62
     7
370
    13
100
AcDbMText
 10
100.4075472306795
 20
271.7276377743906
 30
0.0
 40
3.5
 41
0.0
 71
     5
 72
     1
  1
\A1;86
 73
     1
 44
1.0
1001
ACAD
1000
MTEXTBEGIN
1070
    73
1070
     1
1070
    44
1040
1.0
1070
    74
1070
     0
1000
MTEXTEND
  0
SOLID
  5
1B6E5
330
1B534
100
AcDbEntity
  8
11100_LEFT_DIM
  6
Continuous
 62
     7
100
AcDbTrace
 10
59.90754723067954
 20
272.1443044410573
 30
0.0
 11
59.90754723067954
 21
271.3109711077239
 31
0.0
 12
57.40754723067954
 22
271.7276377743906
 32
0.0
 13
57.40754723067954
 23
271.7276377743906
 33
0.0
  0
SOLID
  5
1B6E6
330
1B534
100
AcDbEntity
  8
11100_LEFT_DIM
  6
Continuous
 62
     7
100
AcDbTrace
 10
140.9075472306795
 20
272.1443044410573
 30
0.0
 11
140.9075472306795
 21
271.3109711077239
 31
0.0
 12
143.4075472306795
 22
271.7276377743906
 32
0.0
 13
143.4075472306795
 23
271.7276377743906
 33
0.0
  0
POINT
  5
1B6E7
330
1B534
100
AcDbEntity
  8
Defpoints
  6
Continuous
 62
     0
100
AcDbPoint
 10
57.40754723067954
 20
230.3792330672903
 30
0.0
  0
POINT
  5
1B6E8
330
1B534
100
AcDbEntity
  8
Defpoints
  6
Continuous
 62
     0
100
AcDbPoint
 10
143.4075472306795
 20
246.6088096943571
 30
0.0
  0
POINT
  5
1B6E9
330
1B534
100
AcDbEntity
  8
Defpoints
  6
Continuous
 62
     0
100
AcDbPoint
 10
143.4075472306795
 20
271.7276377743906
 30
0.0
  0
ENDBLK
  5
1B540
330
1B534
100
AcDbEntity
  8
0
100
AcDbBlockEnd
  0
BLOCK
  5
1B54C
330
1B541
100
AcDbEntity
  8
0
100
AcDbBlockBegin
  2
*D28
 70
     1
 10
0.0
 20
0.0
 30
0.0
  3
*D28
  1

  0
LINE
  5
1B6D6
330
1B541
100
AcDbEntity
  8
11100_LEFT_DIM
  6
Continuous
 62
     7
370
    -2
100
AcDbLine
 10
50.30754723067957
 20
242.0588096943573
 30
0.0
 11
39.10809723067977
 21
242.0588096943573
 31
0.0
  0
LINE
  5
1B6D7
330
1B541
100
AcDbEntity
  8
11100_LEFT_DIM
  6
Continuous
 62
     7
370
    -2
100
AcDbLine
 10
50.30754723067957
 20
168.5588096943572
 30
0.0
 11
39.10809723067975
 21
168.5588096943572
 31
0.0
  0
LINE
  5
1B6D8
330
1B541
100
AcDbEntity
  8
11100_LEFT_DIM
  6
Continuous
 62
     7
370
    -2
100
AcDbLine
 10
40.10809723067976
 20
239.5588096943573
 30
0.0
 11
40.10809723067976
 21
209.7254763610239
 31
0.0
  0
LINE
  5
1B6D9
330
1B541
100
AcDbEntity
  8
11100_LEFT_DIM
  6
Continuous
 62
     7
370
    -2
100
AcDbLine
 10
40.10809723067974
 20
171.0588096943572
 30
0.0
 11
40.10809723067975
 21
200.8921430276906
 31
0.0
  0
MTEXT
  5
1B6DA
330
1B541
100
AcDbEntity
  8
11100_LEFT_DIM
  6
Continuous
 62
     7
370
    13
100
AcDbMText
 10
40.10809723067956
 20
205.3088096943572
 30
0.0
 40
3.5
 41
0.0
 71
     5
 72
     1
  1
\A1;74
 11
0.0000000000000001
 21
1.0
 31
0.0
 73
     1
 44
1.0
1001
ACAD
1000
MTEXTBEGIN
1070
    73
1070
     1
1070
    44
1040
1.0
1070
    74
1070
     0
1000
MTEXTEND
  0
SOLID
  5
1B6DB
330
1B541
100
AcDbEntity
  8
11100_LEFT_DIM
  6
Continuous
 62
     7
100
AcDbTrace
 10
39.6914305640131
 20
239.5588096943573
 30
0.0
 11
40.52476389734642
 21
239.5588096943573
 31
0.0
 12
40.10809723067977
 22
242.0588096943573
 32
0.0
 13
40.10809723067977
 23
242.0588096943573
 33
0.0
  0
SOLID
  5
1B6DC
330
1B541
100
AcDbEntity
  8
11100_LEFT_DIM
  6
Continuous
 62
     7
100
AcDbTrace
 10
39.69143056401308
 20
171.0588096943572
 30
0.0
 11
40.52476389734641
 21
171.0588096943572
 31
0.0
 12
40.10809723067974
 22
168.5588096943572
 32
0.0
 13
40.10809723067974
 23
168.5588096943572
 33
0.0
  0
POINT
  5
1B6DD
330
1B541
100
AcDbEntity
  8
Defpoints
  6
Continuous
 62
     0
100
AcDbPoint
 10
52.30754723067957
 20
242.0588096943573
 30
0.0
  0
POINT
  5
1B6DE
330
1B541
100
AcDbEntity
  8
Defpoints
  6
Continuous
 62
     0
100
AcDbPoint
 10
52.30754723067957
 20
168.5588096943572
 30
0.0
  0
POINT
  5
1B6DF
330
1B541
100
AcDbEntity
  8
Defpoints
  6
Continuous
 62
     0
100
AcDbPoint
 10
40.10809723067974
 20
168.5588096943572
 30
0.0
  0
ENDBLK
  5
1B54D
330
1B541
100
AcDbEntity
  8
0
100
AcDbBlockEnd
  0
BLOCK
  5
1B566
330
1B55B
100
AcDbEntity
  8
0
100
AcDbBlockBegin
  2
*D30
 70
     1
 10
0.0
 20
0.0
 30
0.0
  3
*D30
  1

  0
LINE
  5
1B638
330
1B55B
100
AcDbEntity
  8
10100_FRONT_DIM
  6
Continuous
 62
     7
370
    -2
100
AcDbLine
 10
-16.06877598482415
 20
242.8588096943573
 30
0.0
 11
-20.76866598482413
 21
242.8588096943573
 31
0.0
  0
LINE
  5
1B639
330
1B55B
100
AcDbEntity
  8
10100_FRONT_DIM
  6
Continuous
 62
     7
370
    -2
100
AcDbLine
 10
-16.06877598482415
 20
167.7588096943571
 30
0.0
 11
-20.76866598482415
 21
167.7588096943571
 31
0.0
  0
LINE
  5
1B63A
330
1B55B
100
AcDbEntity
  8
10100_FRONT_DIM
  6
Continuous
 62
     7
370
    -2
100
AcDbLine
 10
-19.76866598482413
 20
240.3588096943573
 30
0.0
 11
-19.76866598482413
 21
209.7254763610238
 31
0.0
  0
LINE
  5
1B63B
330
1B55B
100
AcDbEntity
  8
10100_FRONT_DIM
  6
Continuous
 62
     7
370
    -2
100
AcDbLine
 10
-19.76866598482414
 20
170.2588096943571
 30
0.0
 11
-19.76866598482413
 21
200.8921430276905
 31
0.0
  0
MTEXT
  5
1B63C
330
1B55B
100
AcDbEntity
  8
10100_FRONT_DIM
  6
Continuous
 62
     7
370
    13
100
AcDbMText
 10
-20.01966598482417
 20
205.3088096943571
 30
0.0
 40
3.5
 41
0.0
 71
     5
 72
     1
  1
\A1;75
 11
0.0000000000000001
 21
1.0
 31
0.0
 73
     1
 44
1.0
1001
ACAD
1000
MTEXTBEGIN
1070
    73
1070
     1
1070
    44
1040
1.0
1070
    74
1070
     0
1000
MTEXTEND
  0
SOLID
  5
1B63D
330
1B55B
100
AcDbEntity
  8
10100_FRONT_DIM
  6
Continuous
 62
     7
100
AcDbTrace
 10
-20.1853326514908
 20
240.3588096943573
 30
0.0
 11
-19.35199931815746
 21
240.3588096943573
 31
0.0
 12
-19.76866598482413
 22
242.8588096943573
 32
0.0
 13
-19.76866598482413
 23
242.8588096943573
 33
0.0
  0
SOLID
  5
1B63E
330
1B55B
100
AcDbEntity
  8
10100_FRONT_DIM
  6
Continuous
 62
     7
100
AcDbTrace
 10
-20.18533265149081
 20
170.2588096943571
 30
0.0
 11
-19.35199931815747
 21
170.2588096943571
 31
0.0
 12
-19.76866598482414
 22
167.7588096943571
 32
0.0
 13
-19.76866598482414
 23
167.7588096943571
 33
0.0
  0
POINT
  5
1B63F
330
1B55B
100
AcDbEntity
  8
Defpoints
  6
Continuous
 62
     0
100
AcDbPoint
 10
-14.06877598482416
 20
242.8588096943573
 30
0.0
  0
POINT
  5
1B640
330
1B55B
100
AcDbEntity
  8
Defpoints
  6
Continuous
 62
     0
100
AcDbPoint
 10
-14.06877598482416
 20
167.7588096943571
 30
0.0
  0
POINT
  5
1B641
330
1B55B
100
AcDbEntity
  8
Defpoints
  6
Continuous
 62
     0
100
AcDbPoint
 10
-19.76866598482414
 20
167.7588096943571
 30
0.0
  0
ENDBLK
  5
1B567
330
1B55B
100
AcDbEntity
  8
0
100
AcDbBlockEnd
  0
BLOCK
  5
1B576
330
1B568
100
AcDbEntity
  8
0
100
AcDbBlockBegin
  2
*D31
 70
     1
 10
0.0
 20
0.0
 30
0.0
  3
*D31
  1

  0
LINE
  5
1B62B
330
1B568
100
AcDbEntity
  8
10100_FRONT_DIM
  6
Continuous
 62
     7
370
    -2
100
AcDbLine
 10
-12.71903598482415
 20
257.0219441405591
 30
0.0
 11
-12.71903598482415
 21
261.9044041405591
 31
0.0
  0
LINE
  5
1B62C
330
1B568
100
AcDbEntity
  8
10100_FRONT_DIM
  6
Continuous
 62
     7
370
    -2
100
AcDbLine
 10
-10.21904598482416
 20
255.0219441405586
 30
0.0
 11
-10.21904598482416
 21
261.9044041405591
 31
0.0
  0
LINE
  5
1B62D
330
1B568
100
AcDbEntity
  8
10100_FRONT_DIM
  6
Continuous
 62
     7
370
    -2
100
AcDbLine
 10
-15.21903598482415
 20
260.9044041405591
 30
0.0
 11
-17.71903598482415
 21
260.9044041405591
 31
0.0
  0
LINE
  5
1B62E
330
1B568
100
AcDbEntity
  8
10100_FRONT_DIM
  6
Continuous
 62
     7
370
    -2
100
AcDbLine
 10
-7.719045984824166
 20
260.9044041405591
 30
0.0
 11
-5.219045984824166
 21
260.9044041405591
 31
0.0
  0
LINE
  5
1B62F
330
1B568
100
AcDbEntity
  8
10100_FRONT_DIM
  6
Continuous
 62
     7
370
    -2
100
AcDbLine
 10
-18.85366316291387
 20
260.9044041405591
 30
0.0
 11
-12.71903598482415
 21
260.9044041405591
 31
0.0
  0
MTEXT
  5
1B630
330
1B568
100
AcDbEntity
  8
10100_FRONT_DIM
  6
Continuous
 62
     7
370
    13
100
AcDbMText
 10
-24.14532982958053
 20
260.9044041405591
 30
0.0
 40
3.5
 41
0.0
 71
     5
 72
     1
  1
\A1;2,5
 73
     1
 44
1.0
1001
ACAD
1000
MTEXTBEGIN
1070
    73
1070
     1
1070
    44
1040
1.0
1070
    74
1070
     0
1000
MTEXTEND
  0
LINE
  5
1B631
330
1B568
100
AcDbEntity
  8
10100_FRONT_DIM
  6
Continuous
 62
     7
370
    -2
100
AcDbLine
 10
-12.71903598482415
 20
260.9044041405591
 30
0.0
 11
-10.21904598482416
 21
260.9044041405591
 31
0.0
  0
LINE
  5
1B632
330
1B568
100
AcDbEntity
  8
10100_FRONT_DIM
  6
Continuous
 62
     7
370
    -2
100
AcDbLine
 10
-12.71903598482415
 20
260.9044041405591
 30
0.0
 11
-10.21904598482416
 21
260.9044041405591
 31
0.0
  0
SOLID
  5
1B633
330
1B568
100
AcDbEntity
  8
10100_FRONT_DIM
  6
Continuous
 62
     7
100
AcDbTrace
 10
-15.21903598482415
 20
261.3210708072258
 30
0.0
 11
-15.21903598482415
 21
260.4877374738924
 31
0.0
 12
-12.71903598482415
 22
260.9044041405591
 32
0.0
 13
-12.71903598482415
 23
260.9044041405591
 33
0.0
  0
SOLID
  5
1B634
330
1B568
100
AcDbEntity
  8
10100_FRONT_DIM
  6
Continuous
 62
     7
100
AcDbTrace
 10
-7.719045984824166
 20
261.3210708072258
 30
0.0
 11
-7.719045984824166
 21
260.4877374738924
 31
0.0
 12
-10.21904598482416
 22
260.9044041405591
 32
0.0
 13
-10.21904598482416
 23
260.9044041405591
 33
0.0
  0
POINT
  5
1B635
330
1B568
100
AcDbEntity
  8
Defpoints
  6
Continuous
 62
     0
100
AcDbPoint
 10
-12.71903598482415
 20
255.0219441405591
 30
0.0
  0
POINT
  5
1B636
330
1B568
100
AcDbEntity
  8
Defpoints
  6
Continuous
 62
     0
100
AcDbPoint
 10
-10.21904598482416
 20
253.0219441405586
 30
0.0
  0
POINT
  5
1B637
330
1B568
100
AcDbEntity
  8
Defpoints
  6
Continuous
 62
     0
100
AcDbPoint
 10
-10.21904598482416
 20
260.9044041405591
 30
0.0
  0
ENDBLK
  5
1B577
330
1B568
100
AcDbEntity
  8
0
100
AcDbBlockEnd
  0
BLOCK
  5
1B583
330
1B578
100
AcDbEntity
  8
0
100
AcDbBlockBegin
  2
*D32
 70
     1
 10
0.0
 20
0.0
 30
0.0
  3
*D32
  1

  0
LINE
  5
1B621
330
1B578
100
AcDbEntity
  8
10100_FRONT_DIM
  6
Continuous
 62
     7
370
    -2
100
AcDbLine
 10
-10.21905602581165
 20
255.0219441405339
 30
0.0
 11
-10.21911564002721
 21
266.8961179929389
 31
0.0
  0
LINE
  5
1B622
330
1B578
100
AcDbEntity
  8
10100_FRONT_DIM
  6
Continuous
 62
     7
370
    -2
100
AcDbLine
 10
-3.019056025811671
 20
255.0219441405339
 30
0.0
 11
-3.019115640208704
 21
266.8961541404939
 31
0.0
  0
LINE
  5
1B623
330
1B578
100
AcDbEntity
  8
10100_FRONT_DIM
  6
Continuous
 62
     7
370
    -2
100
AcDbLine
 10
-12.71911061950196
 20
265.8961054417172
 30
0.0
 11
-15.21911061947045
 21
265.8960928904828
 31
0.0
  0
LINE
  5
1B624
330
1B578
100
AcDbEntity
  8
10100_FRONT_DIM
  6
Continuous
 62
     7
370
    -2
100
AcDbLine
 10
-0.5191106197464667
 20
265.8961666917408
 30
0.0
 11
1.980889380222026
 21
265.8961792429752
 31
0.0
  0
MTEXT
  5
1B625
330
1B578
100
AcDbEntity
  8
10100_FRONT_DIM
  6
Continuous
 62
     7
370
    13
100
AcDbMText
 10
-6.619100578636736
 20
265.7848367400133
 30
0.0
 40
3.5
 41
0.0
 71
     5
 72
     1
  1
\A1;7
 11
0.9999999999873972
 21
0.0000050204937452
 31
0.0
 73
     1
 44
1.0
1001
ACAD
1000
MTEXTBEGIN
1070
    73
1070
     1
1070
    44
1040
1.0
1070
    74
1070
     0
1000
MTEXTEND
  0
SOLID
  5
1B626
330
1B578
100
AcDbEntity
  8
10100_FRONT_DIM
  6
Continuous
 62
     7
100
AcDbTrace
 10
-12.71911271137435
 20
266.3127721083786
 30
0.0
 11
-12.71910852762956
 21
265.4794387750558
 31
0.0
 12
-10.21911061953346
 22
265.8961179929515
 32
0.0
 13
-10.21911061953346
 23
265.8961179929515
 33
0.0
  0
SOLID
  5
1B627
330
1B578
100
AcDbEntity
  8
10100_FRONT_DIM
  6
Continuous
 62
     7
100
AcDbTrace
 10
-0.5191127116188605
 20
266.3128333584023
 30
0.0
 11
-0.5191085278740728
 21
265.4795000250794
 31
0.0
 12
-3.019110619714959
 22
265.8961541405065
 32
0.0
 13
-3.019110619714959
 23
265.8961541405065
 33
0.0
  0
POINT
  5
1B628
330
1B578
100
AcDbEntity
  8
Defpoints
  6
Continuous
 62
     0
100
AcDbPoint
 10
-10.21904598482416
 20
253.0219441405591
 30
0.0
  0
POINT
  5
1B629
330
1B578
100
AcDbEntity
  8
Defpoints
  6
Continuous
 62
     0
100
AcDbPoint
 10
-3.019045984824181
 20
253.0219441405591
 30
0.0
  0
POINT
  5
1B62A
330
1B578
100
AcDbEntity
  8
Defpoints
  6
Continuous
 62
     0
100
AcDbPoint
 10
-3.019110619714959
 20
265.8961541405065
 30
0.0
  0
ENDBLK
  5
1B584
330
1B578
100
AcDbEntity
  8
0
100
AcDbBlockEnd
  0
BLOCK
  5
1B590
330
1B585
100
AcDbEntity
  8
0
100
AcDbBlockBegin
  2
*D33
 70
     1
 10
0.0
 20
0.0
 30
0.0
  3
*D33
  1

  0
LINE
  5
1B617
330
1B585
100
AcDbEntity
  8
10100_FRONT_DIM
  6
Continuous
 62
     7
370
    -2
100
AcDbLine
 10
-12.71903598482412
 20
249.3088096943572
 30
0.0
 11
-12.71903598482412
 21
273.7640600463907
 31
0.0
  0
LINE
  5
1B618
330
1B585
100
AcDbEntity
  8
10100_FRONT_DIM
  6
Continuous
 62
     7
370
    -2
100
AcDbLine
 10
9.780964015175841
 20
257.0219441405591
 30
0.0
 11
9.780964015175843
 21
273.7640600463907
 31
0.0
  0
LINE
  5
1B619
330
1B585
100
AcDbEntity
  8
10100_FRONT_DIM
  6
Continuous
 62
     7
370
    -2
100
AcDbLine
 10
-10.21903598482412
 20
272.7640600463907
 30
0.0
 11
-8.510702651490822
 21
272.7640600463907
 31
0.0
  0
LINE
  5
1B61A
330
1B585
100
AcDbEntity
  8
10100_FRONT_DIM
  6
Continuous
 62
     7
370
    -2
100
AcDbLine
 10
7.280964015175843
 20
272.7640600463907
 30
0.0
 11
5.572630681842509
 21
272.7640600463907
 31
0.0
  0
MTEXT
  5
1B61B
330
1B585
100
AcDbEntity
  8
10100_FRONT_DIM
  6
Continuous
 62
     7
370
    13
100
AcDbMText
 10
-1.469035984824156
 20
272.6598946298455
 30
0.0
 40
3.5
 41
0.0
 71
     5
 72
     1
  1
\A1;22,5
 73
     1
 44
1.0
1001
ACAD
1000
MTEXTBEGIN
1070
    73
1070
     1
1070
    44
1040
1.0
1070
    74
1070
     0
1000
MTEXTEND
  0
SOLID
  5
1B61C
330
1B585
100
AcDbEntity
  8
10100_FRONT_DIM
  6
Continuous
 62
     7
100
AcDbTrace
 10
-10.21903598482412
 20
273.1807267130573
 30
0.0
 11
-10.21903598482412
 21
272.347393379724
 31
0.0
 12
-12.71903598482412
 22
272.7640600463907
 32
0.0
 13
-12.71903598482412
 23
272.7640600463907
 33
0.0
  0
SOLID
  5
1B61D
330
1B585
100
AcDbEntity
  8
10100_FRONT_DIM
  6
Continuous
 62
     7
100
AcDbTrace
 10
7.280964015175843
 20
273.1807267130573
 30
0.0
 11
7.280964015175843
 21
272.347393379724
 31
0.0
 12
9.780964015175843
 22
272.7640600463907
 32
0.0
 13
9.780964015175843
 23
272.7640600463907
 33
0.0
  0
POINT
  5
1B61E
330
1B585
100
AcDbEntity
  8
Defpoints
  6
Continuous
 62
     0
100
AcDbPoint
 10
-12.71903598482412
 20
247.3088096943572
 30
0.0
  0
POINT
  5
1B61F
330
1B585
100
AcDbEntity
  8
Defpoints
  6
Continuous
 62
     0
100
AcDbPoint
 10
9.780964015175841
 20
255.0219441405591
 30
0.0
  0
POINT
  5
1B620
330
1B585
100
AcDbEntity
  8
Defpoints
  6
Continuous
 62
     0
100
AcDbPoint
 10
9.780964015175843
 20
272.7640600463907
 30
0.0
  0
ENDBLK
  5
1B591
330
1B585
100
AcDbEntity
  8
0
100
AcDbBlockEnd
  0
BLOCK
  5
1B681
330
1B675
100
AcDbEntity
  8
0
100
AcDbBlockBegin
  2
*D34
 70
     1
 10
0.0
 20
0.0
 30
0.0
  3
*D34
  1

  0
LINE
  5
1B6F4
330
1B675
100
AcDbEntity
  8
11100_LEFT_DIM
  6
Continuous
 62
     7
370
    -2
100
AcDbLine
 10
57.40754723067954
 20
183.0588096943572
 30
0.0
 11
57.40754723067954
 21
177.9234198812411
 31
0.0
  0
LINE
  5
1B6F5
330
1B675
100
AcDbEntity
  8
11100_LEFT_DIM
  6
Continuous
 62
     7
370
    -2
100
AcDbLine
 10
52.30754723067957
 20
185.9588096943571
 30
0.0
 11
52.30754723067957
 21
177.9234198812411
 31
0.0
  0
LINE
  5
1B6F6
330
1B675
100
AcDbEntity
  8
11100_LEFT_DIM
  6
Continuous
 62
     7
370
    -2
100
AcDbLine
 10
59.90754723067954
 20
178.9234198812411
 30
0.0
 11
62.40754723067954
 21
178.9234198812411
 31
0.0
  0
LINE
  5
1B6F7
330
1B675
100
AcDbEntity
  8
11100_LEFT_DIM
  6
Continuous
 62
     7
370
    -2
100
AcDbLine
 10
49.80754723067957
 20
178.9234198812411
 30
0.0
 11
47.30754723067957
 21
178.9234198812411
 31
0.0
  0
MTEXT
  5
1B6F8
330
1B675
100
AcDbEntity
  8
11100_LEFT_DIM
  6
Continuous
 62
     7
370
    13
100
AcDbMText
 10
54.85754723067955
 20
178.9234198812411
 30
0.0
 40
3.5
 41
0.0
 71
     5
 72
     1
  1
\A1;5
 73
     1
 44
1.0
1001
ACAD
1000
MTEXTBEGIN
1070
    73
1070
     1
1070
    44
1040
1.0
1070
    74
1070
     0
1000
MTEXTEND
  0
SOLID
  5
1B6F9
330
1B675
100
AcDbEntity
  8
11100_LEFT_DIM
  6
Continuous
 62
     7
100
AcDbTrace
 10
59.90754723067954
 20
179.3400865479077
 30
0.0
 11
59.90754723067954
 21
178.5067532145744
 31
0.0
 12
57.40754723067954
 22
178.9234198812411
 32
0.0
 13
57.40754723067954
 23
178.9234198812411
 33
0.0
  0
SOLID
  5
1B6FA
330
1B675
100
AcDbEntity
  8
11100_LEFT_DIM
  6
Continuous
 62
     7
100
AcDbTrace
 10
49.80754723067957
 20
179.3400865479077
 30
0.0
 11
49.80754723067957
 21
178.5067532145744
 31
0.0
 12
52.30754723067957
 22
178.9234198812411
 32
0.0
 13
52.30754723067957
 23
178.9234198812411
 33
0.0
  0
POINT
  5
1B6FB
330
1B675
100
AcDbEntity
  8
Defpoints
  6
Continuous
 62
     0
100
AcDbPoint
 10
57.40754723067954
 20
185.0588096943572
 30
0.0
  0
POINT
  5
1B6FC
330
1B675
100
AcDbEntity
  8
Defpoints
  6
Continuous
 62
     0
100
AcDbPoint
 10
52.30754723067957
 20
187.9588096943571
 30
0.0
  0
POINT
  5
1B6FD
330
1B675
100
AcDbEntity
  8
Defpoints
  6
Continuous
 62
     0
100
AcDbPoint
 10
52.30754723067957
 20
178.9234198812411
 30
0.0
  0
ENDBLK
  5
1B682
330
1B675
100
AcDbEntity
  8
0
100
AcDbBlockEnd
  0
ENDSEC
  0
SECTION
  2
ENTITIES
  0
LINE
  5
1AF71
330
1F
100
AcDbEntity
  8
90000_FRAME
  6
Continuous
 62
     7
100
AcDbLine
 10
-78.29494517155467
 20
294.8581098703613
 30
0.0
 11
191.7050548284453
 21
294.8581098703613
 31
0.0
  0
LINE
  5
1AF72
330
1F
100
AcDbEntity
  8
90000_FRAME
  6
Continuous
 62
     7
100
AcDbLine
 10
-78.29494517155467
 20
94.85810987036144
 30
0.0
 11
-78.29494517155467
 21
294.8581098703613
 31
0.0
  0
LINE
  5
1AF73
330
1F
100
AcDbEntity
  8
90000_FRAME
  6
Continuous
 62
     7
100
AcDbLine
 10
191.7050548284453
 20
94.85810987036144
 30
0.0
 11
191.7050548284453
 21
294.8581098703613
 31
0.0
  0
CIRCLE
  5
1AF74
330
1F
100
AcDbEntity
  8
91000_TIP
  6
Continuous
 62
     7
100
AcDbCircle
 10
38.01972459547025
 20
113.681847443832
 30
0.0
 40
2.499999948899997
  0
CIRCLE
  5
1AF75
330
1F
100
AcDbEntity
  8
91000_TIP
  6
Continuous
 62
     7
100
AcDbCircle
 10
38.01972459547025
 20
113.681847443832
 30
0.0
 40
4.9999998979
  0
LINE
  5
1AF76
330
1F
100
AcDbEntity
  8
91000_TIP
  6
CENTER
 62
     7
100
AcDbLine
 10
38.01972459547025
 20
107.960366237432
 30
0.0
 11
38.01972459547025
 21
119.2437522374319
 31
0.0
  0
LINE
  5
1AF77
330
1F
100
AcDbEntity
  8
91000_TIP
  6
Continuous
 62
     7
100
AcDbLine
 10
31.51972472827035
 20
118.681847341732
 30
0.0
 11
31.51972472827035
 21
108.6818475459319
 31
0.0
  0
LINE
  5
1AF78
330
1F
100
AcDbEntity
  8
91000_TIP
  6
Continuous
 62
     7
100
AcDbLine
 10
21.51972493247035
 20
116.181847392732
 30
0.0
 11
21.51972493247035
 21
111.181847494932
 31
0.0
  0
LINE
  5
1AF79
330
1F
100
AcDbEntity
  8
91000_TIP
  6
Continuous
 62
     7
100
AcDbLine
 10
21.51972493247035
 20
111.181847494932
 30
0.0
 11
31.51972472827035
 21
108.6818475459319
 31
0.0
  0
LINE
  5
1AF7A
330
1F
100
AcDbEntity
  8
91000_TIP
  6
CENTER
 62
     7
100
AcDbLine
 10
20.24021446046935
 20
113.681847443832
 30
0.0
 11
43.84220372456936
 21
113.681847443832
 31
0.0
  0
LINE
  5
1AF7B
330
1F
100
AcDbEntity
  8
91000_TIP
  6
Continuous
 62
     7
100
AcDbLine
 10
21.51972493247035
 20
116.181847392732
 30
0.0
 11
31.51972472827035
 21
118.681847341732
 31
0.0
  0
TEXT
  5
1AF7C
330
1F
100
AcDbEntity
  8
91000_TIP
  6
Continuous
 62
     7
100
AcDbText
 10
-74.2415953888908
 20
98.34034649203807
 30
0.0
 40
2.5
  1
All dimensions are in millimeters (mm).
 41
0.7513350295680256
 72
     5
 11
-14.13479302344876
 21
98.34034649203807
 31
0.0
100
AcDbText
  0
TEXT
  5
1AF7D
330
1F
100
AcDbEntity
  8
91000_TIP
  6
Continuous
 62
     7
100
AcDbText
 10
-74.2415953888908
 20
103.590346492038
 30
0.0
 40
2.5
  1
Alle Bemassungswerte sind in Millimeter (mm) angegeben.
 41
0.6056311217924568
 72
     5
 11
-0.556475570808516
 21
103.590346492038
 31
0.0
100
AcDbText
  0
LINE
  5
1AF7E
330
1F
100
AcDbEntity
  8
90000_FRAME
  6
Continuous
 62
     7
100
AcDbLine
 10
-78.29494517155467
 20
94.85810987036144
 30
0.0
 11
191.7050548284453
 21
94.85810987036144
 31
0.0
  0
TEXT
  5
1AF7F
330
1F
100
AcDbEntity
  8
90000_FRAME
  6
Continuous
 62
     7
370
    13
100
AcDbText
 10
110.0109793523951
 20
115.1081098703614
 30
0.0
 40
3.5
  1
3RN1000_00000432_000_ALL
 41
0.7430189158695422
 72
     5
 11
165.9231527715782
 21
115.1081098703614
 31
0.0
100
AcDbText
  0
TEXT
  5
1AF80
330
1F
100
AcDbEntity
  8
90000_FRAME
  6
Continuous
 62
     7
370
    13
100
AcDbText
 10
139.8650548284442
 20
106.7581098703614
 30
0.0
 40
2.2
  1
Massstab / Scale: 1:1
 41
0.7732634338148432
 72
     5
 11
170.7698167332441
 21
106.7581098703614
 31
0.0
100
AcDbText
  0
TEXT
  5
1AF81
330
1F
100
AcDbEntity
  8
90000_FRAME
  6
Continuous
 62
     7
370
    13
100
AcDbText
 10
97.36505482844423
 20
106.7581098703614
 30
0.0
 40
2.2
  1
Format / Size: DIN A4
 41
0.7994987468660252
 72
     5
 11
130.7841024474441
 21
106.7581098703614
 31
0.0
100
AcDbText
  0
LINE
  5
1AF82
330
1F
100
AcDbEntity
  8
90000_FRAME
  6
Continuous
 62
     7
370
    13
100
AcDbLine
 10
181.7050548284443
 20
104.8581098703614
 30
0.0
 11
181.7050548284443
 21
122.8581098703614
 31
0.0
  0
LINE
  5
1AF83
330
1F
100
AcDbEntity
  8
90000_FRAME
  6
Continuous
 62
     7
370
    13
100
AcDbLine
 10
139.2050548284444
 20
104.8581098703614
 30
0.0
 11
139.2050548284444
 21
110.8581098703614
 31
0.0
  0
LINE
  5
1AF84
330
1F
100
AcDbEntity
  8
90000_FRAME
  6
Continuous
 62
     7
370
    13
100
AcDbLine
 10
96.70505482844429
 20
104.8581098703614
 30
0.0
 11
96.70505482844429
 21
122.8581098703614
 31
0.0
  0
LINE
  5
1AF85
330
1F
100
AcDbEntity
  8
90000_FRAME
  6
Continuous
 62
     7
370
    13
100
AcDbLine
 10
46.70505482844435
 20
122.8581098703614
 30
0.0
 11
181.7050548284443
 21
122.8581098703614
 31
0.0
  0
LINE
  5
1AF86
330
1F
100
AcDbEntity
  8
90000_FRAME
  6
Continuous
 62
     7
370
    13
100
AcDbLine
 10
96.70505482844429
 20
110.8581098703614
 30
0.0
 11
181.7050548284443
 21
110.8581098703614
 31
0.0
  0
LINE
  5
1AF87
330
1F
100
AcDbEntity
  8
90000_FRAME
  6
Continuous
 62
     7
370
    13
100
AcDbLine
 10
46.70505482844435
 20
104.8581098703614
 30
0.0
 11
46.70505482844435
 21
122.8581098703614
 31
0.0
  0
LINE
  5
1AF88
330
1F
100
AcDbEntity
  8
90000_FRAME
  6
Continuous
 62
     7
370
    13
100
AcDbLine
 10
46.70505482844435
 20
104.8581098703614
 30
0.0
 11
181.7050548284443
 21
104.8581098703614
 31
0.0
  0
INSERT
  5
1AF89
330
1F
100
AcDbEntity
  8
90000_FRAME
  6
Continuous
 62
     7
370
    13
100
AcDbBlockReference
  2
SIEMENS_OUTLINE_BL0
 10
-20.64904778763457
 20
94.51985064275811
 30
0.0
  0
ARC
  5
1B2A8
330
1F
100
AcDbEntity
  8
10000_FRONT
  6
HIDDEN
 62
     7
370
     9
100
AcDbCircle
 10
-8.927161635758352
 20
160.9588096943574
 30
0.0
 40
2.25
100
AcDbArc
 50
146.2510114041199
 51
180.0
  0
ARC
  5
1B2A9
330
1F
100
AcDbEntity
  8
10000_FRONT
  6
HIDDEN
 62
     7
370
     9
100
AcDbCircle
 10
6.030964015175811
 20
249.6588096943577
 30
0.0
 40
2.25
100
AcDbArc
 50
326.2510114040964
 51
0.0
  0
ARC
  5
1B2AA
330
1F
100
AcDbEntity
  8
10000_FRONT
  6
HIDDEN
 62
     7
370
     9
100
AcDbCircle
 10
-8.927161635758352
 20
160.9588096943574
 30
0.0
 40
2.25
100
AcDbArc
 50
0.0
 51
33.74898859588006
  0
LINE
  5
1B2AB
330
1F
100
AcDbEntity
  8
10000_FRONT
  6
HIDDEN
 62
     7
370
     9
100
AcDbLine
 10
-6.677161635758352
 20
160.9588096943574
 30
0.0
 11
-6.677161635758352
 21
159.6588096943575
 31
0.0
  0
ARC
  5
1B2AC
330
1F
100
AcDbEntity
  8
10000_FRONT
  6
HIDDEN
 62
     7
370
     9
100
AcDbCircle
 10
-8.927161635758352
 20
159.6588096943575
 30
0.0
 40
2.25
100
AcDbArc
 50
180.0
 51
0.0
  0
LINE
  5
1B2AD
330
1F
100
AcDbEntity
  8
10000_FRONT
  6
HIDDEN
 62
     7
370
     9
100
AcDbLine
 10
-11.17716163575835
 20
159.6588096943575
 30
0.0
 11
-11.17716163575835
 21
160.9588096943574
 31
0.0
  0
LINE
  5
1B2AE
330
1F
100
AcDbEntity
  8
10000_FRONT
  6
HIDDEN
 62
     7
370
     9
100
AcDbLine
 10
-5.177161635758352
 20
147.4087496943574
 30
0.0
 11
-5.177161635758352
 21
162.2088096943573
 31
0.0
  0
LINE
  5
1B2AF
330
1F
100
AcDbEntity
  8
10000_FRONT
  6
HIDDEN
 62
     7
370
     9
100
AcDbLine
 10
-12.71903598482413
 20
163.3088096943571
 30
0.0
 11
-12.67716163575835
 21
147.4088096943574
 31
0.0
  0
ARC
  5
1B2B0
330
1F
100
AcDbEntity
  8
10000_FRONT
  6
HIDDEN
 62
     7
370
     9
100
AcDbCircle
 10
-8.927161635758352
 20
149.6588096943574
 30
0.0
 40
2.25
100
AcDbArc
 50
180.0
 51
0.0
  0
ARC
  5
1B2B1
330
1F
100
AcDbEntity
  8
10000_FRONT
  6
HIDDEN
 62
     7
370
     9
100
AcDbCircle
 10
-10.67716163575835
 20
147.4088096943574
 30
0.0
 40
2.0
100
AcDbArc
 50
179.9999870000013
 51
270.000010000001
  0
LINE
  5
1B2B2
330
1F
100
AcDbEntity
  8
10000_FRONT
  6
HIDDEN
 62
     7
370
     9
100
AcDbLine
 10
-10.67716163575835
 20
145.4088096943575
 30
0.0
 11
-7.177161635758352
 21
145.4088096943575
 31
0.0
  0
ARC
  5
1B2B3
330
1F
100
AcDbEntity
  8
10000_FRONT
  6
HIDDEN
 62
     7
370
     9
100
AcDbCircle
 10
-7.177161635758352
 20
147.4088096943574
 30
0.0
 40
2.0
100
AcDbArc
 50
269.999989999999
 51
0.0000100000010064
  0
ARC
  5
1B2B4
330
1F
100
AcDbEntity
  8
10000_FRONT
  6
HIDDEN
 62
     7
370
     9
100
AcDbCircle
 10
-8.927161635758352
 20
150.9588096943574
 30
0.0
 40
2.25
100
AcDbArc
 50
0.0
 51
180.0
  0
LINE
  5
1B2B5
330
1F
100
AcDbEntity
  8
10000_FRONT
  6
HIDDEN
 62
     7
370
     9
100
AcDbLine
 10
-11.17716163575835
 20
149.6588096943574
 30
0.0
 11
-11.17716163575835
 21
150.9588096943574
 31
0.0
  0
LINE
  5
1B2B6
330
1F
100
AcDbEntity
  8
10000_FRONT
  6
HIDDEN
 62
     7
370
     9
100
AcDbLine
 10
-6.677161635758352
 20
150.9588096943574
 30
0.0
 11
-6.677161635758352
 21
149.6588096943574
 31
0.0
  0
LINE
  5
1B2B7
330
1F
100
AcDbEntity
  8
10000_FRONT
  6
HIDDEN
 62
     7
370
     9
100
AcDbLine
 10
9.780964015175811
 20
247.3088096943572
 30
0.0
 11
9.780964015175811
 21
263.2088096943577
 31
0.0
  0
ARC
  5
1B2B8
330
1F
100
AcDbEntity
  8
10000_FRONT
  6
HIDDEN
 62
     7
370
     9
100
AcDbCircle
 10
6.030964015175811
 20
260.9588096943577
 30
0.0
 40
2.25
100
AcDbArc
 50
0.0
 51
180.0
  0
ARC
  5
1B2B9
330
1F
100
AcDbEntity
  8
10000_FRONT
  6
HIDDEN
 62
     7
370
     9
100
AcDbCircle
 10
7.780964015175811
 20
263.2088096943577
 30
0.0
 40
2.0
100
AcDbArc
 50
359.999989999999
 51
90.00001000000102
  0
LINE
  5
1B2BA
330
1F
100
AcDbEntity
  8
10000_FRONT
  6
HIDDEN
 62
     7
370
     9
100
AcDbLine
 10
7.780964015175811
 20
265.2088096943577
 30
0.0
 11
4.280964015175811
 21
265.2088096943577
 31
0.0
  0
ARC
  5
1B2BB
330
1F
100
AcDbEntity
  8
10000_FRONT
  6
HIDDEN
 62
     7
370
     9
100
AcDbCircle
 10
4.280964015175811
 20
263.2088096943577
 30
0.0
 40
2.0
100
AcDbArc
 50
89.99998999999899
 51
180.0000100000009
  0
LINE
  5
1B2BC
330
1F
100
AcDbEntity
  8
10000_FRONT
  6
HIDDEN
 62
     7
370
     9
100
AcDbLine
 10
2.280964015175811
 20
263.2088596943577
 30
0.0
 11
2.280964015175811
 21
248.4088096943571
 31
0.0
  0
ARC
  5
1B2BD
330
1F
100
AcDbEntity
  8
10000_FRONT
  6
HIDDEN
 62
     7
370
     9
100
AcDbCircle
 10
6.030964015175811
 20
259.6588096943575
 30
0.0
 40
2.25
100
AcDbArc
 50
180.0
 51
0.0
  0
LINE
  5
1B2BE
330
1F
100
AcDbEntity
  8
10000_FRONT
  6
HIDDEN
 62
     7
370
     9
100
AcDbLine
 10
3.780964015175811
 20
259.6588096943575
 30
0.0
 11
3.780964015175811
 21
260.9588096943577
 31
0.0
  0
LINE
  5
1B2BF
330
1F
100
AcDbEntity
  8
10000_FRONT
  6
HIDDEN
 62
     7
370
     9
100
AcDbLine
 10
8.280964015175811
 20
260.9588096943577
 30
0.0
 11
8.280964015175811
 21
259.6588096943575
 31
0.0
  0
LINE
  5
1B2C0
330
1F
100
AcDbEntity
  8
10000_FRONT
  6
HIDDEN
 62
     7
370
     9
100
AcDbLine
 10
8.280964015175811
 20
250.9588096943577
 30
0.0
 11
8.280964015175811
 21
249.6588096943577
 31
0.0
  0
LINE
  5
1B2C1
330
1F
100
AcDbEntity
  8
10000_FRONT
  6
HIDDEN
 62
     7
370
     9
100
AcDbLine
 10
3.780964015175811
 20
249.6588096943577
 30
0.0
 11
3.780964015175811
 21
250.9588096943577
 31
0.0
  0
ARC
  5
1B2C2
330
1F
100
AcDbEntity
  8
10000_FRONT
  6
HIDDEN
 62
     7
370
     9
100
AcDbCircle
 10
6.030964015175811
 20
250.9588096943577
 30
0.0
 40
2.25
100
AcDbArc
 50
0.0
 51
180.0
  0
ARC
  5
1B2C3
330
1F
100
AcDbEntity
  8
10000_FRONT
  6
HIDDEN
 62
     7
370
     9
100
AcDbCircle
 10
6.030964015175811
 20
249.6588096943577
 30
0.0
 40
2.25
100
AcDbArc
 50
180.0
 51
213.7489885959035
  0
DIMENSION
  5
1B2C4
330
1F
100
AcDbEntity
  8
10100_FRONT_DIM
  6
Continuous
 62
     7
370
    13
100
AcDbDimension
  2
*D23
 10
17.12388953421777
 20
160.3088096943573
 30
0.0
 11
17.12388953421774
 21
205.3088096943575
 31
0.0
 70
    32
  1
15x90
 71
     5
 42
90.00000000000046
  3
DSTYLE2
100
AcDbAlignedDimension
 13
8.280964015175813
 23
250.3088096943578
 33
0.0
 14
-6.677161635758356
 24
160.3088096943573
 34
0.0
 50
90.0
100
AcDbRotatedDimension
  0
DIMENSION
  5
1B2C5
330
1F
100
AcDbEntity
  8
10100_FRONT_DIM
  6
Continuous
 62
     7
370
    13
100
AcDbDimension
  2
*D24
 10
23.87764787139003
 20
150.3088096943573
 30
0.0
 11
23.87764787139001
 21
205.3088096943575
 31
0.0
 70
    32
  1
15x110
 71
     5
 42
110.0000000000003
  3
DSTYLE2
100
AcDbAlignedDimension
 13
8.280964015175813
 23
260.3088096943576
 33
0.0
 14
-6.677161635758356
 24
150.3088096943573
 34
0.0
 50
90.0
100
AcDbRotatedDimension
1001
ACAD
1000
DSTYLE
1002
{
1070
   271
1070
     0
1002
}
  0
LINE
  5
1B2C6
330
1F
100
AcDbEntity
  8
10000_FRONT
  6
Continuous
 62
     7
370
    13
100
AcDbLine
 10
-12.71903598482413
 20
232.5588096943572
 30
0.0
 11
9.780964015175868
 21
232.5588096943572
 31
0.0
  0
LINE
  5
1B2C7
330
1F
100
AcDbEntity
  8
10000_FRONT
  6
Continuous
 62
     7
370
    13
100
AcDbLine
 10
2.467075332618719
 20
232.5926239958211
 30
0.0
 11
2.465297557035739
 21
233.3926220205147
 31
0.0
  0
LINE
  5
1B2C8
330
1F
100
AcDbEntity
  8
10000_FRONT
  6
Continuous
 62
     7
370
    13
100
AcDbLine
 10
0.6151482988990154
 20
234.9157343435614
 30
0.0
 11
-3.68484108383015
 21
234.9061787998028
 31
0.0
  0
LINE
  5
1B2C9
330
1F
100
AcDbEntity
  8
10000_FRONT
  6
Continuous
 62
     7
370
    13
100
AcDbLine
 10
-4.933866243058361
 20
234.4661121051815
 30
0.0
 11
-3.683869329474305
 21
234.4688898795299
 31
0.0
  0
LINE
  5
1B2CA
330
1F
100
AcDbEntity
  8
10000_FRONT
  6
Continuous
 62
     7
370
    13
100
AcDbLine
 10
0.6161200532548606
 20
234.4784454232885
 30
0.0
 11
1.866116966838944
 21
234.4812231976368
 31
0.0
  0
LINE
  5
1B2CB
330
1F
100
AcDbEntity
  8
10000_FRONT
  6
Continuous
 62
     7
370
    13
100
AcDbLine
 10
5.711349542082615
 20
233.399835478276
 30
0.0
 11
5.570307670307187
 21
232.5995200761962
 31
0.0
  0
LINE
  5
1B2CC
330
1F
100
AcDbEntity
  8
10000_FRONT
  6
Continuous
 62
     7
370
    13
100
AcDbLine
 10
-8.62965726800769
 20
232.5679645595981
 30
0.0
 11
-8.774254690949192
 21
233.3676452069058
 31
0.0
  0
LINE
  5
1B2CD
330
1F
100
AcDbEntity
  8
10000_FRONT
  6
Continuous
 62
     7
370
    13
100
AcDbLine
 10
-5.526414930343918
 20
232.5748606621954
 30
0.0
 11
-5.528192705926898
 21
233.3748586868892
 31
0.0
  0
LINE
  5
1B2CE
330
1F
100
AcDbEntity
  8
10000_FRONT
  6
Continuous
 62
     7
370
    13
100
AcDbLine
 10
0.4703202628842576
 20
232.5881867568546
 30
0.0
 11
0.4685424873012778
 21
233.3881847815483
 31
0.0
  0
LINE
  5
1B2CF
330
1F
100
AcDbEntity
  8
10000_FRONT
  6
Continuous
 62
     7
370
    13
100
AcDbLine
 10
-3.531447636167712
 20
233.3792959036335
 30
0.0
 11
-3.529669860584732
 21
232.5792978789396
 31
0.0
  0
LINE
  5
1B2D0
330
1F
100
AcDbEntity
  8
10000_FRONT
  6
Continuous
 62
     7
370
    13
100
AcDbLine
 10
5.65066718096213
 20
241.4423404867636
 30
0.0
 11
5.650164959359926
 21
241.6683399287396
 31
0.0
  0
LINE
  5
1B2D1
330
1F
100
AcDbEntity
  8
10000_FRONT
  6
Continuous
 62
     7
370
    13
100
AcDbLine
 10
5.645136698900984
 20
243.9310543417834
 30
0.0
 11
5.650164914915535
 21
241.6683599286902
 31
0.0
  0
LINE
  5
1B2D2
330
1F
100
AcDbEntity
  8
10000_FRONT
  6
Continuous
 62
     7
370
    13
100
AcDbLine
 10
5.645126632259064
 20
243.9310843194873
 30
0.0
 11
5.644348855441506
 21
244.2810834552908
 31
0.0
  0
LINE
  5
1B2D3
330
1F
100
AcDbEntity
  8
10000_FRONT
  6
Continuous
 62
     7
370
    13
100
AcDbLine
 10
-11.93811633163849
 20
236.3708718273053
 30
0.0
 11
-8.888123862493387
 21
236.3776495967153
 31
0.0
  0
LINE
  5
1B2D4
330
1F
100
AcDbEntity
  8
10000_FRONT
  6
Continuous
 62
     7
370
    13
100
AcDbLine
 10
-8.588124603233239
 20
236.3783162625591
 30
0.0
 11
-5.538132134088073
 21
236.3850940319691
 31
0.0
  0
LINE
  5
1B2D5
330
1F
100
AcDbEntity
  8
10000_FRONT
  6
Continuous
 62
     7
370
    13
100
AcDbLine
 10
-4.738134109394337
 20
236.3868718075521
 30
0.0
 11
-1.688141640249227
 21
236.3936495769623
 31
0.0
  0
LINE
  5
1B2D6
330
1F
100
AcDbEntity
  8
10000_FRONT
  6
Continuous
 62
     7
370
    13
100
AcDbLine
 10
-1.388142380989023
 20
236.3943162428058
 30
0.0
 11
1.661850088156029
 21
236.4010940122161
 31
0.0
  0
LINE
  5
1B2D7
330
1F
100
AcDbEntity
  8
10000_FRONT
  6
Continuous
 62
     7
370
    13
100
AcDbLine
 10
2.461848112849907
 20
236.402871787799
 30
0.0
 11
5.511840581994931
 21
236.4096495572091
 31
0.0
  0
LINE
  5
1B2D8
330
1F
100
AcDbEntity
  8
10000_FRONT
  6
Continuous
 62
     7
370
    13
100
AcDbLine
 10
5.811839841255107
 20
236.4103162230527
 30
0.0
 11
8.861832310400245
 21
236.417093992463
 31
0.0
  0
LINE
  5
1B2D9
330
1F
100
AcDbEntity
  8
10000_FRONT
  6
Continuous
 62
     7
370
    13
100
AcDbLine
 10
6.013577678615803
 20
235.6285125984278
 30
0.0
 11
-9.08638503747963
 21
235.5949570842986
 31
0.0
  0
LINE
  5
1B2DA
330
1F
100
AcDbEntity
  8
10000_FRONT
  6
Continuous
 62
     7
370
    13
100
AcDbLine
 10
5.64741738067795
 20
244.4707507425411
 30
0.0
 11
5.644348855441506
 21
244.2810834552908
 31
0.0
  0
LINE
  5
1B2DB
330
1F
100
AcDbEntity
  8
10000_FRONT
  6
Continuous
 62
     7
370
    13
100
AcDbLine
 10
8.995657715936744
 20
243.5563190095804
 30
0.0
 11
8.997322513881442
 21
242.8071608593558
 31
0.0
  0
LINE
  5
1B2DC
330
1F
100
AcDbEntity
  8
10000_FRONT
  6
Continuous
 62
     7
370
    13
100
AcDbLine
 10
6.320305818457597
 20
232.6011867408052
 30
0.0
 11
6.314253892595814
 21
235.3245500164431
 31
0.0
  0
LINE
  5
1B2DD
330
1F
100
AcDbEntity
  8
10000_FRONT
  6
Continuous
 62
     7
370
    13
100
AcDbLine
 10
0.6161200532548606
 20
234.4784454232885
 30
0.0
 11
0.6151482988990154
 21
234.9157343435614
 31
0.0
  0
LINE
  5
1B2DE
330
1F
100
AcDbEntity
  8
10000_FRONT
  6
Continuous
 62
     7
370
    13
100
AcDbLine
 10
-3.034448867030391
 20
234.7304036800435
 30
0.0
 11
-0.0344562744286634
 21
234.7370703384799
 31
0.0
  0
LINE
  5
1B2DF
330
1F
100
AcDbEntity
  8
10000_FRONT
  6
Continuous
 62
     7
370
    13
100
AcDbLine
 10
-3.68484108383015
 20
234.9061787998028
 30
0.0
 11
-3.683869329474305
 21
234.4688898795299
 31
0.0
  0
LINE
  5
1B2E0
330
1F
100
AcDbEntity
  8
10000_FRONT
  6
Continuous
 62
     7
370
    13
100
AcDbLine
 10
-9.385707342019941
 20
235.289661170627
 30
0.0
 11
-9.379655416158129
 21
232.5662978949891
 31
0.0
  0
LINE
  5
1B2E1
330
1F
100
AcDbEntity
  8
10000_FRONT
  6
Continuous
 62
     7
370
    13
100
AcDbLine
 10
-4.932599733510841
 20
233.8961835124142
 30
0.0
 11
-4.933866243058361
 21
234.4661121051815
 31
0.0
  0
LINE
  5
1B2E2
330
1F
100
AcDbEntity
  8
10000_FRONT
  6
Continuous
 62
     7
370
    13
100
AcDbLine
 10
1.866116966838944
 20
234.4812231976368
 30
0.0
 11
1.867383476386436
 21
233.9112946048696
 31
0.0
  0
ARC
  5
1B2E3
330
1F
100
AcDbEntity
  8
10000_FRONT
  6
Continuous
 62
     7
370
    13
100
AcDbCircle
 10
0.1669432300163294
 20
234.1075163379293
 30
0.0
 40
0.2
100
AcDbArc
 50
180.1273139020787
 51
270.1273359020772
  0
LINE
  5
1B2E4
330
1F
100
AcDbEntity
  8
10000_FRONT
  6
Continuous
 62
     7
370
    13
100
AcDbLine
 10
-0.0330562761570548
 20
234.1070718940335
 30
0.0
 11
-0.0344562744286634
 21
234.7370703384799
 31
0.0
  0
LINE
  5
1B2E5
330
1F
100
AcDbEntity
  8
10000_FRONT
  6
Continuous
 62
     7
370
    13
100
AcDbLine
 10
-3.034448867030391
 20
234.7304036800435
 30
0.0
 11
-3.033048868758783
 21
234.1004052355973
 31
0.0
  0
ARC
  5
1B2E6
330
1F
100
AcDbEntity
  8
10000_FRONT
  6
Continuous
 62
     7
370
    13
100
AcDbCircle
 10
-3.23304837493228
 20
234.0999607917015
 30
0.0
 40
0.2
100
AcDbArc
 50
270.1273139020775
 51
0.1273339020779966
  0
LINE
  5
1B2E7
330
1F
100
AcDbEntity
  8
10000_FRONT
  6
Continuous
 62
     7
370
    13
100
AcDbLine
 10
1.867383476386436
 20
233.9112946048696
 30
0.0
 11
0.1673876739120885
 21
233.9075168317557
 31
0.0
  0
LINE
  5
1B2E8
330
1F
100
AcDbEntity
  8
10000_FRONT
  6
Continuous
 62
     7
370
    13
100
AcDbLine
 10
-3.232603931036521
 20
233.8999612855279
 30
0.0
 11
-4.932599733510841
 21
233.8961835124142
 31
0.0
  0
LINE
  5
1B2E9
330
1F
100
AcDbEntity
  8
10000_FRONT
  6
Continuous
 62
     7
370
    13
100
AcDbLine
 10
-8.774254690949192
 20
233.3676452069058
 30
0.0
 11
5.711349542082615
 21
233.399835478276
 31
0.0
  0
LINE
  5
1B2EA
330
1F
100
AcDbEntity
  8
10000_FRONT
  6
Continuous
 62
     7
370
    13
100
AcDbLine
 10
8.853743987052496
 20
240.0568350054371
 30
0.0
 11
5.803751517907386
 21
240.0500572360268
 31
0.0
  0
LINE
  5
1B2EB
330
1F
100
AcDbEntity
  8
10000_FRONT
  6
Continuous
 62
     7
370
    13
100
AcDbLine
 10
5.803751517907386
 20
240.0500572360268
 30
0.0
 11
5.811839841255107
 21
236.4103162230527
 31
0.0
  0
LINE
  5
1B2EC
330
1F
100
AcDbEntity
  8
10000_FRONT
  6
Continuous
 62
     7
370
    13
100
AcDbLine
 10
5.50375225864721
 20
240.0493905701832
 30
0.0
 11
2.453759789502157
 21
240.0426128007731
 31
0.0
  0
LINE
  5
1B2ED
330
1F
100
AcDbEntity
  8
10000_FRONT
  6
Continuous
 62
     7
370
    13
100
AcDbLine
 10
5.511840581994931
 20
236.4096495572091
 30
0.0
 11
5.50375225864721
 21
240.0493905701832
 31
0.0
  0
LINE
  5
1B2EE
330
1F
100
AcDbEntity
  8
10000_FRONT
  6
Continuous
 62
     7
370
    13
100
AcDbLine
 10
2.453759789502157
 20
240.0426128007731
 30
0.0
 11
2.461848112849907
 21
236.402871787799
 31
0.0
  0
LINE
  5
1B2EF
330
1F
100
AcDbEntity
  8
10000_FRONT
  6
Continuous
 62
     7
370
    13
100
AcDbLine
 10
8.861832310400245
 20
236.417093992463
 30
0.0
 11
8.853743987052496
 21
240.0568350054371
 31
0.0
  0
LINE
  5
1B2F0
330
1F
100
AcDbEntity
  8
10000_FRONT
  6
Continuous
 62
     7
370
    13
100
AcDbLine
 10
1.661850088156029
 20
236.4010940122161
 30
0.0
 11
1.65376176480828
 21
240.0408350251901
 31
0.0
  0
LINE
  5
1B2F1
330
1F
100
AcDbEntity
  8
10000_FRONT
  6
Continuous
 62
     7
370
    13
100
AcDbLine
 10
-4.746222432742086
 20
240.0266128205262
 30
0.0
 11
-4.738134109394337
 21
236.3868718075521
 31
0.0
  0
LINE
  5
1B2F2
330
1F
100
AcDbEntity
  8
10000_FRONT
  6
Continuous
 62
     7
370
    13
100
AcDbLine
 10
-1.688141640249284
 20
236.3936495769623
 30
0.0
 11
-1.696229963597005
 21
240.0333905899364
 31
0.0
  0
LINE
  5
1B2F3
330
1F
100
AcDbEntity
  8
10000_FRONT
  6
Continuous
 62
     7
370
    13
100
AcDbLine
 10
-1.696229963597005
 20
240.0333905899364
 30
0.0
 11
-4.746222432742086
 21
240.0266128205262
 31
0.0
  0
LINE
  5
1B2F4
330
1F
100
AcDbEntity
  8
10000_FRONT
  6
Continuous
 62
     7
370
    13
100
AcDbLine
 10
-1.396230704336829
 20
240.0340572557801
 30
0.0
 11
-1.388142380989108
 21
236.3943162428058
 31
0.0
  0
LINE
  5
1B2F5
330
1F
100
AcDbEntity
  8
10000_FRONT
  6
Continuous
 62
     7
370
    13
100
AcDbLine
 10
1.65376176480828
 20
240.0408350251901
 30
0.0
 11
-1.396230704336829
 21
240.0340572557801
 31
0.0
  0
LINE
  5
1B2F6
330
1F
100
AcDbEntity
  8
10000_FRONT
  6
Continuous
 62
     7
370
    13
100
AcDbLine
 10
-5.538132134088073
 20
236.3850940319691
 30
0.0
 11
-5.546220457435822
 21
240.0248350449433
 31
0.0
  0
LINE
  5
1B2F7
330
1F
100
AcDbEntity
  8
10000_FRONT
  6
Continuous
 62
     7
370
    13
100
AcDbLine
 10
-11.94620465498616
 20
240.0106128402793
 30
0.0
 11
-11.93811633163844
 21
236.3708718273053
 31
0.0
  0
LINE
  5
1B2F8
330
1F
100
AcDbEntity
  8
10000_FRONT
  6
Continuous
 62
     7
370
    13
100
AcDbLine
 10
-8.888123862493387
 20
236.3776495967153
 30
0.0
 11
-8.896212185841136
 21
240.0173906096895
 31
0.0
  0
LINE
  5
1B2F9
330
1F
100
AcDbEntity
  8
10000_FRONT
  6
Continuous
 62
     7
370
    13
100
AcDbLine
 10
-8.896212185841136
 20
240.0173906096895
 30
0.0
 11
-11.94620465498616
 21
240.0106128402793
 31
0.0
  0
LINE
  5
1B2FA
330
1F
100
AcDbEntity
  8
10000_FRONT
  6
Continuous
 62
     7
370
    13
100
AcDbLine
 10
-8.596212926580932
 20
240.0180572755331
 30
0.0
 11
-8.588124603233183
 21
236.3783162625591
 31
0.0
  0
LINE
  5
1B2FB
330
1F
100
AcDbEntity
  8
10000_FRONT
  6
Continuous
 62
     7
370
    13
100
AcDbLine
 10
-5.546220457435822
 20
240.0248350449433
 30
0.0
 11
-8.596212926580932
 21
240.0180572755331
 31
0.0
  0
ARC
  5
1B2FC
330
1F
100
AcDbEntity
  8
10000_FRONT
  6
Continuous
 62
     7
370
    13
100
AcDbCircle
 10
7.195578438808496
 20
243.5523188284703
 30
0.0
 40
1.80008372177394
100
AcDbArc
 50
0.1273239020783523
 51
149.3221368998964
  0
ARC
  5
1B2FD
330
1F
100
AcDbEntity
  8
10000_FRONT
  6
Continuous
 62
     7
370
    13
100
AcDbCircle
 10
7.051605755017817
 20
242.7962471544473
 30
0.0
 40
1.94574736661201
100
AcDbArc
 50
224.0929657473363
 51
0.3213739459068813
  0
ARC
  5
1B2FE
330
1F
100
AcDbEntity
  8
10000_FRONT
  6
Continuous
 62
     7
370
    13
100
AcDbCircle
 10
4.250393812528045
 20
242.8065281073786
 30
0.0
 40
1.952467094817841
100
AcDbArc
 50
180.4200500959917
 51
315.6769315144013
  0
ARC
  5
1B2FF
330
1F
100
AcDbEntity
  8
10000_FRONT
  6
Continuous
 62
     7
370
    13
100
AcDbCircle
 10
4.096380352350053
 20
243.5454043198946
 30
0.0
 40
1.80008372177394
100
AcDbArc
 50
30.93352375192509
 51
180.1283367497423
  0
LINE
  5
1B300
330
1F
100
AcDbEntity
  8
10000_FRONT
  6
Continuous
 62
     7
370
    13
100
AcDbLine
 10
2.296301146216364
 20
243.5413723178361
 30
0.0
 11
2.297979187423919
 21
242.7922141971583
 31
0.0
  0
LINE
  5
1B301
330
1F
100
AcDbEntity
  8
10000_FRONT
  6
Continuous
 62
     7
370
    13
100
AcDbLine
 10
-4.903681076027851
 20
243.5253723375893
 30
0.0
 11
-4.902003034820296
 21
242.7762142169113
 31
0.0
  0
ARC
  5
1B302
330
1F
100
AcDbEntity
  8
10000_FRONT
  6
Continuous
 62
     7
370
    13
100
AcDbCircle
 10
-3.103601869894163
 20
243.5294043396477
 30
0.0
 40
1.80008372177394
100
AcDbArc
 50
30.93352375192509
 51
180.1283367497423
  0
ARC
  5
1B303
330
1F
100
AcDbEntity
  8
10000_FRONT
  6
Continuous
 62
     7
370
    13
100
AcDbCircle
 10
-2.94958840971617
 20
242.7905281271315
 30
0.0
 40
1.952467094817841
100
AcDbArc
 50
180.4200500959917
 51
315.6769315144013
  0
ARC
  5
1B304
330
1F
100
AcDbEntity
  8
10000_FRONT
  6
Continuous
 62
     7
370
    13
100
AcDbCircle
 10
-0.1483764672263987
 20
242.7802471742004
 30
0.0
 40
1.94574736661201
100
AcDbArc
 50
224.0929657473363
 51
0.3213739459068813
  0
ARC
  5
1B305
330
1F
100
AcDbEntity
  8
10000_FRONT
  6
Continuous
 62
     7
370
    13
100
AcDbCircle
 10
-0.0044037834357198
 20
243.5363188482234
 30
0.0
 40
1.80008372177394
100
AcDbArc
 50
0.1273239020783523
 51
149.3221368998964
  0
LINE
  5
1B306
330
1F
100
AcDbEntity
  8
10000_FRONT
  6
Continuous
 62
     7
370
    13
100
AcDbLine
 10
1.795675493692527
 20
243.5403190293333
 30
0.0
 11
1.797340291637226
 21
242.7911608791088
 31
0.0
  0
LINE
  5
1B307
330
1F
100
AcDbEntity
  8
10000_FRONT
  6
Continuous
 62
     7
370
    13
100
AcDbLine
 10
-1.552564841566265
 20
244.4547507622941
 30
0.0
 11
-1.555633366802709
 21
244.2650834750438
 31
0.0
  0
LINE
  5
1B308
330
1F
100
AcDbEntity
  8
10000_FRONT
  6
Continuous
 62
     7
370
    13
100
AcDbLine
 10
-1.554855589985152
 20
243.9150843392403
 30
0.0
 11
-1.555633366802709
 21
244.2650834750438
 31
0.0
  0
LINE
  5
1B309
330
1F
100
AcDbEntity
  8
10000_FRONT
  6
Continuous
 62
     7
370
    13
100
AcDbLine
 10
-1.554845523343232
 20
243.9150543615366
 30
0.0
 11
-1.54981730732868
 21
241.6523599484433
 31
0.0
  0
LINE
  5
1B30A
330
1F
100
AcDbEntity
  8
10000_FRONT
  6
Continuous
 62
     7
370
    13
100
AcDbLine
 10
-1.549315041282085
 20
241.4263405065166
 30
0.0
 11
-1.549817262884289
 21
241.6523399484926
 31
0.0
  0
LINE
  5
1B30B
330
1F
100
AcDbEntity
  8
10000_FRONT
  6
Continuous
 62
     7
370
    13
100
AcDbLine
 10
-12.10366329827195
 20
243.5093723573423
 30
0.0
 11
-12.1019852570644
 21
242.7602142366644
 31
0.0
  0
ARC
  5
1B30C
330
1F
100
AcDbEntity
  8
10000_FRONT
  6
Continuous
 62
     7
370
    13
100
AcDbCircle
 10
-10.30358409213826
 20
243.5134043594008
 30
0.0
 40
1.80008372177394
100
AcDbArc
 50
30.93352375192509
 51
180.1283367497423
  0
ARC
  5
1B30D
330
1F
100
AcDbEntity
  8
10000_FRONT
  6
Continuous
 62
     7
370
    13
100
AcDbCircle
 10
-10.14957063196027
 20
242.7745281468847
 30
0.0
 40
1.952467094817841
100
AcDbArc
 50
180.4200500959917
 51
315.6769315144013
  0
ARC
  5
1B30E
330
1F
100
AcDbEntity
  8
10000_FRONT
  6
Continuous
 62
     7
370
    13
100
AcDbCircle
 10
-7.348358689470501
 20
242.7642471939535
 30
0.0
 40
1.94574736661201
100
AcDbArc
 50
224.0929657473363
 51
0.3213739459068813
  0
ARC
  5
1B30F
330
1F
100
AcDbEntity
  8
10000_FRONT
  6
Continuous
 62
     7
370
    13
100
AcDbCircle
 10
-7.204386005679822
 20
243.5203188679764
 30
0.0
 40
1.80008372177394
100
AcDbArc
 50
0.1273239020783523
 51
149.3221368998964
  0
LINE
  5
1B310
330
1F
100
AcDbEntity
  8
10000_FRONT
  6
Continuous
 62
     7
370
    13
100
AcDbLine
 10
-5.404306728551574
 20
243.5243190490865
 30
0.0
 11
-5.402641930606876
 21
242.775160898862
 31
0.0
  0
LINE
  5
1B311
330
1F
100
AcDbEntity
  8
10000_FRONT
  6
Continuous
 62
     7
370
    13
100
AcDbLine
 10
-8.752547063810368
 20
244.4387507820472
 30
0.0
 11
-8.755615589046811
 21
244.2490834947971
 31
0.0
  0
LINE
  5
1B312
330
1F
100
AcDbEntity
  8
10000_FRONT
  6
Continuous
 62
     7
370
    13
100
AcDbLine
 10
-8.754837812229254
 20
243.8990843589934
 30
0.0
 11
-8.755615589046811
 21
244.2490834947971
 31
0.0
  0
LINE
  5
1B313
330
1F
100
AcDbEntity
  8
10000_FRONT
  6
Continuous
 62
     7
370
    13
100
AcDbLine
 10
-8.754827745587334
 20
243.8990543812896
 30
0.0
 11
-8.749799529572783
 21
241.6363599681963
 31
0.0
  0
LINE
  5
1B314
330
1F
100
AcDbEntity
  8
10000_FRONT
  6
Continuous
 62
     7
370
    13
100
AcDbLine
 10
-8.749297263526187
 20
241.4103405262697
 30
0.0
 11
-8.749799485128392
 21
241.6363399682456
 31
0.0
  0
ARC
  5
1B315
330
1F
100
AcDbEntity
  8
10000_FRONT
  6
Continuous
 62
     7
370
    13
100
AcDbCircle
 10
-9.081042366113337
 20
235.2903382047426
 30
0.0
 40
0.3046657281667571
100
AcDbArc
 50
91.0048002897588
 51
180.1273239020783
  0
ARC
  5
1B316
330
1F
100
AcDbEntity
  8
10000_FRONT
  6
Continuous
 62
     7
370
    13
100
AcDbCircle
 10
6.009588916689182
 20
235.3238729823275
 30
0.0
 40
0.3046657281667571
100
AcDbArc
 50
0.1273239020783523
 51
89.24984751440517
  0
ARC
  5
1B317
330
1F
100
AcDbEntity
  8
10000_FRONT
  6
Continuous
 62
     7
370
    13
100
AcDbCircle
 10
6.07629828700908
 20
175.2854396943572
 30
0.0
 40
0.3046657281667571
100
AcDbArc
 50
270.8774763876717
 51
0.0
  0
ARC
  5
1B318
330
1F
100
AcDbEntity
  8
10000_FRONT
  6
Continuous
 62
     7
370
    13
100
AcDbCircle
 10
-9.0143702566574
 20
175.2854396943572
 30
0.0
 40
0.3046657281667571
100
AcDbArc
 50
180.0
 51
269.1225236123177
  0
LINE
  5
1B319
330
1F
100
AcDbEntity
  8
10000_FRONT
  6
Continuous
 62
     7
370
    13
100
AcDbLine
 10
-8.669025984824145
 20
169.1661896943571
 30
0.0
 11
-8.669025984824145
 21
168.9401896943571
 31
0.0
  0
LINE
  5
1B31A
330
1F
100
AcDbEntity
  8
10000_FRONT
  6
Continuous
 62
     7
370
    13
100
AcDbLine
 10
-8.669025984824145
 20
166.6774696943573
 30
0.0
 11
-8.669025984824145
 21
168.9401696943573
 31
0.0
  0
LINE
  5
1B31B
330
1F
100
AcDbEntity
  8
10000_FRONT
  6
Continuous
 62
     7
370
    13
100
AcDbLine
 10
-8.669035984824176
 20
166.6774396943571
 30
0.0
 11
-8.669035984824176
 21
166.3274396943571
 31
0.0
  0
LINE
  5
1B31C
330
1F
100
AcDbEntity
  8
10000_FRONT
  6
Continuous
 62
     7
370
    13
100
AcDbLine
 10
-8.66554598482412
 20
166.1377796943571
 30
0.0
 11
-8.669035984824176
 21
166.3274396943571
 31
0.0
  0
LINE
  5
1B31D
330
1F
100
AcDbEntity
  8
10000_FRONT
  6
Continuous
 62
     7
370
    13
100
AcDbLine
 10
-5.319345984824167
 20
167.0596496943571
 30
0.0
 11
-5.319345984824167
 21
167.8088096943571
 31
0.0
  0
ARC
  5
1B31E
330
1F
100
AcDbEntity
  8
10000_FRONT
  6
Continuous
 62
     7
370
    13
100
AcDbCircle
 10
-7.119429706598111
 20
167.0596496943571
 30
0.0
 40
1.80008372177394
100
AcDbArc
 50
210.8051870021834
 51
0.0
  0
ARC
  5
1B31F
330
1F
100
AcDbEntity
  8
10000_FRONT
  6
Continuous
 62
     7
370
    13
100
AcDbCircle
 10
-7.265082192102454
 20
167.8153995626366
 30
0.0
 40
1.94574736661201
100
AcDbArc
 50
359.8059499561717
 51
136.0343581547405
  0
ARC
  5
1B320
330
1F
100
AcDbEntity
  8
10000_FRONT
  6
Continuous
 62
     7
370
    13
100
AcDbCircle
 10
-10.06626437149418
 20
167.7988937273477
 30
0.0
 40
1.952467094817841
100
AcDbArc
 50
44.45039238767095
 51
179.7072738060804
  0
ARC
  5
1B321
330
1F
100
AcDbEntity
  8
10000_FRONT
  6
Continuous
 62
     7
370
    13
100
AcDbCircle
 10
-10.21863550628069
 20
167.0596770875038
 30
0.0
 40
1.80008372177394
100
AcDbArc
 50
179.9989871523294
 51
329.1938001501467
  0
LINE
  5
1B322
330
1F
100
AcDbEntity
  8
10000_FRONT
  6
Continuous
 62
     7
370
    13
100
AcDbLine
 10
-12.01871922777337
 20
167.0597089085316
 30
0.0
 11
-12.01870598447752
 21
167.8088689084145
 31
0.0
  0
LINE
  5
1B323
330
1F
100
AcDbEntity
  8
10000_FRONT
  6
Continuous
 62
     7
370
    13
100
AcDbLine
 10
-1.469025984824213
 20
169.1661896943571
 30
0.0
 11
-1.469025984824213
 21
168.9401896943571
 31
0.0
  0
LINE
  5
1B324
330
1F
100
AcDbEntity
  8
10000_FRONT
  6
Continuous
 62
     7
370
    13
100
AcDbLine
 10
-1.469025984824213
 20
166.6774696943573
 30
0.0
 11
-1.469025984824213
 21
168.9401696943573
 31
0.0
  0
LINE
  5
1B325
330
1F
100
AcDbEntity
  8
10000_FRONT
  6
Continuous
 62
     7
370
    13
100
AcDbLine
 10
-1.469035984824245
 20
166.6774396943571
 30
0.0
 11
-1.469035984824245
 21
166.3274396943571
 31
0.0
  0
LINE
  5
1B326
330
1F
100
AcDbEntity
  8
10000_FRONT
  6
Continuous
 62
     7
370
    13
100
AcDbLine
 10
-1.465545984824188
 20
166.1377796943571
 30
0.0
 11
-1.469035984824245
 21
166.3274396943571
 31
0.0
  0
LINE
  5
1B327
330
1F
100
AcDbEntity
  8
10000_FRONT
  6
Continuous
 62
     7
370
    13
100
AcDbLine
 10
1.880654015175764
 20
167.0596496943571
 30
0.0
 11
1.880654015175764
 21
167.8088096943571
 31
0.0
  0
ARC
  5
1B328
330
1F
100
AcDbEntity
  8
10000_FRONT
  6
Continuous
 62
     7
370
    13
100
AcDbCircle
 10
0.08057029340182
 20
167.0596496943571
 30
0.0
 40
1.80008372177394
100
AcDbArc
 50
210.8051870021834
 51
0.0
  0
ARC
  5
1B329
330
1F
100
AcDbEntity
  8
10000_FRONT
  6
Continuous
 62
     7
370
    13
100
AcDbCircle
 10
-0.0650821921024942
 20
167.8153995626366
 30
0.0
 40
1.94574736661201
100
AcDbArc
 50
359.8059499561717
 51
136.0343581547405
  0
ARC
  5
1B32A
330
1F
100
AcDbEntity
  8
10000_FRONT
  6
Continuous
 62
     7
370
    13
100
AcDbCircle
 10
-2.866264371494253
 20
167.7988937273477
 30
0.0
 40
1.952467094817841
100
AcDbArc
 50
44.45039238767095
 51
179.7072738060804
  0
ARC
  5
1B32B
330
1F
100
AcDbEntity
  8
10000_FRONT
  6
Continuous
 62
     7
370
    13
100
AcDbCircle
 10
-3.018635506280759
 20
167.0596770875038
 30
0.0
 40
1.80008372177394
100
AcDbArc
 50
179.9989871523294
 51
329.1938001501467
  0
LINE
  5
1B32C
330
1F
100
AcDbEntity
  8
10000_FRONT
  6
Continuous
 62
     7
370
    13
100
AcDbLine
 10
-4.818719227773442
 20
167.0597089085316
 30
0.0
 11
-4.818705984477588
 21
167.8088689084145
 31
0.0
  0
LINE
  5
1B32D
330
1F
100
AcDbEntity
  8
10000_FRONT
  6
Continuous
 62
     7
370
    13
100
AcDbLine
 10
2.381280772226631
 20
167.0597089085316
 30
0.0
 11
2.381294015522456
 21
167.8088689084145
 31
0.0
  0
ARC
  5
1B32E
330
1F
100
AcDbEntity
  8
10000_FRONT
  6
Continuous
 62
     7
370
    13
100
AcDbCircle
 10
4.181364493719286
 20
167.0596770875038
 30
0.0
 40
1.80008372177394
100
AcDbArc
 50
179.9989871523294
 51
329.1938001501467
  0
ARC
  5
1B32F
330
1F
100
AcDbEntity
  8
10000_FRONT
  6
Continuous
 62
     7
370
    13
100
AcDbCircle
 10
4.333735628505792
 20
167.7988937273477
 30
0.0
 40
1.952467094817841
100
AcDbArc
 50
44.45039238767095
 51
179.7072738060804
  0
ARC
  5
1B330
330
1F
100
AcDbEntity
  8
10000_FRONT
  6
Continuous
 62
     7
370
    13
100
AcDbCircle
 10
7.134917807897551
 20
167.8153995626366
 30
0.0
 40
1.94574736661201
100
AcDbArc
 50
359.8059499561717
 51
136.0343581547405
  0
ARC
  5
1B331
330
1F
100
AcDbEntity
  8
10000_FRONT
  6
Continuous
 62
     7
370
    13
100
AcDbCircle
 10
7.280570293401865
 20
167.0596496943571
 30
0.0
 40
1.80008372177394
100
AcDbArc
 50
210.8051870021834
 51
0.0
  0
LINE
  5
1B332
330
1F
100
AcDbEntity
  8
10000_FRONT
  6
Continuous
 62
     7
370
    13
100
AcDbLine
 10
-5.469035984824131
 20
170.5588096943571
 30
0.0
 11
-8.519035984824142
 21
170.5588096943571
 31
0.0
  0
LINE
  5
1B333
330
1F
100
AcDbEntity
  8
10000_FRONT
  6
Continuous
 62
     7
370
    13
100
AcDbLine
 10
-8.519035984824142
 20
170.5588096943571
 30
0.0
 11
-8.519035984824142
 21
174.1985596943571
 31
0.0
  0
LINE
  5
1B334
330
1F
100
AcDbEntity
  8
10000_FRONT
  6
Continuous
 62
     7
370
    13
100
AcDbLine
 10
-8.819035984824154
 20
170.5588096943571
 30
0.0
 11
-11.86903598482411
 21
170.5588096943571
 31
0.0
  0
LINE
  5
1B335
330
1F
100
AcDbEntity
  8
10000_FRONT
  6
Continuous
 62
     7
370
    13
100
AcDbLine
 10
-8.819035984824154
 20
174.1985596943571
 30
0.0
 11
-8.819035984824154
 21
170.5588096943571
 31
0.0
  0
LINE
  5
1B336
330
1F
100
AcDbEntity
  8
10000_FRONT
  6
Continuous
 62
     7
370
    13
100
AcDbLine
 10
-11.86903598482411
 20
170.5588096943571
 30
0.0
 11
-11.86903598482411
 21
174.1985596943571
 31
0.0
  0
LINE
  5
1B337
330
1F
100
AcDbEntity
  8
10000_FRONT
  6
Continuous
 62
     7
370
    13
100
AcDbLine
 10
-5.469035984824131
 20
174.1985596943571
 30
0.0
 11
-5.469035984824131
 21
170.5588096943571
 31
0.0
  0
LINE
  5
1B338
330
1F
100
AcDbEntity
  8
10000_FRONT
  6
Continuous
 62
     7
370
    13
100
AcDbLine
 10
1.7309640151758
 20
170.5588096943571
 30
0.0
 11
-1.319035984824211
 21
170.5588096943571
 31
0.0
  0
LINE
  5
1B339
330
1F
100
AcDbEntity
  8
10000_FRONT
  6
Continuous
 62
     7
370
    13
100
AcDbLine
 10
-1.319035984824211
 20
170.5588096943571
 30
0.0
 11
-1.319035984824211
 21
174.1985596943571
 31
0.0
  0
LINE
  5
1B33A
330
1F
100
AcDbEntity
  8
10000_FRONT
  6
Continuous
 62
     7
370
    13
100
AcDbLine
 10
-1.619035984824222
 20
170.5588096943571
 30
0.0
 11
-4.669035984824176
 21
170.5588096943571
 31
0.0
  0
LINE
  5
1B33B
330
1F
100
AcDbEntity
  8
10000_FRONT
  6
Continuous
 62
     7
370
    13
100
AcDbLine
 10
-1.619035984824222
 20
174.1985596943571
 30
0.0
 11
-1.619035984824222
 21
170.5588096943571
 31
0.0
  0
LINE
  5
1B33C
330
1F
100
AcDbEntity
  8
10000_FRONT
  6
Continuous
 62
     7
370
    13
100
AcDbLine
 10
-4.669035984824176
 20
170.5588096943571
 30
0.0
 11
-4.669035984824176
 21
174.1985596943571
 31
0.0
  0
LINE
  5
1B33D
330
1F
100
AcDbEntity
  8
10000_FRONT
  6
Continuous
 62
     7
370
    13
100
AcDbLine
 10
1.7309640151758
 20
174.1985596943571
 30
0.0
 11
1.7309640151758
 21
170.5588096943571
 31
0.0
  0
LINE
  5
1B33F
330
1F
100
AcDbEntity
  8
11000_Left
  6
Continuous
 62
     7
370
    50
100
AcDbLine
 10
143.4075472306795
 20
246.4088096943571
 30
0.0
 11
143.4075472306795
 21
246.4088096943571
 31
0.0
  0
ARC
  5
1B340
330
1F
100
AcDbEntity
  8
11000_Left
  6
Continuous
 62
     7
370
    50
100
AcDbCircle
 10
141.8723182374077
 20
246.7685573740331
 30
0.0
 40
0.2801105918978766
100
AcDbArc
 50
258.9930430759621
 51
334.5595959135815
  0
LINE
  5
1B341
330
1F
100
AcDbEntity
  8
11000_Left
  6
Continuous
 62
     7
370
    50
100
AcDbLine
 10
143.4075472306795
 20
244.1504096943573
 30
0.0
 11
143.4075472306795
 21
248.4088096943571
 31
0.0
  0
LINE
  5
1B342
330
1F
100
AcDbEntity
  8
11000_Left
  6
Continuous
 62
     7
370
    50
100
AcDbLine
 10
142.7660672306795
 20
248.4088096943571
 30
0.0
 11
142.2201172306795
 21
246.9088096943571
 31
0.0
  0
LINE
  5
1B343
330
1F
100
AcDbEntity
  8
11000_Left
  6
Continuous
 62
     7
370
    50
100
AcDbLine
 10
142.1252672306795
 20
246.6482296943571
 30
0.0
 11
142.2201172306795
 21
246.9088096943571
 31
0.0
  0
LINE
  5
1B344
330
1F
100
AcDbEntity
  8
11000_Left
  6
Continuous
 62
     7
370
    50
100
AcDbLine
 10
141.8188372306795
 20
246.4935996943573
 30
0.0
 11
134.1075472306795
 21
247.5088096943571
 31
0.0
  0
POLYLINE
  5
1B345
330
1F
100
AcDbEntity
  8
11000_Left
  6
Continuous
 62
     7
370
    50
100
AcDb2dPolyline
 66
     1
 10
0.0
 20
0.0
 30
0.0
 70
     2
  0
VERTEX
  5
1B346
330
1B345
100
AcDbEntity
  8
11000_Left
  6
Continuous
 62
     7
370
    50
100
AcDbVertex
100
AcDb2dVertex
 10
143.4075572306795
 20
245.3579196943573
 30
0.0
  0
VERTEX
  5
1B347
330
1B345
100
AcDbEntity
  8
11000_Left
  6
Continuous
 62
     7
370
    50
100
AcDbVertex
100
AcDb2dVertex
 10
143.4075572306795
 20
245.3579196943573
 30
0.0
 42
0.0018930174
 70
     1
  0
VERTEX
  5
1B348
330
1B345
100
AcDbEntity
  8
11000_Left
  6
Continuous
 62
     7
370
    50
100
AcDbVertex
100
AcDb2dVertex
 10
143.4075572306795
 20
245.3579196943573
 30
0.0
 42
0.001892598
  0
VERTEX
  5
1B349
330
1B345
100
AcDbEntity
  8
11000_Left
  6
Continuous
 62
     7
370
    50
100
AcDbVertex
100
AcDb2dVertex
 10
143.4075572306795
 20
245.3579196943573
 30
0.0
 42
0.0018978387
 70
     1
  0
VERTEX
  5
1B34A
330
1B345
100
AcDbEntity
  8
11000_Left
  6
Continuous
 62
     7
370
    50
100
AcDbVertex
100
AcDb2dVertex
 10
143.4075672306795
 20
245.3579196943573
 30
0.0
 42
0.0019076272
  0
VERTEX
  5
1B34B
330
1B345
100
AcDbEntity
  8
11000_Left
  6
Continuous
 62
     7
370
    50
100
AcDbVertex
100
AcDb2dVertex
 10
143.4075672306795
 20
245.3579196943573
 30
0.0
 42
0.0019136078
 70
     1
  0
VERTEX
  5
1B34C
330
1B345
100
AcDbEntity
  8
11000_Left
  6
Continuous
 62
     7
370
    50
100
AcDbVertex
100
AcDb2dVertex
 10
143.4075672306795
 20
245.3579196943573
 30
0.0
 42
0.001917621
  0
VERTEX
  5
1B34D
330
1B345
100
AcDbEntity
  8
11000_Left
  6
Continuous
 62
     7
370
    50
100
AcDbVertex
100
AcDb2dVertex
 10
143.4075672306795
 20
245.3579196943573
 30
0.0
 42
0.0019199693
 70
     1
  0
VERTEX
  5
1B34E
330
1B345
100
AcDbEntity
  8
11000_Left
  6
Continuous
 62
     7
370
    50
100
AcDbVertex
100
AcDb2dVertex
 10
143.4075672306795
 20
245.3579196943573
 30
0.0
 42
0.001921742
  0
VERTEX
  5
1B34F
330
1B345
100
AcDbEntity
  8
11000_Left
  6
Continuous
 62
     7
370
    50
100
AcDbVertex
100
AcDb2dVertex
 10
143.4075672306795
 20
245.3579196943573
 30
0.0
 42
0.001921372
 70
     1
  0
VERTEX
  5
1B350
330
1B345
100
AcDbEntity
  8
11000_Left
  6
Continuous
 62
     7
370
    50
100
AcDbVertex
100
AcDb2dVertex
 10
143.4075672306795
 20
245.3579196943573
 30
0.0
 42
0.001920125
  0
VERTEX
  5
1B351
330
1B345
100
AcDbEntity
  8
11000_Left
  6
Continuous
 62
     7
370
    50
100
AcDbVertex
100
AcDb2dVertex
 10
143.4075672306795
 20
245.3579196943573
 30
0.0
 42
0.0019168676
 70
     1
  0
VERTEX
  5
1B352
330
1B345
100
AcDbEntity
  8
11000_Left
  6
Continuous
 62
     7
370
    50
100
AcDbVertex
100
AcDb2dVertex
 10
143.4075772306795
 20
245.3579196943573
 30
0.0
 42
0.0019128027
  0
VERTEX
  5
1B353
330
1B345
100
AcDbEntity
  8
11000_Left
  6
Continuous
 62
     7
370
    50
100
AcDbVertex
100
AcDb2dVertex
 10
143.4075772306795
 20
245.3579196943573
 30
0.0
 42
0.0019067531
 70
     1
  0
VERTEX
  5
1B354
330
1B345
100
AcDbEntity
  8
11000_Left
  6
Continuous
 62
     7
370
    50
100
AcDbVertex
100
AcDb2dVertex
 10
143.4075772306795
 20
245.3579196943573
 30
0.0
 42
0.0018999024
  0
VERTEX
  5
1B355
330
1B345
100
AcDbEntity
  8
11000_Left
  6
Continuous
 62
     7
370
    50
100
AcDbVertex
100
AcDb2dVertex
 10
143.4075772306795
 20
245.3579196943573
 30
0.0
 42
0.0018911408
 70
     1
  0
VERTEX
  5
1B356
330
1B345
100
AcDbEntity
  8
11000_Left
  6
Continuous
 62
     7
370
    50
100
AcDbVertex
100
AcDb2dVertex
 10
143.4075772306795
 20
245.3579196943573
 30
0.0
 42
0.0018816357
  0
VERTEX
  5
1B357
330
1B345
100
AcDbEntity
  8
11000_Left
  6
Continuous
 62
     7
370
    50
100
AcDbVertex
100
AcDb2dVertex
 10
143.4075772306795
 20
245.3579196943573
 30
0.0
 42
0.0018702334
 70
     1
  0
VERTEX
  5
1B358
330
1B345
100
AcDbEntity
  8
11000_Left
  6
Continuous
 62
     7
370
    50
100
AcDbVertex
100
AcDb2dVertex
 10
143.4075772306795
 20
245.3579196943573
 30
0.0
 42
0.0018580719
  0
VERTEX
  5
1B359
330
1B345
100
AcDbEntity
  8
11000_Left
  6
Continuous
 62
     7
370
    50
100
AcDbVertex
100
AcDb2dVertex
 10
143.4075772306795
 20
245.3579196943573
 30
0.0
 42
0.0018443386
 70
     1
  0
VERTEX
  5
1B35A
330
1B345
100
AcDbEntity
  8
11000_Left
  6
Continuous
 62
     7
370
    50
100
AcDbVertex
100
AcDb2dVertex
 10
143.4075872306795
 20
245.3579196943573
 30
0.0
 42
0.0018301098
  0
VERTEX
  5
1B35B
330
1B345
100
AcDbEntity
  8
11000_Left
  6
Continuous
 62
     7
370
    50
100
AcDbVertex
100
AcDb2dVertex
 10
143.4075872306795
 20
245.3579196943573
 30
0.0
 42
0.0018136087
 70
     1
  0
VERTEX
  5
1B35C
330
1B345
100
AcDbEntity
  8
11000_Left
  6
Continuous
 62
     7
370
    50
100
AcDbVertex
100
AcDb2dVertex
 10
143.4075872306795
 20
245.3579196943573
 30
0.0
 42
0.001795962
  0
VERTEX
  5
1B35D
330
1B345
100
AcDbEntity
  8
11000_Left
  6
Continuous
 62
     7
370
    50
100
AcDbVertex
100
AcDb2dVertex
 10
143.4075872306795
 20
245.3579196943573
 30
0.0
 42
0.0017789766
 70
     1
  0
VERTEX
  5
1B35E
330
1B345
100
AcDbEntity
  8
11000_Left
  6
Continuous
 62
     7
370
    50
100
AcDbVertex
100
AcDb2dVertex
 10
143.4075872306795
 20
245.3579196943573
 30
0.0
 42
0.0017632677
  0
VERTEX
  5
1B35F
330
1B345
100
AcDbEntity
  8
11000_Left
  6
Continuous
 62
     7
370
    50
100
AcDbVertex
100
AcDb2dVertex
 10
143.4075872306795
 20
245.3579196943573
 30
0.0
 42
0.0017387211
 70
     1
  0
VERTEX
  5
1B360
330
1B345
100
AcDbEntity
  8
11000_Left
  6
Continuous
 62
     7
370
    50
100
AcDbVertex
100
AcDb2dVertex
 10
143.4075872306795
 20
245.3579196943573
 30
0.0
 42
0.001707789
  0
VERTEX
  5
1B361
330
1B345
100
AcDbEntity
  8
11000_Left
  6
Continuous
 62
     7
370
    50
100
AcDbVertex
100
AcDb2dVertex
 10
143.4075872306795
 20
245.3579196943573
 30
0.0
 42
0.0017005799
 70
     1
  0
VERTEX
  5
1B362
330
1B345
100
AcDbEntity
  8
11000_Left
  6
Continuous
 62
     7
370
    50
100
AcDbVertex
100
AcDb2dVertex
 10
143.4075972306795
 20
245.3579196943573
 30
0.0
 42
0.001711534
  0
VERTEX
  5
1B363
330
1B345
100
AcDbEntity
  8
11000_Left
  6
Continuous
 62
     7
370
    50
100
AcDbVertex
100
AcDb2dVertex
 10
143.4075972306795
 20
245.3579196943573
 30
0.0
 42
0.001639871
 70
     1
  0
VERTEX
  5
1B364
330
1B345
100
AcDbEntity
  8
11000_Left
  6
Continuous
 62
     7
370
    50
100
AcDbVertex
100
AcDb2dVertex
 10
143.4075972306795
 20
245.3579196943573
 30
0.0
 42
0.0015113761
  0
VERTEX
  5
1B365
330
1B345
100
AcDbEntity
  8
11000_Left
  6
Continuous
 62
     7
370
    50
100
AcDbVertex
100
AcDb2dVertex
 10
143.4075972306795
 20
245.3579196943573
 30
0.0
 42
0.001641966
 70
     1
  0
VERTEX
  5
1B366
330
1B345
100
AcDbEntity
  8
11000_Left
  6
Continuous
 62
     7
370
    50
100
AcDbVertex
100
AcDb2dVertex
 10
143.4075972306795
 20
245.3579196943573
 30
0.0
 42
0.0019196057
  0
VERTEX
  5
1B367
330
1B345
100
AcDbEntity
  8
11000_Left
  6
Continuous
 62
     7
370
    50
100
AcDbVertex
100
AcDb2dVertex
 10
143.4075972306795
 20
245.3579196943573
 30
0.0
 42
0.0014342492
 70
     1
  0
VERTEX
  5
1B368
330
1B345
100
AcDbEntity
  8
11000_Left
  6
Continuous
 62
     7
370
    50
100
AcDbVertex
100
AcDb2dVertex
 10
143.4075972306795
 20
245.3579196943573
 30
0.0
 42
0.0004972202
  0
VERTEX
  5
1B369
330
1B345
100
AcDbEntity
  8
11000_Left
  6
Continuous
 62
     7
370
    50
100
AcDbVertex
100
AcDb2dVertex
 10
143.4076072306795
 20
245.3579196943573
 30
0.0
 42
0.0019749636
 70
     1
  0
VERTEX
  5
1B36A
330
1B345
100
AcDbEntity
  8
11000_Left
  6
Continuous
 62
     7
370
    50
100
AcDbVertex
100
AcDb2dVertex
 10
143.4076072306795
 20
245.3579196943573
 30
0.0
 42
0.003278378
  0
VERTEX
  5
1B36B
330
1B345
100
AcDbEntity
  8
11000_Left
  6
Continuous
 62
     7
370
    50
100
AcDbVertex
100
AcDb2dVertex
 10
143.4076072306795
 20
245.3579296943571
 30
0.0
 42
0.0015605207
 70
     1
  0
VERTEX
  5
1B36C
330
1B345
100
AcDbEntity
  8
11000_Left
  6
Continuous
 62
     7
370
    50
100
AcDbVertex
100
AcDb2dVertex
 10
143.4076072306795
 20
245.3579296943571
 30
0.0
 42
0.0008187339
  0
SEQEND
  5
1B36D
330
1B345
100
AcDbEntity
  8
11000_Left
  6
Continuous
 62
     7
370
    50
  0
LINE
  5
1B36E
330
1F
100
AcDbEntity
  8
11000_Left
  6
Continuous
 62
     7
370
    50
100
AcDbLine
 10
143.4075472306795
 20
248.4088096943571
 30
0.0
 11
142.7660672306795
 21
248.4088096943571
 31
0.0
  0
LINE
  5
1B370
330
1F
100
AcDbEntity
  8
11000_Left
  6
Continuous
 62
     7
370
    50
100
AcDbLine
 10
134.1075472306795
 20
247.5088096943571
 30
0.0
 11
123.9075472306795
 21
247.5088096943571
 31
0.0
  0
LINE
  5
1B371
330
1F
100
AcDbEntity
  8
11000_Left
  6
Continuous
 62
     7
370
    50
100
AcDbLine
 10
114.7728172306795
 20
245.8981096943571
 30
0.0
 11
123.9075472306795
 21
247.5088096943571
 31
0.0
  0
ARC
  5
1B372
330
1F
100
AcDbEntity
  8
11000_Left
  6
Continuous
 62
     7
370
    50
100
AcDbCircle
 10
114.8424447647568
 20
245.6732329371133
 30
0.0
 40
0.2354093232014273
100
AcDbArc
 50
107.2038477988495
 51
176.2212336466435
  0
LINE
  5
1B3D7
330
1F
100
AcDbEntity
  8
11000_Left
  6
Continuous
 62
     7
370
    50
100
AcDbLine
 10
143.4075472306795
 20
178.008809694357
 30
0.0
 11
143.4075472306795
 21
168.4252596943569
 31
0.0
  0
ARC
  5
1B3D8
330
1F
100
AcDbEntity
  8
11000_Left
  6
Continuous
 62
     7
370
    50
100
AcDbCircle
 10
114.8424447647568
 20
164.9443864516008
 30
0.0
 40
0.2354093232014273
100
AcDbArc
 50
183.7787663533565
 51
252.7961522011505
  0
LINE
  5
1B3D9
330
1F
100
AcDbEntity
  8
11000_Left
  6
Continuous
 62
     7
370
    50
100
AcDbLine
 10
114.7728172306795
 20
164.7195096943571
 30
0.0
 11
123.9075472306795
 21
163.1088096943571
 31
0.0
  0
LINE
  5
1B3DA
330
1F
100
AcDbEntity
  8
11000_Left
  6
Continuous
 62
     7
370
    50
100
AcDbLine
 10
134.1075472306795
 20
163.1088096943571
 30
0.0
 11
123.9075472306795
 21
163.1088096943571
 31
0.0
  0
LINE
  5
1B3DB
330
1F
100
AcDbEntity
  8
11000_Left
  6
Continuous
 62
     7
370
    50
100
AcDbLine
 10
143.4075472306795
 20
162.3821596943571
 30
0.0
 11
143.4075472306795
 21
162.2088096943571
 31
0.0
  0
LINE
  5
1B3DC
330
1F
100
AcDbEntity
  8
11000_Left
  6
Continuous
 62
     7
370
    50
100
AcDbLine
 10
143.4075472306795
 20
162.2088096943571
 30
0.0
 11
142.7660672306795
 21
162.2088096943571
 31
0.0
  0
POLYLINE
  5
1B3DD
330
1F
100
AcDbEntity
  8
11000_Left
  6
Continuous
 62
     7
370
    50
100
AcDb2dPolyline
 66
     1
 10
0.0
 20
0.0
 30
0.0
 70
     2
  0
VERTEX
  5
1B3DE
330
1B3DD
100
AcDbEntity
  8
11000_Left
  6
Continuous
 62
     7
370
    50
100
AcDbVertex
100
AcDb2dVertex
 10
143.4075572306795
 20
165.2596996943571
 30
0.0
  0
VERTEX
  5
1B3DF
330
1B3DD
100
AcDbEntity
  8
11000_Left
  6
Continuous
 62
     7
370
    50
100
AcDbVertex
100
AcDb2dVertex
 10
143.4075572306795
 20
165.2596996943571
 30
0.0
 42
-0.0018930174
 70
     1
  0
VERTEX
  5
1B3E0
330
1B3DD
100
AcDbEntity
  8
11000_Left
  6
Continuous
 62
     7
370
    50
100
AcDbVertex
100
AcDb2dVertex
 10
143.4075572306795
 20
165.2596996943571
 30
0.0
 42
-0.001892598
  0
VERTEX
  5
1B3E1
330
1B3DD
100
AcDbEntity
  8
11000_Left
  6
Continuous
 62
     7
370
    50
100
AcDbVertex
100
AcDb2dVertex
 10
143.4075572306795
 20
165.2596996943571
 30
0.0
 42
-0.0018978387
 70
     1
  0
VERTEX
  5
1B3E2
330
1B3DD
100
AcDbEntity
  8
11000_Left
  6
Continuous
 62
     7
370
    50
100
AcDbVertex
100
AcDb2dVertex
 10
143.4075672306795
 20
165.2596996943571
 30
0.0
 42
-0.0019076272
  0
VERTEX
  5
1B3E3
330
1B3DD
100
AcDbEntity
  8
11000_Left
  6
Continuous
 62
     7
370
    50
100
AcDbVertex
100
AcDb2dVertex
 10
143.4075672306795
 20
165.2596996943571
 30
0.0
 42
-0.0019136078
 70
     1
  0
VERTEX
  5
1B3E4
330
1B3DD
100
AcDbEntity
  8
11000_Left
  6
Continuous
 62
     7
370
    50
100
AcDbVertex
100
AcDb2dVertex
 10
143.4075672306795
 20
165.2596996943571
 30
0.0
 42
-0.001917621
  0
VERTEX
  5
1B3E5
330
1B3DD
100
AcDbEntity
  8
11000_Left
  6
Continuous
 62
     7
370
    50
100
AcDbVertex
100
AcDb2dVertex
 10
143.4075672306795
 20
165.2596996943571
 30
0.0
 42
-0.0019199693
 70
     1
  0
VERTEX
  5
1B3E6
330
1B3DD
100
AcDbEntity
  8
11000_Left
  6
Continuous
 62
     7
370
    50
100
AcDbVertex
100
AcDb2dVertex
 10
143.4075672306795
 20
165.2596996943571
 30
0.0
 42
-0.001921742
  0
VERTEX
  5
1B3E7
330
1B3DD
100
AcDbEntity
  8
11000_Left
  6
Continuous
 62
     7
370
    50
100
AcDbVertex
100
AcDb2dVertex
 10
143.4075672306795
 20
165.2596996943571
 30
0.0
 42
-0.001921372
 70
     1
  0
VERTEX
  5
1B3E8
330
1B3DD
100
AcDbEntity
  8
11000_Left
  6
Continuous
 62
     7
370
    50
100
AcDbVertex
100
AcDb2dVertex
 10
143.4075672306795
 20
165.2596996943571
 30
0.0
 42
-0.001920125
  0
VERTEX
  5
1B3E9
330
1B3DD
100
AcDbEntity
  8
11000_Left
  6
Continuous
 62
     7
370
    50
100
AcDbVertex
100
AcDb2dVertex
 10
143.4075672306795
 20
165.2596996943571
 30
0.0
 42
-0.0019168676
 70
     1
  0
VERTEX
  5
1B3EA
330
1B3DD
100
AcDbEntity
  8
11000_Left
  6
Continuous
 62
     7
370
    50
100
AcDbVertex
100
AcDb2dVertex
 10
143.4075772306795
 20
165.2596996943571
 30
0.0
 42
-0.0019128027
  0
VERTEX
  5
1B3EB
330
1B3DD
100
AcDbEntity
  8
11000_Left
  6
Continuous
 62
     7
370
    50
100
AcDbVertex
100
AcDb2dVertex
 10
143.4075772306795
 20
165.2596996943571
 30
0.0
 42
-0.0019067531
 70
     1
  0
VERTEX
  5
1B3EC
330
1B3DD
100
AcDbEntity
  8
11000_Left
  6
Continuous
 62
     7
370
    50
100
AcDbVertex
100
AcDb2dVertex
 10
143.4075772306795
 20
165.2596996943571
 30
0.0
 42
-0.0018999024
  0
VERTEX
  5
1B3ED
330
1B3DD
100
AcDbEntity
  8
11000_Left
  6
Continuous
 62
     7
370
    50
100
AcDbVertex
100
AcDb2dVertex
 10
143.4075772306795
 20
165.2596996943571
 30
0.0
 42
-0.0018911408
 70
     1
  0
VERTEX
  5
1B3EE
330
1B3DD
100
AcDbEntity
  8
11000_Left
  6
Continuous
 62
     7
370
    50
100
AcDbVertex
100
AcDb2dVertex
 10
143.4075772306795
 20
165.2596996943571
 30
0.0
 42
-0.0018816357
  0
VERTEX
  5
1B3EF
330
1B3DD
100
AcDbEntity
  8
11000_Left
  6
Continuous
 62
     7
370
    50
100
AcDbVertex
100
AcDb2dVertex
 10
143.4075772306795
 20
165.2596996943571
 30
0.0
 42
-0.0018702334
 70
     1
  0
VERTEX
  5
1B3F0
330
1B3DD
100
AcDbEntity
  8
11000_Left
  6
Continuous
 62
     7
370
    50
100
AcDbVertex
100
AcDb2dVertex
 10
143.4075772306795
 20
165.2596996943571
 30
0.0
 42
-0.0018580719
  0
VERTEX
  5
1B3F1
330
1B3DD
100
AcDbEntity
  8
11000_Left
  6
Continuous
 62
     7
370
    50
100
AcDbVertex
100
AcDb2dVertex
 10
143.4075772306795
 20
165.2596996943571
 30
0.0
 42
-0.0018443386
 70
     1
  0
VERTEX
  5
1B3F2
330
1B3DD
100
AcDbEntity
  8
11000_Left
  6
Continuous
 62
     7
370
    50
100
AcDbVertex
100
AcDb2dVertex
 10
143.4075872306795
 20
165.2596996943571
 30
0.0
 42
-0.0018301098
  0
VERTEX
  5
1B3F3
330
1B3DD
100
AcDbEntity
  8
11000_Left
  6
Continuous
 62
     7
370
    50
100
AcDbVertex
100
AcDb2dVertex
 10
143.4075872306795
 20
165.2596996943571
 30
0.0
 42
-0.0018136087
 70
     1
  0
VERTEX
  5
1B3F4
330
1B3DD
100
AcDbEntity
  8
11000_Left
  6
Continuous
 62
     7
370
    50
100
AcDbVertex
100
AcDb2dVertex
 10
143.4075872306795
 20
165.2596996943571
 30
0.0
 42
-0.001795962
  0
VERTEX
  5
1B3F5
330
1B3DD
100
AcDbEntity
  8
11000_Left
  6
Continuous
 62
     7
370
    50
100
AcDbVertex
100
AcDb2dVertex
 10
143.4075872306795
 20
165.2596996943571
 30
0.0
 42
-0.0017789766
 70
     1
  0
VERTEX
  5
1B3F6
330
1B3DD
100
AcDbEntity
  8
11000_Left
  6
Continuous
 62
     7
370
    50
100
AcDbVertex
100
AcDb2dVertex
 10
143.4075872306795
 20
165.2596996943571
 30
0.0
 42
-0.0017632677
  0
VERTEX
  5
1B3F7
330
1B3DD
100
AcDbEntity
  8
11000_Left
  6
Continuous
 62
     7
370
    50
100
AcDbVertex
100
AcDb2dVertex
 10
143.4075872306795
 20
165.2596996943571
 30
0.0
 42
-0.0017387211
 70
     1
  0
VERTEX
  5
1B3F8
330
1B3DD
100
AcDbEntity
  8
11000_Left
  6
Continuous
 62
     7
370
    50
100
AcDbVertex
100
AcDb2dVertex
 10
143.4075872306795
 20
165.2596996943571
 30
0.0
 42
-0.001707789
  0
VERTEX
  5
1B3F9
330
1B3DD
100
AcDbEntity
  8
11000_Left
  6
Continuous
 62
     7
370
    50
100
AcDbVertex
100
AcDb2dVertex
 10
143.4075872306795
 20
165.2596996943571
 30
0.0
 42
-0.0017005799
 70
     1
  0
VERTEX
  5
1B3FA
330
1B3DD
100
AcDbEntity
  8
11000_Left
  6
Continuous
 62
     7
370
    50
100
AcDbVertex
100
AcDb2dVertex
 10
143.4075972306795
 20
165.2596996943571
 30
0.0
 42
-0.001711534
  0
VERTEX
  5
1B3FB
330
1B3DD
100
AcDbEntity
  8
11000_Left
  6
Continuous
 62
     7
370
    50
100
AcDbVertex
100
AcDb2dVertex
 10
143.4075972306795
 20
165.2596996943571
 30
0.0
 42
-0.001639871
 70
     1
  0
VERTEX
  5
1B3FC
330
1B3DD
100
AcDbEntity
  8
11000_Left
  6
Continuous
 62
     7
370
    50
100
AcDbVertex
100
AcDb2dVertex
 10
143.4075972306795
 20
165.2596996943571
 30
0.0
 42
-0.0015113761
  0
VERTEX
  5
1B3FD
330
1B3DD
100
AcDbEntity
  8
11000_Left
  6
Continuous
 62
     7
370
    50
100
AcDbVertex
100
AcDb2dVertex
 10
143.4075972306795
 20
165.2596996943571
 30
0.0
 42
-0.001641966
 70
     1
  0
VERTEX
  5
1B3FE
330
1B3DD
100
AcDbEntity
  8
11000_Left
  6
Continuous
 62
     7
370
    50
100
AcDbVertex
100
AcDb2dVertex
 10
143.4075972306795
 20
165.2596996943571
 30
0.0
 42
-0.0019196057
  0
VERTEX
  5
1B3FF
330
1B3DD
100
AcDbEntity
  8
11000_Left
  6
Continuous
 62
     7
370
    50
100
AcDbVertex
100
AcDb2dVertex
 10
143.4075972306795
 20
165.2596996943571
 30
0.0
 42
-0.0014342492
 70
     1
  0
VERTEX
  5
1B400
330
1B3DD
100
AcDbEntity
  8
11000_Left
  6
Continuous
 62
     7
370
    50
100
AcDbVertex
100
AcDb2dVertex
 10
143.4075972306795
 20
165.2596996943571
 30
0.0
 42
-0.0004972202
  0
VERTEX
  5
1B401
330
1B3DD
100
AcDbEntity
  8
11000_Left
  6
Continuous
 62
     7
370
    50
100
AcDbVertex
100
AcDb2dVertex
 10
143.4076072306795
 20
165.2596996943571
 30
0.0
 42
-0.0019749636
 70
     1
  0
VERTEX
  5
1B402
330
1B3DD
100
AcDbEntity
  8
11000_Left
  6
Continuous
 62
     7
370
    50
100
AcDbVertex
100
AcDb2dVertex
 10
143.4076072306795
 20
165.2596996943571
 30
0.0
 42
-0.003278378
  0
VERTEX
  5
1B403
330
1B3DD
100
AcDbEntity
  8
11000_Left
  6
Continuous
 62
     7
370
    50
100
AcDbVertex
100
AcDb2dVertex
 10
143.4076072306795
 20
165.2596896943571
 30
0.0
 42
-0.0015605207
 70
     1
  0
VERTEX
  5
1B404
330
1B3DD
100
AcDbEntity
  8
11000_Left
  6
Continuous
 62
     7
370
    50
100
AcDbVertex
100
AcDb2dVertex
 10
143.4076072306795
 20
165.2596896943571
 30
0.0
 42
-0.0008187339
  0
SEQEND
  5
1B405
330
1B3DD
100
AcDbEntity
  8
11000_Left
  6
Continuous
 62
     7
370
    50
  0
LINE
  5
1B406
330
1F
100
AcDbEntity
  8
11000_Left
  6
Continuous
 62
     7
370
    50
100
AcDbLine
 10
141.8188372306795
 20
164.124019694357
 30
0.0
 11
134.1075472306795
 21
163.1088096943571
 31
0.0
  0
LINE
  5
1B407
330
1F
100
AcDbEntity
  8
11000_Left
  6
Continuous
 62
     7
370
    50
100
AcDbLine
 10
142.1252672306795
 20
163.9693896943569
 30
0.0
 11
142.2201172306795
 21
163.7088096943571
 31
0.0
  0
LINE
  5
1B408
330
1F
100
AcDbEntity
  8
11000_Left
  6
Continuous
 62
     7
370
    50
100
AcDbLine
 10
142.7660672306795
 20
162.2088096943571
 30
0.0
 11
142.2201172306795
 21
163.7088096943571
 31
0.0
  0
LINE
  5
1B409
330
1F
100
AcDbEntity
  8
11000_Left
  6
Continuous
 62
     7
370
    50
100
AcDbLine
 10
143.4075472306795
 20
166.4672096943571
 30
0.0
 11
143.4075472306795
 21
162.3821596943571
 31
0.0
  0
ARC
  5
1B40A
330
1F
100
AcDbEntity
  8
11000_Left
  6
Continuous
 62
     7
370
    50
100
AcDbCircle
 10
141.8723182374077
 20
163.8490620146811
 30
0.0
 40
0.2801105918978766
100
AcDbArc
 50
25.44040408641846
 51
101.0069569240379
  0
LINE
  5
1B40B
330
1F
100
AcDbEntity
  8
11000_Left
  6
Continuous
 62
     7
370
    13
100
AcDbLine
 10
137.4075472306795
 20
197.3088096943572
 30
0.0
 11
137.3075472306795
 21
197.3088096943572
 31
0.0
  0
LINE
  5
1B40C
330
1F
100
AcDbEntity
  8
11000_Left
  6
Continuous
 62
     7
370
    50
100
AcDbLine
 10
102.3075472306796
 20
168.5588096943573
 30
0.0
 11
52.30754723067957
 21
168.5588096943572
 31
0.0
  0
LINE
  5
1B40D
330
1F
100
AcDbEntity
  8
11000_Left
  6
Continuous
 62
     7
370
    13
100
AcDbLine
 10
82.30754723067958
 20
168.5588096943572
 30
0.0
 11
82.20754723067955
 21
168.5588096943572
 31
0.0
  0
LINE
  5
1B40E
330
1F
100
AcDbEntity
  8
11000_Left
  6
Continuous
 62
     7
370
    50
100
AcDbLine
 10
57.40754723067954
 20
189.2088096943571
 30
0.0
 11
56.00754723067956
 21
189.2088096943571
 31
0.0
  0
LINE
  5
1B410
330
1F
100
AcDbEntity
  8
11000_Left
  6
Continuous
 62
     7
370
    50
100
AcDbLine
 10
54.70754723067955
 20
190.7088096943571
 30
0.0
 11
53.80754723067957
 21
190.7088096943571
 31
0.0
  0
LINE
  5
1B411
330
1F
100
AcDbEntity
  8
11000_Left
  6
Continuous
 62
     7
370
    50
100
AcDbLine
 10
54.70754723067955
 20
190.7088096943571
 30
0.0
 11
55.54894723067957
 21
190.7088096943571
 31
0.0
  0
LINE
  5
1B412
330
1F
100
AcDbEntity
  8
11000_Left
  6
Continuous
 62
     7
370
    50
100
AcDbLine
 10
56.00754723067956
 20
189.2088096943571
 30
0.0
 11
55.54894723067957
 21
190.7088096943571
 31
0.0
  0
LINE
  5
1B413
330
1F
100
AcDbEntity
  8
11000_Left
  6
Continuous
 62
     7
370
    13
100
AcDbLine
 10
57.40754723067954
 20
197.3088096943572
 30
0.0
 11
57.40754723067954
 21
197.4088096943571
 31
0.0
  0
LINE
  5
1B414
330
1F
100
AcDbEntity
  8
11000_Left
  6
Continuous
 62
     7
370
    50
100
AcDbLine
 10
57.40754723067954
 20
197.3088096943572
 30
0.0
 11
57.40754723067954
 21
189.2088096943571
 31
0.0
  0
ARC
  5
1B415
102
{ACAD_REACTORS
330
1B68F
102
}
330
1F
100
AcDbEntity
  8
11000_Left
  6
Continuous
 62
     7
370
    13
100
AcDbCircle
 10
56.90754723067954
 20
185.0588096943572
 30
0.0
 40
0.5
100
AcDbArc
 50
270.0
 51
0.0
  0
LINE
  5
1B416
330
1F
100
AcDbEntity
  8
11000_Left
  6
Continuous
 62
     7
370
    13
100
AcDbLine
 10
56.90754723067954
 20
184.5588096943572
 30
0.0
 11
56.60754723067952
 21
184.5588096943572
 31
0.0
  0
LINE
  5
1B417
330
1F
100
AcDbEntity
  8
11000_Left
  6
Continuous
 62
     7
370
    13
100
AcDbLine
 10
55.10754723067953
 20
187.9588096943571
 30
0.0
 11
54.41472723067954
 21
189.1588096943571
 31
0.0
  0
LINE
  5
1B418
330
1F
100
AcDbEntity
  8
11000_Left
  6
Continuous
 62
     7
370
    13
100
AcDbLine
 10
55.10754723067953
 20
186.0588096943572
 30
0.0
 11
55.10754723067953
 21
187.9588096943571
 31
0.0
  0
ARC
  5
1B419
330
1F
100
AcDbEntity
  8
11000_Left
  6
Continuous
 62
     7
370
    13
100
AcDbCircle
 10
56.60754723067952
 20
186.0588096943572
 30
0.0
 40
1.5
100
AcDbArc
 50
180.0
 51
270.0
  0
LINE
  5
1B41A
330
1F
100
AcDbEntity
  8
11000_Left
  6
Continuous
 62
     7
370
    13
100
AcDbLine
 10
53.80754723067957
 20
189.1588096943571
 30
0.0
 11
52.30754723067957
 21
187.9588096943571
 31
0.0
  0
LINE
  5
1B41B
330
1F
100
AcDbEntity
  8
11000_Left
  6
Continuous
 62
     7
370
    13
100
AcDbLine
 10
54.41472723067954
 20
189.1588096943571
 30
0.0
 11
53.80754723067957
 21
189.1588096943571
 31
0.0
  0
LINE
  5
1B41C
330
1F
100
AcDbEntity
  8
11000_Left
  6
Continuous
 62
     7
370
    50
100
AcDbLine
 10
53.80754723067957
 20
190.7088096943571
 30
0.0
 11
52.30754723067957
 21
189.5088096943571
 31
0.0
  0
LINE
  5
1B41D
330
1F
100
AcDbEntity
  8
11000_Left
  6
Continuous
 62
     7
370
    50
100
AcDbLine
 10
52.30754723067957
 20
188.4944496943571
 30
0.0
 11
52.30754723067957
 21
189.5088096943571
 31
0.0
  0
LINE
  5
1B41E
330
1F
100
AcDbEntity
  8
11000_Left
  6
Continuous
 62
     7
370
    13
100
AcDbLine
 10
52.30754723067957
 20
187.9588096943571
 30
0.0
 11
52.30754723067957
 21
188.4944496943571
 31
0.0
  0
LINE
  5
1B41F
102
{ACAD_REACTORS
330
1B68F
102
}
330
1F
100
AcDbEntity
  8
11000_Left
  6
Continuous
 62
     7
370
    50
100
AcDbLine
 10
52.30754723067957
 20
187.9588096943571
 30
0.0
 11
52.30754723067957
 21
169.5588096943572
 31
0.0
  0
LINE
  5
1B420
330
1F
100
AcDbEntity
  8
11000_Left
  6
Continuous
 62
     7
370
    50
100
AcDbLine
 10
52.30754723067957
 20
168.5588096943572
 30
0.0
 11
52.30754723067957
 21
169.5588096943572
 31
0.0
  0
LINE
  5
1B421
330
1F
100
AcDbEntity
  8
11000_Left
  6
Continuous
 62
     7
370
    13
100
AcDbLine
 10
137.3075472306795
 20
197.3088096943572
 30
0.0
 11
57.40754723067954
 21
197.3088096943572
 31
0.0
  0
LINE
  5
1B426
330
1F
100
AcDbEntity
  8
11000_Left
  6
Continuous
 62
     7
370
    13
100
AcDbLine
 10
82.20754723067955
 20
242.0588096943573
 30
0.0
 11
82.30754723067958
 21
242.0588096943573
 31
0.0
  0
LINE
  5
1B427
330
1F
100
AcDbEntity
  8
11000_Left
  6
Continuous
 62
     7
370
    50
100
AcDbLine
 10
52.30754723067957
 20
242.0588096943573
 30
0.0
 11
102.3075472306796
 21
242.0588096943573
 31
0.0
  0
LINE
  5
1B428
330
1F
100
AcDbEntity
  8
11000_Left
  6
Continuous
 62
     7
370
    50
100
AcDbLine
 10
56.80754723067957
 20
221.4088096943571
 30
0.0
 11
57.40754723067954
 21
221.4088096943571
 31
0.0
  0
LINE
  5
1B429
330
1F
100
AcDbEntity
  8
11000_Left
  6
Continuous
 62
     7
370
    50
100
AcDbLine
 10
56.00754723067956
 20
221.4088096943571
 30
0.0
 11
56.80754723067957
 21
221.4088096943571
 31
0.0
  0
LINE
  5
1B42A
330
1F
100
AcDbEntity
  8
11000_Left
  6
Continuous
 62
     7
370
    13
100
AcDbLine
 10
57.40754723067954
 20
225.5588096943573
 30
0.0
 11
57.40754723067954
 21
221.4088096943571
 31
0.0
  0
ARC
  5
1B42B
330
1F
100
AcDbEntity
  8
11000_Left
  6
Continuous
 62
     7
370
    13
100
AcDbCircle
 10
56.90754723067954
 20
225.5588096943573
 30
0.0
 40
0.5
100
AcDbArc
 50
0.0
 51
90.0
  0
LINE
  5
1B42C
330
1F
100
AcDbEntity
  8
11000_Left
  6
Continuous
 62
     7
370
    13
100
AcDbLine
 10
56.60754723067952
 20
226.0588096943572
 30
0.0
 11
56.90754723067954
 21
226.0588096943572
 31
0.0
  0
LINE
  5
1B42D
330
1F
100
AcDbEntity
  8
11000_Left
  6
Continuous
 62
     7
370
    13
100
AcDbLine
 10
53.80754723067957
 20
221.4588096943571
 30
0.0
 11
54.41472723067954
 21
221.4588096943571
 31
0.0
  0
LINE
  5
1B42E
330
1F
100
AcDbEntity
  8
11000_Left
  6
Continuous
 62
     7
370
    13
100
AcDbLine
 10
52.30754723067957
 20
222.6588096943571
 30
0.0
 11
53.80754723067957
 21
221.4588096943571
 31
0.0
  0
ARC
  5
1B42F
330
1F
100
AcDbEntity
  8
11000_Left
  6
Continuous
 62
     7
370
    13
100
AcDbCircle
 10
56.60754723067952
 20
224.5588096943572
 30
0.0
 40
1.5
100
AcDbArc
 50
90.0
 51
180.0
  0
LINE
  5
1B430
330
1F
100
AcDbEntity
  8
11000_Left
  6
Continuous
 62
     7
370
    13
100
AcDbLine
 10
55.10754723067953
 20
222.6588096943571
 30
0.0
 11
55.10754723067953
 21
224.5588096943572
 31
0.0
  0
LINE
  5
1B431
330
1F
100
AcDbEntity
  8
11000_Left
  6
Continuous
 62
     7
370
    13
100
AcDbLine
 10
54.41472723067954
 20
221.4588096943571
 30
0.0
 11
55.10754723067953
 21
222.6588096943571
 31
0.0
  0
LINE
  5
1B432
330
1F
100
AcDbEntity
  8
11000_Left
  6
Continuous
 62
     7
370
    50
100
AcDbLine
 10
52.30754723067957
 20
221.1088096943572
 30
0.0
 11
53.80754723067957
 21
219.9088096943571
 31
0.0
  0
LINE
  5
1B433
330
1F
100
AcDbEntity
  8
11000_Left
  6
Continuous
 62
     7
370
    50
100
AcDbLine
 10
52.30754723067957
 20
242.0588096943573
 30
0.0
 11
52.30754723067957
 21
222.6588096943571
 31
0.0
  0
LINE
  5
1B434
330
1F
100
AcDbEntity
  8
11000_Left
  6
Continuous
 62
     7
370
    50
100
AcDbLine
 10
52.30754723067957
 20
222.1231696943571
 30
0.0
 11
52.30754723067957
 21
222.6588096943571
 31
0.0
  0
LINE
  5
1B435
330
1F
100
AcDbEntity
  8
11000_Left
  6
Continuous
 62
     7
370
    50
100
AcDbLine
 10
52.30754723067957
 20
221.1088096943572
 30
0.0
 11
52.30754723067957
 21
222.1231696943571
 31
0.0
  0
LINE
  5
1B436
330
1F
100
AcDbEntity
  8
11000_Left
  6
Continuous
 62
     7
370
    13
100
AcDbLine
 10
100.9075472306795
 20
205.9088096943571
 30
0.0
 11
100.9075472306795
 21
201.7088096943571
 31
0.0
  0
LINE
  5
1B437
330
1F
100
AcDbEntity
  8
11000_Left
  6
Continuous
 62
     7
370
    13
100
AcDbLine
 10
93.90754723067955
 20
201.7088096943571
 30
0.0
 11
93.90754723067955
 21
205.9088096943571
 31
0.0
  0
LINE
  5
1B438
330
1F
100
AcDbEntity
  8
11000_Left
  6
Continuous
 62
     7
370
    13
100
AcDbLine
 10
93.90754723067955
 20
205.9088096943571
 30
0.0
 11
100.9075472306795
 21
205.9088096943571
 31
0.0
  0
LINE
  5
1B439
330
1F
100
AcDbEntity
  8
11000_Left
  6
Continuous
 62
     7
370
    13
100
AcDbLine
 10
100.9075472306795
 20
201.7088096943571
 30
0.0
 11
93.90754723067955
 21
201.7088096943571
 31
0.0
  0
LINE
  5
1B43A
330
1F
100
AcDbEntity
  8
11000_Left
  6
Continuous
 62
     7
370
    50
100
AcDbLine
 10
53.80754723067957
 20
219.9088096943571
 30
0.0
 11
54.70754723067955
 21
219.9088096943571
 31
0.0
  0
LINE
  5
1B43B
330
1F
100
AcDbEntity
  8
11000_Left
  6
Continuous
 62
     7
370
    50
100
AcDbLine
 10
55.54894723067957
 20
219.9088096943571
 30
0.0
 11
54.70754723067955
 21
219.9088096943571
 31
0.0
  0
LINE
  5
1B43C
330
1F
100
AcDbEntity
  8
11000_Left
  6
Continuous
 62
     7
370
    50
100
AcDbLine
 10
55.54894723067957
 20
219.9088096943571
 30
0.0
 11
56.00754723067956
 21
221.4088096943571
 31
0.0
  0
LINE
  5
1B441
330
1F
100
AcDbEntity
  8
11000_Left
  6
Continuous
 62
     7
370
    13
100
AcDbLine
 10
102.3075472306796
 20
238.1088096943573
 30
0.0
 11
82.30754723067958
 21
238.1088096943573
 31
0.0
  0
LINE
  5
1B442
330
1F
100
AcDbEntity
  8
11000_Left
  6
Continuous
 62
     7
370
    13
100
AcDbLine
 10
102.3075472306796
 20
242.1088096943573
 30
0.0
 11
102.3075472306796
 21
238.1088096943573
 31
0.0
  0
LINE
  5
1B445
330
1F
100
AcDbEntity
  8
11000_Left
  6
Continuous
 62
     7
370
    13
100
AcDbLine
 10
82.30754723067958
 20
238.1088096943573
 30
0.0
 11
82.30754723067958
 21
242.0588096943573
 31
0.0
  0
LINE
  5
1B447
330
1F
100
AcDbEntity
  8
11000_Left
  6
Continuous
 62
     7
370
    50
100
AcDbLine
 10
114.6075472306795
 20
242.1088096943573
 30
0.0
 11
102.3075472306796
 21
242.1088096943573
 31
0.0
  0
LINE
  5
1B449
330
1F
100
AcDbEntity
  8
11000_Left
  6
Continuous
 62
     7
370
    13
100
AcDbLine
 10
131.1075472306795
 20
228.6088096943573
 30
0.0
 11
111.1075472306795
 21
228.6088096943573
 31
0.0
  0
LINE
  5
1B44A
330
1F
100
AcDbEntity
  8
11000_Left
  6
Continuous
 62
     7
370
    13
100
AcDbLine
 10
131.1075472306795
 20
232.6088096943573
 30
0.0
 11
131.1075472306795
 21
228.6088096943573
 31
0.0
  0
LINE
  5
1B44B
330
1F
100
AcDbEntity
  8
11000_Left
  6
Continuous
 62
     7
370
    13
100
AcDbLine
 10
112.1075472306795
 20
242.1088096943573
 30
0.0
 11
111.1075472306795
 21
241.1088096943573
 31
0.0
  0
LINE
  5
1B44C
330
1F
100
AcDbEntity
  8
11000_Left
  6
Continuous
 62
     7
370
    13
100
AcDbLine
 10
111.1075472306795
 20
228.6088096943573
 30
0.0
 11
111.1075472306795
 21
241.1088096943573
 31
0.0
  0
LINE
  5
1B44D
330
1F
100
AcDbEntity
  8
11000_Left
  6
Continuous
 62
     7
370
    50
100
AcDbLine
 10
143.4075472306795
 20
246.4088096943571
 30
0.0
 11
143.4075472306795
 21
232.6088096943573
 31
0.0
  0
LINE
  5
1B44E
330
1F
100
AcDbEntity
  8
11000_Left
  6
Continuous
 62
     7
370
    13
100
AcDbLine
 10
142.6075472306795
 20
232.6088096943573
 30
0.0
 11
131.1075472306795
 21
232.6088096943573
 31
0.0
  0
LINE
  5
1B44F
330
1F
100
AcDbEntity
  8
11000_Left
  6
Continuous
 62
     7
370
    13
100
AcDbLine
 10
143.4075472306795
 20
232.6088096943573
 30
0.0
 11
142.6075472306795
 21
232.6088096943573
 31
0.0
  0
LINE
  5
1B450
330
1F
100
AcDbEntity
  8
11000_Left
  6
Continuous
 62
     7
370
    50
100
AcDbLine
 10
114.6075472306795
 20
245.6887473798868
 30
0.0
 11
114.6075472306795
 21
242.1088096943573
 31
0.0
  0
LINE
  5
1B451
330
1F
100
AcDbEntity
  8
11000_Left
  6
Continuous
 62
     7
370
    13
100
AcDbLine
 10
102.3075472306796
 20
172.508809694357
 30
0.0
 11
82.30754723067958
 21
172.508809694357
 31
0.0
  0
LINE
  5
1B452
330
1F
100
AcDbEntity
  8
11000_Left
  6
Continuous
 62
     7
370
    13
100
AcDbLine
 10
102.3075472306796
 20
168.508809694357
 30
0.0
 11
102.3075472306796
 21
172.508809694357
 31
0.0
  0
LINE
  5
1B455
330
1F
100
AcDbEntity
  8
11000_Left
  6
Continuous
 62
     7
370
    13
100
AcDbLine
 10
82.30754723067958
 20
172.508809694357
 30
0.0
 11
82.30754723067958
 21
168.5588096943572
 31
0.0
  0
LINE
  5
1B457
330
1F
100
AcDbEntity
  8
11000_Left
  6
Continuous
 62
     7
370
    50
100
AcDbLine
 10
114.6075472306795
 20
168.5088096943571
 30
0.0
 11
102.3075472306796
 21
168.508809694357
 31
0.0
  0
LINE
  5
1B459
330
1F
100
AcDbEntity
  8
11000_Left
  6
Continuous
 62
     7
370
    13
100
AcDbLine
 10
131.1075472306795
 20
182.008809694357
 30
0.0
 11
111.1075472306795
 21
182.008809694357
 31
0.0
  0
LINE
  5
1B45A
330
1F
100
AcDbEntity
  8
11000_Left
  6
Continuous
 62
     7
370
    13
100
AcDbLine
 10
131.1075472306795
 20
178.008809694357
 30
0.0
 11
131.1075472306795
 21
182.008809694357
 31
0.0
  0
LINE
  5
1B45C
330
1F
100
AcDbEntity
  8
11000_Left
  6
Continuous
 62
     7
370
    13
100
AcDbLine
 10
111.1075472306795
 20
169.508809694357
 30
0.0
 11
112.1075472306795
 21
168.508809694357
 31
0.0
  0
LINE
  5
1B45D
330
1F
100
AcDbEntity
  8
11000_Left
  6
Continuous
 62
     7
370
    13
100
AcDbLine
 10
111.1075472306795
 20
182.008809694357
 30
0.0
 11
111.1075472306795
 21
169.508809694357
 31
0.0
  0
LINE
  5
1B45E
330
1F
100
AcDbEntity
  8
11000_Left
  6
Continuous
 62
     7
370
    50
100
AcDbLine
 10
143.4075472306795
 20
164.2088096943571
 30
0.0
 11
143.4075472306795
 21
164.2088096943571
 31
0.0
  0
LINE
  5
1B45F
330
1F
100
AcDbEntity
  8
11000_Left
  6
Continuous
 62
     7
370
    50
100
AcDbLine
 10
143.4075472306795
 20
178.008809694357
 30
0.0
 11
143.4075472306795
 21
164.2088096943571
 31
0.0
  0
LINE
  5
1B460
330
1F
100
AcDbEntity
  8
11000_Left
  6
Continuous
 62
     7
370
    13
100
AcDbLine
 10
142.6075472306795
 20
178.008809694357
 30
0.0
 11
143.4075472306795
 21
178.008809694357
 31
0.0
  0
LINE
  5
1B461
330
1F
100
AcDbEntity
  8
11000_Left
  6
Continuous
 62
     7
370
    13
100
AcDbLine
 10
142.6075472306795
 20
178.008809694357
 30
0.0
 11
131.1075472306795
 21
178.008809694357
 31
0.0
  0
LINE
  5
1B462
330
1F
100
AcDbEntity
  8
11000_Left
  6
Continuous
 62
     7
370
    50
100
AcDbLine
 10
114.6075472306795
 20
168.508809694357
 30
0.0
 11
114.6075472306796
 21
164.9288720088266
 31
0.0
  0
LINE
  5
1B463
330
1F
100
AcDbEntity
  8
11000_Left
  6
Continuous
 62
     7
370
    13
100
AcDbLine
 10
141.3075272306795
 20
220.8088096943573
 30
0.0
 11
141.3075272306795
 21
216.8088096943573
 31
0.0
  0
LINE
  5
1B464
330
1F
100
AcDbEntity
  8
11000_Left
  6
Continuous
 62
     7
370
    13
100
AcDbLine
 10
139.5075272306795
 20
220.8088096943573
 30
0.0
 11
141.3075272306795
 21
220.8088096943573
 31
0.0
  0
LINE
  5
1B465
330
1F
100
AcDbEntity
  8
11000_Left
  6
Continuous
 62
     7
370
    13
100
AcDbLine
 10
139.5075272306795
 20
216.8088096943573
 30
0.0
 11
139.5075272306795
 21
220.8088096943573
 31
0.0
  0
LINE
  5
1B466
330
1F
100
AcDbEntity
  8
11000_Left
  6
Continuous
 62
     7
370
    13
100
AcDbLine
 10
141.3075272306795
 20
216.8088096943573
 30
0.0
 11
139.5075272306795
 21
216.8088096943573
 31
0.0
  0
LINE
  5
1B467
330
1F
100
AcDbEntity
  8
11000_Left
  6
Continuous
 62
     7
370
    13
100
AcDbLine
 10
141.3075272306795
 20
193.8088096943572
 30
0.0
 11
141.3075272306795
 21
189.8088096943572
 31
0.0
  0
LINE
  5
1B468
330
1F
100
AcDbEntity
  8
11000_Left
  6
Continuous
 62
     7
370
    13
100
AcDbLine
 10
139.5075272306795
 20
193.8088096943572
 30
0.0
 11
141.3075272306795
 21
193.8088096943572
 31
0.0
  0
LINE
  5
1B469
330
1F
100
AcDbEntity
  8
11000_Left
  6
Continuous
 62
     7
370
    13
100
AcDbLine
 10
139.5075272306795
 20
189.8088096943572
 30
0.0
 11
139.5075272306795
 21
193.8088096943572
 31
0.0
  0
LINE
  5
1B46A
330
1F
100
AcDbEntity
  8
11000_Left
  6
Continuous
 62
     7
370
    13
100
AcDbLine
 10
141.3075272306795
 20
189.8088096943572
 30
0.0
 11
139.5075272306795
 21
189.8088096943572
 31
0.0
  0
LINE
  5
1B46B
330
1F
100
AcDbEntity
  8
11000_Left
  6
Continuous
 62
     7
370
    50
100
AcDbLine
 10
143.4075472306795
 20
232.6088096943573
 30
0.0
 11
143.4075472306795
 21
183.3588096943572
 31
0.0
  0
LINE
  5
1B46C
330
1F
100
AcDbEntity
  8
11000_Left
  6
Continuous
 62
     7
370
    50
100
AcDbLine
 10
143.4075472306795
 20
183.3588096943572
 30
0.0
 11
143.4075472306795
 21
178.008809694357
 31
0.0
  0
ARC
  5
1B46D
330
1F
100
AcDbEntity
  8
11000_Left
  6
Continuous
 62
     7
370
    13
100
AcDbCircle
 10
143.4050472306795
 20
179.258809694357
 30
0.0
 40
2.1
100
AcDbArc
 50
112.3256900000004
 51
180.0
  0
ARC
  5
1B46E
330
1F
100
AcDbEntity
  8
11000_Left
  6
Continuous
 62
     7
370
    13
100
AcDbCircle
 10
143.4050472306795
 20
179.258809694357
 30
0.0
 40
2.1
100
AcDbArc
 50
90.0
 51
112.3256900000004
  0
LINE
  5
1B46F
330
1F
100
AcDbEntity
  8
11000_Left
  6
Continuous
 62
     7
370
    13
100
AcDbLine
 10
141.3050472306795
 20
179.258809694357
 30
0.0
 11
138.1050472306795
 21
179.258809694357
 31
0.0
  0
LINE
  5
1B470
330
1F
100
AcDbEntity
  8
11000_Left
  6
Continuous
 62
     7
370
    13
100
AcDbLine
 10
138.1075472306795
 20
227.858769694357
 30
0.0
 11
137.9075472306795
 21
227.8587796943573
 31
0.0
  0
LINE
  5
1B471
330
1F
100
AcDbEntity
  8
11000_Left
  6
Continuous
 62
     7
370
    13
100
AcDbLine
 10
142.6075472306795
 20
183.3588096943572
 30
0.0
 11
143.4075472306795
 21
183.3588096943572
 31
0.0
  0
LINE
  5
1B472
330
1F
100
AcDbEntity
  8
11000_Left
  6
Continuous
 62
     7
370
    13
100
AcDbLine
 10
137.4050472306795
 20
183.3588096943572
 30
0.0
 11
142.6075472306795
 21
183.3588096943572
 31
0.0
  0
LINE
  5
1B473
330
1F
100
AcDbEntity
  8
11000_Left
  6
Continuous
 62
     7
370
    13
100
AcDbLine
 10
137.4075472306795
 20
227.6088096943571
 30
0.0
 11
137.4075472306795
 21
183.3588096943572
 31
0.0
  0
LINE
  5
1B474
330
1F
100
AcDbEntity
  8
11000_Left
  6
Continuous
 62
     7
370
    13
100
AcDbLine
 10
138.1048172306795
 20
179.258809694357
 30
0.0
 11
138.1047872306795
 21
178.5588096943572
 31
0.0
  0
LINE
  5
1B475
330
1F
100
AcDbEntity
  8
11000_Left
  6
Continuous
 62
     7
370
    13
100
AcDbLine
 10
138.1050472306795
 20
179.258809694357
 30
0.0
 11
138.1050472306795
 21
183.3588096943572
 31
0.0
  0
LINE
  5
1B476
330
1F
100
AcDbEntity
  8
11000_Left
  6
Continuous
 62
     7
370
    13
100
AcDbLine
 10
138.1075872306795
 20
231.5588096943573
 30
0.0
 11
138.1075472306795
 21
231.5588096943573
 31
0.0
  0
LINE
  5
1B477
330
1F
100
AcDbEntity
  8
11000_Left
  6
Continuous
 62
     7
370
    13
100
AcDbLine
 10
138.1077772306795
 20
232.0588096943573
 30
0.0
 11
138.1075472306795
 21
227.858769694357
 31
0.0
  0
LINE
  5
1B478
330
1F
100
AcDbEntity
  8
11000_Left
  6
Continuous
 62
     7
370
    13
100
AcDbLine
 10
137.9075472306795
 20
227.8587796943573
 30
0.0
 11
137.4075472306795
 21
227.6088096943571
 31
0.0
  0
LINE
  5
1B479
330
1F
100
AcDbEntity
  8
11000_Left
  6
Continuous
 62
     7
370
    13
100
AcDbLine
 10
138.1047872306795
 20
178.5588096943572
 30
0.0
 11
139.2047542306799
 21
178.008809694357
 31
0.0
  0
LINE
  5
1B47A
330
1F
100
AcDbEntity
  8
11000_Left
  6
Continuous
 62
     7
370
    13
100
AcDbLine
 10
139.2076082306793
 20
232.6088096943573
 30
0.0
 11
138.1075972306795
 21
232.0588096943573
 31
0.0
  0
DIMENSION
  5
1B47C
330
1F
100
AcDbEntity
  8
11100_LEFT_DIM
  6
Continuous
 62
     7
370
    13
100
AcDbDimension
  2
*D26
 10
151.2823072306797
 20
162.2088096943571
 30
0.0
 11
150.9513292096849
 21
205.3088096943572
 31
0.0
 70
   160
 71
     5
 42
86.19999999999999
  3
H035
100
AcDbAlignedDimension
 13
143.4075472306795
 23
248.4088096943571
 33
0.0
 14
143.4075472306795
 24
162.2088096943571
 34
0.0
 50
90.0
100
AcDbRotatedDimension
1001
ACAD
1000
DSTYLE
1002
{
1070
    40
1040
1.0
1070
    77
1070
     0
1070
   147
1040
1.5
1070
   272
1070
     0
1070
   279
1070
     1
1070
   288
1070
     1
1002
}
  0
DIMENSION
  5
1B47D
330
1F
100
AcDbEntity
  8
11100_LEFT_DIM
  6
Continuous
 62
     7
370
    13
100
AcDbDimension
  2
*D27
 10
143.4075472306795
 20
271.7276377743906
 30
0.0
 11
100.4075472306795
 21
271.7276377743906
 31
0.0
 70
   160
 71
     5
 42
86.0
  3
H035
100
AcDbAlignedDimension
 13
57.40754723067954
 23
230.3792330672903
 33
0.0
 14
143.4075472306795
 24
246.6088096943571
 34
0.0
100
AcDbRotatedDimension
1001
ACAD
1000
DSTYLE
1002
{
1070
    40
1040
1.0
1070
    77
1070
     0
1070
   147
1040
1.5
1070
   272
1070
     0
1070
   279
1070
     1
1070
   288
1070
     1
1002
}
  0
DIMENSION
  5
1B47E
330
1F
100
AcDbEntity
  8
11100_LEFT_DIM
  6
Continuous
 62
     7
370
    13
100
AcDbDimension
  2
*D28
 10
40.10809723067974
 20
168.5588096943572
 30
0.0
 11
40.10809723067956
 21
205.3088096943572
 31
0.0
 70
   160
 71
     5
 42
73.5
  3
H035
100
AcDbAlignedDimension
 13
52.30754723067957
 23
242.0588096943573
 33
0.0
 14
52.30754723067957
 24
168.5588096943572
 34
0.0
 50
90.0
100
AcDbRotatedDimension
1001
ACAD
1000
DSTYLE
1002
{
1070
    40
1040
1.0
1070
    77
1070
     0
1070
   147
1040
1.5
1070
   272
1070
     0
1070
   279
1070
     1
1070
   288
1070
     1
1002
}
  0
ARC
  5
1B47F
330
1F
100
AcDbEntity
  8
11000_Left
  6
DASHED
 62
     7
 48
10.0
370
     9
100
AcDbCircle
 39
0.25
 10
55.90754723067897
 20
188.608809694356
 30
0.0
 40
0.5000000000006822
100
AcDbArc
 50
0.0000000000781653
 51
89.99999999996092
  0
LINE
  5
1B480
330
1F
100
AcDbEntity
  8
11000_Left
  6
DASHED
 62
     7
 48
10.0
370
     9
100
AcDbLine
 39
0.25
 10
52.40754723067976
 20
194.2588096943568
 30
-0.25
 11
52.40754723067976
 21
213.2588096943567
 31
-0.25
1001
AUSTER_ANSICHT
1002
{
1000
Det03
1002
}
1001
AUSTER_FOLIE
1002
{
1000
NSB00753_S0
1002
}
  0
LINE
  5
1B481
330
1F
100
AcDbEntity
  8
11000_Left
  6
DASHED
 62
     7
 48
10.0
370
     9
100
AcDbLine
 39
0.25
 10
49.90754723067954
 20
192.2588096943566
 30
0.4999999999999984
 11
49.90754723067954
 21
215.2588096943568
 31
0.4999999999999984
1001
AUSTER_ANSICHT
1002
{
1000
Det03
1002
}
1001
AUSTER_FOLIE
1002
{
1000
NSB00753_S0
1002
}
  0
ARC
  5
1B482
330
1F
100
AcDbEntity
  8
11000_Left
  6
DASHED
 62
     7
 48
10.0
370
     9
100
AcDbCircle
 39
0.25
 10
53.50754723067956
 20
189.358809694357
 30
-0.25
 40
1.9
100
AcDbArc
 50
0.0000000107542442
 51
90.0
1001
AUSTER_ANSICHT
1002
{
1000
Det03
1002
}
1001
AUSTER_FOLIE
1002
{
1000
NSB00753_S0
1002
}
  0
ARC
  5
1B483
330
1F
100
AcDbEntity
  8
11000_Left
  6
DASHED
 62
     7
 48
10.0
370
     9
100
AcDbCircle
 39
0.25
 10
50.90754723067942
 20
192.2588096943566
 30
0.7499999999999984
 40
1.0
100
AcDbArc
 50
180.0
 51
270.0
1001
AUSTER_ANSICHT
1002
{
1000
Det03
1002
}
1001
AUSTER_FOLIE
1002
{
1000
NSB00753_S0
1002
}
  0
LINE
  5
1B484
330
1F
100
AcDbEntity
  8
11000_Left
  6
DASHED
 62
     7
 48
10.0
370
     9
100
AcDbLine
 39
0.25
 10
57.40754723067954
 20
191.2588096943568
 30
-0.25
 11
55.40754723067954
 21
193.2588096943568
 31
-0.25
1001
AUSTER_ANSICHT
1002
{
1000
Det03
1002
}
1001
AUSTER_FOLIE
1002
{
1000
NSB00753_S0
1002
}
  0
LINE
  5
1B485
330
1F
100
AcDbEntity
  8
11000_Left
  6
DASHED
 62
     7
 48
10.0
370
     9
100
AcDbLine
 39
0.25
 10
53.50754723067956
 20
191.2588096943568
 30
0.7499999999999984
 11
50.90754723067942
 21
191.2588096943568
 31
0.7499999999999984
1001
AUSTER_ANSICHT
1002
{
1000
Det03
1002
}
1001
AUSTER_FOLIE
1002
{
1000
NSB00753_S0
1002
}
  0
ARC
  5
1B486
330
1F
100
AcDbEntity
  8
11000_Left
  6
DASHED
 62
     7
 48
10.0
370
     9
100
AcDbCircle
 39
0.25
 10
53.40754723067942
 20
194.2588096943568
 30
-0.25
 40
1.0
100
AcDbArc
 50
180.0
 51
270.0
1001
AUSTER_ANSICHT
1002
{
1000
Det03
1002
}
1001
AUSTER_FOLIE
1002
{
1000
NSB00753_S0
1002
}
  0
LINE
  5
1B487
330
1F
100
AcDbEntity
  8
11000_Left
  6
DASHED
 62
     7
 48
10.0
370
     9
100
AcDbLine
 39
0.25
 10
53.40754723067942
 20
193.2588096943568
 30
-0.25
 11
55.40754723067954
 21
193.2588096943568
 31
-0.25
1001
AUSTER_ANSICHT
1002
{
1000
Det03
1002
}
1001
AUSTER_FOLIE
1002
{
1000
NSB00753_S0
1002
}
  0
LINE
  5
1B488
330
1F
100
AcDbEntity
  8
11000_Left
  6
DASHED
 62
     7
 48
10.0
370
     9
100
AcDbLine
 39
0.25
 10
55.90754723067942
 20
189.1088096943567
 30
-0.25
 11
55.40754723067954
 21
189.1088096943567
 31
-0.25
1001
AUSTER_ANSICHT
1002
{
1000
Det03
1002
}
1001
AUSTER_FOLIE
1002
{
1000
NSB00753_S0
1002
}
  0
LINE
  5
1B489
330
1F
100
AcDbEntity
  8
11000_Left
  6
DASHED
 62
     7
 48
10.0
370
     9
100
AcDbLine
 39
0.25
 10
55.40754723067954
 20
189.358809694357
 30
-0.25
 11
55.40754723067954
 21
189.1088096943567
 31
-0.25
1001
AUSTER_ANSICHT
1002
{
1000
Det03
1002
}
1001
AUSTER_FOLIE
1002
{
1000
NSB00753_S0
1002
}
  0
LINE
  5
1B48A
330
1F
100
AcDbEntity
  8
11000_Left
  6
DASHED
 62
     7
 48
10.0
370
     9
100
AcDbLine
 39
0.25
 10
56.40754723067954
 20
188.6088096943567
 30
-0.25
 11
56.40754723067954
 21
187.8088096943568
 31
0.5000000000000551
1001
AUSTER_ANSICHT
1002
{
1000
Det03
1002
}
1001
AUSTER_FOLIE
1002
{
1000
NSB00753_S0
1002
}
  0
ARC
  5
1B48B
330
1F
100
AcDbEntity
  8
11000_Left
  6
DASHED
 62
     7
 48
10.0
370
     9
100
AcDbCircle
 39
0.25
 10
53.40754723067942
 20
213.2588096943567
 30
-0.25
 40
1.0
100
AcDbArc
 50
90.0
 51
180.0
1001
AUSTER_ANSICHT
1002
{
1000
Det03
1002
}
1001
AUSTER_FOLIE
1002
{
1000
NSB00753_S0
1002
}
  0
ARC
  5
1B48C
330
1F
100
AcDbEntity
  8
11000_Left
  6
DASHED
 62
     7
 48
10.0
370
     9
100
AcDbCircle
 39
0.25
 10
50.90754723067942
 20
215.2588096943568
 30
0.7499999999999984
 40
1.0
100
AcDbArc
 50
90.0
 51
180.0
1001
AUSTER_ANSICHT
1002
{
1000
Det03
1002
}
1001
AUSTER_FOLIE
1002
{
1000
NSB00753_S0
1002
}
  0
LINE
  5
1B48D
330
1F
100
AcDbEntity
  8
11000_Left
  6
DASHED
 62
     7
 48
10.0
370
     9
100
AcDbLine
 39
0.25
 10
53.40754723067942
 20
214.2588096943569
 30
-0.25
 11
55.40754723067954
 21
214.2588096943569
 31
-0.25
1001
AUSTER_ANSICHT
1002
{
1000
Det03
1002
}
1001
AUSTER_FOLIE
1002
{
1000
NSB00753_S0
1002
}
  0
ARC
  5
1B48E
330
1F
100
AcDbEntity
  8
11000_Left
  6
DASHED
 62
     7
 48
10.0
370
     9
100
AcDbCircle
 39
0.25
 10
53.50754723067956
 20
218.1588096943567
 30
-0.25
 40
1.9
100
AcDbArc
 50
270.0
 51
0.0
1001
AUSTER_ANSICHT
1002
{
1000
Det03
1002
}
1001
AUSTER_FOLIE
1002
{
1000
NSB00753_S0
1002
}
  0
LINE
  5
1B48F
330
1F
100
AcDbEntity
  8
11000_Left
  6
DASHED
 62
     7
 48
10.0
370
     9
100
AcDbLine
 39
0.25
 10
53.50754723067956
 20
216.2588096943569
 30
0.7499999999999984
 11
50.90754723067942
 21
216.2588096943569
 31
0.7499999999999984
1001
AUSTER_ANSICHT
1002
{
1000
Det03
1002
}
1001
AUSTER_FOLIE
1002
{
1000
NSB00753_S0
1002
}
  0
LINE
  5
1B490
330
1F
100
AcDbEntity
  8
11000_Left
  6
DASHED
 62
     7
 48
10.0
370
     9
100
AcDbLine
 39
0.25
 10
57.40754723067954
 20
216.2588096943569
 30
-0.25
 11
55.40754723067954
 21
214.2588096943569
 31
-0.25
1001
AUSTER_ANSICHT
1002
{
1000
Det03
1002
}
1001
AUSTER_FOLIE
1002
{
1000
NSB00753_S0
1002
}
  0
LINE
  5
1B491
330
1F
100
AcDbEntity
  8
11000_Left
  6
DASHED
 62
     7
 48
10.0
370
     9
100
AcDbLine
 39
0.25
 10
57.40754723067954
 20
216.2588096943569
 30
0.0
 11
57.40754723067954
 21
221.4088096943571
 31
0.0
  0
LINE
  5
1B492
330
1F
100
AcDbEntity
  8
11000_Left
  6
DASHED
 62
     7
 48
10.0
370
     9
100
AcDbLine
 39
0.25
 10
56.40754723067954
 20
218.9088096943568
 30
-0.25
 11
56.40754723067954
 21
221.4088096943571
 31
-0.25
1001
AUSTER_ANSICHT
1002
{
1000
Det03
1002
}
1001
AUSTER_FOLIE
1002
{
1000
NSB00753_S0
1002
}
  0
ARC
  5
1B493
330
1F
100
AcDbEntity
  8
11000_Left
  6
DASHED
 62
     7
 48
10.0
370
     9
100
AcDbCircle
 39
0.25
 10
55.90754723067942
 20
218.9088096943568
 30
-0.25
 40
0.5
100
AcDbArc
 50
270.0
 51
0.0
1001
AUSTER_ANSICHT
1002
{
1000
Det03
1002
}
1001
AUSTER_FOLIE
1002
{
1000
NSB00753_S0
1002
}
  0
LINE
  5
1B494
330
1F
100
AcDbEntity
  8
11000_Left
  6
DASHED
 62
     7
 48
10.0
370
     9
100
AcDbLine
 39
0.25
 10
55.90754723067942
 20
218.408809694357
 30
-0.25
 11
55.40754723067954
 21
218.408809694357
 31
-0.25
1001
AUSTER_ANSICHT
1002
{
1000
Det03
1002
}
1001
AUSTER_FOLIE
1002
{
1000
NSB00753_S0
1002
}
  0
LINE
  5
1B495
330
1F
100
AcDbEntity
  8
11000_Left
  6
DASHED
 62
     7
 48
10.0
370
     9
100
AcDbLine
 39
0.25
 10
55.40754723067954
 20
218.1588096943567
 30
-0.25
 11
55.40754723067954
 21
218.408809694357
 31
-0.25
1001
AUSTER_ANSICHT
1002
{
1000
Det03
1002
}
1001
AUSTER_FOLIE
1002
{
1000
NSB00753_S0
1002
}
  0
LINE
  5
1B496
330
1F
100
AcDbEntity
  8
11000_Left
  6
DASHED
 62
     7
 48
10.0
370
     9
100
AcDbLine
 39
0.25
 10
56.40754723067954
 20
221.4088096943571
 30
0.0
 11
57.40754723067954
 21
221.4088096943571
 31
0.0
  0
LINE
  5
1B497
330
1F
100
AcDbEntity
  8
11000_Left
  6
HIDDEN
 62
     7
370
     9
100
AcDbLine
 10
58.48254723067952
 20
147.4087496943576
 30
0.0
 11
52.28254723067948
 21
147.4088096943574
 31
0.0
  0
LINE
  5
1B498
330
1F
100
AcDbEntity
  8
11000_Left
  6
HIDDEN
 62
     7
370
     9
100
AcDbLine
 10
52.28254723067948
 20
163.0588096943574
 30
0.0
 11
58.48254723067952
 21
163.0588096943574
 31
0.0
  0
LINE
  5
1B499
330
1F
100
AcDbEntity
  8
11000_Left
  6
HIDDEN
 62
     7
370
     9
100
AcDbLine
 10
52.28254723067948
 20
156.4088096943573
 30
0.0
 11
52.28254723067948
 21
163.0588096943574
 31
0.0
  0
LINE
  5
1B49A
330
1F
100
AcDbEntity
  8
11000_Left
  6
HIDDEN
 62
     7
370
     9
100
AcDbLine
 10
52.28254723067948
 20
166.0588096943574
 30
0.0
 11
52.28254723067948
 21
163.0588096943574
 31
0.0
  0
LINE
  5
1B49B
330
1F
100
AcDbEntity
  8
11000_Left
  6
HIDDEN
 62
     7
370
     9
100
AcDbLine
 10
52.28254723067948
 20
166.0588096943574
 30
0.0
 11
52.28254723067948
 21
168.5588096943574
 31
0.0
  0
LINE
  5
1B49C
330
1F
100
AcDbEntity
  8
11000_Left
  6
HIDDEN
 62
     7
370
     9
100
AcDbLine
 10
52.28254723067948
 20
145.4088096943573
 30
0.0
 11
52.28254723067948
 21
147.4088096943574
 31
0.0
  0
LINE
  5
1B49D
330
1F
100
AcDbEntity
  8
11000_Left
  6
HIDDEN
 62
     7
370
     9
100
AcDbLine
 10
52.28254723067948
 20
147.4088096943574
 30
0.0
 11
52.28254723067948
 21
154.4088096943573
 31
0.0
  0
LINE
  5
1B49E
330
1F
100
AcDbEntity
  8
11000_Left
  6
HIDDEN
 62
     7
370
     9
100
AcDbLine
 10
58.48254723067952
 20
166.0588096943574
 30
0.0
 11
58.48254723067952
 21
168.5588096943574
 31
0.0
  0
LINE
  5
1B49F
330
1F
100
AcDbEntity
  8
11000_Left
  6
HIDDEN
 62
     7
370
     9
100
AcDbLine
 10
58.48254723067952
 20
163.0588096943574
 30
0.0
 11
58.48254723067952
 21
166.0588096943574
 31
0.0
  0
LINE
  5
1B4A0
330
1F
100
AcDbEntity
  8
11000_Left
  6
HIDDEN
 62
     7
370
     9
100
AcDbLine
 10
58.48254723067952
 20
147.4087496943576
 30
0.0
 11
58.48254723067952
 21
163.0588096943574
 31
0.0
  0
LINE
  5
1B4A1
330
1F
100
AcDbEntity
  8
11000_Left
  6
HIDDEN
 62
     7
370
     9
100
AcDbLine
 10
58.48254723067952
 20
145.4088096943573
 30
0.0
 11
58.48254723067952
 21
147.4087496943576
 31
0.0
  0
LINE
  5
1B4A2
330
1F
100
AcDbEntity
  8
11000_Left
  6
HIDDEN
 62
     7
370
     9
100
AcDbLine
 10
52.28254723067948
 20
166.0588096943574
 30
0.0
 11
58.48254723067952
 21
166.0588096943574
 31
0.0
  0
LINE
  5
1B4A3
330
1F
100
AcDbEntity
  8
11000_Left
  6
HIDDEN
 62
     7
370
     9
100
AcDbLine
 10
52.28254723067948
 20
145.4088096943573
 30
0.0
 11
58.48254723067952
 21
145.4088096943573
 31
0.0
  0
LINE
  5
1B4A4
330
1F
100
AcDbEntity
  8
11000_Left
  6
HIDDEN
 62
     7
370
     9
100
AcDbLine
 10
53.28254723067948
 20
154.4088096943573
 30
0.0
 11
53.28254723067948
 21
156.4088096943573
 31
0.0
  0
LINE
  5
1B4A5
330
1F
100
AcDbEntity
  8
11000_Left
  6
HIDDEN
 62
     7
370
     9
100
AcDbLine
 10
53.28254723067948
 20
156.4088096943573
 30
0.0
 11
52.28254723067948
 21
156.4088096943573
 31
0.0
  0
LINE
  5
1B4A6
330
1F
100
AcDbEntity
  8
11000_Left
  6
HIDDEN
 62
     7
370
     9
100
AcDbLine
 10
52.28254723067948
 20
154.4088096943573
 30
0.0
 11
53.28254723067948
 21
154.4088096943573
 31
0.0
  0
LINE
  5
1B4A7
330
1F
100
AcDbEntity
  8
11000_Left
  6
HIDDEN
 62
     7
370
     9
100
AcDbLine
 10
52.28254723067959
 20
263.2088096943577
 30
0.0
 11
58.48254723067952
 21
263.2088096943577
 31
0.0
  0
LINE
  5
1B4A8
330
1F
100
AcDbEntity
  8
11000_Left
  6
HIDDEN
 62
     7
370
     9
100
AcDbLine
 10
52.28254723067959
 20
256.2088096943577
 30
0.0
 11
52.28254723067959
 21
263.2088096943577
 31
0.0
  0
LINE
  5
1B4A9
330
1F
100
AcDbEntity
  8
11000_Left
  6
HIDDEN
 62
     7
370
     9
100
AcDbLine
 10
52.28254723067959
 20
263.2088096943577
 30
0.0
 11
52.28254723067959
 21
265.2088096943577
 31
0.0
  0
LINE
  5
1B4AA
330
1F
100
AcDbEntity
  8
11000_Left
  6
HIDDEN
 62
     7
370
     9
100
AcDbLine
 10
58.48254723067952
 20
263.2088096943577
 30
0.0
 11
58.48254723067952
 21
265.2088096943577
 31
0.0
  0
LINE
  5
1B4AB
330
1F
100
AcDbEntity
  8
11000_Left
  6
HIDDEN
 62
     7
370
     9
100
AcDbLine
 10
58.48254723067952
 20
265.2088096943577
 30
0.0
 11
52.28254723067959
 21
265.2088096943577
 31
0.0
  0
LINE
  5
1B4AC
330
1F
100
AcDbEntity
  8
11000_Left
  6
HIDDEN
 62
     7
370
     9
100
AcDbLine
 10
53.2825472306796
 20
254.2088096943577
 30
0.0
 11
53.2825472306796
 21
256.2088096943577
 31
0.0
  0
LINE
  5
1B4AD
330
1F
100
AcDbEntity
  8
11000_Left
  6
HIDDEN
 62
     7
370
     9
100
AcDbLine
 10
52.28254723067959
 20
254.2088096943577
 30
0.0
 11
53.2825472306796
 21
254.2088096943577
 31
0.0
  0
LINE
  5
1B4AE
330
1F
100
AcDbEntity
  8
11000_Left
  6
HIDDEN
 62
     7
370
     9
100
AcDbLine
 10
53.2825472306796
 20
256.2088096943577
 30
0.0
 11
52.28254723067959
 21
256.2088096943577
 31
0.0
  0
LINE
  5
1B4AF
330
1F
100
AcDbEntity
  8
11000_Left
  6
HIDDEN
 62
     7
370
     9
100
AcDbLine
 10
58.48254723067952
 20
242.0588096943574
 30
0.0
 11
58.48254723067952
 21
263.2088096943577
 31
0.0
  0
LINE
  5
1B4B0
330
1F
100
AcDbEntity
  8
11000_Left
  6
HIDDEN
 62
     7
370
     9
100
AcDbLine
 10
52.28254723067959
 20
242.0588096943574
 30
0.0
 11
52.28254723067959
 21
254.2088096943577
 31
0.0
  0
DIMENSION
  5
1B4B3
330
1F
100
AcDbEntity
  8
10100_FRONT_DIM
  6
Continuous
 62
     7
370
    13
100
AcDbDimension
  2
*D30
 10
-19.76866598482414
 20
167.7588096943571
 30
0.0
 11
-20.01966598482417
 21
205.3088096943571
 31
0.0
 70
   160
 71
     5
 42
75.10000000000013
  3
H035
100
AcDbAlignedDimension
 13
-14.06877598482416
 23
242.8588096943573
 33
0.0
 14
-14.06877598482416
 24
167.7588096943571
 34
0.0
 50
90.0
100
AcDbRotatedDimension
1001
ACAD
1000
DSTYLE
1002
{
1070
    40
1040
1.0
1070
    77
1070
     0
1070
   147
1040
1.5
1070
   272
1070
     0
1070
   279
1070
     1
1070
   288
1070
     1
1002
}
  0
DIMENSION
  5
1B4B4
330
1F
100
AcDbEntity
  8
10100_FRONT_DIM
  6
Continuous
 62
     7
370
    13
100
AcDbDimension
  2
*D31
 10
-10.21904598482416
 20
260.9044041405591
 30
0.0
 11
-24.14532982958053
 21
260.7847955287894
 31
0.0
 70
   160
 71
     5
 42
2.499989999999986
  3
H035
100
AcDbAlignedDimension
 13
-12.71903598482415
 23
255.0219441405591
 33
0.0
 14
-10.21904598482416
 24
253.0219441405586
 34
0.0
100
AcDbRotatedDimension
1001
ACAD
1000
DSTYLE
1002
{
1070
    40
1040
1.0
1070
    77
1070
     0
1070
   147
1040
1.5
1070
   271
1070
     1
1070
   272
1070
     0
1070
   279
1070
     1
1070
   288
1070
     1
1002
}
  0
DIMENSION
  5
1B4B5
330
1F
100
AcDbEntity
  8
10100_FRONT_DIM
  6
Continuous
 62
     7
370
    13
100
AcDbDimension
  2
*D32
 10
-3.019110619714959
 20
265.8961541405065
 30
0.0
 11
-6.619100578636736
 21
265.7848367400133
 31
0.0
 70
   160
 71
     5
 42
7.199999999909245
  3
H035
100
AcDbAlignedDimension
 13
-10.21904598482416
 23
253.0219441405591
 33
0.0
 14
-3.019045984824181
 24
253.0219441405591
 34
0.0
 50
0.0002876531026717
100
AcDbRotatedDimension
1001
ACAD
1000
DSTYLE
1002
{
1070
   172
1070
     0
1070
   282
1070
     0
1070
   281
1070
     0
1070
    76
1070
     0
1070
    40
1040
1.0
1070
    77
1070
     0
1070
   147
1040
1.5
1070
   271
1070
     0
1070
   272
1070
     0
1070
   279
1070
     1
1070
   288
1070
     1
1002
}
  0
DIMENSION
  5
1B4B6
330
1F
100
AcDbEntity
  8
10100_FRONT_DIM
  6
Continuous
 62
     7
370
    13
100
AcDbDimension
  2
*D33
 10
9.780964015175843
 20
272.7640600463907
 30
0.0
 11
-1.469035984824156
 21
272.6598946298455
 31
0.0
 70
   160
 71
     5
 42
22.49999999999996
  3
H035
100
AcDbAlignedDimension
 13
-12.71903598482412
 23
247.3088096943572
 33
0.0
 14
9.780964015175841
 24
255.0219441405591
 34
0.0
100
AcDbRotatedDimension
1001
ACAD
1000
DSTYLE
1002
{
1070
    40
1040
1.0
1070
    77
1070
     0
1070
   147
1040
1.5
1070
   271
1070
     1
1070
   272
1070
     0
1070
   279
1070
     1
1070
   288
1070
     1
1002
}
  0
LINE
  5
1B4B7
330
1F
100
AcDbEntity
  8
10000_FRONT
  6
Continuous
 62
     7
370
    50
100
AcDbLine
 10
-12.71903598482413
 20
178.0088096943571
 30
0.0
 11
-12.71903598482413
 21
232.5588096943572
 31
0.0
  0
LINE
  5
1B4B8
330
1F
100
AcDbEntity
  8
10000_FRONT
  6
Continuous
 62
     7
370
    50
100
AcDbLine
 10
9.780964015175868
 20
232.5588096943572
 30
0.0
 11
9.780964015175868
 21
178.0588096943571
 31
0.0
  0
LINE
  5
1B4B9
330
1F
100
AcDbEntity
  8
10000_FRONT
  6
Continuous
 62
     7
370
    13
100
AcDbLine
 10
6.830964015175823
 20
231.9588096943573
 30
0.0
 11
7.780964015175868
 21
231.9588096943573
 31
0.0
  0
LINE
  5
1B4BA
330
1F
100
AcDbEntity
  8
10000_FRONT
  6
Continuous
 62
     7
370
    13
100
AcDbLine
 10
7.780964015175868
 20
231.9588096943573
 30
0.0
 11
7.780964015175868
 21
227.9588096943573
 31
0.0
  0
LINE
  5
1B4BB
330
1F
100
AcDbEntity
  8
10000_FRONT
  6
Continuous
 62
     7
370
    13
100
AcDbLine
 10
7.780964015175868
 20
227.9588096943573
 30
0.0
 11
6.830964015175823
 21
227.9588096943573
 31
0.0
  0
LINE
  5
1B4BC
330
1F
100
AcDbEntity
  8
10000_FRONT
  6
Continuous
 62
     7
370
    13
100
AcDbLine
 10
6.830964015175823
 20
227.9588096943573
 30
0.0
 11
6.830964015175823
 21
231.9588096943573
 31
0.0
  0
LINE
  5
1B4BD
330
1F
100
AcDbEntity
  8
10000_FRONT
  6
Continuous
 62
     7
370
    50
100
AcDbLine
 10
8.280964015175868
 20
162.2088096943573
 30
0.0
 11
-11.21903598482413
 21
162.2088096943573
 31
0.0
  0
ARC
  5
1B4BE
330
1F
100
AcDbEntity
  8
10000_FRONT
  6
Continuous
 62
     7
370
    50
100
AcDbCircle
 10
7.839347138479382
 20
164.176401058238
 30
0.0
 40
2.126638396755141
100
AcDbArc
 50
302.4672598699307
 51
335.9230155449491
  0
ARC
  5
1B4BF
330
1F
100
AcDbEntity
  8
10000_FRONT
  6
Continuous
 62
     7
370
    50
100
AcDbCircle
 10
8.280964015175868
 20
163.7088096943573
 30
0.0
 40
1.5
100
AcDbArc
 50
270.0
 51
297.8181400000007
  0
LINE
  5
1B4C0
330
1F
100
AcDbEntity
  8
10000_FRONT
  6
Continuous
 62
     7
370
    13
100
AcDbLine
 10
8.930964015175845
 20
174.1985596943571
 30
0.0
 11
8.930964015175845
 21
170.5588096943571
 31
0.0
  0
LINE
  5
1B4C1
330
1F
100
AcDbEntity
  8
10000_FRONT
  6
Continuous
 62
     7
370
    50
100
AcDbLine
 10
-12.71903598482413
 20
163.7088096943573
 30
0.0
 11
-12.71903598482413
 21
178.0088096943571
 31
0.0
  0
LINE
  5
1B4C2
330
1F
100
AcDbEntity
  8
10000_FRONT
  6
Continuous
 62
     7
370
    50
100
AcDbLine
 10
-12.71903598482413
 20
163.3088096943571
 30
0.0
 11
-12.71903598482413
 21
163.7088196943571
 31
0.0
  0
LINE
  5
1B4C3
330
1F
100
AcDbEntity
  8
10000_FRONT
  6
Continuous
 62
     7
370
    50
100
AcDbLine
 10
9.780964015175868
 20
163.7088196943571
 30
0.0
 11
9.780964015175868
 21
163.3088096943571
 31
0.0
  0
LINE
  5
1B4C4
330
1F
100
AcDbEntity
  8
10000_FRONT
  6
Continuous
 62
     7
370
    50
100
AcDbLine
 10
9.780964015175868
 20
178.0088096943571
 30
0.0
 11
9.780964015175868
 21
163.7088096943573
 31
0.0
  0
LINE
  5
1B4C5
330
1F
100
AcDbEntity
  8
10000_FRONT
  6
Continuous
 62
     7
370
    13
100
AcDbLine
 10
9.780964015175868
 20
178.0088096943571
 30
0.0
 11
9.780964015175868
 21
178.0588096943571
 31
0.0
  0
LINE
  5
1B4C6
330
1F
100
AcDbEntity
  8
10000_FRONT
  6
Continuous
 62
     7
370
    13
100
AcDbLine
 10
-12.71903598482413
 20
178.008809694357
 30
0.0
 11
9.780964015175868
 21
178.0088096943571
 31
0.0
  0
LINE
  5
1B4C7
330
1F
100
AcDbEntity
  8
10000_FRONT
  6
Continuous
 62
     7
370
    13
100
AcDbLine
 10
2.530964015175868
 20
170.5588096943571
 30
0.0
 11
2.530964015175868
 21
174.1985596943571
 31
0.0
  0
LINE
  5
1B4C8
330
1F
100
AcDbEntity
  8
10000_FRONT
  6
Continuous
 62
     7
370
    13
100
AcDbLine
 10
5.580964015175823
 20
174.1985596943571
 30
0.0
 11
5.580964015175823
 21
170.5588096943571
 31
0.0
  0
LINE
  5
1B4C9
330
1F
100
AcDbEntity
  8
10000_FRONT
  6
Continuous
 62
     7
370
    13
100
AcDbLine
 10
5.580964015175823
 20
170.5588096943571
 30
0.0
 11
2.530964015175868
 21
170.5588096943571
 31
0.0
  0
LINE
  5
1B4CA
330
1F
100
AcDbEntity
  8
10000_FRONT
  6
Continuous
 62
     7
370
    13
100
AcDbLine
 10
5.880964015175834
 20
170.5588096943571
 30
0.0
 11
5.880964015175834
 21
174.1985596943571
 31
0.0
  0
LINE
  5
1B4CB
330
1F
100
AcDbEntity
  8
10000_FRONT
  6
Continuous
 62
     7
370
    13
100
AcDbLine
 10
8.930964015175845
 20
170.5588096943571
 30
0.0
 11
5.880964015175834
 21
170.5588096943571
 31
0.0
  0
LINE
  5
1B4CC
330
1F
100
AcDbEntity
  8
10000_FRONT
  6
Continuous
 62
     7
370
    13
100
AcDbLine
 10
-8.711855984824182
 20
177.2088096943573
 30
0.0
 11
5.773784015175806
 21
177.2088096943573
 31
0.0
  0
LINE
  5
1B4CD
330
1F
100
AcDbEntity
  8
10000_FRONT
  6
Continuous
 62
     7
370
    13
100
AcDbLine
 10
-3.169035984824176
 20
176.6888096943573
 30
0.0
 11
-4.869035984824165
 21
176.6888096943573
 31
0.0
  0
LINE
  5
1B4CE
330
1F
100
AcDbEntity
  8
10000_FRONT
  6
Continuous
 62
     7
370
    13
100
AcDbLine
 10
1.930964015175845
 20
176.6888096943573
 30
0.0
 11
0.2309640151758003
 21
176.6888096943573
 31
0.0
  0
ARC
  5
1B4CF
330
1F
100
AcDbEntity
  8
10000_FRONT
  6
Continuous
 62
     7
370
    13
100
AcDbCircle
 10
-3.169035984824176
 20
176.4888096943572
 30
0.0
 40
0.2
100
AcDbArc
 50
359.999989999999
 51
90.00000999999937
  0
LINE
  5
1B4D0
330
1F
100
AcDbEntity
  8
10000_FRONT
  6
Continuous
 62
     7
370
    13
100
AcDbLine
 10
-2.969035984824131
 20
175.8588096943572
 30
0.0
 11
-2.969035984824131
 21
176.4888096943572
 31
0.0
  0
LINE
  5
1B4D1
330
1F
100
AcDbEntity
  8
10000_FRONT
  6
Continuous
 62
     7
370
    13
100
AcDbLine
 10
0.0309640151758686
 20
176.4888096943572
 30
0.0
 11
0.0309640151758686
 21
175.8588096943572
 31
0.0
  0
ARC
  5
1B4D2
330
1F
100
AcDbEntity
  8
10000_FRONT
  6
Continuous
 62
     7
370
    13
100
AcDbCircle
 10
0.2309640151758003
 20
176.4888096943572
 30
0.0
 40
0.2
100
AcDbArc
 50
89.99998799999945
 51
180.0000100000009
  0
LINE
  5
1B4D3
330
1F
100
AcDbEntity
  8
10000_FRONT
  6
Continuous
 62
     7
370
    13
100
AcDbLine
 10
1.930964015175845
 20
176.1188796943571
 30
0.0
 11
1.930964015175845
 21
176.6888096943573
 31
0.0
  0
LINE
  5
1B4D4
330
1F
100
AcDbEntity
  8
10000_FRONT
  6
Continuous
 62
     7
370
    13
100
AcDbLine
 10
-4.869035984824165
 20
176.6888096943573
 30
0.0
 11
-4.869035984824165
 21
176.1188796943571
 31
0.0
  0
LINE
  5
1B4D5
330
1F
100
AcDbEntity
  8
10000_FRONT
  6
Continuous
 62
     7
370
    13
100
AcDbLine
 10
-9.319035984824154
 20
175.2854396943572
 30
0.0
 11
-9.319035984824154
 21
178.0088096943571
 31
0.0
  0
LINE
  5
1B4D6
330
1F
100
AcDbEntity
  8
10000_FRONT
  6
Continuous
 62
     7
370
    13
100
AcDbLine
 10
-3.619035984824165
 20
175.6815896943571
 30
0.0
 11
-3.619035984824165
 21
176.1188796943571
 31
0.0
  0
LINE
  5
1B4D7
330
1F
100
AcDbEntity
  8
10000_FRONT
  6
Continuous
 62
     7
370
    13
100
AcDbLine
 10
-2.969035984824131
 20
175.8588096943572
 30
0.0
 11
0.0309640151758686
 21
175.8588096943572
 31
0.0
  0
LINE
  5
1B4D8
330
1F
100
AcDbEntity
  8
10000_FRONT
  6
Continuous
 62
     7
370
    13
100
AcDbLine
 10
0.6809640151758459
 20
176.1188796943571
 30
0.0
 11
0.6809640151758459
 21
175.6815896943571
 31
0.0
  0
LINE
  5
1B4D9
330
1F
100
AcDbEntity
  8
10000_FRONT
  6
Continuous
 62
     7
370
    13
100
AcDbLine
 10
6.380964015175834
 20
178.0088096943571
 30
0.0
 11
6.380964015175834
 21
175.2854396943572
 31
0.0
  0
ARC
  5
1B4DA
330
1F
100
AcDbEntity
  8
10000_FRONT
  6
Continuous
 62
     7
370
    50
100
AcDbCircle
 10
-10.77741910812875
 20
164.1764010582375
 30
0.0
 40
2.126638396753933
100
AcDbArc
 50
204.0769844550507
 51
237.5327401300831
  0
ARC
  5
1B4DB
330
1F
100
AcDbEntity
  8
10000_FRONT
  6
Continuous
 62
     7
370
    50
100
AcDbCircle
 10
-11.21903598482413
 20
163.7088096943573
 30
0.0
 40
1.5
100
AcDbArc
 50
242.1818599999994
 51
270.0
  0
LINE
  5
1B4DC
330
1F
100
AcDbEntity
  8
10000_FRONT
  6
Continuous
 62
     7
370
    13
100
AcDbLine
 10
9.080654015175809
 20
167.0596496943571
 30
0.0
 11
9.080654015175809
 21
167.8088096943571
 31
0.0
  0
LINE
  5
1B4DD
330
1F
100
AcDbEntity
  8
10000_FRONT
  6
Continuous
 62
     7
370
    13
100
AcDbLine
 10
5.734454015175856
 20
166.1377796943571
 30
0.0
 11
5.7309640151758
 21
166.3274396943571
 31
0.0
  0
LINE
  5
1B4DE
330
1F
100
AcDbEntity
  8
10000_FRONT
  6
Continuous
 62
     7
370
    13
100
AcDbLine
 10
6.080964015175823
 20
174.9808096943571
 30
0.0
 11
-9.019035984824199
 21
174.9808096943571
 31
0.0
  0
LINE
  5
1B4DF
330
1F
100
AcDbEntity
  8
10000_FRONT
  6
Continuous
 62
     7
370
    13
100
AcDbLine
 10
5.880964015175834
 20
174.1985596943571
 30
0.0
 11
8.930964015175845
 21
174.1985596943571
 31
0.0
  0
LINE
  5
1B4E0
330
1F
100
AcDbEntity
  8
10000_FRONT
  6
Continuous
 62
     7
370
    13
100
AcDbLine
 10
2.530964015175868
 20
174.1985596943571
 30
0.0
 11
5.580964015175823
 21
174.1985596943571
 31
0.0
  0
LINE
  5
1B4E1
330
1F
100
AcDbEntity
  8
10000_FRONT
  6
Continuous
 62
     7
370
    13
100
AcDbLine
 10
-1.319035984824154
 20
174.1985596943571
 30
0.0
 11
1.7309640151758
 21
174.1985596943571
 31
0.0
  0
LINE
  5
1B4E2
330
1F
100
AcDbEntity
  8
10000_FRONT
  6
Continuous
 62
     7
370
    13
100
AcDbLine
 10
-4.669035984824176
 20
174.1985596943571
 30
0.0
 11
-1.619035984824165
 21
174.1985596943571
 31
0.0
  0
LINE
  5
1B4E3
330
1F
100
AcDbEntity
  8
10000_FRONT
  6
Continuous
 62
     7
370
    13
100
AcDbLine
 10
-8.519035984824199
 20
174.1985596943571
 30
0.0
 11
-5.469035984824131
 21
174.1985596943571
 31
0.0
  0
LINE
  5
1B4E4
330
1F
100
AcDbEntity
  8
10000_FRONT
  6
Continuous
 62
     7
370
    13
100
AcDbLine
 10
-11.86903598482416
 20
174.1985596943571
 30
0.0
 11
-8.819035984824154
 21
174.1985596943571
 31
0.0
  0
LINE
  5
1B4E5
330
1F
100
AcDbEntity
  8
10000_FRONT
  6
Continuous
 62
     7
370
    13
100
AcDbLine
 10
5.7309640151758
 20
166.6774396943571
 30
0.0
 11
5.7309640151758
 21
166.3274396943571
 31
0.0
  0
LINE
  5
1B4E6
330
1F
100
AcDbEntity
  8
10000_FRONT
  6
Continuous
 62
     7
370
    13
100
AcDbLine
 10
5.730974015175831
 20
166.6774696943573
 30
0.0
 11
5.730974015175831
 21
168.9401696943573
 31
0.0
  0
LINE
  5
1B4E7
330
1F
100
AcDbEntity
  8
10000_FRONT
  6
Continuous
 62
     7
370
    13
100
AcDbLine
 10
5.730974015175831
 20
169.1661896943571
 30
0.0
 11
5.730974015175831
 21
168.9401896943571
 31
0.0
  0
LINE
  5
1B4E8
330
1F
100
AcDbEntity
  8
10000_FRONT
  6
Continuous
 62
     7
370
    13
100
AcDbLine
 10
-3.469035984824131
 20
177.2088096943573
 30
0.0
 11
-3.469035984824131
 21
178.0088096943571
 31
0.0
  0
LINE
  5
1B4E9
330
1F
100
AcDbEntity
  8
10000_FRONT
  6
Continuous
 62
     7
370
    13
100
AcDbLine
 10
0.5309640151758686
 20
178.0088096943571
 30
0.0
 11
0.5309640151758686
 21
177.2088096943573
 31
0.0
  0
LINE
  5
1B4EA
330
1F
100
AcDbEntity
  8
10000_FRONT
  6
Continuous
 62
     7
370
    13
100
AcDbLine
 10
-5.465785984824151
 20
178.0088096943571
 30
0.0
 11
-5.465785984824151
 21
177.2088096943573
 31
0.0
  0
LINE
  5
1B4EB
330
1F
100
AcDbEntity
  8
10000_FRONT
  6
Continuous
 62
     7
370
    13
100
AcDbLine
 10
-8.569035984824154
 20
178.0088096943571
 30
0.0
 11
-8.711855984824182
 21
177.2088096943573
 31
0.0
  0
LINE
  5
1B4EC
330
1F
100
AcDbEntity
  8
10000_FRONT
  6
Continuous
 62
     7
370
    13
100
AcDbLine
 10
5.773784015175806
 20
177.2088096943573
 30
0.0
 11
5.630964015175834
 21
178.0088096943571
 31
0.0
  0
LINE
  5
1B4ED
330
1F
100
AcDbEntity
  8
10000_FRONT
  6
Continuous
 62
     7
370
    13
100
AcDbLine
 10
0.6809640151758459
 20
176.1188796943571
 30
0.0
 11
1.930964015175845
 21
176.1188796943571
 31
0.0
  0
LINE
  5
1B4EE
330
1F
100
AcDbEntity
  8
10000_FRONT
  6
Continuous
 62
     7
370
    13
100
AcDbLine
 10
-4.869035984824165
 20
176.1188796943571
 30
0.0
 11
-3.619035984824165
 21
176.1188796943571
 31
0.0
  0
LINE
  5
1B4EF
330
1F
100
AcDbEntity
  8
10000_FRONT
  6
Continuous
 62
     7
370
    13
100
AcDbLine
 10
0.6809640151758459
 20
175.6815896943571
 30
0.0
 11
-3.619035984824165
 21
175.6815896943571
 31
0.0
  0
LINE
  5
1B4F0
330
1F
100
AcDbEntity
  8
10000_FRONT
  6
Continuous
 62
     7
370
    13
100
AcDbLine
 10
2.527724015175863
 20
178.0088096943571
 30
0.0
 11
2.527724015175863
 21
177.2088096943573
 31
0.0
  0
LINE
  5
1B4F1
330
1F
100
AcDbEntity
  8
10000_FRONT
  6
Continuous
 62
     7
370
    50
100
AcDbLine
 10
-11.21903598482413
 20
248.4088096943571
 30
0.0
 11
8.280964015175868
 21
248.4088096943571
 31
0.0
  0
ARC
  5
1B4F2
330
1F
100
AcDbEntity
  8
10000_FRONT
  6
Continuous
 62
     7
370
    50
100
AcDbCircle
 10
-10.77741910812821
 20
246.4412183304768
 30
0.0
 40
2.126638396754354
100
AcDbArc
 50
122.4672598699279
 51
155.9230155449633
  0
ARC
  5
1B4F3
330
1F
100
AcDbEntity
  8
10000_FRONT
  6
Continuous
 62
     7
370
    50
100
AcDbCircle
 10
-11.21903598482413
 20
246.9088096943571
 30
0.0
 40
1.5
100
AcDbArc
 50
89.99999499999949
 51
117.8181400000006
  0
LINE
  5
1B4F4
330
1F
100
AcDbEntity
  8
10000_FRONT
  6
Continuous
 62
     7
370
    50
100
AcDbLine
 10
9.780964015175868
 20
246.9088096943571
 30
0.0
 11
9.780964015175868
 21
232.6088096943573
 31
0.0
  0
LINE
  5
1B4F5
330
1F
100
AcDbEntity
  8
10000_FRONT
  6
Continuous
 62
     7
370
    13
100
AcDbLine
 10
9.780964015175868
 20
232.6088096943573
 30
0.0
 11
9.780964015175868
 21
232.5588096943572
 31
0.0
  0
LINE
  5
1B4F6
330
1F
100
AcDbEntity
  8
10000_FRONT
  6
Continuous
 62
     7
370
    50
100
AcDbLine
 10
9.780964015175868
 20
247.3088096943572
 30
0.0
 11
9.780964015175868
 21
246.9088096943571
 31
0.0
  0
LINE
  5
1B4F7
330
1F
100
AcDbEntity
  8
10000_FRONT
  6
Continuous
 62
     7
370
    50
100
AcDbLine
 10
-12.71903598482413
 20
246.9087996943571
 30
0.0
 11
-12.71903598482413
 21
247.3088096943572
 31
0.0
  0
LINE
  5
1B4F8
330
1F
100
AcDbEntity
  8
10000_FRONT
  6
Continuous
 62
     7
370
    50
100
AcDbLine
 10
-12.71903598482413
 20
232.6088096943573
 30
0.0
 11
-12.71903598482413
 21
246.9088096943571
 31
0.0
  0
LINE
  5
1B4F9
330
1F
100
AcDbEntity
  8
10000_FRONT
  6
Continuous
 62
     7
370
    13
100
AcDbLine
 10
-12.71903598482413
 20
232.6088096943573
 30
0.0
 11
-12.71903598482413
 21
232.5588096943572
 31
0.0
  0
ARC
  5
1B4FA
330
1F
100
AcDbEntity
  8
10000_FRONT
  6
Continuous
 62
     7
370
    50
100
AcDbCircle
 10
7.839347138480007
 20
246.4412183304771
 30
0.0
 40
2.126638396754219
100
AcDbArc
 50
24.07698445503646
 51
57.532740130071
  0
ARC
  5
1B4FB
330
1F
100
AcDbEntity
  8
10000_FRONT
  6
Continuous
 62
     7
370
    50
100
AcDbCircle
 10
8.280964015175868
 20
246.9088096943571
 30
0.0
 40
1.5
100
AcDbArc
 50
62.18186099999694
 51
90.00000500000046
  0
LINE
  5
1B4FC
330
1F
100
AcDbEntity
  8
10000_FRONT
  6
Continuous
 62
     7
370
    13
100
AcDbLine
 10
8.530964015175868
 20
181.3088096943571
 30
0.0
 11
-11.46903598482413
 21
181.3088096943571
 31
0.0
  0
LINE
  5
1B4FD
330
1F
100
AcDbEntity
  8
10000_FRONT
  6
Continuous
 62
     7
370
    13
100
AcDbLine
 10
-11.46903598482413
 20
188.3088096943571
 30
0.0
 11
8.530964015175868
 21
188.3088096943571
 31
0.0
  0
LINE
  5
1B4FE
330
1F
100
AcDbEntity
  8
10000_FRONT
  6
Continuous
 62
     7
370
    13
100
AcDbLine
 10
8.530964015175868
 20
188.3088096943571
 30
0.0
 11
8.530964015175868
 21
181.3088096943571
 31
0.0
  0
LINE
  5
1B4FF
330
1F
100
AcDbEntity
  8
10000_FRONT
  6
Continuous
 62
     7
370
    13
100
AcDbLine
 10
-11.46903598482413
 20
181.3088096943571
 30
0.0
 11
-11.46903598482413
 21
188.3088096943571
 31
0.0
  0
DIMENSION
  5
1B674
102
{ACAD_XDICTIONARY
360
1B683
102
}
102
{ACAD_REACTORS
330
1B68F
102
}
330
1F
100
AcDbEntity
  8
11100_LEFT_DIM
  6
Continuous
 62
     7
370
    13
100
AcDbDimension
  2
*D34
 10
52.30754723067957
 20
178.9234198812411
 30
0.0
 11
54.85754723067955
 21
178.9234198812411
 31
0.0
 70
   160
 71
     5
 42
5.099999999999965
  3
H035
100
AcDbAlignedDimension
 13
57.40754723067954
 23
185.0588096943572
 33
0.0
 14
52.30754723067957
 24
187.9588096943571
 34
0.0
100
AcDbRotatedDimension
1001
ACAD
1000
DSTYLE
1002
{
1070
   172
1070
     0
1070
    75
1070
     0
1070
    40
1040
1.0
1070
   147
1040
1.5
1070
   279
1070
     1
1070
   288
1070
     1
1002
}
  0
LINE
  5
1B6D4
330
1F
100
AcDbEntity
  8
11000_Left
  6
Continuous
 62
     7
370
    13
100
AcDbLine
 10
57.40754723067954
 20
189.2088096943571
 30
0.0
 11
57.40754723067954
 21
185.0588096943572
 31
0.0
  0
LINE
  5
1B6D5
330
1F
100
AcDbEntity
  8
11000_Left
  6
Continuous
 62
     7
370
    50
100
AcDbLine
 10
57.40754723067954
 20
221.4088096943571
 30
0.0
 11
57.40754723067954
 21
197.4088096943571
 31
0.0
  0
ENDSEC
  0
SECTION
  2
OBJECTS
  0
DICTIONARY
  5
C
330
0
100
AcDbDictionary
281
     1
  3
ACAD_COLOR
350
6B
  3
ACAD_GROUP
350
D
  3
ACAD_LAYOUT
350
1A
  3
ACAD_MATERIAL
350
6A
  3
ACAD_MLINESTYLE
350
17
  3
ACAD_PLOTSETTINGS
350
19
  3
ACAD_PLOTSTYLENAME
350
E
  3
ACDBHEADERROUNDTRIPXREC
350
1B70C
  3
AcDbVariableDictionary
350
5E
  3
DWGPROPS
350
1B70B
  0
DICTIONARY
  5
1B683
330
1B674
100
AcDbDictionary
280
     1
281
     1
  3
ACAD_DIMASSOC
360
1B68F
  0
DICTIONARY
  5
6B
102
{ACAD_REACTORS
330
C
102
}
330
C
100
AcDbDictionary
281
     1
  0
DICTIONARY
  5
D
102
{ACAD_REACTORS
330
C
102
}
330
C
100
AcDbDictionary
281
     1
  0
DICTIONARY
  5
1A
102
{ACAD_REACTORS
330
C
102
}
330
C
100
AcDbDictionary
281
     1
  3
Layout1
350
51
  3
Layout2
350
56
  3
Model
350
22
  0
DICTIONARY
  5
6A
102
{ACAD_REACTORS
330
C
102
}
330
C
100
AcDbDictionary
281
     1
  0
DICTIONARY
  5
17
102
{ACAD_REACTORS
330
C
102
}
330
C
100
AcDbDictionary
281
     1
  3
Standard
350
18
  0
DICTIONARY
  5
19
102
{ACAD_REACTORS
330
C
102
}
330
C
100
AcDbDictionary
281
     1
  0
ACDBDICTIONARYWDFLT
  5
E
102
{ACAD_REACTORS
330
C
102
}
330
C
100
AcDbDictionary
281
     1
  3
Normal
350
F
100
AcDbDictionaryWithDefault
340
F
  0
DICTIONARY
  5
1B70C
102
{ACAD_REACTORS
330
C
102
}
330
C
100
AcDbDictionary
281
     1
  3
COLORDICT
350
1B70E
  3
MATERIALDICT
350
1B70D
  0
DICTIONARY
  5
5E
102
{ACAD_REACTORS
330
C
102
}
330
C
100
AcDbDictionary
281
     1
  3
DIMASSOC
350
5F
  3
HIDETEXT
350
63
  3
PROJECTNAME
350
876
  0
XRECORD
  5
1B70B
102
{ACAD_REACTORS
330
C
102
}
330
C
100
AcDbXrecord
280
     1
  1
DWGPROPS COOKIE
  2

  3

  4

  6

  7

  8

  9

300
=
301
=
302
=
303
=
304
=
305
=
306
=
307
=
308
=
309
=
 40
1.322757708333333
 41
2453200.47923772
 42
2453427.361833322
  1

 90
        0
  0
DIMASSOC
  5
1B68F
102
{ACAD_REACTORS
330
1B683
102
}
330
1B683
100
AcDbDimAssoc
330
1B674
 90
        3
 70
     0
 71
     0
  1
AcDbOsnapPointRef
 72
     1
331
1B415
 73
     2
 91
        0
 40
6.283185307179586
 10
0.0
 20
0.0
 30
2.000000000000000E+50
 75
     0
  1
AcDbOsnapPointRef
 72
    13
331
1B41F
 73
     2
 91
        0
 40
0.0
 10
0.0
 20
0.0
 30
2.000000000000000E+50
 75
     0
  0
LAYOUT
  5
51
102
{ACAD_XDICTIONARY
360
1B711
102
}
102
{ACAD_REACTORS
330
1A
102
}
330
1A
100
AcDbPlotSettings
  1

  2
None
  4

  6

 40
0.0
 41
0.0
 42
0.0
 43
0.0
 44
0.0
 45
0.0
 46
0.0
 47
0.0
 48
0.0
 49
0.0
140
0.0
141
0.0
142
1.0
143
1.0
 70
   688
 72
     0
 73
     0
 74
     5
  7

 75
    16
147
1.0
148
0.0
149
0.0
100
AcDbLayout
  1
Layout1
 70
     1
 71
     1
 10
0.0
 20
0.0
 11
12.0
 21
9.0
 12
0.0
 22
0.0
 32
0.0
 14
0.0
 24
0.0
 34
0.0
 15
0.0
 25
0.0
 35
0.0
146
0.0
 13
0.0
 23
0.0
 33
0.0
 16
1.0
 26
0.0
 36
0.0
 17
0.0
 27
1.0
 37
0.0
 76
     0
330
50
  0
LAYOUT
  5
56
102
{ACAD_XDICTIONARY
360
1B713
102
}
102
{ACAD_REACTORS
330
1A
102
}
330
1A
100
AcDbPlotSettings
  1

  2
None
  4

  6

 40
0.0
 41
0.0
 42
0.0
 43
0.0
 44
0.0
 45
0.0
 46
0.0
 47
0.0
 48
0.0
 49
0.0
140
0.0
141
0.0
142
1.0
143
1.0
 70
   688
 72
     0
 73
     0
 74
     5
  7

 75
    16
147
1.0
148
0.0
149
0.0
100
AcDbLayout
  1
Layout2
 70
     1
 71
     2
 10
0.0
 20
0.0
 11
12.0
 21
9.0
 12
0.0
 22
0.0
 32
0.0
 14
0.0
 24
0.0
 34
0.0
 15
0.0
 25
0.0
 35
0.0
146
0.0
 13
0.0
 23
0.0
 33
0.0
 16
1.0
 26
0.0
 36
0.0
 17
0.0
 27
1.0
 37
0.0
 76
     0
330
55
  0
LAYOUT
  5
22
102
{ACAD_XDICTIONARY
360
1B70F
102
}
102
{ACAD_REACTORS
330
1A
102
}
330
1A
100
AcDbPlotSettings
  1

  2
\\AMBW779A\A_P00873 (Canon iR2200-3300 PCL6)
  4
A4
  6

 40
4.815416812896728
 41
4.815412044525146
 42
4.815414428710936
 43
4.8154296875
 44
209.9733276367186
 45
296.9259948730469
 46
0.0
 47
0.0
 48
0.0
 49
0.0
140
0.0
141
0.0
142
1.0
143
0.9984717142117512
 70
 11952
 72
     1
 73
     1
 74
     1
  7

 75
     0
147
1.001530625020714
148
78.31258911787084
149
-94.84277423941851
100
AcDbLayout
  1
Model
 70
     1
 71
     0
 10
0.0
 20
0.0
 11
12.0
 21
9.0
 12
0.0
 22
0.0
 32
0.0
 14
0.0
 24
0.0
 34
0.0
 15
0.0
 25
0.0
 35
0.0
146
0.0
 13
0.0
 23
0.0
 33
0.0
 16
1.0
 26
0.0
 36
0.0
 17
0.0
 27
1.0
 37
0.0
 76
     0
330
1F
  0
MLINESTYLE
  5
18
102
{ACAD_REACTORS
330
17
102
}
330
17
100
AcDbMlineStyle
  2
STANDARD
 70
     0
  3

 62
   256
 51
90.0
 52
90.0
 71
     2
 49
0.5
 62
   256
  6
BYLAYER
 49
-0.5
 62
   256
  6
BYLAYER
  0
ACDBPLACEHOLDER
  5
F
102
{ACAD_REACTORS
330
E
102
}
330
E
  0
XRECORD
  5
1B70E
102
{ACAD_REACTORS
330
1B70C
102
}
330
1B70C
100
AcDbXrecord
280
     1
340
6B
  0
XRECORD
  5
1B70D
102
{ACAD_REACTORS
330
1B70C
102
}
330
1B70C
100
AcDbXrecord
280
     1
340
6A
  0
DICTIONARYVAR
  5
5F
102
{ACAD_REACTORS
330
5E
102
}
330
5E
100
DictionaryVariables
280
     0
  1
2
  0
DICTIONARYVAR
  5
63
102
{ACAD_REACTORS
330
5E
102
}
330
5E
100
DictionaryVariables
280
     0
  1
1
  0
DICTIONARYVAR
  5
876
102
{ACAD_REACTORS
330
5E
102
}
330
5E
100
DictionaryVariables
280
     0
  1

  0
DICTIONARY
  5
1B711
330
51
100
AcDbDictionary
280
     1
281
     1
  3
ACAD_XREC_ROUNDTRIP
360
1B712
  0
DICTIONARY
  5
1B713
330
56
100
AcDbDictionary
280
     1
281
     1
  3
ACAD_XREC_ROUNDTRIP
360
1B714
  0
DICTIONARY
  5
1B70F
330
22
100
AcDbDictionary
280
     1
281
     1
  3
ACAD_XREC_ROUNDTRIP
360
1B710
  0
XRECORD
  5
1B712
102
{ACAD_REACTORS
330
1B711
102
}
330
1B711
100
AcDbXrecord
280
     1
102
SHADEPLOT
 70
     0
102
SHADEPLOTRESLEVEL
 70
     2
102
SHADEPLOTCUSTOMDPI
 70
   300
  0
XRECORD
  5
1B714
102
{ACAD_REACTORS
330
1B713
102
}
330
1B713
100
AcDbXrecord
280
     1
102
SHADEPLOT
 70
     0
102
SHADEPLOTRESLEVEL
 70
     2
102
SHADEPLOTCUSTOMDPI
 70
   300
  0
XRECORD
  5
1B710
102
{ACAD_REACTORS
330
1B70F
102
}
330
1B70F
100
AcDbXrecord
280
     1
102
SHADEPLOT
 70
     0
102
SHADEPLOTRESLEVEL
 70
     2
102
SHADEPLOTCUSTOMDPI
 70
   300
  0
ENDSEC
  0
EOF
