  0
SECTION
  2
HEADER
  9
$ACADVER
  1
AC1015
  9
$ACADMAINTVER
 70
    20
  9
$DWGCODEPAGE
  3
ANSI_1252
  9
$INSBASE
 10
0.0
 20
0.0
 30
0.0
  9
$EXTMIN
 10
1055.851340342458
 20
202.2333520829548
 30
-1.000976505457622
  9
$EXTMAX
 10
1326.013819582549
 20
402.2693147644908
 30
0.2502441758409262
  9
$LIMMIN
 10
0.0
 20
0.0
  9
$LIMMAX
 10
420.0
 20
297.0
  9
$ORTHOMODE
 70
     1
  9
$REGENMODE
 70
     1
  9
$FILLMODE
 70
     1
  9
$QTEXTMODE
 70
     0
  9
$MIRRTEXT
 70
     1
  9
$LTSCALE
 40
1.0
  9
$ATTMODE
 70
     1
  9
$TEXTSIZE
 40
2.5
  9
$TRACEWID
 40
1.0
  9
$TEXTSTYLE
  7
Standard
  9
$CLAYER
  8
0
  9
$CELTYPE
  6
ByLayer
  9
$CECOLOR
 62
   256
  9
$CELTSCALE
 40
1.0
  9
$DISPSILH
 70
     0
  9
$DIMSCALE
 40
1.0
  9
$DIMASZ
 40
2.5
  9
$DIMEXO
 40
0.625
  9
$DIMDLI
 40
3.75
  9
$DIMRND
 40
0.0
  9
$DIMDLE
 40
0.0
  9
$DIMEXE
 40
1.25
  9
$DIMTP
 40
0.0
  9
$DIMTM
 40
0.0
  9
$DIMTXT
 40
2.5
  9
$DIMCEN
 40
2.5
  9
$DIMTSZ
 40
0.0
  9
$DIMTOL
 70
     0
  9
$DIMLIM
 70
     0
  9
$DIMTIH
 70
     0
  9
$DIMTOH
 70
     0
  9
$DIMSE1
 70
     0
  9
$DIMSE2
 70
     0
  9
$DIMTAD
 70
     0
  9
$DIMZIN
 70
     8
  9
$DIMBLK
  1

  9
$DIMASO
 70
     1
  9
$DIMSHO
 70
     1
  9
$DIMPOST
  1

  9
$DIMAPOST
  1

  9
$DIMALT
 70
     0
  9
$DIMALTD
 70
     3
  9
$DIMALTF
 40
0.03937007874016
  9
$DIMLFAC
 40
1.0
  9
$DIMTOFL
 70
     1
  9
$DIMTVP
 40
0.0
  9
$DIMTIX
 70
     0
  9
$DIMSOXD
 70
     0
  9
$DIMSAH
 70
     0
  9
$DIMBLK1
  1

  9
$DIMBLK2
  1

  9
$DIMSTYLE
  2
ISO-25
  9
$DIMCLRD
 70
     0
  9
$DIMCLRE
 70
     0
  9
$DIMCLRT
 70
     0
  9
$DIMTFAC
 40
1.0
  9
$DIMGAP
 40
0.625
  9
$DIMJUST
 70
     0
  9
$DIMSD1
 70
     0
  9
$DIMSD2
 70
     0
  9
$DIMTOLJ
 70
     0
  9
$DIMTZIN
 70
     8
  9
$DIMALTZ
 70
     0
  9
$DIMALTTZ
 70
     0
  9
$DIMUPT
 70
     0
  9
$DIMDEC
 70
     2
  9
$DIMTDEC
 70
     2
  9
$DIMALTU
 70
     2
  9
$DIMALTTD
 70
     3
  9
$DIMTXSTY
  7
Standard
  9
$DIMAUNIT
 70
     0
  9
$DIMADEC
 70
     0
  9
$DIMALTRND
 40
0.0
  9
$DIMAZIN
 70
     0
  9
$DIMDSEP
 70
    44
  9
$DIMATFIT
 70
     3
  9
$DIMFRAC
 70
     0
  9
$DIMLDRBLK
  1

  9
$DIMLUNIT
 70
     2
  9
$DIMLWD
 70
    -2
  9
$DIMLWE
 70
    -2
  9
$DIMTMOVE
 70
     0
  9
$LUNITS
 70
     2
  9
$LUPREC
 70
     4
  9
$SKETCHINC
 40
1.0
  9
$FILLETRAD
 40
10.0
  9
$AUNITS
 70
     0
  9
$AUPREC
 70
     0
  9
$MENU
  1
.
  9
$ELEVATION
 40
0.0
  9
$PELEVATION
 40
0.0
  9
$THICKNESS
 40
0.0
  9
$LIMCHECK
 70
     0
  9
$CHAMFERA
 40
10.0
  9
$CHAMFERB
 40
10.0
  9
$CHAMFERC
 40
20.0
  9
$CHAMFERD
 40
0.0
  9
$SKPOLY
 70
     0
  9
$TDCREATE
 40
2452662.472983287
  9
$TDUCREATE
 40
2452662.389649954
  9
$TDUPDATE
 40
2454004.600366389
  9
$TDUUPDATE
 40
2454004.517033055
  9
$TDINDWG
 40
0.7801445255
  9
$TDUSRTIMER
 40
0.7801341319
  9
$USRTIMER
 70
     1
  9
$ANGBASE
 50
0.0
  9
$ANGDIR
 70
     0
  9
$PDMODE
 70
     0
  9
$PDSIZE
 40
0.0
  9
$PLINEWID
 40
0.0
  9
$SPLFRAME
 70
     0
  9
$SPLINETYPE
 70
     6
  9
$SPLINESEGS
 70
     8
  9
$HANDSEED
  5
1FF53
  9
$SURFTAB1
 70
     6
  9
$SURFTAB2
 70
     6
  9
$SURFTYPE
 70
     6
  9
$SURFU
 70
     6
  9
$SURFV
 70
     6
  9
$UCSBASE
  2

  9
$UCSNAME
  2

  9
$UCSORG
 10
0.0
 20
0.0
 30
0.0
  9
$UCSXDIR
 10
1.0
 20
0.0
 30
0.0
  9
$UCSYDIR
 10
0.0
 20
1.0
 30
0.0
  9
$UCSORTHOREF
  2

  9
$UCSORTHOVIEW
 70
     0
  9
$UCSORGTOP
 10
0.0
 20
0.0
 30
0.0
  9
$UCSORGBOTTOM
 10
0.0
 20
0.0
 30
0.0
  9
$UCSORGLEFT
 10
0.0
 20
0.0
 30
0.0
  9
$UCSORGRIGHT
 10
0.0
 20
0.0
 30
0.0
  9
$UCSORGFRONT
 10
0.0
 20
0.0
 30
0.0
  9
$UCSORGBACK
 10
0.0
 20
0.0
 30
0.0
  9
$PUCSBASE
  2

  9
$PUCSNAME
  2

  9
$PUCSORG
 10
0.0
 20
0.0
 30
0.0
  9
$PUCSXDIR
 10
1.0
 20
0.0
 30
0.0
  9
$PUCSYDIR
 10
0.0
 20
1.0
 30
0.0
  9
$PUCSORTHOREF
  2

  9
$PUCSORTHOVIEW
 70
     0
  9
$PUCSORGTOP
 10
0.0
 20
0.0
 30
0.0
  9
$PUCSORGBOTTOM
 10
0.0
 20
0.0
 30
0.0
  9
$PUCSORGLEFT
 10
0.0
 20
0.0
 30
0.0
  9
$PUCSORGRIGHT
 10
0.0
 20
0.0
 30
0.0
  9
$PUCSORGFRONT
 10
0.0
 20
0.0
 30
0.0
  9
$PUCSORGBACK
 10
0.0
 20
0.0
 30
0.0
  9
$USERI1
 70
     0
  9
$USERI2
 70
     0
  9
$USERI3
 70
     0
  9
$USERI4
 70
     0
  9
$USERI5
 70
     0
  9
$USERR1
 40
0.0
  9
$USERR2
 40
0.0
  9
$USERR3
 40
0.0
  9
$USERR4
 40
0.0
  9
$USERR5
 40
0.0
  9
$WORLDVIEW
 70
     1
  9
$SHADEDGE
 70
     3
  9
$SHADEDIF
 70
    70
  9
$TILEMODE
 70
     1
  9
$MAXACTVP
 70
    64
  9
$PINSBASE
 10
0.0
 20
0.0
 30
0.0
  9
$PLIMCHECK
 70
     0
  9
$PEXTMIN
 10
0.0
 20
0.0
 30
0.0
  9
$PEXTMAX
 10
0.0
 20
0.0
 30
0.0
  9
$PLIMMIN
 10
0.0
 20
0.0
  9
$PLIMMAX
 10
12.0
 20
9.0
  9
$UNITMODE
 70
     0
  9
$VISRETAIN
 70
     1
  9
$PLINEGEN
 70
     0
  9
$PSLTSCALE
 70
     1
  9
$TREEDEPTH
 70
  3020
  9
$CMLSTYLE
  2
Standard
  9
$CMLJUST
 70
     0
  9
$CMLSCALE
 40
20.0
  9
$PROXYGRAPHICS
 70
     1
  9
$MEASUREMENT
 70
     1
  9
$CELWEIGHT
370
    -1
  9
$ENDCAPS
280
     0
  9
$JOINSTYLE
280
     0
  9
$LWDISPLAY
290
     0
  9
$INSUNITS
 70
     4
  9
$HYPERLINKBASE
  1

  9
$STYLESHEET
  1
monochrome.ctb
  9
$XEDIT
290
     1
  9
$CEPSNTYPE
380
     0
  9
$PSTYLEMODE
290
     1
  9
$FINGERPRINTGUID
  2
{FDEAD578-A652-11D2-9A35-0060089B3A3F}
  9
$VERSIONGUID
  2
{68127900-17EB-4811-8712-6D35F5CAC375}
  9
$EXTNAMES
290
     1
  9
$PSVPSCALE
 40
0.0
  9
$OLESTARTUP
290
     0
  0
ENDSEC
  0
SECTION
  2
CLASSES
  0
CLASS
  1
ACDBDICTIONARYWDFLT
  2
AcDbDictionaryWithDefault
  3
ObjectDBX Classes
 90
        0
280
     0
281
     0
  0
CLASS
  1
DICTIONARYVAR
  2
AcDbDictionaryVar
  3
ObjectDBX Classes
 90
        0
280
     0
281
     0
  0
CLASS
  1
DIMASSOC
  2
AcDbDimAssoc
  3
"AcDbDimAssoc|Product Desc:     AcDim ARX App For Dimension|Company:          Autodesk, Inc.|WEB Address:      www.autodesk.com"
 90
        0
280
     0
281
     0
  0
CLASS
  1
ACDBPLACEHOLDER
  2
AcDbPlaceHolder
  3
ObjectDBX Classes
 90
        0
280
     0
281
     0
  0
CLASS
  1
LAYOUT
  2
AcDbLayout
  3
ObjectDBX Classes
 90
        0
280
     0
281
     0
  0
CLASS
  1
MATERIAL
  2
AcDbMaterial
  3
ObjectDBX Classes
 90
     1024
280
     0
281
     0
  0
CLASS
  1
VISUALSTYLE
  2
AcDbVisualStyle
  3
ObjectDBX Classes
 90
     4095
280
     0
281
     0
  0
CLASS
  1
TABLESTYLE
  2
AcDbTableStyle
  3
ObjectDBX Classes
 90
     4095
280
     0
281
     0
  0
CLASS
  1
SORTENTSTABLE
  2
AcDbSortentsTable
  3
ObjectDBX Classes
 90
        0
280
     0
281
     0
  0
ENDSEC
  0
SECTION
  2
TABLES
  0
TABLE
  2
VPORT
  5
8
330
0
100
AcDbSymbolTable
 70
     1
  0
VPORT
  5
8B28
330
8
100
AcDbSymbolTableRecord
100
AcDbViewportTableRecord
  2
*Active
 70
     0
 10
0.0
 20
0.0
 11
1.0
 21
1.0
 12
1190.932579962504
 22
302.2513334237228
 13
0.0
 23
0.0
 14
10.0
 24
10.0
 15
10.0
 25
10.0
 16
0.0
 26
0.0
 36
1.0
 17
0.0
 27
0.0
 37
0.0
 40
201.270752574632
 41
1.863027806385169
 42
50.0
 43
0.0
 44
0.0
 50
0.0
 51
0.0
 71
     0
 72
   100
 73
     1
 74
     3
 75
     0
 76
     0
 77
     0
 78
     0
281
     0
 65
     1
110
0.0
120
0.0
130
0.0
111
1.0
121
0.0
131
0.0
112
0.0
122
1.0
132
0.0
 79
     0
146
0.0
  0
ENDTAB
  0
TABLE
  2
LTYPE
  5
5
330
0
100
AcDbSymbolTable
 70
     4
  0
LTYPE
  5
14
330
5
100
AcDbSymbolTableRecord
100
AcDbLinetypeTableRecord
  2
ByBlock
 70
     0
  3

 72
    65
 73
     0
 40
0.0
  0
LTYPE
  5
15
330
5
100
AcDbSymbolTableRecord
100
AcDbLinetypeTableRecord
  2
ByLayer
 70
     0
  3

 72
    65
 73
     0
 40
0.0
  0
LTYPE
  5
16
330
5
100
AcDbSymbolTableRecord
100
AcDbLinetypeTableRecord
  2
Continuous
 70
     0
  3
Solid line
 72
    65
 73
     0
 40
0.0
  0
LTYPE
  5
2083
330
5
100
AcDbSymbolTableRecord
100
AcDbLinetypeTableRecord
  2
CENTER
 70
     0
  3
____ _ ____ _ ____ _ ____ _ ____ _ ____ _ ____
 72
    65
 73
     4
 40
0.6
 49
0.375
 74
     0
 49
-0.075
 74
     0
 49
0.075
 74
     0
 49
-0.075
 74
     0
  0
LTYPE
  5
147F5
330
5
100
AcDbSymbolTableRecord
100
AcDbLinetypeTableRecord
  2
HIDDEN
 70
     0
  3
_ 
 72
    65
 73
     2
 40
4.5
 49
3.0
 74
     0
 49
-1.5
 74
     0
  0
ENDTAB
  0
TABLE
  2
LAYER
  5
2
102
{ACAD_XDICTIONARY
360
8B75
102
}
330
0
100
AcDbSymbolTable
 70
    14
  0
LAYER
  5
10
330
2
100
AcDbSymbolTableRecord
100
AcDbLayerTableRecord
  2
0
 70
     0
 62
     7
  6
Continuous
370
    -3
390
F
  0
LAYER
  5
1F03
330
2
100
AcDbSymbolTableRecord
100
AcDbLayerTableRecord
  2
Defpoints
 70
     0
 62
     7
  6
Continuous
290
     0
370
    -3
390
F
  0
LAYER
  5
2084
330
2
100
AcDbSymbolTableRecord
100
AcDbLayerTableRecord
  2
91000_TIP
 70
     0
 62
     7
  6
Continuous
370
    -3
390
F
  0
LAYER
  5
2085
330
2
100
AcDbSymbolTableRecord
100
AcDbLayerTableRecord
  2
11000_Left
 70
     0
 62
     7
  6
Continuous
370
    -3
390
F
  0
LAYER
  5
214D
330
2
100
AcDbSymbolTableRecord
100
AcDbLayerTableRecord
  2
10000_FRONT
 70
     0
 62
     7
  6
Continuous
370
    -3
390
F
  0
LAYER
  5
214E
330
2
100
AcDbSymbolTableRecord
100
AcDbLayerTableRecord
  2
10100_FRONT_DIM
 70
     0
 62
     7
  6
Continuous
370
    -3
390
F
  0
LAYER
  5
214F
330
2
100
AcDbSymbolTableRecord
100
AcDbLayerTableRecord
  2
90000_FRAME
 70
     0
 62
     7
  6
Continuous
370
    -3
390
F
  0
LAYER
  5
2150
330
2
100
AcDbSymbolTableRecord
100
AcDbLayerTableRecord
  2
11100_LEFT_DIM
 70
     0
 62
     7
  6
Continuous
370
    -3
390
F
  0
ENDTAB
  0
TABLE
  2
STYLE
  5
3
330
0
100
AcDbSymbolTable
 70
     3
  0
STYLE
  5
11
330
3
100
AcDbSymbolTableRecord
100
AcDbTextStyleTableRecord
  2
Standard
 70
     0
 40
0.0
 41
1.0
 50
0.0
 71
     0
 42
2.5
  3
txt
  4

  0
ENDTAB
  0
TABLE
  2
VIEW
  5
6
330
0
100
AcDbSymbolTable
 70
     0
  0
ENDTAB
  0
TABLE
  2
UCS
  5
7
330
0
100
AcDbSymbolTable
 70
     0
  0
ENDTAB
  0
TABLE
  2
APPID
  5
9
330
0
100
AcDbSymbolTable
 70
     5
  0
APPID
  5
12
330
9
100
AcDbSymbolTableRecord
100
AcDbRegAppTableRecord
  2
ACAD
 70
     0
  0
APPID
  5
1C6
330
9
100
AcDbSymbolTableRecord
100
AcDbRegAppTableRecord
  2
AUSTER_ANSICHT
 70
     0
  0
APPID
  5
1C7
330
9
100
AcDbSymbolTableRecord
100
AcDbRegAppTableRecord
  2
AUSTER_FOLIE
 70
     0
  0
APPID
  5
8B6F
330
9
100
AcDbSymbolTableRecord
100
AcDbRegAppTableRecord
  2
ACAD_EXEMPT_FROM_CAD_STANDARDS
 70
     0
  0
APPID
  5
8C17
330
9
100
AcDbSymbolTableRecord
100
AcDbRegAppTableRecord
  2
AcAecLayerStandard
 70
     0
  0
ENDTAB
  0
TABLE
  2
DIMSTYLE
  5
A
330
0
100
AcDbSymbolTable
 70
     6
100
AcDbDimStyleTable
 71
     2
340
27
340
2086
  0
DIMSTYLE
105
27
330
A
100
AcDbSymbolTableRecord
100
AcDbDimStyleTableRecord
  2
ISO-25
 70
     0
 41
2.5
 42
0.625
 43
3.75
 44
1.25
 73
     0
 74
     0
 78
     8
140
2.5
141
2.5
143
0.03937007874016
147
0.625
171
     3
172
     1
271
     2
272
     2
274
     3
278
    44
283
     0
284
     8
340
11
  0
DIMSTYLE
105
EE
330
A
100
AcDbSymbolTableRecord
100
AcDbDimStyleTableRecord
  2
Standard
 70
     0
340
11
  0
DIMSTYLE
105
2086
102
{ACAD_REACTORS
330
1489D
330
148EF
330
1491D
330
1486E
330
148B7
330
14727
330
147B7
330
147DB
330
149D9
330
149BB
330
14741
102
}
330
A
100
AcDbSymbolTableRecord
100
AcDbDimStyleTableRecord
  2
DSTYLE1
 70
     0
 41
3.0
 42
0.0
 44
1.0
 73
     0
 74
     0
 77
     1
 78
     3
140
2.5
143
0.039370079
147
1.0
271
     3
272
     3
274
     0
279
     2
340
11
  0
ENDTAB
  0
TABLE
  2
BLOCK_RECORD
  5
1
330
0
100
AcDbSymbolTable
 70
    28
  0
BLOCK_RECORD
  5
1F
102
{ACAD_XDICTIONARY
360
9022
102
}
330
1
100
AcDbSymbolTableRecord
100
AcDbBlockTableRecord
  2
*Model_Space
340
22
  0
BLOCK_RECORD
  5
50
330
1
100
AcDbSymbolTableRecord
100
AcDbBlockTableRecord
  2
*Paper_Space
340
51
  0
BLOCK_RECORD
  5
55
330
1
100
AcDbSymbolTableRecord
100
AcDbBlockTableRecord
  2
*Paper_Space0
340
56
  0
BLOCK_RECORD
  5
6C
330
1
100
AcDbSymbolTableRecord
100
AcDbBlockTableRecord
  2
SIEMENS_OUTLINE_BL0
340
0
102
{BLKREFS
331
117
102
}
  0
BLOCK_RECORD
  5
14728
330
1
100
AcDbSymbolTableRecord
100
AcDbBlockTableRecord
  2
*D9
340
0
  0
BLOCK_RECORD
  5
14742
330
1
100
AcDbSymbolTableRecord
100
AcDbBlockTableRecord
  2
*D10
340
0
  0
BLOCK_RECORD
  5
147B8
330
1
100
AcDbSymbolTableRecord
100
AcDbBlockTableRecord
  2
*D12
340
0
  0
BLOCK_RECORD
  5
147DC
330
1
100
AcDbSymbolTableRecord
100
AcDbBlockTableRecord
  2
*D13
340
0
  0
BLOCK_RECORD
  5
1486F
330
1
100
AcDbSymbolTableRecord
100
AcDbBlockTableRecord
  2
*D15
340
0
  0
BLOCK_RECORD
  5
1489E
330
1
100
AcDbSymbolTableRecord
100
AcDbBlockTableRecord
  2
*D17
340
0
  0
BLOCK_RECORD
  5
148B8
330
1
100
AcDbSymbolTableRecord
100
AcDbBlockTableRecord
  2
*D18
340
0
  0
BLOCK_RECORD
  5
148F0
330
1
100
AcDbSymbolTableRecord
100
AcDbBlockTableRecord
  2
*D19
340
0
  0
BLOCK_RECORD
  5
1491E
330
1
100
AcDbSymbolTableRecord
100
AcDbBlockTableRecord
  2
*D20
340
0
  0
BLOCK_RECORD
  5
149BC
330
1
100
AcDbSymbolTableRecord
100
AcDbBlockTableRecord
  2
*D21
340
0
  0
BLOCK_RECORD
  5
149DA
330
1
100
AcDbSymbolTableRecord
100
AcDbBlockTableRecord
  2
*D22
340
0
  0
ENDTAB
  0
ENDSEC
  0
SECTION
  2
BLOCKS
  0
BLOCK
  5
20
330
1F
100
AcDbEntity
  8
0
100
AcDbBlockBegin
  2
*Model_Space
 70
     0
 10
0.0
 20
0.0
 30
0.0
  3
*Model_Space
  1

  0
ENDBLK
  5
21
330
1F
100
AcDbEntity
  8
0
100
AcDbBlockEnd
  0
BLOCK
  5
52
330
50
100
AcDbEntity
 67
     1
  8
0
100
AcDbBlockBegin
  2
*Paper_Space
 70
     0
 10
0.0
 20
0.0
 30
0.0
  3
*Paper_Space
  1

  0
ENDBLK
  5
53
330
50
100
AcDbEntity
 67
     1
  8
0
100
AcDbBlockEnd
  0
BLOCK
  5
57
330
55
100
AcDbEntity
 67
     1
  8
0
100
AcDbBlockBegin
  2
*Paper_Space0
 70
     0
 10
0.0
 20
0.0
 30
0.0
  3
*Paper_Space0
  1

  0
ENDBLK
  5
58
330
55
100
AcDbEntity
 67
     1
  8
0
100
AcDbBlockEnd
  0
BLOCK
  5
D5
330
6C
100
AcDbEntity
  8
0
  6
Continuous
 62
     7
100
AcDbBlockBegin
  2
SIEMENS_OUTLINE_BL0
 70
     0
 10
0.0
 20
0.0
 30
0.0
  3
SIEMENS_OUTLINE_BL0
  1

  0
LINE
  5
6D
330
6C
100
AcDbEntity
  8
0
  6
Continuous
 62
     7
100
AcDbLine
 10
79.186200508
 20
21.4145478991
 30
0.0
 11
79.186200508
 21
16.6612788158
 31
0.0
  0
LINE
  5
6E
330
6C
100
AcDbEntity
  8
0
  6
Continuous
 62
     7
100
AcDbLine
 10
80.61218123299999
 20
21.4145478991
 30
0.0
 11
80.61218123299999
 21
16.6612788158
 31
0.0
  0
LINE
  5
6F
330
6C
100
AcDbEntity
  8
0
  6
Continuous
 62
     7
100
AcDbLine
 10
79.186200508
 20
16.6612788158
 30
0.0
 11
80.61218123299999
 21
16.6612788158
 31
0.0
  0
LINE
  5
70
330
6C
100
AcDbEntity
  8
0
  6
Continuous
 62
     7
100
AcDbLine
 10
79.186200508
 20
21.4145478991
 30
0.0
 11
80.61218123299999
 21
21.4145478991
 31
0.0
  0
LINE
  5
71
330
6C
100
AcDbEntity
  8
0
  6
Continuous
 62
     7
100
AcDbLine
 10
81.7054331221
 20
21.4145478991
 30
0.0
 11
81.7054331221
 21
16.6612788158
 31
0.0
  0
LINE
  5
72
330
6C
100
AcDbEntity
  8
0
  6
Continuous
 62
     7
100
AcDbLine
 10
81.7054331221
 20
16.6612788158
 30
0.0
 11
85.2703849346
 21
16.6612788158
 31
0.0
  0
LINE
  5
73
330
6C
100
AcDbEntity
  8
0
  6
Continuous
 62
     7
100
AcDbLine
 10
85.2703849346
 20
17.56439994169999
 30
0.0
 11
83.0838811563
 21
17.56439994169999
 31
0.0
  0
LINE
  5
74
330
6C
100
AcDbEntity
  8
0
  6
Continuous
 62
     7
100
AcDbLine
 10
85.2703849346
 20
17.56439994169999
 30
0.0
 11
85.2703849346
 21
16.6612788158
 31
0.0
  0
LINE
  5
75
330
6C
100
AcDbEntity
  8
0
  6
Continuous
 62
     7
100
AcDbLine
 10
85.2228522438
 20
21.4145478991
 30
0.0
 11
81.7054331221
 21
21.4145478991
 31
0.0
  0
LINE
  5
76
330
6C
100
AcDbEntity
  8
0
  6
Continuous
 62
     7
100
AcDbLine
 10
85.2228522438
 20
20.5351931187
 30
0.0
 11
83.0838811563
 21
20.5351931187
 31
0.0
  0
LINE
  5
77
330
6C
100
AcDbEntity
  8
0
  6
Continuous
 62
     7
100
AcDbLine
 10
85.2228522438
 20
21.4145478991
 30
0.0
 11
85.2228522438
 21
20.5351931187
 31
0.0
  0
LINE
  5
78
330
6C
100
AcDbEntity
  8
0
  6
Continuous
 62
     7
100
AcDbLine
 10
84.9376560988
 20
18.68141817619999
 30
0.0
 11
83.0838811563
 21
18.68141817619999
 31
0.0
  0
LINE
  5
79
330
6C
100
AcDbEntity
  8
0
  6
Continuous
 62
     7
100
AcDbLine
 10
84.9376560988
 20
19.46570757499999
 30
0.0
 11
84.9376560988
 21
18.68141817619999
 31
0.0
  0
LINE
  5
7A
330
6C
100
AcDbEntity
  8
0
  6
Continuous
 62
     7
100
AcDbLine
 10
84.9376560988
 20
19.46570757499999
 30
0.0
 11
83.0838811563
 21
19.46570757499999
 31
0.0
  0
LINE
  5
7B
330
6C
100
AcDbEntity
  8
0
  6
Continuous
 62
     7
100
AcDbLine
 10
83.0838811563
 20
20.5351931187
 30
0.0
 11
83.0838811563
 21
19.46570757499999
 31
0.0
  0
LINE
  5
7C
330
6C
100
AcDbEntity
  8
0
  6
Continuous
 62
     7
100
AcDbLine
 10
83.0838811563
 20
18.68141817619999
 30
0.0
 11
83.0838811563
 21
17.56439994169999
 31
0.0
  0
LINE
  5
7D
330
6C
100
AcDbEntity
  8
0
  6
Continuous
 62
     7
100
AcDbLine
 10
86.0784406788
 20
16.6612788158
 30
0.0
 11
86.0784406788
 21
21.4145478991
 31
0.0
  0
LINE
  5
7E
330
6C
100
AcDbEntity
  8
0
  6
Continuous
 62
     7
100
AcDbLine
 10
86.0784406788
 20
16.6612788158
 30
0.0
 11
87.02909449539999
 21
16.6612788158
 31
0.0
  0
LINE
  5
7F
330
6C
100
AcDbEntity
  8
0
  6
Continuous
 62
     7
100
AcDbLine
 10
91.92496165120001
 20
21.4145478991
 30
0.0
 11
91.92496165120001
 21
16.6612788158
 31
0.0
  0
LINE
  5
80
330
6C
100
AcDbEntity
  8
0
  6
Continuous
 62
     7
100
AcDbLine
 10
91.92496165120001
 20
16.6612788158
 30
0.0
 11
90.54651361700001
 21
16.6612788158
 31
0.0
  0
LINE
  5
81
330
6C
100
AcDbEntity
  8
0
  6
Continuous
 62
     7
100
AcDbLine
 10
88.3600098387
 20
16.61374612499999
 30
0.0
 11
89.21559827370002
 21
16.61374612499999
 31
0.0
  0
LINE
  5
82
330
6C
100
AcDbEntity
  8
0
  6
Continuous
 62
     7
100
AcDbLine
 10
88.3600098387
 20
16.61374612499999
 30
0.0
 11
87.02909449539999
 21
19.7033710291
 31
0.0
  0
LINE
  5
83
330
6C
100
AcDbEntity
  8
0
  6
Continuous
 62
     7
100
AcDbLine
 10
87.02909449539999
 20
16.6612788158
 30
0.0
 11
87.02909449539999
 21
19.7033710291
 31
0.0
  0
LINE
  5
84
330
6C
100
AcDbEntity
  8
0
  6
Continuous
 62
     7
100
AcDbLine
 10
90.54651361700001
 20
19.75090372
 30
0.0
 11
89.21559827370002
 21
16.61374612499999
 31
0.0
  0
LINE
  5
85
330
6C
100
AcDbEntity
  8
0
  6
Continuous
 62
     7
100
AcDbLine
 10
87.78961754870001
 20
21.4145478991
 30
0.0
 11
86.0784406788
 21
21.4145478991
 31
0.0
  0
LINE
  5
86
330
6C
100
AcDbEntity
  8
0
  6
Continuous
 62
     7
100
AcDbLine
 10
91.92496165120001
 20
21.4145478991
 30
0.0
 11
90.2137847812
 21
21.4145478991
 31
0.0
  0
LINE
  5
87
330
6C
100
AcDbEntity
  8
0
  6
Continuous
 62
     7
100
AcDbLine
 10
87.78961754870001
 20
21.4145478991
 30
0.0
 11
89.0254675104
 21
18.51505375829999
 31
0.0
  0
LINE
  5
88
330
6C
100
AcDbEntity
  8
0
  6
Continuous
 62
     7
100
AcDbLine
 10
90.2137847812
 20
21.4145478991
 30
0.0
 11
89.0254675104
 21
18.51505375829999
 31
0.0
  0
LINE
  5
89
330
6C
100
AcDbEntity
  8
0
  6
Continuous
 62
     7
100
AcDbLine
 10
90.54651361700001
 20
19.75090372
 30
0.0
 11
90.54651361700001
 21
16.6612788158
 31
0.0
  0
LINE
  5
8A
330
6C
100
AcDbEntity
  8
0
  6
Continuous
 62
     7
100
AcDbLine
 10
93.01821354030002
 20
21.4145478991
 30
0.0
 11
93.01821354030002
 21
16.6612788158
 31
0.0
  0
LINE
  5
8B
330
6C
100
AcDbEntity
  8
0
  6
Continuous
 62
     7
100
AcDbLine
 10
93.01821354030002
 20
16.6612788158
 30
0.0
 11
96.5831653528
 21
16.6612788158
 31
0.0
  0
LINE
  5
8C
330
6C
100
AcDbEntity
  8
0
  6
Continuous
 62
     7
100
AcDbLine
 10
96.5831653528
 20
17.56439994169999
 30
0.0
 11
94.3966615745
 21
17.56439994169999
 31
0.0
  0
LINE
  5
8D
330
6C
100
AcDbEntity
  8
0
  6
Continuous
 62
     7
100
AcDbLine
 10
96.5831653528
 20
17.56439994169999
 30
0.0
 11
96.5831653528
 21
16.6612788158
 31
0.0
  0
LINE
  5
8E
330
6C
100
AcDbEntity
  8
0
  6
Continuous
 62
     7
100
AcDbLine
 10
96.53563266200002
 20
21.4145478991
 30
0.0
 11
93.01821354030002
 21
21.4145478991
 31
0.0
  0
LINE
  5
8F
330
6C
100
AcDbEntity
  8
0
  6
Continuous
 62
     7
100
AcDbLine
 10
96.53563266200002
 20
20.5351931187
 30
0.0
 11
94.3966615745
 21
20.5351931187
 31
0.0
  0
LINE
  5
90
330
6C
100
AcDbEntity
  8
0
  6
Continuous
 62
     7
100
AcDbLine
 10
96.53563266200002
 20
21.4145478991
 30
0.0
 11
96.53563266200002
 21
20.5351931187
 31
0.0
  0
LINE
  5
91
330
6C
100
AcDbEntity
  8
0
  6
Continuous
 62
     7
100
AcDbLine
 10
96.25043651700002
 20
18.68141817619999
 30
0.0
 11
94.3966615745
 21
18.68141817619999
 31
0.0
  0
LINE
  5
92
330
6C
100
AcDbEntity
  8
0
  6
Continuous
 62
     7
100
AcDbLine
 10
96.25043651700002
 20
19.46570757499999
 30
0.0
 11
96.25043651700002
 21
18.68141817619999
 31
0.0
  0
LINE
  5
93
330
6C
100
AcDbEntity
  8
0
  6
Continuous
 62
     7
100
AcDbLine
 10
96.25043651700002
 20
19.46570757499999
 30
0.0
 11
94.3966615745
 21
19.46570757499999
 31
0.0
  0
LINE
  5
94
330
6C
100
AcDbEntity
  8
0
  6
Continuous
 62
     7
100
AcDbLine
 10
94.3966615745
 20
20.5351931187
 30
0.0
 11
94.3966615745
 21
19.46570757499999
 31
0.0
  0
LINE
  5
95
330
6C
100
AcDbEntity
  8
0
  6
Continuous
 62
     7
100
AcDbLine
 10
94.3966615745
 20
18.68141817619999
 30
0.0
 11
94.3966615745
 21
17.56439994169999
 31
0.0
  0
LINE
  5
96
330
6C
100
AcDbEntity
  8
0
  6
Continuous
 62
     7
100
AcDbLine
 10
97.3674547515
 20
16.6612788158
 30
0.0
 11
97.3674547515
 21
21.4145478991
 31
0.0
  0
LINE
  5
97
330
6C
100
AcDbEntity
  8
0
  6
Continuous
 62
     7
100
AcDbLine
 10
101.5503315447999
 20
21.4145478991
 30
0.0
 11
101.5503315447999
 21
16.6612788158
 31
0.0
  0
LINE
  5
98
330
6C
100
AcDbEntity
  8
0
  6
Continuous
 62
     7
100
AcDbLine
 10
97.3674547515
 20
16.6612788158
 30
0.0
 11
98.3181085682
 21
16.6612788158
 31
0.0
  0
LINE
  5
99
330
6C
100
AcDbEntity
  8
0
  6
Continuous
 62
     7
100
AcDbLine
 10
101.5503315447999
 20
21.4145478991
 30
0.0
 11
100.5996777281999
 21
21.4145478991
 31
0.0
  0
LINE
  5
9A
330
6C
100
AcDbEntity
  8
0
  6
Continuous
 62
     7
100
AcDbLine
 10
98.91226720360002
 20
21.4145478991
 30
0.0
 11
97.3674547515
 21
21.4145478991
 31
0.0
  0
LINE
  5
9B
330
6C
100
AcDbEntity
  8
0
  6
Continuous
 62
     7
100
AcDbLine
 10
101.5503315447999
 20
16.6612788158
 30
0.0
 11
100.0292854381999
 21
16.6612788158
 31
0.0
  0
LINE
  5
9C
330
6C
100
AcDbEntity
  8
0
  6
Continuous
 62
     7
100
AcDbLine
 10
100.0292854381999
 20
16.6612788158
 30
0.0
 11
98.3181085682
 21
19.7033710291
 31
0.0
  0
LINE
  5
9D
330
6C
100
AcDbEntity
  8
0
  6
Continuous
 62
     7
100
AcDbLine
 10
98.91226720360002
 20
21.4145478991
 30
0.0
 11
100.5996777281999
 21
18.4675210675
 31
0.0
  0
LINE
  5
9E
330
6C
100
AcDbEntity
  8
0
  6
Continuous
 62
     7
100
AcDbLine
 10
100.5996777281999
 20
21.4145478991
 30
0.0
 11
100.5996777281999
 21
18.4675210675
 31
0.0
  0
LINE
  5
9F
330
6C
100
AcDbEntity
  8
0
  6
Continuous
 62
     7
100
AcDbLine
 10
98.3181085682
 20
16.6612788158
 30
0.0
 11
98.3181085682
 21
19.7033710291
 31
0.0
  0
LINE
  5
A0
330
6C
100
AcDbEntity
  8
0
  6
Continuous
 62
     7
100
AcDbLine
 10
102.3583872889999
 20
16.75634419749999
 30
0.0
 11
102.3583872889999
 21
17.7069980142
 31
0.0
  0
LINE
  5
A1
330
6C
100
AcDbEntity
  8
0
  6
Continuous
 62
     7
100
AcDbLine
 10
105.6856756473
 20
20.4163613916
 30
0.0
 11
105.6856756473
 21
21.36701520829999
 31
0.0
  0
ARC
  5
A2
330
6C
100
AcDbEntity
  8
0
  6
Continuous
 62
     7
100
AcDbCircle
 10
104.063028414
 20
18.61843736089998
 30
0.0
 40
1.111619360599997
100
AcDbArc
 50
277.7099956934
 51
295.6884927745999
  0
ARC
  5
A3
330
6C
100
AcDbEntity
  8
0
  6
Continuous
 62
     7
100
AcDbCircle
 10
104.3473383967
 20
17.8936115972
 30
0.0
 40
0.3401689265
100
AcDbArc
 50
305.503221255
 51
72.46528985229999
  0
ARC
  5
A4
330
6C
100
AcDbEntity
  8
0
  6
Continuous
 62
     7
100
AcDbCircle
 10
103.7813445885999
 20
21.2953185068
 30
0.0
 40
4.756794641099999
100
AcDbArc
 50
252.5939200548001
 51
280.9816604255999
  0
ARC
  5
A5
330
6C
100
AcDbEntity
  8
0
  6
Continuous
 62
     7
100
AcDbCircle
 10
104.2361799517
 20
18.6773047703
 30
0.0
 40
2.100726595299998
100
AcDbArc
 50
282.4058358519999
 51
311.8644433928
  0
ARC
  5
A6
330
6C
100
AcDbEntity
  8
0
  6
Continuous
 62
     7
100
AcDbCircle
 10
103.9626156045999
 20
20.2856464918
 30
0.0
 40
0.3029626476
100
AcDbArc
 50
154.4400348282
 51
221.8201698800999
  0
ARC
  5
A7
330
6C
100
AcDbEntity
  8
0
  6
Continuous
 62
     7
100
AcDbCircle
 10
104.0418367559
 20
20.2064253405
 30
0.0
 40
0.4103089737
100
AcDbArc
 50
102.8287828680999
 51
149.2259639003
  0
ARC
  5
A8
330
6C
100
AcDbEntity
  8
0
  6
Continuous
 62
     7
100
AcDbCircle
 10
104.4588635915999
 20
18.46409001059999
 30
0.0
 40
2.201836557
100
AcDbArc
 50
84.0400061857
 51
103.3427657870999
  0
ARC
  5
A9
330
6C
100
AcDbEntity
  8
0
  6
Continuous
 62
     7
100
AcDbCircle
 10
104.1178997669
 20
16.0467260867
 30
0.0
 40
4.642373736499997
100
AcDbArc
 50
70.2625858546
 51
82.95241863799999
  0
ARC
  5
AA
330
6C
100
AcDbEntity
  8
0
  6
Continuous
 62
     7
100
AcDbCircle
 10
103.6038815646999
 20
20.7183489764
 30
0.0
 40
3.258755990899997
100
AcDbArc
 50
247.5300206145
 51
280.7579522143
  0
ARC
  5
AB
330
6C
100
AcDbEntity
  8
0
  6
Continuous
 62
     7
100
AcDbCircle
 10
97.21891509270001
 20
2.4668290159
 30
0.0
 40
17.3316084133
100
AcDbArc
 50
65.34146746500001
 51
67.39977707359999
  0
ARC
  5
AC
330
6C
100
AcDbEntity
  8
0
  6
Continuous
 62
     7
100
AcDbCircle
 10
108.0147774981
 20
28.259255379
 30
0.0
 40
10.6291642039
100
AcDbArc
 50
242.8620101252001
 51
247.1042029186
  0
ARC
  5
AD
330
6C
100
AcDbEntity
  8
0
  6
Continuous
 62
     7
100
AcDbCircle
 10
104.1598762715
 20
20.725323882
 30
0.0
 40
2.166291629199998
100
AcDbArc
 50
227.3119280793999
 51
242.7040315235
  0
ARC
  5
AE
330
6C
100
AcDbEntity
  8
0
  6
Continuous
 62
     7
100
AcDbCircle
 10
103.5558454618999
 20
20.0196462412
 30
0.0
 40
1.238521734
100
AcDbArc
 50
194.7952194236
 51
225.7176549047
  0
ARC
  5
AF
330
6C
100
AcDbEntity
  8
0
  6
Continuous
 62
     7
100
AcDbCircle
 10
103.6180035961
 20
20.05986621039999
 30
0.0
 40
1.309092072899999
100
AcDbArc
 50
164.1974860461
 51
195.8025139539
  0
ARC
  5
B0
330
6C
100
AcDbEntity
  8
0
  6
Continuous
 62
     7
100
AcDbCircle
 10
104.1750273167
 20
19.1715990505
 30
0.0
 40
2.366924815299999
100
AcDbArc
 50
86.22180229280001
 51
120.4272602309
  0
ARC
  5
B1
330
6C
100
AcDbEntity
  8
0
  6
Continuous
 62
     7
100
AcDbCircle
 10
103.9061705341999
 20
12.4754312294
 30
0.0
 40
9.0679051661
100
AcDbArc
 50
78.68270492259998
 51
87.3147599624
  0
ARC
  5
B2
330
6C
100
AcDbEntity
  8
0
  6
Continuous
 62
     7
100
AcDbCircle
 10
103.4501013557999
 20
20.1673739729
 30
0.0
 40
1.119747444
100
AcDbArc
 50
142.8139179029999
 51
167.1522951416999
  0
ARC
  5
B3
330
6C
100
AcDbEntity
  8
0
  6
Continuous
 62
     7
100
AcDbCircle
 10
103.7954106973999
 20
19.86079227619999
 30
0.0
 40
1.580546684499998
100
AcDbArc
 50
121.2140948535
 51
141.5254768286
  0
ARC
  5
B4
330
6C
100
AcDbEntity
  8
0
  6
Continuous
 62
     7
100
AcDbCircle
 10
104.372585063
 20
20.6718496049
 30
0.0
 40
0.8661276051999998
100
AcDbArc
 50
222.7760387596
 51
239.0362434679
  0
ARC
  5
B5
330
6C
100
AcDbEntity
  8
0
  6
Continuous
 62
     7
100
AcDbCircle
 10
101.8658754847
 20
13.3415774063
 30
0.0
 40
6.858773576299999
100
AcDbArc
 50
59.90202725599999
 51
68.2036481279
  0
ARC
  5
B6
330
6C
100
AcDbEntity
  8
0
  6
Continuous
 62
     7
100
AcDbCircle
 10
105.2743699785
 20
22.26746391349999
 30
0.0
 40
2.698741017099999
100
AcDbArc
 50
240.0481997804
 51
251.3779673736999
  0
ARC
  5
B7
330
6C
100
AcDbEntity
  8
0
  6
Continuous
 62
     7
100
AcDbCircle
 10
104.6089128116999
 20
18.1105652982
 30
0.0
 40
1.4334474881
100
AcDbArc
 50
315.8904553224
 51
333.5229264372999
  0
ARC
  5
B8
330
6C
100
AcDbEntity
  8
0
  6
Continuous
 62
     7
100
AcDbCircle
 10
104.6135510555
 20
18.057158148
 30
0.0
 40
1.406228711899998
100
AcDbArc
 50
335.3867972702
 51
24.39151194019999
  0
ARC
  5
B9
330
6C
100
AcDbEntity
  8
0
  6
Continuous
 62
     7
100
AcDbCircle
 10
104.5413461519
 20
17.97930145619999
 30
0.0
 40
1.504702514799999
100
AcDbArc
 50
25.95629166050001
 51
59.4834829668
  0
LINE
  5
BA
330
6C
100
AcDbEntity
  8
0
  6
Continuous
 62
     7
100
AcDbLine
 10
74.7656602606
 20
16.75634419749999
 30
0.0
 11
74.7656602606
 21
17.7069980142
 31
0.0
  0
LINE
  5
BB
330
6C
100
AcDbEntity
  8
0
  6
Continuous
 62
     7
100
AcDbLine
 10
78.09294861879997
 20
20.4163613916
 30
0.0
 11
78.09294861879997
 21
21.36701520829999
 31
0.0
  0
ARC
  5
BC
330
6C
100
AcDbEntity
  8
0
  6
Continuous
 62
     7
100
AcDbCircle
 10
76.4703013855
 20
18.61843736089998
 30
0.0
 40
1.111619360599997
100
AcDbArc
 50
277.7099956934
 51
295.6884927745999
  0
ARC
  5
BD
330
6C
100
AcDbEntity
  8
0
  6
Continuous
 62
     7
100
AcDbCircle
 10
76.7546113683
 20
17.8936115972
 30
0.0
 40
0.3401689265
100
AcDbArc
 50
305.5032212556
 51
72.4652898515
  0
ARC
  5
BE
330
6C
100
AcDbEntity
  8
0
  6
Continuous
 62
     7
100
AcDbCircle
 10
76.1886175602
 20
21.2953185068
 30
0.0
 40
4.756794641099999
100
AcDbArc
 50
252.5939200545
 51
280.9816604253
  0
ARC
  5
BF
330
6C
100
AcDbEntity
  8
0
  6
Continuous
 62
     7
100
AcDbCircle
 10
76.64345292330001
 20
18.6773047703
 30
0.0
 40
2.100726595299998
100
AcDbArc
 50
282.4058358513
 51
311.8644433923
  0
ARC
  5
C0
330
6C
100
AcDbEntity
  8
0
  6
Continuous
 62
     7
100
AcDbCircle
 10
76.3698885762
 20
20.2856464918
 30
0.0
 40
0.3029626476
100
AcDbArc
 50
154.4400348282
 51
221.8201698800999
  0
ARC
  5
C1
330
6C
100
AcDbEntity
  8
0
  6
Continuous
 62
     7
100
AcDbCircle
 10
76.4491097276
 20
20.2064253405
 30
0.0
 40
0.4103089737
100
AcDbArc
 50
102.8287828727
 51
149.2259639027
  0
ARC
  5
C2
330
6C
100
AcDbEntity
  8
0
  6
Continuous
 62
     7
100
AcDbCircle
 10
76.8661365632
 20
18.46409001059999
 30
0.0
 40
2.201836557
100
AcDbArc
 50
84.0400061859
 51
103.3427657871999
  0
ARC
  5
C3
330
6C
100
AcDbEntity
  8
0
  6
Continuous
 62
     7
100
AcDbCircle
 10
76.5251727384
 20
16.0467260867
 30
0.0
 40
4.642373736499997
100
AcDbArc
 50
70.2625858546
 51
82.9524186379
  0
ARC
  5
C4
330
6C
100
AcDbEntity
  8
0
  6
Continuous
 62
     7
100
AcDbCircle
 10
76.0111545363
 20
20.7183489764
 30
0.0
 40
3.258755990899997
100
AcDbArc
 50
247.5300206148
 51
280.7579522145
  0
ARC
  5
C5
330
6C
100
AcDbEntity
  8
0
  6
Continuous
 62
     7
100
AcDbCircle
 10
69.6261880643
 20
2.4668290159
 30
0.0
 40
17.3316084133
100
AcDbArc
 50
65.34146746500001
 51
67.39977707359999
  0
ARC
  5
C6
330
6C
100
AcDbEntity
  8
0
  6
Continuous
 62
     7
100
AcDbCircle
 10
80.4220504697
 20
28.259255379
 30
0.0
 40
10.6291642039
100
AcDbArc
 50
242.8620101252001
 51
247.1042029184999
  0
ARC
  5
C7
330
6C
100
AcDbEntity
  8
0
  6
Continuous
 62
     7
100
AcDbCircle
 10
76.56714924310001
 20
20.725323882
 30
0.0
 40
2.166291629199998
100
AcDbArc
 50
227.3119280793999
 51
242.7040315235
  0
ARC
  5
C8
330
6C
100
AcDbEntity
  8
0
  6
Continuous
 62
     7
100
AcDbCircle
 10
75.9631184335
 20
20.0196462412
 30
0.0
 40
1.238521734
100
AcDbArc
 50
194.7952194234
 51
225.7176549041999
  0
ARC
  5
C9
330
6C
100
AcDbEntity
  8
0
  6
Continuous
 62
     7
100
AcDbCircle
 10
76.58230028830002
 20
19.1715990505
 30
0.0
 40
2.366924815299999
100
AcDbArc
 50
86.22180229280001
 51
120.4272602309
  0
ARC
  5
CA
330
6C
100
AcDbEntity
  8
0
  6
Continuous
 62
     7
100
AcDbCircle
 10
76.3134435058
 20
12.4754312294
 30
0.0
 40
9.0679051661
100
AcDbArc
 50
78.68270492259998
 51
87.3147599624
  0
ARC
  5
CB
330
6C
100
AcDbEntity
  8
0
  6
Continuous
 62
     7
100
AcDbCircle
 10
76.20268366899998
 20
19.86079227619999
 30
0.0
 40
1.580546684599998
100
AcDbArc
 50
121.2140948540999
 51
141.5254768289999
  0
ARC
  5
CC
330
6C
100
AcDbEntity
  8
0
  6
Continuous
 62
     7
100
AcDbCircle
 10
76.7798580346
 20
20.6718496049
 30
0.0
 40
0.8661276051999998
100
AcDbArc
 50
222.7760387596
 51
239.0362434679
  0
ARC
  5
CD
330
6C
100
AcDbEntity
  8
0
  6
Continuous
 62
     7
100
AcDbCircle
 10
74.2731484563
 20
13.3415774063
 30
0.0
 40
6.858773576299999
100
AcDbArc
 50
59.90202725620001
 51
68.20364812820002
  0
ARC
  5
CE
330
6C
100
AcDbEntity
  8
0
  6
Continuous
 62
     7
100
AcDbCircle
 10
77.6816429501
 20
22.26746391349999
 30
0.0
 40
2.698741017099999
100
AcDbArc
 50
240.0481997804
 51
251.3779673734
  0
ARC
  5
CF
330
6C
100
AcDbEntity
  8
0
  6
Continuous
 62
     7
100
AcDbCircle
 10
77.0161857833
 20
18.1105652982
 30
0.0
 40
1.4334474881
100
AcDbArc
 50
315.8904553225998
 51
333.5229264375
  0
ARC
  5
D0
330
6C
100
AcDbEntity
  8
0
  6
Continuous
 62
     7
100
AcDbCircle
 10
77.020824027
 20
18.057158148
 30
0.0
 40
1.406228711899998
100
AcDbArc
 50
335.3867972703
 51
24.3915119403
  0
ARC
  5
D1
330
6C
100
AcDbEntity
  8
0
  6
Continuous
 62
     7
100
AcDbCircle
 10
76.94861912350001
 20
17.97930145619999
 30
0.0
 40
1.504702514699999
100
AcDbArc
 50
25.9562916611
 51
59.4834829676
  0
LINE
  5
D2
330
6C
100
AcDbEntity
  8
0
  6
Continuous
 62
     7
100
AcDbLine
 10
74.9574888499
 20
20.8337423583
 30
0.0
 11
75.2315546745
 21
21.10781543579999
 31
0.0
  0
ARC
  5
D3
330
6C
100
AcDbEntity
  8
0
  6
Continuous
 62
     7
100
AcDbCircle
 10
76.0252765676
 20
20.05986621039999
 30
0.0
 40
1.309092072899999
100
AcDbArc
 50
164.1974860461
 51
195.8025139539
  0
ARC
  5
D4
330
6C
100
AcDbEntity
  8
0
  6
Continuous
 62
     7
100
AcDbCircle
 10
75.8573743274
 20
20.1673739729
 30
0.0
 40
1.119747444
100
AcDbArc
 50
142.8139179029999
 51
167.1522951416999
  0
ENDBLK
  5
D6
330
6C
100
AcDbEntity
  8
0
100
AcDbBlockEnd
  0
BLOCK
  5
14733
330
14728
100
AcDbEntity
  8
0
100
AcDbBlockBegin
  2
*D9
 70
     1
 10
0.0
 20
0.0
 30
0.0
  3
*D9
  1

  0
LINE
  5
14C33
330
14728
100
AcDbEntity
  8
10100_FRONT_DIM
  6
Continuous
 62
     0
370
    -2
100
AcDbLine
 10
1093.069683882931
 20
285.5739725488839
 30
0.0
 11
1093.069683882931
 21
271.6539409077297
 31
0.0
  0
LINE
  5
14C34
330
14728
100
AcDbEntity
  8
10100_FRONT_DIM
  6
Continuous
 62
     0
370
    -2
100
AcDbLine
 10
1137.869683882929
 20
285.5739637645692
 30
0.0
 11
1137.869683882929
 21
271.6539409077297
 31
0.0
  0
LINE
  5
14C35
330
14728
100
AcDbEntity
  8
10100_FRONT_DIM
  6
Continuous
 62
     0
370
    -2
100
AcDbLine
 10
1095.069683882931
 20
272.6539409077297
 30
0.0
 11
1111.553017216263
 21
272.6539409077297
 31
0.0
  0
LINE
  5
14C36
330
14728
100
AcDbEntity
  8
10100_FRONT_DIM
  6
Continuous
 62
     0
370
    -2
100
AcDbLine
 10
1135.869683882929
 20
272.6539409077297
 30
0.0
 11
1119.386350549596
 21
272.6539409077297
 31
0.0
  0
SOLID
  5
14C37
330
14728
100
AcDbEntity
  8
10100_FRONT_DIM
  6
Continuous
 62
     0
100
AcDbTrace
 10
1095.069683882931
 20
272.987274241063
 30
0.0
 11
1095.069683882931
 21
272.3206075743964
 31
0.0
 12
1093.069683882931
 22
272.6539409077297
 32
0.0
 13
1093.069683882931
 23
272.6539409077297
 33
0.0
  0
SOLID
  5
14C38
330
14728
100
AcDbEntity
  8
10100_FRONT_DIM
  6
Continuous
 62
     0
100
AcDbTrace
 10
1135.869683882929
 20
272.987274241063
 30
0.0
 11
1135.869683882929
 21
272.3206075743964
 31
0.0
 12
1137.869683882929
 22
272.6539409077297
 32
0.0
 13
1137.869683882929
 23
272.6539409077297
 33
0.0
  0
MTEXT
  5
14C39
330
14728
100
AcDbEntity
  8
10100_FRONT_DIM
  6
Continuous
 62
     0
370
    13
100
AcDbMText
 10
1115.46968388293
 20
272.6539409077297
 30
0.0
 40
3.5
 41
0.0
 71
     5
 72
     1
  1
\A1;45
 73
     1
 44
1.0
1001
ACAD
1000
MTEXTBEGIN
1070
    73
1070
     1
1070
    44
1040
1.0
1070
    74
1070
     0
1000
MTEXTEND
  0
POINT
  5
14C3A
330
14728
100
AcDbEntity
  8
Defpoints
  6
Continuous
 62
     0
100
AcDbPoint
 10
1093.069683882931
 20
286.5739725488839
 30
0.0
  0
POINT
  5
14C3B
330
14728
100
AcDbEntity
  8
Defpoints
  6
Continuous
 62
     0
100
AcDbPoint
 10
1137.869683882929
 20
286.5739637645692
 30
0.0
  0
POINT
  5
14C3C
330
14728
100
AcDbEntity
  8
Defpoints
  6
Continuous
 62
     0
100
AcDbPoint
 10
1137.869683882929
 20
272.6539409077297
 30
0.0
  0
ENDBLK
  5
14734
330
14728
100
AcDbEntity
  8
0
100
AcDbBlockEnd
  0
BLOCK
  5
1474D
330
14742
100
AcDbEntity
  8
0
100
AcDbBlockBegin
  2
*D10
 70
     1
 10
0.0
 20
0.0
 30
0.0
  3
*D10
  1

  0
LINE
  5
14B98
330
14742
100
AcDbEntity
  8
11100_LEFT_DIM
  6
Continuous
 62
     0
370
    -2
100
AcDbLine
 10
1185.036101115548
 20
375.1739725488838
 30
0.0
 11
1174.48146488813
 21
375.1739725488838
 31
0.0
  0
LINE
  5
14B99
330
14742
100
AcDbEntity
  8
11100_LEFT_DIM
  6
Continuous
 62
     0
370
    -2
100
AcDbLine
 10
1183.47560881271
 20
289.6739725488838
 30
0.0
 11
1174.48146488813
 21
289.6739725488838
 31
0.0
  0
LINE
  5
14B9A
330
14742
100
AcDbEntity
  8
11100_LEFT_DIM
  6
Continuous
 62
     0
370
    -2
100
AcDbLine
 10
1175.48146488813
 20
373.1739725488838
 30
0.0
 11
1175.48146488813
 21
341.5906392155505
 31
0.0
  0
LINE
  5
14B9B
330
14742
100
AcDbEntity
  8
11100_LEFT_DIM
  6
Continuous
 62
     0
370
    -2
100
AcDbLine
 10
1175.48146488813
 20
291.6739725488838
 30
0.0
 11
1175.48146488813
 21
323.2573058822171
 31
0.0
  0
SOLID
  5
14B9C
330
14742
100
AcDbEntity
  8
11100_LEFT_DIM
  6
Continuous
 62
     0
100
AcDbTrace
 10
1175.148131554797
 20
373.1739725488838
 30
0.0
 11
1175.814798221464
 21
373.1739725488838
 31
0.0
 12
1175.48146488813
 22
375.1739725488838
 32
0.0
 13
1175.48146488813
 23
375.1739725488838
 33
0.0
  0
SOLID
  5
14B9D
330
14742
100
AcDbEntity
  8
11100_LEFT_DIM
  6
Continuous
 62
     0
100
AcDbTrace
 10
1175.148131554797
 20
291.6739725488838
 30
0.0
 11
1175.814798221464
 21
291.6739725488838
 31
0.0
 12
1175.48146488813
 22
289.6739725488838
 32
0.0
 13
1175.48146488813
 23
289.6739725488838
 33
0.0
  0
MTEXT
  5
14B9E
330
14742
100
AcDbEntity
  8
11100_LEFT_DIM
  6
Continuous
 62
     0
370
    13
100
AcDbMText
 10
1175.48146488813
 20
332.423972548884
 30
0.0
 40
3.5
 41
0.0
 71
     5
 72
     1
  1
\A1;35x85
 11
0.0000000000000001
 21
1.0
 31
0.0
 73
     1
 44
1.0
1001
ACAD
1000
MTEXTBEGIN
1070
    73
1070
     1
1070
    44
1040
1.0
1070
    74
1070
     0
1000
MTEXTEND
  0
POINT
  5
14B9F
330
14742
100
AcDbEntity
  8
Defpoints
  6
Continuous
 62
     0
100
AcDbPoint
 10
1186.036101115548
 20
375.1739725488838
 30
0.0
  0
POINT
  5
14BA0
330
14742
100
AcDbEntity
  8
Defpoints
  6
Continuous
 62
     0
100
AcDbPoint
 10
1184.475608812709
 20
289.6739725488838
 30
0.0
  0
POINT
  5
14BA1
330
14742
100
AcDbEntity
  8
Defpoints
  6
Continuous
 62
     0
100
AcDbPoint
 10
1175.48146488813
 20
289.6739725488838
 30
0.0
  0
ENDBLK
  5
1474E
330
14742
100
AcDbEntity
  8
0
100
AcDbBlockEnd
  0
BLOCK
  5
147C3
330
147B8
100
AcDbEntity
  8
0
100
AcDbBlockBegin
  2
*D12
 70
     1
 10
0.0
 20
0.0
 30
0.0
  3
*D12
  1

  0
LINE
  5
14BA2
330
147B8
100
AcDbEntity
  8
10100_FRONT_DIM
  6
Continuous
 62
     0
370
    -2
100
AcDbLine
 10
1138.069683882931
 20
285.7739725488839
 30
0.0
 11
1156.335099829432
 21
285.7739725488838
 31
0.0
  0
LINE
  5
14BA3
330
147B8
100
AcDbEntity
  8
10100_FRONT_DIM
  6
Continuous
 62
     0
370
    -2
100
AcDbLine
 10
1138.069684891441
 20
380.573972548884
 30
0.0
 11
1156.335099829432
 21
380.5739725488839
 31
0.0
  0
LINE
  5
14BA4
330
147B8
100
AcDbEntity
  8
10100_FRONT_DIM
  6
Continuous
 62
     0
370
    -2
100
AcDbLine
 10
1155.335099829432
 20
287.7739725488838
 30
0.0
 11
1155.335099829432
 21
329.2573058822171
 31
0.0
  0
LINE
  5
14BA5
330
147B8
100
AcDbEntity
  8
10100_FRONT_DIM
  6
Continuous
 62
     0
370
    -2
100
AcDbLine
 10
1155.335099829432
 20
378.5739725488839
 30
0.0
 11
1155.335099829432
 21
337.0906392155506
 31
0.0
  0
SOLID
  5
14BA6
330
147B8
100
AcDbEntity
  8
10100_FRONT_DIM
  6
Continuous
 62
     0
100
AcDbTrace
 10
1155.001766496098
 20
287.7739725488838
 30
0.0
 11
1155.668433162765
 21
287.7739725488838
 31
0.0
 12
1155.335099829432
 22
285.7739725488838
 32
0.0
 13
1155.335099829432
 23
285.7739725488838
 33
0.0
  0
SOLID
  5
14BA7
330
147B8
100
AcDbEntity
  8
10100_FRONT_DIM
  6
Continuous
 62
     0
100
AcDbTrace
 10
1155.001766496098
 20
378.5739725488839
 30
0.0
 11
1155.668433162765
 21
378.5739725488839
 31
0.0
 12
1155.335099829432
 22
380.5739725488839
 32
0.0
 13
1155.335099829432
 23
380.5739725488839
 33
0.0
  0
MTEXT
  5
14BA8
330
147B8
100
AcDbEntity
  8
10100_FRONT_DIM
  6
Continuous
 62
     0
370
    13
100
AcDbMText
 10
1155.335099829432
 20
333.1739725488841
 30
0.0
 40
3.5
 41
0.0
 71
     5
 72
     1
  1
\A1;95
 11
0.0000000000000001
 21
1.0
 31
0.0
 73
     1
 44
1.0
1001
ACAD
1000
MTEXTBEGIN
1070
    73
1070
     1
1070
    44
1040
1.0
1070
    74
1070
     0
1000
MTEXTEND
  0
POINT
  5
14BA9
330
147B8
100
AcDbEntity
  8
Defpoints
  6
Continuous
 62
     0
100
AcDbPoint
 10
1137.069683882931
 20
285.7739725488839
 30
0.0
  0
POINT
  5
14BAA
330
147B8
100
AcDbEntity
  8
Defpoints
  6
Continuous
 62
     0
100
AcDbPoint
 10
1137.069684891441
 20
380.573972548884
 30
0.0
  0
POINT
  5
14BAB
330
147B8
100
AcDbEntity
  8
Defpoints
  6
Continuous
 62
     0
100
AcDbPoint
 10
1155.335099829432
 20
380.5739725488839
 30
0.0
  0
ENDBLK
  5
147C4
330
147B8
100
AcDbEntity
  8
0
100
AcDbBlockEnd
  0
BLOCK
  5
147E7
330
147DC
100
AcDbEntity
  8
0
100
AcDbBlockBegin
  2
*D13
 70
     1
 10
0.0
 20
0.0
 30
0.0
  3
*D13
  1

  0
LINE
  5
14BAC
330
147DC
100
AcDbEntity
  8
10100_FRONT_DIM
  6
Continuous
 62
     0
370
    -2
100
AcDbLine
 10
1134.474549844544
 20
367.6739725488838
 30
0.0
 11
1148.520838506712
 21
367.6739725488838
 31
0.0
  0
LINE
  5
14BAD
330
147DC
100
AcDbEntity
  8
10100_FRONT_DIM
  6
Continuous
 62
     0
370
    -2
100
AcDbLine
 10
1134.474551844544
 20
298.6739725488838
 30
0.0
 11
1148.520838506712
 21
298.6739725488838
 31
0.0
  0
LINE
  5
14BAE
330
147DC
100
AcDbEntity
  8
10100_FRONT_DIM
  6
Continuous
 62
     0
370
    -2
100
AcDbLine
 10
1147.520838506712
 20
365.6739725488838
 30
0.0
 11
1147.520838506712
 21
337.0906392155505
 31
0.0
  0
LINE
  5
14BAF
330
147DC
100
AcDbEntity
  8
10100_FRONT_DIM
  6
Continuous
 62
     0
370
    -2
100
AcDbLine
 10
1147.520838506712
 20
300.6739725488838
 30
0.0
 11
1147.520838506712
 21
329.2573058822171
 31
0.0
  0
SOLID
  5
14BB0
330
147DC
100
AcDbEntity
  8
10100_FRONT_DIM
  6
Continuous
 62
     0
100
AcDbTrace
 10
1147.187505173379
 20
365.6739725488838
 30
0.0
 11
1147.854171840045
 21
365.6739725488838
 31
0.0
 12
1147.520838506712
 22
367.6739725488838
 32
0.0
 13
1147.520838506712
 23
367.6739725488838
 33
0.0
  0
SOLID
  5
14BB1
330
147DC
100
AcDbEntity
  8
10100_FRONT_DIM
  6
Continuous
 62
     0
100
AcDbTrace
 10
1147.187505173379
 20
300.6739725488838
 30
0.0
 11
1147.854171840045
 21
300.6739725488838
 31
0.0
 12
1147.520838506712
 22
298.6739725488838
 32
0.0
 13
1147.520838506712
 23
298.6739725488838
 33
0.0
  0
MTEXT
  5
14BB2
330
147DC
100
AcDbEntity
  8
10100_FRONT_DIM
  6
Continuous
 62
     0
370
    13
100
AcDbMText
 10
1147.520838506712
 20
333.173972548884
 30
0.0
 40
3.5
 41
0.0
 71
     5
 72
     1
  1
\A1;69
 11
0.0000000000000001
 21
1.0
 31
0.0
 73
     1
 44
1.0
1001
ACAD
1000
MTEXTBEGIN
1070
    73
1070
     1
1070
    44
1040
1.0
1070
    74
1070
     0
1000
MTEXTEND
  0
POINT
  5
14BB3
330
147DC
100
AcDbEntity
  8
Defpoints
  6
Continuous
 62
     0
100
AcDbPoint
 10
1133.474549844544
 20
367.6739725488838
 30
0.0
  0
POINT
  5
14BB4
330
147DC
100
AcDbEntity
  8
Defpoints
  6
Continuous
 62
     0
100
AcDbPoint
 10
1133.474551844544
 20
298.6739725488838
 30
0.0
  0
POINT
  5
14BB5
330
147DC
100
AcDbEntity
  8
Defpoints
  6
Continuous
 62
     0
100
AcDbPoint
 10
1147.520838506712
 20
298.6739725488838
 30
0.0
  0
ENDBLK
  5
147E8
330
147DC
100
AcDbEntity
  8
0
100
AcDbBlockEnd
  0
BLOCK
  5
1487B
330
1486F
100
AcDbEntity
  8
0
100
AcDbBlockBegin
  2
*D15
 70
     1
 10
0.0
 20
0.0
 30
0.0
  3
*D15
  1

  0
LINE
  5
14BB6
330
1486F
100
AcDbEntity
  8
11100_LEFT_DIM
  6
Continuous
 62
     0
370
    -2
100
AcDbLine
 10
1188.775608812709
 20
312.6739725488838
 30
0.0
 11
1188.775608812709
 21
278.000383671822
 31
0.0
  0
LINE
  5
14BB7
330
1486F
100
AcDbEntity
  8
11100_LEFT_DIM
  6
Continuous
 62
     0
370
    -2
100
AcDbLine
 10
1184.475608812709
 20
284.7739725488839
 30
0.0
 11
1184.475608812709
 21
278.000383671822
 31
0.0
  0
LINE
  5
14BB8
330
1486F
100
AcDbEntity
  8
11100_LEFT_DIM
  6
Continuous
 62
     0
370
    -2
100
AcDbLine
 10
1190.775608812709
 20
279.000383671822
 30
0.0
 11
1192.775608812709
 21
279.000383671822
 31
0.0
  0
LINE
  5
14BB9
330
1486F
100
AcDbEntity
  8
11100_LEFT_DIM
  6
Continuous
 62
     0
370
    -2
100
AcDbLine
 10
1182.475608812709
 20
279.000383671822
 30
0.0
 11
1180.475608812709
 21
279.000383671822
 31
0.0
  0
LINE
  5
14BBA
330
1486F
100
AcDbEntity
  8
11100_LEFT_DIM
  6
Continuous
 62
     0
370
    -2
100
AcDbLine
 10
1188.775608812709
 20
279.000383671822
 30
0.0
 11
1184.475608812709
 21
279.000383671822
 31
0.0
  0
SOLID
  5
14BBB
330
1486F
100
AcDbEntity
  8
11100_LEFT_DIM
  6
Continuous
 62
     0
100
AcDbTrace
 10
1190.775608812709
 20
279.3337170051553
 30
0.0
 11
1190.775608812709
 21
278.6670503384887
 31
0.0
 12
1188.775608812709
 22
279.000383671822
 32
0.0
 13
1188.775608812709
 23
279.000383671822
 33
0.0
  0
SOLID
  5
14BBC
330
1486F
100
AcDbEntity
  8
11100_LEFT_DIM
  6
Continuous
 62
     0
100
AcDbTrace
 10
1182.475608812709
 20
279.3337170051553
 30
0.0
 11
1182.475608812709
 21
278.6670503384887
 31
0.0
 12
1184.475608812709
 22
279.000383671822
 32
0.0
 13
1184.475608812709
 23
279.000383671822
 33
0.0
  0
MTEXT
  5
14BBD
330
1486F
100
AcDbEntity
  8
11100_LEFT_DIM
  6
Continuous
 62
     0
370
    13
100
AcDbMText
 10
1175.683942146043
 20
279.000383671822
 30
0.0
 40
3.5
 41
0.0
 71
     5
 72
     1
  1
\A1;4,3
 73
     1
 44
1.0
1001
ACAD
1000
MTEXTBEGIN
1070
    73
1070
     1
1070
    44
1040
1.0
1070
    74
1070
     0
1000
MTEXTEND
  0
POINT
  5
14BBE
330
1486F
100
AcDbEntity
  8
Defpoints
  6
Continuous
 62
     0
100
AcDbPoint
 10
1188.775608812709
 20
313.6739725488838
 30
0.0
  0
POINT
  5
14BBF
330
1486F
100
AcDbEntity
  8
Defpoints
  6
Continuous
 62
     0
100
AcDbPoint
 10
1184.475608812709
 20
285.7739725488839
 30
0.0
  0
POINT
  5
14BC0
330
1486F
100
AcDbEntity
  8
Defpoints
  6
Continuous
 62
     0
100
AcDbPoint
 10
1184.475608812709
 20
279.000383671822
 30
0.0
  0
ENDBLK
  5
1487C
330
1486F
100
AcDbEntity
  8
0
100
AcDbBlockEnd
  0
BLOCK
  5
148A9
330
1489E
100
AcDbEntity
  8
0
100
AcDbBlockBegin
  2
*D17
 70
     1
 10
0.0
 20
0.0
 30
0.0
  3
*D17
  1

  0
LINE
  5
14C13
330
1489E
100
AcDbEntity
  8
11100_LEFT_DIM
  6
Continuous
 62
     0
370
    -2
100
AcDbLine
 10
1188.775608812709
 20
284.7739725488839
 30
0.0
 11
1188.775608812709
 21
278.000383671822
 31
0.0
  0
LINE
  5
14C14
330
1489E
100
AcDbEntity
  8
11100_LEFT_DIM
  6
Continuous
 62
     0
370
    -2
100
AcDbLine
 10
1250.27560881271
 20
284.8739725488838
 30
0.0
 11
1250.27560881271
 21
278.000383671822
 31
0.0
  0
LINE
  5
14C15
330
1489E
100
AcDbEntity
  8
11100_LEFT_DIM
  6
Continuous
 62
     0
370
    -2
100
AcDbLine
 10
1190.775608812709
 20
279.000383671822
 30
0.0
 11
1215.608942146043
 21
279.000383671822
 31
0.0
  0
LINE
  5
14C16
330
1489E
100
AcDbEntity
  8
11100_LEFT_DIM
  6
Continuous
 62
     0
370
    -2
100
AcDbLine
 10
1248.27560881271
 20
279.000383671822
 30
0.0
 11
1223.442275479376
 21
279.000383671822
 31
0.0
  0
SOLID
  5
14C17
330
1489E
100
AcDbEntity
  8
11100_LEFT_DIM
  6
Continuous
 62
     0
100
AcDbTrace
 10
1190.775608812709
 20
279.3337170051553
 30
0.0
 11
1190.775608812709
 21
278.6670503384887
 31
0.0
 12
1188.775608812709
 22
279.000383671822
 32
0.0
 13
1188.775608812709
 23
279.000383671822
 33
0.0
  0
SOLID
  5
14C18
330
1489E
100
AcDbEntity
  8
11100_LEFT_DIM
  6
Continuous
 62
     0
100
AcDbTrace
 10
1248.27560881271
 20
279.3337170051553
 30
0.0
 11
1248.27560881271
 21
278.6670503384887
 31
0.0
 12
1250.27560881271
 22
279.000383671822
 32
0.0
 13
1250.27560881271
 23
279.000383671822
 33
0.0
  0
MTEXT
  5
14C19
330
1489E
100
AcDbEntity
  8
11100_LEFT_DIM
  6
Continuous
 62
     0
370
    13
100
AcDbMText
 10
1219.52560881271
 20
279.000383671822
 30
0.0
 40
3.5
 41
0.0
 71
     5
 72
     1
  1
\A1;62
 73
     1
 44
1.0
1001
ACAD
1000
MTEXTBEGIN
1070
    73
1070
     1
1070
    44
1040
1.0
1070
    74
1070
     0
1000
MTEXTEND
  0
POINT
  5
14C1A
330
1489E
100
AcDbEntity
  8
Defpoints
  6
Continuous
 62
     0
100
AcDbPoint
 10
1188.775608812709
 20
285.7739725488839
 30
0.0
  0
POINT
  5
14C1B
330
1489E
100
AcDbEntity
  8
Defpoints
  6
Continuous
 62
     0
100
AcDbPoint
 10
1250.27560881271
 20
285.8739725488838
 30
0.0
  0
POINT
  5
14C1C
330
1489E
100
AcDbEntity
  8
Defpoints
  6
Continuous
 62
     0
100
AcDbPoint
 10
1250.27560881271
 20
279.000383671822
 30
0.0
  0
ENDBLK
  5
148AA
330
1489E
100
AcDbEntity
  8
0
100
AcDbBlockEnd
  0
BLOCK
  5
148C3
330
148B8
100
AcDbEntity
  8
0
100
AcDbBlockBegin
  2
*D18
 70
     1
 10
0.0
 20
0.0
 30
0.0
  3
*D18
  1

  0
LINE
  5
1FF05
330
148B8
100
AcDbEntity
  8
11100_LEFT_DIM
  6
Continuous
 62
     0
370
    -2
100
AcDbLine
 10
1188.775608812709
 20
284.1489725488839
 30
0.0
 11
1188.775608812709
 21
265.4815455734412
 31
0.0
  0
LINE
  5
1FF06
330
148B8
100
AcDbEntity
  8
11100_LEFT_DIM
  6
Continuous
 62
     0
370
    -2
100
AcDbLine
 10
1272.77560881271
 20
320.3258578016937
 30
0.0
 11
1272.77560881271
 21
265.4815455734412
 31
0.0
  0
LINE
  5
1FF07
330
148B8
100
AcDbEntity
  8
11100_LEFT_DIM
  6
Continuous
 62
     0
370
    -2
100
AcDbLine
 10
1190.775608812709
 20
266.4815455734412
 30
0.0
 11
1226.858942146043
 21
266.4815455734412
 31
0.0
  0
LINE
  5
1FF08
330
148B8
100
AcDbEntity
  8
11100_LEFT_DIM
  6
Continuous
 62
     0
370
    -2
100
AcDbLine
 10
1270.77560881271
 20
266.4815455734412
 30
0.0
 11
1234.692275479376
 21
266.4815455734412
 31
0.0
  0
SOLID
  5
1FF09
330
148B8
100
AcDbEntity
  8
11100_LEFT_DIM
  6
Continuous
 62
     0
100
AcDbTrace
 10
1190.775608812709
 20
266.8148789067745
 30
0.0
 11
1190.775608812709
 21
266.1482122401079
 31
0.0
 12
1188.775608812709
 22
266.4815455734412
 32
0.0
 13
1188.775608812709
 23
266.4815455734412
 33
0.0
  0
SOLID
  5
1FF0A
330
148B8
100
AcDbEntity
  8
11100_LEFT_DIM
  6
Continuous
 62
     0
100
AcDbTrace
 10
1270.77560881271
 20
266.8148789067745
 30
0.0
 11
1270.77560881271
 21
266.1482122401079
 31
0.0
 12
1272.77560881271
 22
266.4815455734412
 32
0.0
 13
1272.77560881271
 23
266.4815455734412
 33
0.0
  0
MTEXT
  5
1FF0B
330
148B8
100
AcDbEntity
  8
11100_LEFT_DIM
  6
Continuous
 62
     0
370
    13
100
AcDbMText
 10
1230.77560881271
 20
266.4815455734412
 30
0.0
 40
3.5
 41
0.0
 71
     5
 72
     1
  1
\A1;84
 73
     1
 44
1.0
1001
ACAD
1000
MTEXTBEGIN
1070
    73
1070
     1
1070
    44
1040
1.0
1070
    74
1070
     0
1000
MTEXTEND
  0
POINT
  5
1FF0C
330
148B8
100
AcDbEntity
  8
Defpoints
  6
Continuous
 62
     0
100
AcDbPoint
 10
1188.775608812709
 20
285.1489725488839
 30
0.0
  0
POINT
  5
1FF0D
330
148B8
100
AcDbEntity
  8
Defpoints
  6
Continuous
 62
     0
100
AcDbPoint
 10
1272.77560881271
 20
321.3258578016937
 30
0.0
  0
POINT
  5
1FF0E
330
148B8
100
AcDbEntity
  8
Defpoints
  6
Continuous
 62
     0
100
AcDbPoint
 10
1272.77560881271
 20
266.4815455734412
 30
0.0
  0
ENDBLK
  5
148C4
330
148B8
100
AcDbEntity
  8
0
100
AcDbBlockEnd
  0
BLOCK
  5
148FB
330
148F0
100
AcDbEntity
  8
0
100
AcDbBlockBegin
  2
*D19
 70
     1
 10
0.0
 20
0.0
 30
0.0
  3
*D19
  1

  0
LINE
  5
1FEFB
330
148F0
100
AcDbEntity
  8
11100_LEFT_DIM
  6
Continuous
 62
     0
370
    -2
100
AcDbLine
 10
1188.775608812709
 20
278.000383671822
 30
0.0
 11
1188.775608812709
 21
271.6539409077297
 31
0.0
  0
LINE
  5
1FEFC
330
148F0
100
AcDbEntity
  8
11100_LEFT_DIM
  6
Continuous
 62
     0
370
    -2
100
AcDbLine
 10
1268.66278881271
 20
299.7464567283067
 30
0.0
 11
1268.66278881271
 21
271.6539409077297
 31
0.0
  0
LINE
  5
1FEFD
330
148F0
100
AcDbEntity
  8
11100_LEFT_DIM
  6
Continuous
 62
     0
370
    -2
100
AcDbLine
 10
1190.775608812709
 20
272.6539409077297
 30
0.0
 11
1225.094198812709
 21
272.6539409077297
 31
0.0
  0
LINE
  5
1FEFE
330
148F0
100
AcDbEntity
  8
11100_LEFT_DIM
  6
Continuous
 62
     0
370
    -2
100
AcDbLine
 10
1266.662788812709
 20
272.6539409077297
 30
0.0
 11
1232.344198812709
 21
272.6539409077297
 31
0.0
  0
SOLID
  5
1FEFF
330
148F0
100
AcDbEntity
  8
11100_LEFT_DIM
  6
Continuous
 62
     0
100
AcDbTrace
 10
1190.775608812709
 20
272.987274241063
 30
0.0
 11
1190.775608812709
 21
272.3206075743964
 31
0.0
 12
1188.775608812709
 22
272.6539409077297
 32
0.0
 13
1188.775608812709
 23
272.6539409077297
 33
0.0
  0
SOLID
  5
1FF00
330
148F0
100
AcDbEntity
  8
11100_LEFT_DIM
  6
Continuous
 62
     0
100
AcDbTrace
 10
1266.662788812709
 20
272.987274241063
 30
0.0
 11
1266.662788812709
 21
272.3206075743964
 31
0.0
 12
1268.66278881271
 22
272.6539409077297
 32
0.0
 13
1268.66278881271
 23
272.6539409077297
 33
0.0
  0
MTEXT
  5
1FF01
330
148F0
100
AcDbEntity
  8
11100_LEFT_DIM
  6
Continuous
 62
     0
370
    13
100
AcDbMText
 10
1228.719198812709
 20
272.6539409077297
 30
0.0
 40
3.5
 41
0.0
 71
     5
 72
     1
  1
\A1;80
 73
     1
 44
1.0
1001
ACAD
1000
MTEXTBEGIN
1070
    73
1070
     1
1070
    44
1040
1.0
1070
    74
1070
     0
1000
MTEXTEND
  0
POINT
  5
1FF02
330
148F0
100
AcDbEntity
  8
Defpoints
  6
Continuous
 62
     0
100
AcDbPoint
 10
1188.775608812709
 20
279.000383671822
 30
0.0
  0
POINT
  5
1FF03
330
148F0
100
AcDbEntity
  8
Defpoints
  6
Continuous
 62
     0
100
AcDbPoint
 10
1268.66278881271
 20
300.7464567283067
 30
0.0
  0
POINT
  5
1FF04
330
148F0
100
AcDbEntity
  8
Defpoints
  6
Continuous
 62
     0
100
AcDbPoint
 10
1268.66278881271
 20
272.6539409077297
 30
0.0
  0
ENDBLK
  5
148FC
330
148F0
100
AcDbEntity
  8
0
100
AcDbBlockEnd
  0
BLOCK
  5
14929
330
1491E
100
AcDbEntity
  8
0
100
AcDbBlockBegin
  2
*D20
 70
     1
 10
0.0
 20
0.0
 30
0.0
  3
*D20
  1

  0
LINE
  5
1FF0F
330
1491E
100
AcDbEntity
  8
11100_LEFT_DIM
  6
Continuous
 62
     0
370
    -2
100
AcDbLine
 10
1188.775608812709
 20
284.7739725488839
 30
0.0
 11
1188.775608812709
 21
259.4526948442124
 31
0.0
  0
LINE
  5
1FF10
330
1491E
100
AcDbEntity
  8
11100_LEFT_DIM
  6
Continuous
 62
     0
370
    -2
100
AcDbLine
 10
1285.1308883737
 20
319.2808693916553
 30
0.0
 11
1285.1308883737
 21
259.4526948442124
 31
0.0
  0
LINE
  5
1FF11
330
1491E
100
AcDbEntity
  8
11100_LEFT_DIM
  6
Continuous
 62
     0
370
    -2
100
AcDbLine
 10
1190.775608812709
 20
260.4526948442124
 30
0.0
 11
1233.036581926538
 21
260.4526948442124
 31
0.0
  0
LINE
  5
1FF12
330
1491E
100
AcDbEntity
  8
11100_LEFT_DIM
  6
Continuous
 62
     0
370
    -2
100
AcDbLine
 10
1283.1308883737
 20
260.4526948442124
 30
0.0
 11
1240.869915259872
 21
260.4526948442124
 31
0.0
  0
SOLID
  5
1FF13
330
1491E
100
AcDbEntity
  8
11100_LEFT_DIM
  6
Continuous
 62
     0
100
AcDbTrace
 10
1190.775608812709
 20
260.7860281775458
 30
0.0
 11
1190.775608812709
 21
260.1193615108791
 31
0.0
 12
1188.775608812709
 22
260.4526948442124
 32
0.0
 13
1188.775608812709
 23
260.4526948442124
 33
0.0
  0
SOLID
  5
1FF14
330
1491E
100
AcDbEntity
  8
11100_LEFT_DIM
  6
Continuous
 62
     0
100
AcDbTrace
 10
1283.1308883737
 20
260.7860281775458
 30
0.0
 11
1283.1308883737
 21
260.1193615108791
 31
0.0
 12
1285.1308883737
 22
260.4526948442124
 32
0.0
 13
1285.1308883737
 23
260.4526948442124
 33
0.0
  0
MTEXT
  5
1FF15
330
1491E
100
AcDbEntity
  8
11100_LEFT_DIM
  6
Continuous
 62
     0
370
    13
100
AcDbMText
 10
1236.953248593205
 20
260.4526948442124
 30
0.0
 40
3.5
 41
0.0
 71
     5
 72
     1
  1
\A1;96
 73
     1
 44
1.0
1001
ACAD
1000
MTEXTBEGIN
1070
    73
1070
     1
1070
    44
1040
1.0
1070
    74
1070
     0
1000
MTEXTEND
  0
POINT
  5
1FF16
330
1491E
100
AcDbEntity
  8
Defpoints
  6
Continuous
 62
     0
100
AcDbPoint
 10
1188.775608812709
 20
285.7739725488839
 30
0.0
  0
POINT
  5
1FF17
330
1491E
100
AcDbEntity
  8
Defpoints
  6
Continuous
 62
     0
100
AcDbPoint
 10
1285.1308883737
 20
320.2808693916553
 30
0.0
  0
POINT
  5
1FF18
330
1491E
100
AcDbEntity
  8
Defpoints
  6
Continuous
 62
     0
100
AcDbPoint
 10
1285.1308883737
 20
260.4526948442124
 30
0.0
  0
ENDBLK
  5
1492A
330
1491E
100
AcDbEntity
  8
0
100
AcDbBlockEnd
  0
BLOCK
  5
149C9
330
149BC
100
AcDbEntity
  8
0
100
AcDbBlockBegin
  2
*D21
 70
     1
 10
0.0
 20
0.0
 30
0.0
  3
*D21
  1

  0
LINE
  5
14C55
330
149BC
100
AcDbEntity
  8
10100_FRONT_DIM
  6
Continuous
 62
     0
370
    -2
100
AcDbLine
 10
1101.069685882931
 20
284.7739725488839
 30
0.0
 11
1101.069685882931
 21
278.000383671822
 31
0.0
  0
LINE
  5
14C56
330
149BC
100
AcDbEntity
  8
10100_FRONT_DIM
  6
Continuous
 62
     0
370
    -2
100
AcDbLine
 10
1115.469690882931
 20
284.7739725488839
 30
0.0
 11
1115.469690882931
 21
278.000383671822
 31
0.0
  0
LINE
  5
14C57
330
149BC
100
AcDbEntity
  8
10100_FRONT_DIM
  6
Continuous
 62
     0
370
    -2
100
AcDbLine
 10
1099.069685882931
 20
279.000383671822
 30
0.0
 11
1097.069685882931
 21
279.000383671822
 31
0.0
  0
LINE
  5
14C58
330
149BC
100
AcDbEntity
  8
10100_FRONT_DIM
  6
Continuous
 62
     0
370
    -2
100
AcDbLine
 10
1117.469690882931
 20
279.000383671822
 30
0.0
 11
1119.469690882931
 21
279.000383671822
 31
0.0
  0
LINE
  5
14C59
330
149BC
100
AcDbEntity
  8
10100_FRONT_DIM
  6
Continuous
 62
     0
370
    -2
100
AcDbLine
 10
1101.069685882931
 20
279.000383671822
 30
0.0
 11
1102.311355049597
 21
279.000383671822
 31
0.0
  0
LINE
  5
14C5A
330
149BC
100
AcDbEntity
  8
10100_FRONT_DIM
  6
Continuous
 62
     0
370
    -2
100
AcDbLine
 10
1115.469690882931
 20
279.000383671822
 30
0.0
 11
1114.228021716264
 21
279.000383671822
 31
0.0
  0
SOLID
  5
14C5B
330
149BC
100
AcDbEntity
  8
10100_FRONT_DIM
  6
Continuous
 62
     0
100
AcDbTrace
 10
1099.069685882931
 20
279.3337170051553
 30
0.0
 11
1099.069685882931
 21
278.6670503384887
 31
0.0
 12
1101.069685882931
 22
279.000383671822
 32
0.0
 13
1101.069685882931
 23
279.000383671822
 33
0.0
  0
SOLID
  5
14C5C
330
149BC
100
AcDbEntity
  8
10100_FRONT_DIM
  6
Continuous
 62
     0
100
AcDbTrace
 10
1117.469690882931
 20
279.3337170051553
 30
0.0
 11
1117.469690882931
 21
278.6670503384887
 31
0.0
 12
1115.469690882931
 22
279.000383671822
 32
0.0
 13
1115.469690882931
 23
279.000383671822
 33
0.0
  0
MTEXT
  5
14C5D
330
149BC
100
AcDbEntity
  8
10100_FRONT_DIM
  6
Continuous
 62
     0
370
    13
100
AcDbMText
 10
1108.269688382931
 20
279.000383671822
 30
0.0
 40
3.5
 41
0.0
 71
     5
 72
     1
  1
\A1;14,4
 73
     1
 44
1.0
1001
ACAD
1000
MTEXTBEGIN
1070
    73
1070
     1
1070
    44
1040
1.0
1070
    74
1070
     0
1000
MTEXTEND
  0
POINT
  5
14C5E
330
149BC
100
AcDbEntity
  8
Defpoints
  6
Continuous
 62
     0
100
AcDbPoint
 10
1101.069685882931
 20
285.7739725488839
 30
0.0
  0
POINT
  5
14C5F
330
149BC
100
AcDbEntity
  8
Defpoints
  6
Continuous
 62
     0
100
AcDbPoint
 10
1115.469690882931
 20
285.7739725488839
 30
0.0
  0
POINT
  5
14C60
330
149BC
100
AcDbEntity
  8
Defpoints
  6
Continuous
 62
     0
100
AcDbPoint
 10
1115.469690882931
 20
279.000383671822
 30
0.0
  0
ENDBLK
  5
149CA
330
149BC
100
AcDbEntity
  8
0
100
AcDbBlockEnd
  0
BLOCK
  5
149E5
330
149DA
100
AcDbEntity
  8
0
100
AcDbBlockBegin
  2
*D22
 70
     1
 10
0.0
 20
0.0
 30
0.0
  3
*D22
  1

  0
LINE
  5
14C61
330
149DA
100
AcDbEntity
  8
10100_FRONT_DIM
  6
Continuous
 62
     0
370
    -2
100
AcDbLine
 10
1101.069685882931
 20
284.7739725488839
 30
0.0
 11
1101.069685882931
 21
278.000383671822
 31
0.0
  0
LINE
  5
14C62
330
149DA
100
AcDbEntity
  8
10100_FRONT_DIM
  6
Continuous
 62
     0
370
    -2
100
AcDbLine
 10
1093.069683882931
 20
285.5739725488839
 30
0.0
 11
1093.069683882931
 21
278.000383671822
 31
0.0
  0
LINE
  5
14C63
330
149DA
100
AcDbEntity
  8
10100_FRONT_DIM
  6
Continuous
 62
     0
370
    -2
100
AcDbLine
 10
1099.069685882931
 20
279.000383671822
 30
0.0
 11
1095.069683882931
 21
279.000383671822
 31
0.0
  0
LINE
  5
14C64
330
149DA
100
AcDbEntity
  8
10100_FRONT_DIM
  6
Continuous
 62
     0
370
    -2
100
AcDbLine
 10
1093.069683882931
 20
279.000383671822
 30
0.0
 11
1091.069683882931
 21
279.000383671822
 31
0.0
  0
SOLID
  5
14C65
330
149DA
100
AcDbEntity
  8
10100_FRONT_DIM
  6
Continuous
 62
     0
100
AcDbTrace
 10
1099.069685882931
 20
279.3337170051553
 30
0.0
 11
1099.069685882931
 21
278.6670503384887
 31
0.0
 12
1101.069685882931
 22
279.000383671822
 32
0.0
 13
1101.069685882931
 23
279.000383671822
 33
0.0
  0
SOLID
  5
14C66
330
149DA
100
AcDbEntity
  8
10100_FRONT_DIM
  6
Continuous
 62
     0
100
AcDbTrace
 10
1095.069683882931
 20
279.3337170051553
 30
0.0
 11
1095.069683882931
 21
278.6670503384887
 31
0.0
 12
1093.069683882931
 22
279.000383671822
 32
0.0
 13
1093.069683882931
 23
279.000383671822
 33
0.0
  0
MTEXT
  5
14C67
330
149DA
100
AcDbEntity
  8
10100_FRONT_DIM
  6
Continuous
 62
     0
370
    13
100
AcDbMText
 10
1088.903017216264
 20
279.000383671822
 30
0.0
 40
3.5
 41
0.0
 71
     5
 72
     1
  1
\A1;8
 73
     1
 44
1.0
1001
ACAD
1000
MTEXTBEGIN
1070
    73
1070
     1
1070
    44
1040
1.0
1070
    74
1070
     0
1000
MTEXTEND
  0
POINT
  5
14C68
330
149DA
100
AcDbEntity
  8
Defpoints
  6
Continuous
 62
     0
100
AcDbPoint
 10
1101.069685882931
 20
285.7739725488839
 30
0.0
  0
POINT
  5
14C69
330
149DA
100
AcDbEntity
  8
Defpoints
  6
Continuous
 62
     0
100
AcDbPoint
 10
1093.069683882931
 20
286.5739725488839
 30
0.0
  0
POINT
  5
14C6A
330
149DA
100
AcDbEntity
  8
Defpoints
  6
Continuous
 62
     0
100
AcDbPoint
 10
1093.069683882931
 20
279.000383671822
 30
0.0
  0
ENDBLK
  5
149E6
330
149DA
100
AcDbEntity
  8
0
100
AcDbBlockEnd
  0
ENDSEC
  0
SECTION
  2
ENTITIES
  0
INSERT
  5
117
330
1F
100
AcDbEntity
  8
90000_FRAME
  6
Continuous
 62
     7
100
AcDbBlockReference
  2
SIEMENS_OUTLINE_BL0
 10
1113.564341719631
 20
201.9187786897147
 30
0.0
  0
LINE
  5
118
330
1F
100
AcDbEntity
  8
90000_FRAME
  6
Continuous
 62
     7
100
AcDbLine
 10
1180.91844433571
 20
212.257037917318
 30
0.0
 11
1315.91844433571
 21
212.257037917318
 31
0.0
  0
LINE
  5
119
330
1F
100
AcDbEntity
  8
90000_FRAME
  6
Continuous
 62
     7
100
AcDbLine
 10
1180.91844433571
 20
212.257037917318
 30
0.0
 11
1180.91844433571
 21
230.257037917318
 31
0.0
  0
LINE
  5
11A
330
1F
100
AcDbEntity
  8
90000_FRAME
  6
Continuous
 62
     7
100
AcDbLine
 10
1230.91844433571
 20
218.257037917318
 30
0.0
 11
1315.91844433571
 21
218.257037917318
 31
0.0
  0
LINE
  5
11B
330
1F
100
AcDbEntity
  8
90000_FRAME
  6
Continuous
 62
     7
100
AcDbLine
 10
1180.91844433571
 20
230.257037917318
 30
0.0
 11
1315.91844433571
 21
230.257037917318
 31
0.0
  0
LINE
  5
11C
330
1F
100
AcDbEntity
  8
90000_FRAME
  6
Continuous
 62
     7
100
AcDbLine
 10
1230.91844433571
 20
212.257037917318
 30
0.0
 11
1230.91844433571
 21
230.257037917318
 31
0.0
  0
LINE
  5
11D
330
1F
100
AcDbEntity
  8
90000_FRAME
  6
Continuous
 62
     7
100
AcDbLine
 10
1273.41844433571
 20
212.257037917318
 30
0.0
 11
1273.41844433571
 21
218.257037917318
 31
0.0
  0
LINE
  5
11E
330
1F
100
AcDbEntity
  8
90000_FRAME
  6
Continuous
 62
     7
100
AcDbLine
 10
1315.91844433571
 20
212.257037917318
 30
0.0
 11
1315.91844433571
 21
230.257037917318
 31
0.0
  0
TEXT
  5
11F
330
1F
100
AcDbEntity
  8
90000_FRAME
  6
Continuous
 62
     7
100
AcDbText
 10
1231.57844433571
 20
214.157037917318
 30
0.0
 40
2.2
  1
Format / Size: DIN A4
 41
0.7994987468660263
 72
     5
 11
1264.99749195471
 21
214.157037917318
 31
0.0
100
AcDbText
  0
TEXT
  5
120
330
1F
100
AcDbEntity
  8
90000_FRAME
  6
Continuous
 62
     7
100
AcDbText
 10
1274.07844433571
 20
214.157037917318
 30
0.0
 40
2.2
  1
Massstab / Scale: 1:1
 41
0.7732634338148433
 72
     5
 11
1304.98320624051
 21
214.157037917318
 31
0.0
100
AcDbText
  0
TEXT
  5
121
330
1F
100
AcDbEntity
  8
90000_FRAME
  6
Continuous
 62
     7
100
AcDbText
 10
1245.237574160445
 20
219.6585883896237
 30
0.0
 40
3.5
  1
Halbleiterrelais
 41
1.244797923989233
 72
     5
 11
1301.149747579628
 21
219.6585883896237
 31
0.0
100
AcDbText
  0
LINE
  5
124
330
1F
100
AcDbEntity
  8
90000_FRAME
  6
Continuous
 62
     7
100
AcDbLine
 10
1055.918444335711
 20
202.257037917318
 30
0.0
 11
1325.918444335711
 21
202.257037917318
 31
0.0
  0
LINE
  5
126
330
1F
100
AcDbEntity
  8
90000_FRAME
  6
Continuous
 62
     7
100
AcDbLine
 10
1325.918444335711
 20
202.257037917318
 30
0.0
 11
1325.918444335711
 21
402.2570379173179
 31
0.0
  0
TEXT
  5
129
330
1F
100
AcDbEntity
  8
91000_TIP
  6
Continuous
 62
     7
100
AcDbText
 10
1059.971794118375
 20
210.9892745389946
 30
0.0
 40
2.5
  1
Alle Bemassungswerte sind in Millimeter (mm) angegeben.
 41
0.6056311217924569
 72
     5
 11
1133.656913936457
 21
210.9892745389946
 31
0.0
100
AcDbText
  0
TEXT
  5
12A
330
1F
100
AcDbEntity
  8
91000_TIP
  6
Continuous
 62
     7
100
AcDbText
 10
1059.971794118375
 20
205.7392745389947
 30
0.0
 40
2.5
  1
All dimensions are in millimeters (mm).
 41
0.7513350295680256
 72
     5
 11
1120.078596483817
 21
205.7392745389947
 31
0.0
100
AcDbText
  0
LINE
  5
2093
330
1F
100
AcDbEntity
  8
91000_TIP
  6
Continuous
 62
     7
100
AcDbLine
 10
1155.733114439736
 20
223.5807754396886
 30
0.0
 11
1165.733114235536
 21
226.0807753886886
 31
0.0
  0
LINE
  5
2094
330
1F
100
AcDbEntity
  8
91000_TIP
  6
CENTER
 62
     7
100
AcDbLine
 10
1154.453603967735
 20
221.0807754907886
 30
0.0
 11
1178.055593231835
 21
221.0807754907886
 31
0.0
  0
LINE
  5
2095
330
1F
100
AcDbEntity
  8
91000_TIP
  6
Continuous
 62
     7
100
AcDbLine
 10
1155.733114439736
 20
218.5807755418886
 30
0.0
 11
1165.733114235536
 21
216.0807755928885
 31
0.0
  0
LINE
  5
2096
330
1F
100
AcDbEntity
  8
91000_TIP
  6
Continuous
 62
     7
100
AcDbLine
 10
1155.733114439736
 20
223.5807754396886
 30
0.0
 11
1155.733114439736
 21
218.5807755418886
 31
0.0
  0
LINE
  5
2097
330
1F
100
AcDbEntity
  8
91000_TIP
  6
Continuous
 62
     7
100
AcDbLine
 10
1165.733114235536
 20
226.0807753886886
 30
0.0
 11
1165.733114235536
 21
216.0807755928885
 31
0.0
  0
LINE
  5
2098
330
1F
100
AcDbEntity
  8
91000_TIP
  6
CENTER
 62
     7
100
AcDbLine
 10
1172.233114102736
 20
215.3592942843886
 30
0.0
 11
1172.233114102736
 21
226.6426802843886
 31
0.0
  0
CIRCLE
  5
2099
330
1F
100
AcDbEntity
  8
91000_TIP
  6
Continuous
 62
     7
100
AcDbCircle
 10
1172.233114102736
 20
221.0807754907886
 30
0.0
 40
4.9999998979
  0
CIRCLE
  5
209A
330
1F
100
AcDbEntity
  8
91000_TIP
  6
Continuous
 62
     7
100
AcDbCircle
 10
1172.233114102736
 20
221.0807754907886
 30
0.0
 40
2.499999948899997
  0
LINE
  5
33C9
330
1F
100
AcDbEntity
  8
90000_FRAME
  6
Continuous
 62
     7
100
AcDbLine
 10
1055.918444335711
 20
202.257037917318
 30
0.0
 11
1055.918444335711
 21
402.2570379173179
 31
0.0
  0
LINE
  5
33CA
330
1F
100
AcDbEntity
  8
90000_FRAME
  6
Continuous
 62
     7
100
AcDbLine
 10
1055.918444335711
 20
402.2570379173179
 30
0.0
 11
1325.918444335711
 21
402.2570379173179
 31
0.0
  0
TEXT
  5
8BAF
330
1F
100
AcDbEntity
  8
90000_FRAME
  6
Continuous
 62
     7
100
AcDbText
 10
1244.730971510053
 20
225.5817993063757
 30
0.0
 40
3.5
  1
3RF2405_00001614_000_ALL
 41
0.7373033857474695
 72
     5
 11
1300.643144929236
 21
225.5817993063757
 31
0.0
100
AcDbText
  0
LINE
  5
EDE5
330
1F
100
AcDbEntity
  8
11000_Left
  6
Continuous
 62
     7
370
    50
100
AcDbLine
 10
1243.42560881271
 20
380.4739725488838
 30
0.0
 11
1243.42560881271
 21
371.6739725488838
 31
0.0
  0
LINE
  5
EDE6
330
1F
100
AcDbEntity
  8
11000_Left
  6
Continuous
 62
     7
370
    13
100
AcDbLine
 10
1243.42560881271
 20
371.6739725488838
 30
0.0
 11
1243.42560881271
 21
360.1634025488839
 31
0.0
  0
LINE
  5
EDE7
330
1F
100
AcDbEntity
  8
11000_Left
  6
Continuous
 62
     7
370
    13
100
AcDbLine
 10
1243.42560881271
 20
310.7845525488838
 30
0.0
 11
1243.42560881271
 21
294.6739725488838
 31
0.0
  0
LINE
  5
EDE8
330
1F
100
AcDbEntity
  8
11000_Left
  6
Continuous
 62
     7
370
    50
100
AcDbLine
 10
1243.42560881271
 20
294.6739725488838
 30
0.0
 11
1243.42560881271
 21
285.8739725488838
 31
0.0
  0
LINE
  5
EDED
330
1F
100
AcDbEntity
  8
11000_Left
  6
Continuous
 62
     7
370
    13
100
AcDbLine
 10
1243.42560881271
 20
360.1634025488839
 30
0.0
 11
1237.67560881271
 21
359.1495225488839
 31
0.0
  0
LINE
  5
EDEE
330
1F
100
AcDbEntity
  8
11000_Left
  6
Continuous
 62
     7
370
    13
100
AcDbLine
 10
1237.67560881271
 20
311.7984325488838
 30
0.0
 11
1243.42560881271
 21
310.7845525488838
 31
0.0
  0
LINE
  5
EDF7
330
1F
100
AcDbEntity
  8
11000_Left
  6
Continuous
 62
     7
370
    50
100
AcDbLine
 10
1262.975608812709
 20
285.8739725488838
 30
0.0
 11
1243.42560881271
 21
285.8739725488838
 31
0.0
  0
ARC
  5
EDF9
330
1F
100
AcDbEntity
  8
11000_Left
  6
Continuous
 62
     7
370
    50
100
AcDbCircle
 10
1262.975608812709
 20
286.0739725488839
 30
0.0
 40
0.2
100
AcDbArc
 50
270.0
 51
0.0
  0
LINE
  5
EDFF
330
1F
100
AcDbEntity
  8
11000_Left
  6
Continuous
 62
     7
370
    50
100
AcDbLine
 10
1243.42560881271
 20
380.4739725488838
 30
0.0
 11
1262.975608812709
 21
380.4739725488838
 31
0.0
  0
ARC
  5
EE02
330
1F
100
AcDbEntity
  8
11000_Left
  6
Continuous
 62
     7
370
    50
100
AcDbCircle
 10
1262.975608812709
 20
380.2739725488839
 30
0.0
 40
0.2
100
AcDbArc
 50
0.0
 51
90.0
  0
LINE
  5
EE04
330
1F
100
AcDbEntity
  8
11000_Left
  6
Continuous
 62
     7
370
    13
100
AcDbLine
 10
1263.17560881271
 20
375.4739725488838
 30
0.0
 11
1263.17560881271
 21
290.8739725488839
 31
0.0
  0
LINE
  5
EE05
330
1F
100
AcDbEntity
  8
11000_Left
  6
Continuous
 62
     7
370
    50
100
AcDbLine
 10
1263.17560881271
 20
290.8739725488839
 30
0.0
 11
1263.17560881271
 21
286.1448225488837
 31
0.0
  0
LINE
  5
EE06
330
1F
100
AcDbEntity
  8
11000_Left
  6
Continuous
 62
     7
370
    50
100
AcDbLine
 10
1263.17560881271
 20
286.1448225488837
 30
0.0
 11
1263.17560881271
 21
286.0739725488839
 31
0.0
  0
LINE
  5
EE08
330
1F
100
AcDbEntity
  8
11000_Left
  6
Continuous
 62
     7
370
    50
100
AcDbLine
 10
1263.17560881271
 20
380.2739725488839
 30
0.0
 11
1263.17560881271
 21
375.4739725488838
 31
0.0
  0
LINE
  5
EE0D
330
1F
100
AcDbEntity
  8
11000_Left
  6
Continuous
 62
     7
370
    13
100
AcDbLine
 10
1237.67560881271
 20
311.7984325488838
 30
0.0
 11
1237.67560881271
 21
359.1495225488839
 31
0.0
  0
LINE
  5
EE0E
330
1F
100
AcDbEntity
  8
11000_Left
  6
Continuous
 62
     7
370
    50
100
AcDbLine
 10
1242.92560881271
 20
294.6739725488838
 30
0.0
 11
1243.42560881271
 21
294.6739725488838
 31
0.0
  0
LINE
  5
EE0F
330
1F
100
AcDbEntity
  8
11000_Left
  6
Continuous
 62
     7
370
    50
100
AcDbLine
 10
1243.42560881271
 20
371.6739725488838
 30
0.0
 11
1242.92560881271
 21
371.6739725488838
 31
0.0
  0
LINE
  5
EEF4
330
1F
100
AcDbEntity
  8
11000_Left
  6
Continuous
 62
     7
370
    50
100
AcDbLine
 10
1191.175608812709
 20
380.3739725488838
 30
0.0
 11
1191.175608812709
 21
379.7739725488839
 31
0.0
  0
LINE
  5
EEF5
330
1F
100
AcDbEntity
  8
11000_Left
  6
Continuous
 62
     7
370
    50
100
AcDbLine
 10
1191.175608812709
 20
379.7739725488839
 30
0.0
 11
1191.175608812709
 21
364.6739725488838
 31
0.0
  0
LINE
  5
EEF6
330
1F
100
AcDbEntity
  8
11000_Left
  6
Continuous
 62
     7
370
    50
100
AcDbLine
 10
1191.175608812709
 20
301.6739725488838
 30
0.0
 11
1191.175608812709
 21
286.5739725488839
 31
0.0
  0
LINE
  5
EEF7
330
1F
100
AcDbEntity
  8
11000_Left
  6
Continuous
 62
     7
370
    50
100
AcDbLine
 10
1191.175608812709
 20
286.5739725488839
 30
0.0
 11
1191.175608812709
 21
285.9739725488838
 31
0.0
  0
LINE
  5
EF38
330
1F
100
AcDbEntity
  8
11000_Left
  6
Continuous
 62
     7
370
    50
100
AcDbLine
 10
1188.775608812709
 20
354.1739725488838
 30
0.0
 11
1188.775608812709
 21
313.6739725488838
 31
0.0
  0
LINE
  5
EF39
330
1F
100
AcDbEntity
  8
11000_Left
  6
Continuous
 62
     7
370
    13
100
AcDbLine
 10
1240.17560881271
 20
362.6739725488838
 30
0.0
 11
1237.67560881271
 21
362.6739725488838
 31
0.0
  0
LINE
  5
EF3A
330
1F
100
AcDbEntity
  8
11000_Left
  6
Continuous
 62
     7
370
    13
100
AcDbLine
 10
1237.67560881271
 20
308.2739725488839
 30
0.0
 11
1240.17560881271
 21
308.2739725488839
 31
0.0
  0
LINE
  5
EF3B
330
1F
100
AcDbEntity
  8
11000_Left
  6
Continuous
 62
     7
370
    13
100
AcDbLine
 10
1240.17560881271
 20
302.2739725488839
 30
0.0
 11
1237.67560881271
 21
302.2739725488839
 31
0.0
  0
LINE
  5
EF3C
330
1F
100
AcDbEntity
  8
11000_Left
  6
Continuous
 62
     7
370
    13
100
AcDbLine
 10
1240.17560881271
 20
308.2739725488839
 30
0.0
 11
1240.17560881271
 21
302.2739725488839
 31
0.0
  0
LINE
  5
EF3D
330
1F
100
AcDbEntity
  8
11000_Left
  6
Continuous
 62
     7
370
    50
100
AcDbLine
 10
1187.41144881271
 20
380.5739725488839
 30
0.0
 11
1190.975608812709
 21
380.5739725488839
 31
0.0
  0
LINE
  5
EF3E
330
1F
100
AcDbEntity
  8
11000_Left
  6
Continuous
 62
     7
370
    50
100
AcDbLine
 10
1184.475608812709
 20
354.1739725488838
 30
0.0
 11
1188.775608812709
 21
354.1739725488838
 31
0.0
  0
LINE
  5
EF3F
330
1F
100
AcDbEntity
  8
11000_Left
  6
Continuous
 62
     7
370
    13
100
AcDbLine
 10
1187.010028812709
 20
316.6695625488838
 30
0.0
 11
1187.508248812709
 21
316.6695625488838
 31
0.0
  0
LINE
  5
EF40
102
{ACAD_REACTORS
330
14889
102
}
330
1F
100
AcDbEntity
  8
11000_Left
  6
Continuous
 62
     7
370
    50
100
AcDbLine
 10
1188.775608812709
 20
313.6739725488838
 30
0.0
 11
1184.475608812709
 21
313.6739725488838
 31
0.0
  0
LINE
  5
EF9C
330
1F
100
AcDbEntity
  8
11000_Left
  6
Continuous
 62
     7
370
    13
100
AcDbLine
 10
1187.375608812709
 20
354.1739725488838
 30
0.0
 11
1187.375608812709
 21
349.3355730599872
 31
0.0
  0
LINE
  5
EF9D
330
1F
100
AcDbEntity
  8
11000_Left
  6
Continuous
 62
     7
370
    13
100
AcDbLine
 10
1187.375608812709
 20
349.3355730599872
 30
0.0
 11
1187.28230881271
 21
349.1739725488838
 31
0.0
  0
LINE
  5
EF9E
330
1F
100
AcDbEntity
  8
11000_Left
  6
Continuous
 62
     7
370
    13
100
AcDbLine
 10
1187.28230881271
 20
349.1739725488838
 30
0.0
 11
1185.996298812709
 21
349.1739725488838
 31
0.0
  0
LINE
  5
EF9F
330
1F
100
AcDbEntity
  8
11000_Left
  6
Continuous
 62
     7
370
    13
100
AcDbLine
 10
1185.996298812709
 20
349.1739725488838
 30
0.0
 11
1184.627678812709
 21
353.6739725488838
 31
0.0
  0
LINE
  5
EFA1
330
1F
100
AcDbEntity
  8
11000_Left
  6
Continuous
 62
     7
370
    13
100
AcDbLine
 10
1184.475608812709
 20
314.3225225488839
 30
0.0
 11
1187.010028812709
 21
316.6712125488837
 31
0.0
  0
LINE
  5
EFA2
330
1F
100
AcDbEntity
  8
11000_Left
  6
Continuous
 62
     7
370
    13
100
AcDbLine
 10
1187.508248812709
 20
316.6706625488838
 30
0.0
 11
1187.775608812709
 21
315.6739725488838
 31
0.0
  0
LINE
  5
EFA3
330
1F
100
AcDbEntity
  8
11000_Left
  6
Continuous
 62
     7
370
    13
100
AcDbLine
 10
1187.775608812709
 20
315.6739725488838
 30
0.0
 11
1188.775608812709
 21
315.6739725488838
 31
0.0
  0
LINE
  5
EFA4
330
1F
100
AcDbEntity
  8
11000_Left
  6
Continuous
 62
     7
370
    50
100
AcDbLine
 10
1190.975608812709
 20
285.7739725488839
 30
0.0
 11
1184.475608812709
 21
285.7739725488839
 31
0.0
  0
LINE
  5
EFC4
330
1F
100
AcDbEntity
  8
11000_Left
  6
Continuous
 62
     7
370
    50
100
AcDbLine
 10
1187.270388812709
 20
379.7739725488839
 30
0.0
 11
1187.41144881271
 21
380.5739725488839
 31
0.0
  0
LINE
  5
EFC5
330
1F
100
AcDbEntity
  8
11000_Left
  6
Continuous
 62
     7
370
    50
100
AcDbLine
 10
1187.270388812709
 20
379.7739725488839
 30
0.0
 11
1184.475608812709
 21
363.9239725488838
 31
0.0
  0
LINE
  5
EFC6
330
1F
100
AcDbEntity
  8
11000_Left
  6
Continuous
 62
     7
370
    50
100
AcDbLine
 10
1184.475608812709
 20
363.9239725488838
 30
0.0
 11
1184.475608812709
 21
354.1739725488838
 31
0.0
  0
LINE
  5
EFC7
102
{ACAD_REACTORS
330
14889
102
}
330
1F
100
AcDbEntity
  8
11000_Left
  6
Continuous
 62
     7
370
    50
100
AcDbLine
 10
1184.475608812709
 20
285.7739725488839
 30
0.0
 11
1184.475608812709
 21
286.5739725488839
 31
0.0
  0
LINE
  5
EFC8
330
1F
100
AcDbEntity
  8
11000_Left
  6
Continuous
 62
     7
370
    50
100
AcDbLine
 10
1184.475608812709
 20
313.6739725488838
 30
0.0
 11
1184.475608812709
 21
286.5739725488839
 31
0.0
  0
LINE
  5
EFC9
330
1F
100
AcDbEntity
  8
11000_Left
  6
Continuous
 62
     7
370
    13
100
AcDbLine
 10
1184.475608812709
 20
313.6739725488838
 30
0.0
 11
1184.475608812709
 21
314.3225225488839
 31
0.0
  0
LINE
  5
EFCA
330
1F
100
AcDbEntity
  8
11000_Left
  6
Continuous
 62
     7
370
    50
100
AcDbLine
 10
1206.07278881271
 20
301.6739725488838
 30
0.0
 11
1236.675608812709
 21
293.4739725488837
 31
0.0
  0
LINE
  5
EFCB
330
1F
100
AcDbEntity
  8
11000_Left
  6
Continuous
 62
     7
370
    50
100
AcDbLine
 10
1236.675608812709
 20
372.8739725488838
 30
0.0
 11
1206.07278881271
 21
364.6739725488838
 31
0.0
  0
LINE
  5
EFCC
330
1F
100
AcDbEntity
  8
11000_Left
  6
Continuous
 62
     7
370
    50
100
AcDbLine
 10
1242.92560881271
 20
293.4739725488837
 30
0.0
 11
1236.675608812709
 21
293.4739725488837
 31
0.0
  0
LINE
  5
EFCD
330
1F
100
AcDbEntity
  8
11000_Left
  6
Continuous
 62
     7
370
    50
100
AcDbLine
 10
1236.675608812709
 20
372.8739725488838
 30
0.0
 11
1242.92560881271
 21
372.8739725488838
 31
0.0
  0
LINE
  5
EFCE
330
1F
100
AcDbEntity
  8
11000_Left
  6
Continuous
 62
     7
370
    13
100
AcDbLine
 10
1237.67560881271
 20
368.6739725488838
 30
0.0
 11
1240.17560881271
 21
368.6739725488838
 31
0.0
  0
LINE
  5
EFCF
330
1F
100
AcDbEntity
  8
11000_Left
  6
Continuous
 62
     7
370
    13
100
AcDbLine
 10
1240.17560881271
 20
368.6739725488838
 30
0.0
 11
1240.17560881271
 21
362.6739725488838
 31
0.0
  0
LINE
  5
EFD0
330
1F
100
AcDbEntity
  8
11000_Left
  6
Continuous
 62
     7
370
    50
100
AcDbLine
 10
1242.92560881271
 20
372.8739725488838
 30
0.0
 11
1242.92560881271
 21
371.6739725488838
 31
0.0
  0
LINE
  5
EFD3
330
1F
100
AcDbEntity
  8
11000_Left
  6
Continuous
 62
     7
370
    50
100
AcDbLine
 10
1242.92560881271
 20
294.6739725488838
 30
0.0
 11
1242.92560881271
 21
293.4739725488837
 31
0.0
  0
LINE
  5
EFD4
330
1F
100
AcDbEntity
  8
11000_Left
  6
Continuous
 62
     7
370
    13
100
AcDbLine
 10
1237.67560881271
 20
302.2739725488839
 30
0.0
 11
1237.67560881271
 21
308.2739725488839
 31
0.0
  0
LINE
  5
EFD5
330
1F
100
AcDbEntity
  8
11000_Left
  6
Continuous
 62
     7
370
    13
100
AcDbLine
 10
1237.67560881271
 20
362.6739725488838
 30
0.0
 11
1237.67560881271
 21
368.6739725488838
 31
0.0
  0
LINE
  5
EFD6
330
1F
100
AcDbEntity
  8
11000_Left
  6
Continuous
 62
     7
370
    50
100
AcDbLine
 10
1191.175608812709
 20
364.6739725488838
 30
0.0
 11
1206.07278881271
 21
364.6739725488838
 31
0.0
  0
LINE
  5
EFD7
330
1F
100
AcDbEntity
  8
11000_Left
  6
Continuous
 62
     7
370
    50
100
AcDbLine
 10
1206.07278881271
 20
301.6739725488838
 30
0.0
 11
1191.175608812709
 21
301.6739725488838
 31
0.0
  0
ARC
  5
EFD8
330
1F
100
AcDbEntity
  8
11000_Left
  6
Continuous
 62
     7
370
    50
100
AcDbCircle
 10
1190.975608812709
 20
285.9739725488838
 30
0.0
 40
0.2
100
AcDbArc
 50
270.0
 51
0.0
  0
ARC
  5
EFD9
330
1F
100
AcDbEntity
  8
11000_Left
  6
Continuous
 62
     7
370
    50
100
AcDbCircle
 10
1190.975608812709
 20
380.3739725488838
 30
0.0
 40
0.2
100
AcDbArc
 50
0.0
 51
90.0
  0
LINE
  5
EFEA
330
1F
100
AcDbEntity
  8
11000_Left
  6
Continuous
 62
     7
370
    13
100
AcDbLine
 10
1227.87560881271
 20
339.9739725488838
 30
0.0
 11
1225.47560881271
 21
339.9739725488838
 31
0.0
  0
LINE
  5
EFEB
330
1F
100
AcDbEntity
  8
11000_Left
  6
Continuous
 62
     7
370
    13
100
AcDbLine
 10
1225.47560881271
 20
318.9739725488838
 30
0.0
 11
1225.47560881271
 21
326.3739725488838
 31
0.0
  0
LINE
  5
EFEC
330
1F
100
AcDbEntity
  8
11000_Left
  6
Continuous
 62
     7
370
    13
100
AcDbLine
 10
1225.47560881271
 20
326.3739725488838
 30
0.0
 11
1227.87560881271
 21
326.3739725488838
 31
0.0
  0
LINE
  5
EFED
330
1F
100
AcDbEntity
  8
11000_Left
  6
Continuous
 62
     7
370
    13
100
AcDbLine
 10
1227.87560881271
 20
326.3739725488838
 30
0.0
 11
1227.87560881271
 21
318.9739725488838
 31
0.0
  0
LINE
  5
EFEE
330
1F
100
AcDbEntity
  8
11000_Left
  6
Continuous
 62
     7
370
    13
100
AcDbLine
 10
1227.87560881271
 20
318.9739725488838
 30
0.0
 11
1225.47560881271
 21
318.9739725488838
 31
0.0
  0
LINE
  5
EFF3
330
1F
100
AcDbEntity
  8
11000_Left
  6
Continuous
 62
     7
370
    13
100
AcDbLine
 10
1221.87560881271
 20
318.9739725488838
 30
0.0
 11
1221.87560881271
 21
326.3739725488838
 31
0.0
  0
LINE
  5
EFF4
330
1F
100
AcDbEntity
  8
11000_Left
  6
Continuous
 62
     7
370
    13
100
AcDbLine
 10
1221.87560881271
 20
326.3739725488838
 30
0.0
 11
1224.27560881271
 21
326.3739725488838
 31
0.0
  0
LINE
  5
EFF5
330
1F
100
AcDbEntity
  8
11000_Left
  6
Continuous
 62
     7
370
    13
100
AcDbLine
 10
1224.27560881271
 20
326.3739725488838
 30
0.0
 11
1224.27560881271
 21
318.9739725488838
 31
0.0
  0
LINE
  5
EFF6
330
1F
100
AcDbEntity
  8
11000_Left
  6
Continuous
 62
     7
370
    13
100
AcDbLine
 10
1224.27560881271
 20
318.9739725488838
 30
0.0
 11
1221.87560881271
 21
318.9739725488838
 31
0.0
  0
LINE
  5
EFFB
330
1F
100
AcDbEntity
  8
11000_Left
  6
Continuous
 62
     7
370
    13
100
AcDbLine
 10
1218.27560881271
 20
318.9739725488838
 30
0.0
 11
1218.27560881271
 21
326.3739725488838
 31
0.0
  0
LINE
  5
EFFC
330
1F
100
AcDbEntity
  8
11000_Left
  6
Continuous
 62
     7
370
    13
100
AcDbLine
 10
1218.27560881271
 20
326.3739725488838
 30
0.0
 11
1220.675608812709
 21
326.3739725488838
 31
0.0
  0
LINE
  5
EFFD
330
1F
100
AcDbEntity
  8
11000_Left
  6
Continuous
 62
     7
370
    13
100
AcDbLine
 10
1220.675608812709
 20
326.3739725488838
 30
0.0
 11
1220.675608812709
 21
318.9739725488838
 31
0.0
  0
LINE
  5
EFFE
330
1F
100
AcDbEntity
  8
11000_Left
  6
Continuous
 62
     7
370
    13
100
AcDbLine
 10
1220.675608812709
 20
318.9739725488838
 30
0.0
 11
1218.27560881271
 21
318.9739725488838
 31
0.0
  0
LINE
  5
F003
330
1F
100
AcDbEntity
  8
11000_Left
  6
Continuous
 62
     7
370
    13
100
AcDbLine
 10
1214.675608812709
 20
318.9739725488838
 30
0.0
 11
1214.675608812709
 21
326.3739725488838
 31
0.0
  0
LINE
  5
F004
330
1F
100
AcDbEntity
  8
11000_Left
  6
Continuous
 62
     7
370
    13
100
AcDbLine
 10
1214.675608812709
 20
326.3739725488838
 30
0.0
 11
1217.075608812709
 21
326.3739725488838
 31
0.0
  0
LINE
  5
F005
330
1F
100
AcDbEntity
  8
11000_Left
  6
Continuous
 62
     7
370
    13
100
AcDbLine
 10
1217.075608812709
 20
326.3739725488838
 30
0.0
 11
1217.075608812709
 21
318.9739725488838
 31
0.0
  0
LINE
  5
F006
330
1F
100
AcDbEntity
  8
11000_Left
  6
Continuous
 62
     7
370
    13
100
AcDbLine
 10
1217.075608812709
 20
318.9739725488838
 30
0.0
 11
1214.675608812709
 21
318.9739725488838
 31
0.0
  0
LINE
  5
F00A
330
1F
100
AcDbEntity
  8
11000_Left
  6
Continuous
 62
     7
370
    13
100
AcDbLine
 10
1213.475608812709
 20
349.9739725488837
 30
0.0
 11
1211.075608812709
 21
349.9739725488837
 31
0.0
  0
LINE
  5
F00B
330
1F
100
AcDbEntity
  8
11000_Left
  6
Continuous
 62
     7
370
    13
100
AcDbLine
 10
1211.075608812709
 20
308.9739725488838
 30
0.0
 11
1211.075608812709
 21
316.3739725488838
 31
0.0
  0
LINE
  5
F00C
330
1F
100
AcDbEntity
  8
11000_Left
  6
Continuous
 62
     7
370
    13
100
AcDbLine
 10
1211.075608812709
 20
316.3739725488838
 30
0.0
 11
1213.475608812709
 21
316.3739725488838
 31
0.0
  0
LINE
  5
F00D
330
1F
100
AcDbEntity
  8
11000_Left
  6
Continuous
 62
     7
370
    13
100
AcDbLine
 10
1213.475608812709
 20
316.3739725488838
 30
0.0
 11
1213.475608812709
 21
308.9739725488838
 31
0.0
  0
LINE
  5
F00E
330
1F
100
AcDbEntity
  8
11000_Left
  6
Continuous
 62
     7
370
    13
100
AcDbLine
 10
1213.475608812709
 20
308.9739725488838
 30
0.0
 11
1211.075608812709
 21
308.9739725488838
 31
0.0
  0
LINE
  5
F013
330
1F
100
AcDbEntity
  8
11000_Left
  6
Continuous
 62
     7
370
    13
100
AcDbLine
 10
1207.47560881271
 20
308.9739725488838
 30
0.0
 11
1207.47560881271
 21
316.3739725488838
 31
0.0
  0
LINE
  5
F014
330
1F
100
AcDbEntity
  8
11000_Left
  6
Continuous
 62
     7
370
    13
100
AcDbLine
 10
1207.47560881271
 20
316.3739725488838
 30
0.0
 11
1209.87560881271
 21
316.3739725488838
 31
0.0
  0
LINE
  5
F015
330
1F
100
AcDbEntity
  8
11000_Left
  6
Continuous
 62
     7
370
    13
100
AcDbLine
 10
1209.87560881271
 20
316.3739725488838
 30
0.0
 11
1209.87560881271
 21
308.9739725488838
 31
0.0
  0
LINE
  5
F016
330
1F
100
AcDbEntity
  8
11000_Left
  6
Continuous
 62
     7
370
    13
100
AcDbLine
 10
1209.87560881271
 20
308.9739725488838
 30
0.0
 11
1207.47560881271
 21
308.9739725488838
 31
0.0
  0
LINE
  5
F01B
330
1F
100
AcDbEntity
  8
11000_Left
  6
Continuous
 62
     7
370
    13
100
AcDbLine
 10
1203.87560881271
 20
308.9739725488838
 30
0.0
 11
1203.87560881271
 21
316.3739725488838
 31
0.0
  0
LINE
  5
F01C
330
1F
100
AcDbEntity
  8
11000_Left
  6
Continuous
 62
     7
370
    13
100
AcDbLine
 10
1203.87560881271
 20
316.3739725488838
 30
0.0
 11
1206.27560881271
 21
316.3739725488838
 31
0.0
  0
LINE
  5
F01D
330
1F
100
AcDbEntity
  8
11000_Left
  6
Continuous
 62
     7
370
    13
100
AcDbLine
 10
1206.27560881271
 20
316.3739725488838
 30
0.0
 11
1206.27560881271
 21
308.9739725488838
 31
0.0
  0
LINE
  5
F01E
330
1F
100
AcDbEntity
  8
11000_Left
  6
Continuous
 62
     7
370
    13
100
AcDbLine
 10
1206.27560881271
 20
308.9739725488838
 30
0.0
 11
1203.87560881271
 21
308.9739725488838
 31
0.0
  0
LINE
  5
F023
330
1F
100
AcDbEntity
  8
11000_Left
  6
Continuous
 62
     7
370
    13
100
AcDbLine
 10
1200.27560881271
 20
308.9739725488838
 30
0.0
 11
1200.27560881271
 21
316.3739725488838
 31
0.0
  0
LINE
  5
F024
330
1F
100
AcDbEntity
  8
11000_Left
  6
Continuous
 62
     7
370
    13
100
AcDbLine
 10
1200.27560881271
 20
316.3739725488838
 30
0.0
 11
1202.675608812709
 21
316.3739725488838
 31
0.0
  0
LINE
  5
F025
330
1F
100
AcDbEntity
  8
11000_Left
  6
Continuous
 62
     7
370
    13
100
AcDbLine
 10
1202.675608812709
 20
316.3739725488838
 30
0.0
 11
1202.675608812709
 21
308.9739725488838
 31
0.0
  0
LINE
  5
F026
330
1F
100
AcDbEntity
  8
11000_Left
  6
Continuous
 62
     7
370
    13
100
AcDbLine
 10
1202.675608812709
 20
308.9739725488838
 30
0.0
 11
1200.27560881271
 21
308.9739725488838
 31
0.0
  0
LINE
  5
FDF6
330
1F
100
AcDbEntity
  8
10000_FRONT
  6
Continuous
 62
     7
370
    13
100
AcDbLine
 10
1113.769684882931
 20
290.0739725488839
 30
0.0
 11
1117.169684882931
 21
290.0739725488839
 31
0.0
  0
LINE
  5
FDF7
330
1F
100
AcDbEntity
  8
10000_FRONT
  6
Continuous
 62
     7
370
    13
100
AcDbLine
 10
1113.769684882931
 20
286.7739725488839
 30
0.0
 11
1113.769684882931
 21
290.0739725488839
 31
0.0
  0
LINE
  5
FDF8
330
1F
100
AcDbEntity
  8
10000_FRONT
  6
Continuous
 62
     7
370
    13
100
AcDbLine
 10
1117.169684882931
 20
286.7739725488839
 30
0.0
 11
1113.769684882931
 21
286.7739725488839
 31
0.0
  0
LINE
  5
FDF9
330
1F
100
AcDbEntity
  8
10000_FRONT
  6
Continuous
 62
     7
370
    13
100
AcDbLine
 10
1117.169684882931
 20
290.0739725488839
 30
0.0
 11
1117.169684882931
 21
286.7739725488839
 31
0.0
  0
LINE
  5
FDFE
330
1F
100
AcDbEntity
  8
10000_FRONT
  6
Continuous
 62
     7
370
    13
100
AcDbLine
 10
1127.769684882931
 20
290.5739725488839
 30
0.0
 11
1132.769684882931
 21
290.5739725488839
 31
0.0
  0
LINE
  5
FDFF
330
1F
100
AcDbEntity
  8
10000_FRONT
  6
Continuous
 62
     7
370
    13
100
AcDbLine
 10
1127.769684882931
 20
288.5739725488839
 30
0.0
 11
1127.769684882931
 21
290.5739725488839
 31
0.0
  0
LINE
  5
FE00
330
1F
100
AcDbEntity
  8
10000_FRONT
  6
Continuous
 62
     7
370
    13
100
AcDbLine
 10
1132.769684882931
 20
288.5739725488839
 30
0.0
 11
1127.769684882931
 21
288.5739725488839
 31
0.0
  0
LINE
  5
FE01
330
1F
100
AcDbEntity
  8
10000_FRONT
  6
Continuous
 62
     7
370
    13
100
AcDbLine
 10
1132.769684882931
 20
290.5739725488839
 30
0.0
 11
1132.769684882931
 21
288.5739725488839
 31
0.0
  0
LINE
  5
FE02
330
1F
100
AcDbEntity
  8
10000_FRONT
  6
Continuous
 62
     7
370
    13
100
AcDbLine
 10
1128.769684882931
 20
378.7739725488839
 30
0.0
 11
1128.769684882931
 21
375.773972548884
 31
0.0
  0
LINE
  5
FE03
330
1F
100
AcDbEntity
  8
10000_FRONT
  6
Continuous
 62
     7
370
    13
100
AcDbLine
 10
1124.569684882931
 20
378.7739725488839
 30
0.0
 11
1128.769684882931
 21
378.7739725488839
 31
0.0
  0
LINE
  5
FE04
330
1F
100
AcDbEntity
  8
10000_FRONT
  6
Continuous
 62
     7
370
    13
100
AcDbLine
 10
1124.569684882931
 20
375.773972548884
 30
0.0
 11
1124.569684882931
 21
378.7739725488839
 31
0.0
  0
LINE
  5
FE05
330
1F
100
AcDbEntity
  8
10000_FRONT
  6
Continuous
 62
     7
370
    13
100
AcDbLine
 10
1128.769684882931
 20
375.773972548884
 30
0.0
 11
1124.569684882931
 21
375.773972548884
 31
0.0
  0
LINE
  5
FE06
330
1F
100
AcDbEntity
  8
10000_FRONT
  6
Continuous
 62
     7
370
    13
100
AcDbLine
 10
1117.169684882931
 20
376.2739725488839
 30
0.0
 11
1113.769684882931
 21
376.2739725488839
 31
0.0
  0
LINE
  5
FE07
330
1F
100
AcDbEntity
  8
10000_FRONT
  6
Continuous
 62
     7
370
    13
100
AcDbLine
 10
1117.169684882931
 20
379.5739725488839
 30
0.0
 11
1117.169684882931
 21
376.2739725488839
 31
0.0
  0
LINE
  5
FE08
330
1F
100
AcDbEntity
  8
10000_FRONT
  6
Continuous
 62
     7
370
    13
100
AcDbLine
 10
1113.769684882931
 20
379.5739725488839
 30
0.0
 11
1117.169684882931
 21
379.5739725488839
 31
0.0
  0
LINE
  5
FE09
330
1F
100
AcDbEntity
  8
10000_FRONT
  6
Continuous
 62
     7
370
    13
100
AcDbLine
 10
1113.769684882931
 20
376.2739725488839
 30
0.0
 11
1113.769684882931
 21
379.5739725488839
 31
0.0
  0
ARC
  5
FE0B
330
1F
100
AcDbEntity
  8
10000_FRONT
  6
Continuous
 62
     7
370
    13
100
AcDbCircle
 10
1132.969683882931
 20
375.1739725488838
 30
0.0
 40
2.399999999999999
100
AcDbArc
 50
7.180756000002133
 51
90.0
  0
ARC
  5
FE0C
330
1F
100
AcDbEntity
  8
10000_FRONT
  6
Continuous
 62
     7
370
    13
100
AcDbCircle
 10
1132.969683882931
 20
375.1739725488838
 30
0.0
 40
2.399999999999999
100
AcDbArc
 50
90.0
 51
172.8192400000024
  0
ARC
  5
FE0D
330
1F
100
AcDbEntity
  8
10000_FRONT
  6
Continuous
 62
     7
370
    13
100
AcDbCircle
 10
1097.969685882931
 20
289.6739725488838
 30
0.0
 40
2.399999999999999
100
AcDbArc
 50
288.2099570000006
 51
354.0208429999955
  0
LINE
  5
FE0E
330
1F
100
AcDbEntity
  8
10000_FRONT
  6
Continuous
 62
     7
370
    13
100
AcDbLine
 10
1101.569685882931
 20
289.4239725488838
 30
0.0
 11
1100.356628882931
 21
289.4239725488838
 31
0.0
  0
ARC
  5
FE0F
330
1F
100
AcDbEntity
  8
10000_FRONT
  6
Continuous
 62
     7
370
    13
100
AcDbCircle
 10
1101.569685882931
 20
289.7239725488837
 30
0.0
 40
0.3
100
AcDbArc
 50
270.0
 51
0.0
  0
LINE
  5
FE10
330
1F
100
AcDbEntity
  8
10000_FRONT
  6
Continuous
 62
     7
370
    13
100
AcDbLine
 10
1101.869685882931
 20
290.6239725488839
 30
0.0
 11
1101.869685882931
 21
289.7239725488837
 31
0.0
  0
ARC
  5
FE11
330
1F
100
AcDbEntity
  8
10000_FRONT
  6
Continuous
 62
     7
370
    13
100
AcDbCircle
 10
1101.569685882931
 20
290.6239725488839
 30
0.0
 40
0.3
100
AcDbArc
 50
0.0
 51
56.44269999999422
  0
ARC
  5
FE12
330
1F
100
AcDbEntity
  8
10000_FRONT
  6
Continuous
 62
     7
370
    13
100
AcDbCircle
 10
1096.269685882931
 20
290.1739725488838
 30
0.0
 40
2.2
100
AcDbArc
 50
219.2178900000079
 51
270.15326
  0
ARC
  5
FE13
330
1F
100
AcDbEntity
  8
10000_FRONT
  6
Continuous
 62
     7
370
    13
100
AcDbCircle
 10
1097.969685882931
 20
289.6739725488838
 30
0.0
 40
2.399999999999999
100
AcDbArc
 50
225.0992100000028
 51
251.7900400000017
  0
LINE
  5
FE14
330
1F
100
AcDbEntity
  8
10000_FRONT
  6
Continuous
 62
     7
370
    13
100
AcDbLine
 10
1097.219685882931
 20
286.6739725488838
 30
0.0
 11
1097.219685882931
 21
287.3941725488838
 31
0.0
  0
ARC
  5
FE15
330
1F
100
AcDbEntity
  8
10000_FRONT
  6
Continuous
 62
     7
370
    13
100
AcDbCircle
 10
1097.519685882931
 20
286.6739725488838
 30
0.0
 40
0.3
100
AcDbArc
 50
180.0
 51
270.0
  0
LINE
  5
FE16
330
1F
100
AcDbEntity
  8
10000_FRONT
  6
Continuous
 62
     7
370
    13
100
AcDbLine
 10
1098.419685882931
 20
286.3739725488839
 30
0.0
 11
1097.519685882931
 21
286.3739725488839
 31
0.0
  0
ARC
  5
FE17
330
1F
100
AcDbEntity
  8
10000_FRONT
  6
Continuous
 62
     7
370
    13
100
AcDbCircle
 10
1098.419685882931
 20
286.6739725488838
 30
0.0
 40
0.3
100
AcDbArc
 50
270.0
 51
0.0
  0
LINE
  5
FE18
330
1F
100
AcDbEntity
  8
10000_FRONT
  6
Continuous
 62
     7
370
    13
100
AcDbLine
 10
1098.719685882931
 20
287.3941725488838
 30
0.0
 11
1098.719685882931
 21
286.6739725488838
 31
0.0
  0
LINE
  5
FE19
330
1F
100
AcDbEntity
  8
10000_FRONT
  6
Continuous
 62
     7
370
    50
100
AcDbLine
 10
1093.869684882931
 20
380.5739725488839
 30
0.0
 11
1137.069684882931
 21
380.573972548884
 31
0.0
  0
LINE
  5
FE1B
330
1F
100
AcDbEntity
  8
10000_FRONT
  6
Continuous
 62
     7
370
    50
100
AcDbLine
 10
1137.069683882931
 20
285.7739725488839
 30
0.0
 11
1093.869683882931
 21
285.7739725488839
 31
0.0
  0
ARC
  5
FE20
102
{ACAD_REACTORS
330
14740
102
}
330
1F
100
AcDbEntity
  8
10000_FRONT
  6
Continuous
 62
     7
370
    50
100
AcDbCircle
 10
1093.869683882931
 20
286.5739725488839
 30
0.0
 40
0.8
100
AcDbArc
 50
180.0
 51
270.0
  0
ARC
  5
FE21
102
{ACAD_REACTORS
330
147D0
102
}
330
1F
100
AcDbEntity
  8
10000_FRONT
  6
Continuous
 62
     7
370
    50
100
AcDbCircle
 10
1137.069683882931
 20
286.5739725488839
 30
0.0
 40
0.8
100
AcDbArc
 50
270.0
 51
359.9999990000051
  0
ARC
  5
FE22
102
{ACAD_REACTORS
330
147D0
102
}
330
1F
100
AcDbEntity
  8
10000_FRONT
  6
Continuous
 62
     7
370
    50
100
AcDbCircle
 10
1137.069684882931
 20
379.7739725488839
 30
0.0
 40
0.8
100
AcDbArc
 50
359.9999990000051
 51
90.0
  0
ARC
  5
FE23
330
1F
100
AcDbEntity
  8
10000_FRONT
  6
Continuous
 62
     7
370
    50
100
AcDbCircle
 10
1093.869684882931
 20
379.7739725488839
 30
0.0
 40
0.8
100
AcDbArc
 50
90.0
 51
180.0
  0
LINE
  5
12BAB
330
1F
100
AcDbEntity
  8
10000_FRONT
  6
Continuous
 62
     7
370
    50
100
AcDbLine
 10
1137.869684882931
 20
379.7739725349214
 30
0.0
 11
1137.869684882931
 21
374.6739725488838
 31
0.0
  0
LINE
  5
12BAE
102
{ACAD_REACTORS
330
14740
102
}
330
1F
100
AcDbEntity
  8
10000_FRONT
  6
Continuous
 62
     7
370
    50
100
AcDbLine
 10
1137.869684882931
 20
291.6739725488838
 30
0.0
 11
1137.86968388293
 21
286.5739725349213
 31
0.0
  0
LINE
  5
12BAF
102
{ACAD_REACTORS
330
149F2
102
}
330
1F
100
AcDbEntity
  8
10000_FRONT
  6
Continuous
 62
     7
370
    50
100
AcDbLine
 10
1093.069683882931
 20
286.5739725488839
 30
0.0
 11
1093.069684882931
 21
291.6739725488838
 31
0.0
  0
LINE
  5
12BB2
330
1F
100
AcDbEntity
  8
10000_FRONT
  6
Continuous
 62
     7
370
    50
100
AcDbLine
 10
1093.069684882931
 20
374.6739725488838
 30
0.0
 11
1093.069684882931
 21
379.7739725488839
 31
0.0
  0
ARC
  5
12BB3
330
1F
100
AcDbEntity
  8
10000_FRONT
  6
Continuous
 62
     7
370
    13
100
AcDbCircle
 10
1107.956140882931
 20
286.0739725488839
 30
0.0
 40
0.2
100
AcDbArc
 50
184.0141799999934
 51
270.0
  0
ARC
  5
12BB4
330
1F
100
AcDbEntity
  8
10000_FRONT
  6
Continuous
 62
     7
370
    13
100
AcDbCircle
 10
1108.583226882931
 20
286.0739725488839
 30
0.0
 40
0.2
100
AcDbArc
 50
270.0
 51
355.9858240000021
  0
ARC
  5
12BB5
330
1F
100
AcDbEntity
  8
10000_FRONT
  6
Continuous
 62
     7
370
    13
100
AcDbCircle
 10
1122.356140882931
 20
286.0739725488839
 30
0.0
 40
0.2
100
AcDbArc
 50
184.0141799999934
 51
270.0
  0
ARC
  5
12BB6
330
1F
100
AcDbEntity
  8
10000_FRONT
  6
Continuous
 62
     7
370
    13
100
AcDbCircle
 10
1122.983226882931
 20
286.0739725488839
 30
0.0
 40
0.2
100
AcDbArc
 50
270.0
 51
355.9858240000021
  0
ARC
  5
12BB7
330
1F
100
AcDbEntity
  8
10000_FRONT
  6
Continuous
 62
     7
370
    13
100
AcDbCircle
 10
1094.183226882931
 20
286.0739725488839
 30
0.0
 40
0.2
100
AcDbArc
 50
270.0
 51
355.9858240000021
  0
ARC
  5
12BB8
330
1F
100
AcDbEntity
  8
10000_FRONT
  6
Continuous
 62
     7
370
    13
100
AcDbCircle
 10
1136.756140882931
 20
286.0739725488839
 30
0.0
 40
0.2
100
AcDbArc
 50
184.0141799999934
 51
270.0
  0
LINE
  5
12BBD
330
1F
100
AcDbEntity
  8
10000_FRONT
  6
Continuous
 62
     7
370
    13
100
AcDbLine
 10
1107.418806882931
 20
290.8739725488839
 30
0.0
 11
1107.51003488293
 21
289.5739725488839
 31
0.0
  0
LINE
  5
12BBE
330
1F
100
AcDbEntity
  8
10000_FRONT
  6
Continuous
 62
     7
370
    13
100
AcDbLine
 10
1107.51003488293
 20
289.5739725488839
 30
0.0
 11
1107.756630882931
 21
286.0599725488837
 31
0.0
  0
LINE
  5
12BBF
330
1F
100
AcDbEntity
  8
10000_FRONT
  6
Continuous
 62
     7
370
    13
100
AcDbLine
 10
1121.818806882931
 20
290.8739725488839
 30
0.0
 11
1121.910034882931
 21
289.5739725488839
 31
0.0
  0
LINE
  5
12BC0
330
1F
100
AcDbEntity
  8
10000_FRONT
  6
Continuous
 62
     7
370
    13
100
AcDbLine
 10
1121.910034882931
 20
289.5739725488839
 30
0.0
 11
1122.156630882931
 21
286.0599725488837
 31
0.0
  0
LINE
  5
12BC1
330
1F
100
AcDbEntity
  8
10000_FRONT
  6
Continuous
 62
     7
370
    13
100
AcDbLine
 10
1108.782735882931
 20
286.0599725488837
 30
0.0
 11
1109.029332882931
 21
289.5739725488839
 31
0.0
  0
LINE
  5
12BC2
330
1F
100
AcDbEntity
  8
10000_FRONT
  6
Continuous
 62
     7
370
    13
100
AcDbLine
 10
1109.029332882931
 20
289.5739725488839
 30
0.0
 11
1109.120560882931
 21
290.8739725488839
 31
0.0
  0
LINE
  5
12BC3
330
1F
100
AcDbEntity
  8
10000_FRONT
  6
Continuous
 62
     7
370
    13
100
AcDbLine
 10
1123.182735882931
 20
286.0599725488837
 30
0.0
 11
1123.429332882931
 21
289.5739725488839
 31
0.0
  0
LINE
  5
12BC4
330
1F
100
AcDbEntity
  8
10000_FRONT
  6
Continuous
 62
     7
370
    13
100
AcDbLine
 10
1123.429332882931
 20
289.5739725488839
 30
0.0
 11
1123.520560882931
 21
290.8739725488839
 31
0.0
  0
LINE
  5
12BC5
330
1F
100
AcDbEntity
  8
10000_FRONT
  6
Continuous
 62
     7
370
    13
100
AcDbLine
 10
1137.069683882931
 20
285.8739725488838
 30
0.0
 11
1136.756140882931
 21
285.8739725488838
 31
0.0
  0
LINE
  5
12BC6
330
1F
100
AcDbEntity
  8
10000_FRONT
  6
Continuous
 62
     7
370
    13
100
AcDbLine
 10
1094.183226882931
 20
285.8739725488838
 30
0.0
 11
1093.869683882931
 21
285.8739725488838
 31
0.0
  0
LINE
  5
12BC7
330
1F
100
AcDbEntity
  8
10000_FRONT
  6
Continuous
 62
     7
370
    13
100
AcDbLine
 10
1122.983226882931
 20
285.8739725488838
 30
0.0
 11
1122.356140882931
 21
285.8739725488838
 31
0.0
  0
LINE
  5
12BC8
330
1F
100
AcDbEntity
  8
10000_FRONT
  6
Continuous
 62
     7
370
    13
100
AcDbLine
 10
1108.583226882931
 20
285.8739725488838
 30
0.0
 11
1107.956140882931
 21
285.8739725488838
 31
0.0
  0
ARC
  5
12C0F
330
1F
100
AcDbEntity
  8
10000_FRONT
  6
Continuous
 62
     7
370
    13
100
AcDbCircle
 10
1093.869683882931
 20
286.6739725488838
 30
0.0
 40
0.8
100
AcDbArc
 50
228.5903799999954
 51
270.0
  0
ARC
  5
12C10
330
1F
100
AcDbEntity
  8
10000_FRONT
  6
Continuous
 62
     7
370
    13
100
AcDbCircle
 10
1093.869683882931
 20
286.6739725488838
 30
0.0
 40
0.8
100
AcDbArc
 50
221.4094500000034
 51
228.5903799999954
  0
ARC
  5
12C4E
330
1F
100
AcDbEntity
  8
10000_FRONT
  6
Continuous
 62
     7
370
    13
100
AcDbCircle
 10
1137.069683882931
 20
286.6739725488838
 30
0.0
 40
0.8
100
AcDbArc
 50
311.4096219999947
 51
318.5904570000056
  0
ARC
  5
12C4F
330
1F
100
AcDbEntity
  8
10000_FRONT
  6
Continuous
 62
     7
370
    13
100
AcDbCircle
 10
1137.069683882931
 20
286.6739725488838
 30
0.0
 40
0.8
100
AcDbArc
 50
270.0
 51
311.4096219999947
  0
LINE
  5
12C50
330
1F
100
AcDbEntity
  8
10000_FRONT
  6
Continuous
 62
     7
370
    13
100
AcDbLine
 10
1094.382735882931
 20
286.0599725488837
 30
0.0
 11
1094.699507882931
 21
290.5739725488839
 31
0.0
  0
LINE
  5
12C51
330
1F
100
AcDbEntity
  8
10000_FRONT
  6
Continuous
 62
     7
370
    13
100
AcDbLine
 10
1094.699507882931
 20
290.5739725488839
 30
0.0
 11
1094.720560882931
 21
290.8739725488839
 31
0.0
  0
LINE
  5
12C52
330
1F
100
AcDbEntity
  8
10000_FRONT
  6
Continuous
 62
     7
370
    13
100
AcDbLine
 10
1136.218806882931
 20
290.8739725488839
 30
0.0
 11
1136.23985888293
 21
290.5739725488839
 31
0.0
  0
LINE
  5
12C53
330
1F
100
AcDbEntity
  8
10000_FRONT
  6
Continuous
 62
     7
370
    13
100
AcDbLine
 10
1136.23985888293
 20
290.5739725488839
 30
0.0
 11
1136.556630882931
 21
286.0599725488837
 31
0.0
  0
ARC
  5
12C56
330
1F
100
AcDbEntity
  8
10000_FRONT
  6
Continuous
 62
     7
370
    13
100
AcDbCircle
 10
1122.983227882931
 20
380.2739725488839
 30
0.0
 40
0.2
100
AcDbArc
 50
4.014175999997865
 51
90.0
  0
ARC
  5
12C57
330
1F
100
AcDbEntity
  8
10000_FRONT
  6
Continuous
 62
     7
370
    13
100
AcDbCircle
 10
1122.356141882931
 20
380.2739725488839
 30
0.0
 40
0.2
100
AcDbArc
 50
90.0
 51
175.9858199999932
  0
ARC
  5
12C58
330
1F
100
AcDbEntity
  8
10000_FRONT
  6
Continuous
 62
     7
370
    13
100
AcDbCircle
 10
1108.583227882931
 20
380.2739725488839
 30
0.0
 40
0.2
100
AcDbArc
 50
4.014175999997865
 51
90.0
  0
ARC
  5
12C59
330
1F
100
AcDbEntity
  8
10000_FRONT
  6
Continuous
 62
     7
370
    13
100
AcDbCircle
 10
1107.956141882931
 20
380.2739725488839
 30
0.0
 40
0.2
100
AcDbArc
 50
90.0
 51
175.9858199999932
  0
ARC
  5
12C5A
330
1F
100
AcDbEntity
  8
10000_FRONT
  6
Continuous
 62
     7
370
    13
100
AcDbCircle
 10
1136.756141882931
 20
380.2739725488839
 30
0.0
 40
0.2
100
AcDbArc
 50
90.0
 51
175.9858199999932
  0
ARC
  5
12C5B
330
1F
100
AcDbEntity
  8
10000_FRONT
  6
Continuous
 62
     7
370
    13
100
AcDbCircle
 10
1094.183227882931
 20
380.2739725488839
 30
0.0
 40
0.2
100
AcDbArc
 50
4.014175999997865
 51
90.0
  0
LINE
  5
12C60
330
1F
100
AcDbEntity
  8
10000_FRONT
  6
Continuous
 62
     7
370
    13
100
AcDbLine
 10
1123.520561882931
 20
375.4739725488838
 30
0.0
 11
1123.429333882931
 21
376.7739725488839
 31
0.0
  0
LINE
  5
12C61
330
1F
100
AcDbEntity
  8
10000_FRONT
  6
Continuous
 62
     7
370
    13
100
AcDbLine
 10
1123.429333882931
 20
376.7739725488839
 30
0.0
 11
1123.182736882931
 21
380.2879725488838
 31
0.0
  0
LINE
  5
12C62
330
1F
100
AcDbEntity
  8
10000_FRONT
  6
Continuous
 62
     7
370
    13
100
AcDbLine
 10
1109.120561882931
 20
375.4739725488838
 30
0.0
 11
1109.029333882931
 21
376.7739725488839
 31
0.0
  0
LINE
  5
12C63
330
1F
100
AcDbEntity
  8
10000_FRONT
  6
Continuous
 62
     7
370
    13
100
AcDbLine
 10
1109.029333882931
 20
376.7739725488839
 30
0.0
 11
1108.782736882931
 21
380.2879725488838
 31
0.0
  0
LINE
  5
12C64
330
1F
100
AcDbEntity
  8
10000_FRONT
  6
Continuous
 62
     7
370
    13
100
AcDbLine
 10
1122.156631882931
 20
380.2879725488838
 30
0.0
 11
1121.910035882931
 21
376.7739725488839
 31
0.0
  0
LINE
  5
12C65
330
1F
100
AcDbEntity
  8
10000_FRONT
  6
Continuous
 62
     7
370
    13
100
AcDbLine
 10
1121.910035882931
 20
376.7739725488839
 30
0.0
 11
1121.818807882931
 21
375.4739725488838
 31
0.0
  0
LINE
  5
12C66
330
1F
100
AcDbEntity
  8
10000_FRONT
  6
Continuous
 62
     7
370
    13
100
AcDbLine
 10
1107.756631882931
 20
380.2879725488838
 30
0.0
 11
1107.510035882931
 21
376.7739725488839
 31
0.0
  0
LINE
  5
12C67
330
1F
100
AcDbEntity
  8
10000_FRONT
  6
Continuous
 62
     7
370
    13
100
AcDbLine
 10
1107.510035882931
 20
376.7739725488839
 30
0.0
 11
1107.418807882931
 21
375.4739725488838
 31
0.0
  0
LINE
  5
12C68
330
1F
100
AcDbEntity
  8
10000_FRONT
  6
Continuous
 62
     7
370
    13
100
AcDbLine
 10
1093.869683882931
 20
380.4739725488838
 30
0.0
 11
1094.183227882931
 21
380.4739725488838
 31
0.0
  0
LINE
  5
12C69
330
1F
100
AcDbEntity
  8
10000_FRONT
  6
Continuous
 62
     7
370
    13
100
AcDbLine
 10
1136.756141882931
 20
380.4739725488838
 30
0.0
 11
1137.069683882931
 21
380.4739725488838
 31
0.0
  0
LINE
  5
12C6A
330
1F
100
AcDbEntity
  8
10000_FRONT
  6
Continuous
 62
     7
370
    13
100
AcDbLine
 10
1107.956141882931
 20
380.4739725488838
 30
0.0
 11
1108.583227882931
 21
380.4739725488838
 31
0.0
  0
LINE
  5
12C6B
330
1F
100
AcDbEntity
  8
10000_FRONT
  6
Continuous
 62
     7
370
    13
100
AcDbLine
 10
1122.356141882931
 20
380.4739725488838
 30
0.0
 11
1122.983227882931
 21
380.4739725488838
 31
0.0
  0
ARC
  5
12CB0
330
1F
100
AcDbEntity
  8
10000_FRONT
  6
Continuous
 62
     7
370
    13
100
AcDbCircle
 10
1137.069683882931
 20
379.6739725488838
 30
0.0
 40
0.8
100
AcDbArc
 50
48.59037999999537
 51
90.0
  0
ARC
  5
12CB1
330
1F
100
AcDbEntity
  8
10000_FRONT
  6
Continuous
 62
     7
370
    13
100
AcDbCircle
 10
1137.069683882931
 20
379.6739725488838
 30
0.0
 40
0.8
100
AcDbArc
 50
41.4094500000034
 51
48.59037999999537
  0
ARC
  5
12CEF
330
1F
100
AcDbEntity
  8
10000_FRONT
  6
Continuous
 62
     7
370
    13
100
AcDbCircle
 10
1093.869683882931
 20
379.6739725488838
 30
0.0
 40
0.8
100
AcDbArc
 50
131.4096200000046
 51
138.5904600000013
  0
ARC
  5
12CF0
330
1F
100
AcDbEntity
  8
10000_FRONT
  6
Continuous
 62
     7
370
    13
100
AcDbCircle
 10
1093.869683882931
 20
379.6739725488838
 30
0.0
 40
0.8
100
AcDbArc
 50
90.0
 51
131.4096200000046
  0
LINE
  5
12CF1
330
1F
100
AcDbEntity
  8
10000_FRONT
  6
Continuous
 62
     7
370
    13
100
AcDbLine
 10
1136.556631882931
 20
380.2879725488838
 30
0.0
 11
1136.239859882931
 21
375.773972548884
 31
0.0
  0
LINE
  5
12CF2
330
1F
100
AcDbEntity
  8
10000_FRONT
  6
Continuous
 62
     7
370
    13
100
AcDbLine
 10
1136.239859882931
 20
375.773972548884
 30
0.0
 11
1136.218807882931
 21
375.4739725488838
 31
0.0
  0
LINE
  5
12CF3
330
1F
100
AcDbEntity
  8
10000_FRONT
  6
Continuous
 62
     7
370
    13
100
AcDbLine
 10
1094.720561882931
 20
375.4739725488838
 30
0.0
 11
1094.699508882931
 21
375.773972548884
 31
0.0
  0
LINE
  5
12CF4
330
1F
100
AcDbEntity
  8
10000_FRONT
  6
Continuous
 62
     7
370
    13
100
AcDbLine
 10
1094.699508882931
 20
375.773972548884
 30
0.0
 11
1094.382736882931
 21
380.2879725488838
 31
0.0
  0
LINE
  5
1321F
330
1F
100
AcDbEntity
  8
10000_FRONT
  6
Continuous
 62
     7
370
    13
100
AcDbLine
 10
1104.369684882931
 20
373.3739725488839
 30
0.0
 11
1104.369684882931
 21
375.4739725488838
 31
0.0
  0
LINE
  5
13220
330
1F
100
AcDbEntity
  8
10000_FRONT
  6
Continuous
 62
     7
370
    13
100
AcDbLine
 10
1109.269684882931
 20
375.4739725488838
 30
0.0
 11
1109.269684882931
 21
373.3739725488839
 31
0.0
  0
LINE
  5
13221
330
1F
100
AcDbEntity
  8
10000_FRONT
  6
Continuous
 62
     7
370
    13
100
AcDbLine
 10
1126.569684882931
 20
373.3739725488839
 30
0.0
 11
1126.569684882931
 21
375.4739725488838
 31
0.0
  0
LINE
  5
13222
330
1F
100
AcDbEntity
  8
10000_FRONT
  6
Continuous
 62
     7
370
    13
100
AcDbLine
 10
1121.669684882931
 20
375.4739725488838
 30
0.0
 11
1121.669684882931
 21
373.3739725488839
 31
0.0
  0
LINE
  5
13223
330
1F
100
AcDbEntity
  8
10000_FRONT
  6
Continuous
 62
     7
370
    13
100
AcDbLine
 10
1104.369684882931
 20
292.9739725488838
 30
0.0
 11
1104.369684882931
 21
290.8739725488839
 31
0.0
  0
LINE
  5
13224
330
1F
100
AcDbEntity
  8
10000_FRONT
  6
Continuous
 62
     7
370
    13
100
AcDbLine
 10
1109.269684882931
 20
290.8739725488839
 30
0.0
 11
1109.269684882931
 21
292.9739725488838
 31
0.0
  0
LINE
  5
13225
330
1F
100
AcDbEntity
  8
10000_FRONT
  6
Continuous
 62
     7
370
    13
100
AcDbLine
 10
1126.569684882931
 20
292.9739725488838
 30
0.0
 11
1126.569684882931
 21
290.8739725488839
 31
0.0
  0
LINE
  5
13226
330
1F
100
AcDbEntity
  8
10000_FRONT
  6
Continuous
 62
     7
370
    13
100
AcDbLine
 10
1121.669684882931
 20
290.8739725488839
 30
0.0
 11
1121.669684882931
 21
292.9739725488838
 31
0.0
  0
LINE
  5
13227
330
1F
100
AcDbEntity
  8
10000_FRONT
  6
Continuous
 62
     7
370
    13
100
AcDbLine
 10
1121.469684882931
 20
375.4739725488838
 30
0.0
 11
1126.769684882931
 21
375.4739725488838
 31
0.0
  0
LINE
  5
13228
330
1F
100
AcDbEntity
  8
10000_FRONT
  6
Continuous
 62
     7
370
    13
100
AcDbLine
 10
1126.769684882931
 20
375.4739725488838
 30
0.0
 11
1137.069684882931
 21
375.4739725488838
 31
0.0
  0
LINE
  5
13229
330
1F
100
AcDbEntity
  8
10000_FRONT
  6
Continuous
 62
     7
370
    13
100
AcDbLine
 10
1093.869684882931
 20
375.4739725488838
 30
0.0
 11
1104.169684882931
 21
375.4739725488838
 31
0.0
  0
LINE
  5
1322A
330
1F
100
AcDbEntity
  8
10000_FRONT
  6
Continuous
 62
     7
370
    13
100
AcDbLine
 10
1104.169684882931
 20
375.4739725488838
 30
0.0
 11
1109.469684882931
 21
375.4739725488838
 31
0.0
  0
LINE
  5
1322B
330
1F
100
AcDbEntity
  8
10000_FRONT
  6
Continuous
 62
     7
370
    13
100
AcDbLine
 10
1109.469684882931
 20
375.4739725488838
 30
0.0
 11
1121.469684882931
 21
375.4739725488838
 31
0.0
  0
LINE
  5
1322C
330
1F
100
AcDbEntity
  8
10000_FRONT
  6
Continuous
 62
     7
370
    13
100
AcDbLine
 10
1109.469684882931
 20
290.8739725488839
 30
0.0
 11
1104.169684882931
 21
290.8739725488839
 31
0.0
  0
LINE
  5
1322D
330
1F
100
AcDbEntity
  8
10000_FRONT
  6
Continuous
 62
     7
370
    13
100
AcDbLine
 10
1104.169684882931
 20
290.8739725488839
 30
0.0
 11
1093.869684882931
 21
290.8739725488839
 31
0.0
  0
LINE
  5
1322E
330
1F
100
AcDbEntity
  8
10000_FRONT
  6
Continuous
 62
     7
370
    13
100
AcDbLine
 10
1137.069684882931
 20
290.8739725488839
 30
0.0
 11
1126.769684882931
 21
290.8739725488839
 31
0.0
  0
LINE
  5
1322F
330
1F
100
AcDbEntity
  8
10000_FRONT
  6
Continuous
 62
     7
370
    13
100
AcDbLine
 10
1126.769684882931
 20
290.8739725488839
 30
0.0
 11
1121.469684882931
 21
290.8739725488839
 31
0.0
  0
LINE
  5
13230
330
1F
100
AcDbEntity
  8
10000_FRONT
  6
Continuous
 62
     7
370
    13
100
AcDbLine
 10
1121.469684882931
 20
290.8739725488839
 30
0.0
 11
1109.469684882931
 21
290.8739725488839
 31
0.0
  0
LINE
  5
13231
330
1F
100
AcDbEntity
  8
10000_FRONT
  6
Continuous
 62
     7
370
    13
100
AcDbLine
 10
1109.270676882931
 20
373.3739725488839
 30
0.0
 11
1104.368694882931
 21
373.3739725488839
 31
0.0
  0
LINE
  5
13232
330
1F
100
AcDbEntity
  8
10000_FRONT
  6
Continuous
 62
     7
370
    13
100
AcDbLine
 10
1121.668694882931
 20
373.3739725488839
 30
0.0
 11
1126.570676882931
 21
373.3739725488839
 31
0.0
  0
LINE
  5
13233
330
1F
100
AcDbEntity
  8
10000_FRONT
  6
Continuous
 62
     7
370
    13
100
AcDbLine
 10
1109.270674882931
 20
292.9739725488838
 30
0.0
 11
1104.368691882931
 21
292.9739725488838
 31
0.0
  0
LINE
  5
13234
330
1F
100
AcDbEntity
  8
10000_FRONT
  6
Continuous
 62
     7
370
    13
100
AcDbLine
 10
1121.668691882931
 20
292.9739725488838
 30
0.0
 11
1126.570674882931
 21
292.9739725488838
 31
0.0
  0
LINE
  5
13239
330
1F
100
AcDbEntity
  8
10000_FRONT
  6
Continuous
 62
     7
370
    50
100
AcDbLine
 10
1093.069684882931
 20
291.6739725488838
 30
0.0
 11
1093.069684882931
 21
305.9739725488837
 31
0.0
  0
LINE
  5
1323A
330
1F
100
AcDbEntity
  8
10000_FRONT
  6
Continuous
 62
     7
370
    50
100
AcDbLine
 10
1093.069684882931
 20
305.9739725488837
 30
0.0
 11
1093.069684882931
 21
360.3739725488838
 31
0.0
  0
LINE
  5
1323B
330
1F
100
AcDbEntity
  8
10000_FRONT
  6
Continuous
 62
     7
370
    50
100
AcDbLine
 10
1093.069684882931
 20
360.3739725488838
 30
0.0
 11
1093.069684882931
 21
374.6739725488838
 31
0.0
  0
LINE
  5
1323C
330
1F
100
AcDbEntity
  8
10000_FRONT
  6
Continuous
 62
     7
370
    50
100
AcDbLine
 10
1137.869684882931
 20
305.9739725488837
 30
0.0
 11
1137.869684882931
 21
291.6739725488838
 31
0.0
  0
LINE
  5
1323D
330
1F
100
AcDbEntity
  8
10000_FRONT
  6
Continuous
 62
     7
370
    50
100
AcDbLine
 10
1137.869684882931
 20
374.6739725488838
 30
0.0
 11
1137.869684882931
 21
360.3739725488838
 31
0.0
  0
LINE
  5
1323E
330
1F
100
AcDbEntity
  8
10000_FRONT
  6
Continuous
 62
     7
370
    50
100
AcDbLine
 10
1137.869684882931
 20
360.3739725488838
 30
0.0
 11
1137.869684882931
 21
305.9739725488837
 31
0.0
  0
ARC
  5
1333F
330
1F
100
AcDbEntity
  8
10000_FRONT
  6
Continuous
 62
     7
370
    13
100
AcDbCircle
 10
1093.869684882931
 20
374.6739725488838
 30
0.0
 40
0.8
100
AcDbArc
 50
90.0
 51
180.0
  0
ARC
  5
13340
330
1F
100
AcDbEntity
  8
10000_FRONT
  6
Continuous
 62
     7
370
    13
100
AcDbCircle
 10
1137.069684882931
 20
374.6739725488838
 30
0.0
 40
0.8
100
AcDbArc
 50
0.0
 51
90.0
  0
ARC
  5
13341
330
1F
100
AcDbEntity
  8
10000_FRONT
  6
Continuous
 62
     7
370
    13
100
AcDbCircle
 10
1137.069684882931
 20
291.6739725488838
 30
0.0
 40
0.8
100
AcDbArc
 50
270.0000001270056
 51
0.0
  0
ARC
  5
13342
330
1F
100
AcDbEntity
  8
10000_FRONT
  6
Continuous
 62
     7
370
    13
100
AcDbCircle
 10
1093.869684882931
 20
291.6739725488838
 30
0.0
 40
0.8
100
AcDbArc
 50
180.0
 51
270.0
  0
LINE
  5
141AF
330
1F
100
AcDbEntity
  8
10000_FRONT
  6
Continuous
 62
     7
370
    13
100
AcDbLine
 10
1125.482184882931
 20
342.1239725488839
 30
0.0
 11
1105.482184882931
 21
342.1239725488839
 31
0.0
  0
LINE
  5
141B0
330
1F
100
AcDbEntity
  8
10000_FRONT
  6
Continuous
 62
     7
370
    13
100
AcDbLine
 10
1105.482184882931
 20
349.1239725488838
 30
0.0
 11
1125.482184882931
 21
349.1239725488838
 31
0.0
  0
LINE
  5
141B1
330
1F
100
AcDbEntity
  8
10000_FRONT
  6
Continuous
 62
     7
370
    13
100
AcDbLine
 10
1125.482184882931
 20
349.1239725488838
 30
0.0
 11
1125.482184882931
 21
342.1239725488839
 31
0.0
  0
LINE
  5
141B2
330
1F
100
AcDbEntity
  8
10000_FRONT
  6
Continuous
 62
     7
370
    13
100
AcDbLine
 10
1105.482184882931
 20
342.1239725488839
 30
0.0
 11
1105.482184882931
 21
349.1239725488838
 31
0.0
  0
POLYLINE
  5
143E6
330
1F
100
AcDbEntity
  8
10000_FRONT
  6
Continuous
 62
     7
370
    13
100
AcDb2dPolyline
 66
     1
 10
0.0
 20
0.0
 30
0.0
 70
     2
  0
VERTEX
  5
143E7
330
143E6
100
AcDbEntity
  8
10000_FRONT
  6
Continuous
 62
     7
370
    13
100
AcDbVertex
100
AcDb2dVertex
 10
1105.582185882931
 20
349.0239825488837
 30
0.0
  0
VERTEX
  5
143E8
330
143E6
100
AcDbEntity
  8
10000_FRONT
  6
Continuous
 62
     7
370
    13
100
AcDbVertex
100
AcDb2dVertex
 10
1105.581275882931
 20
349.0248925488839
 30
0.0
 42
-0.0000248428
 70
     1
  0
VERTEX
  5
143E9
330
143E6
100
AcDbEntity
  8
10000_FRONT
  6
Continuous
 62
     7
370
    13
100
AcDbVertex
100
AcDb2dVertex
 10
1105.580366882931
 20
349.0258025488838
 30
0.0
 42
-0.0000255271
  0
VERTEX
  5
143EA
330
143E6
100
AcDbEntity
  8
10000_FRONT
  6
Continuous
 62
     7
370
    13
100
AcDbVertex
100
AcDb2dVertex
 10
1105.579457882931
 20
349.0267125488838
 30
0.0
 42
-0.000024851
 70
     1
  0
VERTEX
  5
143EB
330
143E6
100
AcDbEntity
  8
10000_FRONT
  6
Continuous
 62
     7
370
    13
100
AcDbVertex
100
AcDb2dVertex
 10
1105.578548882931
 20
349.0276125488839
 30
0.0
 42
-0.0000226444
  0
VERTEX
  5
143EC
330
143E6
100
AcDbEntity
  8
10000_FRONT
  6
Continuous
 62
     7
370
    13
100
AcDbVertex
100
AcDb2dVertex
 10
1105.577639882931
 20
349.0285225488838
 30
0.0
 42
-0.0000210127
 70
     1
  0
VERTEX
  5
143ED
330
143E6
100
AcDbEntity
  8
10000_FRONT
  6
Continuous
 62
     7
370
    13
100
AcDbVertex
100
AcDb2dVertex
 10
1105.576730882931
 20
349.0294325488838
 30
0.0
 42
-0.0000195401
  0
VERTEX
  5
143EE
330
143E6
100
AcDbEntity
  8
10000_FRONT
  6
Continuous
 62
     7
370
    13
100
AcDbVertex
100
AcDb2dVertex
 10
1105.575820882931
 20
349.0303425488838
 30
0.0
 42
-0.0000181522
 70
     1
  0
VERTEX
  5
143EF
330
143E6
100
AcDbEntity
  8
10000_FRONT
  6
Continuous
 62
     7
370
    13
100
AcDbVertex
100
AcDb2dVertex
 10
1105.574911882931
 20
349.0312525488838
 30
0.0
 42
-0.0000164954
  0
VERTEX
  5
143F0
330
143E6
100
AcDbEntity
  8
10000_FRONT
  6
Continuous
 62
     7
370
    13
100
AcDbVertex
100
AcDb2dVertex
 10
1105.574002882931
 20
349.032162548884
 30
0.0
 42
-0.000015047
 70
     1
  0
VERTEX
  5
143F1
330
143E6
100
AcDbEntity
  8
10000_FRONT
  6
Continuous
 62
     7
370
    13
100
AcDbVertex
100
AcDb2dVertex
 10
1105.573093882931
 20
349.0330725488837
 30
0.0
 42
-0.0000134378
  0
VERTEX
  5
143F2
330
143E6
100
AcDbEntity
  8
10000_FRONT
  6
Continuous
 62
     7
370
    13
100
AcDbVertex
100
AcDb2dVertex
 10
1105.572184882931
 20
349.0339725488837
 30
0.0
 42
-0.0000120064
 70
     1
  0
VERTEX
  5
143F3
330
143E6
100
AcDbEntity
  8
10000_FRONT
  6
Continuous
 62
     7
370
    13
100
AcDbVertex
100
AcDb2dVertex
 10
1105.571275882931
 20
349.0348825488839
 30
0.0
 42
-0.0000103882
  0
VERTEX
  5
143F4
330
143E6
100
AcDbEntity
  8
10000_FRONT
  6
Continuous
 62
     7
370
    13
100
AcDbVertex
100
AcDb2dVertex
 10
1105.570366882931
 20
349.0357925488839
 30
0.0
 42
-0.0000089509
 70
     1
  0
VERTEX
  5
143F5
330
143E6
100
AcDbEntity
  8
10000_FRONT
  6
Continuous
 62
     7
370
    13
100
AcDbVertex
100
AcDb2dVertex
 10
1105.569457882931
 20
349.0367025488839
 30
0.0
 42
-0.0000073276
  0
VERTEX
  5
143F6
330
143E6
100
AcDbEntity
  8
10000_FRONT
  6
Continuous
 62
     7
370
    13
100
AcDbVertex
100
AcDb2dVertex
 10
1105.56854888293
 20
349.0376125488838
 30
0.0
 42
-0.000005903
 70
     1
  0
VERTEX
  5
143F7
330
143E6
100
AcDbEntity
  8
10000_FRONT
  6
Continuous
 62
     7
370
    13
100
AcDbVertex
100
AcDb2dVertex
 10
1105.567638882931
 20
349.0385225488838
 30
0.0
 42
-0.0000043139
  0
VERTEX
  5
143F8
330
143E6
100
AcDbEntity
  8
10000_FRONT
  6
Continuous
 62
     7
370
    13
100
AcDbVertex
100
AcDb2dVertex
 10
1105.566729882931
 20
349.0394325488838
 30
0.0
 42
-0.0000028446
 70
     1
  0
VERTEX
  5
143F9
330
143E6
100
AcDbEntity
  8
10000_FRONT
  6
Continuous
 62
     7
370
    13
100
AcDbVertex
100
AcDb2dVertex
 10
1105.565820882931
 20
349.0403425488838
 30
0.0
 42
-0.00000112
  0
VERTEX
  5
143FA
330
143E6
100
AcDbEntity
  8
10000_FRONT
  6
Continuous
 62
     7
370
    13
100
AcDbVertex
100
AcDb2dVertex
 10
1105.564911882931
 20
349.041252548884
 30
0.0
 42
-0.0000002516
 70
     1
  0
VERTEX
  5
143FB
330
143E6
100
AcDbEntity
  8
10000_FRONT
  6
Continuous
 62
     7
370
    13
100
AcDbVertex
100
AcDb2dVertex
 10
1105.564002882931
 20
349.0421625488837
 30
0.0
 42
-0.0000000177
  0
VERTEX
  5
143FC
330
143E6
100
AcDbEntity
  8
10000_FRONT
  6
Continuous
 62
     7
370
    13
100
AcDbVertex
100
AcDb2dVertex
 10
1105.563093882931
 20
349.0430625488837
 30
0.0
 42
0.0000000608
 70
     1
  0
VERTEX
  5
143FD
330
143E6
100
AcDbEntity
  8
10000_FRONT
  6
Continuous
 62
     7
370
    13
100
AcDbVertex
100
AcDb2dVertex
 10
1105.562184882931
 20
349.0439725488839
 30
0.0
  0
VERTEX
  5
143FE
330
143E6
100
AcDbEntity
  8
10000_FRONT
  6
Continuous
 62
     7
370
    13
100
AcDbVertex
100
AcDb2dVertex
 10
1105.561275882931
 20
349.0448825488839
 30
0.0
 70
     1
  0
VERTEX
  5
143FF
330
143E6
100
AcDbEntity
  8
10000_FRONT
  6
Continuous
 62
     7
370
    13
100
AcDbVertex
100
AcDb2dVertex
 10
1105.560366882931
 20
349.0457925488839
 30
0.0
  0
VERTEX
  5
14400
330
143E6
100
AcDbEntity
  8
10000_FRONT
  6
Continuous
 62
     7
370
    13
100
AcDbVertex
100
AcDb2dVertex
 10
1105.559457882931
 20
349.0467025488838
 30
0.0
 70
     1
  0
VERTEX
  5
14401
330
143E6
100
AcDbEntity
  8
10000_FRONT
  6
Continuous
 62
     7
370
    13
100
AcDbVertex
100
AcDb2dVertex
 10
1105.558548882931
 20
349.0476125488838
 30
0.0
  0
VERTEX
  5
14402
330
143E6
100
AcDbEntity
  8
10000_FRONT
  6
Continuous
 62
     7
370
    13
100
AcDbVertex
100
AcDb2dVertex
 10
1105.557638882931
 20
349.0485225488838
 30
0.0
 70
     1
  0
VERTEX
  5
14403
330
143E6
100
AcDbEntity
  8
10000_FRONT
  6
Continuous
 62
     7
370
    13
100
AcDbVertex
100
AcDb2dVertex
 10
1105.556729882931
 20
349.0494325488838
 30
0.0
  0
VERTEX
  5
14404
330
143E6
100
AcDbEntity
  8
10000_FRONT
  6
Continuous
 62
     7
370
    13
100
AcDbVertex
100
AcDb2dVertex
 10
1105.555820882931
 20
349.0503425488837
 30
0.0
 70
     1
  0
VERTEX
  5
14405
330
143E6
100
AcDbEntity
  8
10000_FRONT
  6
Continuous
 62
     7
370
    13
100
AcDbVertex
100
AcDb2dVertex
 10
1105.554911882931
 20
349.0512525488837
 30
0.0
  0
VERTEX
  5
14406
330
143E6
100
AcDbEntity
  8
10000_FRONT
  6
Continuous
 62
     7
370
    13
100
AcDbVertex
100
AcDb2dVertex
 10
1105.554002882931
 20
349.0521625488839
 30
0.0
 70
     1
  0
VERTEX
  5
14407
330
143E6
100
AcDbEntity
  8
10000_FRONT
  6
Continuous
 62
     7
370
    13
100
AcDbVertex
100
AcDb2dVertex
 10
1105.553093882931
 20
349.0530625488839
 30
0.0
  0
VERTEX
  5
14408
330
143E6
100
AcDbEntity
  8
10000_FRONT
  6
Continuous
 62
     7
370
    13
100
AcDbVertex
100
AcDb2dVertex
 10
1105.552184882931
 20
349.0539725488839
 30
0.0
 70
     1
  0
VERTEX
  5
14409
330
143E6
100
AcDbEntity
  8
10000_FRONT
  6
Continuous
 62
     7
370
    13
100
AcDbVertex
100
AcDb2dVertex
 10
1105.551275882931
 20
349.0548825488839
 30
0.0
  0
VERTEX
  5
1440A
330
143E6
100
AcDbEntity
  8
10000_FRONT
  6
Continuous
 62
     7
370
    13
100
AcDbVertex
100
AcDb2dVertex
 10
1105.550366882931
 20
349.0557925488839
 30
0.0
 70
     1
  0
VERTEX
  5
1440B
330
143E6
100
AcDbEntity
  8
10000_FRONT
  6
Continuous
 62
     7
370
    13
100
AcDbVertex
100
AcDb2dVertex
 10
1105.549457882931
 20
349.0567025488839
 30
0.0
  0
VERTEX
  5
1440C
330
143E6
100
AcDbEntity
  8
10000_FRONT
  6
Continuous
 62
     7
370
    13
100
AcDbVertex
100
AcDb2dVertex
 10
1105.548548882931
 20
349.0576125488838
 30
0.0
 70
     1
  0
VERTEX
  5
1440D
330
143E6
100
AcDbEntity
  8
10000_FRONT
  6
Continuous
 62
     7
370
    13
100
AcDbVertex
100
AcDb2dVertex
 10
1105.547638882931
 20
349.0585225488838
 30
0.0
  0
VERTEX
  5
1440E
330
143E6
100
AcDbEntity
  8
10000_FRONT
  6
Continuous
 62
     7
370
    13
100
AcDbVertex
100
AcDb2dVertex
 10
1105.546729882931
 20
349.0594325488838
 30
0.0
 70
     1
  0
VERTEX
  5
1440F
330
143E6
100
AcDbEntity
  8
10000_FRONT
  6
Continuous
 62
     7
370
    13
100
AcDbVertex
100
AcDb2dVertex
 10
1105.545820882931
 20
349.0603425488838
 30
0.0
  0
VERTEX
  5
14410
330
143E6
100
AcDbEntity
  8
10000_FRONT
  6
Continuous
 62
     7
370
    13
100
AcDbVertex
100
AcDb2dVertex
 10
1105.544911882931
 20
349.061252548884
 30
0.0
 70
     1
  0
VERTEX
  5
14411
330
143E6
100
AcDbEntity
  8
10000_FRONT
  6
Continuous
 62
     7
370
    13
100
AcDbVertex
100
AcDb2dVertex
 10
1105.544002882931
 20
349.0621625488837
 30
0.0
  0
VERTEX
  5
14412
330
143E6
100
AcDbEntity
  8
10000_FRONT
  6
Continuous
 62
     7
370
    13
100
AcDbVertex
100
AcDb2dVertex
 10
1105.543093882931
 20
349.0630625488837
 30
0.0
 70
     1
  0
VERTEX
  5
14413
330
143E6
100
AcDbEntity
  8
10000_FRONT
  6
Continuous
 62
     7
370
    13
100
AcDbVertex
100
AcDb2dVertex
 10
1105.542184882931
 20
349.0639725488839
 30
0.0
  0
VERTEX
  5
14414
330
143E6
100
AcDbEntity
  8
10000_FRONT
  6
Continuous
 62
     7
370
    13
100
AcDbVertex
100
AcDb2dVertex
 10
1105.541275882931
 20
349.0648825488839
 30
0.0
 70
     1
  0
VERTEX
  5
14415
330
143E6
100
AcDbEntity
  8
10000_FRONT
  6
Continuous
 62
     7
370
    13
100
AcDbVertex
100
AcDb2dVertex
 10
1105.540366882931
 20
349.0657925488839
 30
0.0
  0
VERTEX
  5
14416
330
143E6
100
AcDbEntity
  8
10000_FRONT
  6
Continuous
 62
     7
370
    13
100
AcDbVertex
100
AcDb2dVertex
 10
1105.539457882931
 20
349.0667025488838
 30
0.0
 70
     1
  0
VERTEX
  5
14417
330
143E6
100
AcDbEntity
  8
10000_FRONT
  6
Continuous
 62
     7
370
    13
100
AcDbVertex
100
AcDb2dVertex
 10
1105.538548882931
 20
349.0676125488838
 30
0.0
  0
VERTEX
  5
14418
330
143E6
100
AcDbEntity
  8
10000_FRONT
  6
Continuous
 62
     7
370
    13
100
AcDbVertex
100
AcDb2dVertex
 10
1105.537638882931
 20
349.0685225488838
 30
0.0
 70
     1
  0
VERTEX
  5
14419
330
143E6
100
AcDbEntity
  8
10000_FRONT
  6
Continuous
 62
     7
370
    13
100
AcDbVertex
100
AcDb2dVertex
 10
1105.536729882931
 20
349.0694325488838
 30
0.0
  0
VERTEX
  5
1441A
330
143E6
100
AcDbEntity
  8
10000_FRONT
  6
Continuous
 62
     7
370
    13
100
AcDbVertex
100
AcDb2dVertex
 10
1105.535820882931
 20
349.070342548884
 30
0.0
 70
     1
  0
VERTEX
  5
1441B
330
143E6
100
AcDbEntity
  8
10000_FRONT
  6
Continuous
 62
     7
370
    13
100
AcDbVertex
100
AcDb2dVertex
 10
1105.534911882931
 20
349.0712525488837
 30
0.0
  0
VERTEX
  5
1441C
330
143E6
100
AcDbEntity
  8
10000_FRONT
  6
Continuous
 62
     7
370
    13
100
AcDbVertex
100
AcDb2dVertex
 10
1105.534002882931
 20
349.0721625488839
 30
0.0
 70
     1
  0
VERTEX
  5
1441D
330
143E6
100
AcDbEntity
  8
10000_FRONT
  6
Continuous
 62
     7
370
    13
100
AcDbVertex
100
AcDb2dVertex
 10
1105.533093882931
 20
349.0730625488839
 30
0.0
  0
VERTEX
  5
1441E
330
143E6
100
AcDbEntity
  8
10000_FRONT
  6
Continuous
 62
     7
370
    13
100
AcDbVertex
100
AcDb2dVertex
 10
1105.532184882931
 20
349.0739725488839
 30
0.0
 70
     1
  0
VERTEX
  5
1441F
330
143E6
100
AcDbEntity
  8
10000_FRONT
  6
Continuous
 62
     7
370
    13
100
AcDbVertex
100
AcDb2dVertex
 10
1105.531275882931
 20
349.0748825488839
 30
0.0
  0
VERTEX
  5
14420
330
143E6
100
AcDbEntity
  8
10000_FRONT
  6
Continuous
 62
     7
370
    13
100
AcDbVertex
100
AcDb2dVertex
 10
1105.530366882931
 20
349.0757925488838
 30
0.0
 70
     1
  0
VERTEX
  5
14421
330
143E6
100
AcDbEntity
  8
10000_FRONT
  6
Continuous
 62
     7
370
    13
100
AcDbVertex
100
AcDb2dVertex
 10
1105.529457882931
 20
349.0767025488838
 30
0.0
  0
VERTEX
  5
14422
330
143E6
100
AcDbEntity
  8
10000_FRONT
  6
Continuous
 62
     7
370
    13
100
AcDbVertex
100
AcDb2dVertex
 10
1105.528548882931
 20
349.0776125488838
 30
0.0
 70
     1
  0
VERTEX
  5
14423
330
143E6
100
AcDbEntity
  8
10000_FRONT
  6
Continuous
 62
     7
370
    13
100
AcDbVertex
100
AcDb2dVertex
 10
1105.527638882931
 20
349.0785225488838
 30
0.0
  0
VERTEX
  5
14424
330
143E6
100
AcDbEntity
  8
10000_FRONT
  6
Continuous
 62
     7
370
    13
100
AcDbVertex
100
AcDb2dVertex
 10
1105.526729882931
 20
349.0794325488837
 30
0.0
 70
     1
  0
VERTEX
  5
14425
330
143E6
100
AcDbEntity
  8
10000_FRONT
  6
Continuous
 62
     7
370
    13
100
AcDbVertex
100
AcDb2dVertex
 10
1105.525820882931
 20
349.0803425488837
 30
0.0
  0
VERTEX
  5
14426
330
143E6
100
AcDbEntity
  8
10000_FRONT
  6
Continuous
 62
     7
370
    13
100
AcDbVertex
100
AcDb2dVertex
 10
1105.524911882931
 20
349.0812525488839
 30
0.0
 70
     1
  0
VERTEX
  5
14427
330
143E6
100
AcDbEntity
  8
10000_FRONT
  6
Continuous
 62
     7
370
    13
100
AcDbVertex
100
AcDb2dVertex
 10
1105.524002882931
 20
349.0821625488839
 30
0.0
  0
VERTEX
  5
14428
330
143E6
100
AcDbEntity
  8
10000_FRONT
  6
Continuous
 62
     7
370
    13
100
AcDbVertex
100
AcDb2dVertex
 10
1105.523093882931
 20
349.0830625488839
 30
0.0
 70
     1
  0
VERTEX
  5
14429
330
143E6
100
AcDbEntity
  8
10000_FRONT
  6
Continuous
 62
     7
370
    13
100
AcDbVertex
100
AcDb2dVertex
 10
1105.522184882931
 20
349.0839725488839
 30
0.0
  0
VERTEX
  5
1442A
330
143E6
100
AcDbEntity
  8
10000_FRONT
  6
Continuous
 62
     7
370
    13
100
AcDbVertex
100
AcDb2dVertex
 10
1105.521275882931
 20
349.0848825488839
 30
0.0
 70
     1
  0
VERTEX
  5
1442B
330
143E6
100
AcDbEntity
  8
10000_FRONT
  6
Continuous
 62
     7
370
    13
100
AcDbVertex
100
AcDb2dVertex
 10
1105.520366882931
 20
349.0857925488838
 30
0.0
  0
VERTEX
  5
1442C
330
143E6
100
AcDbEntity
  8
10000_FRONT
  6
Continuous
 62
     7
370
    13
100
AcDbVertex
100
AcDb2dVertex
 10
1105.519457882931
 20
349.0867025488838
 30
0.0
 70
     1
  0
VERTEX
  5
1442D
330
143E6
100
AcDbEntity
  8
10000_FRONT
  6
Continuous
 62
     7
370
    13
100
AcDbVertex
100
AcDb2dVertex
 10
1105.518548882931
 20
349.0876125488838
 30
0.0
  0
VERTEX
  5
1442E
330
143E6
100
AcDbEntity
  8
10000_FRONT
  6
Continuous
 62
     7
370
    13
100
AcDbVertex
100
AcDb2dVertex
 10
1105.517638882931
 20
349.0885225488838
 30
0.0
 70
     1
  0
VERTEX
  5
1442F
330
143E6
100
AcDbEntity
  8
10000_FRONT
  6
Continuous
 62
     7
370
    13
100
AcDbVertex
100
AcDb2dVertex
 10
1105.516729882931
 20
349.0894325488838
 30
0.0
  0
VERTEX
  5
14430
330
143E6
100
AcDbEntity
  8
10000_FRONT
  6
Continuous
 62
     7
370
    13
100
AcDbVertex
100
AcDb2dVertex
 10
1105.515820882931
 20
349.090342548884
 30
0.0
 70
     1
  0
VERTEX
  5
14431
330
143E6
100
AcDbEntity
  8
10000_FRONT
  6
Continuous
 62
     7
370
    13
100
AcDbVertex
100
AcDb2dVertex
 10
1105.514911882931
 20
349.0912525488837
 30
0.0
  0
VERTEX
  5
14432
330
143E6
100
AcDbEntity
  8
10000_FRONT
  6
Continuous
 62
     7
370
    13
100
AcDbVertex
100
AcDb2dVertex
 10
1105.514002882931
 20
349.0921625488839
 30
0.0
 70
     1
  0
VERTEX
  5
14433
330
143E6
100
AcDbEntity
  8
10000_FRONT
  6
Continuous
 62
     7
370
    13
100
AcDbVertex
100
AcDb2dVertex
 10
1105.513093882931
 20
349.0930625488839
 30
0.0
  0
VERTEX
  5
14434
330
143E6
100
AcDbEntity
  8
10000_FRONT
  6
Continuous
 62
     7
370
    13
100
AcDbVertex
100
AcDb2dVertex
 10
1105.512184882931
 20
349.0939725488839
 30
0.0
 70
     1
  0
VERTEX
  5
14435
330
143E6
100
AcDbEntity
  8
10000_FRONT
  6
Continuous
 62
     7
370
    13
100
AcDbVertex
100
AcDb2dVertex
 10
1105.511275882931
 20
349.0948825488839
 30
0.0
  0
VERTEX
  5
14436
330
143E6
100
AcDbEntity
  8
10000_FRONT
  6
Continuous
 62
     7
370
    13
100
AcDbVertex
100
AcDb2dVertex
 10
1105.510366882931
 20
349.0957925488838
 30
0.0
 70
     1
  0
VERTEX
  5
14437
330
143E6
100
AcDbEntity
  8
10000_FRONT
  6
Continuous
 62
     7
370
    13
100
AcDbVertex
100
AcDb2dVertex
 10
1105.509457882931
 20
349.0967025488838
 30
0.0
  0
VERTEX
  5
14438
330
143E6
100
AcDbEntity
  8
10000_FRONT
  6
Continuous
 62
     7
370
    13
100
AcDbVertex
100
AcDb2dVertex
 10
1105.508548882931
 20
349.0976125488838
 30
0.0
 70
     1
  0
VERTEX
  5
14439
330
143E6
100
AcDbEntity
  8
10000_FRONT
  6
Continuous
 62
     7
370
    13
100
AcDbVertex
100
AcDb2dVertex
 10
1105.507638882931
 20
349.0985225488838
 30
0.0
  0
VERTEX
  5
1443A
330
143E6
100
AcDbEntity
  8
10000_FRONT
  6
Continuous
 62
     7
370
    13
100
AcDbVertex
100
AcDb2dVertex
 10
1105.506729882931
 20
349.099432548884
 30
0.0
 70
     1
  0
VERTEX
  5
1443B
330
143E6
100
AcDbEntity
  8
10000_FRONT
  6
Continuous
 62
     7
370
    13
100
AcDbVertex
100
AcDb2dVertex
 10
1105.505820882931
 20
349.1003425488837
 30
0.0
  0
VERTEX
  5
1443C
330
143E6
100
AcDbEntity
  8
10000_FRONT
  6
Continuous
 62
     7
370
    13
100
AcDbVertex
100
AcDb2dVertex
 10
1105.504911882931
 20
349.1012525488839
 30
0.0
 70
     1
  0
VERTEX
  5
1443D
330
143E6
100
AcDbEntity
  8
10000_FRONT
  6
Continuous
 62
     7
370
    13
100
AcDbVertex
100
AcDb2dVertex
 10
1105.504002882931
 20
349.1021625488839
 30
0.0
  0
VERTEX
  5
1443E
330
143E6
100
AcDbEntity
  8
10000_FRONT
  6
Continuous
 62
     7
370
    13
100
AcDbVertex
100
AcDb2dVertex
 10
1105.503093882931
 20
349.1030625488839
 30
0.0
 70
     1
  0
VERTEX
  5
1443F
330
143E6
100
AcDbEntity
  8
10000_FRONT
  6
Continuous
 62
     7
370
    13
100
AcDbVertex
100
AcDb2dVertex
 10
1105.502184882931
 20
349.1039725488839
 30
0.0
  0
VERTEX
  5
14440
330
143E6
100
AcDbEntity
  8
10000_FRONT
  6
Continuous
 62
     7
370
    13
100
AcDbVertex
100
AcDb2dVertex
 10
1105.501275882931
 20
349.1048825488838
 30
0.0
 70
     1
  0
VERTEX
  5
14441
330
143E6
100
AcDbEntity
  8
10000_FRONT
  6
Continuous
 62
     7
370
    13
100
AcDbVertex
100
AcDb2dVertex
 10
1105.500366882931
 20
349.1057925488838
 30
0.0
  0
VERTEX
  5
14442
330
143E6
100
AcDbEntity
  8
10000_FRONT
  6
Continuous
 62
     7
370
    13
100
AcDbVertex
100
AcDb2dVertex
 10
1105.499457882931
 20
349.1067025488838
 30
0.0
 70
     1
  0
VERTEX
  5
14443
330
143E6
100
AcDbEntity
  8
10000_FRONT
  6
Continuous
 62
     7
370
    13
100
AcDbVertex
100
AcDb2dVertex
 10
1105.498548882931
 20
349.1076125488838
 30
0.0
 42
0.0000000234
  0
VERTEX
  5
14444
330
143E6
100
AcDbEntity
  8
10000_FRONT
  6
Continuous
 62
     7
370
    13
100
AcDbVertex
100
AcDb2dVertex
 10
1105.497638882931
 20
349.1085225488837
 30
0.0
 70
     1
  0
VERTEX
  5
14445
330
143E6
100
AcDbEntity
  8
10000_FRONT
  6
Continuous
 62
     7
370
    13
100
AcDbVertex
100
AcDb2dVertex
 10
1105.496729882931
 20
349.1094325488837
 30
0.0
 42
-0.0000000923
  0
VERTEX
  5
14446
330
143E6
100
AcDbEntity
  8
10000_FRONT
  6
Continuous
 62
     7
370
    13
100
AcDbVertex
100
AcDb2dVertex
 10
1105.495820882931
 20
349.1103425488839
 30
0.0
 70
     1
  0
VERTEX
  5
14447
330
143E6
100
AcDbEntity
  8
10000_FRONT
  6
Continuous
 62
     7
370
    13
100
AcDbVertex
100
AcDb2dVertex
 10
1105.494911882931
 20
349.1112525488839
 30
0.0
 42
0.0000003647
  0
VERTEX
  5
14448
330
143E6
100
AcDbEntity
  8
10000_FRONT
  6
Continuous
 62
     7
370
    13
100
AcDbVertex
100
AcDb2dVertex
 10
1105.494003882931
 20
349.1121525488839
 30
0.0
 42
-0.00000125
 70
     1
  0
VERTEX
  5
14449
330
143E6
100
AcDbEntity
  8
10000_FRONT
  6
Continuous
 62
     7
370
    13
100
AcDbVertex
100
AcDb2dVertex
 10
1105.493093882931
 20
349.1130625488839
 30
0.0
 42
-0.0000052236
  0
VERTEX
  5
1444A
330
143E6
100
AcDbEntity
  8
10000_FRONT
  6
Continuous
 62
     7
370
    13
100
AcDbVertex
100
AcDb2dVertex
 10
1105.49218288293
 20
349.1139825488838
 30
0.0
 42
-0.0000077639
 70
     1
  0
VERTEX
  5
1444B
330
143E6
100
AcDbEntity
  8
10000_FRONT
  6
Continuous
 62
     7
370
    13
100
AcDbVertex
100
AcDb2dVertex
 10
1105.491275882931
 20
349.1148825488838
 30
0.0
 42
-0.0000096902
  0
VERTEX
  5
1444C
330
143E6
100
AcDbEntity
  8
10000_FRONT
  6
Continuous
 62
     7
370
    13
100
AcDbVertex
100
AcDb2dVertex
 10
1105.490373882931
 20
349.1157825488838
 30
0.0
 42
-0.000015899
 70
     1
  0
VERTEX
  5
1444D
330
143E6
100
AcDbEntity
  8
10000_FRONT
  6
Continuous
 62
     7
370
    13
100
AcDbVertex
100
AcDb2dVertex
 10
1105.489457882931
 20
349.1167025488838
 30
0.0
 42
-0.0000264801
  0
VERTEX
  5
1444E
330
143E6
100
AcDbEntity
  8
10000_FRONT
  6
Continuous
 62
     7
370
    13
100
AcDbVertex
100
AcDb2dVertex
 10
1105.488519882931
 20
349.1176425488837
 30
0.0
 42
-0.0000202967
 70
     1
  0
VERTEX
  5
1444F
330
143E6
100
AcDbEntity
  8
10000_FRONT
  6
Continuous
 62
     7
370
    13
100
AcDbVertex
100
AcDb2dVertex
 10
1105.48763988293
 20
349.1185225488838
 30
0.0
 42
-0.0000008874
  0
VERTEX
  5
14450
330
143E6
100
AcDbEntity
  8
10000_FRONT
  6
Continuous
 62
     7
370
    13
100
AcDbVertex
100
AcDb2dVertex
 10
1105.486843882931
 20
349.1193225488838
 30
0.0
 42
-0.0000403393
 70
     1
  0
VERTEX
  5
14451
330
143E6
100
AcDbEntity
  8
10000_FRONT
  6
Continuous
 62
     7
370
    13
100
AcDbVertex
100
AcDb2dVertex
 10
1105.485821882931
 20
349.1203425488837
 30
0.0
 42
-0.000085163
  0
VERTEX
  5
14452
330
143E6
100
AcDbEntity
  8
10000_FRONT
  6
Continuous
 62
     7
370
    13
100
AcDbVertex
100
AcDb2dVertex
 10
1105.484247882931
 20
349.1219225488838
 30
0.0
 42
-0.0000426011
 70
     1
  0
VERTEX
  5
14453
330
143E6
100
AcDbEntity
  8
10000_FRONT
  6
Continuous
 62
     7
370
    13
100
AcDbVertex
100
AcDb2dVertex
 10
1105.48218688293
 20
349.1239825488838
 30
0.0
 42
-0.0000217312
  0
SEQEND
  5
14454
330
143E6
100
AcDbEntity
  8
10000_FRONT
  6
Continuous
 62
     7
370
    13
  0
CIRCLE
  5
145A5
330
1F
100
AcDbEntity
  8
10000_FRONT
  6
Continuous
 62
     7
370
    13
100
AcDbCircle
 10
1115.469684882931
 20
309.4239725488838
 30
0.0
 40
4.5
  0
CIRCLE
  5
145A6
330
1F
100
AcDbEntity
  8
10000_FRONT
  6
Continuous
 62
     7
370
    13
100
AcDbCircle
 10
1115.469684882931
 20
356.9239725488838
 30
0.0
 40
4.5
  0
ARC
  5
145F9
330
1F
100
AcDbEntity
  8
10000_FRONT
  6
Continuous
 62
     7
370
    13
100
AcDbCircle
 10
1114.719684882931
 20
310.7230125488839
 30
0.0
 40
0.3
100
AcDbArc
 50
273.1064365000044
 51
326.8935629999964
  0
LINE
  5
145FA
330
1F
100
AcDbEntity
  8
10000_FRONT
  6
Continuous
 62
     7
370
    13
100
AcDbLine
 10
1113.977372882931
 20
310.3822825488838
 30
0.0
 11
1114.735941882931
 21
310.4234525488838
 31
0.0
  0
LINE
  5
145FB
330
1F
100
AcDbEntity
  8
10000_FRONT
  6
Continuous
 62
     7
370
    13
100
AcDbLine
 10
1114.237238882931
 20
309.5596725488838
 30
0.0
 11
1113.893606882931
 21
310.2372025488838
 31
0.0
  0
ARC
  5
145FC
330
1F
100
AcDbEntity
  8
10000_FRONT
  6
Continuous
 62
     7
370
    13
100
AcDbCircle
 10
1113.969684882931
 20
309.4239725488838
 30
0.0
 40
0.3
100
AcDbArc
 50
333.1064369999999
 51
26.89355999999937
  0
LINE
  5
145FD
330
1F
100
AcDbEntity
  8
10000_FRONT
  6
Continuous
 62
     7
370
    13
100
AcDbLine
 10
1113.893606882931
 20
308.6107525488838
 30
0.0
 11
1114.237238882931
 21
309.2882725488838
 31
0.0
  0
LINE
  5
145FE
330
1F
100
AcDbEntity
  8
10000_FRONT
  6
Continuous
 62
     7
370
    13
100
AcDbLine
 10
1114.735941882931
 20
308.4244925488838
 30
0.0
 11
1113.977372882931
 21
308.4656625488838
 31
0.0
  0
ARC
  5
145FF
330
1F
100
AcDbEntity
  8
10000_FRONT
  6
Continuous
 62
     7
370
    13
100
AcDbCircle
 10
1114.719684882931
 20
308.1249425488839
 30
0.0
 40
0.3
100
AcDbArc
 50
33.10644000000966
 51
86.89356000000341
  0
LINE
  5
14600
330
1F
100
AcDbEntity
  8
10000_FRONT
  6
Continuous
 62
     7
370
    13
100
AcDbLine
 10
1115.385918882931
 20
307.6524425488838
 30
0.0
 11
1114.97098188293
 21
308.2887925488838
 31
0.0
  0
LINE
  5
14601
330
1F
100
AcDbEntity
  8
10000_FRONT
  6
Continuous
 62
     7
370
    13
100
AcDbLine
 10
1115.968386882931
 20
308.2887925488838
 30
0.0
 11
1115.553449882931
 21
307.6524425488838
 31
0.0
  0
ARC
  5
14602
330
1F
100
AcDbEntity
  8
10000_FRONT
  6
Continuous
 62
     7
370
    13
100
AcDbCircle
 10
1116.219684882931
 20
308.1249425488839
 30
0.0
 40
0.3
100
AcDbArc
 50
93.1064399999966
 51
146.8935599999903
  0
LINE
  5
14603
330
1F
100
AcDbEntity
  8
10000_FRONT
  6
Continuous
 62
     7
370
    13
100
AcDbLine
 10
1116.961995882931
 20
308.4656625488838
 30
0.0
 11
1116.203426882931
 21
308.4244925488838
 31
0.0
  0
LINE
  5
14604
330
1F
100
AcDbEntity
  8
10000_FRONT
  6
Continuous
 62
     7
370
    13
100
AcDbLine
 10
1116.702129882931
 20
309.2882725488838
 30
0.0
 11
1117.045761882931
 21
308.6107525488838
 31
0.0
  0
ARC
  5
14605
330
1F
100
AcDbEntity
  8
10000_FRONT
  6
Continuous
 62
     7
370
    13
100
AcDbCircle
 10
1116.969684882931
 20
309.4239725488838
 30
0.0
 40
0.3
100
AcDbArc
 50
153.1064400000006
 51
206.8935599999994
  0
LINE
  5
14606
330
1F
100
AcDbEntity
  8
10000_FRONT
  6
Continuous
 62
     7
370
    13
100
AcDbLine
 10
1117.045761882931
 20
310.2372025488838
 30
0.0
 11
1116.702129882931
 21
309.5596725488838
 31
0.0
  0
LINE
  5
14607
330
1F
100
AcDbEntity
  8
10000_FRONT
  6
Continuous
 62
     7
370
    13
100
AcDbLine
 10
1116.203426882931
 20
310.4234525488838
 30
0.0
 11
1116.961995882931
 21
310.3822825488838
 31
0.0
  0
ARC
  5
14608
330
1F
100
AcDbEntity
  8
10000_FRONT
  6
Continuous
 62
     7
370
    13
100
AcDbCircle
 10
1116.219684882931
 20
310.7230125488839
 30
0.0
 40
0.3
100
AcDbArc
 50
213.1064400000096
 51
266.8935600000034
  0
LINE
  5
14609
330
1F
100
AcDbEntity
  8
10000_FRONT
  6
Continuous
 62
     7
370
    13
100
AcDbLine
 10
1115.553449882931
 20
311.1955125488838
 30
0.0
 11
1115.968386882931
 21
310.5591525488838
 31
0.0
  0
LINE
  5
1460A
330
1F
100
AcDbEntity
  8
10000_FRONT
  6
Continuous
 62
     7
370
    13
100
AcDbLine
 10
1114.97098188293
 20
310.5591525488838
 30
0.0
 11
1115.385918882931
 21
311.1955125488838
 31
0.0
  0
ARC
  5
1460B
330
1F
100
AcDbEntity
  8
10000_FRONT
  6
Continuous
 62
     7
370
    13
100
AcDbCircle
 10
1113.982791882931
 20
310.2824325488839
 30
0.0
 40
0.1
100
AcDbArc
 50
93.1064399999966
 51
206.8935599999994
  0
ARC
  5
1460C
330
1F
100
AcDbEntity
  8
10000_FRONT
  6
Continuous
 62
     7
370
    13
100
AcDbCircle
 10
1113.982791882931
 20
308.5655225488839
 30
0.0
 40
0.1
100
AcDbArc
 50
153.1064400000006
 51
266.8935600000034
  0
ARC
  5
1460D
330
1F
100
AcDbEntity
  8
10000_FRONT
  6
Continuous
 62
     7
370
    13
100
AcDbCircle
 10
1115.469684882931
 20
307.7070625488839
 30
0.0
 40
0.1
100
AcDbArc
 50
213.1064400000096
 51
326.8935599999903
  0
ARC
  5
1460E
330
1F
100
AcDbEntity
  8
10000_FRONT
  6
Continuous
 62
     7
370
    13
100
AcDbCircle
 10
1116.956576882931
 20
308.5655225488839
 30
0.0
 40
0.1
100
AcDbArc
 50
330.0011760000003
 51
26.89355999999937
  0
ARC
  5
1460F
330
1F
100
AcDbEntity
  8
10000_FRONT
  6
Continuous
 62
     7
370
    13
100
AcDbCircle
 10
1116.956576882931
 20
308.5655225488839
 30
0.0
 40
0.1
100
AcDbArc
 50
273.1064365000044
 51
329.9999600000058
  0
ARC
  5
14610
330
1F
100
AcDbEntity
  8
10000_FRONT
  6
Continuous
 62
     7
370
    13
100
AcDbCircle
 10
1116.956576882931
 20
310.2824325488839
 30
0.0
 40
0.1
100
AcDbArc
 50
333.1064369999999
 51
86.89356000000341
  0
ARC
  5
14611
330
1F
100
AcDbEntity
  8
10000_FRONT
  6
Continuous
 62
     7
370
    13
100
AcDbCircle
 10
1115.469684882931
 20
311.1408925488839
 30
0.0
 40
0.1
100
AcDbArc
 50
33.10644000000966
 51
146.8935599999903
  0
CIRCLE
  5
14613
330
1F
100
AcDbEntity
  8
10000_FRONT
  6
Continuous
 62
     7
370
    13
100
AcDbCircle
 10
1115.469684882931
 20
309.4239725488838
 30
0.0
 40
3.705409099999999
  0
CIRCLE
  5
14614
330
1F
100
AcDbEntity
  8
10000_FRONT
  6
Continuous
 62
     7
370
    13
100
AcDbCircle
 10
1115.469684882931
 20
309.4239725488838
 30
0.0
 40
1.975
  0
ARC
  5
14617
330
1F
100
AcDbEntity
  8
10000_FRONT
  6
Continuous
 62
     7
370
    13
100
AcDbCircle
 10
1114.719684882931
 20
358.2230125488839
 30
0.0
 40
0.3
100
AcDbArc
 50
273.1064365000044
 51
326.8935629999964
  0
LINE
  5
14618
330
1F
100
AcDbEntity
  8
10000_FRONT
  6
Continuous
 62
     7
370
    13
100
AcDbLine
 10
1113.977372882931
 20
357.8822825488838
 30
0.0
 11
1114.735941882931
 21
357.9234525488837
 31
0.0
  0
LINE
  5
14619
330
1F
100
AcDbEntity
  8
10000_FRONT
  6
Continuous
 62
     7
370
    13
100
AcDbLine
 10
1114.237238882931
 20
357.0596725488838
 30
0.0
 11
1113.893606882931
 21
357.7372025488838
 31
0.0
  0
ARC
  5
1461A
330
1F
100
AcDbEntity
  8
10000_FRONT
  6
Continuous
 62
     7
370
    13
100
AcDbCircle
 10
1113.969684882931
 20
356.9239725488838
 30
0.0
 40
0.3
100
AcDbArc
 50
333.1064369999999
 51
26.89355999999937
  0
LINE
  5
1461B
330
1F
100
AcDbEntity
  8
10000_FRONT
  6
Continuous
 62
     7
370
    13
100
AcDbLine
 10
1113.893606882931
 20
356.1107525488838
 30
0.0
 11
1114.237238882931
 21
356.7882725488837
 31
0.0
  0
LINE
  5
1461C
330
1F
100
AcDbEntity
  8
10000_FRONT
  6
Continuous
 62
     7
370
    13
100
AcDbLine
 10
1114.735941882931
 20
355.9244925488838
 30
0.0
 11
1113.977372882931
 21
355.9656625488838
 31
0.0
  0
ARC
  5
1461D
330
1F
100
AcDbEntity
  8
10000_FRONT
  6
Continuous
 62
     7
370
    13
100
AcDbCircle
 10
1114.719684882931
 20
355.6249425488839
 30
0.0
 40
0.3
100
AcDbArc
 50
33.10644000000966
 51
86.89356000000341
  0
LINE
  5
1461E
330
1F
100
AcDbEntity
  8
10000_FRONT
  6
Continuous
 62
     7
370
    13
100
AcDbLine
 10
1115.385918882931
 20
355.1524425488838
 30
0.0
 11
1114.97098188293
 21
355.7887925488838
 31
0.0
  0
LINE
  5
1461F
330
1F
100
AcDbEntity
  8
10000_FRONT
  6
Continuous
 62
     7
370
    13
100
AcDbLine
 10
1115.968386882931
 20
355.7887925488838
 30
0.0
 11
1115.553449882931
 21
355.1524425488838
 31
0.0
  0
ARC
  5
14620
330
1F
100
AcDbEntity
  8
10000_FRONT
  6
Continuous
 62
     7
370
    13
100
AcDbCircle
 10
1116.219684882931
 20
355.6249425488839
 30
0.0
 40
0.3
100
AcDbArc
 50
93.1064399999966
 51
146.8935599999903
  0
LINE
  5
14621
330
1F
100
AcDbEntity
  8
10000_FRONT
  6
Continuous
 62
     7
370
    13
100
AcDbLine
 10
1116.961995882931
 20
355.9656625488838
 30
0.0
 11
1116.203426882931
 21
355.9244925488838
 31
0.0
  0
LINE
  5
14622
330
1F
100
AcDbEntity
  8
10000_FRONT
  6
Continuous
 62
     7
370
    13
100
AcDbLine
 10
1116.702129882931
 20
356.7882725488837
 30
0.0
 11
1117.045761882931
 21
356.1107525488838
 31
0.0
  0
ARC
  5
14623
330
1F
100
AcDbEntity
  8
10000_FRONT
  6
Continuous
 62
     7
370
    13
100
AcDbCircle
 10
1116.969684882931
 20
356.9239725488838
 30
0.0
 40
0.3
100
AcDbArc
 50
153.1064400000006
 51
206.8935599999994
  0
LINE
  5
14624
330
1F
100
AcDbEntity
  8
10000_FRONT
  6
Continuous
 62
     7
370
    13
100
AcDbLine
 10
1117.045761882931
 20
357.7372025488838
 30
0.0
 11
1116.702129882931
 21
357.0596725488838
 31
0.0
  0
LINE
  5
14625
330
1F
100
AcDbEntity
  8
10000_FRONT
  6
Continuous
 62
     7
370
    13
100
AcDbLine
 10
1116.203426882931
 20
357.9234525488837
 30
0.0
 11
1116.961995882931
 21
357.8822825488838
 31
0.0
  0
ARC
  5
14626
330
1F
100
AcDbEntity
  8
10000_FRONT
  6
Continuous
 62
     7
370
    13
100
AcDbCircle
 10
1116.219684882931
 20
358.2230125488839
 30
0.0
 40
0.3
100
AcDbArc
 50
213.1064400000096
 51
266.8935600000034
  0
LINE
  5
14627
330
1F
100
AcDbEntity
  8
10000_FRONT
  6
Continuous
 62
     7
370
    13
100
AcDbLine
 10
1115.553449882931
 20
358.6955125488838
 30
0.0
 11
1115.968386882931
 21
358.0591525488838
 31
0.0
  0
LINE
  5
14628
330
1F
100
AcDbEntity
  8
10000_FRONT
  6
Continuous
 62
     7
370
    13
100
AcDbLine
 10
1114.97098188293
 20
358.0591525488838
 30
0.0
 11
1115.385918882931
 21
358.6955125488838
 31
0.0
  0
ARC
  5
14629
330
1F
100
AcDbEntity
  8
10000_FRONT
  6
Continuous
 62
     7
370
    13
100
AcDbCircle
 10
1113.982791882931
 20
357.7824325488839
 30
0.0
 40
0.1
100
AcDbArc
 50
93.1064399999966
 51
206.8935599999994
  0
ARC
  5
1462A
330
1F
100
AcDbEntity
  8
10000_FRONT
  6
Continuous
 62
     7
370
    13
100
AcDbCircle
 10
1113.982791882931
 20
356.0655225488838
 30
0.0
 40
0.1
100
AcDbArc
 50
153.1064400000006
 51
266.8935600000034
  0
ARC
  5
1462B
330
1F
100
AcDbEntity
  8
10000_FRONT
  6
Continuous
 62
     7
370
    13
100
AcDbCircle
 10
1115.469684882931
 20
355.2070625488839
 30
0.0
 40
0.1
100
AcDbArc
 50
213.1064400000096
 51
326.8935599999903
  0
ARC
  5
1462C
330
1F
100
AcDbEntity
  8
10000_FRONT
  6
Continuous
 62
     7
370
    13
100
AcDbCircle
 10
1116.956576882931
 20
356.0655225488838
 30
0.0
 40
0.1
100
AcDbArc
 50
330.0011780000084
 51
26.89355999999937
  0
ARC
  5
1462D
330
1F
100
AcDbEntity
  8
10000_FRONT
  6
Continuous
 62
     7
370
    13
100
AcDbCircle
 10
1116.956576882931
 20
356.0655225488838
 30
0.0
 40
0.1
100
AcDbArc
 50
273.1064365000044
 51
329.9999600000058
  0
ARC
  5
1462E
330
1F
100
AcDbEntity
  8
10000_FRONT
  6
Continuous
 62
     7
370
    13
100
AcDbCircle
 10
1116.956576882931
 20
357.7824325488839
 30
0.0
 40
0.1
100
AcDbArc
 50
333.1064369999999
 51
86.89356000000341
  0
ARC
  5
1462F
330
1F
100
AcDbEntity
  8
10000_FRONT
  6
Continuous
 62
     7
370
    13
100
AcDbCircle
 10
1115.469684882931
 20
358.6408925488839
 30
0.0
 40
0.1
100
AcDbArc
 50
33.10644000000966
 51
146.8935599999903
  0
CIRCLE
  5
14632
330
1F
100
AcDbEntity
  8
10000_FRONT
  6
Continuous
 62
     7
370
    13
100
AcDbCircle
 10
1115.469684882931
 20
356.9239725488838
 30
0.0
 40
1.975
  0
CIRCLE
  5
14633
330
1F
100
AcDbEntity
  8
10000_FRONT
  6
Continuous
 62
     7
370
    13
100
AcDbCircle
 10
1115.469684882931
 20
356.9239725488838
 30
0.0
 40
3.8299302
  0
LINE
  5
1464C
330
1F
100
AcDbEntity
  8
10000_FRONT
  6
Continuous
 62
     7
370
    13
100
AcDbLine
 10
1101.688640695181
 20
366.9436690663125
 30
0.0
 11
1101.688640695181
 21
365.538424045877
 31
0.0
  0
LINE
  5
1464D
330
1F
100
AcDbEntity
  8
10000_FRONT
  6
Continuous
 62
     7
370
    13
100
AcDbLine
 10
1101.688640695181
 20
369.8095210518901
 30
0.0
 11
1101.688640695181
 21
368.4042760314551
 31
0.0
  0
LINE
  5
1464E
330
1F
100
AcDbEntity
  8
10000_FRONT
  6
Continuous
 62
     7
370
    13
100
AcDbLine
 10
1100.450725978081
 20
365.538424045877
 30
0.0
 11
1100.450725978081
 21
366.9436690663125
 31
0.0
  0
LINE
  5
1464F
330
1F
100
AcDbEntity
  8
10000_FRONT
  6
Continuous
 62
     7
370
    13
100
AcDbLine
 10
1100.450725978081
 20
368.4042760314551
 30
0.0
 11
1100.450725978081
 21
369.8095210518901
 31
0.0
  0
ARC
  5
14650
330
1F
100
AcDbEntity
  8
10000_FRONT
  6
Continuous
 62
     7
370
    13
100
AcDbCircle
 10
1101.069683882931
 20
367.6739725488837
 30
0.0
 40
2.223437092551975
100
AcDbArc
 50
253.8365499999973
 51
286.1634499999995
  0
ARC
  5
14651
330
1F
100
AcDbEntity
  8
10000_FRONT
  6
Continuous
 62
     7
370
    13
100
AcDbCircle
 10
1101.069683882931
 20
367.6739725488837
 30
0.0
 40
2.223437092551975
100
AcDbArc
 50
73.83655500000286
 51
106.1634499999994
  0
ARC
  5
14652
330
1F
100
AcDbEntity
  8
10000_FRONT
  6
Continuous
 62
     7
370
    13
100
AcDbCircle
 10
1099.45638184238
 20
367.6774248521376
 30
0.0
 40
1.820247856929089
100
AcDbArc
 50
156.4646747449886
 51
203.7725952672212
  0
LINE
  5
14653
330
1F
100
AcDbEntity
  8
10000_FRONT
  6
Continuous
 62
     7
370
    13
100
AcDbLine
 10
1101.688640695181
 20
368.4042760314551
 30
0.0
 11
1104.351814741478
 21
368.4042760314551
 31
0.0
  0
LINE
  5
14654
330
1F
100
AcDbEntity
  8
10000_FRONT
  6
Continuous
 62
     7
370
    13
100
AcDbLine
 10
1097.787553024382
 20
368.4042760314548
 30
0.0
 11
1100.450725978081
 21
368.4042760314551
 31
0.0
  0
LINE
  5
14655
330
1F
100
AcDbEntity
  8
10000_FRONT
  6
Continuous
 62
     7
370
    13
100
AcDbLine
 10
1104.348790446052
 20
366.9436690663125
 30
0.0
 11
1101.688640695181
 21
366.9436690663125
 31
0.0
  0
LINE
  5
14656
330
1F
100
AcDbEntity
  8
10000_FRONT
  6
Continuous
 62
     7
370
    13
100
AcDbLine
 10
1100.450725978081
 20
366.9436690663125
 30
0.0
 11
1097.790577319808
 21
366.9436690663126
 31
0.0
  0
ARC
  5
14657
330
1F
100
AcDbEntity
  8
10000_FRONT
  6
Continuous
 62
     7
370
    13
100
AcDbCircle
 10
1102.68298592348
 20
367.6774248521376
 30
0.0
 40
1.820247856929089
100
AcDbArc
 50
336.2274047327741
 51
23.53532525501195
  0
CIRCLE
  5
14658
330
1F
100
AcDbEntity
  8
10000_FRONT
  6
Continuous
 62
     7
370
    13
100
AcDbCircle
 10
1101.069683882931
 20
367.6739725488837
 30
0.0
 40
3.604865961613174
  0
LINE
  5
1465A
330
1F
100
AcDbEntity
  8
10000_FRONT
  6
Continuous
 62
     7
370
    13
100
AcDbLine
 10
1116.088645695181
 20
366.9436690663126
 30
0.0
 11
1116.088645695181
 21
365.5384240458771
 31
0.0
  0
LINE
  5
1465B
330
1F
100
AcDbEntity
  8
10000_FRONT
  6
Continuous
 62
     7
370
    13
100
AcDbLine
 10
1116.088645695181
 20
369.8095210518902
 30
0.0
 11
1116.088645695181
 21
368.4042760314552
 31
0.0
  0
LINE
  5
1465C
330
1F
100
AcDbEntity
  8
10000_FRONT
  6
Continuous
 62
     7
370
    13
100
AcDbLine
 10
1114.850730978081
 20
365.5384240458771
 30
0.0
 11
1114.850730978081
 21
366.9436690663126
 31
0.0
  0
LINE
  5
1465D
330
1F
100
AcDbEntity
  8
10000_FRONT
  6
Continuous
 62
     7
370
    13
100
AcDbLine
 10
1114.850730978081
 20
368.4042760314552
 30
0.0
 11
1114.850730978081
 21
369.8095210518902
 31
0.0
  0
ARC
  5
1465E
330
1F
100
AcDbEntity
  8
10000_FRONT
  6
Continuous
 62
     7
370
    13
100
AcDbCircle
 10
1115.469688882931
 20
367.6739725488838
 30
0.0
 40
2.223437092551975
100
AcDbArc
 50
253.8365499999973
 51
286.1634499999995
  0
ARC
  5
1465F
330
1F
100
AcDbEntity
  8
10000_FRONT
  6
Continuous
 62
     7
370
    13
100
AcDbCircle
 10
1115.469688882931
 20
367.6739725488838
 30
0.0
 40
2.223437092551975
100
AcDbArc
 50
73.83655500000286
 51
106.1634499999994
  0
ARC
  5
14660
330
1F
100
AcDbEntity
  8
10000_FRONT
  6
Continuous
 62
     7
370
    13
100
AcDbCircle
 10
1113.85638684238
 20
367.6774248521377
 30
0.0
 40
1.820247856929089
100
AcDbArc
 50
156.4646747449886
 51
203.7725952672212
  0
LINE
  5
14661
330
1F
100
AcDbEntity
  8
10000_FRONT
  6
Continuous
 62
     7
370
    13
100
AcDbLine
 10
1116.088645695181
 20
368.4042760314552
 30
0.0
 11
1118.751819741478
 21
368.4042760314552
 31
0.0
  0
LINE
  5
14662
330
1F
100
AcDbEntity
  8
10000_FRONT
  6
Continuous
 62
     7
370
    13
100
AcDbLine
 10
1112.187558024382
 20
368.4042760314549
 30
0.0
 11
1114.850730978081
 21
368.4042760314552
 31
0.0
  0
LINE
  5
14663
330
1F
100
AcDbEntity
  8
10000_FRONT
  6
Continuous
 62
     7
370
    13
100
AcDbLine
 10
1118.748795446052
 20
366.9436690663126
 30
0.0
 11
1116.088645695181
 21
366.9436690663126
 31
0.0
  0
LINE
  5
14664
330
1F
100
AcDbEntity
  8
10000_FRONT
  6
Continuous
 62
     7
370
    13
100
AcDbLine
 10
1114.850730978081
 20
366.9436690663126
 30
0.0
 11
1112.190582319808
 21
366.9436690663127
 31
0.0
  0
ARC
  5
14665
330
1F
100
AcDbEntity
  8
10000_FRONT
  6
Continuous
 62
     7
370
    13
100
AcDbCircle
 10
1117.08299092348
 20
367.6774248521377
 30
0.0
 40
1.820247856929089
100
AcDbArc
 50
336.2274047327741
 51
23.53532525501195
  0
CIRCLE
  5
14666
330
1F
100
AcDbEntity
  8
10000_FRONT
  6
Continuous
 62
     7
370
    13
100
AcDbCircle
 10
1115.469688882931
 20
367.6739725488838
 30
0.0
 40
3.604865961613174
  0
LINE
  5
14667
330
1F
100
AcDbEntity
  8
10000_FRONT
  6
Continuous
 62
     7
370
    13
100
AcDbLine
 10
1130.488640695181
 20
366.9436690663126
 30
0.0
 11
1130.488640695181
 21
365.5384240458771
 31
0.0
  0
LINE
  5
14668
330
1F
100
AcDbEntity
  8
10000_FRONT
  6
Continuous
 62
     7
370
    13
100
AcDbLine
 10
1130.488640695181
 20
369.8095210518902
 30
0.0
 11
1130.488640695181
 21
368.4042760314552
 31
0.0
  0
LINE
  5
14669
330
1F
100
AcDbEntity
  8
10000_FRONT
  6
Continuous
 62
     7
370
    13
100
AcDbLine
 10
1129.250725978081
 20
365.5384240458771
 30
0.0
 11
1129.250725978081
 21
366.9436690663126
 31
0.0
  0
LINE
  5
1466A
330
1F
100
AcDbEntity
  8
10000_FRONT
  6
Continuous
 62
     7
370
    13
100
AcDbLine
 10
1129.250725978081
 20
368.4042760314552
 30
0.0
 11
1129.250725978081
 21
369.8095210518902
 31
0.0
  0
ARC
  5
1466B
330
1F
100
AcDbEntity
  8
10000_FRONT
  6
Continuous
 62
     7
370
    13
100
AcDbCircle
 10
1129.869683882931
 20
367.6739725488838
 30
0.0
 40
2.223437092551975
100
AcDbArc
 50
253.8365499999973
 51
286.1634499999995
  0
ARC
  5
1466C
330
1F
100
AcDbEntity
  8
10000_FRONT
  6
Continuous
 62
     7
370
    13
100
AcDbCircle
 10
1129.869683882931
 20
367.6739725488838
 30
0.0
 40
2.223437092551975
100
AcDbArc
 50
73.83655500000286
 51
106.1634499999994
  0
ARC
  5
1466D
330
1F
100
AcDbEntity
  8
10000_FRONT
  6
Continuous
 62
     7
370
    13
100
AcDbCircle
 10
1128.25638184238
 20
367.6774248521377
 30
0.0
 40
1.820247856929089
100
AcDbArc
 50
156.4646747449886
 51
203.7725952672212
  0
LINE
  5
1466E
330
1F
100
AcDbEntity
  8
10000_FRONT
  6
Continuous
 62
     7
370
    13
100
AcDbLine
 10
1130.488640695181
 20
368.4042760314552
 30
0.0
 11
1133.151814741478
 21
368.4042760314552
 31
0.0
  0
LINE
  5
1466F
330
1F
100
AcDbEntity
  8
10000_FRONT
  6
Continuous
 62
     7
370
    13
100
AcDbLine
 10
1126.587553024382
 20
368.4042760314549
 30
0.0
 11
1129.250725978081
 21
368.4042760314552
 31
0.0
  0
LINE
  5
14670
330
1F
100
AcDbEntity
  8
10000_FRONT
  6
Continuous
 62
     7
370
    13
100
AcDbLine
 10
1133.148790446052
 20
366.9436690663126
 30
0.0
 11
1130.488640695181
 21
366.9436690663126
 31
0.0
  0
LINE
  5
14671
330
1F
100
AcDbEntity
  8
10000_FRONT
  6
Continuous
 62
     7
370
    13
100
AcDbLine
 10
1129.250725978081
 20
366.9436690663126
 30
0.0
 11
1126.590577319808
 21
366.9436690663127
 31
0.0
  0
ARC
  5
14672
330
1F
100
AcDbEntity
  8
10000_FRONT
  6
Continuous
 62
     7
370
    13
100
AcDbCircle
 10
1131.48298592348
 20
367.6774248521377
 30
0.0
 40
1.820247856929089
100
AcDbArc
 50
336.2274047327741
 51
23.53532525501195
  0
CIRCLE
  5
14673
102
{ACAD_REACTORS
330
147F4
102
}
330
1F
100
AcDbEntity
  8
10000_FRONT
  6
Continuous
 62
     7
370
    13
100
AcDbCircle
 10
1129.869683882931
 20
367.6739725488838
 30
0.0
 40
3.604865961613174
  0
LINE
  5
14674
330
1F
100
AcDbEntity
  8
10000_FRONT
  6
Continuous
 62
     7
370
    13
100
AcDbLine
 10
1101.688642695181
 20
297.9436690663125
 30
0.0
 11
1101.688642695181
 21
296.5384240458771
 31
0.0
  0
LINE
  5
14675
330
1F
100
AcDbEntity
  8
10000_FRONT
  6
Continuous
 62
     7
370
    13
100
AcDbLine
 10
1101.688642695181
 20
300.8095210518901
 30
0.0
 11
1101.688642695181
 21
299.4042760314551
 31
0.0
  0
LINE
  5
14676
330
1F
100
AcDbEntity
  8
10000_FRONT
  6
Continuous
 62
     7
370
    13
100
AcDbLine
 10
1100.450727978081
 20
296.5384240458771
 30
0.0
 11
1100.450727978081
 21
297.9436690663125
 31
0.0
  0
LINE
  5
14677
330
1F
100
AcDbEntity
  8
10000_FRONT
  6
Continuous
 62
     7
370
    13
100
AcDbLine
 10
1100.450727978081
 20
299.4042760314551
 30
0.0
 11
1100.450727978081
 21
300.8095210518901
 31
0.0
  0
ARC
  5
14678
330
1F
100
AcDbEntity
  8
10000_FRONT
  6
Continuous
 62
     7
370
    13
100
AcDbCircle
 10
1101.069685882931
 20
298.6739725488837
 30
0.0
 40
2.223437092551975
100
AcDbArc
 50
253.8365499999973
 51
286.1634499999995
  0
ARC
  5
14679
330
1F
100
AcDbEntity
  8
10000_FRONT
  6
Continuous
 62
     7
370
    13
100
AcDbCircle
 10
1101.069685882931
 20
298.6739725488837
 30
0.0
 40
2.223437092551975
100
AcDbArc
 50
73.83655500000286
 51
106.1634499999994
  0
ARC
  5
1467A
330
1F
100
AcDbEntity
  8
10000_FRONT
  6
Continuous
 62
     7
370
    13
100
AcDbCircle
 10
1099.45638384238
 20
298.6774248521376
 30
0.0
 40
1.820247856929089
100
AcDbArc
 50
156.4646747449884
 51
203.7725952672212
  0
LINE
  5
1467B
330
1F
100
AcDbEntity
  8
10000_FRONT
  6
Continuous
 62
     7
370
    13
100
AcDbLine
 10
1101.688642695181
 20
299.4042760314551
 30
0.0
 11
1104.351816741478
 21
299.4042760314551
 31
0.0
  0
LINE
  5
1467C
330
1F
100
AcDbEntity
  8
10000_FRONT
  6
Continuous
 62
     7
370
    13
100
AcDbLine
 10
1097.787555024382
 20
299.4042760314549
 30
0.0
 11
1100.450727978081
 21
299.4042760314551
 31
0.0
  0
LINE
  5
1467D
330
1F
100
AcDbEntity
  8
10000_FRONT
  6
Continuous
 62
     7
370
    13
100
AcDbLine
 10
1104.348792446052
 20
297.9436690663125
 30
0.0
 11
1101.688642695181
 21
297.9436690663125
 31
0.0
  0
LINE
  5
1467E
330
1F
100
AcDbEntity
  8
10000_FRONT
  6
Continuous
 62
     7
370
    13
100
AcDbLine
 10
1100.450727978081
 20
297.9436690663125
 30
0.0
 11
1097.790579319808
 21
297.9436690663126
 31
0.0
  0
ARC
  5
1467F
330
1F
100
AcDbEntity
  8
10000_FRONT
  6
Continuous
 62
     7
370
    13
100
AcDbCircle
 10
1102.68298792348
 20
298.6774248521376
 30
0.0
 40
1.820247856929089
100
AcDbArc
 50
336.2274047327739
 51
23.53532525501227
  0
CIRCLE
  5
14680
330
1F
100
AcDbEntity
  8
10000_FRONT
  6
Continuous
 62
     7
370
    13
100
AcDbCircle
 10
1101.069685882931
 20
298.6739725488837
 30
0.0
 40
3.604865961613174
  0
LINE
  5
14681
330
1F
100
AcDbEntity
  8
10000_FRONT
  6
Continuous
 62
     7
370
    13
100
AcDbLine
 10
1116.088647695181
 20
297.9436690663126
 30
0.0
 11
1116.088647695181
 21
296.5384240458771
 31
0.0
  0
LINE
  5
14682
330
1F
100
AcDbEntity
  8
10000_FRONT
  6
Continuous
 62
     7
370
    13
100
AcDbLine
 10
1116.088647695181
 20
300.8095210518902
 30
0.0
 11
1116.088647695181
 21
299.4042760314552
 31
0.0
  0
LINE
  5
14683
330
1F
100
AcDbEntity
  8
10000_FRONT
  6
Continuous
 62
     7
370
    13
100
AcDbLine
 10
1114.850732978081
 20
296.5384240458771
 30
0.0
 11
1114.850732978081
 21
297.9436690663126
 31
0.0
  0
LINE
  5
14684
330
1F
100
AcDbEntity
  8
10000_FRONT
  6
Continuous
 62
     7
370
    13
100
AcDbLine
 10
1114.850732978081
 20
299.4042760314552
 30
0.0
 11
1114.850732978081
 21
300.8095210518902
 31
0.0
  0
ARC
  5
14685
330
1F
100
AcDbEntity
  8
10000_FRONT
  6
Continuous
 62
     7
370
    13
100
AcDbCircle
 10
1115.469690882931
 20
298.6739725488838
 30
0.0
 40
2.223437092551975
100
AcDbArc
 50
253.8365499999973
 51
286.1634499999995
  0
ARC
  5
14686
330
1F
100
AcDbEntity
  8
10000_FRONT
  6
Continuous
 62
     7
370
    13
100
AcDbCircle
 10
1115.469690882931
 20
298.6739725488838
 30
0.0
 40
2.223437092551975
100
AcDbArc
 50
73.83655500000286
 51
106.1634499999994
  0
ARC
  5
14687
330
1F
100
AcDbEntity
  8
10000_FRONT
  6
Continuous
 62
     7
370
    13
100
AcDbCircle
 10
1113.85638884238
 20
298.6774248521377
 30
0.0
 40
1.820247856929089
100
AcDbArc
 50
156.4646747449884
 51
203.7725952672212
  0
LINE
  5
14688
330
1F
100
AcDbEntity
  8
10000_FRONT
  6
Continuous
 62
     7
370
    13
100
AcDbLine
 10
1116.088647695181
 20
299.4042760314552
 30
0.0
 11
1118.751821741478
 21
299.4042760314552
 31
0.0
  0
LINE
  5
14689
330
1F
100
AcDbEntity
  8
10000_FRONT
  6
Continuous
 62
     7
370
    13
100
AcDbLine
 10
1112.187560024382
 20
299.4042760314549
 30
0.0
 11
1114.850732978081
 21
299.4042760314552
 31
0.0
  0
LINE
  5
1468A
330
1F
100
AcDbEntity
  8
10000_FRONT
  6
Continuous
 62
     7
370
    13
100
AcDbLine
 10
1118.748797446052
 20
297.9436690663126
 30
0.0
 11
1116.088647695181
 21
297.9436690663126
 31
0.0
  0
LINE
  5
1468B
330
1F
100
AcDbEntity
  8
10000_FRONT
  6
Continuous
 62
     7
370
    13
100
AcDbLine
 10
1114.850732978081
 20
297.9436690663126
 30
0.0
 11
1112.190584319808
 21
297.9436690663127
 31
0.0
  0
ARC
  5
1468C
330
1F
100
AcDbEntity
  8
10000_FRONT
  6
Continuous
 62
     7
370
    13
100
AcDbCircle
 10
1117.08299292348
 20
298.6774248521377
 30
0.0
 40
1.820247856929089
100
AcDbArc
 50
336.2274047327739
 51
23.53532525501227
  0
CIRCLE
  5
1468D
330
1F
100
AcDbEntity
  8
10000_FRONT
  6
Continuous
 62
     7
370
    13
100
AcDbCircle
 10
1115.469690882931
 20
298.6739725488838
 30
0.0
 40
3.604865961613174
  0
LINE
  5
1468E
330
1F
100
AcDbEntity
  8
10000_FRONT
  6
Continuous
 62
     7
370
    13
100
AcDbLine
 10
1130.488642695181
 20
297.9436690663126
 30
0.0
 11
1130.488642695181
 21
296.5384240458771
 31
0.0
  0
LINE
  5
1468F
330
1F
100
AcDbEntity
  8
10000_FRONT
  6
Continuous
 62
     7
370
    13
100
AcDbLine
 10
1130.488642695181
 20
300.8095210518902
 30
0.0
 11
1130.488642695181
 21
299.4042760314552
 31
0.0
  0
LINE
  5
14690
330
1F
100
AcDbEntity
  8
10000_FRONT
  6
Continuous
 62
     7
370
    13
100
AcDbLine
 10
1129.250727978081
 20
296.5384240458771
 30
0.0
 11
1129.250727978081
 21
297.9436690663126
 31
0.0
  0
LINE
  5
14691
330
1F
100
AcDbEntity
  8
10000_FRONT
  6
Continuous
 62
     7
370
    13
100
AcDbLine
 10
1129.250727978081
 20
299.4042760314552
 30
0.0
 11
1129.250727978081
 21
300.8095210518902
 31
0.0
  0
ARC
  5
14692
330
1F
100
AcDbEntity
  8
10000_FRONT
  6
Continuous
 62
     7
370
    13
100
AcDbCircle
 10
1129.869685882931
 20
298.6739725488838
 30
0.0
 40
2.223437092551975
100
AcDbArc
 50
253.8365499999973
 51
286.1634499999994
  0
ARC
  5
14693
330
1F
100
AcDbEntity
  8
10000_FRONT
  6
Continuous
 62
     7
370
    13
100
AcDbCircle
 10
1129.869685882931
 20
298.6739725488838
 30
0.0
 40
2.223437092551975
100
AcDbArc
 50
73.83655500000286
 51
106.1634499999994
  0
ARC
  5
14694
330
1F
100
AcDbEntity
  8
10000_FRONT
  6
Continuous
 62
     7
370
    13
100
AcDbCircle
 10
1128.25638384238
 20
298.6774248521377
 30
0.0
 40
1.820247856929089
100
AcDbArc
 50
156.4646747449884
 51
203.7725952672212
  0
LINE
  5
14695
330
1F
100
AcDbEntity
  8
10000_FRONT
  6
Continuous
 62
     7
370
    13
100
AcDbLine
 10
1130.488642695181
 20
299.4042760314552
 30
0.0
 11
1133.151816741478
 21
299.4042760314552
 31
0.0
  0
LINE
  5
14696
330
1F
100
AcDbEntity
  8
10000_FRONT
  6
Continuous
 62
     7
370
    13
100
AcDbLine
 10
1126.587555024382
 20
299.4042760314549
 30
0.0
 11
1129.250727978081
 21
299.4042760314552
 31
0.0
  0
LINE
  5
14697
330
1F
100
AcDbEntity
  8
10000_FRONT
  6
Continuous
 62
     7
370
    13
100
AcDbLine
 10
1133.148792446052
 20
297.9436690663126
 30
0.0
 11
1130.488642695181
 21
297.9436690663126
 31
0.0
  0
LINE
  5
14698
330
1F
100
AcDbEntity
  8
10000_FRONT
  6
Continuous
 62
     7
370
    13
100
AcDbLine
 10
1129.250727978081
 20
297.9436690663126
 30
0.0
 11
1126.590579319808
 21
297.9436690663127
 31
0.0
  0
ARC
  5
14699
330
1F
100
AcDbEntity
  8
10000_FRONT
  6
Continuous
 62
     7
370
    13
100
AcDbCircle
 10
1131.48298792348
 20
298.6774248521377
 30
0.0
 40
1.820247856929089
100
AcDbArc
 50
336.2274047327739
 51
23.53532525501227
  0
CIRCLE
  5
1469A
102
{ACAD_REACTORS
330
147F4
102
}
330
1F
100
AcDbEntity
  8
10000_FRONT
  6
Continuous
 62
     7
370
    13
100
AcDbCircle
 10
1129.869685882931
 20
298.6739725488838
 30
0.0
 40
3.604865961613174
  0
LINE
  5
1469B
330
1F
100
AcDbEntity
  8
11000_Left
  6
Continuous
 62
     7
370
    13
100
AcDbLine
 10
1225.47560881271
 20
339.9739725488838
 30
0.0
 11
1225.47560881271
 21
347.3739725488838
 31
0.0
  0
LINE
  5
1469C
330
1F
100
AcDbEntity
  8
11000_Left
  6
Continuous
 62
     7
370
    13
100
AcDbLine
 10
1225.47560881271
 20
347.3739725488838
 30
0.0
 11
1227.87560881271
 21
347.3739725488838
 31
0.0
  0
LINE
  5
1469D
330
1F
100
AcDbEntity
  8
11000_Left
  6
Continuous
 62
     7
370
    13
100
AcDbLine
 10
1227.87560881271
 20
347.3739725488838
 30
0.0
 11
1227.87560881271
 21
339.9739725488838
 31
0.0
  0
LINE
  5
1469E
330
1F
100
AcDbEntity
  8
11000_Left
  6
Continuous
 62
     7
370
    13
100
AcDbLine
 10
1227.87560881271
 20
339.9739725488838
 30
0.0
 11
1225.47560881271
 21
339.9739725488838
 31
0.0
  0
LINE
  5
1469F
330
1F
100
AcDbEntity
  8
11000_Left
  6
Continuous
 62
     7
370
    13
100
AcDbLine
 10
1221.87560881271
 20
339.9739725488838
 30
0.0
 11
1221.87560881271
 21
347.3739725488838
 31
0.0
  0
LINE
  5
146A0
330
1F
100
AcDbEntity
  8
11000_Left
  6
Continuous
 62
     7
370
    13
100
AcDbLine
 10
1221.87560881271
 20
347.3739725488838
 30
0.0
 11
1224.27560881271
 21
347.3739725488838
 31
0.0
  0
LINE
  5
146A1
330
1F
100
AcDbEntity
  8
11000_Left
  6
Continuous
 62
     7
370
    13
100
AcDbLine
 10
1224.27560881271
 20
347.3739725488838
 30
0.0
 11
1224.27560881271
 21
339.9739725488838
 31
0.0
  0
LINE
  5
146A2
330
1F
100
AcDbEntity
  8
11000_Left
  6
Continuous
 62
     7
370
    13
100
AcDbLine
 10
1224.27560881271
 20
339.9739725488838
 30
0.0
 11
1221.87560881271
 21
339.9739725488838
 31
0.0
  0
LINE
  5
146A3
330
1F
100
AcDbEntity
  8
11000_Left
  6
Continuous
 62
     7
370
    13
100
AcDbLine
 10
1218.27560881271
 20
339.9739725488838
 30
0.0
 11
1218.27560881271
 21
347.3739725488838
 31
0.0
  0
LINE
  5
146A4
330
1F
100
AcDbEntity
  8
11000_Left
  6
Continuous
 62
     7
370
    13
100
AcDbLine
 10
1218.27560881271
 20
347.3739725488838
 30
0.0
 11
1220.675608812709
 21
347.3739725488838
 31
0.0
  0
LINE
  5
146A5
330
1F
100
AcDbEntity
  8
11000_Left
  6
Continuous
 62
     7
370
    13
100
AcDbLine
 10
1220.675608812709
 20
347.3739725488838
 30
0.0
 11
1220.675608812709
 21
339.9739725488838
 31
0.0
  0
LINE
  5
146A6
330
1F
100
AcDbEntity
  8
11000_Left
  6
Continuous
 62
     7
370
    13
100
AcDbLine
 10
1220.675608812709
 20
339.9739725488838
 30
0.0
 11
1218.27560881271
 21
339.9739725488838
 31
0.0
  0
LINE
  5
146A7
330
1F
100
AcDbEntity
  8
11000_Left
  6
Continuous
 62
     7
370
    13
100
AcDbLine
 10
1214.675608812709
 20
339.9739725488838
 30
0.0
 11
1214.675608812709
 21
347.3739725488838
 31
0.0
  0
LINE
  5
146A8
330
1F
100
AcDbEntity
  8
11000_Left
  6
Continuous
 62
     7
370
    13
100
AcDbLine
 10
1214.675608812709
 20
347.3739725488838
 30
0.0
 11
1217.075608812709
 21
347.3739725488838
 31
0.0
  0
LINE
  5
146A9
330
1F
100
AcDbEntity
  8
11000_Left
  6
Continuous
 62
     7
370
    13
100
AcDbLine
 10
1217.075608812709
 20
347.3739725488838
 30
0.0
 11
1217.075608812709
 21
339.9739725488838
 31
0.0
  0
LINE
  5
146AA
330
1F
100
AcDbEntity
  8
11000_Left
  6
Continuous
 62
     7
370
    13
100
AcDbLine
 10
1217.075608812709
 20
339.9739725488838
 30
0.0
 11
1214.675608812709
 21
339.9739725488838
 31
0.0
  0
LINE
  5
146AB
330
1F
100
AcDbEntity
  8
11000_Left
  6
Continuous
 62
     7
370
    13
100
AcDbLine
 10
1211.075608812709
 20
349.9739725488837
 30
0.0
 11
1211.075608812709
 21
357.3739725488839
 31
0.0
  0
LINE
  5
146AC
330
1F
100
AcDbEntity
  8
11000_Left
  6
Continuous
 62
     7
370
    13
100
AcDbLine
 10
1211.075608812709
 20
357.3739725488839
 30
0.0
 11
1213.475608812709
 21
357.3739725488839
 31
0.0
  0
LINE
  5
146AD
330
1F
100
AcDbEntity
  8
11000_Left
  6
Continuous
 62
     7
370
    13
100
AcDbLine
 10
1213.475608812709
 20
357.3739725488839
 30
0.0
 11
1213.475608812709
 21
349.9739725488837
 31
0.0
  0
LINE
  5
146AE
330
1F
100
AcDbEntity
  8
11000_Left
  6
Continuous
 62
     7
370
    13
100
AcDbLine
 10
1213.475608812709
 20
349.9739725488837
 30
0.0
 11
1211.075608812709
 21
349.9739725488837
 31
0.0
  0
LINE
  5
146AF
330
1F
100
AcDbEntity
  8
11000_Left
  6
Continuous
 62
     7
370
    13
100
AcDbLine
 10
1207.47560881271
 20
349.9739725488837
 30
0.0
 11
1207.47560881271
 21
357.3739725488839
 31
0.0
  0
LINE
  5
146B0
330
1F
100
AcDbEntity
  8
11000_Left
  6
Continuous
 62
     7
370
    13
100
AcDbLine
 10
1207.47560881271
 20
357.3739725488839
 30
0.0
 11
1209.875608812709
 21
357.3739725488839
 31
0.0
  0
LINE
  5
146B1
330
1F
100
AcDbEntity
  8
11000_Left
  6
Continuous
 62
     7
370
    13
100
AcDbLine
 10
1209.875608812709
 20
357.3739725488839
 30
0.0
 11
1209.875608812709
 21
349.9739725488837
 31
0.0
  0
LINE
  5
146B2
330
1F
100
AcDbEntity
  8
11000_Left
  6
Continuous
 62
     7
370
    13
100
AcDbLine
 10
1209.875608812709
 20
349.9739725488837
 30
0.0
 11
1207.47560881271
 21
349.9739725488837
 31
0.0
  0
LINE
  5
146B3
330
1F
100
AcDbEntity
  8
11000_Left
  6
Continuous
 62
     7
370
    13
100
AcDbLine
 10
1203.875608812709
 20
349.9739725488837
 30
0.0
 11
1203.875608812709
 21
357.3739725488839
 31
0.0
  0
LINE
  5
146B4
330
1F
100
AcDbEntity
  8
11000_Left
  6
Continuous
 62
     7
370
    13
100
AcDbLine
 10
1203.875608812709
 20
357.3739725488839
 30
0.0
 11
1206.27560881271
 21
357.3739725488839
 31
0.0
  0
LINE
  5
146B5
330
1F
100
AcDbEntity
  8
11000_Left
  6
Continuous
 62
     7
370
    13
100
AcDbLine
 10
1206.27560881271
 20
357.3739725488839
 30
0.0
 11
1206.27560881271
 21
349.9739725488837
 31
0.0
  0
LINE
  5
146B6
330
1F
100
AcDbEntity
  8
11000_Left
  6
Continuous
 62
     7
370
    13
100
AcDbLine
 10
1206.27560881271
 20
349.9739725488837
 30
0.0
 11
1203.875608812709
 21
349.9739725488837
 31
0.0
  0
LINE
  5
146B7
330
1F
100
AcDbEntity
  8
11000_Left
  6
Continuous
 62
     7
370
    13
100
AcDbLine
 10
1200.27560881271
 20
349.9739725488837
 30
0.0
 11
1200.27560881271
 21
357.3739725488839
 31
0.0
  0
LINE
  5
146B8
330
1F
100
AcDbEntity
  8
11000_Left
  6
Continuous
 62
     7
370
    13
100
AcDbLine
 10
1200.27560881271
 20
357.3739725488839
 30
0.0
 11
1202.675608812709
 21
357.3739725488839
 31
0.0
  0
LINE
  5
146B9
330
1F
100
AcDbEntity
  8
11000_Left
  6
Continuous
 62
     7
370
    13
100
AcDbLine
 10
1202.675608812709
 20
357.3739725488839
 30
0.0
 11
1202.675608812709
 21
349.9739725488837
 31
0.0
  0
LINE
  5
146BA
330
1F
100
AcDbEntity
  8
11000_Left
  6
Continuous
 62
     7
370
    13
100
AcDbLine
 10
1202.675608812709
 20
349.9739725488837
 30
0.0
 11
1200.27560881271
 21
349.9739725488837
 31
0.0
  0
DIMENSION
  5
14727
102
{ACAD_XDICTIONARY
360
14735
102
}
102
{ACAD_REACTORS
330
14740
102
}
330
1F
100
AcDbEntity
  8
10100_FRONT_DIM
  6
Continuous
 62
     7
370
    13
100
AcDbDimension
  2
*D9
 10
1137.869683882929
 20
272.6539409077297
 30
0.0
 11
1115.46968388293
 21
272.6539409077297
 31
0.0
 70
    32
 71
     5
 42
44.7999999999979
  3
DSTYLE1
100
AcDbAlignedDimension
 13
1093.069683882931
 23
286.5739725488839
 33
0.0
 14
1137.869683882929
 24
286.5739637645692
 34
0.0
100
AcDbRotatedDimension
1001
ACAD
1000
DSTYLE
1002
{
1070
    41
1040
2.0
1070
    42
1040
1.0
1070
    43
1040
1.0
1070
    47
1040
0.005
1070
    48
1040
-0.005
1070
    77
1070
     0
1070
    78
1070
     0
1070
   140
1040
3.5
1070
   143
1040
25.4
1070
   171
1070
     0
1070
   172
1070
     1
1070
   271
1070
     0
1070
   272
1070
     1
1070
   277
1070
     6
1070
   279
1070
     0
1002
}
  0
DIMENSION
  5
14741
330
1F
100
AcDbEntity
  8
11100_LEFT_DIM
  6
Continuous
 62
     7
370
    13
100
AcDbDimension
  2
*D10
 10
1175.48146488813
 20
289.6739725488838
 30
0.0
 11
1175.48146488813
 21
332.423972548884
 31
0.0
 70
    32
  1
35x85
 71
     5
 42
85.50000000000006
  3
DSTYLE1
100
AcDbAlignedDimension
 13
1186.036101115548
 23
375.1739725488838
 33
0.0
 14
1184.475608812709
 24
289.6739725488838
 34
0.0
 50
90.0
100
AcDbRotatedDimension
1001
ACAD
1000
DSTYLE
1002
{
1070
    41
1040
2.0
1070
    42
1040
1.0
1070
    43
1040
1.0
1070
    47
1040
0.005
1070
    48
1040
-0.005
1070
    77
1070
     0
1070
    78
1070
     0
1070
   140
1040
3.5
1070
   143
1040
25.4
1070
   171
1070
     0
1070
   172
1070
     1
1070
   271
1070
     0
1070
   272
1070
     1
1070
   277
1070
     6
1070
   279
1070
     0
1002
}
  0
LINE
  5
14789
330
1F
100
AcDbEntity
  8
11000_Left
  6
HIDDEN
 62
     7
370
     9
100
AcDbLine
 39
0.25
 10
1186.882469822173
 20
377.5739725488838
 30
0.0
 11
1191.175608812709
 21
377.5739725488838
 31
0.0
  0
LINE
  5
1478A
330
1F
100
AcDbEntity
  8
11000_Left
  6
HIDDEN
 62
     7
370
     9
100
AcDbLine
 39
0.25
 10
1186.036101115548
 20
372.7739725488839
 30
0.0
 11
1191.175608812709
 21
372.7739725488838
 31
0.0
  0
LINE
  5
1478C
330
1F
100
AcDbEntity
  8
11000_Left
  6
HIDDEN
 62
     7
370
     9
100
AcDbLine
 39
0.25
 10
1184.47560881271
 20
287.2739725488838
 30
0.0
 11
1191.175608812709
 21
287.2739725488838
 31
0.0
  0
LINE
  5
1478D
330
1F
100
AcDbEntity
  8
11000_Left
  6
HIDDEN
 62
     7
370
     9
100
AcDbLine
 39
0.25
 10
1184.47560881271
 20
292.0739725488838
 30
0.0
 11
1191.175608812709
 21
292.0739725488838
 31
0.0
  0
DIMENSION
  5
147B7
102
{ACAD_XDICTIONARY
360
147C5
102
}
102
{ACAD_REACTORS
330
147D0
102
}
330
1F
100
AcDbEntity
  8
10100_FRONT_DIM
  6
Continuous
 62
     7
370
    13
100
AcDbDimension
  2
*D12
 10
1155.335099829432
 20
380.5739725488839
 30
0.0
 11
1155.335099829432
 21
333.1739725488841
 31
0.0
 70
    32
 71
     5
 42
94.80000000000007
  3
DSTYLE1
100
AcDbAlignedDimension
 13
1137.069683882931
 23
285.7739725488839
 33
0.0
 14
1137.069684891441
 24
380.573972548884
 34
0.0
 50
90.0
100
AcDbRotatedDimension
1001
ACAD
1000
DSTYLE
1002
{
1070
    41
1040
2.0
1070
    42
1040
1.0
1070
    43
1040
1.0
1070
    47
1040
0.005
1070
    48
1040
-0.005
1070
    77
1070
     0
1070
    78
1070
     0
1070
   140
1040
3.5
1070
   143
1040
25.4
1070
   171
1070
     0
1070
   172
1070
     1
1070
   271
1070
     0
1070
   272
1070
     1
1070
   277
1070
     6
1070
   279
1070
     0
1002
}
  0
DIMENSION
  5
147DB
102
{ACAD_XDICTIONARY
360
147E9
102
}
102
{ACAD_REACTORS
330
147F4
102
}
330
1F
100
AcDbEntity
  8
10100_FRONT_DIM
  6
Continuous
 62
     7
370
    13
100
AcDbDimension
  2
*D13
 10
1147.520838506712
 20
298.6739725488838
 30
0.0
 11
1147.520838506712
 21
333.173972548884
 31
0.0
 70
    32
 71
     5
 42
69.0
  3
DSTYLE1
100
AcDbAlignedDimension
 13
1133.474549844544
 23
367.6739725488838
 33
0.0
 14
1133.474551844544
 24
298.6739725488838
 34
0.0
 50
90.0
100
AcDbRotatedDimension
1001
ACAD
1000
DSTYLE
1002
{
1070
    41
1040
2.0
1070
    42
1040
1.0
1070
    43
1040
1.0
1070
    47
1040
0.005
1070
    48
1040
-0.005
1070
    77
1070
     0
1070
    78
1070
     0
1070
   140
1040
3.5
1070
   143
1040
25.4
1070
   171
1070
     0
1070
   172
1070
     1
1070
   271
1070
     0
1070
   272
1070
     1
1070
   277
1070
     6
1070
   279
1070
     0
1002
}
  0
LINE
  5
14834
330
1F
100
AcDbEntity
  8
11000_Left
  6
HIDDEN
 62
     7
370
     9
100
AcDbLine
 39
0.25
 10
1187.775520462782
 20
350.876787629202
 30
-0.0000000000000036
 11
1188.775520462782
 21
350.876787629202
 31
-0.7500000000000071
1001
AUSTER_ANSICHT
1002
{
1000
Det03
1002
}
1001
AUSTER_FOLIE
1002
{
1000
NSB01341_3RS10_24POL
1002
}
  0
LINE
  5
14835
330
1F
100
AcDbEntity
  8
11000_Left
  6
HIDDEN
 62
     7
370
     9
100
AcDbLine
 39
0.25
 10
1184.875520462782
 20
320.7267876292019
 30
-0.0000000000000036
 11
1183.275520462782
 21
320.7267876292019
 31
-0.0000000000000036
1001
AUSTER_ANSICHT
1002
{
1000
Det03
1002
}
1001
AUSTER_FOLIE
1002
{
1000
NSB01341_3RS10_24POL
1002
}
  0
LINE
  5
14836
330
1F
100
AcDbEntity
  8
11000_Left
  6
HIDDEN
 62
     7
370
     9
100
AcDbLine
 39
0.25
 10
1184.875520462782
 20
320.7267876292019
 30
-0.0000000000000036
 11
1183.275520462782
 21
320.7267876292019
 31
-0.0000000000000036
1001
AUSTER_ANSICHT
1002
{
1000
Det03
1002
}
1001
AUSTER_FOLIE
1002
{
1000
NSB01341_3RS10_24POL
1002
}
  0
LINE
  5
14837
330
1F
100
AcDbEntity
  8
11000_Left
  6
HIDDEN
 62
     7
370
     9
100
AcDbLine
 39
0.25
 10
1184.875520462782
 20
320.7267876292019
 30
-0.0000000000000036
 11
1183.275520462782
 21
320.7267876292019
 31
-0.0000000000000036
1001
AUSTER_ANSICHT
1002
{
1000
Det03
1002
}
1001
AUSTER_FOLIE
1002
{
1000
NSB01341_3RS10_24POL
1002
}
  0
ARC
  5
14838
330
1F
100
AcDbEntity
  8
11000_Left
  6
HIDDEN
 62
     7
370
     9
100
AcDbCircle
 39
0.25
 10
1183.275520462782
 20
322.7267876292019
 30
-0.0000000000000036
 40
2.0
100
AcDbArc
 50
180.0
 51
270.0
1001
AUSTER_ANSICHT
1002
{
1000
Det03
1002
}
1001
AUSTER_FOLIE
1002
{
1000
NSB01341_3RS10_24POL
1002
}
  0
ARC
  5
14839
330
1F
100
AcDbEntity
  8
11000_Left
  6
HIDDEN
 62
     7
370
     9
100
AcDbCircle
 39
0.25
 10
1183.275520462782
 20
322.7267876292019
 30
-0.0000000000000036
 40
2.0
100
AcDbArc
 50
180.0
 51
270.0
1001
AUSTER_ANSICHT
1002
{
1000
Det03
1002
}
1001
AUSTER_FOLIE
1002
{
1000
NSB01341_3RS10_24POL
1002
}
  0
ARC
  5
1483A
330
1F
100
AcDbEntity
  8
11000_Left
  6
HIDDEN
 62
     7
370
     9
100
AcDbCircle
 39
0.25
 10
1183.275520462782
 20
322.7267876292019
 30
-0.0000000000000036
 40
2.0
100
AcDbArc
 50
180.0
 51
270.0
1001
AUSTER_ANSICHT
1002
{
1000
Det03
1002
}
1001
AUSTER_FOLIE
1002
{
1000
NSB01341_3RS10_24POL
1002
}
  0
ARC
  5
1483B
330
1F
100
AcDbEntity
  8
11000_Left
  6
HIDDEN
 62
     7
370
     9
100
AcDbCircle
 10
1187.30412609101
 20
318.1053932574292
 30
-0.7500000000000036
 40
0.4722615119880704
100
AcDbArc
 50
356.5273781600807
 51
93.47262183990956
1001
AUSTER_FOLIE
1002
{
1000
NSB01341_3RS10_24POL
1002
}
1001
AUSTER_ANSICHT
1002
{
1000
Det03
1002
}
  0
LINE
  5
1483C
330
1F
100
AcDbEntity
  8
11000_Left
  6
HIDDEN
 62
     7
370
     9
100
AcDbLine
 39
0.25
 10
1184.775520462783
 20
322.7267876292019
 30
-1.000000000000001
 11
1186.775520462783
 21
322.7267876292019
 31
-1.000000000000001
1001
AUSTER_ANSICHT
1002
{
1000
Det03
1002
}
1001
AUSTER_FOLIE
1002
{
1000
NSB01341_3RS10_24POL
1002
}
  0
LINE
  5
1483D
330
1F
100
AcDbEntity
  8
11000_Left
  6
HIDDEN
 62
     7
370
     9
100
AcDbLine
 39
0.25
 10
1184.775520462783
 20
322.7267876292019
 30
-1.000000000000001
 11
1186.775520462783
 21
322.7267876292019
 31
-1.000000000000001
1001
AUSTER_ANSICHT
1002
{
1000
Det03
1002
}
1001
AUSTER_FOLIE
1002
{
1000
NSB01341_3RS10_24POL
1002
}
  0
LINE
  5
1483E
330
1F
100
AcDbEntity
  8
11000_Left
  6
HIDDEN
 62
     7
370
     9
100
AcDbLine
 39
0.25
 10
1184.775520462783
 20
322.7267876292019
 30
-1.000000000000001
 11
1186.775520462783
 21
322.7267876292019
 31
-1.000000000000001
1001
AUSTER_ANSICHT
1002
{
1000
Det03
1002
}
1001
AUSTER_FOLIE
1002
{
1000
NSB01341_3RS10_24POL
1002
}
  0
LINE
  5
1483F
330
1F
100
AcDbEntity
  8
11000_Left
  6
HIDDEN
 62
     7
370
     9
100
AcDbLine
 39
0.25
 10
1183.775520462782
 20
323.7267876292019
 30
-1.000000000000001
 11
1183.775520462782
 21
333.2267876292019
 31
-1.000000000000001
1001
AUSTER_ANSICHT
1002
{
1000
Det03
1002
}
1001
AUSTER_FOLIE
1002
{
1000
NSB01341_3RS10_24POL
1002
}
  0
LINE
  5
14840
330
1F
100
AcDbEntity
  8
11000_Left
  6
HIDDEN
 62
     7
370
     9
100
AcDbLine
 39
0.25
 10
1183.775520462782
 20
323.7267876292019
 30
-1.000000000000001
 11
1183.775520462782
 21
333.2267876292019
 31
-1.000000000000001
1001
AUSTER_ANSICHT
1002
{
1000
Det03
1002
}
1001
AUSTER_FOLIE
1002
{
1000
NSB01341_3RS10_24POL
1002
}
  0
LINE
  5
14841
330
1F
100
AcDbEntity
  8
11000_Left
  6
HIDDEN
 62
     7
370
     9
100
AcDbLine
 39
0.25
 10
1183.775520462782
 20
323.7267876292019
 30
-1.000000000000001
 11
1183.775520462782
 21
333.2267876292019
 31
-1.000000000000001
1001
AUSTER_ANSICHT
1002
{
1000
Det03
1002
}
1001
AUSTER_FOLIE
1002
{
1000
NSB01341_3RS10_24POL
1002
}
  0
LINE
  5
14842
330
1F
100
AcDbEntity
  8
11000_Left
  6
HIDDEN
 62
     7
370
     9
100
AcDbLine
 39
0.25
 10
1186.775520462783
 20
318.8267876292018
 30
-1.000000000000001
 11
1186.775520462783
 21
318.5767876292019
 31
-1.000000000000001
1001
AUSTER_ANSICHT
1002
{
1000
Det03
1002
}
1001
AUSTER_FOLIE
1002
{
1000
NSB01341_3RS10_24POL
1002
}
  0
LINE
  5
14843
330
1F
100
AcDbEntity
  8
11000_Left
  6
HIDDEN
 62
     7
370
     9
100
AcDbLine
 39
0.25
 10
1187.275520462782
 20
318.5767876292019
 30
-1.000000000000001
 11
1186.775520462783
 21
318.5767876292019
 31
-1.000000000000001
1001
AUSTER_ANSICHT
1002
{
1000
Det03
1002
}
1001
AUSTER_FOLIE
1002
{
1000
NSB01341_3RS10_24POL
1002
}
  0
LINE
  5
14844
330
1F
100
AcDbEntity
  8
11000_Left
  6
HIDDEN
 62
     7
370
     9
100
AcDbLine
 39
0.25
 10
1186.775520462783
 20
318.8267876292018
 30
-1.000000000000001
 11
1186.775520462783
 21
318.5767876292019
 31
-1.000000000000001
1001
AUSTER_ANSICHT
1002
{
1000
Det03
1002
}
1001
AUSTER_FOLIE
1002
{
1000
NSB01341_3RS10_24POL
1002
}
  0
LINE
  5
14845
330
1F
100
AcDbEntity
  8
11000_Left
  6
HIDDEN
 62
     7
370
     9
100
AcDbLine
 39
0.25
 10
1187.275520462782
 20
318.5767876292019
 30
-1.000000000000001
 11
1186.775520462783
 21
318.5767876292019
 31
-1.000000000000001
1001
AUSTER_ANSICHT
1002
{
1000
Det03
1002
}
1001
AUSTER_FOLIE
1002
{
1000
NSB01341_3RS10_24POL
1002
}
  0
LINE
  5
14846
330
1F
100
AcDbEntity
  8
11000_Left
  6
HIDDEN
 62
     7
370
     9
100
AcDbLine
 39
0.25
 10
1186.775520462783
 20
318.8267876292018
 30
-1.000000000000001
 11
1186.775520462783
 21
318.5767876292019
 31
-1.000000000000001
1001
AUSTER_ANSICHT
1002
{
1000
Det03
1002
}
1001
AUSTER_FOLIE
1002
{
1000
NSB01341_3RS10_24POL
1002
}
  0
LINE
  5
14847
330
1F
100
AcDbEntity
  8
11000_Left
  6
HIDDEN
 62
     7
370
     9
100
AcDbLine
 39
0.25
 10
1187.275520462782
 20
318.5767876292019
 30
-1.000000000000001
 11
1186.775520462783
 21
318.5767876292019
 31
-1.000000000000001
1001
AUSTER_ANSICHT
1002
{
1000
Det03
1002
}
1001
AUSTER_FOLIE
1002
{
1000
NSB01341_3RS10_24POL
1002
}
  0
LINE
  5
14848
330
1F
100
AcDbEntity
  8
11000_Left
  6
HIDDEN
 62
     7
370
     9
100
AcDbLine
 39
0.25
 10
1188.775520462782
 20
320.7267876292019
 30
-1.000000000000001
 11
1186.775520462783
 21
322.7267876292019
 31
-1.000000000000001
1001
AUSTER_ANSICHT
1002
{
1000
Det03
1002
}
1001
AUSTER_FOLIE
1002
{
1000
NSB01341_3RS10_24POL
1002
}
  0
LINE
  5
14849
330
1F
100
AcDbEntity
  8
11000_Left
  6
HIDDEN
 62
     7
370
     9
100
AcDbLine
 39
0.25
 10
1188.775520462782
 20
320.7267876292019
 30
-1.000000000000001
 11
1186.775520462783
 21
322.7267876292019
 31
-1.000000000000001
1001
AUSTER_ANSICHT
1002
{
1000
Det03
1002
}
1001
AUSTER_FOLIE
1002
{
1000
NSB01341_3RS10_24POL
1002
}
  0
LINE
  5
1484A
330
1F
100
AcDbEntity
  8
11000_Left
  6
HIDDEN
 62
     7
370
     9
100
AcDbLine
 39
0.25
 10
1188.775520462782
 20
320.7267876292019
 30
-1.000000000000001
 11
1186.775520462783
 21
322.7267876292019
 31
-1.000000000000001
1001
AUSTER_ANSICHT
1002
{
1000
Det03
1002
}
1001
AUSTER_FOLIE
1002
{
1000
NSB01341_3RS10_24POL
1002
}
  0
ARC
  5
1484B
330
1F
100
AcDbEntity
  8
11000_Left
  6
HIDDEN
 62
     7
370
     9
100
AcDbCircle
 39
0.25
 10
1184.875520462782
 20
318.8267876292018
 30
-1.000000000000001
 40
1.9
100
AcDbArc
 50
0.0000000107509873
 51
90.0
1001
AUSTER_ANSICHT
1002
{
1000
Det03
1002
}
1001
AUSTER_FOLIE
1002
{
1000
NSB01341_3RS10_24POL
1002
}
  0
ARC
  5
1484C
330
1F
100
AcDbEntity
  8
11000_Left
  6
HIDDEN
 62
     7
370
     9
100
AcDbCircle
 39
0.25
 10
1184.875520462782
 20
318.8267876292018
 30
-1.000000000000001
 40
1.9
100
AcDbArc
 50
0.0000000107509873
 51
90.0
1001
AUSTER_ANSICHT
1002
{
1000
Det03
1002
}
1001
AUSTER_FOLIE
1002
{
1000
NSB01341_3RS10_24POL
1002
}
  0
ARC
  5
1484D
330
1F
100
AcDbEntity
  8
11000_Left
  6
HIDDEN
 62
     7
370
     9
100
AcDbCircle
 39
0.25
 10
1184.875520462782
 20
318.8267876292018
 30
-1.000000000000001
 40
1.9
100
AcDbArc
 50
0.0000000107509873
 51
90.0
1001
AUSTER_ANSICHT
1002
{
1000
Det03
1002
}
1001
AUSTER_FOLIE
1002
{
1000
NSB01341_3RS10_24POL
1002
}
  0
ARC
  5
1484E
330
1F
100
AcDbEntity
  8
11000_Left
  6
HIDDEN
 62
     7
370
     9
100
AcDbCircle
 39
0.25
 10
1184.775520462783
 20
323.7267876292019
 30
-1.000000000000001
 40
1.0
100
AcDbArc
 50
180.0
 51
270.0
1001
AUSTER_ANSICHT
1002
{
1000
Det03
1002
}
1001
AUSTER_FOLIE
1002
{
1000
NSB01341_3RS10_24POL
1002
}
  0
ARC
  5
1484F
330
1F
100
AcDbEntity
  8
11000_Left
  6
HIDDEN
 62
     7
370
     9
100
AcDbCircle
 39
0.25
 10
1184.775520462783
 20
323.7267876292019
 30
-1.000000000000001
 40
1.0
100
AcDbArc
 50
180.0
 51
270.0
1001
AUSTER_ANSICHT
1002
{
1000
Det03
1002
}
1001
AUSTER_FOLIE
1002
{
1000
NSB01341_3RS10_24POL
1002
}
  0
ARC
  5
14850
330
1F
100
AcDbEntity
  8
11000_Left
  6
HIDDEN
 62
     7
370
     9
100
AcDbCircle
 39
0.25
 10
1184.775520462783
 20
323.7267876292019
 30
-1.000000000000001
 40
1.0
100
AcDbArc
 50
180.0
 51
270.0
1001
AUSTER_ANSICHT
1002
{
1000
Det03
1002
}
1001
AUSTER_FOLIE
1002
{
1000
NSB01341_3RS10_24POL
1002
}
  0
LINE
  5
14851
330
1F
100
AcDbEntity
  8
11000_Left
  6
HIDDEN
 62
     7
370
     9
100
AcDbLine
 39
0.25
 10
1187.775520462782
 20
318.0767876292019
 30
-1.000000000000001
 11
1187.775608812709
 21
315.6739725488838
 31
-0.5
1001
AUSTER_ANSICHT
1002
{
1000
Det03
1002
}
1001
AUSTER_FOLIE
1002
{
1000
NSB01341_3RS10_24POL
1002
}
  0
LINE
  5
14852
330
1F
100
AcDbEntity
  8
11000_Left
  6
HIDDEN
 62
     7
370
     9
100
AcDbLine
 39
0.25
 10
1187.775520462782
 20
318.0767876292019
 30
-1.000000000000001
 11
1187.775608812709
 21
315.6739725488838
 31
-0.25
1001
AUSTER_ANSICHT
1002
{
1000
Det03
1002
}
1001
AUSTER_FOLIE
1002
{
1000
NSB01341_3RS10_24POL
1002
}
  0
LINE
  5
14853
330
1F
100
AcDbEntity
  8
11000_Left
  6
HIDDEN
 62
     7
370
     9
100
AcDbLine
 39
0.25
 10
1184.875520462782
 20
345.7267876292019
 30
-0.0000000000000036
 11
1183.275520462782
 21
345.7267876292019
 31
-0.0000000000000036
1001
AUSTER_ANSICHT
1002
{
1000
Det03
1002
}
1001
AUSTER_FOLIE
1002
{
1000
NSB01341_3RS10_24POL
1002
}
  0
LINE
  5
14854
330
1F
100
AcDbEntity
  8
11000_Left
  6
HIDDEN
 62
     7
370
     9
100
AcDbLine
 39
0.25
 10
1184.875520462782
 20
345.7267876292019
 30
-0.0000000000000036
 11
1183.275520462782
 21
345.7267876292019
 31
-0.0000000000000036
1001
AUSTER_ANSICHT
1002
{
1000
Det03
1002
}
1001
AUSTER_FOLIE
1002
{
1000
NSB01341_3RS10_24POL
1002
}
  0
LINE
  5
14855
330
1F
100
AcDbEntity
  8
11000_Left
  6
HIDDEN
 62
     7
370
     9
100
AcDbLine
 39
0.25
 10
1184.875520462782
 20
345.7267876292019
 30
-0.0000000000000036
 11
1183.275520462782
 21
345.7267876292019
 31
-0.0000000000000036
1001
AUSTER_ANSICHT
1002
{
1000
Det03
1002
}
1001
AUSTER_FOLIE
1002
{
1000
NSB01341_3RS10_24POL
1002
}
  0
LINE
  5
14856
330
1F
100
AcDbEntity
  8
11000_Left
  6
HIDDEN
 62
     7
370
     9
100
AcDbLine
 39
0.25
 10
1181.275520462782
 20
343.7267876292019
 30
-0.0000000000000036
 11
1181.275520462782
 21
322.7267876292019
 31
-0.0000000000000036
1001
AUSTER_ANSICHT
1002
{
1000
Det03
1002
}
1001
AUSTER_FOLIE
1002
{
1000
NSB01341_3RS10_24POL
1002
}
  0
LINE
  5
14857
330
1F
100
AcDbEntity
  8
11000_Left
  6
HIDDEN
 62
     7
370
     9
100
AcDbLine
 39
0.25
 10
1181.275520462782
 20
343.7267876292019
 30
-0.0000000000000036
 11
1181.275520462782
 21
322.7267876292019
 31
-0.0000000000000036
1001
AUSTER_ANSICHT
1002
{
1000
Det03
1002
}
1001
AUSTER_FOLIE
1002
{
1000
NSB01341_3RS10_24POL
1002
}
  0
LINE
  5
14858
330
1F
100
AcDbEntity
  8
11000_Left
  6
HIDDEN
 62
     7
370
     9
100
AcDbLine
 39
0.25
 10
1181.275520462782
 20
343.7267876292019
 30
-0.0000000000000036
 11
1181.275520462782
 21
322.7267876292019
 31
-0.0000000000000036
1001
AUSTER_ANSICHT
1002
{
1000
Det03
1002
}
1001
AUSTER_FOLIE
1002
{
1000
NSB01341_3RS10_24POL
1002
}
  0
ARC
  5
14859
330
1F
100
AcDbEntity
  8
11000_Left
  6
HIDDEN
 62
     7
370
     9
100
AcDbCircle
 39
0.25
 10
1183.275520462782
 20
343.7267876292019
 30
-0.0000000000000039
 40
2.0
100
AcDbArc
 50
90.0
 51
180.0
1001
AUSTER_ANSICHT
1002
{
1000
Det03
1002
}
1001
AUSTER_FOLIE
1002
{
1000
NSB01341_3RS10_24POL
1002
}
  0
LINE
  5
1485A
330
1F
100
AcDbEntity
  8
11000_Left
  6
HIDDEN
 62
     7
370
     9
100
AcDbLine
 39
0.25
 10
1187.275520462782
 20
347.876787629202
 30
-1.000000000000001
 11
1186.775520462783
 21
347.876787629202
 31
-1.000000000000001
1001
AUSTER_ANSICHT
1002
{
1000
Det03
1002
}
1001
AUSTER_FOLIE
1002
{
1000
NSB01341_3RS10_24POL
1002
}
  0
LINE
  5
1485B
330
1F
100
AcDbEntity
  8
11000_Left
  6
HIDDEN
 62
     7
370
     9
100
AcDbLine
 39
0.25
 10
1184.775520462783
 20
343.7267876292019
 30
-1.000000000000001
 11
1186.775520462783
 21
343.7267876292019
 31
-1.000000000000001
1001
AUSTER_ANSICHT
1002
{
1000
Det03
1002
}
1001
AUSTER_FOLIE
1002
{
1000
NSB01341_3RS10_24POL
1002
}
  0
LINE
  5
1485C
330
1F
100
AcDbEntity
  8
11000_Left
  6
HIDDEN
 62
     7
370
     9
100
AcDbLine
 39
0.25
 10
1184.775520462783
 20
343.7267876292019
 30
-1.000000000000001
 11
1186.775520462783
 21
343.7267876292019
 31
-1.000000000000001
1001
AUSTER_ANSICHT
1002
{
1000
Det03
1002
}
1001
AUSTER_FOLIE
1002
{
1000
NSB01341_3RS10_24POL
1002
}
  0
LINE
  5
1485D
330
1F
100
AcDbEntity
  8
11000_Left
  6
HIDDEN
 62
     7
370
     9
100
AcDbLine
 39
0.25
 10
1184.775520462783
 20
343.7267876292019
 30
-1.000000000000001
 11
1186.775520462783
 21
343.7267876292019
 31
-1.000000000000001
1001
AUSTER_ANSICHT
1002
{
1000
Det03
1002
}
1001
AUSTER_FOLIE
1002
{
1000
NSB01341_3RS10_24POL
1002
}
  0
LINE
  5
1485E
330
1F
100
AcDbEntity
  8
11000_Left
  6
HIDDEN
 62
     7
370
     9
100
AcDbLine
 39
0.25
 10
1188.775520462782
 20
345.7267876292019
 30
-1.000000000000001
 11
1186.775520462783
 21
343.7267876292019
 31
-1.000000000000001
1001
AUSTER_ANSICHT
1002
{
1000
Det03
1002
}
1001
AUSTER_FOLIE
1002
{
1000
NSB01341_3RS10_24POL
1002
}
  0
LINE
  5
1485F
330
1F
100
AcDbEntity
  8
11000_Left
  6
HIDDEN
 62
     7
370
     9
100
AcDbLine
 39
0.25
 10
1188.775520462782
 20
345.7267876292019
 30
-1.000000000000001
 11
1186.775520462783
 21
343.7267876292019
 31
-1.000000000000001
1001
AUSTER_ANSICHT
1002
{
1000
Det03
1002
}
1001
AUSTER_FOLIE
1002
{
1000
NSB01341_3RS10_24POL
1002
}
  0
LINE
  5
14860
330
1F
100
AcDbEntity
  8
11000_Left
  6
HIDDEN
 62
     7
370
     9
100
AcDbLine
 39
0.25
 10
1188.775520462782
 20
345.7267876292019
 30
-1.000000000000001
 11
1186.775520462783
 21
343.7267876292019
 31
-1.000000000000001
1001
AUSTER_ANSICHT
1002
{
1000
Det03
1002
}
1001
AUSTER_FOLIE
1002
{
1000
NSB01341_3RS10_24POL
1002
}
  0
LINE
  5
14861
330
1F
100
AcDbEntity
  8
11000_Left
  6
HIDDEN
 62
     7
370
     9
100
AcDbLine
 39
0.25
 10
1183.775520462782
 20
342.7267876292019
 30
-1.000000000000001
 11
1183.775520462782
 21
333.2267876292019
 31
-1.000000000000001
1001
AUSTER_ANSICHT
1002
{
1000
Det03
1002
}
1001
AUSTER_FOLIE
1002
{
1000
NSB01341_3RS10_24POL
1002
}
  0
LINE
  5
14862
330
1F
100
AcDbEntity
  8
11000_Left
  6
HIDDEN
 62
     7
370
     9
100
AcDbLine
 39
0.25
 10
1183.775520462782
 20
342.7267876292019
 30
-1.000000000000001
 11
1183.775520462782
 21
333.2267876292019
 31
-1.000000000000001
1001
AUSTER_ANSICHT
1002
{
1000
Det03
1002
}
1001
AUSTER_FOLIE
1002
{
1000
NSB01341_3RS10_24POL
1002
}
  0
LINE
  5
14863
330
1F
100
AcDbEntity
  8
11000_Left
  6
HIDDEN
 62
     7
370
     9
100
AcDbLine
 39
0.25
 10
1183.775520462782
 20
342.7267876292019
 30
-1.000000000000001
 11
1183.775520462782
 21
333.2267876292019
 31
-1.000000000000001
1001
AUSTER_ANSICHT
1002
{
1000
Det03
1002
}
1001
AUSTER_FOLIE
1002
{
1000
NSB01341_3RS10_24POL
1002
}
  0
ARC
  5
14864
330
1F
100
AcDbEntity
  8
11000_Left
  6
HIDDEN
 62
     7
370
     9
100
AcDbCircle
 39
0.25
 10
1184.775520462783
 20
342.7267876292019
 30
-1.000000000000001
 40
1.0
100
AcDbArc
 50
90.0
 51
180.0
1001
AUSTER_ANSICHT
1002
{
1000
Det03
1002
}
1001
AUSTER_FOLIE
1002
{
1000
NSB01341_3RS10_24POL
1002
}
  0
ARC
  5
14865
330
1F
100
AcDbEntity
  8
11000_Left
  6
HIDDEN
 62
     7
370
     9
100
AcDbCircle
 39
0.25
 10
1184.775520462783
 20
342.7267876292019
 30
-1.000000000000001
 40
1.0
100
AcDbArc
 50
90.0
 51
180.0
1001
AUSTER_ANSICHT
1002
{
1000
Det03
1002
}
1001
AUSTER_FOLIE
1002
{
1000
NSB01341_3RS10_24POL
1002
}
  0
ARC
  5
14866
330
1F
100
AcDbEntity
  8
11000_Left
  6
HIDDEN
 62
     7
370
     9
100
AcDbCircle
 39
0.25
 10
1184.775520462783
 20
342.7267876292019
 30
-1.000000000000001
 40
1.0
100
AcDbArc
 50
90.0
 51
180.0
1001
AUSTER_ANSICHT
1002
{
1000
Det03
1002
}
1001
AUSTER_FOLIE
1002
{
1000
NSB01341_3RS10_24POL
1002
}
  0
ARC
  5
14867
330
1F
100
AcDbEntity
  8
11000_Left
  6
HIDDEN
 62
     7
370
     9
100
AcDbCircle
 39
0.25
 10
1184.875520462782
 20
347.626787629202
 30
-1.000000000000001
 40
1.9
100
AcDbArc
 50
270.0
 51
0.0
1001
AUSTER_ANSICHT
1002
{
1000
Det03
1002
}
1001
AUSTER_FOLIE
1002
{
1000
NSB01341_3RS10_24POL
1002
}
  0
ARC
  5
14868
330
1F
100
AcDbEntity
  8
11000_Left
  6
HIDDEN
 62
     7
370
     9
100
AcDbCircle
 39
0.25
 10
1184.875520462782
 20
347.626787629202
 30
-1.000000000000001
 40
1.9
100
AcDbArc
 50
270.0
 51
0.0
1001
AUSTER_ANSICHT
1002
{
1000
Det03
1002
}
1001
AUSTER_FOLIE
1002
{
1000
NSB01341_3RS10_24POL
1002
}
  0
ARC
  5
14869
330
1F
100
AcDbEntity
  8
11000_Left
  6
HIDDEN
 62
     7
370
     9
100
AcDbCircle
 39
0.25
 10
1184.875520462782
 20
347.626787629202
 30
-1.000000000000001
 40
1.9
100
AcDbArc
 50
270.0
 51
0.0
1001
AUSTER_ANSICHT
1002
{
1000
Det03
1002
}
1001
AUSTER_FOLIE
1002
{
1000
NSB01341_3RS10_24POL
1002
}
  0
ARC
  5
1486A
330
1F
100
AcDbEntity
  8
11000_Left
  6
HIDDEN
 62
     7
370
     9
100
AcDbCircle
 39
0.25
 10
1187.275520462782
 20
348.3767876292019
 30
-1.000000000000001
 40
0.5
100
AcDbArc
 50
270.0
 51
0.0
1001
AUSTER_ANSICHT
1002
{
1000
Det03
1002
}
1001
AUSTER_FOLIE
1002
{
1000
NSB01341_3RS10_24POL
1002
}
  0
ARC
  5
1486B
330
1F
100
AcDbEntity
  8
11000_Left
  6
HIDDEN
 62
     7
370
     9
100
AcDbCircle
 39
0.25
 10
1187.275520462782
 20
348.3767876292019
 30
-1.000000000000001
 40
0.5
100
AcDbArc
 50
270.0
 51
0.0
1001
AUSTER_ANSICHT
1002
{
1000
Det03
1002
}
1001
AUSTER_FOLIE
1002
{
1000
NSB01341_3RS10_24POL
1002
}
  0
ARC
  5
1486C
330
1F
100
AcDbEntity
  8
11000_Left
  6
HIDDEN
 62
     7
370
     9
100
AcDbCircle
 39
0.25
 10
1187.275520462782
 20
348.3767876292019
 30
-1.000000000000001
 40
0.5
100
AcDbArc
 50
270.0
 51
0.0
1001
AUSTER_ANSICHT
1002
{
1000
Det03
1002
}
1001
AUSTER_FOLIE
1002
{
1000
NSB01341_3RS10_24POL
1002
}
  0
LINE
  5
1486D
330
1F
100
AcDbEntity
  8
11000_Left
  6
HIDDEN
 62
     7
370
     9
100
AcDbLine
 39
0.25
 10
1187.775520462782
 20
348.3767876292019
 30
-1.000000000000001
 11
1187.775520462782
 21
350.876787629202
 31
-1.000000000000001
1001
AUSTER_ANSICHT
1002
{
1000
Det03
1002
}
1001
AUSTER_FOLIE
1002
{
1000
NSB01341_3RS10_24POL
1002
}
  0
DIMENSION
  5
1486E
102
{ACAD_XDICTIONARY
360
1487D
102
}
102
{ACAD_REACTORS
330
14889
102
}
330
1F
100
AcDbEntity
  8
11100_LEFT_DIM
  6
Continuous
 62
     7
370
    13
100
AcDbDimension
  2
*D15
 10
1184.475608812709
 20
279.000383671822
 30
0.0
 11
1175.683942146043
 21
279.000383671822
 31
0.0
 70
    32
 71
     5
 42
4.299999999999954
  3
DSTYLE1
100
AcDbAlignedDimension
 13
1188.775608812709
 23
313.6739725488838
 33
0.0
 14
1184.475608812709
 24
285.7739725488839
 34
0.0
100
AcDbRotatedDimension
1001
ACAD
1000
DSTYLE
1002
{
1070
    41
1040
2.0
1070
    42
1040
1.0
1070
    43
1040
1.0
1070
    47
1040
0.005
1070
    48
1040
-0.005
1070
    77
1070
     0
1070
    78
1070
     0
1070
   140
1040
3.5
1070
   143
1040
25.4
1070
   171
1070
     0
1070
   172
1070
     1
1070
   271
1070
     1
1070
   272
1070
     1
1070
   277
1070
     6
1070
   279
1070
     0
1002
}
  0
LINE
  5
14894
330
1F
100
AcDbEntity
  8
11000_Left
  6
HIDDEN
 62
     7
370
     9
100
AcDbLine
 39
0.25
 10
1250.27560881271
 20
380.4739725488838
 30
0.0
 11
1250.27560881271
 21
361.6629136265467
 31
0.0
  0
LINE
  5
14895
330
1F
100
AcDbEntity
  8
11000_Left
  6
HIDDEN
 62
     7
370
     9
100
AcDbLine
 39
0.25
 10
1256.67560881271
 20
380.4739725488838
 30
0.0
 11
1256.67560881271
 21
361.6629136265467
 31
0.0
  0
LINE
  5
14898
330
1F
100
AcDbEntity
  8
11000_Left
  6
HIDDEN
 62
     7
370
     9
100
AcDbLine
 39
0.25
 10
1256.67560881271
 20
361.6629136265467
 30
0.0
 11
1250.27560881271
 21
361.6629136265467
 31
0.0
  0
LINE
  5
1489A
330
1F
100
AcDbEntity
  8
11000_Left
  6
HIDDEN
 62
     7
370
     9
100
AcDbLine
 39
0.25
 10
1250.27560881271
 20
285.8739725488838
 30
0.0
 11
1250.27560881271
 21
304.6850314712209
 31
0.0
  0
LINE
  5
1489B
330
1F
100
AcDbEntity
  8
11000_Left
  6
HIDDEN
 62
     7
370
     9
100
AcDbLine
 39
0.25
 10
1256.67560881271
 20
285.8739725488838
 30
0.0
 11
1256.67560881271
 21
304.685031471221
 31
0.0
  0
LINE
  5
1489C
330
1F
100
AcDbEntity
  8
11000_Left
  6
HIDDEN
 62
     7
370
     9
100
AcDbLine
 39
0.25
 10
1256.67560881271
 20
304.685031471221
 30
0.0
 11
1250.27560881271
 21
304.685031471221
 31
0.0
  0
DIMENSION
  5
1489D
330
1F
100
AcDbEntity
  8
11100_LEFT_DIM
  6
Continuous
 62
     7
370
    13
100
AcDbDimension
  2
*D17
 10
1250.27560881271
 20
279.000383671822
 30
0.0
 11
1219.52560881271
 21
279.000383671822
 31
0.0
 70
    32
 71
     5
 42
61.50000000000023
  3
DSTYLE1
100
AcDbAlignedDimension
 13
1188.775608812709
 23
285.7739725488839
 33
0.0
 14
1250.27560881271
 24
285.8739725488838
 34
0.0
100
AcDbRotatedDimension
1001
ACAD
1000
DSTYLE
1002
{
1070
    41
1040
2.0
1070
    42
1040
1.0
1070
    43
1040
1.0
1070
    47
1040
0.005
1070
    48
1040
-0.005
1070
    77
1070
     0
1070
    78
1070
     0
1070
   140
1040
3.5
1070
   143
1040
25.4
1070
   171
1070
     0
1070
   172
1070
     1
1070
   271
1070
     0
1070
   272
1070
     1
1070
   277
1070
     6
1070
   279
1070
     0
1002
}
  0
DIMENSION
  5
148B7
330
1F
100
AcDbEntity
  8
11100_LEFT_DIM
  6
Continuous
 62
     7
370
    13
100
AcDbDimension
  2
*D18
 10
1272.77560881271
 20
266.4815455734412
 30
0.0
 11
1230.77560881271
 21
266.4815455734412
 31
0.0
 70
    32
 71
     5
 42
84.00000000000023
  3
DSTYLE1
100
AcDbAlignedDimension
 13
1188.775608812709
 23
285.1489725488839
 33
0.0
 14
1272.77560881271
 24
321.3258578016937
 34
0.0
100
AcDbRotatedDimension
1001
ACAD
1000
DSTYLE
1002
{
1070
    41
1040
2.0
1070
    42
1040
1.0
1070
    43
1040
1.0
1070
    47
1040
0.005
1070
    48
1040
-0.005
1070
    77
1070
     0
1070
    78
1070
     0
1070
   140
1040
3.5
1070
   143
1040
25.4
1070
   171
1070
     0
1070
   172
1070
     1
1070
   271
1070
     0
1070
   272
1070
     1
1070
   277
1070
     6
1070
   279
1070
     0
1002
}
  0
DIMENSION
  5
148EF
330
1F
100
AcDbEntity
  8
11100_LEFT_DIM
  6
Continuous
 62
     7
370
    13
100
AcDbDimension
  2
*D19
 10
1268.66278881271
 20
272.6539409077297
 30
0.0
 11
1228.719198812709
 21
272.6539409077297
 31
0.0
 70
    32
 71
     5
 42
79.88718000000017
  3
DSTYLE1
100
AcDbAlignedDimension
 13
1188.775608812709
 23
279.000383671822
 33
0.0
 14
1268.66278881271
 24
300.7464567283067
 34
0.0
100
AcDbRotatedDimension
1001
ACAD
1000
DSTYLE
1002
{
1070
    41
1040
2.0
1070
    42
1040
1.0
1070
    43
1040
1.0
1070
    47
1040
0.005
1070
    48
1040
-0.005
1070
    77
1070
     0
1070
    78
1070
     0
1070
   140
1040
3.5
1070
   143
1040
25.4
1070
   171
1070
     0
1070
   172
1070
     1
1070
   271
1070
     0
1070
   272
1070
     1
1070
   277
1070
     6
1070
   279
1070
     0
1002
}
  0
DIMENSION
  5
1491D
330
1F
100
AcDbEntity
  8
11100_LEFT_DIM
  6
Continuous
 62
     7
370
    13
100
AcDbDimension
  2
*D20
 10
1285.1308883737
 20
260.4526948442124
 30
0.0
 11
1236.953248593205
 21
260.4526948442124
 31
0.0
 70
    32
 71
     5
 42
96.35527956099053
  3
DSTYLE1
100
AcDbAlignedDimension
 13
1188.775608812709
 23
285.7739725488839
 33
0.0
 14
1285.1308883737
 24
320.2808693916553
 34
0.0
100
AcDbRotatedDimension
1001
ACAD
1000
DSTYLE
1002
{
1070
    41
1040
2.0
1070
    42
1040
1.0
1070
    43
1040
1.0
1070
    47
1040
0.005
1070
    48
1040
-0.005
1070
    77
1070
     0
1070
    78
1070
     0
1070
   140
1040
3.5
1070
   143
1040
25.4
1070
   171
1070
     0
1070
   172
1070
     1
1070
   271
1070
     0
1070
   272
1070
     1
1070
   277
1070
     6
1070
   279
1070
     0
1002
}
  0
DIMENSION
  5
149BB
330
1F
100
AcDbEntity
  8
10100_FRONT_DIM
  6
Continuous
 62
     7
370
    13
100
AcDbDimension
  2
*D21
 10
1115.469690882931
 20
279.000383671822
 30
0.0
 11
1108.269688382931
 21
279.000383671822
 31
0.0
 70
    32
 71
     5
 42
14.40000499999996
  3
DSTYLE1
100
AcDbAlignedDimension
 13
1101.069685882931
 23
285.7739725488839
 33
0.0
 14
1115.469690882931
 24
285.7739725488839
 34
0.0
100
AcDbRotatedDimension
1001
ACAD
1000
DSTYLE
1002
{
1070
    41
1040
2.0
1070
    42
1040
1.0
1070
    43
1040
1.0
1070
    47
1040
0.005
1070
    48
1040
-0.005
1070
    77
1070
     0
1070
    78
1070
     0
1070
   140
1040
3.5
1070
   143
1040
25.4
1070
   171
1070
     0
1070
   172
1070
     1
1070
   271
1070
     1
1070
   272
1070
     1
1070
   277
1070
     6
1070
   279
1070
     0
1002
}
  0
DIMENSION
  5
149D9
102
{ACAD_XDICTIONARY
360
149E7
102
}
102
{ACAD_REACTORS
330
149F2
102
}
330
1F
100
AcDbEntity
  8
10100_FRONT_DIM
  6
Continuous
 62
     7
370
    13
100
AcDbDimension
  2
*D22
 10
1093.069683882931
 20
279.000383671822
 30
0.0
 11
1088.903017216264
 21
279.000383671822
 31
0.0
 70
    32
 71
     5
 42
8.000001999999994
  3
DSTYLE1
100
AcDbAlignedDimension
 13
1101.069685882931
 23
285.7739725488839
 33
0.0
 14
1093.069683882931
 24
286.5739725488839
 34
0.0
100
AcDbRotatedDimension
1001
ACAD
1000
DSTYLE
1002
{
1070
    41
1040
2.0
1070
    42
1040
1.0
1070
    43
1040
1.0
1070
    47
1040
0.005
1070
    48
1040
-0.005
1070
    77
1070
     0
1070
    78
1070
     0
1070
   140
1040
3.5
1070
   143
1040
25.4
1070
   171
1070
     0
1070
   172
1070
     1
1070
   271
1070
     0
1070
   272
1070
     1
1070
   277
1070
     6
1070
   279
1070
     0
1002
}
  0
LINE
  5
1FE47
330
1F
100
AcDbEntity
  8
10000_FRONT
  6
Continuous
 62
     7
370
    13
100
AcDbLine
 10
1114.491556882931
 20
324.975872548884
 30
0.0
 11
1111.862785882931
 21
322.3471025488837
 31
0.0
  0
LINE
  5
1FE48
330
1F
100
AcDbEntity
  8
10000_FRONT
  6
Continuous
 62
     7
370
    13
100
AcDbLine
 10
1119.571556882931
 20
324.975872548884
 30
0.0
 11
1116.942785882931
 21
322.3471025488837
 31
0.0
  0
LINE
  5
1FE49
330
1F
100
AcDbEntity
  8
10000_FRONT
  6
Continuous
 62
     7
370
    13
100
AcDbLine
 10
1124.169683882931
 20
336.6248425488837
 30
0.0
 11
1106.769683882931
 21
336.6248425488837
 31
0.0
  0
LINE
  5
1FE4A
330
1F
100
AcDbEntity
  8
10000_FRONT
  6
Continuous
 62
     7
370
    13
100
AcDbLine
 10
1124.169683882931
 20
309.2179825488839
 30
0.0
 11
1124.169683882931
 21
336.6248425488837
 31
0.0
  0
LINE
  5
1FE4B
330
1F
100
AcDbEntity
  8
10000_FRONT
  6
Continuous
 62
     7
370
    13
100
AcDbLine
 10
1119.964967757222
 20
309.2179825488839
 30
0.0
 11
1124.169683882931
 21
309.2179825488839
 31
0.0
  0
LINE
  5
1FE4C
330
1F
100
AcDbEntity
  8
10000_FRONT
  6
Continuous
 62
     7
370
    13
100
AcDbLine
 10
1106.769683882931
 20
309.2179825488839
 30
0.0
 11
1110.974402008639
 21
309.2179825488839
 31
0.0
  0
LINE
  5
1FE4D
330
1F
100
AcDbEntity
  8
10000_FRONT
  6
Continuous
 62
     7
370
    13
100
AcDbLine
 10
1106.769683882931
 20
336.6248425488837
 30
0.0
 11
1106.769683882931
 21
309.2179825488839
 31
0.0
  0
CIRCLE
  5
1FE4E
330
1F
100
AcDbEntity
  8
10000_FRONT
  6
Continuous
 62
     7
370
    13
100
AcDbCircle
 10
1129.869683882931
 20
324.4239725488838
 30
0.0
 40
1.95
  0
LINE
  5
1FE4F
330
1F
100
AcDbEntity
  8
10000_FRONT
  6
Continuous
 62
     7
370
    13
100
AcDbLine
 10
1110.389687882931
 20
320.0589725488838
 30
0.0
 11
1120.549687882931
 21
320.0589725488838
 31
0.0
  0
LINE
  5
1FE50
330
1F
100
AcDbEntity
  8
10000_FRONT
  6
Continuous
 62
     7
370
    13
100
AcDbLine
 10
1110.389677882931
 20
318.2389725488838
 30
0.0
 11
1120.549697882931
 21
318.2389725488838
 31
0.0
  0
LINE
  5
1FE51
330
1F
100
AcDbEntity
  8
10000_FRONT
  6
Continuous
 62
     7
370
    13
100
AcDbLine
 10
1120.549697882931
 20
330.8389725488837
 30
0.0
 11
1110.389677882931
 21
330.8389725488837
 31
0.0
  0
LINE
  5
1FE52
330
1F
100
AcDbEntity
  8
10000_FRONT
  6
Continuous
 62
     7
370
    13
100
AcDbLine
 10
1120.549697882931
 20
326.378972548884
 30
0.0
 11
1110.389677882931
 21
326.378972548884
 31
0.0
  0
LINE
  5
1FE53
330
1F
100
AcDbEntity
  8
10000_FRONT
  6
Continuous
 62
     7
370
    13
100
AcDbLine
 10
1120.549697882931
 20
330.8389725488837
 30
0.0
 11
1120.549697882931
 21
318.2389725488838
 31
0.0
  0
LINE
  5
1FE54
330
1F
100
AcDbEntity
  8
10000_FRONT
  6
Continuous
 62
     7
370
    13
100
AcDbLine
 10
1110.389677882931
 20
330.8389725488837
 30
0.0
 11
1110.389677882931
 21
318.2389725488838
 31
0.0
  0
LINE
  5
1FE55
330
1F
100
AcDbEntity
  8
10000_FRONT
  6
Continuous
 62
     7
370
    13
100
AcDbLine
 10
1119.571556882931
 20
324.975872548884
 30
0.0
 11
1119.571560882931
 21
324.975872548884
 31
0.0
  0
LINE
  5
1FE56
330
1F
100
AcDbEntity
  8
10000_FRONT
  6
Continuous
 62
     7
370
    13
100
AcDbLine
 10
1119.076585882931
 20
325.4708525488839
 30
0.0
 11
1119.076581882931
 21
325.4708425488837
 31
0.0
  0
LINE
  5
1FE57
330
1F
100
AcDbEntity
  8
10000_FRONT
  6
Continuous
 62
     7
370
    13
100
AcDbLine
 10
1116.447817882931
 20
322.8420825488839
 30
0.0
 11
1116.447814882931
 21
322.8420825488839
 31
0.0
  0
LINE
  5
1FE58
330
1F
100
AcDbEntity
  8
10000_FRONT
  6
Continuous
 62
     7
370
    13
100
AcDbLine
 10
1116.447814882931
 20
322.8420825488839
 30
0.0
 11
1119.076585882931
 21
325.4708525488839
 31
0.0
  0
ARC
  5
1FE59
330
1F
100
AcDbEntity
  8
10000_FRONT
  6
Continuous
 62
     7
370
    13
100
AcDbCircle
 10
1118.009687882931
 20
323.9089725488837
 30
0.0
 40
2.0
100
AcDbArc
 50
270.0
 51
90.0
  0
ARC
  5
1FE5A
330
1F
100
AcDbEntity
  8
10000_FRONT
  6
Continuous
 62
     7
370
    13
100
AcDbCircle
 10
1118.009687882931
 20
323.9089725488837
 30
0.0
 40
2.0
100
AcDbArc
 50
90.0
 51
270.0
  0
ARC
  5
1FE5B
330
1F
100
AcDbEntity
  8
10000_FRONT
  6
Continuous
 62
     7
370
    13
100
AcDbCircle
 10
1118.009687882931
 20
323.9089725488837
 30
0.0
 40
1.8914854
100
AcDbArc
 50
214.336549999996
 51
235.6634500000043
  0
ARC
  5
1FE5C
330
1F
100
AcDbEntity
  8
10000_FRONT
  6
Continuous
 62
     7
370
    13
100
AcDbCircle
 10
1118.009687882931
 20
323.9089725488837
 30
0.0
 40
1.8914854
100
AcDbArc
 50
34.33654999999604
 51
55.66345000000431
  0
LINE
  5
1FE5D
330
1F
100
AcDbEntity
  8
10000_FRONT
  6
Continuous
 62
     7
370
    13
100
AcDbLine
 10
1114.491556882931
 20
324.975872548884
 30
0.0
 11
1114.491560882931
 21
324.975872548884
 31
0.0
  0
LINE
  5
1FE5E
330
1F
100
AcDbEntity
  8
10000_FRONT
  6
Continuous
 62
     7
370
    13
100
AcDbLine
 10
1113.996585882931
 20
325.4708525488839
 30
0.0
 11
1113.996581882931
 21
325.4708425488837
 31
0.0
  0
LINE
  5
1FE5F
330
1F
100
AcDbEntity
  8
10000_FRONT
  6
Continuous
 62
     7
370
    13
100
AcDbLine
 10
1111.367817882931
 20
322.8420825488839
 30
0.0
 11
1111.367814882931
 21
322.8420825488839
 31
0.0
  0
LINE
  5
1FE60
330
1F
100
AcDbEntity
  8
10000_FRONT
  6
Continuous
 62
     7
370
    13
100
AcDbLine
 10
1111.367814882931
 20
322.8420825488839
 30
0.0
 11
1113.996585882931
 21
325.4708525488839
 31
0.0
  0
ARC
  5
1FE61
330
1F
100
AcDbEntity
  8
10000_FRONT
  6
Continuous
 62
     7
370
    13
100
AcDbCircle
 10
1112.929687882931
 20
323.9089725488837
 30
0.0
 40
2.0
100
AcDbArc
 50
270.0
 51
90.0
  0
ARC
  5
1FE62
330
1F
100
AcDbEntity
  8
10000_FRONT
  6
Continuous
 62
     7
370
    13
100
AcDbCircle
 10
1112.929687882931
 20
323.9089725488837
 30
0.0
 40
2.0
100
AcDbArc
 50
90.0
 51
270.0
  0
ARC
  5
1FE63
330
1F
100
AcDbEntity
  8
10000_FRONT
  6
Continuous
 62
     7
370
    13
100
AcDbCircle
 10
1112.929687882931
 20
323.9089725488837
 30
0.0
 40
1.8914854
100
AcDbArc
 50
214.336549999996
 51
235.6634500000043
  0
ARC
  5
1FE64
330
1F
100
AcDbEntity
  8
10000_FRONT
  6
Continuous
 62
     7
370
    13
100
AcDbCircle
 10
1112.929687882931
 20
323.9089725488837
 30
0.0
 40
1.8914854
100
AcDbArc
 50
34.33654999999604
 51
55.66345000000431
  0
ARC
  5
1FE67
330
1F
100
AcDbEntity
  8
11000_Left
  6
Continuous
 62
     7
370
    13
100
AcDbCircle
 10
1268.61869881271
 20
349.2239725488837
 30
0.0
 40
0.1
100
AcDbArc
 50
206.3886400000023
 51
270.0
  0
LINE
  5
1FE68
330
1F
100
AcDbEntity
  8
11000_Left
  6
Continuous
 62
     7
370
    13
100
AcDbLine
 10
1268.625608812709
 20
342.1239725488839
 30
0.0
 11
1268.62553881271
 21
342.1239725488839
 31
0.0
  0
LINE
  5
1FE69
330
1F
100
AcDbEntity
  8
11000_Left
  6
Continuous
 62
     7
370
    13
100
AcDbLine
 10
1268.625608812709
 20
342.1239725488839
 30
0.0
 11
1268.725608812709
 21
342.2239725488838
 31
0.0
  0
LINE
  5
1FE6A
330
1F
100
AcDbEntity
  8
11000_Left
  6
Continuous
 62
     7
370
    13
100
AcDbLine
 10
1268.725608812709
 20
349.0239725488839
 30
0.0
 11
1268.625608812709
 21
349.1239725488838
 31
0.0
  0
LINE
  5
1FE6B
330
1F
100
AcDbEntity
  8
11000_Left
  6
Continuous
 62
     7
370
    13
100
AcDbLine
 10
1268.725608812709
 20
349.0239725488839
 30
0.0
 11
1268.725608812709
 21
342.2239725488838
 31
0.0
  0
POLYLINE
  5
1FE6C
330
1F
100
AcDbEntity
  8
11000_Left
  6
Continuous
 62
     7
370
    13
100
AcDb2dPolyline
 66
     1
 10
0.0
 20
0.0
 30
0.0
 70
     2
  0
VERTEX
  5
1FE6D
330
1FE6C
100
AcDbEntity
  8
11000_Left
  6
Continuous
 62
     7
370
    13
100
AcDbVertex
100
AcDb2dVertex
 10
1268.515478812709
 20
349.1795625488838
 30
0.0
  0
VERTEX
  5
1FE6E
330
1FE6C
100
AcDbEntity
  8
11000_Left
  6
Continuous
 62
     7
370
    13
100
AcDbVertex
100
AcDb2dVertex
 10
1268.51611881271
 20
349.1795625488838
 30
0.0
 42
0.0000007314
 70
     1
  0
VERTEX
  5
1FE6F
330
1FE6C
100
AcDbEntity
  8
11000_Left
  6
Continuous
 62
     7
370
    13
100
AcDbVertex
100
AcDb2dVertex
 10
1268.51674881271
 20
349.1795625488838
 30
0.0
 42
0.0000006704
  0
VERTEX
  5
1FE70
330
1FE6C
100
AcDbEntity
  8
11000_Left
  6
Continuous
 62
     7
370
    13
100
AcDbVertex
100
AcDb2dVertex
 10
1268.51735881271
 20
349.1795625488838
 30
0.0
 42
0.0000008032
 70
     1
  0
VERTEX
  5
1FE71
330
1FE6C
100
AcDbEntity
  8
11000_Left
  6
Continuous
 62
     7
370
    13
100
AcDbVertex
100
AcDb2dVertex
 10
1268.517948812709
 20
349.1795525488838
 30
0.0
 42
0.0000011743
  0
VERTEX
  5
1FE72
330
1FE6C
100
AcDbEntity
  8
11000_Left
  6
Continuous
 62
     7
370
    13
100
AcDbVertex
100
AcDb2dVertex
 10
1268.51852881271
 20
349.1795525488838
 30
0.0
 42
0.0000014907
 70
     1
  0
VERTEX
  5
1FE73
330
1FE6C
100
AcDbEntity
  8
11000_Left
  6
Continuous
 62
     7
370
    13
100
AcDbVertex
100
AcDb2dVertex
 10
1268.519098812709
 20
349.1795525488838
 30
0.0
 42
0.000001805
  0
VERTEX
  5
1FE74
330
1FE6C
100
AcDbEntity
  8
11000_Left
  6
Continuous
 62
     7
370
    13
100
AcDbVertex
100
AcDb2dVertex
 10
1268.51963881271
 20
349.1795525488838
 30
0.0
 42
0.0000021369
 70
     1
  0
VERTEX
  5
1FE75
330
1FE6C
100
AcDbEntity
  8
11000_Left
  6
Continuous
 62
     7
370
    13
100
AcDbVertex
100
AcDb2dVertex
 10
1268.52017881271
 20
349.1795525488838
 30
0.0
 42
0.0000025381
  0
VERTEX
  5
1FE76
330
1FE6C
100
AcDbEntity
  8
11000_Left
  6
Continuous
 62
     7
370
    13
100
AcDbVertex
100
AcDb2dVertex
 10
1268.52068881271
 20
349.1795525488838
 30
0.0
 42
0.0000029464
 70
     1
  0
VERTEX
  5
1FE77
330
1FE6C
100
AcDbEntity
  8
11000_Left
  6
Continuous
 62
     7
370
    13
100
AcDbVertex
100
AcDb2dVertex
 10
1268.521188812709
 20
349.1795425488839
 30
0.0
 42
0.000003414
  0
VERTEX
  5
1FE78
330
1FE6C
100
AcDbEntity
  8
11000_Left
  6
Continuous
 62
     7
370
    13
100
AcDbVertex
100
AcDb2dVertex
 10
1268.52167881271
 20
349.1795425488839
 30
0.0
 42
0.0000039033
 70
     1
  0
VERTEX
  5
1FE79
330
1FE6C
100
AcDbEntity
  8
11000_Left
  6
Continuous
 62
     7
370
    13
100
AcDbVertex
100
AcDb2dVertex
 10
1268.52214881271
 20
349.1795425488839
 30
0.0
 42
0.0000044662
  0
VERTEX
  5
1FE7A
330
1FE6C
100
AcDbEntity
  8
11000_Left
  6
Continuous
 62
     7
370
    13
100
AcDbVertex
100
AcDb2dVertex
 10
1268.52259881271
 20
349.1795425488839
 30
0.0
 42
0.0000050636
 70
     1
  0
VERTEX
  5
1FE7B
330
1FE6C
100
AcDbEntity
  8
11000_Left
  6
Continuous
 62
     7
370
    13
100
AcDbVertex
100
AcDb2dVertex
 10
1268.52303881271
 20
349.1795425488839
 30
0.0
 42
0.000005746
  0
VERTEX
  5
1FE7C
330
1FE6C
100
AcDbEntity
  8
11000_Left
  6
Continuous
 62
     7
370
    13
100
AcDbVertex
100
AcDb2dVertex
 10
1268.52345881271
 20
349.1795425488839
 30
0.0
 42
0.0000064828
 70
     1
  0
VERTEX
  5
1FE7D
330
1FE6C
100
AcDbEntity
  8
11000_Left
  6
Continuous
 62
     7
370
    13
100
AcDbVertex
100
AcDb2dVertex
 10
1268.52386881271
 20
349.1795425488839
 30
0.0
 42
0.0000073228
  0
VERTEX
  5
1FE7E
330
1FE6C
100
AcDbEntity
  8
11000_Left
  6
Continuous
 62
     7
370
    13
100
AcDbVertex
100
AcDb2dVertex
 10
1268.52425881271
 20
349.1795425488839
 30
0.0
 42
0.000008244
 70
     1
  0
VERTEX
  5
1FE7F
330
1FE6C
100
AcDbEntity
  8
11000_Left
  6
Continuous
 62
     7
370
    13
100
AcDbVertex
100
AcDb2dVertex
 10
1268.52463881271
 20
349.1795325488839
 30
0.0
 42
0.000009293
  0
VERTEX
  5
1FE80
330
1FE6C
100
AcDbEntity
  8
11000_Left
  6
Continuous
 62
     7
370
    13
100
AcDbVertex
100
AcDb2dVertex
 10
1268.52499881271
 20
349.1795325488839
 30
0.0
 42
0.0000104654
 70
     1
  0
VERTEX
  5
1FE81
330
1FE6C
100
AcDbEntity
  8
11000_Left
  6
Continuous
 62
     7
370
    13
100
AcDbVertex
100
AcDb2dVertex
 10
1268.52534881271
 20
349.1795325488839
 30
0.0
 42
0.0000118037
  0
VERTEX
  5
1FE82
330
1FE6C
100
AcDbEntity
  8
11000_Left
  6
Continuous
 62
     7
370
    13
100
AcDbVertex
100
AcDb2dVertex
 10
1268.525678812709
 20
349.1795325488839
 30
0.0
 42
0.0000133192
 70
     1
  0
VERTEX
  5
1FE83
330
1FE6C
100
AcDbEntity
  8
11000_Left
  6
Continuous
 62
     7
370
    13
100
AcDbVertex
100
AcDb2dVertex
 10
1268.52599881271
 20
349.1795325488839
 30
0.0
 42
0.0000150464
  0
VERTEX
  5
1FE84
330
1FE6C
100
AcDbEntity
  8
11000_Left
  6
Continuous
 62
     7
370
    13
100
AcDbVertex
100
AcDb2dVertex
 10
1268.526298812709
 20
349.1795325488839
 30
0.0
 42
0.0000170728
 70
     1
  0
VERTEX
  5
1FE85
330
1FE6C
100
AcDbEntity
  8
11000_Left
  6
Continuous
 62
     7
370
    13
100
AcDbVertex
100
AcDb2dVertex
 10
1268.52657881271
 20
349.1795325488839
 30
0.0
 42
0.0000194349
  0
VERTEX
  5
1FE86
330
1FE6C
100
AcDbEntity
  8
11000_Left
  6
Continuous
 62
     7
370
    13
100
AcDbVertex
100
AcDb2dVertex
 10
1268.526848812709
 20
349.1795325488839
 30
0.0
 42
0.0000221256
 70
     1
  0
VERTEX
  5
1FE87
330
1FE6C
100
AcDbEntity
  8
11000_Left
  6
Continuous
 62
     7
370
    13
100
AcDbVertex
100
AcDb2dVertex
 10
1268.527108812709
 20
349.1795325488839
 30
0.0
 42
0.0000251297
  0
VERTEX
  5
1FE88
330
1FE6C
100
AcDbEntity
  8
11000_Left
  6
Continuous
 62
     7
370
    13
100
AcDbVertex
100
AcDb2dVertex
 10
1268.52734881271
 20
349.1795325488839
 30
0.0
 42
0.0000292362
 70
     1
  0
VERTEX
  5
1FE89
330
1FE6C
100
AcDbEntity
  8
11000_Left
  6
Continuous
 62
     7
370
    13
100
AcDbVertex
100
AcDb2dVertex
 10
1268.527578812709
 20
349.1795325488839
 30
0.0
 42
0.0000346231
  0
VERTEX
  5
1FE8A
330
1FE6C
100
AcDbEntity
  8
11000_Left
  6
Continuous
 62
     7
370
    13
100
AcDbVertex
100
AcDb2dVertex
 10
1268.52778881271
 20
349.1795325488839
 30
0.0
 42
0.0000393123
 70
     1
  0
VERTEX
  5
1FE8B
330
1FE6C
100
AcDbEntity
  8
11000_Left
  6
Continuous
 62
     7
370
    13
100
AcDbVertex
100
AcDb2dVertex
 10
1268.527978812709
 20
349.1795325488839
 30
0.0
 42
0.0000426242
  0
VERTEX
  5
1FE8C
330
1FE6C
100
AcDbEntity
  8
11000_Left
  6
Continuous
 62
     7
370
    13
100
AcDbVertex
100
AcDb2dVertex
 10
1268.528158812709
 20
349.1795325488839
 30
0.0
 42
0.0000559253
 70
     1
  0
VERTEX
  5
1FE8D
330
1FE6C
100
AcDbEntity
  8
11000_Left
  6
Continuous
 62
     7
370
    13
100
AcDbVertex
100
AcDb2dVertex
 10
1268.52832881271
 20
349.1795325488839
 30
0.0
 42
0.0000823774
  0
VERTEX
  5
1FE8E
330
1FE6C
100
AcDbEntity
  8
11000_Left
  6
Continuous
 62
     7
370
    13
100
AcDbVertex
100
AcDb2dVertex
 10
1268.52847881271
 20
349.1795325488839
 30
0.0
 42
0.0000781738
 70
     1
  0
VERTEX
  5
1FE8F
330
1FE6C
100
AcDbEntity
  8
11000_Left
  6
Continuous
 62
     7
370
    13
100
AcDbVertex
100
AcDb2dVertex
 10
1268.52860881271
 20
349.1795325488839
 30
0.0
 42
0.0000290054
  0
VERTEX
  5
1FE90
330
1FE6C
100
AcDbEntity
  8
11000_Left
  6
Continuous
 62
     7
370
    13
100
AcDbVertex
100
AcDb2dVertex
 10
1268.52872881271
 20
349.1795325488839
 30
0.0
 42
0.0001444571
 70
     1
  0
VERTEX
  5
1FE91
330
1FE6C
100
AcDbEntity
  8
11000_Left
  6
Continuous
 62
     7
370
    13
100
AcDbVertex
100
AcDb2dVertex
 10
1268.52883881271
 20
349.1795325488839
 30
0.0
 42
0.0004190198
  0
VERTEX
  5
1FE92
330
1FE6C
100
AcDbEntity
  8
11000_Left
  6
Continuous
 62
     7
370
    13
100
AcDbVertex
100
AcDb2dVertex
 10
1268.52896881271
 20
349.1795325488839
 30
0.0
 42
0.0003648828
 70
     1
  0
VERTEX
  5
1FE93
330
1FE6C
100
AcDbEntity
  8
11000_Left
  6
Continuous
 62
     7
370
    13
100
AcDbVertex
100
AcDb2dVertex
 10
1268.529108812709
 20
349.1795325488839
 30
0.0
 42
0.000269506
  0
SEQEND
  5
1FE94
330
1FE6C
100
AcDbEntity
  8
11000_Left
  6
Continuous
 62
     7
370
    13
  0
ARC
  5
1FE95
330
1F
100
AcDbEntity
  8
11000_Left
  6
Continuous
 62
     7
370
    50
100
AcDbCircle
 10
1266.797398812709
 20
291.6739725488838
 30
0.0
 40
0.8
100
AcDbArc
 50
270.0
 51
357.023470000001
  0
ARC
  5
1FE96
330
1F
100
AcDbEntity
  8
11000_Left
  6
Continuous
 62
     7
370
    50
100
AcDbCircle
 10
1266.797398812709
 20
374.6739725488838
 30
0.0
 40
0.8
100
AcDbArc
 50
2.976532000003434
 51
90.0
  0
ARC
  5
1FE97
330
1F
100
AcDbEntity
  8
11000_Left
  6
Continuous
 62
     7
370
    50
100
AcDbCircle
 10
468.6756088127096
 20
333.1739725488838
 30
0.0
 40
800.0
100
AcDbArc
 50
357.0234669999944
 51
2.976533000005474
  0
LINE
  5
1FE98
330
1F
100
AcDbEntity
  8
11000_Left
  6
Continuous
 62
     7
370
    50
100
AcDbLine
 10
1263.17560881271
 20
375.4739725488837
 30
0.0
 11
1266.797398812709
 21
375.4739725488838
 31
0.0
  0
LINE
  5
1FE99
330
1F
100
AcDbEntity
  8
11000_Left
  6
Continuous
 62
     7
370
    50
100
AcDbLine
 10
1266.797398812709
 20
290.8739725488839
 30
0.0
 11
1263.17560881271
 21
290.8739725488839
 31
0.0
  0
LINE
  5
1FE9A
330
1F
100
AcDbEntity
  8
11000_Left
  6
Continuous
 62
     7
370
    13
100
AcDbLine
 10
1271.42560881271
 20
319.0339725488837
 30
0.0
 11
1271.42560881271
 21
319.0339725488837
 31
0.0
  0
LINE
  5
1FE9B
330
1F
100
AcDbEntity
  8
11000_Left
  6
Continuous
 62
     7
370
    13
100
AcDbLine
 10
1271.42560881271
 20
318.5389825488838
 30
0.0
 11
1271.42560881271
 21
318.5389725488838
 31
0.0
  0
LINE
  5
1FE9C
330
1F
100
AcDbEntity
  8
11000_Left
  6
Continuous
 62
     7
370
    13
100
AcDbLine
 10
1271.42560881271
 20
319.0339725488837
 30
0.0
 11
1271.42560881271
 21
319.0339725488837
 31
0.0
  0
POLYLINE
  5
1FE9D
330
1F
100
AcDbEntity
  8
11000_Left
  6
Continuous
 62
     7
370
    13
100
AcDb2dPolyline
 66
     1
 10
0.0
 20
0.0
 30
0.0
 70
     2
  0
VERTEX
  5
1FE9E
330
1FE9D
100
AcDbEntity
  8
11000_Left
  6
Continuous
 62
     7
370
    13
100
AcDbVertex
100
AcDb2dVertex
 10
1285.12560881271
 20
320.0589725488838
 30
0.0
  0
VERTEX
  5
1FE9F
330
1FE9D
100
AcDbEntity
  8
11000_Left
  6
Continuous
 62
     7
370
    13
100
AcDbVertex
100
AcDb2dVertex
 10
1285.125268812709
 20
320.0446825488837
 30
0.0
 42
-0.01280324
 70
     1
  0
VERTEX
  5
1FEA0
330
1FE9D
100
AcDbEntity
  8
11000_Left
  6
Continuous
 62
     7
370
    13
100
AcDbVertex
100
AcDb2dVertex
 10
1285.12421881271
 20
320.0301925488837
 30
0.0
 42
-0.012156197
  0
VERTEX
  5
1FEA1
330
1FE9D
100
AcDbEntity
  8
11000_Left
  6
Continuous
 62
     7
370
    13
100
AcDbVertex
100
AcDb2dVertex
 10
1285.12242881271
 20
320.0155025488837
 30
0.0
 42
-0.011974228
 70
     1
  0
VERTEX
  5
1FEA2
330
1FE9D
100
AcDbEntity
  8
11000_Left
  6
Continuous
 62
     7
370
    13
100
AcDbVertex
100
AcDb2dVertex
 10
1285.119888812709
 20
320.0006725488839
 30
0.0
 42
-0.012480874
  0
VERTEX
  5
1FEA3
330
1FE9D
100
AcDbEntity
  8
11000_Left
  6
Continuous
 62
     7
370
    13
100
AcDbVertex
100
AcDb2dVertex
 10
1285.116528812709
 20
319.9857625488838
 30
0.0
 42
-0.012719875
 70
     1
  0
VERTEX
  5
1FEA4
330
1FE9D
100
AcDbEntity
  8
11000_Left
  6
Continuous
 62
     7
370
    13
100
AcDbVertex
100
AcDb2dVertex
 10
1285.11236881271
 20
319.970832548884
 30
0.0
 42
-0.012875536
  0
VERTEX
  5
1FEA5
330
1FE9D
100
AcDbEntity
  8
11000_Left
  6
Continuous
 62
     7
370
    13
100
AcDbVertex
100
AcDb2dVertex
 10
1285.10734881271
 20
319.9559525488838
 30
0.0
 42
-0.01297708
 70
     1
  0
VERTEX
  5
1FEA6
330
1FE9D
100
AcDbEntity
  8
11000_Left
  6
Continuous
 62
     7
370
    13
100
AcDbVertex
100
AcDb2dVertex
 10
1285.10150881271
 20
319.9411825488838
 30
0.0
 42
-0.013184301
  0
VERTEX
  5
1FEA7
330
1FE9D
100
AcDbEntity
  8
11000_Left
  6
Continuous
 62
     7
370
    13
100
AcDbVertex
100
AcDb2dVertex
 10
1285.09480881271
 20
319.9266025488837
 30
0.0
 42
-0.013294073
 70
     1
  0
VERTEX
  5
1FEA8
330
1FE9D
100
AcDbEntity
  8
11000_Left
  6
Continuous
 62
     7
370
    13
100
AcDbVertex
100
AcDb2dVertex
 10
1285.087288812709
 20
319.9122625488838
 30
0.0
 42
-0.013438636
  0
VERTEX
  5
1FEA9
330
1FE9D
100
AcDbEntity
  8
11000_Left
  6
Continuous
 62
     7
370
    13
100
AcDbVertex
100
AcDb2dVertex
 10
1285.07890881271
 20
319.8982625488837
 30
0.0
 42
-0.013510871
 70
     1
  0
VERTEX
  5
1FEAA
330
1FE9D
100
AcDbEntity
  8
11000_Left
  6
Continuous
 62
     7
370
    13
100
AcDbVertex
100
AcDb2dVertex
 10
1285.06974881271
 20
319.884642548884
 30
0.0
 42
-0.013608778
  0
VERTEX
  5
1FEAB
330
1FE9D
100
AcDbEntity
  8
11000_Left
  6
Continuous
 62
     7
370
    13
100
AcDbVertex
100
AcDb2dVertex
 10
1285.059798812709
 20
319.8715025488839
 30
0.0
 42
-0.013662856
 70
     1
  0
VERTEX
  5
1FEAC
330
1FE9D
100
AcDbEntity
  8
11000_Left
  6
Continuous
 62
     7
370
    13
100
AcDbVertex
100
AcDb2dVertex
 10
1285.049118812709
 20
319.8588725488838
 30
0.0
 42
-0.013732641
  0
VERTEX
  5
1FEAD
330
1FE9D
100
AcDbEntity
  8
11000_Left
  6
Continuous
 62
     7
370
    13
100
AcDbVertex
100
AcDb2dVertex
 10
1285.037728812709
 20
319.8468525488839
 30
0.0
 42
-0.013722952
 70
     1
  0
VERTEX
  5
1FEAE
330
1FE9D
100
AcDbEntity
  8
11000_Left
  6
Continuous
 62
     7
370
    13
100
AcDbVertex
100
AcDb2dVertex
 10
1285.02570881271
 20
319.8354625488838
 30
0.0
 42
-0.013659262
  0
VERTEX
  5
1FEAF
330
1FE9D
100
AcDbEntity
  8
11000_Left
  6
Continuous
 62
     7
370
    13
100
AcDbVertex
100
AcDb2dVertex
 10
1285.01308881271
 20
319.8247825488839
 30
0.0
 42
-0.013732727
 70
     1
  0
VERTEX
  5
1FEB0
330
1FE9D
100
AcDbEntity
  8
11000_Left
  6
Continuous
 62
     7
370
    13
100
AcDbVertex
100
AcDb2dVertex
 10
1284.99993881271
 20
319.8148325488838
 30
0.0
 42
-0.013897641
  0
VERTEX
  5
1FEB1
330
1FE9D
100
AcDbEntity
  8
11000_Left
  6
Continuous
 62
     7
370
    13
100
AcDbVertex
100
AcDb2dVertex
 10
1284.986288812709
 20
319.8056625488837
 30
0.0
 42
-0.013543887
 70
     1
  0
VERTEX
  5
1FEB2
330
1FE9D
100
AcDbEntity
  8
11000_Left
  6
Continuous
 62
     7
370
    13
100
AcDbVertex
100
AcDb2dVertex
 10
1284.97231881271
 20
319.7973025488839
 30
0.0
 42
-0.012726539
  0
VERTEX
  5
1FEB3
330
1FE9D
100
AcDbEntity
  8
11000_Left
  6
Continuous
 62
     7
370
    13
100
AcDbVertex
100
AcDb2dVertex
 10
1284.95809881271
 20
319.7897825488838
 30
0.0
 42
-0.013686455
 70
     1
  0
VERTEX
  5
1FEB4
330
1FE9D
100
AcDbEntity
  8
11000_Left
  6
Continuous
 62
     7
370
    13
100
AcDbVertex
100
AcDb2dVertex
 10
1284.94339881271
 20
319.7830725488837
 30
0.0
 42
-0.015725722
  0
VERTEX
  5
1FEB5
330
1FE9D
100
AcDbEntity
  8
11000_Left
  6
Continuous
 62
     7
370
    13
100
AcDbVertex
100
AcDb2dVertex
 10
1284.92817881271
 20
319.7772125488839
 30
0.0
 42
-0.012376153
 70
     1
  0
VERTEX
  5
1FEB6
330
1FE9D
100
AcDbEntity
  8
11000_Left
  6
Continuous
 62
     7
370
    13
100
AcDbVertex
100
AcDb2dVertex
 10
1284.91374881271
 20
319.7722125488838
 30
0.0
 42
-0.0053921038
  0
VERTEX
  5
1FEB7
330
1FE9D
100
AcDbEntity
  8
11000_Left
  6
Continuous
 62
     7
370
    13
100
AcDbVertex
100
AcDb2dVertex
 10
1284.90060881271
 20
319.7681425488839
 30
0.0
 42
-0.016185648
 70
     1
  0
VERTEX
  5
1FEB8
330
1FE9D
100
AcDbEntity
  8
11000_Left
  6
Continuous
 62
     7
370
    13
100
AcDbVertex
100
AcDb2dVertex
 10
1284.883908812709
 20
319.7646925488837
 30
0.0
 42
-0.027066972
  0
VERTEX
  5
1FEB9
330
1FE9D
100
AcDbEntity
  8
11000_Left
  6
Continuous
 62
     7
370
    13
100
AcDbVertex
100
AcDb2dVertex
 10
1284.85857881271
 20
319.7616325488837
 30
0.0
 42
-0.013868237
 70
     1
  0
VERTEX
  5
1FEBA
330
1FE9D
100
AcDbEntity
  8
11000_Left
  6
Continuous
 62
     7
370
    13
100
AcDbVertex
100
AcDb2dVertex
 10
1284.82560881271
 20
319.7589725488839
 30
0.0
 42
-0.0076245554
  0
SEQEND
  5
1FEBB
330
1FE9D
100
AcDbEntity
  8
11000_Left
  6
Continuous
 62
     7
370
    13
  0
LINE
  5
1FEBC
330
1F
100
AcDbEntity
  8
11000_Left
  6
Continuous
 62
     7
370
    13
100
AcDbLine
 10
1283.62560881271
 20
321.1589725488837
 30
0.0
 11
1283.62559881271
 21
321.1589725488837
 31
0.0
  0
LINE
  5
1FEBD
330
1F
100
AcDbEntity
  8
11000_Left
  6
Continuous
 62
     7
370
    13
100
AcDbLine
 10
1279.04796881271
 20
319.9324025488839
 30
0.0
 11
1279.04795881271
 21
319.9324025488839
 31
0.0
  0
LINE
  5
1FEBE
330
1F
100
AcDbEntity
  8
11000_Left
  6
Continuous
 62
     7
370
    13
100
AcDbLine
 10
1285.12560881271
 20
326.0789725488838
 30
0.0
 11
1285.12560881271
 21
326.0789725488838
 31
0.0
  0
LINE
  5
1FEBF
330
1F
100
AcDbEntity
  8
11000_Left
  6
Continuous
 62
     7
370
    13
100
AcDbLine
 10
1284.82560881271
 20
319.7589725488839
 30
0.0
 11
1284.82559881271
 21
319.7589725488839
 31
0.0
  0
LINE
  5
1FEC0
330
1F
100
AcDbEntity
  8
11000_Left
  6
Continuous
 62
     7
370
    13
100
AcDbLine
 10
1283.925618812709
 20
319.7589725488839
 30
0.0
 11
1283.92560881271
 21
319.7589725488839
 31
0.0
  0
LINE
  5
1FEC1
330
1F
100
AcDbEntity
  8
11000_Left
  6
Continuous
 62
     7
370
    13
100
AcDbLine
 10
1283.62560881271
 20
321.1589725488837
 30
0.0
 11
1283.62560881271
 21
321.1589725488837
 31
0.0
  0
LINE
  5
1FEC2
330
1F
100
AcDbEntity
  8
11000_Left
  6
Continuous
 62
     7
370
    13
100
AcDbLine
 10
1283.62560881271
 20
330.3589625488838
 30
0.0
 11
1283.62560881271
 21
330.3589725488838
 31
0.0
  0
LINE
  5
1FEC3
330
1F
100
AcDbEntity
  8
11000_Left
  6
Continuous
 62
     7
370
    13
100
AcDbLine
 10
1283.92560881271
 20
330.6589725488837
 30
0.0
 11
1283.925618812709
 21
330.6589725488837
 31
0.0
  0
LINE
  5
1FEC4
330
1F
100
AcDbEntity
  8
11000_Left
  6
Continuous
 62
     7
370
    13
100
AcDbLine
 10
1271.42560881271
 20
329.8639725488838
 30
0.0
 11
1271.42560881271
 21
329.8639725488838
 31
0.0
  0
LINE
  5
1FEC5
330
1F
100
AcDbEntity
  8
11000_Left
  6
Continuous
 62
     7
370
    13
100
AcDbLine
 10
1283.62559881271
 20
329.8639725488838
 30
0.0
 11
1283.62560881271
 21
329.8639725488838
 31
0.0
  0
LINE
  5
1FEC6
330
1F
100
AcDbEntity
  8
11000_Left
  6
Continuous
 62
     7
370
    13
100
AcDbLine
 10
1284.79560881271
 20
330.3589725488838
 30
0.0
 11
1284.79560881271
 21
330.3589625488838
 31
0.0
  0
LINE
  5
1FEC7
330
1F
100
AcDbEntity
  8
11000_Left
  6
Continuous
 62
     7
370
    13
100
AcDbLine
 10
1268.51033881271
 20
318.2389725488838
 30
0.0
 11
1271.12560881271
 21
318.2389725488838
 31
0.0
  0
ARC
  5
1FEC8
330
1F
100
AcDbEntity
  8
11000_Left
  6
Continuous
 62
     7
370
    13
100
AcDbCircle
 10
1271.12560881271
 20
318.5389725488838
 30
0.0
 40
0.3
100
AcDbArc
 50
270.0
 51
0.0
  0
LINE
  5
1FEC9
330
1F
100
AcDbEntity
  8
11000_Left
  6
Continuous
 62
     7
370
    13
100
AcDbLine
 10
1271.42560881271
 20
318.5389725488838
 30
0.0
 11
1271.42560881271
 21
319.0339725488837
 31
0.0
  0
LINE
  5
1FECA
330
1F
100
AcDbEntity
  8
11000_Left
  6
Continuous
 62
     7
370
    13
100
AcDbLine
 10
1271.42560881271
 20
319.0339725488837
 30
0.0
 11
1278.52560881271
 21
319.0339725488837
 31
0.0
  0
ARC
  5
1FECB
330
1F
100
AcDbEntity
  8
11000_Left
  6
Continuous
 62
     7
370
    13
100
AcDbCircle
 10
1278.52560881271
 20
319.3339725488839
 30
0.0
 40
0.3
100
AcDbArc
 50
270.0
 51
0.0
  0
LINE
  5
1FECC
330
1F
100
AcDbEntity
  8
11000_Left
  6
Continuous
 62
     7
370
    13
100
AcDbLine
 10
1278.82560881271
 20
319.3339725488839
 30
0.0
 11
1278.82560881271
 21
319.6426225488838
 31
0.0
  0
ARC
  5
1FECD
330
1F
100
AcDbEntity
  8
11000_Left
  6
Continuous
 62
     7
370
    13
100
AcDbCircle
 10
1279.12560881271
 20
319.6426225488838
 30
0.0
 40
0.3
100
AcDbArc
 50
104.9999999999944
 51
180.0
  0
LINE
  5
1FECE
330
1F
100
AcDbEntity
  8
11000_Left
  6
Continuous
 62
     7
370
    13
100
AcDbLine
 10
1279.04795881271
 20
319.9324025488839
 30
0.0
 11
1283.62560881271
 21
321.1589725488837
 31
0.0
  0
LINE
  5
1FECF
330
1F
100
AcDbEntity
  8
11000_Left
  6
Continuous
 62
     7
370
    13
100
AcDbLine
 10
1283.62560881271
 20
321.1589725488837
 30
0.0
 11
1283.62560881271
 21
320.0589725488838
 31
0.0
  0
ARC
  5
1FED0
330
1F
100
AcDbEntity
  8
11000_Left
  6
Continuous
 62
     7
370
    13
100
AcDbCircle
 10
1283.92560881271
 20
320.0589725488838
 30
0.0
 40
0.3
100
AcDbArc
 50
180.0
 51
270.0
  0
LINE
  5
1FED1
330
1F
100
AcDbEntity
  8
11000_Left
  6
Continuous
 62
     7
370
    13
100
AcDbLine
 10
1283.92560881271
 20
319.7589725488839
 30
0.0
 11
1284.82560881271
 21
319.7589725488839
 31
0.0
  0
ARC
  5
1FED2
330
1F
100
AcDbEntity
  8
11000_Left
  6
Continuous
 62
     7
370
    13
100
AcDbCircle
 10
1284.82560881271
 20
320.0589725488838
 30
0.0
 40
0.3
100
AcDbArc
 50
270.0
 51
0.0
  0
LINE
  5
1FED3
330
1F
100
AcDbEntity
  8
11000_Left
  6
Continuous
 62
     7
370
    13
100
AcDbLine
 10
1285.12560881271
 20
320.0589725488838
 30
0.0
 11
1285.12560881271
 21
326.0789725488838
 31
0.0
  0
ARC
  5
1FED4
330
1F
100
AcDbEntity
  8
11000_Left
  6
Continuous
 62
     7
370
    13
100
AcDbCircle
 10
1284.82560881271
 20
326.0789725488838
 30
0.0
 40
0.3
100
AcDbArc
 50
0.0
 51
90.0
  0
LINE
  5
1FED5
330
1F
100
AcDbEntity
  8
11000_Left
  6
Continuous
 62
     7
370
    13
100
AcDbLine
 10
1284.82560881271
 20
326.378972548884
 30
0.0
 11
1284.79560881271
 21
326.378972548884
 31
0.0
  0
LINE
  5
1FED6
330
1F
100
AcDbEntity
  8
11000_Left
  6
Continuous
 62
     7
370
    13
100
AcDbLine
 10
1284.79560881271
 20
326.378972548884
 30
0.0
 11
1284.79560881271
 21
330.3589725488838
 31
0.0
  0
ARC
  5
1FED7
330
1F
100
AcDbEntity
  8
11000_Left
  6
Continuous
 62
     7
370
    13
100
AcDbCircle
 10
1284.495608812709
 20
330.3589725488838
 30
0.0
 40
0.3
100
AcDbArc
 50
0.0
 51
90.0
  0
LINE
  5
1FED8
330
1F
100
AcDbEntity
  8
11000_Left
  6
Continuous
 62
     7
370
    13
100
AcDbLine
 10
1284.495608812709
 20
330.6589725488837
 30
0.0
 11
1283.92560881271
 21
330.6589725488837
 31
0.0
  0
ARC
  5
1FED9
330
1F
100
AcDbEntity
  8
11000_Left
  6
Continuous
 62
     7
370
    13
100
AcDbCircle
 10
1283.92560881271
 20
330.3589725488838
 30
0.0
 40
0.3
100
AcDbArc
 50
90.0
 51
180.0
  0
LINE
  5
1FEDA
330
1F
100
AcDbEntity
  8
11000_Left
  6
Continuous
 62
     7
370
    13
100
AcDbLine
 10
1283.62560881271
 20
330.3589725488838
 30
0.0
 11
1283.62560881271
 21
329.8639725488838
 31
0.0
  0
LINE
  5
1FEDB
330
1F
100
AcDbEntity
  8
11000_Left
  6
Continuous
 62
     7
370
    13
100
AcDbLine
 10
1283.62560881271
 20
329.8639725488838
 30
0.0
 11
1271.42560881271
 21
329.8639725488838
 31
0.0
  0
LINE
  5
1FEDC
330
1F
100
AcDbEntity
  8
11000_Left
  6
Continuous
 62
     7
370
    13
100
AcDbLine
 10
1271.42560881271
 20
329.8639725488838
 30
0.0
 11
1271.42560881271
 21
330.5389725488838
 31
0.0
  0
ARC
  5
1FEDD
330
1F
100
AcDbEntity
  8
11000_Left
  6
Continuous
 62
     7
370
    13
100
AcDbCircle
 10
1271.12560881271
 20
330.5389725488838
 30
0.0
 40
0.3
100
AcDbArc
 50
0.0
 51
90.0
  0
LINE
  5
1FEDE
330
1F
100
AcDbEntity
  8
11000_Left
  6
Continuous
 62
     7
370
    13
100
AcDbLine
 10
1271.12560881271
 20
330.8389725488837
 30
0.0
 11
1268.66278881271
 21
330.8389725488837
 31
0.0
  0
LINE
  5
1FEEE
330
1F
100
AcDbEntity
  8
11000_Left
  6
HIDDEN
 62
     7
370
     9
100
AcDbLine
 39
0.25
 10
1272.77560881271
 20
329.8639725488838
 30
0.0
 11
1272.77560881271
 21
321.3258578016937
 31
0.0
  0
LINE
  5
1FEEF
330
1F
100
AcDbEntity
  8
11000_Left
  6
HIDDEN
 62
     7
370
     9
100
AcDbLine
 39
0.25
 10
1276.049422985506
 20
329.8639725488838
 30
0.0
 11
1276.049422985507
 21
321.3258578016938
 31
0.0
  0
LINE
  5
1FEF0
330
1F
100
AcDbEntity
  8
11000_Left
  6
HIDDEN
 62
     7
370
     9
100
AcDbLine
 39
0.25
 10
1272.77560881271
 20
321.3258578016938
 30
0.0
 11
1276.049422985507
 21
321.3258578016938
 31
0.0
  0
ENDSEC
  0
SECTION
  2
OBJECTS
  0
DICTIONARY
  5
C
330
0
100
AcDbDictionary
281
     1
  3
ACAD_COLOR
350
2081
  3
ACAD_GROUP
350
D
  3
ACAD_LAYOUT
350
1A
  3
ACAD_MATERIAL
350
2080
  3
ACAD_MLINESTYLE
350
17
  3
ACAD_PLOTSETTINGS
350
19
  3
ACAD_PLOTSTYLENAME
350
E
  3
ACAD_TABLESTYLE
350
8B4A
  3
ACAD_VISUALSTYLE
350
8B39
  3
AcDbVariableDictionary
350
5E
  3
DWGPROPS
350
1FF4A
  0
DICTIONARY
  5
8B75
330
2
100
AcDbDictionary
280
     1
281
     1
  3
ACAD_LAYERFILTERS
360
1FF2F
  3
ACLYDICTIONARY
360
1FF2E
  0
DICTIONARY
  5
9022
330
1F
100
AcDbDictionary
280
     1
281
     1
  3
ACAD_SORTENTS
360
9023
  0
DICTIONARY
  5
14735
330
14727
100
AcDbDictionary
280
     1
281
     1
  3
ACAD_DIMASSOC
360
14740
  0
DICTIONARY
  5
147C5
330
147B7
100
AcDbDictionary
280
     1
281
     1
  3
ACAD_DIMASSOC
360
147D0
  0
DICTIONARY
  5
147E9
330
147DB
100
AcDbDictionary
280
     1
281
     1
  3
ACAD_DIMASSOC
360
147F4
  0
DICTIONARY
  5
1487D
330
1486E
100
AcDbDictionary
280
     1
281
     1
  3
ACAD_DIMASSOC
360
14889
  0
DICTIONARY
  5
149E7
330
149D9
100
AcDbDictionary
280
     1
281
     1
  3
ACAD_DIMASSOC
360
149F2
  0
DICTIONARY
  5
2081
102
{ACAD_REACTORS
330
C
102
}
330
C
100
AcDbDictionary
281
     1
  0
DICTIONARY
  5
D
102
{ACAD_REACTORS
330
C
102
}
330
C
100
AcDbDictionary
281
     1
  0
DICTIONARY
  5
1A
102
{ACAD_REACTORS
330
C
102
}
330
C
100
AcDbDictionary
281
     1
  3
Layout1
350
51
  3
Layout2
350
56
  3
Model
350
22
  0
DICTIONARY
  5
2080
102
{ACAD_REACTORS
330
C
102
}
330
C
100
AcDbDictionary
281
     1
  3
ByBlock
350
8B37
  3
ByLayer
350
8B36
  3
Global
350
8B38
  0
DICTIONARY
  5
17
102
{ACAD_REACTORS
330
C
102
}
330
C
100
AcDbDictionary
281
     1
  3
Standard
350
18
  0
DICTIONARY
  5
19
102
{ACAD_REACTORS
330
C
102
}
330
C
100
AcDbDictionary
281
     1
  0
ACDBDICTIONARYWDFLT
  5
E
102
{ACAD_REACTORS
330
C
102
}
330
C
100
AcDbDictionary
281
     1
  3
Normal
350
F
100
AcDbDictionaryWithDefault
340
F
  0
DICTIONARY
  5
8B4A
102
{ACAD_REACTORS
330
C
102
}
330
C
100
AcDbDictionary
281
     1
  3
Standard
350
8B4B
  0
DICTIONARY
  5
8B39
102
{ACAD_REACTORS
330
C
102
}
330
C
100
AcDbDictionary
281
     1
  3
2dWireframe
350
8B3F
  3
3D Hidden
350
8B41
  3
3dWireframe
350
8B40
  3
Basic
350
8B3E
  3
Brighten
350
8B45
  3
ColorChange
350
8B49
  3
Conceptual
350
8B42
  3
Dim
350
8B44
  3
Facepattern
350
8B48
  3
Flat
350
8B3A
  3
FlatWithEdges
350
8B3B
  3
Gouraud
350
8B3C
  3
GouraudWithEdges
350
8B3D
  3
Linepattern
350
8B47
  3
Realistic
350
8B43
  3
Thicken
350
8B46
  0
DICTIONARY
  5
5E
102
{ACAD_REACTORS
330
C
102
}
330
C
100
AcDbDictionary
281
     1
  3
CTABLESTYLE
350
8B53
  3
DIMASSOC
350
5F
  3
HIDETEXT
350
63
  3
INDEXCTL
350
8B55
  3
PROJECTNAME
350
7A40
  3
SORTENTS
350
8B54
  0
XRECORD
  5
1FF4A
102
{ACAD_REACTORS
330
C
102
}
330
C
100
AcDbXrecord
280
     1
  1
DWGPROPS COOKIE
  2

  3

  4

  6

  7

  8
chpf
  9

300
=
301
=
302
=
303
=
304
=
305
=
306
=
307
=
308
=
309
=
 40
0.7801371180555555
 41
2452662.472983287
 42
2454004.600366389
  1

 90
        0
  0
DICTIONARY
  5
1FF2F
102
{ACAD_REACTORS
330
8B75
102
}
330
8B75
100
AcDbDictionary
281
     1
  0
DICTIONARY
  5
1FF2E
102
{ACAD_REACTORS
330
8B75
102
}
330
8B75
100
AcDbDictionary
281
     1
1001
ACAD
1000
<All
  0
SORTENTSTABLE
  5
9023
102
{ACAD_REACTORS
330
9022
102
}
330
9022
100
AcDbSortentsTable
330
1F
331
FE17
  5
FE17
331
13225
  5
13225
331
14684
  5
14684
331
1460E
  5
1460E
331
1322D
  5
1322D
331
F003
  5
F003
331
1468C
  5
1468C
331
1464D
  5
1464D
331
F00B
  5
F00B
331
14741
  5
14741
331
14694
  5
14694
331
14655
  5
14655
331
1461E
  5
1461E
331
F013
  5
F013
331
1469C
  5
1469C
331
1465D
  5
1465D
331
14626
  5
14626
331
F01B
  5
F01B
331
12CF1
  5
12CF1
331
EFCC
  5
EFCC
331
EFD4
  5
EFD4
331
EF9D
  5
EF9D
331
11D
  5
11D
331
EE04
  5
EE04
331
2095
  5
2095
331
FDF8
  5
FDF8
331
FE00
  5
FE00
331
1323D
  5
1323D
331
FE08
  5
FE08
331
146A4
  5
146A4
331
14665
  5
14665
331
1462E
  5
1462E
331
1333F
  5
1333F
331
F023
  5
F023
331
146AC
  5
146AC
331
1466D
  5
1466D
331
146B4
  5
146B4
331
14675
  5
14675
331
145FF
  5
145FF
331
1467D
  5
1467D
331
14607
  5
14607
331
12C64
  5
12C64
331
12BAF
  5
12BAF
331
EFEC
  5
EFEC
331
12BB7
  5
12BB7
331
EFF4
  5
EFF4
331
EF3F
  5
EF3F
331
12BBF
  5
12BBF
331
EFFC
  5
EFFC
331
12BC7
  5
12BC7
331
EFC5
  5
EFC5
331
EDE5
  5
EDE5
331
117
  5
117
331
FE10
  5
FE10
331
FE18
  5
FE18
331
FE20
  5
FE20
331
13226
  5
13226
331
14685
  5
14685
331
1460F
  5
1460F
331
1322E
  5
1322E
331
F004
  5
F004
331
1468D
  5
1468D
331
1464E
  5
1464E
331
14617
  5
14617
331
F00C
  5
F00C
331
14695
  5
14695
331
14656
  5
14656
331
1461F
  5
1461F
331
F014
  5
F014
331
14789
  5
14789
331
1469D
  5
1469D
331
1465E
  5
1465E
331
14627
  5
14627
331
F01C
  5
F01C
331
12CF2
  5
12CF2
331
EFCD
  5
EFCD
331
EFD5
  5
EFD5
331
EF9E
  5
EF9E
331
EDED
  5
EDED
331
11E
  5
11E
331
126
  5
126
331
EE05
  5
EE05
331
2096
  5
2096
331
FDF9
  5
FDF9
331
FE01
  5
FE01
331
1323E
  5
1323E
331
FE09
  5
FE09
331
146A5
  5
146A5
331
14666
  5
14666
331
1462F
  5
1462F
331
13340
  5
13340
331
F024
  5
F024
331
146AD
  5
146AD
331
1466E
  5
1466E
331
146B5
  5
146B5
331
14676
  5
14676
331
14600
  5
14600
331
1467E
  5
1467E
331
12C65
  5
12C65
331
EFED
  5
EFED
331
EF38
  5
EF38
331
12BB8
  5
12BB8
331
EFF5
  5
EFF5
331
EF40
  5
EF40
331
12BC0
  5
12BC0
331
EFFD
  5
EFFD
331
EFC6
  5
EFC6
331
EE0D
  5
EE0D
331
EDE6
  5
EDE6
331
FE11
  5
FE11
331
FE19
  5
FE19
331
1321F
  5
1321F
331
FE21
  5
FE21
331
14608
  5
14608
331
141AF
  5
141AF
331
13227
  5
13227
331
14686
  5
14686
331
14610
  5
14610
331
1322F
  5
1322F
331
F005
  5
F005
331
1468E
  5
1468E
331
1464F
  5
1464F
331
14618
  5
14618
331
F00D
  5
F00D
331
14696
  5
14696
331
14657
  5
14657
331
14620
  5
14620
331
F015
  5
F015
331
1478A
  5
1478A
331
12BC8
  5
12BC8
331
1469E
  5
1469E
331
1465F
  5
1465F
331
F01D
  5
F01D
331
12CF3
  5
12CF3
331
12C4E
  5
12C4E
331
12C0F
  5
12C0F
331
EFCE
  5
EFCE
331
12C56
  5
12C56
331
EFD6
  5
EFD6
331
EF9F
  5
EF9F
331
EDEE
  5
EDEE
331
11F
  5
11F
331
EE06
  5
EE06
331
2097
  5
2097
331
FE02
  5
FE02
331
14628
  5
14628
331
146A6
  5
146A6
331
14667
  5
14667
331
13341
  5
13341
331
F025
  5
F025
331
146AE
  5
146AE
331
1466F
  5
1466F
331
145F9
  5
145F9
331
146B6
  5
146B6
331
14677
  5
14677
331
14601
  5
14601
331
1467F
  5
1467F
331
12C66
  5
12C66
331
EFEE
  5
EFEE
331
EF39
  5
EF39
331
EFF6
  5
EFF6
331
12BC1
  5
12BC1
331
EFFE
  5
EFFE
331
EFC7
  5
EFC7
331
143E6
  5
143E6
331
EE0E
  5
EE0E
331
8BAF
  5
8BAF
331
EDE7
  5
EDE7
331
FE12
  5
FE12
331
13220
  5
13220
331
FE22
  5
FE22
331
14609
  5
14609
331
13228
  5
13228
331
14687
  5
14687
331
14611
  5
14611
331
13230
  5
13230
331
F006
  5
F006
331
1468F
  5
1468F
331
14650
  5
14650
331
14619
  5
14619
331
F00E
  5
F00E
331
14697
  5
14697
331
14658
  5
14658
331
14621
  5
14621
331
F016
  5
F016
331
1469F
  5
1469F
331
F01E
  5
F01E
331
12CF4
  5
12CF4
331
12C4F
  5
12C4F
331
12C10
  5
12C10
331
EFCF
  5
EFCF
331
145A5
  5
145A5
331
12C57
  5
12C57
331
EFD7
  5
EFD7
331
118
  5
118
331
120
  5
120
331
EDF7
  5
EDF7
331
EDFF
  5
EDFF
331
141B0
  5
141B0
331
FE03
  5
FE03
331
FE0B
  5
FE0B
331
14660
  5
14660
331
14629
  5
14629
331
146A7
  5
146A7
331
14668
  5
14668
331
13342
  5
13342
331
F026
  5
F026
331
146AF
  5
146AF
331
14670
  5
14670
331
145FA
  5
145FA
331
146B7
  5
146B7
331
14678
  5
14678
331
14602
  5
14602
331
12C67
  5
12C67
331
12BB2
  5
12BB2
331
EF3A
  5
EF3A
331
12BC2
  5
12BC2
331
2098
  5
2098
331
EE0F
  5
EE0F
331
FE13
  5
FE13
331
FE1B
  5
FE1B
331
13221
  5
13221
331
FE23
  5
FE23
331
14680
  5
14680
331
1460A
  5
1460A
331
13229
  5
13229
331
14688
  5
14688
331
13231
  5
13231
331
14690
  5
14690
331
14651
  5
14651
331
1461A
  5
1461A
331
14698
  5
14698
331
14622
  5
14622
331
1478C
  5
1478E
331
EFC8
  5
EFC8
331
12C50
  5
12C50
331
EFD0
  5
EFD0
331
145A6
  5
145A6
331
12C58
  5
12C58
331
EFD8
  5
EFD8
331
EFA1
  5
EFA1
331
EEF4
  5
EEF4
331
EDE8
  5
EDE8
331
119
  5
119
331
121
  5
121
331
129
  5
129
331
141B1
  5
141B1
331
13239
  5
13239
331
FE04
  5
FE04
331
FE0C
  5
FE0C
331
146A0
  5
146A0
331
14661
  5
14661
331
1462A
  5
1462A
331
146A8
  5
146A8
331
14669
  5
14669
331
14632
  5
14632
331
146B0
  5
146B0
331
14671
  5
14671
331
145FB
  5
145FB
331
14679
  5
14679
331
14603
  5
14603
331
12C60
  5
12C60
331
12BAB
  5
12BAB
331
12C68
  5
12C68
331
12BB3
  5
12BB3
331
EF3B
  5
EF3B
331
12BC3
  5
12BC3
331
EE08
  5
EE08
331
2099
  5
2099
331
33C9
  5
33C9
331
FE14
  5
FE14
331
13222
  5
13222
331
146B8
  5
146B8
331
14681
  5
14681
331
1460B
  5
1460B
331
1322A
  5
1322A
331
14689
  5
14689
331
14613
  5
14613
331
13232
  5
13232
331
14691
  5
14691
331
14652
  5
14652
331
1461B
  5
1461B
331
14699
  5
14699
331
1465A
  5
1465A
331
14623
  5
14623
331
EFC9
  5
EFC9
331
12C51
  5
12C51
331
12C59
  5
12C59
331
EFD9
  5
EFD9
331
EFA2
  5
EFA2
331
EEF5
  5
EEF5
331
11A
  5
11A
331
EDF9
  5
EDF9
331
12A
  5
12A
331
141B2
  5
141B2
331
1323A
  5
1323A
331
FE05
  5
FE05
331
FE0D
  5
FE0D
331
146A1
  5
146A1
331
14662
  5
14662
331
1462B
  5
1462B
331
146A9
  5
146A9
331
1466A
  5
1466A
331
14633
  5
14633
331
14727
  5
14727
331
146B1
  5
146B1
331
14672
  5
14672
331
145FC
  5
145FC
331
1467A
  5
1467A
331
14604
  5
14604
331
12C61
  5
12C61
331
12C69
  5
12C69
331
12BB4
  5
12BB4
331
EF3C
  5
EF3C
331
12CEF
  5
12CEF
331
12CB0
  5
12CB0
331
12BC4
  5
12BC4
331
209A
  5
209A
331
33CA
  5
33CA
331
FE15
  5
FE15
331
13223
  5
13223
331
146B9
  5
146B9
331
14682
  5
14682
331
1460C
  5
1460C
331
1322B
  5
1322B
331
FDF6
  5
FDF6
331
1468A
  5
1468A
331
14614
  5
14614
331
13233
  5
13233
331
14692
  5
14692
331
14653
  5
14653
331
1461C
  5
1461C
331
1469A
  5
1469A
331
1465B
  5
1465B
331
14624
  5
14624
331
EFCA
  5
EFCA
331
12C52
  5
12C52
331
12C5A
  5
12C5A
331
EFA3
  5
EFA3
331
EEF6
  5
EEF6
331
11B
  5
11B
331
EE02
  5
EE02
331
2093
  5
2093
331
FDFE
  5
FDFE
331
1323B
  5
1323B
331
FE06
  5
FE06
331
FE0E
  5
FE0E
331
146A2
  5
146A2
331
14663
  5
14663
331
1462C
  5
1462C
331
146AA
  5
146AA
331
1466B
  5
1466B
331
146B2
  5
146B2
331
14673
  5
14673
331
145FD
  5
145FD
331
1467B
  5
1467B
331
14605
  5
14605
331
12C62
  5
12C62
331
EFEA
  5
EFEA
331
12C6A
  5
12C6A
331
12BB5
  5
12BB5
331
EF3D
  5
EF3D
331
12BBD
  5
12BBD
331
12CB1
  5
12CB1
331
12BC5
  5
12BC5
331
FE16
  5
FE16
331
13224
  5
13224
331
146BA
  5
146BA
331
14683
  5
14683
331
1460D
  5
1460D
331
1322C
  5
1322C
331
FDF7
  5
FDF7
331
1468B
  5
1468B
331
1464C
  5
1464C
331
13234
  5
13234
331
F00A
  5
F00A
331
14693
  5
14693
331
14654
  5
14654
331
1461D
  5
1461D
331
1469B
  5
1469B
331
1465C
  5
1465C
331
14625
  5
14625
331
12CF0
  5
12CF0
331
EFCB
  5
EFCB
331
12C53
  5
12C53
331
EFD3
  5
EFD3
331
12C5B
  5
12C5B
331
EF9C
  5
EF9C
331
EFA4
  5
EFA4
331
EEF7
  5
EEF7
331
11C
  5
11C
331
124
  5
124
331
2094
  5
2094
331
FDFF
  5
FDFF
331
1323C
  5
1323C
331
FE07
  5
FE07
331
FE0F
  5
FE0F
331
146A3
  5
146A3
331
14664
  5
14664
331
1462D
  5
1462D
331
146AB
  5
146AB
331
1466C
  5
1466C
331
146B3
  5
146B3
331
14674
  5
14674
331
145FE
  5
145FE
331
1467C
  5
1467C
331
14606
  5
14606
331
12C63
  5
12C63
331
12BAE
  5
12BAE
331
EFEB
  5
EFEB
331
12C6B
  5
12C6B
331
12BB6
  5
12BB6
331
EFF3
  5
EFF3
331
EF3E
  5
EF3E
331
12BBE
  5
12BBE
331
EFFB
  5
EFFB
331
12BC6
  5
12BC6
331
EFC4
  5
EFC4
  0
DIMASSOC
  5
14740
102
{ACAD_REACTORS
330
14735
102
}
330
14735
100
AcDbDimAssoc
330
14727
 90
        3
 70
     0
 71
     0
  1
AcDbOsnapPointRef
 72
    13
331
FE20
 73
     2
 91
        0
 40
3.141592653589793
 10
0.0
 20
0.0
 30
2.000000000000000E+50
 75
     0
  1
AcDbOsnapPointRef
 72
     8
331
12BAE
 73
     2
 91
        0
 40
1.000001719676879
 10
0.0
 20
0.0
 30
0.0
 75
     1
  1
AcDbOsnapPointRef
 72
    13
331
FE20
 73
     2
 91
        0
 40
3.141592653589793
 10
0.0
 20
0.0
 30
2.000000000000000E+50
 75
     0
  0
DIMASSOC
  5
147D0
102
{ACAD_REACTORS
330
147C5
102
}
330
147C5
100
AcDbDimAssoc
330
147B7
 90
        3
 70
     0
 71
     0
  1
AcDbOsnapPointRef
 72
    13
331
FE21
 73
     2
 91
        0
 40
4.712388980384689
 10
0.0
 20
0.0
 30
2.000000000000000E+50
 75
     0
  1
AcDbOsnapPointRef
 72
     8
331
FE22
 73
     2
 91
        0
 40
7.853981623336236
 10
0.0
 20
0.0
 30
0.0
 75
     1
  1
AcDbOsnapPointRef
 72
    13
331
FE21
 73
     2
 91
        0
 40
4.712388980384689
 10
0.0
 20
0.0
 30
2.000000000000000E+50
 75
     0
  0
DIMASSOC
  5
147F4
102
{ACAD_REACTORS
330
147E9
102
}
330
147E9
100
AcDbDimAssoc
330
147DB
 90
        3
 70
     0
 71
     0
  1
AcDbOsnapPointRef
 72
     5
331
14673
 73
     2
 91
        0
 40
0.0
 10
0.0
 20
0.0
 30
0.0
 75
     0
  1
AcDbOsnapPointRef
 72
     5
331
1469A
 73
     2
 91
        0
 40
0.0
 10
0.0
 20
0.0
 30
0.0
 75
     0
  0
DIMASSOC
  5
14889
102
{ACAD_REACTORS
330
1487D
102
}
330
1487D
100
AcDbDimAssoc
330
1486E
 90
        3
 70
     0
 71
     0
  1
AcDbOsnapPointRef
 72
    13
331
EF40
 73
     2
 91
        0
 40
0.0
 10
0.0
 20
0.0
 30
2.000000000000000E+50
 75
     0
  1
AcDbOsnapPointRef
 72
    13
331
EFC7
 73
     2
 91
        0
 40
0.0
 10
0.0
 20
0.0
 30
2.000000000000000E+50
 75
     0
  0
DIMASSOC
  5
149F2
102
{ACAD_REACTORS
330
149E7
102
}
330
149E7
100
AcDbDimAssoc
330
149D9
 90
        2
 70
     0
 71
     0
  1
AcDbOsnapPointRef
 72
    13
331
12BAF
 73
     2
 91
        0
 40
0.0
 10
0.0
 20
0.0
 30
2.000000000000000E+50
 75
     0
  0
LAYOUT
  5
51
102
{ACAD_XDICTIONARY
360
1FF4D
102
}
102
{ACAD_REACTORS
330
1A
102
}
330
1A
100
AcDbPlotSettings
  1

  2
None
  4

  6

 40
0.0
 41
0.0
 42
0.0
 43
0.0
 44
0.0
 45
0.0
 46
0.0
 47
0.0
 48
0.0
 49
0.0
140
0.0
141
0.0
142
1.0
143
1.0
 70
   688
 72
     0
 73
     0
 74
     5
  7

 75
    16
147
1.0
148
0.0
149
0.0
100
AcDbLayout
  1
Layout1
 70
     1
 71
     1
 10
0.0
 20
0.0
 11
12.0
 21
9.0
 12
0.0
 22
0.0
 32
0.0
 14
0.0
 24
0.0
 34
0.0
 15
0.0
 25
0.0
 35
0.0
146
0.0
 13
0.0
 23
0.0
 33
0.0
 16
1.0
 26
0.0
 36
0.0
 17
0.0
 27
1.0
 37
0.0
 76
     0
330
50
  0
LAYOUT
  5
56
102
{ACAD_XDICTIONARY
360
1FF4F
102
}
102
{ACAD_REACTORS
330
1A
102
}
330
1A
100
AcDbPlotSettings
  1

  2
None
  4

  6

 40
0.0
 41
0.0
 42
0.0
 43
0.0
 44
0.0
 45
0.0
 46
0.0
 47
0.0
 48
0.0
 49
0.0
140
0.0
141
0.0
142
1.0
143
1.0
 70
   688
 72
     0
 73
     0
 74
     5
  7

 75
    16
147
1.0
148
0.0
149
0.0
100
AcDbLayout
  1
Layout2
 70
     1
 71
     2
 10
0.0
 20
0.0
 11
12.0
 21
9.0
 12
0.0
 22
0.0
 32
0.0
 14
0.0
 24
0.0
 34
0.0
 15
0.0
 25
0.0
 35
0.0
146
0.0
 13
0.0
 23
0.0
 33
0.0
 16
1.0
 26
0.0
 36
0.0
 17
0.0
 27
1.0
 37
0.0
 76
     0
330
55
  0
LAYOUT
  5
22
102
{ACAD_XDICTIONARY
360
1FF4B
102
}
102
{ACAD_REACTORS
330
1A
102
}
330
1A
100
AcDbPlotSettings
  1

  2
\\AMBW779A\A_P00873 (Canon iR2200-3300 PCL6)
  4
A4
  6

 40
4.815417
 41
4.815412
 42
4.815413999999996
 43
4.81543
 44
209.973328
 45
296.925995
 46
0.0
 47
0.0
 48
0.0
 49
0.0
140
0.0
141
0.0
142
1.0
143
1.522439501186379
 70
 11952
 72
     1
 73
     1
 74
     0
  7
monochrome.ctb
 75
     0
147
0.6568405504591395
148
-1047.618704464668
149
-334.8207486987071
100
AcDbLayout
  1
Model
 70
     1
 71
     0
 10
0.0
 20
0.0
 11
12.0
 21
9.0
 12
0.0
 22
0.0
 32
0.0
 14
0.0
 24
0.0
 34
0.0
 15
0.0
 25
0.0
 35
0.0
146
0.0
 13
0.0
 23
0.0
 33
0.0
 16
1.0
 26
0.0
 36
0.0
 17
0.0
 27
1.0
 37
0.0
 76
     0
330
1F
331
8B28
  0
MATERIAL
  5
8B37
102
{ACAD_XDICTIONARY
360
8B5F
102
}
102
{ACAD_REACTORS
330
2080
102
}
330
2080
100
AcDbMaterial
  1
ByBlock
  0
MATERIAL
  5
8B36
102
{ACAD_XDICTIONARY
360
8B5D
102
}
102
{ACAD_REACTORS
330
2080
102
}
330
2080
100
AcDbMaterial
  1
ByLayer
  0
MATERIAL
  5
8B38
102
{ACAD_XDICTIONARY
360
8B61
102
}
102
{ACAD_REACTORS
330
2080
102
}
330
2080
100
AcDbMaterial
  1
Global
  0
MLINESTYLE
  5
18
102
{ACAD_REACTORS
330
17
102
}
330
17
100
AcDbMlineStyle
  2
STANDARD
 70
     0
  3

 62
   256
 51
90.0
 52
90.0
 71
     2
 49
0.5
 62
   256
  6
BYLAYER
 49
-0.5
 62
   256
  6
BYLAYER
  0
ACDBPLACEHOLDER
  5
F
102
{ACAD_REACTORS
330
E
102
}
330
E
  0
TABLESTYLE
  5
8B4B
102
{ACAD_XDICTIONARY
360
1FF51
102
}
102
{ACAD_REACTORS
330
8B4A
102
}
330
8B4A
100
AcDbTableStyle
  3
Standard
 70
     0
 71
     0
 40
1.5
 41
1.5
280
     0
281
     0
  7
Standard
140
4.5
170
     2
 62
     0
 63
     7
283
     0
274
    -2
284
     1
 64
     0
275
    -2
285
     1
 65
     0
276
    -2
286
     1
 66
     0
277
    -2
287
     1
 67
     0
278
    -2
288
     1
 68
     0
279
    -2
289
     1
 69
     0
  7
Standard
140
6.0
170
     5
 62
     0
 63
     7
283
     0
274
    -2
284
     1
 64
     0
275
    -2
285
     1
 65
     0
276
    -2
286
     1
 66
     0
277
    -2
287
     1
 67
     0
278
    -2
288
     1
 68
     0
279
    -2
289
     1
 69
     0
  7
Standard
140
4.5
170
     5
 62
     0
 63
     7
283
     0
274
    -2
284
     1
 64
     0
275
    -2
285
     1
 65
     0
276
    -2
286
     1
 66
     0
277
    -2
287
     1
 67
     0
278
    -2
288
     1
 68
     0
279
    -2
289
     1
 69
     0
  0
VISUALSTYLE
  5
8B3F
102
{ACAD_REACTORS
330
8B39
102
}
330
8B39
100
AcDbVisualStyle
  2
2dWireframe
 70
     4
 71
     0
 72
     2
 73
     0
 90
        0
 40
-0.6
 41
-30.0
 62
     5
 63
     7
 74
     1
 91
        4
 64
     7
 65
   257
 75
     1
175
     1
 42
1.0
 92
        0
 66
   257
 43
1.0
 76
     1
 77
     6
 78
     2
 67
     7
 79
     5
170
     0
171
     0
290
     0
174
     0
 93
        1
 44
0.0
173
     0
291
     0
 45
0.0
1001
ACAD
1000
AcDbSavedByObjectVersion
1070
     0
1000
AcDbSavedByObjectVersion
1070
     0
1000
AcDbSavedByObjectVersion
1070
     0
1000
AcDbSavedByObjectVersion
1070
     0
1000
AcDbSavedByObjectVersion
1070
     0
1000
AcDbSavedByObjectVersion
1070
     0
  0
VISUALSTYLE
  5
8B41
102
{ACAD_REACTORS
330
8B39
102
}
330
8B39
100
AcDbVisualStyle
  2
3D Hidden
 70
     6
 71
     1
 72
     2
 73
     2
 90
        0
 40
-0.6
 41
-30.0
 62
     5
 63
     7
 74
     2
 91
        2
 64
     7
 65
   257
 75
     2
175
     1
 42
40.0
 92
        0
 66
   257
 43
1.0
 76
     1
 77
     6
 78
     2
 67
     7
 79
     3
170
     0
171
     0
290
     0
174
     0
 93
        1
 44
0.0
173
     0
291
     0
 45
0.0
1001
ACAD
1000
AcDbSavedByObjectVersion
1070
     0
1000
AcDbSavedByObjectVersion
1070
     0
1000
AcDbSavedByObjectVersion
1070
     0
1000
AcDbSavedByObjectVersion
1070
     0
1000
AcDbSavedByObjectVersion
1070
     0
1000
AcDbSavedByObjectVersion
1070
     0
  0
VISUALSTYLE
  5
8B40
102
{ACAD_REACTORS
330
8B39
102
}
330
8B39
100
AcDbVisualStyle
  2
3dWireframe
 70
     5
 71
     0
 72
     2
 73
     0
 90
        0
 40
-0.6
 41
-30.0
 62
     5
 63
     7
 74
     1
 91
        4
 64
     7
 65
   257
 75
     1
175
     1
 42
1.0
 92
        0
 66
   257
 43
1.0
 76
     1
 77
     6
 78
     2
 67
     7
 79
     5
170
     0
171
     0
290
     0
174
     0
 93
        1
 44
0.0
173
     0
291
     0
 45
0.0
1001
ACAD
1000
AcDbSavedByObjectVersion
1070
     0
1000
AcDbSavedByObjectVersion
1070
     0
1000
AcDbSavedByObjectVersion
1070
     0
1000
AcDbSavedByObjectVersion
1070
     0
1000
AcDbSavedByObjectVersion
1070
     0
1000
AcDbSavedByObjectVersion
1070
     0
  0
VISUALSTYLE
  5
8B3E
102
{ACAD_REACTORS
330
8B39
102
}
330
8B39
100
AcDbVisualStyle
  2
Basic
 70
     7
 71
     1
 72
     0
 73
     1
 90
        0
 40
-0.6
 41
-30.0
 62
     5
 63
     7
 74
     0
 91
        4
 64
     7
 65
   257
 75
     1
175
     1
 42
1.0
 92
        8
 66
     7
 43
1.0
 76
     1
 77
     6
 78
     2
 67
     7
 79
     5
170
     0
171
     0
290
     0
174
     0
 93
        1
 44
0.0
173
     0
291
     1
 45
0.0
1001
ACAD
1000
AcDbSavedByObjectVersion
1070
     0
1000
AcDbSavedByObjectVersion
1070
     0
1000
AcDbSavedByObjectVersion
1070
     0
1000
AcDbSavedByObjectVersion
1070
     0
1000
AcDbSavedByObjectVersion
1070
     0
1000
AcDbSavedByObjectVersion
1070
     0
  0
VISUALSTYLE
  5
8B45
102
{ACAD_REACTORS
330
8B39
102
}
330
8B39
100
AcDbVisualStyle
  2
Brighten
 70
    12
 71
     2
 72
     2
 73
     0
 90
        0
 40
-0.6
 41
-30.0
 62
     5
 63
     7
 74
     1
 91
        4
 64
     7
 65
   257
 75
     1
175
     1
 42
1.0
 92
        8
 66
     7
 43
1.0
 76
     1
 77
     6
 78
     2
 67
     7
 79
     5
170
     0
171
     0
290
     0
174
     0
 93
        1
 44
50.0
173
     0
291
     1
 45
0.0
1001
ACAD
1000
AcDbSavedByObjectVersion
1070
     0
1000
AcDbSavedByObjectVersion
1070
     0
1000
AcDbSavedByObjectVersion
1070
     0
1000
AcDbSavedByObjectVersion
1070
     0
1000
AcDbSavedByObjectVersion
1070
     0
1000
AcDbSavedByObjectVersion
1070
     0
  0
VISUALSTYLE
  5
8B49
102
{ACAD_REACTORS
330
8B39
102
}
330
8B39
100
AcDbVisualStyle
  2
ColorChange
 70
    16
 71
     2
 72
     2
 73
     3
 90
        0
 40
-0.6
 41
-30.0
 62
     5
 63
     8
 74
     1
 91
        4
 64
     7
 65
   257
 75
     1
175
     1
 42
1.0
 92
        8
 66
     8
 43
1.0
 76
     1
 77
     6
 78
     2
 67
     7
 79
     5
170
     0
171
     0
290
     0
174
     0
 93
        1
 44
0.0
173
     0
291
     1
 45
0.0
1001
ACAD
1000
AcDbSavedByObjectVersion
1070
     0
1000
AcDbSavedByObjectVersion
1070
     0
1000
AcDbSavedByObjectVersion
1070
     0
1000
AcDbSavedByObjectVersion
1070
     0
1000
AcDbSavedByObjectVersion
1070
     0
1000
AcDbSavedByObjectVersion
1070
     0
  0
VISUALSTYLE
  5
8B42
102
{ACAD_REACTORS
330
8B39
102
}
330
8B39
100
AcDbVisualStyle
  2
Conceptual
 70
     9
 71
     3
 72
     2
 73
     0
 90
        0
 40
-0.6
 41
-30.0
 62
     5
 63
     7
 74
     2
 91
        2
 64
     7
 65
   257
 75
     1
175
     1
 42
40.0
 92
        8
 66
     7
 43
1.0
 76
     1
 77
     6
 78
     2
 67
     7
 79
     3
170
     0
171
     0
290
     0
174
     0
 93
        1
 44
0.0
173
     0
291
     0
 45
0.0
1001
ACAD
1000
AcDbSavedByObjectVersion
1070
     0
1000
AcDbSavedByObjectVersion
1070
     0
1000
AcDbSavedByObjectVersion
1070
     0
1000
AcDbSavedByObjectVersion
1070
     0
1000
AcDbSavedByObjectVersion
1070
     0
1000
AcDbSavedByObjectVersion
1070
     0
  0
VISUALSTYLE
  5
8B44
102
{ACAD_REACTORS
330
8B39
102
}
330
8B39
100
AcDbVisualStyle
  2
Dim
 70
    11
 71
     2
 72
     2
 73
     0
 90
        0
 40
-0.6
 41
-30.0
 62
     5
 63
     7
 74
     1
 91
        4
 64
     7
 65
   257
 75
     1
175
     1
 42
1.0
 92
        8
 66
     7
 43
1.0
 76
     1
 77
     6
 78
     2
 67
     7
 79
     5
170
     0
171
     0
290
     0
174
     0
 93
        1
 44
-50.0
173
     0
291
     1
 45
0.0
1001
ACAD
1000
AcDbSavedByObjectVersion
1070
     0
1000
AcDbSavedByObjectVersion
1070
     0
1000
AcDbSavedByObjectVersion
1070
     0
1000
AcDbSavedByObjectVersion
1070
     0
1000
AcDbSavedByObjectVersion
1070
     0
1000
AcDbSavedByObjectVersion
1070
     0
  0
VISUALSTYLE
  5
8B48
102
{ACAD_REACTORS
330
8B39
102
}
330
8B39
100
AcDbVisualStyle
  2
Facepattern
 70
    15
 71
     2
 72
     2
 73
     0
 90
        0
 40
-0.6
 41
-30.0
 62
     5
 63
     7
 74
     1
 91
        4
 64
     7
 65
   257
 75
     1
175
     1
 42
1.0
 92
        8
 66
     7
 43
1.0
 76
     1
 77
     6
 78
     2
 67
     7
 79
     5
170
     0
171
     0
290
     0
174
     0
 93
        1
 44
0.0
173
     0
291
     1
 45
0.0
1001
ACAD
1000
AcDbSavedByObjectVersion
1070
     0
1000
AcDbSavedByObjectVersion
1070
     0
1000
AcDbSavedByObjectVersion
1070
     0
1000
AcDbSavedByObjectVersion
1070
     0
1000
AcDbSavedByObjectVersion
1070
     0
1000
AcDbSavedByObjectVersion
1070
     0
  0
VISUALSTYLE
  5
8B3A
102
{ACAD_REACTORS
330
8B39
102
}
330
8B39
100
AcDbVisualStyle
  2
Flat
 70
     0
 71
     2
 72
     1
 73
     1
 90
        2
 40
-0.6
 41
30.0
 62
     5
 63
     7
 74
     0
 91
        4
 64
     7
 65
   257
 75
     1
175
     1
 42
1.0
 92
        8
 66
     7
 43
1.0
 76
     1
 77
     6
 78
     2
 67
     7
 79
     5
170
     0
171
     0
290
     0
174
     0
 93
       13
 44
0.0
173
     0
291
     1
 45
0.0
1001
ACAD
1000
AcDbSavedByObjectVersion
1070
     0
1000
AcDbSavedByObjectVersion
1070
     0
1000
AcDbSavedByObjectVersion
1070
     0
1000
AcDbSavedByObjectVersion
1070
     0
1000
AcDbSavedByObjectVersion
1070
     0
1000
AcDbSavedByObjectVersion
1070
     0
  0
VISUALSTYLE
  5
8B3B
102
{ACAD_REACTORS
330
8B39
102
}
330
8B39
100
AcDbVisualStyle
  2
FlatWithEdges
 70
     1
 71
     2
 72
     1
 73
     1
 90
        2
 40
-0.6
 41
30.0
 62
     5
 63
     7
 74
     1
 91
        4
 64
     7
 65
   257
 75
     1
175
     1
 42
1.0
 92
        0
 66
   257
 43
1.0
 76
     1
 77
     6
 78
     2
 67
     7
 79
     5
170
     0
171
     0
290
     0
174
     0
 93
       13
 44
0.0
173
     0
291
     1
 45
0.0
1001
ACAD
1000
AcDbSavedByObjectVersion
1070
     0
1000
AcDbSavedByObjectVersion
1070
     0
1000
AcDbSavedByObjectVersion
1070
     0
1000
AcDbSavedByObjectVersion
1070
     0
1000
AcDbSavedByObjectVersion
1070
     0
1000
AcDbSavedByObjectVersion
1070
     0
  0
VISUALSTYLE
  5
8B3C
102
{ACAD_REACTORS
330
8B39
102
}
330
8B39
100
AcDbVisualStyle
  2
Gouraud
 70
     2
 71
     2
 72
     2
 73
     1
 90
        2
 40
-0.6
 41
30.0
 62
     5
 63
     7
 74
     0
 91
        4
 64
     7
 65
   257
 75
     1
175
     1
 42
1.0
 92
        0
 66
     7
 43
1.0
 76
     1
 77
     6
 78
     2
 67
     7
 79
     5
170
     0
171
     0
290
     0
174
     0
 93
       13
 44
0.0
173
     0
291
     1
 45
0.0
1001
ACAD
1000
AcDbSavedByObjectVersion
1070
     0
1000
AcDbSavedByObjectVersion
1070
     0
1000
AcDbSavedByObjectVersion
1070
     0
1000
AcDbSavedByObjectVersion
1070
     0
1000
AcDbSavedByObjectVersion
1070
     0
1000
AcDbSavedByObjectVersion
1070
     0
  0
VISUALSTYLE
  5
8B3D
102
{ACAD_REACTORS
330
8B39
102
}
330
8B39
100
AcDbVisualStyle
  2
GouraudWithEdges
 70
     3
 71
     2
 72
     2
 73
     1
 90
        2
 40
-0.6
 41
30.0
 62
     5
 63
     7
 74
     1
 91
        4
 64
     7
 65
   257
 75
     1
175
     1
 42
1.0
 92
        0
 66
   257
 43
1.0
 76
     1
 77
     6
 78
     2
 67
     7
 79
     5
170
     0
171
     0
290
     0
174
     0
 93
       13
 44
0.0
173
     0
291
     1
 45
0.0
1001
ACAD
1000
AcDbSavedByObjectVersion
1070
     0
1000
AcDbSavedByObjectVersion
1070
     0
1000
AcDbSavedByObjectVersion
1070
     0
1000
AcDbSavedByObjectVersion
1070
     0
1000
AcDbSavedByObjectVersion
1070
     0
1000
AcDbSavedByObjectVersion
1070
     0
  0
VISUALSTYLE
  5
8B47
102
{ACAD_REACTORS
330
8B39
102
}
330
8B39
100
AcDbVisualStyle
  2
Linepattern
 70
    14
 71
     2
 72
     2
 73
     0
 90
        0
 40
-0.6
 41
-30.0
 62
     5
 63
     7
 74
     1
 91
        4
 64
     7
 65
   257
 75
     7
175
     7
 42
1.0
 92
        8
 66
     7
 43
1.0
 76
     1
 77
     6
 78
     2
 67
     7
 79
     5
170
     0
171
     0
290
     0
174
     0
 93
        1
 44
0.0
173
     0
291
     1
 45
0.0
1001
ACAD
1000
AcDbSavedByObjectVersion
1070
     0
1000
AcDbSavedByObjectVersion
1070
     0
1000
AcDbSavedByObjectVersion
1070
     0
1000
AcDbSavedByObjectVersion
1070
     0
1000
AcDbSavedByObjectVersion
1070
     0
1000
AcDbSavedByObjectVersion
1070
     0
  0
VISUALSTYLE
  5
8B43
102
{ACAD_REACTORS
330
8B39
102
}
330
8B39
100
AcDbVisualStyle
  2
Realistic
 70
     8
 71
     2
 72
     2
 73
     0
 90
        0
 40
-0.6
 41
-30.0
 62
     5
 63
     7
 74
     1
 91
        0
 64
     7
 65
   257
 75
     1
175
     1
 42
1.0
 92
        8
 66
     8
 43
1.0
 76
     1
 77
     6
 78
     2
 67
     7
 79
     5
170
     0
171
     0
290
     0
174
     0
 93
       13
 44
0.0
173
     0
291
     0
 45
0.0
1001
ACAD
1000
AcDbSavedByObjectVersion
1070
     0
1000
AcDbSavedByObjectVersion
1070
     0
1000
AcDbSavedByObjectVersion
1070
     0
1000
AcDbSavedByObjectVersion
1070
     0
1000
AcDbSavedByObjectVersion
1070
     0
1000
AcDbSavedByObjectVersion
1070
     0
  0
VISUALSTYLE
  5
8B46
102
{ACAD_REACTORS
330
8B39
102
}
330
8B39
100
AcDbVisualStyle
  2
Thicken
 70
    13
 71
     2
 72
     2
 73
     0
 90
        0
 40
-0.6
 41
-30.0
 62
     5
 63
     7
 74
     1
 91
        4
 64
     7
 65
   257
 75
     1
175
     1
 42
1.0
 92
       12
 66
     7
 43
1.0
 76
     1
 77
     6
 78
     2
 67
     7
 79
     5
170
     0
171
     0
290
     0
174
     0
 93
        1
 44
0.0
173
     0
291
     1
 45
0.0
1001
ACAD
1000
AcDbSavedByObjectVersion
1070
     0
1000
AcDbSavedByObjectVersion
1070
     0
1000
AcDbSavedByObjectVersion
1070
     0
1000
AcDbSavedByObjectVersion
1070
     0
1000
AcDbSavedByObjectVersion
1070
     0
1000
AcDbSavedByObjectVersion
1070
     0
  0
DICTIONARYVAR
  5
8B53
102
{ACAD_REACTORS
330
5E
102
}
330
5E
100
DictionaryVariables
280
     0
  1
STANDARD
  0
DICTIONARYVAR
  5
5F
102
{ACAD_REACTORS
330
5E
102
}
330
5E
100
DictionaryVariables
280
     0
  1
2
  0
DICTIONARYVAR
  5
63
102
{ACAD_REACTORS
330
5E
102
}
330
5E
100
DictionaryVariables
280
     0
  1
1
  0
DICTIONARYVAR
  5
8B55
102
{ACAD_REACTORS
330
5E
102
}
330
5E
100
DictionaryVariables
280
     0
  1
0
  0
DICTIONARYVAR
  5
7A40
102
{ACAD_REACTORS
330
5E
102
}
330
5E
100
DictionaryVariables
280
     0
  1

  0
DICTIONARYVAR
  5
8B54
102
{ACAD_REACTORS
330
5E
102
}
330
5E
100
DictionaryVariables
280
     0
  1
127
  0
DICTIONARY
  5
1FF4D
330
51
100
AcDbDictionary
280
     1
281
     1
  3
ACAD_XREC_ROUNDTRIP
360
1FF4E
  0
DICTIONARY
  5
1FF4F
330
56
100
AcDbDictionary
280
     1
281
     1
  3
ACAD_XREC_ROUNDTRIP
360
1FF50
  0
DICTIONARY
  5
1FF4B
330
22
100
AcDbDictionary
280
     1
281
     1
  3
ACAD_XREC_ROUNDTRIP
360
1FF4C
  0
DICTIONARY
  5
8B5F
330
8B37
100
AcDbDictionary
280
     1
281
     1
  3
ACAD_XREC_ROUNDTRIP
360
8B60
  0
DICTIONARY
  5
8B5D
330
8B36
100
AcDbDictionary
280
     1
281
     1
  3
ACAD_XREC_ROUNDTRIP
360
8B5E
  0
DICTIONARY
  5
8B61
330
8B38
100
AcDbDictionary
280
     1
281
     1
  3
ACAD_XREC_ROUNDTRIP
360
8B62
  0
DICTIONARY
  5
1FF51
330
8B4B
100
AcDbDictionary
280
     1
281
     1
  3
ACAD_XREC_ROUNDTRIP
360
1FF52
  0
XRECORD
  5
1FF4E
102
{ACAD_REACTORS
330
1FF4D
102
}
330
1FF4D
100
AcDbXrecord
280
     1
102
SHADEPLOT
 70
     0
102
SHADEPLOTRESLEVEL
 70
     2
102
SHADEPLOTCUSTOMDPI
 70
   300
  0
XRECORD
  5
1FF50
102
{ACAD_REACTORS
330
1FF4F
102
}
330
1FF4F
100
AcDbXrecord
280
     1
102
SHADEPLOT
 70
     0
102
SHADEPLOTRESLEVEL
 70
     2
102
SHADEPLOTCUSTOMDPI
 70
   300
  0
XRECORD
  5
1FF4C
102
{ACAD_REACTORS
330
1FF4B
102
}
330
1FF4B
100
AcDbXrecord
280
     1
102
SHADEPLOT
 70
     1
102
SHADEPLOTRESLEVEL
 70
     2
102
SHADEPLOTCUSTOMDPI
 70
   300
  0
XRECORD
  5
8B60
102
{ACAD_REACTORS
330
8B5F
102
}
330
8B5F
100
AcDbXrecord
280
     1
102
MATERIAL
148
0.0
149
0.0
149
0.0
 93
        0
 94
       63
282
     0
 72
     1
 77
     1
171
     1
175
     1
179
     1
273
     0
  0
XRECORD
  5
8B5E
102
{ACAD_REACTORS
330
8B5D
102
}
330
8B5D
100
AcDbXrecord
280
     1
102
MATERIAL
148
0.0
149
0.0
149
0.0
 93
        0
 94
       63
282
     0
 72
     1
 77
     1
171
     1
175
     1
179
     1
273
     0
  0
XRECORD
  5
8B62
102
{ACAD_REACTORS
330
8B61
102
}
330
8B61
100
AcDbXrecord
280
     1
102
MATERIAL
148
0.0
149
0.0
149
0.0
 93
        0
 94
       63
282
     0
 72
     1
 77
     1
171
     1
175
     1
179
     1
273
     0
  0
XRECORD
  5
1FF52
102
{ACAD_REACTORS
330
1FF51
102
}
330
1FF51
100
AcDbXrecord
280
     1
102
ACAD_ROUNDTRIP_PRE2007_TABLESTYLE
 90
      512
 91
        0
  1

 92
      512
 93
        0
  2

 94
      512
 95
        0
  3

  0
ENDSEC
  0
EOF
