  0
SECTION
  2
HEADER
  9
$ACADVER
  1
AC1015
  9
$ACADMAINTVER
 70
    20
  9
$DWGCODEPAGE
  3
ANSI_1252
  9
$INSBASE
 10
0.0
 20
0.0
 30
0.0
  9
$EXTMIN
 10
667.3002389181964
 20
-16.5
 30
0.0
  9
$EXTMAX
 10
1117.300238918196
 20
313.5
 30
0.0
  9
$LIMMIN
 10
0.0
 20
0.0
  9
$LIMMAX
 10
420.0
 20
297.0
  9
$ORTHOMODE
 70
     0
  9
$REGENMODE
 70
     1
  9
$FILLMODE
 70
     1
  9
$QTEXTMODE
 70
     0
  9
$MIRRTEXT
 70
     0
  9
$LTSCALE
 40
0.5
  9
$ATTMODE
 70
     1
  9
$TEXTSIZE
 40
2.5
  9
$TRACEWID
 40
1.0
  9
$TEXTSTYLE
  7
Standard
  9
$CLAYER
  8
10000_FRONT
  9
$CELTYPE
  6
ByLayer
  9
$CECOLOR
 62
   256
  9
$CELTSCALE
 40
1.0
  9
$DISPSILH
 70
     0
  9
$DIMSCALE
 40
1.0
  9
$DIMASZ
 40
3.5
  9
$DIMEXO
 40
0.0
  9
$DIMDLI
 40
10.0
  9
$DIMRND
 40
0.0
  9
$DIMDLE
 40
0.0
  9
$DIMEXE
 40
1.0
  9
$DIMTP
 40
0.1
  9
$DIMTM
 40
0.1
  9
$DIMTXT
 40
3.5
  9
$DIMCEN
 40
3.5
  9
$DIMTSZ
 40
0.0
  9
$DIMTOL
 70
     0
  9
$DIMLIM
 70
     0
  9
$DIMTIH
 70
     0
  9
$DIMTOH
 70
     0
  9
$DIMSE1
 70
     0
  9
$DIMSE2
 70
     0
  9
$DIMTAD
 70
     1
  9
$DIMZIN
 70
     8
  9
$DIMBLK
  1

  9
$DIMASO
 70
     1
  9
$DIMSHO
 70
     1
  9
$DIMPOST
  1

  9
$DIMAPOST
  1
"
  9
$DIMALT
 70
     0
  9
$DIMALTD
 70
     2
  9
$DIMALTF
 40
0.0393701
  9
$DIMLFAC
 40
1.0
  9
$DIMTOFL
 70
     1
  9
$DIMTVP
 40
0.0
  9
$DIMTIX
 70
     0
  9
$DIMSOXD
 70
     0
  9
$DIMSAH
 70
     0
  9
$DIMBLK1
  1

  9
$DIMBLK2
  1

  9
$DIMSTYLE
  2
DIN_3.5
  9
$DIMCLRD
 70
   256
  9
$DIMCLRE
 70
   256
  9
$DIMCLRT
 70
   256
  9
$DIMTFAC
 40
0.71
  9
$DIMGAP
 40
1.5
  9
$DIMJUST
 70
     0
  9
$DIMSD1
 70
     0
  9
$DIMSD2
 70
     0
  9
$DIMTOLJ
 70
     0
  9
$DIMTZIN
 70
     8
  9
$DIMALTZ
 70
     0
  9
$DIMALTTZ
 70
     0
  9
$DIMUPT
 70
     0
  9
$DIMDEC
 70
     1
  9
$DIMTDEC
 70
     1
  9
$DIMALTU
 70
     2
  9
$DIMALTTD
 70
     2
  9
$DIMTXSTY
  7
Standard
  9
$DIMAUNIT
 70
     0
  9
$DIMADEC
 70
     0
  9
$DIMALTRND
 40
0.0
  9
$DIMAZIN
 70
     2
  9
$DIMDSEP
 70
    44
  9
$DIMATFIT
 70
     3
  9
$DIMFRAC
 70
     0
  9
$DIMLDRBLK
  1

  9
$DIMLUNIT
 70
     2
  9
$DIMLWD
 70
    -1
  9
$DIMLWE
 70
    -1
  9
$DIMTMOVE
 70
     0
  9
$LUNITS
 70
     2
  9
$LUPREC
 70
     4
  9
$SKETCHINC
 40
1.0
  9
$FILLETRAD
 40
0.0
  9
$AUNITS
 70
     0
  9
$AUPREC
 70
     0
  9
$MENU
  1
.
  9
$ELEVATION
 40
0.0
  9
$PELEVATION
 40
0.0
  9
$THICKNESS
 40
0.0
  9
$LIMCHECK
 70
     0
  9
$CHAMFERA
 40
0.0
  9
$CHAMFERB
 40
0.0
  9
$CHAMFERC
 40
0.0
  9
$CHAMFERD
 40
0.0
  9
$SKPOLY
 70
     0
  9
$TDCREATE
 40
2454670.331884259
  9
$TDUCREATE
 40
2454670.248550926
  9
$TDUPDATE
 40
2454673.499923623
  9
$TDUUPDATE
 40
2454673.416590289
  9
$TDINDWG
 40
0.0420735764
  9
$TDUSRTIMER
 40
0.0420732176
  9
$USRTIMER
 70
     1
  9
$ANGBASE
 50
0.0
  9
$ANGDIR
 70
     0
  9
$PDMODE
 70
     0
  9
$PDSIZE
 40
0.0
  9
$PLINEWID
 40
0.0
  9
$SPLFRAME
 70
     0
  9
$SPLINETYPE
 70
     6
  9
$SPLINESEGS
 70
     8
  9
$HANDSEED
  5
4B79
  9
$SURFTAB1
 70
     6
  9
$SURFTAB2
 70
     6
  9
$SURFTYPE
 70
     6
  9
$SURFU
 70
     6
  9
$SURFV
 70
     6
  9
$UCSBASE
  2

  9
$UCSNAME
  2

  9
$UCSORG
 10
0.0
 20
0.0
 30
0.0
  9
$UCSXDIR
 10
1.0
 20
0.0
 30
0.0
  9
$UCSYDIR
 10
0.0
 20
1.0
 30
0.0
  9
$UCSORTHOREF
  2

  9
$UCSORTHOVIEW
 70
     0
  9
$UCSORGTOP
 10
0.0
 20
0.0
 30
0.0
  9
$UCSORGBOTTOM
 10
0.0
 20
0.0
 30
0.0
  9
$UCSORGLEFT
 10
0.0
 20
0.0
 30
0.0
  9
$UCSORGRIGHT
 10
0.0
 20
0.0
 30
0.0
  9
$UCSORGFRONT
 10
0.0
 20
0.0
 30
0.0
  9
$UCSORGBACK
 10
0.0
 20
0.0
 30
0.0
  9
$PUCSBASE
  2

  9
$PUCSNAME
  2

  9
$PUCSORG
 10
0.0
 20
0.0
 30
0.0
  9
$PUCSXDIR
 10
1.0
 20
0.0
 30
0.0
  9
$PUCSYDIR
 10
0.0
 20
1.0
 30
0.0
  9
$PUCSORTHOREF
  2

  9
$PUCSORTHOVIEW
 70
     0
  9
$PUCSORGTOP
 10
0.0
 20
0.0
 30
0.0
  9
$PUCSORGBOTTOM
 10
0.0
 20
0.0
 30
0.0
  9
$PUCSORGLEFT
 10
0.0
 20
0.0
 30
0.0
  9
$PUCSORGRIGHT
 10
0.0
 20
0.0
 30
0.0
  9
$PUCSORGFRONT
 10
0.0
 20
0.0
 30
0.0
  9
$PUCSORGBACK
 10
0.0
 20
0.0
 30
0.0
  9
$USERI1
 70
     0
  9
$USERI2
 70
     0
  9
$USERI3
 70
     0
  9
$USERI4
 70
     0
  9
$USERI5
 70
     0
  9
$USERR1
 40
0.0
  9
$USERR2
 40
0.0
  9
$USERR3
 40
0.0
  9
$USERR4
 40
0.0
  9
$USERR5
 40
0.0
  9
$WORLDVIEW
 70
     1
  9
$SHADEDGE
 70
     3
  9
$SHADEDIF
 70
    70
  9
$TILEMODE
 70
     1
  9
$MAXACTVP
 70
    64
  9
$PINSBASE
 10
0.0
 20
0.0
 30
0.0
  9
$PLIMCHECK
 70
     0
  9
$PEXTMIN
 10
-0.9936687586022115
 20
20.36233246326446
 30
0.0
  9
$PEXTMAX
 10
272.7693535763502
 20
196.7317955205857
 30
0.0
  9
$PLIMMIN
 10
-3.17498779296875
 20
-3.174999952316281
  9
$PLIMMAX
 10
293.8356628417969
 20
206.7983276844024
  9
$UNITMODE
 70
     0
  9
$VISRETAIN
 70
     1
  9
$PLINEGEN
 70
     0
  9
$PSLTSCALE
 70
     1
  9
$TREEDEPTH
 70
  3020
  9
$CMLSTYLE
  2
Standard
  9
$CMLJUST
 70
     0
  9
$CMLSCALE
 40
20.0
  9
$PROXYGRAPHICS
 70
     1
  9
$MEASUREMENT
 70
     1
  9
$CELWEIGHT
370
    13
  9
$ENDCAPS
280
     0
  9
$JOINSTYLE
280
     0
  9
$LWDISPLAY
290
     1
  9
$INSUNITS
 70
     4
  9
$HYPERLINKBASE
  1

  9
$STYLESHEET
  1

  9
$XEDIT
290
     1
  9
$CEPSNTYPE
380
     0
  9
$PSTYLEMODE
290
     1
  9
$FINGERPRINTGUID
  2
{0F156B65-F428-4554-9B56-A51D891B4204}
  9
$VERSIONGUID
  2
{056C46C7-0856-44B0-BAAA-10BB560F9A41}
  9
$EXTNAMES
290
     1
  9
$PSVPSCALE
 40
0.0
  9
$OLESTARTUP
290
     0
  0
ENDSEC
  0
SECTION
  2
CLASSES
  0
CLASS
  1
ACDBDICTIONARYWDFLT
  2
AcDbDictionaryWithDefault
  3
ObjectDBX Classes
 90
        0
280
     0
281
     0
  0
CLASS
  1
MATERIAL
  2
AcDbMaterial
  3
ObjectDBX Classes
 90
     1153
280
     0
281
     0
  0
CLASS
  1
VISUALSTYLE
  2
AcDbVisualStyle
  3
ObjectDBX Classes
 90
     4095
280
     0
281
     0
  0
CLASS
  1
TABLESTYLE
  2
AcDbTableStyle
  3
ObjectDBX Classes
 90
     4095
280
     0
281
     0
  0
CLASS
  1
DICTIONARYVAR
  2
AcDbDictionaryVar
  3
ObjectDBX Classes
 90
        0
280
     0
281
     0
  0
CLASS
  1
ACAD_EVALUATION_GRAPH
  2
AcDbEvalGraph
  3
ObjectDBX Classes
 90
     1153
280
     0
281
     0
  0
CLASS
  1
ACAECUSTOBJ
  2
AcAeEditorObj
  3
AcAeEditorObj
 90
    33792
280
     0
281
     0
  0
CLASS
  1
BLOCKPOINTPARAMETER
  2
AcDbBlockPointParameter
  3
ObjectDBX Classes
 90
    33921
280
     0
281
     0
  0
CLASS
  1
BLOCKXYGRIP
  2
AcDbBlockXYGrip
  3
ObjectDBX Classes
 90
    33921
280
     0
281
     0
  0
CLASS
  1
BLOCKGRIPLOCATIONCOMPONENT
  2
AcDbBlockGripExpr
  3
ObjectDBX Classes
 90
    33921
280
     0
281
     0
  0
CLASS
  1
XYGRIPENTITY
  2
AcDbBlockXYGripEntity
  3
ObjectDBX Classes
 90
    33793
280
     0
281
     1
  0
CLASS
  1
ACAEEEMGROBJ
  2
AcAeEEMgrObj
  3
AcAeEEMgrObj
 90
    33792
280
     0
281
     0
  0
CLASS
  1
POINTPARAMETERENTITY
  2
AcDbBlockPointParameterEntity
  3
ObjectDBX Classes
 90
    33793
280
     0
281
     1
  0
CLASS
  1
BLOCKMOVEACTION
  2
AcDbBlockMoveAction
  3
ObjectDBX Classes
 90
    33921
280
     0
281
     0
  0
CLASS
  1
MOVEACTIONENTITY
  2
AcDbBlockMoveActionEntity
  3
ObjectDBX Classes
 90
    33793
280
     0
281
     1
  0
CLASS
  1
ACDB_DYNAMICBLOCKPURGEPREVENTER_VERSION
  2
AcDbDynamicBlockPurgePreventer
  3
ObjectDBX Classes
 90
     1153
280
     0
281
     0
  0
CLASS
  1
ACDB_BLOCKREPRESENTATION_DATA
  2
AcDbBlockRepresentationData
  3
ObjectDBX Classes
 90
     1153
280
     0
281
     0
  0
CLASS
  1
SORTENTSTABLE
  2
AcDbSortentsTable
  3
ObjectDBX Classes
 90
        0
280
     0
281
     0
  0
CLASS
  1
DIMASSOC
  2
AcDbDimAssoc
  3
"AcDbDimAssoc|Product Desc:     AcDim ARX App For Dimension|Company:          Autodesk, Inc.|WEB Address:      www.autodesk.com"
 90
    32768
280
     0
281
     0
  0
CLASS
  1
SOLID_BACKGROUND
  2
AcDbSolidBackground
  3
SCENEOE
 90
    36863
280
     0
281
     0
  0
CLASS
  1
NPOCOLLECTION
  2
AcDbImpNonPersistentObjectsCollection
  3
ObjectDBX Classes
 90
    33921
280
     0
281
     0
  0
CLASS
  1
BLOCKBASEPOINTPARAMETER
  2
AcDbBlockBasepointParameter
  3
ObjectDBX Classes
 90
     1153
280
     0
281
     0
  0
CLASS
  1
BASEPOINTPARAMETERENTITY
  2
AcDbBlockBasepointParameterEntity
  3
ObjectDBX Classes
 90
    33793
280
     0
281
     1
  0
CLASS
  1
ACDBPLACEHOLDER
  2
AcDbPlaceHolder
  3
ObjectDBX Classes
 90
        0
280
     0
281
     0
  0
CLASS
  1
LAYOUT
  2
AcDbLayout
  3
ObjectDBX Classes
 90
        0
280
     0
281
     0
  0
ENDSEC
  0
SECTION
  2
TABLES
  0
TABLE
  2
VPORT
  5
8
330
0
100
AcDbSymbolTable
 70
     1
  0
VPORT
  5
28
330
8
100
AcDbSymbolTableRecord
100
AcDbViewportTableRecord
  2
*Active
 70
     0
 10
0.0
 20
0.0
 11
1.0
 21
1.0
 12
917.7672445217137
 22
126.0735074687295
 13
0.0
 23
0.0
 14
10.0
 24
10.0
 15
10.0
 25
10.0
 16
0.0
 26
0.0
 36
1.0
 17
0.0
 27
0.0
 37
0.0
 40
291.8608686015409
 41
2.024651661307609
 42
50.0
 43
0.0
 44
0.0
 50
0.0
 51
0.0
 71
     0
 72
  1000
 73
     1
 74
     3
 75
     0
 76
     0
 77
     0
 78
     0
281
     0
 65
     1
110
0.0
120
0.0
130
0.0
111
1.0
121
0.0
131
0.0
112
0.0
122
1.0
132
0.0
 79
     0
146
0.0
  0
ENDTAB
  0
TABLE
  2
LTYPE
  5
5
330
0
100
AcDbSymbolTable
 70
    18
  0
LTYPE
  5
29
330
5
100
AcDbSymbolTableRecord
100
AcDbLinetypeTableRecord
  2
ByBlock
 70
     0
  3

 72
    65
 73
     0
 40
0.0
  0
LTYPE
  5
2A
330
5
100
AcDbSymbolTableRecord
100
AcDbLinetypeTableRecord
  2
ByLayer
 70
     0
  3

 72
    65
 73
     0
 40
0.0
  0
LTYPE
  5
2B
330
5
100
AcDbSymbolTableRecord
100
AcDbLinetypeTableRecord
  2
Continuous
 70
     0
  3
Solid line
 72
    65
 73
     0
 40
0.0
  0
LTYPE
  5
1783
330
5
100
AcDbSymbolTableRecord
100
AcDbLinetypeTableRecord
  2
CENTER
 70
     0
  3
Mitte ____ _ ____ _ ____ _ ____ _ ____ _ ____
 72
    65
 73
     4
 40
50.8
 49
31.75
 74
     0
 49
-6.349999999999997
 74
     0
 49
6.349999999999997
 74
     0
 49
-6.349999999999997
 74
     0
  0
LTYPE
  5
1787
330
5
100
AcDbSymbolTableRecord
100
AcDbLinetypeTableRecord
  2
AM_DIN_G_W050
 70
     0
  3
____ . ____ . ____ . ____ . ____ . ____ . ____
 72
    65
 73
     4
 40
13.75
 49
9.75
 74
     0
 49
-1.5
 74
     0
 49
1.0
 74
     0
 49
-1.5
 74
     0
  0
LTYPE
  5
1788
330
5
100
AcDbSymbolTableRecord
100
AcDbLinetypeTableRecord
  2
AM_DIN_K_W050
 70
     0
  3
_____ . . _____ . . _____ . . ____ .. ____
 72
    65
 73
     6
 40
16.25
 49
9.75
 74
     0
 49
-1.5
 74
     0
 49
1.0
 74
     0
 49
-1.5
 74
     0
 49
1.0
 74
     0
 49
-1.5
 74
     0
  0
ENDTAB
  0
TABLE
  2
LAYER
  5
2
102
{ACAD_XDICTIONARY
360
B73
102
}
330
0
100
AcDbSymbolTable
 70
    56
  0
LAYER
  5
25
330
2
100
AcDbSymbolTableRecord
100
AcDbLayerTableRecord
  2
0
 70
     0
 62
     7
  6
Continuous
370
    -3
390
F
  0
LAYER
  5
110
330
2
100
AcDbSymbolTableRecord
100
AcDbLayerTableRecord
  2
Defpoints
 70
     0
 62
     7
  6
Continuous
290
     0
370
    -3
390
F
  0
LAYER
  5
1791
330
2
100
AcDbSymbolTableRecord
100
AcDbLayerTableRecord
  2
90100_FRAME_THICK
 70
     0
 62
     7
  6
Continuous
370
    -3
390
F
  0
LAYER
  5
1792
330
2
100
AcDbSymbolTableRecord
100
AcDbLayerTableRecord
  2
90000_FRAME_THIN
 70
     0
 62
     7
  6
Continuous
370
    -3
390
F
  0
LAYER
  5
1793
330
2
100
AcDbSymbolTableRecord
100
AcDbLayerTableRecord
  2
90200_FRAME_SIZE
 70
     0
 62
     3
  6
AM_DIN_K_W050
370
    -3
390
F
  0
LAYER
  5
1794
330
2
100
AcDbSymbolTableRecord
100
AcDbLayerTableRecord
  2
92000_TITLE
 70
     0
 62
     7
  6
Continuous
370
    -3
390
F
  0
LAYER
  5
1795
330
2
100
AcDbSymbolTableRecord
100
AcDbLayerTableRecord
  2
91100_TIP_SYM
 70
     0
 62
     7
  6
CENTER
370
    -3
390
F
  0
LAYER
  5
1797
330
2
100
AcDbSymbolTableRecord
100
AcDbLayerTableRecord
  2
91200_TIP_SYMB
 70
     0
 62
     7
  6
Continuous
370
    -3
390
F
  0
LAYER
  5
1798
330
2
100
AcDbSymbolTableRecord
100
AcDbLayerTableRecord
  2
10000_FRONT
 70
     0
 62
     7
  6
Continuous
370
    -3
390
F
  0
LAYER
  5
1799
330
2
100
AcDbSymbolTableRecord
100
AcDbLayerTableRecord
  2
11000_LEFT
 70
     0
 62
     7
  6
Continuous
370
    -3
390
F
  0
LAYER
  5
17A1
330
2
100
AcDbSymbolTableRecord
100
AcDbLayerTableRecord
  2
10100_FRONT_DIM
 70
     0
 62
     7
  6
Continuous
370
    -3
390
F
  0
LAYER
  5
17A2
330
2
100
AcDbSymbolTableRecord
100
AcDbLayerTableRecord
  2
11100_LEFT_DIM
 70
     0
 62
     7
  6
Continuous
370
    -3
390
F
  0
ENDTAB
  0
TABLE
  2
STYLE
  5
3
330
0
100
AcDbSymbolTable
 70
     4
  0
STYLE
  5
26
330
3
100
AcDbSymbolTableRecord
100
AcDbTextStyleTableRecord
  2
Standard
 70
     0
 40
0.0
 41
1.0
 50
0.0
 71
     0
 42
2.5
  3
isocpeur.ttf
  4

1001
ACAD
1000
ISOCPEUR
1071
       34
  0
ENDTAB
  0
TABLE
  2
VIEW
  5
6
330
0
100
AcDbSymbolTable
 70
     0
  0
ENDTAB
  0
TABLE
  2
UCS
  5
7
330
0
100
AcDbSymbolTable
 70
     0
  0
ENDTAB
  0
TABLE
  2
APPID
  5
9
330
0
100
AcDbSymbolTable
 70
    25
  0
APPID
  5
27
330
9
100
AcDbSymbolTableRecord
100
AcDbRegAppTableRecord
  2
ACAD
 70
     0
  0
APPID
  5
14F
330
9
100
AcDbSymbolTableRecord
100
AcDbRegAppTableRecord
  2
MCAD_NO_VIS
 70
     0
  0
APPID
  5
150
330
9
100
AcDbSymbolTableRecord
100
AcDbRegAppTableRecord
  2
ACAD_TEMP_GRAPHIC
 70
     0
  0
APPID
  5
151
330
9
100
AcDbSymbolTableRecord
100
AcDbRegAppTableRecord
  2
AD_DRAW
 70
     0
  0
APPID
  5
152
330
9
100
AcDbSymbolTableRecord
100
AcDbRegAppTableRecord
  2
ACATTRIBSERVICES
 70
     0
  0
APPID
  5
153
330
9
100
AcDbSymbolTableRecord
100
AcDbRegAppTableRecord
  2
GENIUS_GENDIM_13
 70
     0
  0
APPID
  5
154
330
9
100
AcDbSymbolTableRecord
100
AcDbRegAppTableRecord
  2
GENIUS_GENDTOL_13
 70
     0
  0
APPID
  5
155
330
9
100
AcDbSymbolTableRecord
100
AcDbRegAppTableRecord
  2
GENIUS_GE3DTOL_13
 70
     0
  0
APPID
  5
156
330
9
100
AcDbSymbolTableRecord
100
AcDbRegAppTableRecord
  2
ASURF_PCURVE_APPNAME
 70
     0
  0
APPID
  5
157
330
9
100
AcDbSymbolTableRecord
100
AcDbRegAppTableRecord
  2
AMG_3D2D_5.0
 70
     0
  0
APPID
  5
158
330
9
100
AcDbSymbolTableRecord
100
AcDbRegAppTableRecord
  2
DESIGNERASSEMBLIES
 70
     0
  0
APPID
  5
159
330
9
100
AcDbSymbolTableRecord
100
AcDbRegAppTableRecord
  2
ACADM_DIM_EDIT
 70
     0
  0
APPID
  5
15A
330
9
100
AcDbSymbolTableRecord
100
AcDbRegAppTableRecord
  2
AMDT_DM_ADJ
 70
     0
  0
APPID
  5
15B
330
9
100
AcDbSymbolTableRecord
100
AcDbRegAppTableRecord
  2
GENIUS_GENREC_14
 70
     0
  0
APPID
  5
15C
330
9
100
AcDbSymbolTableRecord
100
AcDbRegAppTableRecord
  2
GENIUS_GENODEF_13
 70
     0
  0
APPID
  5
15D
330
9
100
AcDbSymbolTableRecord
100
AcDbRegAppTableRecord
  2
GENIUS_GENOBJ-N-REC_13
 70
     0
  0
APPID
  5
15E
330
9
100
AcDbSymbolTableRecord
100
AcDbRegAppTableRecord
  2
DCO15
 70
     0
  0
APPID
  5
1C8
330
9
100
AcDbSymbolTableRecord
100
AcDbRegAppTableRecord
  2
ACAD_EXEMPT_FROM_CAD_STANDARDS
 70
     0
  0
APPID
  5
227
330
9
100
AcDbSymbolTableRecord
100
AcDbRegAppTableRecord
  2
ACAUTHENVIRON
 70
     0
  0
APPID
  5
3A7
330
9
100
AcDbSymbolTableRecord
100
AcDbRegAppTableRecord
  2
AcDbDynamicBlockTrueName
 70
     0
  0
APPID
  5
3A8
330
9
100
AcDbSymbolTableRecord
100
AcDbRegAppTableRecord
  2
AcDbDynamicBlockGUID
 70
     0
  0
APPID
  5
3AA
330
9
100
AcDbSymbolTableRecord
100
AcDbRegAppTableRecord
  2
AcDbBlockRepETag
 70
     0
  0
APPID
  5
3B2
330
9
100
AcDbSymbolTableRecord
100
AcDbRegAppTableRecord
  2
AcDbBlockRepBTag
 70
     0
  0
APPID
  5
BB9
330
9
100
AcDbSymbolTableRecord
100
AcDbRegAppTableRecord
  2
ACAD_PSEXT
 70
     0
  0
APPID
  5
1DB7
330
9
100
AcDbSymbolTableRecord
100
AcDbRegAppTableRecord
  2
ACAD_DSTYLE_DIMJOGGED_JOGANGLE_SYMBOL
 70
     0
  0
ENDTAB
  0
TABLE
  2
DIMSTYLE
  5
A
330
0
100
AcDbSymbolTable
 70
     7
100
AcDbDimStyleTable
 71
     1
340
17CC
  0
DIMSTYLE
105
17CC
102
{ACAD_REACTORS
330
4962
330
497A
330
4992
330
49C2
330
49DE
102
}
330
A
100
AcDbSymbolTableRecord
100
AcDbDimStyleTableRecord
  2
DIN_3.5
 70
     0
  4
"
 41
3.5
 42
0.0
 43
10.0
 44
1.0
 47
0.1
 48
0.1
 73
     0
 74
     0
 77
     1
 78
     8
 79
     2
140
3.5
141
3.5
143
0.0393701
146
0.71
147
1.5
172
     1
176
   256
177
   256
178
   256
271
     1
272
     1
278
    44
283
     0
284
     8
340
26
371
    -1
372
    -1
  0
ENDTAB
  0
TABLE
  2
BLOCK_RECORD
  5
1
330
0
100
AcDbSymbolTable
 70
    19
  0
BLOCK_RECORD
  5
37
102
{ACAD_XDICTIONARY
360
4CA
102
}
330
1
100
AcDbSymbolTableRecord
100
AcDbBlockTableRecord
  2
*Model_Space
340
3A
  0
BLOCK_RECORD
  5
33
330
1
100
AcDbSymbolTableRecord
100
AcDbBlockTableRecord
  2
*Paper_Space
340
36
  0
BLOCK_RECORD
  5
3B
330
1
100
AcDbSymbolTableRecord
100
AcDbBlockTableRecord
  2
*Paper_Space0
340
3E
  0
BLOCK_RECORD
  5
1758
102
{ACAD_XDICTIONARY
360
1759
102
}
330
1
100
AcDbSymbolTableRecord
100
AcDbBlockTableRecord
  2
TYP_SYMB
340
0
310
2800000020000000200000000100080000000000000400000000000000000000000000000000000000000000000080000080000000808000800000008000800080800000C0C0C000C0DCC000F0CAA6000020400000206000002080000020A0000020C0000020E00000400000004020000040400000406000004080000040A0
310
000040C0000040E00000600000006020000060400000606000006080000060A0000060C0000060E00000800000008020000080400000806000008080000080A0000080C0000080E00000A0000000A0200000A0400000A0600000A0800000A0A00000A0C00000A0E00000C0000000C0200000C0400000C0600000C0800000C0
310
A00000C0C00000C0E00000E0000000E0200000E0400000E0600000E0800000E0A00000E0C00000E0E00040000000400020004000400040006000400080004000A0004000C0004000E00040200000402020004020400040206000402080004020A0004020C0004020E000404000004040200040404000404060004040800040
310
40A0004040C0004040E00040600000406020004060400040606000406080004060A0004060C0004060E00040800000408020004080400040806000408080004080A0004080C0004080E00040A0000040A0200040A0400040A0600040A0800040A0A00040A0C00040A0E00040C0000040C0200040C0400040C0600040C08000
310
40C0A00040C0C00040C0E00040E0000040E0200040E0400040E0600040E0800040E0A00040E0C00040E0E00080000000800020008000400080006000800080008000A0008000C0008000E00080200000802020008020400080206000802080008020A0008020C0008020E00080400000804020008040400080406000804080
310
008040A0008040C0008040E00080600000806020008060400080606000806080008060A0008060C0008060E00080800000808020008080400080806000808080008080A0008080C0008080E00080A0000080A0200080A0400080A0600080A0800080A0A00080A0C00080A0E00080C0000080C0200080C0400080C0600080C0
310
800080C0A00080C0C00080C0E00080E0000080E0200080E0400080E0600080E0800080E0A00080E0C00080E0E000C0000000C0002000C0004000C0006000C0008000C000A000C000C000C000E000C0200000C0202000C0204000C0206000C0208000C020A000C020C000C020E000C0400000C0402000C0404000C0406000C0
310
408000C040A000C040C000C040E000C0600000C0602000C0604000C0606000C0608000C060A000C060C000C060E000C0800000C0802000C0804000C0806000C0808000C080A000C080C000C080E000C0A00000C0A02000C0A04000C0A06000C0A08000C0A0A000C0A0C000C0A0E000C0C00000C0C02000C0C04000C0C06000
310
C0C08000C0C0A000F0FBFF00A4A0A000808080000000FF0000FF000000FFFF00FF000000FF00FF00FFFF0000FFFFFF0000000000000000000000000000000000000000000000000000000000000000000000000000000000000000000000000000000000000000000000000000000000000000000000000000000000000000
310
00000000000000000000000000000000000000000000000000000000000000000000000000000000000000000000000000000000000000000000000000000000000000000000000000000000000000000000000000000000000000000000000000000000000000000000000000000000000000000000000000000000000000
310
000000000000000000000000000000000000000000000000000000000000000000000000000000000000000000000000000000000000000000000000000000000000000000000000000000000000000000000000000000000000000000000000000000000000000000FF000000000000000000000000000000000000000000
310
00000000000000000000FF000000000000000000000000000000000000FFFFFFFFFFFFFF0000000000FFFF0000000000000000000000FFFFFFFFFFFFFF000000000000FF000000FFFF00FFFFFFFF0000000000000000FF000000000000000000000000FF00FFFF000000FF000000FF00000000000000FF0000000000000000
310
00000000FF00FF00000000FF000000FF0000000000FFFFFFFFFFFFFFFFFFFFFFFFFFFFFFFFFFFFFFFFFFFFFFFFFFFFFFFFFFFF00000000FF000000000000000000000000FF00FF000000FFFFFF000000FF000000000000FF000000000000000000000000FF00FF00000000FF000000FF00000000000000FF00000000000000
310
0000000000FF00FF00000000FF000000FF00000000000000FFFFFFFFFFFFFF000000000000FF0000FFFF0000FF00FFFF000000000000000000000000000000FFFFFFFFFFFFFF00000000FFFFFFFF000000000000000000000000000000000000000000000000000000000000FF000000000000000000000000000000000000
310
00000000000000000000000000FF0000000000000000000000000000000000000000000000000000000000000000000000000000000000000000000000000000000000000000000000000000000000000000000000000000000000000000000000000000000000000000000000000000000000000000000000000000000000
310
00000000000000000000000000000000000000000000000000000000000000000000000000000000000000000000000000000000000000000000000000000000000000000000000000000000000000000000000000000000000000000000000000000000000000000000000000000000000000000000000000000000000000
310
0000000000000000000000000000000000000000000000000000000000000000000000000000000000000000000000000000000000000000
102
{BLKREFS
331
171E
331
172B
331
1736
331
174E
331
1965
102
}
1001
AcDbDynamicBlockGUID
1000
{63667387-D1AD-44FC-9ABB-F8AB95C0C54C}
1001
AcDbBlockRepETag
1070
     1
1071
        9
1001
ACAD
1000
DesignCenter Data
1002
{
1070
     1
1070
     4
1002
}
  0
BLOCK_RECORD
  5
1765
102
{ACAD_XDICTIONARY
360
1D18
102
}
330
1
100
AcDbSymbolTableRecord
100
AcDbBlockTableRecord
  2
*U9
340
0
310
2800000020000000200000000100080000000000000400000000000000000000000000000000000000000000000080000080000000808000800000008000800080800000C0C0C000C0DCC000F0CAA6000020400000206000002080000020A0000020C0000020E00000400000004020000040400000406000004080000040A0
310
000040C0000040E00000600000006020000060400000606000006080000060A0000060C0000060E00000800000008020000080400000806000008080000080A0000080C0000080E00000A0000000A0200000A0400000A0600000A0800000A0A00000A0C00000A0E00000C0000000C0200000C0400000C0600000C0800000C0
310
A00000C0C00000C0E00000E0000000E0200000E0400000E0600000E0800000E0A00000E0C00000E0E00040000000400020004000400040006000400080004000A0004000C0004000E00040200000402020004020400040206000402080004020A0004020C0004020E000404000004040200040404000404060004040800040
310
40A0004040C0004040E00040600000406020004060400040606000406080004060A0004060C0004060E00040800000408020004080400040806000408080004080A0004080C0004080E00040A0000040A0200040A0400040A0600040A0800040A0A00040A0C00040A0E00040C0000040C0200040C0400040C0600040C08000
310
40C0A00040C0C00040C0E00040E0000040E0200040E0400040E0600040E0800040E0A00040E0C00040E0E00080000000800020008000400080006000800080008000A0008000C0008000E00080200000802020008020400080206000802080008020A0008020C0008020E00080400000804020008040400080406000804080
310
008040A0008040C0008040E00080600000806020008060400080606000806080008060A0008060C0008060E00080800000808020008080400080806000808080008080A0008080C0008080E00080A0000080A0200080A0400080A0600080A0800080A0A00080A0C00080A0E00080C0000080C0200080C0400080C0600080C0
310
800080C0A00080C0C00080C0E00080E0000080E0200080E0400080E0600080E0800080E0A00080E0C00080E0E000C0000000C0002000C0004000C0006000C0008000C000A000C000C000C000E000C0200000C0202000C0204000C0206000C0208000C020A000C020C000C020E000C0400000C0402000C0404000C0406000C0
310
408000C040A000C040C000C040E000C0600000C0602000C0604000C0606000C0608000C060A000C060C000C060E000C0800000C0802000C0804000C0806000C0808000C080A000C080C000C080E000C0A00000C0A02000C0A04000C0A06000C0A08000C0A0A000C0A0C000C0A0E000C0C00000C0C02000C0C04000C0C06000
310
C0C08000C0C0A000F0FBFF00A4A0A000808080000000FF0000FF000000FFFF00FF000000FF00FF00FFFF0000FFFFFF0000000000000000000000000000000000000000000000000000000000000000000000000000000000000000000000000000000000000000000000000000000000000000000000000000000000000000
310
00000000000000000000000000000000000000000000000000000000000000000000000000000000000000000000000000000000000000000000000000000000000000000000000000000000000000000000000000000000000000000000000000000000000000000000000000000000000000000000000000000000000000
310
00000000000000000000000000000000000000000000000000000000000000000000000000000000000000000000000000000000000000000000000000000000000000000000000000000000000000000000000000000000000000000000000000000000000000000000000000000000000000000000000000000000000000
310
000000000000000000000000000000000000000000000000000000000000000000000000000000000000000000000000000000000000000000000000000000000000000000000000000000000000000000000000000000000000FFFFFFFFFFFFFFFFFFFFFFFFFFFFFFFFFFFFFFFFFFFF0000000000FFFFFFFF00FFFFFFFFFF
310
FFFFFFFFFFFFFFFFFFFFFFFFFFFFFFFFFFFFFF0000FFFFFFFFFFFFFFFFFFFFFFFFFFFFFF000000FFFFFFFFFFFFFF0000FF000000000000FFFFFF00FFFFFFFFFFFFFFFFFFFFFFFFFFFFFFFFFFFFFFFFFFFF00000000000000000000FFFFFFFFFFFFFFFFFFFFFFFFFFFFFF0000000000000000000000000000000000FFFFFFFF
310
FFFFFFFFFFFFFFFFFFFFFF0000000000000000000000000000000000000000000000000000000000000000000000000000000000000000000000000000000000000000000000000000000000000000000000000000000000000000000000000000000000000000000000000000000000000000000000000000000000000000
310
00000000000000000000000000000000000000000000000000000000000000000000000000000000000000000000000000000000000000000000000000000000000000000000000000000000000000000000000000000000000000000000000000000000000000000000000000000000000000000000000000000000000000
310
00000000000000000000000000000000000000000000000000000000000000000000000000000000000000000000000000000000000000000000000000000000000000000000000000000000000000000000000000000000000000000000000000000000000000000000000000000000000000000000000000000000000000
310
0000000000000000000000000000000000000000000000000000000000000000000000000000000000000000000000000000000000000000
1001
AcDbDynamicBlockTrueName
1000
TITLE
1001
AcDbDynamicBlockGUID
1000
{65D03009-AFDC-4B18-8F84-CB5E28FB53D8}
1001
AcDbBlockRepETag
1070
     1
1071
       29
1001
ACAD
1000
DesignCenter Data
1002
{
1070
     1
1070
     4
1002
}
  0
BLOCK_RECORD
  5
177B
102
{ACAD_XDICTIONARY
360
177C
102
}
330
1
100
AcDbSymbolTableRecord
100
AcDbBlockTableRecord
  2
text_allg
340
0
310
2800000020000000200000000100080000000000000400000000000000000000000000000000000000000000000080000080000000808000800000008000800080800000C0C0C000C0DCC000F0CAA6000020400000206000002080000020A0000020C0000020E00000400000004020000040400000406000004080000040A0
310
000040C0000040E00000600000006020000060400000606000006080000060A0000060C0000060E00000800000008020000080400000806000008080000080A0000080C0000080E00000A0000000A0200000A0400000A0600000A0800000A0A00000A0C00000A0E00000C0000000C0200000C0400000C0600000C0800000C0
310
A00000C0C00000C0E00000E0000000E0200000E0400000E0600000E0800000E0A00000E0C00000E0E00040000000400020004000400040006000400080004000A0004000C0004000E00040200000402020004020400040206000402080004020A0004020C0004020E000404000004040200040404000404060004040800040
310
40A0004040C0004040E00040600000406020004060400040606000406080004060A0004060C0004060E00040800000408020004080400040806000408080004080A0004080C0004080E00040A0000040A0200040A0400040A0600040A0800040A0A00040A0C00040A0E00040C0000040C0200040C0400040C0600040C08000
310
40C0A00040C0C00040C0E00040E0000040E0200040E0400040E0600040E0800040E0A00040E0C00040E0E00080000000800020008000400080006000800080008000A0008000C0008000E00080200000802020008020400080206000802080008020A0008020C0008020E00080400000804020008040400080406000804080
310
008040A0008040C0008040E00080600000806020008060400080606000806080008060A0008060C0008060E00080800000808020008080400080806000808080008080A0008080C0008080E00080A0000080A0200080A0400080A0600080A0800080A0A00080A0C00080A0E00080C0000080C0200080C0400080C0600080C0
310
800080C0A00080C0C00080C0E00080E0000080E0200080E0400080E0600080E0800080E0A00080E0C00080E0E000C0000000C0002000C0004000C0006000C0008000C000A000C000C000C000E000C0200000C0202000C0204000C0206000C0208000C020A000C020C000C020E000C0400000C0402000C0404000C0406000C0
310
408000C040A000C040C000C040E000C0600000C0602000C0604000C0606000C0608000C060A000C060C000C060E000C0800000C0802000C0804000C0806000C0808000C080A000C080C000C080E000C0A00000C0A02000C0A04000C0A06000C0A08000C0A0A000C0A0C000C0A0E000C0C00000C0C02000C0C04000C0C06000
310
C0C08000C0C0A000F0FBFF00A4A0A000808080000000FF0000FF000000FFFF00FF000000FF00FF00FFFF0000FFFFFF0000000000000000000000000000000000000000000000000000000000000000000000000000000000000000000000000000000000000000000000000000000000000000000000000000000000000000
310
00000000000000000000000000000000000000000000000000000000000000000000000000000000000000000000000000000000000000000000000000000000000000000000000000000000000000000000000000000000000000000000000000000000000000000000000000000000000000000000000000000000000000
310
00000000000000000000000000000000000000000000000000000000000000000000000000000000000000000000000000000000000000000000000000000000000000000000000000000000000000000000000000000000000000000000000000000000000000000000000000000000000000000000000000000000000000
310
00000000000000000000000000000000000000000000000000000000000000000000000000000000000000000000000000000000000000000000000000000000000000000000000000000000000000000000000000000000000000000000000000000000000000000000000000000000000000000000000000000000000000
310
000000000000FF00FF000000000000000000000000FFFFFFFFFFFFFFFFFFFFFFFFFFFFFFFFFFFFFFFF00000000FFFFFF0000000000FFFFFFFFFFFFFFFFFFFFFFFFFFFFFFFFFFFFFFFFFFFFFFFFFFFFFFFFFFFF0000000000000000000000000000000000000000000000FF00FF000000000000000000000000000000000000
310
00000000000000000000000000000000000000000000000000000000000000000000000000000000000000000000000000000000000000000000000000000000000000000000000000000000000000000000000000000000000000000000000000000000000000000000000000000000000000000000000000000000000000
310
00000000000000000000000000000000000000000000000000000000000000000000000000000000000000000000000000000000000000000000000000000000000000000000000000000000000000000000000000000000000000000000000000000000000000000000000000000000000000000000000000000000000000
310
00000000000000000000000000000000000000000000000000000000000000000000000000000000000000000000000000000000000000000000000000000000000000000000000000000000000000000000000000000000000000000000000000000000000000000000000000000000000000000000000000000000000000
310
0000000000000000000000000000000000000000000000000000000000000000000000000000000000000000000000000000000000000000
102
{BLKREFS
331
1859
331
1D07
331
1D32
102
}
1001
AcDbDynamicBlockGUID
1000
{D409DF77-E7A3-413F-9DD9-C199792E5581}
1001
AcDbBlockRepETag
1070
     1
1071
        2
1001
ACAD
1000
DesignCenter Data
1002
{
1070
     1
1070
     4
1002
}
  0
BLOCK_RECORD
  5
1D24
102
{ACAD_XDICTIONARY
360
1D43
102
}
330
1
100
AcDbSymbolTableRecord
100
AcDbBlockTableRecord
  2
*U12
340
0
102
{BLKREFS
331
1720
331
172C
331
1738
331
1750
331
1942
331
1966
102
}
1001
AcDbBlockRepBTag
1070
     1
1005
1765
  0
BLOCK_RECORD
  5
4963
330
1
100
AcDbSymbolTableRecord
100
AcDbBlockTableRecord
  2
*D13
340
0
  0
BLOCK_RECORD
  5
497B
330
1
100
AcDbSymbolTableRecord
100
AcDbBlockTableRecord
  2
*D14
340
0
  0
BLOCK_RECORD
  5
4993
330
1
100
AcDbSymbolTableRecord
100
AcDbBlockTableRecord
  2
*D15
340
0
  0
BLOCK_RECORD
  5
49C3
330
1
100
AcDbSymbolTableRecord
100
AcDbBlockTableRecord
  2
*D16
340
0
  0
BLOCK_RECORD
  5
49DF
330
1
100
AcDbSymbolTableRecord
100
AcDbBlockTableRecord
  2
*D17
340
0
  0
ENDTAB
  0
ENDSEC
  0
SECTION
  2
BLOCKS
  0
BLOCK
  5
38
330
37
100
AcDbEntity
  8
0
100
AcDbBlockBegin
  2
*Model_Space
 70
     0
 10
0.0
 20
0.0
 30
0.0
  3
*Model_Space
  1

  0
ENDBLK
  5
39
330
37
100
AcDbEntity
  8
0
100
AcDbBlockEnd
  0
BLOCK
  5
34
330
33
100
AcDbEntity
 67
     1
  8
0
100
AcDbBlockBegin
  2
*Paper_Space
 70
     0
 10
0.0
 20
0.0
 30
0.0
  3
*Paper_Space
  1

  0
ENDBLK
  5
35
330
33
100
AcDbEntity
 67
     1
  8
0
100
AcDbBlockEnd
  0
BLOCK
  5
3C
330
3B
100
AcDbEntity
 67
     1
  8
0
100
AcDbBlockBegin
  2
*Paper_Space0
 70
     0
 10
0.0
 20
0.0
 30
0.0
  3
*Paper_Space0
  1

  0
ENDBLK
  5
3D
330
3B
100
AcDbEntity
 67
     1
  8
0
100
AcDbBlockEnd
  0
BLOCK
  5
175A
330
1758
100
AcDbEntity
  8
0
100
AcDbBlockBegin
  2
TYP_SYMB
 70
     0
 10
0.0
 20
0.0
 30
0.0
  3
TYP_SYMB
  1

  0
LINE
  5
175B
330
1758
100
AcDbEntity
  8
91100_TIP_SYM
 48
0.5
370
    18
100
AcDbLine
 10
-35.61364655357738
 20
9.0
 30
0.0
 11
-19.11364655357738
 21
9.0
 31
0.0
1001
AcDbBlockRepETag
1070
     1
1071
        0
1005
175B
  0
LINE
  5
175C
330
1758
100
AcDbEntity
  8
91200_TIP_SYMB
370
    18
100
AcDbLine
 10
-21.11364655357738
 20
4.0
 30
0.0
 11
-33.61364655357738
 21
5.5
 31
0.0
1001
AcDbBlockRepETag
1070
     1
1071
        1
1005
175C
  0
LINE
  5
175D
330
1758
100
AcDbEntity
  8
91200_TIP_SYMB
370
    18
100
AcDbLine
 10
-33.61364655357738
 20
12.5
 30
0.0
 11
-21.11364655357738
 21
14.0
 31
0.0
1001
AcDbBlockRepETag
1070
     1
1071
        2
1005
175D
  0
LINE
  5
175E
330
1758
100
AcDbEntity
  8
91200_TIP_SYMB
370
    18
100
AcDbLine
 10
-33.61364655357738
 20
5.5
 30
0.0
 11
-33.61364655357738
 21
12.5
 31
0.0
1001
AcDbBlockRepETag
1070
     1
1071
        3
1005
175E
  0
CIRCLE
  5
175F
330
1758
100
AcDbEntity
  8
91200_TIP_SYMB
370
    18
100
AcDbCircle
 10
-11.0
 20
9.0
 30
0.0
 40
5.0
1001
AcDbBlockRepETag
1070
     1
1071
        4
1005
175F
  0
LINE
  5
1760
330
1758
100
AcDbEntity
  8
91200_TIP_SYMB
370
    18
100
AcDbLine
 10
-21.11364655357738
 20
14.0
 30
0.0
 11
-21.11364655357738
 21
4.0
 31
0.0
1001
AcDbBlockRepETag
1070
     1
1071
        5
1005
1760
  0
CIRCLE
  5
1761
330
1758
100
AcDbEntity
  8
91200_TIP_SYMB
370
    18
100
AcDbCircle
 10
-11.0
 20
9.0
 30
0.0
 40
2.0
1001
AcDbBlockRepETag
1070
     1
1071
        6
1005
1761
  0
LINE
  5
1762
330
1758
100
AcDbEntity
  8
91100_TIP_SYM
 48
0.5
370
    18
100
AcDbLine
 10
-11.0
 20
16.0
 30
0.0
 11
-11.0
 21
2.0
 31
0.0
1001
AcDbBlockRepETag
1070
     1
1071
        7
1005
1762
  0
LINE
  5
1763
330
1758
100
AcDbEntity
  8
91100_TIP_SYM
 48
0.5
370
    18
100
AcDbLine
 10
-18.0
 20
9.0
 30
0.0
 11
-4.0
 21
9.0
 31
0.0
1001
AcDbBlockRepETag
1070
     1
1071
        8
1005
1763
  0
ENDBLK
  5
1764
330
1758
100
AcDbEntity
  8
0
100
AcDbBlockEnd
  0
BLOCK
  5
1767
330
1765
100
AcDbEntity
  8
0
100
AcDbBlockBegin
  2
*U9
 70
     3
 10
0.0
 20
0.0
 30
0.0
  3
*U9
  1

  0
LINE
  5
1CFC
330
1765
100
AcDbEntity
  8
91100_TIP_SYM
 48
0.5
370
    18
100
AcDbLine
 10
-170.6136465535774
 20
9.0
 30
0.0
 11
-154.1136465535774
 21
9.0
 31
0.0
1001
AcDbBlockRepETag
1070
     1
1071
        0
1005
1CFC
  0
LINE
  5
1CFD
330
1765
100
AcDbEntity
  8
91200_TIP_SYMB
370
    25
100
AcDbLine
 10
-156.1136465535773
 20
4.0
 30
0.0
 11
-168.6136465535773
 21
5.5
 31
0.0
1001
AcDbBlockRepETag
1070
     1
1071
        1
1005
1CFD
  0
LINE
  5
1CFE
330
1765
100
AcDbEntity
  8
91200_TIP_SYMB
370
    25
100
AcDbLine
 10
-168.6136465535773
 20
12.5
 30
0.0
 11
-156.1136465535773
 21
14.0
 31
0.0
1001
AcDbBlockRepETag
1070
     1
1071
        2
1005
1CFE
  0
LINE
  5
1CFF
330
1765
100
AcDbEntity
  8
91200_TIP_SYMB
370
    25
100
AcDbLine
 10
-168.6136465535773
 20
5.5
 30
0.0
 11
-168.6136465535773
 21
12.5
 31
0.0
1001
AcDbBlockRepETag
1070
     1
1071
        3
1005
1CFF
  0
CIRCLE
  5
1D00
330
1765
100
AcDbEntity
  8
91200_TIP_SYMB
370
    25
100
AcDbCircle
 10
-146.0
 20
9.0
 30
0.0
 40
5.0
1001
AcDbBlockRepETag
1070
     1
1071
        4
1005
1D00
  0
LINE
  5
1D01
330
1765
100
AcDbEntity
  8
91200_TIP_SYMB
370
    25
100
AcDbLine
 10
-156.1136465535773
 20
14.0
 30
0.0
 11
-156.1136465535773
 21
4.0
 31
0.0
1001
AcDbBlockRepETag
1070
     1
1071
        5
1005
1D01
  0
CIRCLE
  5
1D02
330
1765
100
AcDbEntity
  8
91200_TIP_SYMB
370
    25
100
AcDbCircle
 10
-146.0
 20
9.0
 30
0.0
 40
2.0
1001
AcDbBlockRepETag
1070
     1
1071
        6
1005
1D02
  0
LINE
  5
1D03
330
1765
100
AcDbEntity
  8
91100_TIP_SYM
 48
0.5
370
    18
100
AcDbLine
 10
-146.0
 20
16.0
 30
0.0
 11
-146.0
 21
2.0
 31
0.0
1001
AcDbBlockRepETag
1070
     1
1071
        7
1005
1D03
  0
LINE
  5
1D04
330
1765
100
AcDbEntity
  8
91100_TIP_SYM
 48
0.5
370
    18
100
AcDbLine
 10
-153.0
 20
9.0
 30
0.0
 11
-139.0
 21
9.0
 31
0.0
1001
AcDbBlockRepETag
1070
     1
1071
        8
1005
1D04
  0
LINE
  5
1D05
330
1765
100
AcDbEntity
  8
92000_TITLE
370
    25
100
AcDbLine
 10
-37.5
 20
0.0
 30
0.0
 11
-37.5
 21
6.0
 31
0.0
1001
GENIUS_GENREC_14
1002
{
1000
PYDIR
1011
-130.0
1021
18.0
1031
0.0
1002
}
1002
{
1000
PXDIR
1011
5.0
1021
0.0
1031
0.0
1002
}
1002
{
1000
PORI
1011
-130.0
1021
0.0
1031
0.0
1002
}
1002
{
1000
PINS
1011
-130.0
1021
0.0
1031
0.0
1002
}
1002
{
1000
HVAL
1000
18
1002
}
1002
{
1000
H
1070
     2
1002
}
1002
{
1000
WVAL
1000
135
1002
}
1002
{
1000
W
1070
     2
1002
}
1002
{
1000
C
1070
     1
1002
}
1001
GENIUS_GENOBJ-N-REC_13
1002
{
1000
OWNER
1000
GEN
1002
}
1001
GENIUS_GENODEF_13
1002
{
1000
HIER
1070
     0
1002
}
1002
{
1000
MANEDIT
1070
     0
1002
}
1002
{
1000
NOSEL
1070
     0
1002
}
1002
{
1000
BEHIND
1070
     0
1002
}
1002
{
1000
OTHER
1070
     0
1002
}
1002
{
1000
REACTOR
1002
}
1001
AcDbBlockRepETag
1070
     1
1071
       17
1005
1D05
  0
LINE
  5
1D06
330
1765
100
AcDbEntity
  8
92000_TITLE
370
    25
100
AcDbLine
 10
0.0
 20
0.0
 30
0.0
 11
0.0
 21
18.0
 31
0.0
1001
GENIUS_GENREC_14
1002
{
1000
PYDIR
1011
-135.0
1021
18.0
1031
0.0
1002
}
1002
{
1000
PXDIR
1011
0.0
1021
0.0
1031
0.0
1002
}
1002
{
1000
PORI
1011
-135.0
1021
0.0
1031
0.0
1002
}
1002
{
1000
PINS
1011
-135.0
1021
0.0
1031
0.0
1002
}
1002
{
1000
HVAL
1000
18
1002
}
1002
{
1000
H
1070
     2
1002
}
1002
{
1000
WVAL
1000
135
1002
}
1002
{
1000
W
1070
     2
1002
}
1002
{
1000
C
1070
     1
1002
}
1001
GENIUS_GENOBJ-N-REC_13
1002
{
1000
OWNER
1000
GEN
1002
}
1001
GENIUS_GENODEF_13
1002
{
1000
HIER
1070
     0
1002
}
1002
{
1000
MANEDIT
1070
     0
1002
}
1002
{
1000
NOSEL
1070
     0
1002
}
1002
{
1000
BEHIND
1070
     0
1002
}
1002
{
1000
OTHER
1070
     0
1002
}
1002
{
1000
REACTOR
1002
}
1001
AcDbBlockRepETag
1070
     1
1071
       18
1005
1D06
  0
INSERT
  5
1D07
330
1765
100
AcDbEntity
  8
0
370
    25
100
AcDbBlockReference
  2
text_allg
 10
-135.0
 20
18.0
 30
0.0
1001
AcDbBlockRepETag
1070
     1
1071
       19
1005
1D07
  0
MTEXT
  5
1D08
330
1765
100
AcDbEntity
  8
92000_TITLE
100
AcDbMText
 10
-110.0
 20
12.0
 30
0.0
 40
3.5
 41
40.0
 71
     5
 72
     5
  1
{\fSiemens Logo|b0|i0|c0|p2;s}
 73
     1
 44
1.0
1001
AcDbBlockRepETag
1070
     1
1071
       20
1005
1D08
1001
ACAD
1000
MTEXTBEGIN
1070
    73
1070
     1
1070
    44
1040
1.0
1070
    74
1070
     0
1000
MTEXTEND
  0
LINE
  5
1D09
330
1765
100
AcDbEntity
  8
92000_TITLE
370
    25
100
AcDbLine
 10
-135.0
 20
0.0
 30
0.0
 11
0.0
 21
0.0
 31
0.0
1001
GENIUS_GENREC_14
1002
{
1000
PYDIR
1011
-135.0
1021
18.0
1031
0.0
1002
}
1002
{
1000
PXDIR
1011
0.0
1021
0.0
1031
0.0
1002
}
1002
{
1000
PORI
1011
-135.0
1021
0.0
1031
0.0
1002
}
1002
{
1000
PINS
1011
-135.0
1021
0.0
1031
0.0
1002
}
1002
{
1000
HVAL
1000
18
1002
}
1002
{
1000
H
1070
     2
1002
}
1002
{
1000
WVAL
1000
135
1002
}
1002
{
1000
W
1070
     2
1002
}
1002
{
1000
C
1070
     1
1002
}
1001
GENIUS_GENOBJ-N-REC_13
1002
{
1000
OWNER
1000
GEN
1002
}
1001
GENIUS_GENODEF_13
1002
{
1000
HIER
1070
     0
1002
}
1002
{
1000
MANEDIT
1070
     0
1002
}
1002
{
1000
NOSEL
1070
     0
1002
}
1002
{
1000
BEHIND
1070
     0
1002
}
1002
{
1000
OTHER
1070
     0
1002
}
1002
{
1000
REACTOR
1002
}
1001
AcDbBlockRepETag
1070
     1
1071
       21
1005
1D09
  0
LINE
  5
1D0A
330
1765
100
AcDbEntity
  8
92000_TITLE
370
    25
100
AcDbLine
 10
0.0
 20
18.0
 30
0.0
 11
-135.0
 21
18.0
 31
0.0
1001
GENIUS_GENREC_14
1002
{
1000
PYDIR
1011
-135.0
1021
18.0
1031
0.0
1002
}
1002
{
1000
PXDIR
1011
0.0
1021
0.0
1031
0.0
1002
}
1002
{
1000
PORI
1011
-135.0
1021
0.0
1031
0.0
1002
}
1002
{
1000
PINS
1011
-135.0
1021
0.0
1031
0.0
1002
}
1002
{
1000
HVAL
1000
18
1002
}
1002
{
1000
H
1070
     2
1002
}
1002
{
1000
WVAL
1000
135
1002
}
1002
{
1000
W
1070
     2
1002
}
1002
{
1000
C
1070
     1
1002
}
1001
GENIUS_GENOBJ-N-REC_13
1002
{
1000
OWNER
1000
GEN
1002
}
1001
GENIUS_GENODEF_13
1002
{
1000
HIER
1070
     0
1002
}
1002
{
1000
MANEDIT
1070
     0
1002
}
1002
{
1000
NOSEL
1070
     0
1002
}
1002
{
1000
BEHIND
1070
     0
1002
}
1002
{
1000
OTHER
1070
     0
1002
}
1002
{
1000
REACTOR
1002
}
1001
AcDbBlockRepETag
1070
     1
1071
       22
1005
1D0A
  0
LINE
  5
1D0B
330
1765
100
AcDbEntity
  8
92000_TITLE
370
    25
100
AcDbLine
 10
0.0
 20
6.0
 30
0.0
 11
-135.0
 21
6.0
 31
0.0
1001
GENIUS_GENREC_14
1002
{
1000
PYDIR
1011
-135.0
1021
18.0
1031
0.0
1002
}
1002
{
1000
PXDIR
1011
0.0
1021
0.0
1031
0.0
1002
}
1002
{
1000
PORI
1011
-135.0
1021
0.0
1031
0.0
1002
}
1002
{
1000
PINS
1011
-135.0
1021
0.0
1031
0.0
1002
}
1002
{
1000
HVAL
1000
18
1002
}
1002
{
1000
H
1070
     2
1002
}
1002
{
1000
WVAL
1000
135
1002
}
1002
{
1000
W
1070
     2
1002
}
1002
{
1000
C
1070
     1
1002
}
1001
GENIUS_GENOBJ-N-REC_13
1002
{
1000
OWNER
1000
GEN
1002
}
1001
GENIUS_GENODEF_13
1002
{
1000
HIER
1070
     0
1002
}
1002
{
1000
MANEDIT
1070
     0
1002
}
1002
{
1000
NOSEL
1070
     0
1002
}
1002
{
1000
BEHIND
1070
     0
1002
}
1002
{
1000
OTHER
1070
     0
1002
}
1002
{
1000
REACTOR
1002
}
1001
AcDbBlockRepETag
1070
     1
1071
       23
1005
1D0B
  0
MTEXT
  5
1D0C
330
1765
100
AcDbEntity
  8
92000_TITLE
370
    25
100
AcDbMText
 10
-127.75
 20
3.0
 30
0.0
 40
2.5
 41
11.0
 71
     5
 72
     5
  1
Date:
 73
     1
 44
1.0
1001
AcDbBlockRepETag
1070
     1
1071
       24
1005
1D0C
1001
ACAD
1000
MTEXTBEGIN
1070
    73
1070
     1
1070
    44
1040
1.0
1070
    74
1070
     0
1000
MTEXTEND
  0
LINE
  5
1D0D
330
1765
100
AcDbEntity
  8
92000_TITLE
370
    25
100
AcDbLine
 10
-135.0
 20
18.0
 30
0.0
 11
-135.0
 21
0.0
 31
0.0
1001
GENIUS_GENREC_14
1002
{
1000
PYDIR
1011
-135.0
1021
18.0
1031
0.0
1002
}
1002
{
1000
PXDIR
1011
0.0
1021
0.0
1031
0.0
1002
}
1002
{
1000
PORI
1011
-135.0
1021
0.0
1031
0.0
1002
}
1002
{
1000
PINS
1011
-135.0
1021
0.0
1031
0.0
1002
}
1002
{
1000
HVAL
1000
18
1002
}
1002
{
1000
H
1070
     2
1002
}
1002
{
1000
WVAL
1000
135
1002
}
1002
{
1000
W
1070
     2
1002
}
1002
{
1000
C
1070
     1
1002
}
1001
GENIUS_GENOBJ-N-REC_13
1002
{
1000
OWNER
1000
GEN
1002
}
1001
GENIUS_GENODEF_13
1002
{
1000
HIER
1070
     0
1002
}
1002
{
1000
MANEDIT
1070
     0
1002
}
1002
{
1000
NOSEL
1070
     0
1002
}
1002
{
1000
BEHIND
1070
     0
1002
}
1002
{
1000
OTHER
1070
     0
1002
}
1002
{
1000
REACTOR
1002
}
1001
AcDbBlockRepETag
1070
     1
1071
       25
1005
1D0D
  0
MTEXT
  5
1D0E
330
1765
100
AcDbEntity
  8
92000_TITLE
370
    25
100
AcDbMText
 10
-102.75
 20
3.0
 30
0.0
 40
2.5
 41
11.0
 71
     5
 72
     5
  1
Name:
 73
     1
 44
1.0
1001
AcDbBlockRepETag
1070
     1
1071
        9
1005
1D0E
1001
ACAD
1000
MTEXTBEGIN
1070
    73
1070
     1
1070
    44
1040
1.0
1070
    74
1070
     0
1000
MTEXTEND
  0
LINE
  5
1D0F
330
1765
100
AcDbEntity
  8
92000_TITLE
100
AcDbLine
 10
-110.0
 20
6.0
 30
0.0
 11
-110.0
 21
0.0
 31
0.0
1001
GENIUS_GENREC_14
1002
{
1000
PYDIR
1011
-135.0
1021
18.0
1031
0.0
1002
}
1002
{
1000
PXDIR
1011
0.0
1021
0.0
1031
0.0
1002
}
1002
{
1000
PORI
1011
-135.0
1021
0.0
1031
0.0
1002
}
1002
{
1000
PINS
1011
-135.0
1021
0.0
1031
0.0
1002
}
1002
{
1000
HVAL
1000
18
1002
}
1002
{
1000
H
1070
     2
1002
}
1002
{
1000
WVAL
1000
135
1002
}
1002
{
1000
W
1070
     2
1002
}
1002
{
1000
C
1070
     1
1002
}
1001
GENIUS_GENOBJ-N-REC_13
1002
{
1000
OWNER
1000
GEN
1002
}
1001
GENIUS_GENODEF_13
1002
{
1000
HIER
1070
     0
1002
}
1002
{
1000
MANEDIT
1070
     0
1002
}
1002
{
1000
NOSEL
1070
     0
1002
}
1002
{
1000
BEHIND
1070
     0
1002
}
1002
{
1000
OTHER
1070
     0
1002
}
1002
{
1000
REACTOR
1002
}
1001
AcDbBlockRepETag
1070
     1
1071
       10
1005
1D0F
  0
TEXT
  5
1D10
330
1765
100
AcDbEntity
  8
92000_TITLE
370
    25
100
AcDbText
 10
-33.625
 20
1.750946969696965
 30
0.0
 40
2.5
  1
Massstab/Scale:
100
AcDbText
1001
AcDbBlockRepETag
1070
     1
1071
       26
1005
1D10
  0
LINE
  5
1D11
330
1765
100
AcDbEntity
  8
92000_TITLE
370
    25
100
AcDbLine
 10
-85.0
 20
18.0
 30
0.0
 11
-85.0
 21
0.0
 31
0.0
1001
GENIUS_GENREC_14
1002
{
1000
PYDIR
1011
-135.0
1021
18.0
1031
0.0
1002
}
1002
{
1000
PXDIR
1011
0.0
1021
0.0
1031
0.0
1002
}
1002
{
1000
PORI
1011
-135.0
1021
0.0
1031
0.0
1002
}
1002
{
1000
PINS
1011
-135.0
1021
0.0
1031
0.0
1002
}
1002
{
1000
HVAL
1000
18
1002
}
1002
{
1000
H
1070
     2
1002
}
1002
{
1000
WVAL
1000
135
1002
}
1002
{
1000
W
1070
     2
1002
}
1002
{
1000
C
1070
     1
1002
}
1001
GENIUS_GENOBJ-N-REC_13
1002
{
1000
OWNER
1000
GEN
1002
}
1001
GENIUS_GENODEF_13
1002
{
1000
HIER
1070
     0
1002
}
1002
{
1000
MANEDIT
1070
     0
1002
}
1002
{
1000
NOSEL
1070
     0
1002
}
1002
{
1000
BEHIND
1070
     0
1002
}
1002
{
1000
OTHER
1070
     0
1002
}
1002
{
1000
REACTOR
1002
}
1001
AcDbBlockRepETag
1070
     1
1071
       12
1005
1D11
  0
LINE
  5
1D12
330
1765
100
AcDbEntity
  8
92000_TITLE
370
    25
100
AcDbLine
 10
-37.5
 20
0.0
 30
0.0
 11
-37.5
 21
6.0
 31
0.0
1001
GENIUS_GENREC_14
1002
{
1000
PYDIR
1011
-130.0
1021
18.0
1031
0.0
1002
}
1002
{
1000
PXDIR
1011
5.0
1021
0.0
1031
0.0
1002
}
1002
{
1000
PORI
1011
-130.0
1021
0.0
1031
0.0
1002
}
1002
{
1000
PINS
1011
-130.0
1021
0.0
1031
0.0
1002
}
1002
{
1000
HVAL
1000
18
1002
}
1002
{
1000
H
1070
     2
1002
}
1002
{
1000
WVAL
1000
135
1002
}
1002
{
1000
W
1070
     2
1002
}
1002
{
1000
C
1070
     1
1002
}
1001
GENIUS_GENOBJ-N-REC_13
1002
{
1000
OWNER
1000
GEN
1002
}
1001
GENIUS_GENODEF_13
1002
{
1000
HIER
1070
     0
1002
}
1002
{
1000
MANEDIT
1070
     0
1002
}
1002
{
1000
NOSEL
1070
     0
1002
}
1002
{
1000
BEHIND
1070
     0
1002
}
1002
{
1000
OTHER
1070
     0
1002
}
1002
{
1000
REACTOR
1002
}
1001
AcDbBlockRepETag
1070
     1
1071
       27
1005
1D12
  0
ATTDEF
  5
1D13
330
1765
100
AcDbEntity
  8
92000_TITLE
370
    25
100
AcDbText
 10
-8.009136915777162
 20
1.844905181593389
 30
0.0
 40
2.5
  1
1:1
 72
     1
 11
-6.384136915777162
 21
3.094905181593389
 31
0.0
100
AcDbAttributeDefinition
  3
Massstab
  2
MASSSTAB/SCALE:
 70
     0
 74
     2
1001
AcDbBlockRepETag
1070
     1
1071
       13
1005
0
  0
ATTDEF
  5
1D14
330
1765
100
AcDbEntity
  8
92000_TITLE
370
    35
100
AcDbText
 10
-42.49999999999952
 20
12.25000000000011
 30
0.0
 40
3.5
  1

 72
     1
 11
-42.49999999999952
 21
14.00000000000011
 31
0.0
100
AcDbAttributeDefinition
  3
Z-Name
  2
ZEICHNUNGSNAME
 70
     0
 74
     2
1001
AcDbBlockRepETag
1070
     1
1071
       14
1005
0
  0
ATTDEF
  5
1D15
330
1765
100
AcDbEntity
  8
92000_TITLE
370
    25
100
AcDbText
 10
-42.49999999999952
 20
7.22778333016015
 30
0.0
 40
2.5
  1

 72
     1
 11
-42.49999999999952
 21
8.47778333016015
 31
0.0
100
AcDbAttributeDefinition
  3
A-Name
  2
ARTIKELNAME
 70
     0
 74
     2
1001
AcDbBlockRepETag
1070
     1
1071
       28
1005
0
  0
ATTDEF
  5
1D16
330
1765
100
AcDbEntity
  8
92000_TITLE
370
    25
100
AcDbText
 10
-116.9999999999995
 20
1.75
 30
0.0
 40
2.5
  1

 72
     1
 11
-116.9999999999995
 21
3.0
 31
0.0
100
AcDbAttributeDefinition
  3
Datum
  2
DATUM
 70
     0
 74
     2
1001
AcDbBlockRepETag
1070
     1
1071
       16
1005
0
  0
ATTDEF
  5
1D17
330
1765
100
AcDbEntity
  8
92000_TITLE
370
    25
100
AcDbText
 10
-91.99999999999954
 20
1.75
 30
0.0
 40
2.5
  1

 72
     1
 11
-91.99999999999954
 21
3.0
 31
0.0
100
AcDbAttributeDefinition
  3
Name
  2
NAME
 70
     0
 74
     2
1001
AcDbBlockRepETag
1070
     1
1071
       15
1005
0
  0
ENDBLK
  5
177A
330
1765
100
AcDbEntity
  8
0
100
AcDbBlockEnd
  0
BLOCK
  5
177D
330
177B
100
AcDbEntity
  8
0
370
    18
100
AcDbBlockBegin
  2
text_allg
 70
     0
 10
0.0
 20
0.0
 30
0.0
  3
text_allg
  1

  0
TEXT
  5
177E
330
177B
100
AcDbEntity
  8
0
370
    25
100
AcDbText
 10
-0.0028789134175895
 20
6.473535615360106
 30
0.0
 40
2.5
  1
Alle Bemassungswerte sind in Millimeter (mm) angegeben
100
AcDbText
1001
AcDbBlockRepETag
1070
     1
1071
        0
1005
177E
  0
TEXT
  5
177F
330
177B
100
AcDbEntity
  8
0
370
    25
100
AcDbText
 10
-0.0028789134175895
 20
2.965492351154351
 30
0.0
 40
2.5
  1
All dimensions are in millimeters (mm)
100
AcDbText
1001
AcDbBlockRepETag
1070
     1
1071
        1
1005
177F
  0
ENDBLK
  5
1780
330
177B
100
AcDbEntity
  8
0
370
    18
100
AcDbBlockEnd
  0
BLOCK
  5
1D25
330
1D24
100
AcDbEntity
  8
0
100
AcDbBlockBegin
  2
*U12
 70
     3
 10
0.0
 20
0.0
 30
0.0
  3
*U12
  1

  0
LINE
  5
1D27
330
1D24
100
AcDbEntity
  8
91100_TIP_SYM
 48
0.5
370
    18
100
AcDbLine
 10
-170.6136465535774
 20
9.0
 30
0.0
 11
-154.1136465535774
 21
9.0
 31
0.0
1001
AcDbBlockRepETag
1070
     1
1071
        0
1005
1D27
  0
LINE
  5
1D28
330
1D24
100
AcDbEntity
  8
91200_TIP_SYMB
370
    25
100
AcDbLine
 10
-156.1136465535773
 20
4.0
 30
0.0
 11
-168.6136465535773
 21
5.5
 31
0.0
1001
AcDbBlockRepETag
1070
     1
1071
        1
1005
1D28
  0
LINE
  5
1D29
330
1D24
100
AcDbEntity
  8
91200_TIP_SYMB
370
    25
100
AcDbLine
 10
-168.6136465535773
 20
12.5
 30
0.0
 11
-156.1136465535773
 21
14.0
 31
0.0
1001
AcDbBlockRepETag
1070
     1
1071
        2
1005
1D29
  0
LINE
  5
1D2A
330
1D24
100
AcDbEntity
  8
91200_TIP_SYMB
370
    25
100
AcDbLine
 10
-168.6136465535773
 20
5.5
 30
0.0
 11
-168.6136465535773
 21
12.5
 31
0.0
1001
AcDbBlockRepETag
1070
     1
1071
        3
1005
1D2A
  0
CIRCLE
  5
1D2B
330
1D24
100
AcDbEntity
  8
91200_TIP_SYMB
370
    25
100
AcDbCircle
 10
-146.0
 20
9.0
 30
0.0
 40
5.0
1001
AcDbBlockRepETag
1070
     1
1071
        4
1005
1D2B
  0
LINE
  5
1D2C
330
1D24
100
AcDbEntity
  8
91200_TIP_SYMB
370
    25
100
AcDbLine
 10
-156.1136465535773
 20
14.0
 30
0.0
 11
-156.1136465535773
 21
4.0
 31
0.0
1001
AcDbBlockRepETag
1070
     1
1071
        5
1005
1D2C
  0
CIRCLE
  5
1D2D
330
1D24
100
AcDbEntity
  8
91200_TIP_SYMB
370
    25
100
AcDbCircle
 10
-146.0
 20
9.0
 30
0.0
 40
2.0
1001
AcDbBlockRepETag
1070
     1
1071
        6
1005
1D2D
  0
LINE
  5
1D2E
330
1D24
100
AcDbEntity
  8
91100_TIP_SYM
 48
0.5
370
    18
100
AcDbLine
 10
-146.0
 20
16.0
 30
0.0
 11
-146.0
 21
2.0
 31
0.0
1001
AcDbBlockRepETag
1070
     1
1071
        7
1005
1D2E
  0
LINE
  5
1D2F
330
1D24
100
AcDbEntity
  8
91100_TIP_SYM
 48
0.5
370
    18
100
AcDbLine
 10
-153.0
 20
9.0
 30
0.0
 11
-139.0
 21
9.0
 31
0.0
1001
AcDbBlockRepETag
1070
     1
1071
        8
1005
1D2F
  0
LINE
  5
1D30
330
1D24
100
AcDbEntity
  8
92000_TITLE
370
    25
100
AcDbLine
 10
-37.5
 20
0.0
 30
0.0
 11
-37.5
 21
6.0
 31
0.0
1001
GENIUS_GENREC_14
1002
{
1000
PYDIR
1011
-130.0
1021
18.0
1031
0.0
1002
}
1002
{
1000
PXDIR
1011
5.0
1021
0.0
1031
0.0
1002
}
1002
{
1000
PORI
1011
-130.0
1021
0.0
1031
0.0
1002
}
1002
{
1000
PINS
1011
-130.0
1021
0.0
1031
0.0
1002
}
1002
{
1000
HVAL
1000
18
1002
}
1002
{
1000
H
1070
     2
1002
}
1002
{
1000
WVAL
1000
135
1002
}
1002
{
1000
W
1070
     2
1002
}
1002
{
1000
C
1070
     1
1002
}
1001
GENIUS_GENOBJ-N-REC_13
1002
{
1000
OWNER
1000
GEN
1002
}
1001
GENIUS_GENODEF_13
1002
{
1000
HIER
1070
     0
1002
}
1002
{
1000
MANEDIT
1070
     0
1002
}
1002
{
1000
NOSEL
1070
     0
1002
}
1002
{
1000
BEHIND
1070
     0
1002
}
1002
{
1000
OTHER
1070
     0
1002
}
1002
{
1000
REACTOR
1002
}
1001
AcDbBlockRepETag
1070
     1
1071
       17
1005
1D30
  0
LINE
  5
1D31
330
1D24
100
AcDbEntity
  8
92000_TITLE
370
    25
100
AcDbLine
 10
0.0
 20
0.0
 30
0.0
 11
0.0
 21
18.0
 31
0.0
1001
GENIUS_GENREC_14
1002
{
1000
PYDIR
1011
-135.0
1021
18.0
1031
0.0
1002
}
1002
{
1000
PXDIR
1011
0.0
1021
0.0
1031
0.0
1002
}
1002
{
1000
PORI
1011
-135.0
1021
0.0
1031
0.0
1002
}
1002
{
1000
PINS
1011
-135.0
1021
0.0
1031
0.0
1002
}
1002
{
1000
HVAL
1000
18
1002
}
1002
{
1000
H
1070
     2
1002
}
1002
{
1000
WVAL
1000
135
1002
}
1002
{
1000
W
1070
     2
1002
}
1002
{
1000
C
1070
     1
1002
}
1001
GENIUS_GENOBJ-N-REC_13
1002
{
1000
OWNER
1000
GEN
1002
}
1001
GENIUS_GENODEF_13
1002
{
1000
HIER
1070
     0
1002
}
1002
{
1000
MANEDIT
1070
     0
1002
}
1002
{
1000
NOSEL
1070
     0
1002
}
1002
{
1000
BEHIND
1070
     0
1002
}
1002
{
1000
OTHER
1070
     0
1002
}
1002
{
1000
REACTOR
1002
}
1001
AcDbBlockRepETag
1070
     1
1071
       18
1005
1D31
  0
INSERT
  5
1D32
330
1D24
100
AcDbEntity
  8
0
370
    25
100
AcDbBlockReference
  2
text_allg
 10
-135.0
 20
18.0
 30
0.0
1001
AcDbBlockRepETag
1070
     1
1071
       19
1005
1D32
  0
MTEXT
  5
1D33
330
1D24
100
AcDbEntity
  8
92000_TITLE
100
AcDbMText
 10
-110.0
 20
12.0
 30
0.0
 40
3.5
 41
40.0
 71
     5
 72
     5
  1
{\fSiemens Logo|b0|i0|c0|p2;s}
 73
     1
 44
1.0
1001
AcDbBlockRepETag
1070
     1
1071
       20
1005
1D33
1001
ACAD
1000
MTEXTBEGIN
1070
    73
1070
     1
1070
    44
1040
1.0
1070
    74
1070
     0
1000
MTEXTEND
  0
LINE
  5
1D34
330
1D24
100
AcDbEntity
  8
92000_TITLE
370
    25
100
AcDbLine
 10
-135.0
 20
0.0
 30
0.0
 11
0.0
 21
0.0
 31
0.0
1001
GENIUS_GENREC_14
1002
{
1000
PYDIR
1011
-135.0
1021
18.0
1031
0.0
1002
}
1002
{
1000
PXDIR
1011
0.0
1021
0.0
1031
0.0
1002
}
1002
{
1000
PORI
1011
-135.0
1021
0.0
1031
0.0
1002
}
1002
{
1000
PINS
1011
-135.0
1021
0.0
1031
0.0
1002
}
1002
{
1000
HVAL
1000
18
1002
}
1002
{
1000
H
1070
     2
1002
}
1002
{
1000
WVAL
1000
135
1002
}
1002
{
1000
W
1070
     2
1002
}
1002
{
1000
C
1070
     1
1002
}
1001
GENIUS_GENOBJ-N-REC_13
1002
{
1000
OWNER
1000
GEN
1002
}
1001
GENIUS_GENODEF_13
1002
{
1000
HIER
1070
     0
1002
}
1002
{
1000
MANEDIT
1070
     0
1002
}
1002
{
1000
NOSEL
1070
     0
1002
}
1002
{
1000
BEHIND
1070
     0
1002
}
1002
{
1000
OTHER
1070
     0
1002
}
1002
{
1000
REACTOR
1002
}
1001
AcDbBlockRepETag
1070
     1
1071
       21
1005
1D34
  0
LINE
  5
1D35
330
1D24
100
AcDbEntity
  8
92000_TITLE
370
    25
100
AcDbLine
 10
0.0
 20
18.0
 30
0.0
 11
-135.0
 21
18.0
 31
0.0
1001
GENIUS_GENREC_14
1002
{
1000
PYDIR
1011
-135.0
1021
18.0
1031
0.0
1002
}
1002
{
1000
PXDIR
1011
0.0
1021
0.0
1031
0.0
1002
}
1002
{
1000
PORI
1011
-135.0
1021
0.0
1031
0.0
1002
}
1002
{
1000
PINS
1011
-135.0
1021
0.0
1031
0.0
1002
}
1002
{
1000
HVAL
1000
18
1002
}
1002
{
1000
H
1070
     2
1002
}
1002
{
1000
WVAL
1000
135
1002
}
1002
{
1000
W
1070
     2
1002
}
1002
{
1000
C
1070
     1
1002
}
1001
GENIUS_GENOBJ-N-REC_13
1002
{
1000
OWNER
1000
GEN
1002
}
1001
GENIUS_GENODEF_13
1002
{
1000
HIER
1070
     0
1002
}
1002
{
1000
MANEDIT
1070
     0
1002
}
1002
{
1000
NOSEL
1070
     0
1002
}
1002
{
1000
BEHIND
1070
     0
1002
}
1002
{
1000
OTHER
1070
     0
1002
}
1002
{
1000
REACTOR
1002
}
1001
AcDbBlockRepETag
1070
     1
1071
       22
1005
1D35
  0
LINE
  5
1D36
330
1D24
100
AcDbEntity
  8
92000_TITLE
370
    25
100
AcDbLine
 10
0.0
 20
6.0
 30
0.0
 11
-135.0
 21
6.0
 31
0.0
1001
GENIUS_GENREC_14
1002
{
1000
PYDIR
1011
-135.0
1021
18.0
1031
0.0
1002
}
1002
{
1000
PXDIR
1011
0.0
1021
0.0
1031
0.0
1002
}
1002
{
1000
PORI
1011
-135.0
1021
0.0
1031
0.0
1002
}
1002
{
1000
PINS
1011
-135.0
1021
0.0
1031
0.0
1002
}
1002
{
1000
HVAL
1000
18
1002
}
1002
{
1000
H
1070
     2
1002
}
1002
{
1000
WVAL
1000
135
1002
}
1002
{
1000
W
1070
     2
1002
}
1002
{
1000
C
1070
     1
1002
}
1001
GENIUS_GENOBJ-N-REC_13
1002
{
1000
OWNER
1000
GEN
1002
}
1001
GENIUS_GENODEF_13
1002
{
1000
HIER
1070
     0
1002
}
1002
{
1000
MANEDIT
1070
     0
1002
}
1002
{
1000
NOSEL
1070
     0
1002
}
1002
{
1000
BEHIND
1070
     0
1002
}
1002
{
1000
OTHER
1070
     0
1002
}
1002
{
1000
REACTOR
1002
}
1001
AcDbBlockRepETag
1070
     1
1071
       23
1005
1D36
  0
MTEXT
  5
1D37
330
1D24
100
AcDbEntity
  8
92000_TITLE
370
    25
100
AcDbMText
 10
-127.75
 20
3.0
 30
0.0
 40
2.5
 41
11.0
 71
     5
 72
     5
  1
Date:
 73
     1
 44
1.0
1001
AcDbBlockRepETag
1070
     1
1071
       24
1005
1D37
1001
ACAD
1000
MTEXTBEGIN
1070
    73
1070
     1
1070
    44
1040
1.0
1070
    74
1070
     0
1000
MTEXTEND
  0
LINE
  5
1D38
330
1D24
100
AcDbEntity
  8
92000_TITLE
370
    25
100
AcDbLine
 10
-135.0
 20
18.0
 30
0.0
 11
-135.0
 21
0.0
 31
0.0
1001
GENIUS_GENREC_14
1002
{
1000
PYDIR
1011
-135.0
1021
18.0
1031
0.0
1002
}
1002
{
1000
PXDIR
1011
0.0
1021
0.0
1031
0.0
1002
}
1002
{
1000
PORI
1011
-135.0
1021
0.0
1031
0.0
1002
}
1002
{
1000
PINS
1011
-135.0
1021
0.0
1031
0.0
1002
}
1002
{
1000
HVAL
1000
18
1002
}
1002
{
1000
H
1070
     2
1002
}
1002
{
1000
WVAL
1000
135
1002
}
1002
{
1000
W
1070
     2
1002
}
1002
{
1000
C
1070
     1
1002
}
1001
GENIUS_GENOBJ-N-REC_13
1002
{
1000
OWNER
1000
GEN
1002
}
1001
GENIUS_GENODEF_13
1002
{
1000
HIER
1070
     0
1002
}
1002
{
1000
MANEDIT
1070
     0
1002
}
1002
{
1000
NOSEL
1070
     0
1002
}
1002
{
1000
BEHIND
1070
     0
1002
}
1002
{
1000
OTHER
1070
     0
1002
}
1002
{
1000
REACTOR
1002
}
1001
AcDbBlockRepETag
1070
     1
1071
       25
1005
1D38
  0
MTEXT
  5
1D39
330
1D24
100
AcDbEntity
  8
92000_TITLE
370
    25
100
AcDbMText
 10
-102.75
 20
3.0
 30
0.0
 40
2.5
 41
11.0
 71
     5
 72
     5
  1
Name:
 73
     1
 44
1.0
1001
AcDbBlockRepETag
1070
     1
1071
        9
1005
1D39
1001
ACAD
1000
MTEXTBEGIN
1070
    73
1070
     1
1070
    44
1040
1.0
1070
    74
1070
     0
1000
MTEXTEND
  0
LINE
  5
1D3A
330
1D24
100
AcDbEntity
  8
92000_TITLE
100
AcDbLine
 10
-110.0
 20
6.0
 30
0.0
 11
-110.0
 21
0.0
 31
0.0
1001
GENIUS_GENREC_14
1002
{
1000
PYDIR
1011
-135.0
1021
18.0
1031
0.0
1002
}
1002
{
1000
PXDIR
1011
0.0
1021
0.0
1031
0.0
1002
}
1002
{
1000
PORI
1011
-135.0
1021
0.0
1031
0.0
1002
}
1002
{
1000
PINS
1011
-135.0
1021
0.0
1031
0.0
1002
}
1002
{
1000
HVAL
1000
18
1002
}
1002
{
1000
H
1070
     2
1002
}
1002
{
1000
WVAL
1000
135
1002
}
1002
{
1000
W
1070
     2
1002
}
1002
{
1000
C
1070
     1
1002
}
1001
GENIUS_GENOBJ-N-REC_13
1002
{
1000
OWNER
1000
GEN
1002
}
1001
GENIUS_GENODEF_13
1002
{
1000
HIER
1070
     0
1002
}
1002
{
1000
MANEDIT
1070
     0
1002
}
1002
{
1000
NOSEL
1070
     0
1002
}
1002
{
1000
BEHIND
1070
     0
1002
}
1002
{
1000
OTHER
1070
     0
1002
}
1002
{
1000
REACTOR
1002
}
1001
AcDbBlockRepETag
1070
     1
1071
       10
1005
1D3A
  0
TEXT
  5
1D3B
330
1D24
100
AcDbEntity
  8
92000_TITLE
370
    25
100
AcDbText
 10
-33.625
 20
1.750946969696965
 30
0.0
 40
2.5
  1
Massstab/Scale:
100
AcDbText
1001
AcDbBlockRepETag
1070
     1
1071
       26
1005
1D3B
  0
LINE
  5
1D3C
330
1D24
100
AcDbEntity
  8
92000_TITLE
370
    25
100
AcDbLine
 10
-85.0
 20
18.0
 30
0.0
 11
-85.0
 21
0.0
 31
0.0
1001
GENIUS_GENREC_14
1002
{
1000
PYDIR
1011
-135.0
1021
18.0
1031
0.0
1002
}
1002
{
1000
PXDIR
1011
0.0
1021
0.0
1031
0.0
1002
}
1002
{
1000
PORI
1011
-135.0
1021
0.0
1031
0.0
1002
}
1002
{
1000
PINS
1011
-135.0
1021
0.0
1031
0.0
1002
}
1002
{
1000
HVAL
1000
18
1002
}
1002
{
1000
H
1070
     2
1002
}
1002
{
1000
WVAL
1000
135
1002
}
1002
{
1000
W
1070
     2
1002
}
1002
{
1000
C
1070
     1
1002
}
1001
GENIUS_GENOBJ-N-REC_13
1002
{
1000
OWNER
1000
GEN
1002
}
1001
GENIUS_GENODEF_13
1002
{
1000
HIER
1070
     0
1002
}
1002
{
1000
MANEDIT
1070
     0
1002
}
1002
{
1000
NOSEL
1070
     0
1002
}
1002
{
1000
BEHIND
1070
     0
1002
}
1002
{
1000
OTHER
1070
     0
1002
}
1002
{
1000
REACTOR
1002
}
1001
AcDbBlockRepETag
1070
     1
1071
       12
1005
1D3C
  0
LINE
  5
1D3D
330
1D24
100
AcDbEntity
  8
92000_TITLE
370
    25
100
AcDbLine
 10
-37.5
 20
0.0
 30
0.0
 11
-37.5
 21
6.0
 31
0.0
1001
GENIUS_GENREC_14
1002
{
1000
PYDIR
1011
-130.0
1021
18.0
1031
0.0
1002
}
1002
{
1000
PXDIR
1011
5.0
1021
0.0
1031
0.0
1002
}
1002
{
1000
PORI
1011
-130.0
1021
0.0
1031
0.0
1002
}
1002
{
1000
PINS
1011
-130.0
1021
0.0
1031
0.0
1002
}
1002
{
1000
HVAL
1000
18
1002
}
1002
{
1000
H
1070
     2
1002
}
1002
{
1000
WVAL
1000
135
1002
}
1002
{
1000
W
1070
     2
1002
}
1002
{
1000
C
1070
     1
1002
}
1001
GENIUS_GENOBJ-N-REC_13
1002
{
1000
OWNER
1000
GEN
1002
}
1001
GENIUS_GENODEF_13
1002
{
1000
HIER
1070
     0
1002
}
1002
{
1000
MANEDIT
1070
     0
1002
}
1002
{
1000
NOSEL
1070
     0
1002
}
1002
{
1000
BEHIND
1070
     0
1002
}
1002
{
1000
OTHER
1070
     0
1002
}
1002
{
1000
REACTOR
1002
}
1001
AcDbBlockRepETag
1070
     1
1071
       27
1005
1D3D
  0
ATTDEF
  5
1D3E
330
1D24
100
AcDbEntity
  8
92000_TITLE
370
    25
100
AcDbText
 10
-8.009136915777162
 20
1.844905181593389
 30
0.0
 40
2.5
  1
1:1
 72
     1
 11
-6.384136915777162
 21
3.094905181593389
 31
0.0
100
AcDbAttributeDefinition
  3
Massstab
  2
MASSSTAB/SCALE:
 70
     0
 74
     2
1001
AcDbBlockRepETag
1070
     1
1071
       13
1005
0
  0
ATTDEF
  5
1D3F
330
1D24
100
AcDbEntity
  8
92000_TITLE
370
    35
100
AcDbText
 10
-42.49999999999952
 20
12.25000000000011
 30
0.0
 40
3.5
  1

 72
     1
 11
-42.49999999999952
 21
14.00000000000011
 31
0.0
100
AcDbAttributeDefinition
  3
Z-Name
  2
ZEICHNUNGSNAME
 70
     0
 74
     2
1001
AcDbBlockRepETag
1070
     1
1071
       14
1005
0
  0
ATTDEF
  5
1D40
330
1D24
100
AcDbEntity
  8
92000_TITLE
370
    25
100
AcDbText
 10
-42.49999999999952
 20
7.22778333016015
 30
0.0
 40
2.5
  1

 72
     1
 11
-42.49999999999952
 21
8.47778333016015
 31
0.0
100
AcDbAttributeDefinition
  3
A-Name
  2
ARTIKELNAME
 70
     0
 74
     2
1001
AcDbBlockRepETag
1070
     1
1071
       28
1005
0
  0
ATTDEF
  5
1D41
330
1D24
100
AcDbEntity
  8
92000_TITLE
370
    25
100
AcDbText
 10
-116.9999999999995
 20
1.75
 30
0.0
 40
2.5
  1

 72
     1
 11
-116.9999999999995
 21
3.0
 31
0.0
100
AcDbAttributeDefinition
  3
Datum
  2
DATUM
 70
     0
 74
     2
1001
AcDbBlockRepETag
1070
     1
1071
       16
1005
0
  0
ATTDEF
  5
1D42
330
1D24
100
AcDbEntity
  8
92000_TITLE
370
    25
100
AcDbText
 10
-91.99999999999954
 20
1.75
 30
0.0
 40
2.5
  1

 72
     1
 11
-91.99999999999954
 21
3.0
 31
0.0
100
AcDbAttributeDefinition
  3
Name
  2
NAME
 70
     0
 74
     2
1001
AcDbBlockRepETag
1070
     1
1071
       15
1005
0
  0
ENDBLK
  5
1D26
330
1D24
100
AcDbEntity
  8
0
100
AcDbBlockEnd
  0
BLOCK
  5
496D
330
4963
100
AcDbEntity
  8
0
100
AcDbBlockBegin
  2
*D13
 70
     1
 10
0.0
 20
0.0
 30
0.0
  3
*D13
  1

  0
LINE
  5
4B3F
330
4963
100
AcDbEntity
  8
10100_FRONT_DIM
100
AcDbLine
 10
790.5997613015828
 20
202.393986331474
 30
0.0
 11
790.5997613015828
 21
226.2479113713556
 31
0.0
  0
LINE
  5
4B40
330
4963
100
AcDbEntity
  8
10100_FRONT_DIM
100
AcDbLine
 10
880.1997646259827
 20
202.393986331474
 30
0.0
 11
880.1997646259827
 21
226.2479113713556
 31
0.0
  0
LINE
  5
4B41
330
4963
100
AcDbEntity
  8
10100_FRONT_DIM
100
AcDbLine
 10
794.0997613015828
 20
225.2479113713556
 30
0.0
 11
876.6997646259827
 21
225.2479113713556
 31
0.0
  0
SOLID
  5
4B42
330
4963
100
AcDbEntity
  8
10100_FRONT_DIM
370
    13
100
AcDbTrace
 10
794.0997613015828
 20
225.8312447046889
 30
0.0
 11
794.0997613015828
 21
224.6645780380223
 31
0.0
 12
790.5997613015828
 22
225.2479113713556
 32
0.0
 13
790.5997613015828
 23
225.2479113713556
 33
0.0
  0
SOLID
  5
4B43
330
4963
100
AcDbEntity
  8
10100_FRONT_DIM
370
    13
100
AcDbTrace
 10
876.6997646259827
 20
225.8312447046889
 30
0.0
 11
876.6997646259827
 21
224.6645780380223
 31
0.0
 12
880.1997646259827
 22
225.2479113713556
 32
0.0
 13
880.1997646259827
 23
225.2479113713556
 33
0.0
  0
MTEXT
  5
4B44
330
4963
100
AcDbEntity
  8
10100_FRONT_DIM
370
    13
100
AcDbMText
 10
835.3997629637827
 20
228.8479113713556
 30
0.0
 40
3.5
 41
0.0
 71
     5
 72
     1
  1
89,6
 73
     1
 44
1.0
1001
ACAD
1000
MTEXTBEGIN
1070
    73
1070
     1
1070
    44
1040
1.0
1070
    74
1070
     0
1000
MTEXTEND
  0
POINT
  5
4B45
330
4963
100
AcDbEntity
  8
Defpoints
 62
     0
370
    13
100
AcDbPoint
 10
790.5997613015828
 20
202.393986331474
 30
0.0
  0
POINT
  5
4B46
330
4963
100
AcDbEntity
  8
Defpoints
 62
     0
370
    13
100
AcDbPoint
 10
880.1997646259827
 20
202.393986331474
 30
0.0
  0
POINT
  5
4B47
330
4963
100
AcDbEntity
  8
Defpoints
 62
     0
370
    13
100
AcDbPoint
 10
880.1997646259827
 20
225.2479113713556
 30
0.0
  0
ENDBLK
  5
496E
330
4963
100
AcDbEntity
  8
0
100
AcDbBlockEnd
  0
BLOCK
  5
4985
330
497B
100
AcDbEntity
  8
0
100
AcDbBlockBegin
  2
*D14
 70
     1
 10
0.0
 20
0.0
 30
0.0
  3
*D14
  1

  0
LINE
  5
4B36
330
497B
100
AcDbEntity
  8
10100_FRONT_DIM
100
AcDbLine
 10
790.5997613015828
 20
203.793986331474
 30
0.0
 11
790.5997613015828
 21
216.2621405465357
 31
0.0
  0
LINE
  5
4B37
330
497B
100
AcDbEntity
  8
10100_FRONT_DIM
100
AcDbLine
 10
835.3963762091826
 20
203.793986331474
 30
0.0
 11
835.3963762091826
 21
216.2621405465357
 31
0.0
  0
LINE
  5
4B38
330
497B
100
AcDbEntity
  8
10100_FRONT_DIM
100
AcDbLine
 10
794.0997613015828
 20
215.2621405465357
 30
0.0
 11
831.8963762091826
 21
215.2621405465357
 31
0.0
  0
SOLID
  5
4B39
330
497B
100
AcDbEntity
  8
10100_FRONT_DIM
370
    13
100
AcDbTrace
 10
794.0997613015828
 20
215.845473879869
 30
0.0
 11
794.0997613015828
 21
214.6788072132023
 31
0.0
 12
790.5997613015828
 22
215.2621405465357
 32
0.0
 13
790.5997613015828
 23
215.2621405465357
 33
0.0
  0
SOLID
  5
4B3A
330
497B
100
AcDbEntity
  8
10100_FRONT_DIM
370
    13
100
AcDbTrace
 10
831.8963762091826
 20
215.845473879869
 30
0.0
 11
831.8963762091826
 21
214.6788072132023
 31
0.0
 12
835.3963762091826
 22
215.2621405465357
 32
0.0
 13
835.3963762091826
 23
215.2621405465357
 33
0.0
  0
MTEXT
  5
4B3B
330
497B
100
AcDbEntity
  8
10100_FRONT_DIM
370
    13
100
AcDbMText
 10
812.9980687553826
 20
218.8621405465357
 30
0.0
 40
3.5
 41
0.0
 71
     5
 72
     1
  1
44,8
 73
     1
 44
1.0
1001
ACAD
1000
MTEXTBEGIN
1070
    73
1070
     1
1070
    44
1040
1.0
1070
    74
1070
     0
1000
MTEXTEND
  0
POINT
  5
4B3C
330
497B
100
AcDbEntity
  8
Defpoints
 62
     0
370
    13
100
AcDbPoint
 10
790.5997613015828
 20
203.793986331474
 30
0.0
  0
POINT
  5
4B3D
330
497B
100
AcDbEntity
  8
Defpoints
 62
     0
370
    13
100
AcDbPoint
 10
835.3963762091826
 20
203.793986331474
 30
0.0
  0
POINT
  5
4B3E
330
497B
100
AcDbEntity
  8
Defpoints
 62
     0
370
    13
100
AcDbPoint
 10
835.3963762091826
 20
215.2621405465357
 30
0.0
  0
ENDBLK
  5
4986
330
497B
100
AcDbEntity
  8
0
100
AcDbBlockEnd
  0
BLOCK
  5
499D
330
4993
100
AcDbEntity
  8
0
100
AcDbBlockBegin
  2
*D15
 70
     1
 10
0.0
 20
0.0
 30
0.0
  3
*D15
  1

  0
LINE
  5
4B48
330
4993
100
AcDbEntity
  8
10100_FRONT_DIM
100
AcDbLine
 10
795.0997613015828
 20
202.293986331474
 30
0.0
 11
776.6027411625986
 21
202.293986331474
 31
0.0
  0
LINE
  5
4B49
330
4993
100
AcDbEntity
  8
10100_FRONT_DIM
100
AcDbLine
 10
795.0997613015829
 20
107.493987183874
 30
0.0
 11
776.6027411625986
 21
107.493987183874
 31
0.0
  0
LINE
  5
4B4A
330
4993
100
AcDbEntity
  8
10100_FRONT_DIM
100
AcDbLine
 10
777.6027411625987
 20
198.793986331474
 30
0.0
 11
777.6027411625987
 21
110.993987183874
 31
0.0
  0
SOLID
  5
4B4B
330
4993
100
AcDbEntity
  8
10100_FRONT_DIM
370
    13
100
AcDbTrace
 10
777.0194078292653
 20
198.793986331474
 30
0.0
 11
778.186074495932
 21
198.793986331474
 31
0.0
 12
777.6027411625987
 22
202.293986331474
 32
0.0
 13
777.6027411625987
 23
202.293986331474
 33
0.0
  0
SOLID
  5
4B4C
330
4993
100
AcDbEntity
  8
10100_FRONT_DIM
370
    13
100
AcDbTrace
 10
777.0194078292653
 20
110.993987183874
 30
0.0
 11
778.186074495932
 21
110.993987183874
 31
0.0
 12
777.6027411625987
 22
107.493987183874
 32
0.0
 13
777.6027411625987
 23
107.493987183874
 33
0.0
  0
MTEXT
  5
4B4D
330
4993
100
AcDbEntity
  8
10100_FRONT_DIM
370
    13
100
AcDbMText
 10
774.0027411625987
 20
154.8939867576741
 30
0.0
 40
3.5
 41
0.0
 71
     5
 72
     1
  1
94,8
 11
0.0000000000000001
 21
1.0
 31
0.0
 73
     1
 44
1.0
1001
ACAD
1000
MTEXTBEGIN
1070
    73
1070
     1
1070
    44
1040
1.0
1070
    74
1070
     0
1000
MTEXTEND
  0
POINT
  5
4B4E
330
4993
100
AcDbEntity
  8
Defpoints
 62
     0
370
    13
100
AcDbPoint
 10
795.0997613015828
 20
202.293986331474
 30
0.0
  0
POINT
  5
4B4F
330
4993
100
AcDbEntity
  8
Defpoints
 62
     0
370
    13
100
AcDbPoint
 10
795.0997613015829
 20
107.493987183874
 30
0.0
  0
POINT
  5
4B50
330
4993
100
AcDbEntity
  8
Defpoints
 62
     0
370
    13
100
AcDbPoint
 10
777.6027411625987
 20
107.493987183874
 30
0.0
  0
ENDBLK
  5
499E
330
4993
100
AcDbEntity
  8
0
100
AcDbBlockEnd
  0
BLOCK
  5
49CF
330
49C3
100
AcDbEntity
  8
0
100
AcDbBlockBegin
  2
*D16
 70
     1
 10
0.0
 20
0.0
 30
0.0
  3
*D16
  1

  0
LINE
  5
4B60
330
49C3
100
AcDbEntity
  8
11100_LEFT_DIM
100
AcDbLine
 10
952.6397602459828
 20
110.493987183874
 30
0.0
 11
952.6397602459828
 21
93.46600432109017
 31
0.0
  0
LINE
  5
4B61
330
49C3
100
AcDbEntity
  8
11100_LEFT_DIM
100
AcDbLine
 10
956.9397585293828
 20
140.393985751774
 30
0.0
 11
956.9397585293828
 21
93.46600432109017
 31
0.0
  0
LINE
  5
4B62
330
49C3
100
AcDbEntity
  8
11100_LEFT_DIM
100
AcDbLine
 10
949.1397602459828
 20
94.46600432109017
 30
0.0
 11
945.6397602459828
 21
94.46600432109017
 31
0.0
  0
LINE
  5
4B63
330
49C3
100
AcDbEntity
  8
11100_LEFT_DIM
100
AcDbLine
 10
960.4397585293828
 20
94.46600432109017
 30
0.0
 11
972.7147585293828
 21
94.46600432109017
 31
0.0
  0
LINE
  5
4B64
330
49C3
100
AcDbEntity
  8
11100_LEFT_DIM
100
AcDbLine
 10
952.6397602459828
 20
94.46600432109017
 30
0.0
 11
956.9397585293828
 21
94.46600432109017
 31
0.0
  0
SOLID
  5
4B65
330
49C3
100
AcDbEntity
  8
11100_LEFT_DIM
370
    13
100
AcDbTrace
 10
949.1397602459828
 20
95.0493376544235
 30
0.0
 11
949.1397602459828
 21
93.88267098775683
 31
0.0
 12
952.6397602459828
 22
94.46600432109017
 32
0.0
 13
952.6397602459828
 23
94.46600432109017
 33
0.0
  0
SOLID
  5
4B66
330
49C3
100
AcDbEntity
  8
11100_LEFT_DIM
370
    13
100
AcDbTrace
 10
960.4397585293828
 20
95.0493376544235
 30
0.0
 11
960.4397585293828
 21
93.88267098775683
 31
0.0
 12
956.9397585293828
 22
94.46600432109017
 32
0.0
 13
956.9397585293828
 23
94.46600432109017
 33
0.0
  0
MTEXT
  5
4B67
330
49C3
100
AcDbEntity
  8
11100_LEFT_DIM
370
    13
100
AcDbMText
 10
968.3272585293828
 20
98.06600432109016
 30
0.0
 40
3.5
 41
0.0
 71
     5
 72
     1
  1
4,3
 73
     1
 44
1.0
1001
ACAD
1000
MTEXTBEGIN
1070
    73
1070
     1
1070
    44
1040
1.0
1070
    74
1070
     0
1000
MTEXTEND
  0
POINT
  5
4B68
330
49C3
100
AcDbEntity
  8
Defpoints
 62
     0
370
    13
100
AcDbPoint
 10
952.6397602459828
 20
110.493987183874
 30
0.0
  0
POINT
  5
4B69
330
49C3
100
AcDbEntity
  8
Defpoints
 62
     0
370
    13
100
AcDbPoint
 10
956.9397585293828
 20
140.393985751774
 30
0.0
  0
POINT
  5
4B6A
330
49C3
100
AcDbEntity
  8
Defpoints
 62
     0
370
    13
100
AcDbPoint
 10
956.9397585293828
 20
94.46600432109017
 30
0.0
  0
ENDBLK
  5
49D0
330
49C3
100
AcDbEntity
  8
0
100
AcDbBlockEnd
  0
BLOCK
  5
49E9
330
49DF
100
AcDbEntity
  8
0
100
AcDbBlockBegin
  2
*D17
 70
     1
 10
0.0
 20
0.0
 30
0.0
  3
*D17
  1

  0
LINE
  5
4B57
330
49DF
100
AcDbEntity
  8
11100_LEFT_DIM
100
AcDbLine
 10
1013.089759291583
 20
202.1939846386739
 30
0.0
 11
938.6058358058177
 21
202.1939846386739
 31
0.0
  0
LINE
  5
4B58
330
49DF
100
AcDbEntity
  8
11100_LEFT_DIM
100
AcDbLine
 10
950.7066284870397
 20
154.893985751774
 30
0.0
 11
938.6058358058177
 21
154.893985751774
 31
0.0
  0
LINE
  5
4B59
330
49DF
100
AcDbEntity
  8
11100_LEFT_DIM
100
AcDbLine
 10
939.6058358058176
 20
198.6939846386739
 30
0.0
 11
939.6058358058176
 21
158.393985751774
 31
0.0
  0
SOLID
  5
4B5A
330
49DF
100
AcDbEntity
  8
11100_LEFT_DIM
370
    13
100
AcDbTrace
 10
939.0225024724841
 20
198.6939846386739
 30
0.0
 11
940.189169139151
 21
198.6939846386739
 31
0.0
 12
939.6058358058176
 22
202.1939846386739
 32
0.0
 13
939.6058358058176
 23
202.1939846386739
 33
0.0
  0
SOLID
  5
4B5B
330
49DF
100
AcDbEntity
  8
11100_LEFT_DIM
370
    13
100
AcDbTrace
 10
939.0225024724841
 20
158.393985751774
 30
0.0
 11
940.189169139151
 21
158.393985751774
 31
0.0
 12
939.6058358058176
 22
154.893985751774
 32
0.0
 13
939.6058358058176
 23
154.893985751774
 33
0.0
  0
MTEXT
  5
4B5C
330
49DF
100
AcDbEntity
  8
11100_LEFT_DIM
370
    13
100
AcDbMText
 10
936.0058358058175
 20
178.5439851952241
 30
0.0
 40
3.5
 41
0.0
 71
     5
 72
     1
  1
47,3
 11
0.0000000000000001
 21
1.0
 31
0.0
 73
     1
 44
1.0
1001
ACAD
1000
MTEXTBEGIN
1070
    73
1070
     1
1070
    44
1040
1.0
1070
    74
1070
     0
1000
MTEXTEND
  0
POINT
  5
4B5D
330
49DF
100
AcDbEntity
  8
Defpoints
 62
     0
370
    13
100
AcDbPoint
 10
1013.089759291583
 20
202.1939846386739
 30
0.0
  0
POINT
  5
4B5E
330
49DF
100
AcDbEntity
  8
Defpoints
 62
     0
370
    13
100
AcDbPoint
 10
950.7066284870397
 20
154.893985751774
 30
0.0
  0
POINT
  5
4B5F
330
49DF
100
AcDbEntity
  8
Defpoints
 62
     0
370
    13
100
AcDbPoint
 10
939.6058358058176
 20
154.893985751774
 30
0.0
  0
ENDBLK
  5
49EA
330
49DF
100
AcDbEntity
  8
0
100
AcDbBlockEnd
  0
ENDSEC
  0
SECTION
  2
ENTITIES
  0
LWPOLYLINE
  5
1809
330
37
100
AcDbEntity
  8
90200_FRAME_SIZE
100
AcDbPolyline
 90
        4
 70
     1
 43
0.0
 10
667.3002389181964
 20
-16.5
 10
1117.300238918196
 20
-16.5
 10
1117.300238918196
 20
313.5
 10
667.3002389181964
 20
313.5
1001
GENIUS_GENREC_14
1002
{
1000
PYDIR
1011
667.3002389181964
1021
313.5
1031
0.0
1002
}
1002
{
1000
PXDIR
1011
1117.300238918196
1021
-16.5
1031
0.0
1002
}
1002
{
1000
PORI
1011
667.3002389181964
1021
-16.5
1031
0.0
1002
}
1002
{
1000
PINS
1011
667.3002389181964
1021
-16.5
1031
0.0
1002
}
1002
{
1000
HVAL
1000
330
1002
}
1002
{
1000
H
1070
     2
1002
}
1002
{
1000
WVAL
1000
450
1002
}
1002
{
1000
W
1070
     2
1002
}
1002
{
1000
C
1070
     1
1002
}
1001
GENIUS_GENODEF_13
1002
{
1000
HIER
1070
     0
1002
}
1002
{
1000
MANEDIT
1070
     0
1002
}
1002
{
1000
NOSEL
1070
     0
1002
}
1002
{
1000
BEHIND
1070
     0
1002
}
1002
{
1000
OTHER
1070
     0
1002
}
1002
{
1000
REACTOR
1002
}
1001
GENIUS_GENOBJ-N-REC_13
1002
{
1000
OWNER
1000
GEN
1002
}
1001
AcDbBlockRepETag
1070
     1
1071
        3
1005
0
  0
LWPOLYLINE
  5
180A
330
37
100
AcDbEntity
  8
90100_FRAME_THICK
100
AcDbPolyline
 90
        4
 70
     1
 43
0.0
 10
682.3002389181964
 20
0.0
 10
1102.300238918196
 20
0.0
 10
1102.300238918196
 20
297.0
 10
682.3002389181964
 20
297.0
1001
GENIUS_GENREC_14
1002
{
1000
PYDIR
1011
682.3002389181964
1021
297.0
1031
0.0
1002
}
1002
{
1000
PXDIR
1011
1102.300238918196
1021
0.0
1031
0.0
1002
}
1002
{
1000
PORI
1011
682.3002389181964
1021
0.0
1031
0.0
1002
}
1002
{
1000
PINS
1011
682.3002389181964
1021
0.0
1031
0.0
1002
}
1002
{
1000
HVAL
1000
297
1002
}
1002
{
1000
H
1070
     2
1002
}
1002
{
1000
WVAL
1000
420
1002
}
1002
{
1000
W
1070
     2
1002
}
1002
{
1000
C
1070
     1
1002
}
1001
GENIUS_GENOBJ-N-REC_13
1002
{
1000
OWNER
1000
GEN
1002
}
1001
GENIUS_GENODEF_13
1002
{
1000
HIER
1070
     0
1002
}
1002
{
1000
MANEDIT
1070
     0
1002
}
1002
{
1000
NOSEL
1070
     0
1002
}
1002
{
1000
BEHIND
1070
     0
1002
}
1002
{
1000
OTHER
1070
     0
1002
}
1002
{
1000
REACTOR
1002
}
1001
AcDbBlockRepETag
1070
     1
1071
       11
1005
0
  0
LWPOLYLINE
  5
180B
330
37
100
AcDbEntity
  8
90000_FRAME_THIN
100
AcDbPolyline
 90
        4
 70
     1
 43
0.0
 10
687.3002389181965
 20
5.0
 10
1097.300238918196
 20
5.0
 10
1097.300238918196
 20
292.0
 10
687.3002389181964
 20
292.0
1001
GENIUS_GENREC_14
1002
{
1000
PYDIR
1011
682.3002389181964
1021
297.0
1031
0.0
1002
}
1002
{
1000
PXDIR
1011
1102.300238918196
1021
0.0
1031
0.0
1002
}
1002
{
1000
PORI
1011
682.3002389181964
1021
0.0
1031
0.0
1002
}
1002
{
1000
PINS
1011
682.3002389181964
1021
0.0
1031
0.0
1002
}
1002
{
1000
HVAL
1000
297
1002
}
1002
{
1000
H
1070
     2
1002
}
1002
{
1000
WVAL
1000
420
1002
}
1002
{
1000
W
1070
     2
1002
}
1002
{
1000
C
1070
     1
1002
}
1001
GENIUS_GENOBJ-N-REC_13
1002
{
1000
OWNER
1000
GEN
1002
}
1001
GENIUS_GENODEF_13
1002
{
1000
HIER
1070
     0
1002
}
1002
{
1000
MANEDIT
1070
     0
1002
}
1002
{
1000
NOSEL
1070
     0
1002
}
1002
{
1000
BEHIND
1070
     0
1002
}
1002
{
1000
OTHER
1070
     0
1002
}
1002
{
1000
REACTOR
1002
}
1001
AcDbBlockRepETag
1070
     1
1071
       15
1005
0
  0
LWPOLYLINE
  5
180C
330
37
100
AcDbEntity
  8
90200_FRAME_SIZE
100
AcDbPolyline
 90
        4
 70
     1
 43
0.0
 10
667.3002389181964
 20
-16.5
 10
1117.300238918196
 20
-16.5
 10
1117.300238918196
 20
313.5
 10
667.3002389181964
 20
313.5
1001
GENIUS_GENREC_14
1002
{
1000
PYDIR
1011
667.3002389181964
1021
313.5
1031
0.0
1002
}
1002
{
1000
PXDIR
1011
1117.300238918196
1021
-16.5
1031
0.0
1002
}
1002
{
1000
PORI
1011
667.3002389181964
1021
-16.5
1031
0.0
1002
}
1002
{
1000
PINS
1011
667.3002389181964
1021
-16.5
1031
0.0
1002
}
1002
{
1000
HVAL
1000
330
1002
}
1002
{
1000
H
1070
     2
1002
}
1002
{
1000
WVAL
1000
450
1002
}
1002
{
1000
W
1070
     2
1002
}
1002
{
1000
C
1070
     1
1002
}
1001
GENIUS_GENODEF_13
1002
{
1000
HIER
1070
     0
1002
}
1002
{
1000
MANEDIT
1070
     0
1002
}
1002
{
1000
NOSEL
1070
     0
1002
}
1002
{
1000
BEHIND
1070
     0
1002
}
1002
{
1000
OTHER
1070
     0
1002
}
1002
{
1000
REACTOR
1002
}
1001
GENIUS_GENOBJ-N-REC_13
1002
{
1000
OWNER
1000
GEN
1002
}
1001
AcDbBlockRepETag
1070
     1
1071
        3
1005
0
  0
LWPOLYLINE
  5
180D
330
37
100
AcDbEntity
  8
90100_FRAME_THICK
100
AcDbPolyline
 90
        4
 70
     1
 43
0.0
 10
682.3002389181964
 20
0.0
 10
1102.300238918196
 20
0.0
 10
1102.300238918196
 20
297.0
 10
682.3002389181964
 20
297.0
1001
GENIUS_GENREC_14
1002
{
1000
PYDIR
1011
682.3002389181964
1021
297.0
1031
0.0
1002
}
1002
{
1000
PXDIR
1011
1102.300238918196
1021
0.0
1031
0.0
1002
}
1002
{
1000
PORI
1011
682.3002389181964
1021
0.0
1031
0.0
1002
}
1002
{
1000
PINS
1011
682.3002389181964
1021
0.0
1031
0.0
1002
}
1002
{
1000
HVAL
1000
297
1002
}
1002
{
1000
H
1070
     2
1002
}
1002
{
1000
WVAL
1000
420
1002
}
1002
{
1000
W
1070
     2
1002
}
1002
{
1000
C
1070
     1
1002
}
1001
GENIUS_GENOBJ-N-REC_13
1002
{
1000
OWNER
1000
GEN
1002
}
1001
GENIUS_GENODEF_13
1002
{
1000
HIER
1070
     0
1002
}
1002
{
1000
MANEDIT
1070
     0
1002
}
1002
{
1000
NOSEL
1070
     0
1002
}
1002
{
1000
BEHIND
1070
     0
1002
}
1002
{
1000
OTHER
1070
     0
1002
}
1002
{
1000
REACTOR
1002
}
1001
AcDbBlockRepETag
1070
     1
1071
       11
1005
0
  0
LWPOLYLINE
  5
180E
330
37
100
AcDbEntity
  8
90000_FRAME_THIN
100
AcDbPolyline
 90
        4
 70
     1
 43
0.0
 10
687.3002389181965
 20
5.0
 10
1097.300238918196
 20
5.0
 10
1097.300238918196
 20
292.0
 10
687.3002389181964
 20
292.0
1001
GENIUS_GENREC_14
1002
{
1000
PYDIR
1011
682.3002389181964
1021
297.0
1031
0.0
1002
}
1002
{
1000
PXDIR
1011
1102.300238918196
1021
0.0
1031
0.0
1002
}
1002
{
1000
PORI
1011
682.3002389181964
1021
0.0
1031
0.0
1002
}
1002
{
1000
PINS
1011
682.3002389181964
1021
0.0
1031
0.0
1002
}
1002
{
1000
HVAL
1000
297
1002
}
1002
{
1000
H
1070
     2
1002
}
1002
{
1000
WVAL
1000
420
1002
}
1002
{
1000
W
1070
     2
1002
}
1002
{
1000
C
1070
     1
1002
}
1001
GENIUS_GENOBJ-N-REC_13
1002
{
1000
OWNER
1000
GEN
1002
}
1001
GENIUS_GENODEF_13
1002
{
1000
HIER
1070
     0
1002
}
1002
{
1000
MANEDIT
1070
     0
1002
}
1002
{
1000
NOSEL
1070
     0
1002
}
1002
{
1000
BEHIND
1070
     0
1002
}
1002
{
1000
OTHER
1070
     0
1002
}
1002
{
1000
REACTOR
1002
}
1001
AcDbBlockRepETag
1070
     1
1071
       15
1005
0
  0
MTEXT
  5
1964
330
37
100
AcDbEntity
  8
92000_TITLE
370
    13
100
AcDbMText
 10
1028.550238918196
 20
13.0
 30
0.0
 40
2.5
 41
42.5
 71
     5
 72
     5
  1
Format/Size: DIN A3
 73
     1
 44
1.0
1001
ACAD
1000
MTEXTBEGIN
1070
    73
1070
     1
1070
    44
1040
1.0
1070
    74
1070
     0
1000
MTEXTEND
  0
INSERT
  5
1965
330
37
100
AcDbEntity
  8
0
100
AcDbBlockReference
  2
TYP_SYMB
 10
957.3002389181963
 20
10.0
 30
0.0
  0
INSERT
  5
1966
102
{ACAD_XDICTIONARY
360
1B72
102
}
330
37
100
AcDbEntity
  8
92000_TITLE
370
    18
100
AcDbBlockReference
 66
     1
  2
*U12
 10
1092.300238918196
 20
10.0
 30
0.0
  0
ATTRIB
  5
1967
330
1966
100
AcDbEntity
  8
92000_TITLE
370
    13
100
AcDbText
 10
1084.291102002419
 20
11.84490518159339
 30
0.0
 40
2.5
  1
1:1
 72
     1
 11
1085.916102002419
 21
13.09490518159339
 31
0.0
100
AcDbAttribute
  2
MASSSTAB/SCALE:
 70
     0
 74
     2
1001
AcDbBlockRepETag
1070
     1
1071
       13
1005
0
  0
ATTRIB
  5
1968
330
1966
100
AcDbEntity
  8
92000_TITLE
370
    25
100
AcDbText
 10
1028.800238918197
 20
22.25000000000011
 30
0.0
 40
3.5
  1
3RF2410_2BB04_all
 72
     1
 11
1049.800238918197
 21
24.00000000000011
 31
0.0
100
AcDbAttribute
  2
ZEICHNUNGSNAME
 70
     0
 74
     2
1001
AcDbBlockRepETag
1070
     1
1071
       14
1005
0
  0
ATTRIB
  5
1969
330
1966
100
AcDbEntity
  8
92000_TITLE
370
    13
100
AcDbText
 10
1049.800238918197
 20
17.22778333016014
 30
0.0
 40
2.5
  1

 72
     1
 11
1049.800238918197
 21
18.47778333016014
 31
0.0
100
AcDbAttribute
  2
ARTIKELNAME
 70
     0
 74
     2
1001
AcDbBlockRepETag
1070
     1
1071
       13
1005
0
  0
ATTRIB
  5
196A
330
1966
100
AcDbEntity
  8
92000_TITLE
370
    13
100
AcDbText
 10
975.300238918197
 20
11.75
 30
0.0
 40
2.5
  1

 72
     1
 11
975.300238918197
 21
13.0
 31
0.0
100
AcDbAttribute
  2
DATUM
 70
     0
 74
     2
1001
AcDbBlockRepETag
1070
     1
1071
       16
1005
0
  0
ATTRIB
  5
196B
330
1966
100
AcDbEntity
  8
92000_TITLE
370
    13
100
AcDbText
 10
1000.300238918197
 20
11.75
 30
0.0
 40
2.5
  1

 72
     1
 11
1000.300238918197
 21
13.0
 31
0.0
100
AcDbAttribute
  2
NAME
 70
     0
 74
     2
1001
AcDbBlockRepETag
1070
     1
1071
       15
1005
0
  0
SEQEND
  5
196C
330
1966
100
AcDbEntity
  8
92000_TITLE
370
    18
  0
LINE
  5
4669
330
37
100
AcDbEntity
  8
10000_FRONT
  6
Continuous
 62
     7
370
    13
100
AcDbLine
 10
835.3997624980827
 20
197.004513691874
 30
0.0
 11
835.3997624980827
 21
112.783456098074
 31
0.0
  0
LINE
  5
466A
330
37
100
AcDbEntity
  8
10000_FRONT
  6
Continuous
 62
     7
370
    25
100
AcDbLine
 10
880.1997646259827
 20
112.783456098074
 30
0.0
 11
880.1997646259827
 21
197.004513691874
 31
0.0
  0
LINE
  5
466E
330
37
100
AcDbEntity
  8
10000_FRONT
  6
Continuous
 62
     7
370
    13
100
AcDbLine
 10
880.1997646259827
 20
197.193985681774
 30
0.0
 11
835.3997624980827
 21
197.193985681774
 31
0.0
  0
LINE
  5
466F
330
37
100
AcDbEntity
  8
10000_FRONT
  6
Continuous
 62
     7
370
    13
100
AcDbLine
 10
835.3997624980827
 20
197.193985681774
 30
0.0
 11
835.3997624980827
 21
197.004513691874
 31
0.0
  0
LINE
  5
4670
330
37
100
AcDbEntity
  8
10000_FRONT
  6
Continuous
 62
     7
370
    13
100
AcDbLine
 10
880.1997646259827
 20
197.004513691874
 30
0.0
 11
880.1997646259827
 21
197.193985681774
 31
0.0
  0
LINE
  5
4671
330
37
100
AcDbEntity
  8
10000_FRONT
  6
Continuous
 62
     7
370
    13
100
AcDbLine
 10
835.3997624980827
 20
112.5939841082739
 30
0.0
 11
880.1997646259827
 21
112.5939841082739
 31
0.0
  0
LINE
  5
4672
330
37
100
AcDbEntity
  8
10000_FRONT
  6
Continuous
 62
     7
370
    13
100
AcDbLine
 10
835.3997624980827
 20
112.650079529574
 30
0.0
 11
835.3997624980827
 21
112.5939841082739
 31
0.0
  0
LINE
  5
4673
330
37
100
AcDbEntity
  8
10000_FRONT
  6
Continuous
 62
     7
370
    13
100
AcDbLine
 10
880.1997646259827
 20
112.5939841082739
 30
0.0
 11
880.1997646259827
 21
112.650079529574
 31
0.0
  0
LINE
  5
4674
330
37
100
AcDbEntity
  8
10000_FRONT
  6
Continuous
 62
     7
370
    13
100
AcDbLine
 10
835.3997624980827
 20
197.193985681774
 30
0.0
 11
835.3963762091828
 21
197.193985681774
 31
0.0
  0
LINE
  5
4675
330
37
100
AcDbEntity
  8
10000_FRONT
  6
Continuous
 62
     7
370
    13
100
AcDbLine
 10
835.3963762091828
 20
112.5939841082739
 30
0.0
 11
835.3997624980827
 21
112.5939841082739
 31
0.0
  0
LINE
  5
4677
330
37
100
AcDbEntity
  8
10000_FRONT
  6
Continuous
 62
     7
370
    25
100
AcDbLine
 10
880.1997646259827
 20
107.693986844074
 30
0.0
 11
880.1997646259827
 21
112.5939841082739
 31
0.0
  0
LINE
  5
4678
330
37
100
AcDbEntity
  8
10000_FRONT
  6
Continuous
 62
     7
370
    25
100
AcDbLine
 10
790.5997613015828
 20
107.493987183874
 30
0.0
 11
880.1997646259827
 21
107.493987183874
 31
0.0
  0
LINE
  5
467A
330
37
100
AcDbEntity
  8
10000_FRONT
  6
Continuous
 62
     7
370
    13
100
AcDbLine
 10
880.1997646259827
 20
107.493987183874
 30
0.0
 11
880.1997646259827
 21
107.693986844074
 31
0.0
  0
LINE
  5
467B
330
37
100
AcDbEntity
  8
10000_FRONT
  6
Continuous
 62
     7
370
    25
100
AcDbLine
 10
880.1997646259827
 20
202.293986331474
 30
0.0
 11
790.5997613015828
 21
202.293986331474
 31
0.0
  0
LINE
  5
467D
330
37
100
AcDbEntity
  8
10000_FRONT
  6
Continuous
 62
     7
370
    13
100
AcDbLine
 10
880.1997646259827
 20
202.093986671274
 30
0.0
 11
880.1997646259827
 21
202.293986331474
 31
0.0
  0
LINE
  5
467F
330
37
100
AcDbEntity
  8
10000_FRONT
  6
Continuous
 62
     7
370
    25
100
AcDbLine
 10
880.1997646259827
 20
197.193985681774
 30
0.0
 11
880.1997646259827
 21
202.093986671274
 31
0.0
  0
LINE
  5
4680
330
37
100
AcDbEntity
  8
10000_FRONT
  6
Continuous
 62
     7
370
    13
100
AcDbLine
 10
803.3320975991827
 20
135.494405280574
 30
0.0
 11
803.3320975991827
 21
134.802099194174
 31
0.0
  0
LINE
  5
4681
330
37
100
AcDbEntity
  8
10000_FRONT
  6
Continuous
 62
     7
370
    13
100
AcDbLine
 10
803.6782513408827
 20
135.494405280574
 30
0.0
 11
803.3320975991827
 21
135.494405280574
 31
0.0
  0
LINE
  5
4682
330
37
100
AcDbEntity
  8
10000_FRONT
  6
Continuous
 62
     7
370
    13
100
AcDbLine
 10
803.6782513408827
 20
135.802097495474
 30
0.0
 11
803.6782513408827
 21
135.494405280574
 31
0.0
  0
LINE
  5
4683
330
37
100
AcDbEntity
  8
10000_FRONT
  6
Continuous
 62
     7
370
    13
100
AcDbLine
 10
803.3320975991827
 20
135.802097495474
 30
0.0
 11
803.6782513408827
 21
135.802097495474
 31
0.0
  0
LINE
  5
4684
330
37
100
AcDbEntity
  8
10000_FRONT
  6
Continuous
 62
     7
370
    13
100
AcDbLine
 10
803.3320975991827
 20
137.879021342674
 30
0.0
 11
803.3320975991827
 21
135.802097495474
 31
0.0
  0
LINE
  5
4685
330
37
100
AcDbEntity
  8
10000_FRONT
  6
Continuous
 62
     7
370
    13
100
AcDbLine
 10
803.2774101047827
 20
137.879021342674
 30
0.0
 11
803.3320975991827
 21
137.879021342674
 31
0.0
  0
LINE
  5
4686
330
37
100
AcDbEntity
  8
10000_FRONT
  6
Continuous
 62
     7
370
    13
100
AcDbLine
 10
801.6397898354828
 20
135.494405280574
 30
0.0
 11
803.2774101047827
 21
137.879021342674
 31
0.0
  0
LINE
  5
4687
330
37
100
AcDbEntity
  8
10000_FRONT
  6
Continuous
 62
     7
370
    13
100
AcDbLine
 10
803.0628666783828
 20
135.494405280574
 30
0.0
 11
801.6397898354828
 21
135.494405280574
 31
0.0
  0
LINE
  5
4688
330
37
100
AcDbEntity
  8
10000_FRONT
  6
Continuous
 62
     7
370
    13
100
AcDbLine
 10
803.0628666783828
 20
134.802099194174
 30
0.0
 11
803.0628666783828
 21
135.494405280574
 31
0.0
  0
LINE
  5
4689
330
37
100
AcDbEntity
  8
10000_FRONT
  6
Continuous
 62
     7
370
    13
100
AcDbLine
 10
803.3320975991827
 20
134.802099194174
 30
0.0
 11
803.0628666783828
 21
134.802099194174
 31
0.0
  0
LINE
  5
468E
330
37
100
AcDbEntity
  8
10000_FRONT
  6
Continuous
 62
     7
370
    13
100
AcDbLine
 10
792.4859437661827
 20
135.609790559674
 30
0.0
 11
792.7551742213827
 21
135.609790559674
 31
0.0
  0
LINE
  5
4696
330
37
100
AcDbEntity
  8
10000_FRONT
  6
Continuous
 62
     7
370
    13
100
AcDbLine
 10
792.8705590347825
 20
137.109790805574
 30
0.0
 11
792.6013281139827
 21
137.109790805574
 31
0.0
  0
LINE
  5
469A
330
37
100
AcDbEntity
  8
10000_FRONT
  6
Continuous
 62
     7
370
    13
100
AcDbLine
 10
793.3320973569825
 20
136.3020985087739
 30
0.0
 11
793.3320973569825
 21
136.6097907235739
 31
0.0
  0
LINE
  5
46AC
330
37
100
AcDbEntity
  8
10000_FRONT
  6
Continuous
 62
     7
370
    13
100
AcDbLine
 10
809.9762739183827
 20
160.988705109574
 30
0.0
 11
809.9762739183827
 21
157.488705467274
 31
0.0
  0
LINE
  5
46AD
330
37
100
AcDbEntity
  8
10000_FRONT
  6
Continuous
 62
     7
370
    13
100
AcDbLine
 10
809.3031968491827
 20
160.988705109574
 30
0.0
 11
809.9762739183827
 21
160.988705109574
 31
0.0
  0
LINE
  5
46AE
330
37
100
AcDbEntity
  8
10000_FRONT
  6
Continuous
 62
     7
370
    13
100
AcDbLine
 10
809.3031968491827
 20
158.689025666374
 30
0.0
 11
809.3031968491827
 21
160.988705109574
 31
0.0
  0
LINE
  5
46AF
330
37
100
AcDbEntity
  8
10000_FRONT
  6
Continuous
 62
     7
370
    13
100
AcDbLine
 10
807.8974473791827
 20
160.988705109574
 30
0.0
 11
809.3031968491827
 21
158.689025666374
 31
0.0
  0
LINE
  5
46B0
330
37
100
AcDbEntity
  8
10000_FRONT
  6
Continuous
 62
     7
370
    13
100
AcDbLine
 10
807.1942224668827
 20
160.988705109574
 30
0.0
 11
807.8974473791827
 21
160.988705109574
 31
0.0
  0
LINE
  5
46B1
330
37
100
AcDbEntity
  8
10000_FRONT
  6
Continuous
 62
     7
370
    13
100
AcDbLine
 10
807.1942224668827
 20
157.488705467274
 30
0.0
 11
807.1942224668827
 21
160.988705109574
 31
0.0
  0
LINE
  5
46B2
330
37
100
AcDbEntity
  8
10000_FRONT
  6
Continuous
 62
     7
370
    13
100
AcDbLine
 10
807.8672995361827
 20
157.488705467274
 30
0.0
 11
807.1942224668827
 21
157.488705467274
 31
0.0
  0
LINE
  5
46B3
330
37
100
AcDbEntity
  8
10000_FRONT
  6
Continuous
 62
     7
370
    13
100
AcDbLine
 10
807.8672995361827
 20
159.7533285317739
 30
0.0
 11
807.8672995361827
 21
157.488705467274
 31
0.0
  0
LINE
  5
46B4
330
37
100
AcDbEntity
  8
10000_FRONT
  6
Continuous
 62
     7
370
    13
100
AcDbLine
 10
809.2520150857827
 20
157.488705467274
 30
0.0
 11
807.8672995361827
 21
159.7533285317739
 31
0.0
  0
LINE
  5
46B5
330
37
100
AcDbEntity
  8
10000_FRONT
  6
Continuous
 62
     7
370
    13
100
AcDbLine
 10
809.9762739183827
 20
157.488705467274
 30
0.0
 11
809.2520150857827
 21
157.488705467274
 31
0.0
  0
LINE
  5
46B6
330
37
100
AcDbEntity
  8
10000_FRONT
  6
Continuous
 62
     7
370
    13
100
AcDbLine
 10
806.4314017573828
 20
159.059218007874
 30
0.0
 11
804.6365303488826
 21
159.059218007874
 31
0.0
  0
LINE
  5
46B7
330
37
100
AcDbEntity
  8
10000_FRONT
  6
Continuous
 62
     7
370
    13
100
AcDbLine
 10
806.4314017573828
 20
159.642551436874
 30
0.0
 11
806.4314017573828
 21
159.059218007874
 31
0.0
  0
LINE
  5
46B8
330
37
100
AcDbEntity
  8
10000_FRONT
  6
Continuous
 62
     7
370
    13
100
AcDbLine
 10
804.6365303488826
 20
159.642551436874
 30
0.0
 11
806.4314017573828
 21
159.642551436874
 31
0.0
  0
LINE
  5
46B9
330
37
100
AcDbEntity
  8
10000_FRONT
  6
Continuous
 62
     7
370
    13
100
AcDbLine
 10
804.6365303488826
 20
160.4053721462739
 30
0.0
 11
804.6365303488826
 21
159.642551436874
 31
0.0
  0
LINE
  5
46BA
330
37
100
AcDbEntity
  8
10000_FRONT
  6
Continuous
 62
     7
370
    13
100
AcDbLine
 10
806.5660174506827
 20
160.4053721462739
 30
0.0
 11
804.6365303488826
 21
160.4053721462739
 31
0.0
  0
LINE
  5
46BB
330
37
100
AcDbEntity
  8
10000_FRONT
  6
Continuous
 62
     7
370
    13
100
AcDbLine
 10
806.5660174506827
 20
160.988705109574
 30
0.0
 11
806.5660174506827
 21
160.4053721462739
 31
0.0
  0
LINE
  5
46BC
330
37
100
AcDbEntity
  8
10000_FRONT
  6
Continuous
 62
     7
370
    13
100
AcDbLine
 10
803.9634532796828
 20
160.988705109574
 30
0.0
 11
806.5660174506827
 21
160.988705109574
 31
0.0
  0
LINE
  5
46BD
330
37
100
AcDbEntity
  8
10000_FRONT
  6
Continuous
 62
     7
370
    13
100
AcDbLine
 10
803.9634532796828
 20
157.488705467274
 30
0.0
 11
803.9634532796828
 21
160.988705109574
 31
0.0
  0
LINE
  5
46BE
330
37
100
AcDbEntity
  8
10000_FRONT
  6
Continuous
 62
     7
370
    13
100
AcDbLine
 10
806.6108890379828
 20
157.488705467274
 30
0.0
 11
803.9634532796828
 21
157.488705467274
 31
0.0
  0
LINE
  5
46BF
330
37
100
AcDbEntity
  8
10000_FRONT
  6
Continuous
 62
     7
370
    13
100
AcDbLine
 10
806.6108890379828
 20
158.072038430574
 30
0.0
 11
806.6108890379828
 21
157.488705467274
 31
0.0
  0
LINE
  5
46C0
330
37
100
AcDbEntity
  8
10000_FRONT
  6
Continuous
 62
     7
370
    13
100
AcDbLine
 10
804.6365303488826
 20
158.072038430574
 30
0.0
 11
806.6108890379828
 21
158.072038430574
 31
0.0
  0
LINE
  5
46C1
330
37
100
AcDbEntity
  8
10000_FRONT
  6
Continuous
 62
     7
370
    13
100
AcDbLine
 10
804.6365303488826
 20
159.059218007874
 30
0.0
 11
804.6365303488826
 21
158.072038430574
 31
0.0
  0
LINE
  5
46C2
330
37
100
AcDbEntity
  8
10000_FRONT
  6
Continuous
 62
     7
370
    13
100
AcDbLine
 10
802.5948635803827
 20
160.244114108174
 30
0.0
 11
801.9379123615827
 21
157.488705467274
 31
0.0
  0
LINE
  5
46C4
330
37
100
AcDbEntity
  8
10000_FRONT
  6
Continuous
 62
     7
370
    13
100
AcDbLine
 10
803.2903762104828
 20
157.488705467274
 30
0.0
 11
802.6172993740827
 21
157.488705467274
 31
0.0
  0
LINE
  5
46C5
330
37
100
AcDbEntity
  8
10000_FRONT
  6
Continuous
 62
     7
370
    13
100
AcDbLine
 10
803.2903762104828
 20
160.988705109574
 30
0.0
 11
803.2903762104828
 21
157.488705467274
 31
0.0
  0
LINE
  5
46C6
330
37
100
AcDbEntity
  8
10000_FRONT
  6
Continuous
 62
     7
370
    13
100
AcDbLine
 10
802.1517545020827
 20
160.988705109574
 30
0.0
 11
803.2903762104828
 21
160.988705109574
 31
0.0
  0
LINE
  5
46C7
330
37
100
AcDbEntity
  8
10000_FRONT
  6
Continuous
 62
     7
370
    13
100
AcDbLine
 10
801.5628121829829
 20
158.601385418174
 30
0.0
 11
802.1517545020827
 21
160.988705109574
 31
0.0
  0
LINE
  5
46C8
330
37
100
AcDbEntity
  8
10000_FRONT
  6
Continuous
 62
     7
370
    13
100
AcDbLine
 10
800.9738698637828
 20
160.988705109574
 30
0.0
 11
801.5628121829829
 21
158.601385418174
 31
0.0
  0
LINE
  5
46C9
330
37
100
AcDbEntity
  8
10000_FRONT
  6
Continuous
 62
     7
370
    13
100
AcDbLine
 10
799.8352481044827
 20
160.988705109574
 30
0.0
 11
800.9738698637828
 21
160.988705109574
 31
0.0
  0
LINE
  5
46CA
330
37
100
AcDbEntity
  8
10000_FRONT
  6
Continuous
 62
     7
370
    13
100
AcDbLine
 10
799.8352481044827
 20
157.488705467274
 30
0.0
 11
799.8352481044827
 21
160.988705109574
 31
0.0
  0
LINE
  5
46CB
330
37
100
AcDbEntity
  8
10000_FRONT
  6
Continuous
 62
     7
370
    13
100
AcDbLine
 10
800.5083250499827
 20
157.488705467274
 30
0.0
 11
799.8352481044827
 21
157.488705467274
 31
0.0
  0
LINE
  5
46CD
330
37
100
AcDbEntity
  8
10000_FRONT
  6
Continuous
 62
     7
370
    13
100
AcDbLine
 10
801.1877120042829
 20
157.488705467274
 30
0.0
 11
800.5307609018828
 21
160.244114108174
 31
0.0
  0
LINE
  5
46CE
330
37
100
AcDbEntity
  8
10000_FRONT
  6
Continuous
 62
     7
370
    13
100
AcDbLine
 10
801.9379123615827
 20
157.488705467274
 30
0.0
 11
801.1877120042829
 21
157.488705467274
 31
0.0
  0
LINE
  5
46CF
330
37
100
AcDbEntity
  8
10000_FRONT
  6
Continuous
 62
     7
370
    13
100
AcDbLine
 10
799.1172993824827
 20
159.059218007874
 30
0.0
 11
797.3224276246827
 21
159.059218007874
 31
0.0
  0
LINE
  5
46D0
330
37
100
AcDbEntity
  8
10000_FRONT
  6
Continuous
 62
     7
370
    13
100
AcDbLine
 10
799.1172993824827
 20
159.642551436874
 30
0.0
 11
799.1172993824827
 21
159.059218007874
 31
0.0
  0
LINE
  5
46D1
330
37
100
AcDbEntity
  8
10000_FRONT
  6
Continuous
 62
     7
370
    13
100
AcDbLine
 10
797.3224276246827
 20
159.642551436874
 30
0.0
 11
799.1172993824827
 21
159.642551436874
 31
0.0
  0
LINE
  5
46D2
330
37
100
AcDbEntity
  8
10000_FRONT
  6
Continuous
 62
     7
370
    13
100
AcDbLine
 10
797.3224276246827
 20
160.4053721462739
 30
0.0
 11
797.3224276246827
 21
159.642551436874
 31
0.0
  0
LINE
  5
46D3
330
37
100
AcDbEntity
  8
10000_FRONT
  6
Continuous
 62
     7
370
    13
100
AcDbLine
 10
799.2519147846827
 20
160.4053721462739
 30
0.0
 11
797.3224276246827
 21
160.4053721462739
 31
0.0
  0
LINE
  5
46D4
330
37
100
AcDbEntity
  8
10000_FRONT
  6
Continuous
 62
     7
370
    13
100
AcDbLine
 10
799.2519147846827
 20
160.988705109574
 30
0.0
 11
799.2519147846827
 21
160.4053721462739
 31
0.0
  0
LINE
  5
46D5
330
37
100
AcDbEntity
  8
10000_FRONT
  6
Continuous
 62
     7
370
    13
100
AcDbLine
 10
796.6493505554828
 20
160.988705109574
 30
0.0
 11
799.2519147846827
 21
160.988705109574
 31
0.0
  0
LINE
  5
46D6
330
37
100
AcDbEntity
  8
10000_FRONT
  6
Continuous
 62
     7
370
    13
100
AcDbLine
 10
796.6493505554828
 20
157.488705467274
 30
0.0
 11
796.6493505554828
 21
160.988705109574
 31
0.0
  0
LINE
  5
46D7
330
37
100
AcDbEntity
  8
10000_FRONT
  6
Continuous
 62
     7
370
    13
100
AcDbLine
 10
799.2967865465828
 20
157.488705467274
 30
0.0
 11
796.6493505554828
 21
157.488705467274
 31
0.0
  0
LINE
  5
46D8
330
37
100
AcDbEntity
  8
10000_FRONT
  6
Continuous
 62
     7
370
    13
100
AcDbLine
 10
799.2967865465828
 20
158.072038430574
 30
0.0
 11
799.2967865465828
 21
157.488705467274
 31
0.0
  0
LINE
  5
46D9
330
37
100
AcDbEntity
  8
10000_FRONT
  6
Continuous
 62
     7
370
    13
100
AcDbLine
 10
797.3224276246827
 20
158.072038430574
 30
0.0
 11
799.2967865465828
 21
158.072038430574
 31
0.0
  0
LINE
  5
46DA
330
37
100
AcDbEntity
  8
10000_FRONT
  6
Continuous
 62
     7
370
    13
100
AcDbLine
 10
797.3224276246827
 20
159.059218007874
 30
0.0
 11
797.3224276246827
 21
158.072038430574
 31
0.0
  0
LINE
  5
46DB
330
37
100
AcDbEntity
  8
10000_FRONT
  6
Continuous
 62
     7
370
    13
100
AcDbLine
 10
795.9314018989827
 20
157.488705467274
 30
0.0
 11
795.2583248297827
 21
157.488705467274
 31
0.0
  0
LINE
  5
46DC
330
37
100
AcDbEntity
  8
10000_FRONT
  6
Continuous
 62
     7
370
    13
100
AcDbLine
 10
795.9314018989827
 20
160.988705109574
 30
0.0
 11
795.9314018989827
 21
157.488705467274
 31
0.0
  0
LINE
  5
46DD
330
37
100
AcDbEntity
  8
10000_FRONT
  6
Continuous
 62
     7
370
    13
100
AcDbLine
 10
795.2583248297827
 20
160.988705109574
 30
0.0
 11
795.9314018989827
 21
160.988705109574
 31
0.0
  0
LINE
  5
46DE
330
37
100
AcDbEntity
  8
10000_FRONT
  6
Continuous
 62
     7
370
    13
100
AcDbLine
 10
795.2583248297827
 20
157.488705467274
 30
0.0
 11
795.2583248297827
 21
160.988705109574
 31
0.0
  0
LINE
  5
46F0
330
37
100
AcDbEntity
  8
10000_FRONT
  6
Continuous
 62
     7
370
    13
100
AcDbLine
 10
802.9963772314827
 20
170.843984808574
 30
0.0
 11
822.9963767843829
 21
170.843984808574
 31
0.0
  0
LINE
  5
46F1
330
37
100
AcDbEntity
  8
10000_FRONT
  6
Continuous
 62
     7
370
    13
100
AcDbLine
 10
802.9963772314827
 20
163.843985523874
 30
0.0
 11
802.9963772314827
 21
170.843984808574
 31
0.0
  0
LINE
  5
46F2
330
37
100
AcDbEntity
  8
10000_FRONT
  6
Continuous
 62
     7
370
    13
100
AcDbLine
 10
822.9963767843829
 20
163.843985523874
 30
0.0
 11
802.9963772314827
 21
163.843985523874
 31
0.0
  0
LINE
  5
46F3
330
37
100
AcDbEntity
  8
10000_FRONT
  6
Continuous
 62
     7
370
    13
100
AcDbLine
 10
822.9963767843829
 20
170.843984808574
 30
0.0
 11
822.9963767843829
 21
163.843985523874
 31
0.0
  0
LINE
  5
46FB
330
37
100
AcDbEntity
  8
10000_FRONT
  6
Continuous
 62
     7
370
    13
100
AcDbLine
 10
827.5463774370829
 20
192.095624159874
 30
0.0
 11
827.5463774370829
 21
194.307194899574
 31
0.0
  0
LINE
  5
46FE
330
37
100
AcDbEntity
  8
10000_FRONT
  6
Continuous
 62
     7
370
    13
100
AcDbLine
 10
831.1463787721827
 20
194.307194899574
 30
0.0
 11
831.1463787721827
 21
192.095624159874
 31
0.0
  0
LINE
  5
4703
330
37
100
AcDbEntity
  8
10000_FRONT
  6
Continuous
 62
     7
370
    13
100
AcDbLine
 10
827.2463779466827
 20
194.307194899574
 30
0.0
 11
827.2463779466827
 21
192.095624159874
 31
0.0
  0
LINE
  5
4707
330
37
100
AcDbEntity
  8
10000_FRONT
  6
Continuous
 62
     7
370
    13
100
AcDbLine
 10
823.6463766115829
 20
192.095624159874
 30
0.0
 11
823.6463766115829
 21
194.307194899574
 31
0.0
  0
LINE
  5
470B
330
37
100
AcDbEntity
  8
10000_FRONT
  6
Continuous
 62
     7
370
    13
100
AcDbLine
 10
813.1463776844825
 20
192.095624159874
 30
0.0
 11
813.1463776844825
 21
194.307194899574
 31
0.0
  0
LINE
  5
470F
330
37
100
AcDbEntity
  8
10000_FRONT
  6
Continuous
 62
     7
370
    13
100
AcDbLine
 10
816.7463771569826
 20
194.307194899574
 30
0.0
 11
816.7463771569826
 21
192.095624159874
 31
0.0
  0
LINE
  5
4714
330
37
100
AcDbEntity
  8
10000_FRONT
  6
Continuous
 62
     7
370
    13
100
AcDbLine
 10
812.8463772627828
 20
194.307194899574
 30
0.0
 11
812.8463772627828
 21
192.095624159874
 31
0.0
  0
LINE
  5
4718
330
37
100
AcDbEntity
  8
10000_FRONT
  6
Continuous
 62
     7
370
    13
100
AcDbLine
 10
809.2463768588826
 20
192.095624159874
 30
0.0
 11
809.2463768588826
 21
194.307194899574
 31
0.0
  0
LINE
  5
471A
330
37
100
AcDbEntity
  8
10000_FRONT
  6
Continuous
 62
     7
370
    13
100
AcDbLine
 10
802.3463774042825
 20
194.307194899574
 30
0.0
 11
802.3463774042825
 21
192.095624159874
 31
0.0
  0
LINE
  5
471E
330
37
100
AcDbEntity
  8
10000_FRONT
  6
Continuous
 62
     7
370
    13
100
AcDbLine
 10
798.7463773496828
 20
192.095624159874
 30
0.0
 11
798.7463773496828
 21
194.307194899574
 31
0.0
  0
LINE
  5
4724
330
37
100
AcDbEntity
  8
10000_FRONT
  6
Continuous
 62
     7
370
    13
100
AcDbLine
 10
794.8463771062828
 20
192.095624159874
 30
0.0
 11
794.8463771062828
 21
194.307194899574
 31
0.0
  0
LINE
  5
4728
330
37
100
AcDbEntity
  8
10000_FRONT
  6
Continuous
 62
     7
370
    13
100
AcDbLine
 10
798.4463772772827
 20
194.307194899574
 30
0.0
 11
798.4463772772827
 21
192.095624159874
 31
0.0
  0
LINE
  5
4729
330
37
100
AcDbEntity
  8
10000_FRONT
  6
Continuous
 62
     7
370
    13
100
AcDbLine
 10
802.3966662621827
 20
189.223481219074
 30
0.0
 11
802.3966662621827
 21
185.343956451674
 31
0.0
  0
LINE
  5
472A
330
37
100
AcDbEntity
  8
10000_FRONT
  6
Continuous
 62
     7
370
    13
100
AcDbLine
 10
798.5966662735827
 20
189.223481219074
 30
0.0
 11
802.3966662621827
 21
189.223481219074
 31
0.0
  0
LINE
  5
472C
330
37
100
AcDbEntity
  8
10000_FRONT
  6
Continuous
 62
     7
370
    13
100
AcDbLine
 10
802.3966662621827
 20
185.343956451674
 30
0.0
 11
798.5966662735827
 21
185.343956451674
 31
0.0
  0
LINE
  5
472E
330
37
100
AcDbEntity
  8
10000_FRONT
  6
Continuous
 62
     7
370
    13
100
AcDbLine
 10
794.7966663668827
 20
189.223481219074
 30
0.0
 11
798.5966662735827
 21
189.223481219074
 31
0.0
  0
LINE
  5
472F
330
37
100
AcDbEntity
  8
10000_FRONT
  6
Continuous
 62
     7
370
    13
100
AcDbLine
 10
794.7966663668827
 20
185.343956451674
 30
0.0
 11
794.7966663668827
 21
189.223481219074
 31
0.0
  0
LINE
  5
4730
330
37
100
AcDbEntity
  8
10000_FRONT
  6
Continuous
 62
     7
370
    13
100
AcDbLine
 10
798.5966662735827
 20
185.343956451674
 30
0.0
 11
794.7966663668827
 21
185.343956451674
 31
0.0
  0
LINE
  5
4743
330
37
100
AcDbEntity
  8
10000_FRONT
  6
Continuous
 62
     7
370
    13
100
AcDbLine
 10
798.4463772772827
 20
117.692345630174
 30
0.0
 11
798.4463772772827
 21
115.480774890474
 31
0.0
  0
LINE
  5
4747
330
37
100
AcDbEntity
  8
10000_FRONT
  6
Continuous
 62
     7
370
    13
100
AcDbLine
 10
794.8463771062828
 20
115.480774890474
 30
0.0
 11
794.8463771062828
 21
117.692345630174
 31
0.0
  0
LINE
  5
474A
330
37
100
AcDbEntity
  8
10000_FRONT
  6
Continuous
 62
     7
370
    13
100
AcDbLine
 10
802.3463774042825
 20
117.692345630174
 30
0.0
 11
802.3463774042825
 21
115.480774890474
 31
0.0
  0
LINE
  5
474E
330
37
100
AcDbEntity
  8
10000_FRONT
  6
Continuous
 62
     7
370
    13
100
AcDbLine
 10
798.7463773496828
 20
115.480774890474
 30
0.0
 11
798.7463773496828
 21
117.692345630174
 31
0.0
  0
LINE
  5
4751
330
37
100
AcDbEntity
  8
10000_FRONT
  6
Continuous
 62
     7
370
    13
100
AcDbLine
 10
802.3960883764827
 20
124.444015200974
 30
0.0
 11
802.3960883764827
 21
120.564488570974
 31
0.0
  0
LINE
  5
4752
330
37
100
AcDbEntity
  8
10000_FRONT
  6
Continuous
 62
     7
370
    13
100
AcDbLine
 10
798.8460882951827
 20
124.444015200974
 30
0.0
 11
802.3960883764827
 21
124.444015200974
 31
0.0
  0
LINE
  5
4753
330
37
100
AcDbEntity
  8
10000_FRONT
  6
Continuous
 62
     7
370
    13
100
AcDbLine
 10
798.8460882951827
 20
120.564488570974
 30
0.0
 11
798.8460882951827
 21
124.444015200974
 31
0.0
  0
LINE
  5
4754
330
37
100
AcDbEntity
  8
10000_FRONT
  6
Continuous
 62
     7
370
    13
100
AcDbLine
 10
802.3960883764827
 20
120.564488570974
 30
0.0
 11
798.8460882951827
 21
120.564488570974
 31
0.0
  0
LINE
  5
4755
330
37
100
AcDbEntity
  8
10000_FRONT
  6
Continuous
 62
     7
370
    13
100
AcDbLine
 10
798.3460882714827
 20
124.444015200974
 30
0.0
 11
798.3460882714827
 21
120.564488570974
 31
0.0
  0
LINE
  5
4756
330
37
100
AcDbEntity
  8
10000_FRONT
  6
Continuous
 62
     7
370
    13
100
AcDbLine
 10
794.7960884811825
 20
124.444015200974
 30
0.0
 11
798.3460882714827
 21
124.444015200974
 31
0.0
  0
LINE
  5
4757
330
37
100
AcDbEntity
  8
10000_FRONT
  6
Continuous
 62
     7
370
    13
100
AcDbLine
 10
794.7960884811825
 20
120.564488570974
 30
0.0
 11
794.7960884811825
 21
124.444015200974
 31
0.0
  0
LINE
  5
4758
330
37
100
AcDbEntity
  8
10000_FRONT
  6
Continuous
 62
     7
370
    13
100
AcDbLine
 10
798.3460882714827
 20
120.564488570974
 30
0.0
 11
794.7960884811825
 21
120.564488570974
 31
0.0
  0
LINE
  5
475C
330
37
100
AcDbEntity
  8
10000_FRONT
  6
Continuous
 62
     7
370
    13
100
AcDbLine
 10
812.8463772627828
 20
117.692345630174
 30
0.0
 11
812.8463772627828
 21
115.480774890474
 31
0.0
  0
LINE
  5
4760
330
37
100
AcDbEntity
  8
10000_FRONT
  6
Continuous
 62
     7
370
    13
100
AcDbLine
 10
809.2463768588826
 20
115.480774890474
 30
0.0
 11
809.2463768588826
 21
117.692345630174
 31
0.0
  0
LINE
  5
4764
330
37
100
AcDbEntity
  8
10000_FRONT
  6
Continuous
 62
     7
370
    13
100
AcDbLine
 10
816.7463771569826
 20
117.692345630174
 30
0.0
 11
816.7463771569826
 21
115.480774890474
 31
0.0
  0
LINE
  5
4768
330
37
100
AcDbEntity
  8
10000_FRONT
  6
Continuous
 62
     7
370
    13
100
AcDbLine
 10
813.1463776844825
 20
115.480774890474
 30
0.0
 11
813.1463776844825
 21
117.692345630174
 31
0.0
  0
LINE
  5
4769
330
37
100
AcDbEntity
  8
10000_FRONT
  6
Continuous
 62
     7
370
    13
100
AcDbLine
 10
812.7460887225828
 20
120.564488570974
 30
0.0
 11
809.1960882338828
 21
120.564488570974
 31
0.0
  0
LINE
  5
476A
330
37
100
AcDbEntity
  8
10000_FRONT
  6
Continuous
 62
     7
370
    13
100
AcDbLine
 10
812.7460887225828
 20
124.444015200974
 30
0.0
 11
812.7460887225828
 21
120.564488570974
 31
0.0
  0
LINE
  5
476B
330
37
100
AcDbEntity
  8
10000_FRONT
  6
Continuous
 62
     7
370
    13
100
AcDbLine
 10
809.1960882338828
 20
124.444015200974
 30
0.0
 11
812.7460887225828
 21
124.444015200974
 31
0.0
  0
LINE
  5
476C
330
37
100
AcDbEntity
  8
10000_FRONT
  6
Continuous
 62
     7
370
    13
100
AcDbLine
 10
809.1960882338828
 20
120.564488570974
 30
0.0
 11
809.1960882338828
 21
124.444015200974
 31
0.0
  0
LINE
  5
476D
330
37
100
AcDbEntity
  8
10000_FRONT
  6
Continuous
 62
     7
370
    13
100
AcDbLine
 10
816.7960874306826
 20
124.444015200974
 30
0.0
 11
816.7960874306826
 21
120.564488570974
 31
0.0
  0
LINE
  5
476E
330
37
100
AcDbEntity
  8
10000_FRONT
  6
Continuous
 62
     7
370
    13
100
AcDbLine
 10
813.2460878732828
 20
124.444015200974
 30
0.0
 11
816.7960874306826
 21
124.444015200974
 31
0.0
  0
LINE
  5
476F
330
37
100
AcDbEntity
  8
10000_FRONT
  6
Continuous
 62
     7
370
    13
100
AcDbLine
 10
813.2460878732828
 20
120.564488570974
 30
0.0
 11
813.2460878732828
 21
124.444015200974
 31
0.0
  0
LINE
  5
4770
330
37
100
AcDbEntity
  8
10000_FRONT
  6
Continuous
 62
     7
370
    13
100
AcDbLine
 10
816.7960874306826
 20
120.564488570974
 30
0.0
 11
813.2460878732828
 21
120.564488570974
 31
0.0
  0
LINE
  5
4771
330
37
100
AcDbEntity
  8
10000_FRONT
  6
Continuous
 62
     7
370
    13
100
AcDbLine
 10
827.5463774370829
 20
115.480774890474
 30
0.0
 11
827.5463774370829
 21
117.692345630174
 31
0.0
  0
LINE
  5
4775
330
37
100
AcDbEntity
  8
10000_FRONT
  6
Continuous
 62
     7
370
    13
100
AcDbLine
 10
831.1463787721827
 20
117.692345630174
 30
0.0
 11
831.1463787721827
 21
115.480774890474
 31
0.0
  0
LINE
  5
4778
330
37
100
AcDbEntity
  8
10000_FRONT
  6
Continuous
 62
     7
370
    13
100
AcDbLine
 10
831.1960890459827
 20
120.564488570974
 30
0.0
 11
827.6460885571827
 21
120.564488570974
 31
0.0
  0
LINE
  5
4779
330
37
100
AcDbEntity
  8
10000_FRONT
  6
Continuous
 62
     7
370
    13
100
AcDbLine
 10
831.1960890459827
 20
124.444015200974
 30
0.0
 11
831.1960890459827
 21
120.564488570974
 31
0.0
  0
LINE
  5
477A
330
37
100
AcDbEntity
  8
10000_FRONT
  6
Continuous
 62
     7
370
    13
100
AcDbLine
 10
827.6460885571827
 20
124.444015200974
 30
0.0
 11
831.1960890459827
 21
124.444015200974
 31
0.0
  0
LINE
  5
477B
330
37
100
AcDbEntity
  8
10000_FRONT
  6
Continuous
 62
     7
370
    13
100
AcDbLine
 10
827.6460885571827
 20
120.564488570974
 30
0.0
 11
827.6460885571827
 21
124.444015200974
 31
0.0
  0
LINE
  5
477C
330
37
100
AcDbEntity
  8
10000_FRONT
  6
Continuous
 62
     7
370
    13
100
AcDbLine
 10
827.1460875438828
 20
124.444015200974
 30
0.0
 11
827.1460875438828
 21
120.564488570974
 31
0.0
  0
LINE
  5
477D
330
37
100
AcDbEntity
  8
10000_FRONT
  6
Continuous
 62
     7
370
    13
100
AcDbLine
 10
823.5960889177826
 20
124.444015200974
 30
0.0
 11
827.1460875438828
 21
124.444015200974
 31
0.0
  0
LINE
  5
477E
330
37
100
AcDbEntity
  8
10000_FRONT
  6
Continuous
 62
     7
370
    13
100
AcDbLine
 10
823.5960889177826
 20
120.564488570974
 30
0.0
 11
823.5960889177826
 21
124.444015200974
 31
0.0
  0
LINE
  5
477F
330
37
100
AcDbEntity
  8
10000_FRONT
  6
Continuous
 62
     7
370
    13
100
AcDbLine
 10
827.1460875438828
 20
120.564488570974
 30
0.0
 11
823.5960889177826
 21
120.564488570974
 31
0.0
  0
LINE
  5
4782
330
37
100
AcDbEntity
  8
10000_FRONT
  6
Continuous
 62
     7
370
    13
100
AcDbLine
 10
827.2463779466827
 20
117.692345630174
 30
0.0
 11
827.2463779466827
 21
115.480774890474
 31
0.0
  0
LINE
  5
4786
330
37
100
AcDbEntity
  8
10000_FRONT
  6
Continuous
 62
     7
370
    13
100
AcDbLine
 10
823.6463766115829
 20
115.480774890474
 30
0.0
 11
823.6463766115829
 21
117.692345630174
 31
0.0
  0
LINE
  5
478A
330
37
100
AcDbEntity
  8
10000_FRONT
  6
Continuous
 62
     7
370
    13
100
AcDbLine
 10
796.6530108860827
 20
134.802099194174
 30
0.0
 11
795.5508476624827
 21
136.186713229674
 31
0.0
  0
LINE
  5
478B
330
37
100
AcDbEntity
  8
10000_FRONT
  6
Continuous
 62
     7
370
    13
100
AcDbLine
 10
796.9859435724827
 20
134.802099194174
 30
0.0
 11
796.6530108860827
 21
134.802099194174
 31
0.0
  0
LINE
  5
478C
330
37
100
AcDbEntity
  8
10000_FRONT
  6
Continuous
 62
     7
370
    13
100
AcDbLine
 10
795.8837801160828
 20
136.186713229674
 30
0.0
 11
796.9859435724827
 21
134.802099194174
 31
0.0
  0
LINE
  5
4790
330
37
100
AcDbEntity
  8
10000_FRONT
  6
Continuous
 62
     7
370
    13
100
AcDbLine
 10
795.0628667640827
 20
137.802097823274
 30
0.0
 11
795.6632270979828
 21
137.802097823274
 31
0.0
  0
LINE
  5
4791
330
37
100
AcDbEntity
  8
10000_FRONT
  6
Continuous
 62
     7
370
    13
100
AcDbLine
 10
795.0628667640827
 20
134.802099194174
 30
0.0
 11
795.0628667640827
 21
137.802097823274
 31
0.0
  0
LINE
  5
4792
330
37
100
AcDbEntity
  8
10000_FRONT
  6
Continuous
 62
     7
370
    13
100
AcDbLine
 10
795.3320976848828
 20
134.802099194174
 30
0.0
 11
795.0628667640827
 21
134.802099194174
 31
0.0
  0
LINE
  5
4793
330
37
100
AcDbEntity
  8
10000_FRONT
  6
Continuous
 62
     7
370
    13
100
AcDbLine
 10
795.3320976848828
 20
136.186713229674
 30
0.0
 11
795.3320976848828
 21
134.802099194174
 31
0.0
  0
LINE
  5
4794
330
37
100
AcDbEntity
  8
10000_FRONT
  6
Continuous
 62
     7
370
    13
100
AcDbLine
 10
795.5508476624827
 20
136.186713229674
 30
0.0
 11
795.3320976848828
 21
136.186713229674
 31
0.0
  0
LINE
  5
4795
330
37
100
AcDbEntity
  8
10000_FRONT
  6
Continuous
 62
     7
370
    13
100
AcDbLine
 10
799.0628667211827
 20
136.571328963874
 30
0.0
 11
799.0628667211827
 21
136.263636749074
 31
0.0
  0
LINE
  5
4796
330
37
100
AcDbEntity
  8
10000_FRONT
  6
Continuous
 62
     7
370
    13
100
AcDbLine
 10
797.8705590393827
 20
136.571328963874
 30
0.0
 11
799.0628667211827
 21
136.571328963874
 31
0.0
  0
LINE
  5
4797
330
37
100
AcDbEntity
  8
10000_FRONT
  6
Continuous
 62
     7
370
    13
100
AcDbLine
 10
797.8705590393827
 20
137.494405608474
 30
0.0
 11
797.8705590393827
 21
136.571328963874
 31
0.0
  0
LINE
  5
4798
330
37
100
AcDbEntity
  8
10000_FRONT
  6
Continuous
 62
     7
370
    13
100
AcDbLine
 10
799.0628667211827
 20
137.494405608474
 30
0.0
 11
797.8705590393827
 21
137.494405608474
 31
0.0
  0
LINE
  5
4799
330
37
100
AcDbEntity
  8
10000_FRONT
  6
Continuous
 62
     7
370
    13
100
AcDbLine
 10
799.0628667211827
 20
137.802097823274
 30
0.0
 11
799.0628667211827
 21
137.494405608474
 31
0.0
  0
LINE
  5
479A
330
37
100
AcDbEntity
  8
10000_FRONT
  6
Continuous
 62
     7
370
    13
100
AcDbLine
 10
797.6013282349827
 20
137.802097823274
 30
0.0
 11
799.0628667211827
 21
137.802097823274
 31
0.0
  0
LINE
  5
479B
330
37
100
AcDbEntity
  8
10000_FRONT
  6
Continuous
 62
     7
370
    13
100
AcDbLine
 10
797.6013282349827
 20
134.802099194174
 30
0.0
 11
797.6013282349827
 21
137.802097823274
 31
0.0
  0
LINE
  5
479C
330
37
100
AcDbEntity
  8
10000_FRONT
  6
Continuous
 62
     7
370
    13
100
AcDbLine
 10
797.8705590393827
 20
134.802099194174
 30
0.0
 11
797.6013282349827
 21
134.802099194174
 31
0.0
  0
LINE
  5
479D
330
37
100
AcDbEntity
  8
10000_FRONT
  6
Continuous
 62
     7
370
    13
100
AcDbLine
 10
797.8705590393827
 20
136.263636749074
 30
0.0
 11
797.8705590393827
 21
134.802099194174
 31
0.0
  0
LINE
  5
479E
330
37
100
AcDbEntity
  8
10000_FRONT
  6
Continuous
 62
     7
370
    13
100
AcDbLine
 10
799.0628667211827
 20
136.263636749074
 30
0.0
 11
797.8705590393827
 21
136.263636749074
 31
0.0
  0
LINE
  5
479F
330
37
100
AcDbEntity
  8
10000_FRONT
  6
Continuous
 62
     7
370
    13
100
AcDbLine
 10
801.3705590310827
 20
134.802099194174
 30
0.0
 11
799.3320975255827
 21
134.802099194174
 31
0.0
  0
LINE
  5
47A0
330
37
100
AcDbEntity
  8
10000_FRONT
  6
Continuous
 62
     7
370
    13
100
AcDbLine
 10
801.3705590310827
 20
135.1097914090739
 30
0.0
 11
801.3705590310827
 21
134.802099194174
 31
0.0
  0
LINE
  5
47A1
330
37
100
AcDbEntity
  8
10000_FRONT
  6
Continuous
 62
     7
370
    13
100
AcDbLine
 10
799.9745253945827
 20
135.1097914090739
 30
0.0
 11
801.3705590310827
 21
135.1097914090739
 31
0.0
  0
LINE
  5
47A2
330
37
100
AcDbEntity
  8
10000_FRONT
  6
Continuous
 62
     7
370
    13
100
AcDbLine
 10
800.7251263515827
 20
135.910872246874
 30
0.0
 11
799.9745253945827
 21
135.1097914090739
 31
0.0
  0
LINE
  5
47A6
330
37
100
AcDbEntity
  8
10000_FRONT
  6
Continuous
 62
     7
370
    13
100
AcDbLine
 10
799.7167128959828
 20
136.879021178774
 30
0.0
 11
799.4474821352826
 21
136.879021178774
 31
0.0
  0
LINE
  5
47AA
330
37
100
AcDbEntity
  8
10000_FRONT
  6
Continuous
 62
     7
370
    13
100
AcDbLine
 10
799.3320975255827
 20
134.802099194174
 30
0.0
 11
800.4955590622827
 21
136.043684433974
 31
0.0
  0
LINE
  5
47AB
330
37
100
AcDbEntity
  8
10000_FRONT
  6
Continuous
 62
     7
370
    25
100
AcDbLine
 10
790.5997613015828
 20
113.0521426608739
 30
0.0
 11
790.5997613015828
 21
196.735827129174
 31
0.0
  0
LINE
  5
47AC
330
37
100
AcDbEntity
  8
10000_FRONT
  6
Continuous
 62
     7
370
    13
100
AcDbLine
 10
835.3963762091828
 20
113.0521426608739
 30
0.0
 11
835.3963762091828
 21
196.735827129174
 31
0.0
  0
LINE
  5
47AD
330
37
100
AcDbEntity
  8
10000_FRONT
  6
Continuous
 62
     7
370
    13
100
AcDbLine
 10
795.3320976848828
 20
137.494405608474
 30
0.0
 11
795.3320976848828
 21
136.4944054444739
 31
0.0
  0
LINE
  5
47AE
330
37
100
AcDbEntity
  8
10000_FRONT
  6
Continuous
 62
     7
370
    13
100
AcDbLine
 10
795.8945974277829
 20
137.494405608474
 30
0.0
 11
795.3320976848828
 21
137.494405608474
 31
0.0
  0
LINE
  5
47B0
330
37
100
AcDbEntity
  8
10000_FRONT
  6
Continuous
 62
     7
370
    13
100
AcDbLine
 10
795.3320976848828
 20
136.4944054444739
 30
0.0
 11
795.8813763725827
 21
136.4901995917739
 31
0.0
  0
LINE
  5
47B2
330
37
100
AcDbEntity
  8
10000_FRONT
  6
Continuous
 62
     7
370
    13
100
AcDbLine
 10
803.0628666783828
 20
137.1049833183739
 30
0.0
 11
802.1686358878827
 21
135.802097495474
 31
0.0
  0
LINE
  5
47B3
330
37
100
AcDbEntity
  8
10000_FRONT
  6
Continuous
 62
     7
370
    13
100
AcDbLine
 10
802.1686358878827
 20
135.802097495474
 30
0.0
 11
803.0628666783828
 21
135.802097495474
 31
0.0
  0
LINE
  5
47B4
330
37
100
AcDbEntity
  8
10000_FRONT
  6
Continuous
 62
     7
370
    13
100
AcDbLine
 10
803.0628666783828
 20
135.802097495474
 30
0.0
 11
803.0628666783828
 21
137.1049833183739
 31
0.0
  0
LINE
  5
47B5
330
37
100
AcDbEntity
  8
10000_FRONT
  6
Continuous
 62
     7
370
    13
100
AcDbLine
 10
835.3963762091828
 20
197.4939870347739
 30
0.0
 11
790.5997613015828
 21
197.4939870347739
 31
0.0
  0
LINE
  5
47B6
330
37
100
AcDbEntity
  8
10000_FRONT
  6
Continuous
 62
     7
370
    25
100
AcDbLine
 10
790.5997613015828
 20
197.4939870347739
 30
0.0
 11
790.5997613015828
 21
196.735827129174
 31
0.0
  0
LINE
  5
47B7
330
37
100
AcDbEntity
  8
10000_FRONT
  6
Continuous
 62
     7
370
    13
100
AcDbLine
 10
835.3963762091828
 20
196.735827129174
 30
0.0
 11
835.3963762091828
 21
197.4939870347739
 31
0.0
  0
LINE
  5
47B8
330
37
100
AcDbEntity
  8
10000_FRONT
  6
Continuous
 62
     7
370
    13
100
AcDbLine
 10
790.5997613015828
 20
112.293986480474
 30
0.0
 11
835.3963762091828
 21
112.293986480474
 31
0.0
  0
LINE
  5
47B9
330
37
100
AcDbEntity
  8
10000_FRONT
  6
Continuous
 62
     7
370
    25
100
AcDbLine
 10
790.5997613015828
 20
112.293986480474
 30
0.0
 11
790.5997613015828
 21
113.0521426608739
 31
0.0
  0
LINE
  5
47BA
330
37
100
AcDbEntity
  8
10000_FRONT
  6
Continuous
 62
     7
370
    13
100
AcDbLine
 10
835.3963762091828
 20
112.293986480474
 30
0.0
 11
835.3963762091828
 21
113.0521426608739
 31
0.0
  0
LINE
  5
47C9
330
37
100
AcDbEntity
  8
10000_FRONT
  6
Continuous
 62
     7
370
    13
100
AcDbLine
 10
833.08601559366
 20
202.293986331474
 30
0.0
 11
832.7503658401827
 21
197.4939870347739
 31
0.0
  0
LINE
  5
47CB
330
37
100
AcDbEntity
  8
10000_FRONT
  6
Continuous
 62
     7
370
    13
100
AcDbLine
 10
835.3963762091828
 20
197.4939870347739
 30
0.0
 11
835.3963762091826
 21
202.293986331474
 31
0.0
  0
LINE
  5
47D9
330
37
100
AcDbEntity
  8
10000_FRONT
  6
Continuous
 62
     7
370
    13
100
AcDbLine
 10
818.686013854186
 20
202.293986331474
 30
0.0
 11
818.3503660874826
 21
197.4939870347739
 31
0.0
  0
LINE
  5
47DA
330
37
100
AcDbEntity
  8
10000_FRONT
  6
Continuous
 62
     7
370
    13
100
AcDbLine
 10
822.0423895435827
 20
197.4939870347739
 30
0.0
 11
821.7067397901056
 21
202.293986331474
 31
0.0
  0
LINE
  5
47DB
330
37
100
AcDbEntity
  8
10000_FRONT
  6
Continuous
 62
     7
370
    13
100
AcDbLine
 10
807.6423879283828
 20
197.4939870347739
 30
0.0
 11
807.3067391682926
 21
202.293986331474
 31
0.0
  0
LINE
  5
47DC
330
37
100
AcDbEntity
  8
10000_FRONT
  6
Continuous
 62
     7
370
    13
100
AcDbLine
 10
804.2860127666727
 20
202.293986331474
 30
0.0
 11
803.9503640065827
 21
197.4939870347739
 31
0.0
  0
LINE
  5
47DE
330
37
100
AcDbEntity
  8
10000_FRONT
  6
Continuous
 62
     7
370
    13
100
AcDbLine
 10
793.2423881756826
 20
197.4939870347739
 30
0.0
 11
792.9067394155921
 21
202.293986331474
 31
0.0
  0
LINE
  5
47DF
330
37
100
AcDbEntity
  8
10000_FRONT
  6
Continuous
 62
     7
370
    25
100
AcDbLine
 10
790.5997613015828
 20
197.4939870347739
 30
0.0
 11
790.5997613015828
 21
202.293986331474
 31
0.0
  0
LINE
  5
47E0
330
37
100
AcDbEntity
  8
10000_FRONT
  6
Continuous
 62
     7
370
    13
100
AcDbLine
 10
792.9067405937102
 20
107.493987183874
 30
0.0
 11
793.2423895726827
 21
112.293986480474
 31
0.0
  0
LINE
  5
47E3
330
37
100
AcDbEntity
  8
10000_FRONT
  6
Continuous
 62
     7
370
    25
100
AcDbLine
 10
790.5997613015829
 20
107.493987183874
 30
0.0
 11
790.5997613015828
 21
112.293986480474
 31
0.0
  0
LINE
  5
47EA
330
37
100
AcDbEntity
  8
10000_FRONT
  6
Continuous
 62
     7
370
    13
100
AcDbLine
 10
832.7503658401827
 20
112.293986480474
 30
0.0
 11
833.0860153157948
 21
107.493987183874
 31
0.0
  0
LINE
  5
47EB
330
37
100
AcDbEntity
  8
10000_FRONT
  6
Continuous
 62
     7
370
    13
100
AcDbLine
 10
835.3963762091828
 20
107.493987183874
 30
0.0
 11
835.3963762091828
 21
112.293986480474
 31
0.0
  0
LINE
  5
47EC
330
37
100
AcDbEntity
  8
10000_FRONT
  6
Continuous
 62
     7
370
    13
100
AcDbLine
 10
807.3067408120101
 20
107.493987183874
 30
0.0
 11
807.6423897909828
 21
112.293986480474
 31
0.0
  0
LINE
  5
47EE
330
37
100
AcDbEntity
  8
10000_FRONT
  6
Continuous
 62
     7
370
    13
100
AcDbLine
 10
803.9503654035828
 20
112.293986480474
 30
0.0
 11
804.2860138858085
 21
107.493987183874
 31
0.0
  0
LINE
  5
47EF
330
37
100
AcDbEntity
  8
10000_FRONT
  6
Continuous
 62
     7
370
    13
100
AcDbLine
 10
821.7067420548497
 20
107.493987183874
 30
0.0
 11
822.0423895435827
 21
112.293986480474
 31
0.0
  0
LINE
  5
47F1
330
37
100
AcDbEntity
  8
10000_FRONT
  6
Continuous
 62
     7
370
    13
100
AcDbLine
 10
818.3503660874826
 20
112.293986480474
 30
0.0
 11
818.6860155632013
 21
107.493987183874
 31
0.0
  0
LINE
  5
4807
330
37
100
AcDbEntity
  8
10000_FRONT
  6
Continuous
 62
     7
370
    13
100
AcDbLine
 10
818.0797610002827
 20
147.977773442674
 30
0.0
 11
807.9197609367827
 21
147.977773442674
 31
0.0
  0
LINE
  5
480A
330
37
100
AcDbEntity
  8
10000_FRONT
  6
Continuous
 62
     7
370
    13
100
AcDbLine
 10
818.0797610002827
 20
147.418985020174
 30
0.0
 11
807.9197609367827
 21
147.418985020174
 31
0.0
  0
LINE
  5
4828
330
37
100
AcDbEntity
  8
10000_FRONT
  6
Continuous
 62
     7
370
    13
100
AcDbLine
 10
807.9197609367827
 20
149.525295354274
 30
0.0
 11
818.0797610002827
 21
149.525295354274
 31
0.0
  0
LINE
  5
4834
330
37
100
AcDbEntity
  8
10000_FRONT
  6
Continuous
 62
     7
370
    13
100
AcDbLine
 10
807.9197609367827
 20
150.210106855074
 30
0.0
 11
809.7520645278827
 21
150.210106855074
 31
0.0
  0
LINE
  5
4835
330
37
100
AcDbEntity
  8
10000_FRONT
  6
Continuous
 62
     7
370
    13
100
AcDbLine
 10
811.5606845858827
 20
150.210106855074
 30
0.0
 11
814.8320640938827
 21
150.210106855074
 31
0.0
  0
LINE
  5
4837
330
37
100
AcDbEntity
  8
10000_FRONT
  6
Continuous
 62
     7
370
    13
100
AcDbLine
 10
818.0797610002827
 20
150.210106855074
 30
0.0
 11
816.6406850832826
 21
150.210106855074
 31
0.0
  0
LINE
  5
483C
330
37
100
AcDbEntity
  8
10000_FRONT
  6
Continuous
 62
     7
370
    13
100
AcDbLine
 10
807.9197609367827
 20
143.243985127474
 30
0.0
 11
818.0797610002827
 21
143.243985127474
 31
0.0
  0
LINE
  5
483D
330
37
100
AcDbEntity
  8
10000_FRONT
  6
Continuous
 62
     7
370
    13
100
AcDbLine
 10
807.9197609367827
 20
142.843985806974
 30
0.0
 11
807.9197609367827
 21
143.243985127474
 31
0.0
  0
LINE
  5
483E
330
37
100
AcDbEntity
  8
10000_FRONT
  6
Continuous
 62
     7
370
    13
100
AcDbLine
 10
818.0797610002827
 20
142.843985806974
 30
0.0
 11
818.0797610002827
 21
143.243985127474
 31
0.0
  0
LINE
  5
483F
330
37
100
AcDbEntity
  8
10000_FRONT
  6
Continuous
 62
     7
370
    13
100
AcDbLine
 10
818.0797610002827
 20
139.843985315174
 30
0.0
 11
807.9197609367827
 21
139.843985315174
 31
0.0
  0
LINE
  5
4841
330
37
100
AcDbEntity
  8
10000_FRONT
  6
Continuous
 62
     7
370
    13
100
AcDbLine
 10
807.9197609367827
 20
139.843985315174
 30
0.0
 11
807.9197609367827
 21
140.143984805574
 31
0.0
  0
LINE
  5
4842
330
37
100
AcDbEntity
  8
10000_FRONT
  6
Continuous
 62
     7
370
    13
100
AcDbLine
 10
818.0797610002827
 20
139.843985315174
 30
0.0
 11
818.0797610002827
 21
140.143984805574
 31
0.0
  0
LINE
  5
4843
330
37
100
AcDbEntity
  8
10000_FRONT
  6
Continuous
 62
     7
370
    13
100
AcDbLine
 10
807.9197609367827
 20
147.1439854873739
 30
0.0
 11
807.9197609367827
 21
143.243985127474
 31
0.0
  0
LINE
  5
4844
330
37
100
AcDbEntity
  8
10000_FRONT
  6
Continuous
 62
     7
370
    13
100
AcDbLine
 10
818.0797610002827
 20
143.243985127474
 30
0.0
 11
818.0797610002827
 21
147.1439854873739
 31
0.0
  0
LINE
  5
4845
330
37
100
AcDbEntity
  8
10000_FRONT
  6
Continuous
 62
     7
370
    13
100
AcDbLine
 10
814.3613745959829
 20
142.743987839474
 30
0.0
 11
814.3613755273829
 21
141.5689847131739
 31
0.0
  0
ARC
  5
4846
330
37
100
AcDbEntity
  8
10000_FRONT
  6
Continuous
 62
     7
370
    13
100
AcDbCircle
 10
815.5363742309827
 20
141.568984926374
 30
0.0
 40
1.174998451187009
100
AcDbArc
 50
180.0000219616997
 51
359.9999778361998
  0
LINE
  5
4847
330
37
100
AcDbEntity
  8
10000_FRONT
  6
Continuous
 62
     7
370
    13
100
AcDbLine
 10
816.7113724666828
 20
141.5689847131739
 30
0.0
 11
816.7113743292826
 21
142.743986908174
 31
0.0
  0
LINE
  5
4848
330
37
100
AcDbEntity
  8
10000_FRONT
  6
Continuous
 62
     7
370
    13
100
AcDbLine
 10
814.3613745959829
 20
142.743987839474
 30
0.0
 11
816.7113743292826
 21
142.743986908174
 31
0.0
  0
ARC
  5
4849
330
37
100
AcDbEntity
  8
10000_FRONT
  6
Continuous
 62
     7
370
    13
100
AcDbCircle
 10
810.4563743517825
 20
141.568984946174
 30
0.0
 40
1.174998571922418
100
AcDbArc
 50
180.0000224452995
 51
359.9999837235996
  0
LINE
  5
484A
330
37
100
AcDbEntity
  8
10000_FRONT
  6
Continuous
 62
     7
370
    13
100
AcDbLine
 10
809.2813750299827
 20
142.743987839474
 30
0.0
 11
811.6313738318828
 21
142.743986908174
 31
0.0
  0
LINE
  5
484B
330
37
100
AcDbEntity
  8
10000_FRONT
  6
Continuous
 62
     7
370
    13
100
AcDbLine
 10
809.2813750299827
 20
142.743987839474
 30
0.0
 11
809.2813759612829
 21
141.5689847131739
 31
0.0
  0
LINE
  5
484C
330
37
100
AcDbEntity
  8
10000_FRONT
  6
Continuous
 62
     7
370
    13
100
AcDbLine
 10
811.6313729005828
 20
141.5689847131739
 30
0.0
 11
811.6313738318828
 21
142.743986908174
 31
0.0
  0
LINE
  5
484D
330
37
100
AcDbEntity
  8
10000_FRONT
  6
Continuous
 62
     7
370
    13
100
AcDbLine
 10
807.9197609367827
 20
142.843985806974
 30
0.0
 11
807.9197609367827
 21
140.143984805574
 31
0.0
  0
LINE
  5
484E
330
37
100
AcDbEntity
  8
10000_FRONT
  6
Continuous
 62
     7
370
    13
100
AcDbLine
 10
818.0797610002827
 20
140.143984805574
 30
0.0
 11
818.0797610002827
 21
142.843985806974
 31
0.0
  0
LINE
  5
4850
330
37
100
AcDbEntity
  8
10000_FRONT
  6
Continuous
 62
     7
370
    13
100
AcDbLine
 10
807.9197609367827
 20
154.843986144074
 30
0.0
 11
818.0797610002827
 21
154.843986144074
 31
0.0
  0
LINE
  5
4851
330
37
100
AcDbEntity
  8
10000_FRONT
  6
Continuous
 62
     7
370
    13
100
AcDbLine
 10
807.9197609367827
 20
154.5439860716739
 30
0.0
 11
807.9197609367827
 21
154.843986144074
 31
0.0
  0
LINE
  5
4852
330
37
100
AcDbEntity
  8
10000_FRONT
  6
Continuous
 62
     7
370
    13
100
AcDbLine
 10
818.0797610002827
 20
154.5439860716739
 30
0.0
 11
818.0797610002827
 21
154.843986144074
 31
0.0
  0
ARC
  5
4853
330
37
100
AcDbEntity
  8
10000_FRONT
  6
Continuous
 62
     7
370
    13
100
AcDbCircle
 10
815.7363742349827
 20
151.993985449274
 30
0.0
 40
1.999999999999985
100
AcDbArc
 50
0.0
 51
180.0
  0
ARC
  5
4854
330
37
100
AcDbEntity
  8
10000_FRONT
  6
Continuous
 62
     7
370
    13
100
AcDbCircle
 10
810.6563742349827
 20
151.993985449274
 30
0.0
 40
2.000000000000014
100
AcDbArc
 50
0.0
 51
180.0
  0
ARC
  5
4855
330
37
100
AcDbEntity
  8
10000_FRONT
  6
Continuous
 62
     7
370
    13
100
AcDbCircle
 10
815.7363742349827
 20
151.993985449274
 30
0.0
 40
1.999999999999956
100
AcDbArc
 50
296.8820342522978
 51
0.0
  0
ARC
  5
4856
330
37
100
AcDbEntity
  8
10000_FRONT
  6
Continuous
 62
     7
370
    13
100
AcDbCircle
 10
815.7363742349827
 20
151.993985449274
 30
0.0
 40
1.999999999999985
100
AcDbArc
 50
180.0
 51
243.1179657477022
  0
ARC
  5
4857
330
37
100
AcDbEntity
  8
10000_FRONT
  6
Continuous
 62
     7
370
    13
100
AcDbCircle
 10
810.6563742349827
 20
151.993985449274
 30
0.0
 40
2.000000000000014
100
AcDbArc
 50
296.8820342522978
 51
0.0
  0
ARC
  5
4858
330
37
100
AcDbEntity
  8
10000_FRONT
  6
Continuous
 62
     7
370
    13
100
AcDbCircle
 10
810.6563742349827
 20
151.993985449274
 30
0.0
 40
2.000000000000005
100
AcDbArc
 50
180.0
 51
243.1179657477022
  0
LINE
  5
4859
330
37
100
AcDbEntity
  8
10000_FRONT
  6
Continuous
 62
     7
370
    13
100
AcDbLine
 10
807.9197609367827
 20
154.5439860716739
 30
0.0
 11
807.9197609367827
 21
150.210106855074
 31
0.0
  0
LINE
  5
485A
330
37
100
AcDbEntity
  8
10000_FRONT
  6
Continuous
 62
     7
370
    13
100
AcDbLine
 10
818.0797610002827
 20
150.210106855074
 30
0.0
 11
818.0797610002827
 21
154.5439860716739
 31
0.0
  0
LINE
  5
485B
330
37
100
AcDbEntity
  8
10000_FRONT
  6
Continuous
 62
     7
370
    13
100
AcDbLine
 10
818.0797610002827
 20
154.8439868425739
 30
0.0
 11
807.9197609367827
 21
154.843987541074
 31
0.0
  0
LINE
  5
485C
330
37
100
AcDbEntity
  8
10000_FRONT
  6
Continuous
 62
     7
370
    13
100
AcDbLine
 10
807.9197609367827
 20
154.843987541074
 30
0.0
 11
807.9197609367827
 21
154.843986144074
 31
0.0
  0
LINE
  5
485D
330
37
100
AcDbEntity
  8
10000_FRONT
  6
Continuous
 62
     7
370
    13
100
AcDbLine
 10
818.0797610002827
 20
154.843986144074
 30
0.0
 11
818.0797610002827
 21
154.8439868425739
 31
0.0
  0
LINE
  5
486C
330
37
100
AcDbEntity
  8
11000_LEFT
  6
Continuous
 62
     7
370
    13
100
AcDbLine
 10
1036.628044938083
 20
136.490195866474
 30
0.0
 11
1036.645380576483
 21
136.490195866474
 31
0.0
  0
LINE
  5
486D
330
37
100
AcDbEntity
  8
11000_LEFT
  6
Continuous
 62
     7
370
    25
100
AcDbLine
 10
1004.839759232883
 20
115.193987142074
 30
0.0
 11
1004.839759232883
 21
112.793983768474
 31
0.0
  0
LINE
  5
486E
330
37
100
AcDbEntity
  8
11000_LEFT
  6
Continuous
 62
     7
370
    25
100
AcDbLine
 10
974.2369444867827
 20
123.393986250974
 30
0.0
 11
1004.839759232883
 21
115.193987142074
 31
0.0
  0
LINE
  5
486F
330
37
100
AcDbEntity
  8
11000_LEFT
  6
Continuous
 62
     7
370
    25
100
AcDbLine
 10
959.3397581776828
 20
123.393986250974
 30
0.0
 11
974.2369444867827
 21
123.393986250974
 31
0.0
  0
LINE
  5
4870
330
37
100
AcDbEntity
  8
11000_LEFT
  6
Continuous
 62
     7
370
    25
100
AcDbLine
 10
959.3397581776828
 20
107.693986844074
 30
0.0
 11
959.3397581776828
 21
123.393986250974
 31
0.0
  0
ARC
  5
4871
330
37
100
AcDbEntity
  8
11000_LEFT
  6
Continuous
 62
     7
370
    25
100
AcDbCircle
 10
959.1397592803827
 20
107.693985449374
 30
0.0
 40
0.1999999999992497
100
AcDbArc
 50
269.9999999999023
 51
0.0000000002002986
  0
LINE
  5
4872
330
37
100
AcDbEntity
  8
11000_LEFT
  6
Continuous
 62
     7
370
    25
100
AcDbLine
 10
955.1753790875824
 20
138.391776818574
 30
0.0
 11
952.6397602459828
 21
136.042533319274
 31
0.0
  0
LINE
  5
4873
330
37
100
AcDbEntity
  8
11000_LEFT
  6
Continuous
 62
     7
370
    25
100
AcDbLine
 10
955.6723551651828
 20
138.392316985674
 30
0.0
 11
955.1753790875824
 21
138.391776818574
 31
0.0
  0
LINE
  5
4874
330
37
100
AcDbEntity
  8
11000_LEFT
  6
Continuous
 62
     7
370
    25
100
AcDbLine
 10
955.9397602280826
 20
137.393985751774
 30
0.0
 11
955.6723551651828
 21
138.392316985674
 31
0.0
  0
LINE
  5
4875
330
37
100
AcDbEntity
  8
11000_LEFT
  6
Continuous
 62
     7
370
    25
100
AcDbLine
 10
956.9397585293828
 20
137.393985751774
 30
0.0
 11
955.9397602280826
 21
137.393985751774
 31
0.0
  0
LINE
  5
4876
330
37
100
AcDbEntity
  8
11000_LEFT
  6
Continuous
 62
     7
370
    25
100
AcDbLine
 10
956.9397585293828
 20
175.893984611874
 30
0.0
 11
956.9397585293828
 21
137.393985751774
 31
0.0
  0
LINE
  5
4877
330
37
100
AcDbEntity
  8
11000_LEFT
  6
Continuous
 62
     7
370
    25
100
AcDbLine
 10
956.0397581955827
 20
175.893984611874
 30
0.0
 11
956.9397585293828
 21
175.893984611874
 31
0.0
  0
LINE
  5
4879
330
37
100
AcDbEntity
  8
11000_LEFT
  6
Continuous
 62
     7
370
    25
100
AcDbLine
 10
955.5397609075827
 20
172.8939859827739
 30
0.0
 11
955.5397609075827
 21
175.393985461274
 31
0.0
  0
LINE
  5
487A
330
37
100
AcDbEntity
  8
11000_LEFT
  6
Continuous
 62
     7
370
    25
100
AcDbLine
 10
955.9397602280826
 20
172.748397912674
 30
0.0
 11
955.5397609075827
 21
172.8939859827739
 31
0.0
  0
LINE
  5
487B
330
37
100
AcDbEntity
  8
11000_LEFT
  6
Continuous
 62
     7
370
    25
100
AcDbLine
 10
955.9397602280826
 20
171.748397748774
 30
0.0
 11
955.9397602280826
 21
172.748397912674
 31
0.0
  0
LINE
  5
487C
330
37
100
AcDbEntity
  8
11000_LEFT
  6
Continuous
 62
     7
370
    25
100
AcDbLine
 10
955.4464647373826
 20
170.893985654974
 30
0.0
 11
955.9397602280826
 21
171.748397748774
 31
0.0
  0
LINE
  5
487D
330
37
100
AcDbEntity
  8
11000_LEFT
  6
Continuous
 62
     7
370
    25
100
AcDbLine
 10
954.1604498227828
 20
170.893985654974
 30
0.0
 11
955.4464647373826
 21
170.893985654974
 31
0.0
  0
LINE
  5
487E
330
37
100
AcDbEntity
  8
11000_LEFT
  6
Continuous
 62
     7
370
    25
100
AcDbLine
 10
952.6397602459828
 20
175.893984611874
 30
0.0
 11
954.1604498227828
 21
170.893985654974
 31
0.0
  0
LINE
  5
487F
330
37
100
AcDbEntity
  8
11000_LEFT
  6
Continuous
 62
     7
370
    25
100
AcDbLine
 10
952.6397602459828
 20
185.643983881774
 30
0.0
 11
952.6397602459828
 21
175.893984611874
 31
0.0
  0
LINE
  5
4880
330
37
100
AcDbEntity
  8
11000_LEFT
  6
Continuous
 62
     7
370
    25
100
AcDbLine
 10
955.5756019254827
 20
202.293986331474
 30
0.0
 11
952.6397602459828
 21
185.643983881774
 31
0.0
  0
LINE
  5
4881
330
37
100
AcDbEntity
  8
11000_LEFT
  6
Continuous
 62
     7
370
    25
100
AcDbLine
 10
959.1397585173828
 20
202.293986331474
 30
0.0
 11
955.5756019254827
 21
202.293986331474
 31
0.0
  0
ARC
  5
4882
330
37
100
AcDbEntity
  8
11000_LEFT
  6
Continuous
 62
     7
370
    25
100
AcDbCircle
 10
959.1397592803827
 20
202.093985449474
 30
0.0
 40
0.2000000000002444
100
AcDbArc
 50
0.0
 51
89.99999999990228
  0
LINE
  5
4883
330
37
100
AcDbEntity
  8
11000_LEFT
  6
Continuous
 62
     7
370
    25
100
AcDbLine
 10
959.3397581776828
 20
186.393985401674
 30
0.0
 11
959.3397581776828
 21
202.093986671274
 31
0.0
  0
LINE
  5
4884
330
37
100
AcDbEntity
  8
11000_LEFT
  6
Continuous
 62
     7
370
    25
100
AcDbLine
 10
973.7369434734828
 20
186.393985401674
 30
0.0
 11
959.3397581776828
 21
186.393985401674
 31
0.0
  0
LINE
  5
4885
330
37
100
AcDbEntity
  8
11000_LEFT
  6
Continuous
 62
     7
370
    25
100
AcDbLine
 10
1004.339759267282
 20
194.5939863731739
 30
0.0
 11
973.7369434734828
 21
186.393985401674
 31
0.0
  0
LINE
  5
4886
330
37
100
AcDbEntity
  8
11000_LEFT
  6
Continuous
 62
     7
370
    25
100
AcDbLine
 10
1004.339759267282
 20
197.193985681774
 30
0.0
 11
1004.339759267282
 21
194.5939863731739
 31
0.0
  0
LINE
  5
4887
330
37
100
AcDbEntity
  8
11000_LEFT
  6
Continuous
 62
     7
370
    25
100
AcDbLine
 10
1011.589759291583
 20
197.193985681774
 30
0.0
 11
1004.339759267282
 21
197.193985681774
 31
0.0
  0
LINE
  5
4888
330
37
100
AcDbEntity
  8
11000_LEFT
  6
Continuous
 62
     7
370
    13
100
AcDbLine
 10
1011.589759291583
 20
112.5939841082739
 30
0.0
 11
1011.589759291583
 21
196.502983410842
 31
0.0
  0
LINE
  5
4889
330
37
100
AcDbEntity
  8
11000_LEFT
  6
Continuous
 62
     7
370
    25
100
AcDbLine
 10
1005.039759300583
 20
112.5939841082739
 30
0.0
 11
1011.589759291583
 21
112.5939841082739
 31
0.0
  0
ARC
  5
488A
330
37
100
AcDbEntity
  8
11000_LEFT
  6
Continuous
 62
     7
370
    13
100
AcDbCircle
 10
1005.039759280383
 20
112.7939854492739
 30
0.0
 40
0.1999999999999886
100
AcDbArc
 50
180.0
 51
270.0
  0
LINE
  5
488B
330
37
100
AcDbEntity
  8
11000_LEFT
  6
Continuous
 62
     7
370
    25
100
AcDbLine
 10
952.6397602459828
 20
107.493987183874
 30
0.0
 11
959.1397585173828
 21
107.493987183874
 31
0.0
  0
LINE
  5
488C
330
37
100
AcDbEntity
  8
11000_LEFT
  6
Continuous
 62
     7
370
    25
100
AcDbLine
 10
952.6397602459828
 20
136.042533319274
 30
0.0
 11
952.6397602459828
 21
107.493987183874
 31
0.0
  0
LINE
  5
488E
330
37
100
AcDbEntity
  8
11000_LEFT
  6
Continuous
 62
     7
370
    13
100
AcDbLine
 10
1035.744748484851
 20
196.7367549795081
 30
0.0
 11
1035.744797234783
 21
196.735827129174
 31
0.0
  0
LINE
  5
488F
330
37
100
AcDbEntity
  8
11000_LEFT
  6
Continuous
 62
     7
370
    25
100
AcDbLine
 10
1035.744797234783
 20
113.0521426608739
 30
0.0
 11
1035.730680247183
 21
112.783456098074
 31
0.0
  0
ARC
  5
4891
330
37
100
AcDbEntity
  8
11000_LEFT
  6
Continuous
 62
     7
370
    25
100
AcDbCircle
 10
1035.527257333183
 20
112.793951219674
 30
0.0
 40
0.2000000000680889
100
AcDbArc
 50
283.7927701801005
 51
313.9991526829998
  0
LINE
  5
4892
330
37
100
AcDbEntity
  8
11000_LEFT
  6
Continuous
 62
     7
370
    13
100
AcDbLine
 10
1031.339758803483
 20
107.793984811574
 30
0.0
 11
1031.339758803483
 21
108.320480089474
 31
0.0
  0
LINE
  5
4894
330
37
100
AcDbEntity
  8
11000_LEFT
  6
Continuous
 62
     7
370
    13
100
AcDbLine
 10
1011.589759291583
 20
107.593985151274
 30
0.0
 11
1031.139759143283
 21
107.593985151274
 31
0.0
  0
LINE
  5
4895
330
37
100
AcDbEntity
  8
11000_LEFT
  6
Continuous
 62
     7
370
    25
100
AcDbLine
 10
1011.589759291583
 20
108.320480089474
 30
0.0
 11
1011.589759291583
 21
107.593985151274
 31
0.0
  0
ARC
  5
4897
330
37
100
AcDbEntity
  8
11000_LEFT
  6
Continuous
 62
     7
370
    25
100
AcDbCircle
 10
1034.945892575583
 20
196.693985408274
 30
0.0
 40
0.7999999999975103
100
AcDbArc
 50
2.998069123800192
 51
90.00000015810236
  0
ARC
  5
4898
330
37
100
AcDbEntity
  8
11000_LEFT
  6
Continuous
 62
     7
370
    25
100
AcDbCircle
 10
236.8397592804829
 20
154.893985449374
 30
0.0
 40
799.9999999998524
100
AcDbArc
 50
357.0019308713002
 51
358.9105749104701
  0
ARC
  5
4899
330
37
100
AcDbEntity
  8
11000_LEFT
  6
Continuous
 62
     7
370
    25
100
AcDbCircle
 10
1034.945892571982
 20
113.0939854216739
 30
0.0
 40
0.8000000000018161
100
AcDbArc
 50
269.9999998406991
 51
357.0019308713002
  0
LINE
  5
489A
330
37
100
AcDbEntity
  8
11000_LEFT
  6
Continuous
 62
     7
370
    25
100
AcDbLine
 10
1031.339758803483
 20
112.293986480474
 30
0.0
 11
1034.945891966483
 21
112.293986480474
 31
0.0
  0
LINE
  5
489B
330
37
100
AcDbEntity
  8
11000_LEFT
  6
Continuous
 62
     7
370
    25
100
AcDbLine
 10
1031.339758803483
 20
108.320480089474
 30
0.0
 11
1031.339758803483
 21
112.293986480474
 31
0.0
  0
LINE
  5
489D
330
37
100
AcDbEntity
  8
11000_LEFT
  6
Continuous
 62
     7
370
    25
100
AcDbLine
 10
1031.339758803483
 20
197.4939870347739
 30
0.0
 11
1031.339758803483
 21
201.467489700574
 31
0.0
  0
LINE
  5
489E
330
37
100
AcDbEntity
  8
11000_LEFT
  6
Continuous
 62
     7
370
    25
100
AcDbLine
 10
1034.945891966483
 20
197.4939870347739
 30
0.0
 11
1031.339758803483
 21
197.4939870347739
 31
0.0
  0
LINE
  5
489F
330
37
100
AcDbEntity
  8
11000_LEFT
  6
Continuous
 62
     7
370
    25
100
AcDbLine
 10
1011.589759291583
 20
201.467489700574
 30
0.0
 11
1011.589759291583
 21
197.193985681774
 31
0.0
  0
LINE
  5
48A0
330
37
100
AcDbEntity
  8
11000_LEFT
  6
Continuous
 62
     7
370
    13
100
AcDbLine
 10
1031.139759143283
 20
202.1939846386739
 30
0.0
 11
1011.589759291583
 21
202.1939846386739
 31
0.0
  0
LINE
  5
48A2
330
37
100
AcDbEntity
  8
11000_LEFT
  6
Continuous
 62
     7
370
    25
100
AcDbLine
 10
1031.339758803483
 20
201.467489700574
 30
0.0
 11
1031.339758803483
 21
201.993984978474
 31
0.0
  0
LINE
  5
48A3
330
37
100
AcDbEntity
  8
11000_LEFT
  6
Continuous
 62
     7
370
    25
100
AcDbLine
 10
1011.589759291583
 20
202.1939846386739
 30
0.0
 11
1011.589759291583
 21
201.467489700574
 31
0.0
  0
LINE
  5
48A4
330
37
100
AcDbEntity
  8
11000_LEFT
  6
Continuous
 62
     7
370
    25
100
AcDbLine
 10
1031.139759143283
 20
202.1939846386739
 30
0.0
 11
1011.589759291583
 21
202.1939846386739
 31
0.0
  0
LINE
  5
48A5
330
37
100
AcDbEntity
  8
11000_LEFT
  6
Continuous
 62
     7
370
    13
100
AcDbLine
 10
1011.589759291583
 20
107.593985151274
 30
0.0
 11
1031.139759143283
 21
107.593985151274
 31
0.0
  0
LINE
  5
48A6
330
37
100
AcDbEntity
  8
11000_LEFT
  6
Continuous
 62
     7
370
    25
100
AcDbLine
 10
1031.139759143283
 20
107.593985151274
 30
0.0
 11
1011.589759291583
 21
107.593985151274
 31
0.0
  0
LINE
  5
48A7
330
37
100
AcDbEntity
  8
11000_LEFT
  6
Continuous
 62
     7
370
    25
100
AcDbLine
 10
1050.819763710183
 20
154.5439860716739
 30
0.0
 11
1050.819763710183
 21
150.210106855074
 31
0.0
  0
LINE
  5
48A9
330
37
100
AcDbEntity
  8
11000_LEFT
  6
Continuous
 62
     7
370
    25
100
AcDbLine
 10
1050.992974807883
 20
149.938214447174
 30
0.0
 11
1052.146548201683
 21
149.525295354274
 31
0.0
  0
LINE
  5
48AB
330
37
100
AcDbEntity
  8
0
  6
Continuous
 62
     7
370
    25
100
AcDbLine
 10
1052.269959618683
 20
149.418986512174
 30
0.0
 11
1052.689762582482
 21
149.418986279374
 31
0.0
  0
ARC
  5
48AC
330
37
100
AcDbEntity
  8
0
  6
Continuous
 62
     7
370
    25
100
AcDbCircle
 10
1052.689762623782
 20
149.218986298874
 30
0.0
 40
0.2000000000003918
100
AcDbArc
 50
0.0000000001001493
 51
89.99998690510208
  0
LINE
  5
48AD
330
37
100
AcDbEntity
  8
0
  6
Continuous
 62
     7
370
    25
100
AcDbLine
 10
1052.889762242682
 20
149.218986386274
 30
0.0
 11
1052.889762242682
 21
149.104270960974
 31
0.0
  0
ARC
  5
48AE
330
37
100
AcDbEntity
  8
0
  6
Continuous
 62
     7
370
    25
100
AcDbCircle
 10
1052.639762440483
 20
149.104271475274
 30
0.0
 40
0.2500001833184554
100
AcDbArc
 50
282.5000687016963
 51
359.9998791881997
  0
LINE
  5
48AF
330
37
100
AcDbEntity
  8
0
  6
Continuous
 62
     7
370
    25
100
AcDbLine
 10
1052.693871577683
 20
148.8601973911739
 30
0.0
 11
1052.319763024682
 21
148.777259157774
 31
0.0
  0
LINE
  5
48B0
330
37
100
AcDbEntity
  8
11000_LEFT
  6
Continuous
 62
     7
370
    25
100
AcDbLine
 10
1052.319763024682
 20
148.777259157774
 30
0.0
 11
1052.319763024682
 21
148.060711908874
 31
0.0
  0
LINE
  5
48B1
330
37
100
AcDbEntity
  8
0
  6
Continuous
 62
     7
370
    25
100
AcDbLine
 10
1052.319763024682
 20
148.060711908874
 30
0.0
 11
1052.693871577683
 21
147.977773442674
 31
0.0
  0
ARC
  5
48B2
330
37
100
AcDbEntity
  8
0
  6
Continuous
 62
     7
370
    25
100
AcDbCircle
 10
1052.639762464083
 20
147.733699423874
 30
0.0
 40
0.2500001833180732
100
AcDbArc
 50
0.0001208117002168
 51
77.49993129830355
  0
LINE
  5
48B3
330
37
100
AcDbEntity
  8
0
  6
Continuous
 62
     7
370
    25
100
AcDbLine
 10
1052.889762242682
 20
147.733699872874
 30
0.0
 11
1052.889762242682
 21
147.618985146074
 31
0.0
  0
ARC
  5
48B4
330
37
100
AcDbEntity
  8
0
  6
Continuous
 62
     7
370
    25
100
AcDbCircle
 10
1052.689762186183
 20
147.618985331374
 30
0.0
 40
0.2000004611910737
100
AcDbArc
 50
270.0000903040982
 51
359.999895277
  0
LINE
  5
48B5
330
37
100
AcDbEntity
  8
0
  6
Continuous
 62
     7
370
    25
100
AcDbLine
 10
1052.689762582482
 20
147.418985020174
 30
0.0
 11
1052.218159457082
 21
147.4189845544739
 31
0.0
  0
LINE
  5
48B7
330
37
100
AcDbEntity
  8
11000_LEFT
  6
Continuous
 62
     7
370
    25
100
AcDbLine
 10
1052.019761671683
 20
147.343985613274
 30
0.0
 11
1051.019763370483
 21
147.343985613274
 31
0.0
  0
LINE
  5
48B9
330
37
100
AcDbEntity
  8
11000_LEFT
  6
Continuous
 62
     7
370
    25
100
AcDbLine
 10
1050.819763710183
 20
147.1439854873739
 30
0.0
 11
1050.819763710183
 21
143.243985127474
 31
0.0
  0
LINE
  5
48BB
330
37
100
AcDbEntity
  8
11000_LEFT
  6
Continuous
 62
     7
370
    25
100
AcDbLine
 10
1050.819763710183
 20
142.843985806974
 30
0.0
 11
1050.819763710183
 21
140.143984805574
 31
0.0
  0
ARC
  5
48BC
330
37
100
AcDbEntity
  8
11000_LEFT
  6
Continuous
 62
     7
370
    25
100
AcDbCircle
 10
1050.519762086383
 20
140.143985261074
 30
0.0
 40
0.3000001944274706
100
AcDbArc
 50
270.0000762176994
 51
359.9999641175003
  0
LINE
  5
48BD
330
37
100
AcDbEntity
  8
11000_LEFT
  6
Continuous
 62
     7
370
    25
100
AcDbLine
 10
1050.519762357183
 20
139.843985315174
 30
0.0
 11
1042.669763584983
 21
139.843985315174
 31
0.0
  0
LINE
  5
48BE
330
37
100
AcDbEntity
  8
11000_LEFT
  6
Continuous
 62
     7
370
    25
100
AcDbLine
 10
1042.669763584983
 20
140.137319329974
 30
0.0
 11
1042.669763584983
 21
139.843985315174
 31
0.0
  0
LINE
  5
48BF
330
37
100
AcDbEntity
  8
11000_LEFT
  6
Continuous
 62
     7
370
    25
100
AcDbLine
 10
1041.526427288883
 20
140.137319329974
 30
0.0
 11
1042.669763584983
 21
140.137319329974
 31
0.0
  0
LINE
  5
48C1
330
37
100
AcDbEntity
  8
11000_LEFT
  6
Continuous
 62
     7
370
    25
100
AcDbLine
 10
1039.678020199183
 20
141.343985561074
 30
0.0
 11
1040.319761057783
 21
141.343985561074
 31
0.0
  0
LINE
  5
48C6
330
37
100
AcDbEntity
  8
11000_LEFT
  6
Continuous
 62
     7
370
    25
100
AcDbLine
 10
1036.839756911082
 20
154.843987541074
 30
0.0
 11
1050.519762357183
 21
154.843986144074
 31
0.0
  0
ARC
  5
48C7
330
37
100
AcDbEntity
  8
11000_LEFT
  6
Continuous
 62
     7
370
    25
100
AcDbCircle
 10
1050.519762280383
 20
154.543986043174
 30
0.0
 40
0.3000000000002107
100
AcDbArc
 50
0.0
 51
89.99999700200204
  0
ARC
  5
48ED
330
37
100
AcDbEntity
  8
10000_FRONT
370
    13
100
AcDbCircle
 10
796.646377191783
 20
193.6390180391457
 30
0.0
 40
1.920015787594598
100
AcDbArc
 50
20.36539667820511
 51
159.6346033217996
  0
ARC
  5
48EE
330
37
100
AcDbEntity
  8
10000_FRONT
370
    13
100
AcDbCircle
 10
800.5463774351831
 20
193.6390180391459
 30
0.0
 40
1.920015787594598
100
AcDbArc
 50
20.3653966782051
 51
159.6346033217996
  0
ARC
  5
48EF
330
37
100
AcDbEntity
  8
10000_FRONT
370
    13
100
AcDbCircle
 10
811.0463769443828
 20
193.6390180391459
 30
0.0
 40
1.920015787594598
100
AcDbArc
 50
20.36539667820512
 51
159.6346033217996
  0
ARC
  5
48F0
330
37
100
AcDbEntity
  8
10000_FRONT
370
    13
100
AcDbCircle
 10
814.946377769983
 20
193.6390180391459
 30
0.0
 40
1.920015787594598
100
AcDbArc
 50
20.36539667820512
 51
159.6346033217996
  0
ARC
  5
48F1
330
37
100
AcDbEntity
  8
10000_FRONT
370
    13
100
AcDbCircle
 10
825.4463766970832
 20
193.6390180391459
 30
0.0
 40
1.920015787594598
100
AcDbArc
 50
20.36539667820512
 51
159.6346033217996
  0
ARC
  5
48F2
330
37
100
AcDbEntity
  8
10000_FRONT
370
    13
100
AcDbCircle
 10
829.3463775225831
 20
193.6390180391459
 30
0.0
 40
1.920015787594598
100
AcDbArc
 50
20.36539667820505
 51
159.6346033217996
  0
ARC
  5
48F5
330
37
100
AcDbEntity
  8
10000_FRONT
370
    13
100
AcDbCircle
 10
796.6463771917826
 20
192.7640225328347
 30
0.0
 40
1.920092886497121
100
AcDbArc
 50
200.3715934631214
 51
339.6284065368762
  0
ARC
  5
48F6
330
37
100
AcDbEntity
  8
10000_FRONT
370
    13
100
AcDbCircle
 10
800.5463774351827
 20
192.7640225328345
 30
0.0
 40
1.920092886497121
100
AcDbArc
 50
200.3715934631214
 51
339.6284065368762
  0
ARC
  5
48F7
330
37
100
AcDbEntity
  8
10000_FRONT
370
    13
100
AcDbCircle
 10
811.0463769443828
 20
192.7640225328345
 30
0.0
 40
1.920092886497121
100
AcDbArc
 50
200.3715934631214
 51
339.6284065368762
  0
ARC
  5
48F8
330
37
100
AcDbEntity
  8
10000_FRONT
370
    13
100
AcDbCircle
 10
814.9463777699827
 20
192.7640225328345
 30
0.0
 40
1.920092886497121
100
AcDbArc
 50
200.3715934631214
 51
339.6284065368762
  0
ARC
  5
48F9
330
37
100
AcDbEntity
  8
10000_FRONT
370
    13
100
AcDbCircle
 10
825.4463766970831
 20
192.7640225328345
 30
0.0
 40
1.920092886497121
100
AcDbArc
 50
200.3715934631214
 51
339.6284065368762
  0
ARC
  5
48FA
330
37
100
AcDbEntity
  8
10000_FRONT
370
    13
100
AcDbCircle
 10
829.3463775225829
 20
192.7640225328345
 30
0.0
 40
1.920092886497121
100
AcDbArc
 50
200.3715934631214
 51
339.6284065368762
  0
CIRCLE
  5
48FB
330
37
100
AcDbEntity
  8
10000_FRONT
370
    13
100
AcDbCircle
 10
813.0408190271809
 20
178.7152104958911
 30
0.0
 40
4.956070102565284
  0
LINE
  5
48FC
330
37
100
AcDbEntity
  8
10000_FRONT
370
    13
100
AcDbLine
 10
800.5307609018828
 20
160.244114108174
 30
0.0
 11
800.5083250499827
 21
157.488705467274
 31
0.0
  0
LINE
  5
48FD
330
37
100
AcDbEntity
  8
10000_FRONT
370
    13
100
AcDbLine
 10
802.5948635803827
 20
160.244114108174
 30
0.0
 11
802.6172993740827
 21
157.488705467274
 31
0.0
  0
LWPOLYLINE
  5
48FE
330
37
100
AcDbEntity
  8
10000_FRONT
370
    13
100
AcDbPolyline
 90
       65
 70
     0
 43
0.0
 10
793.912171181031
 20
159.9566539713911
 10
793.8578380468061
 20
160.1633604862884
 10
793.7481485356012
 20
160.3121436939912
 10
793.6267064691701
 20
160.3943652098212
 10
793.4190800019853
 20
160.4413506337362
 10
793.2819688661552
 20
160.4530955017044
 10
793.0155796228421
 20
160.4296042777575
 10
792.8392943071602
 20
160.3552126739062
 10
792.7374378243039
 20
160.2573283580973
 10
792.7021831713298
 20
160.1202915063734
 10
792.725685269078
 20
159.9793382106495
 10
792.8471273355087
 20
159.8736239828618
 10
793.0821784400218
 20
159.7679082670636
 10
793.4308325572112
 20
159.677855351244
 10
793.9126812960571
 20
159.5486484114988
 10
794.2379447855167
 20
159.4068276055727
 10
794.4651598489786
 20
159.2306367299231
 10
794.5709328460097
 20
159.0857684782099
 10
794.6845388713885
 20
158.8508473106769
 10
794.7237130512399
 20
158.6198410991334
 10
794.7119424197949
 20
158.3763177421008
 10
794.6453466153184
 20
158.1257352625998
 10
794.5160685078363
 20
157.890814095067
 10
794.312358554826
 20
157.6911305074597
 10
794.0185476868872
 20
157.5384323437677
 10
793.6307193898468
 20
157.4522943839376
 10
793.2781457457801
 20
157.4444629839483
 10
792.8276351457342
 20
157.4953633638527
 10
792.4319708076422
 20
157.6598078835236
 10
792.2047557441806
 20
157.8594914711307
 10
792.0441394978987
 20
158.0904961946635
 10
791.9579550971453
 20
158.3449951181644
 10
791.9109448762424
 20
158.5094396378354
 10
791.8929404118003
 20
158.6553719201091
 10
792.5660173348773
 20
158.7002437149808
 10
792.6317612337758
 20
158.4585407459415
 10
792.7571198143805
 20
158.2510257583449
 10
792.9294886158881
 20
158.113988906621
 10
793.144951124124
 20
158.0395973027695
 10
793.3839187428116
 20
158.0356823467802
 10
793.5719566137186
 20
158.0474272147485
 10
793.795252150303
 20
158.1179038626103
 10
793.9519518824107
 20
158.2510257583449
 10
794.0381362831645
 20
158.4076403660369
 10
794.0342197689906
 20
158.6151538656229
 10
793.9401993271854
 20
158.7639385613363
 10
793.681646124924
 20
158.8892290570813
 10
793.2428880801032
 20
159.0027746848584
 10
792.7480997809671
 20
159.1450061817206
 10
792.3837765943781
 20
159.3368583693384
 10
792.1604780450901
 20
159.5756944928607
 10
792.0547080607623
 20
159.8301934163617
 10
792.0351194644853
 20
160.2099828356076
 10
792.1957357107676
 20
160.6093485228114
 10
792.4973826197572
 20
160.8716773582911
 10
792.8538727779977
 20
160.9969693420469
 10
793.1829413116132
 20
161.0361233659725
 10
793.5394314698543
 20
161.0165456100044
 10
793.8920051139207
 20
160.9539003621319
 10
794.1309697199049
 20
160.8442696903441
 10
794.3542682691921
 20
160.648502546737
 10
794.4952959191972
 20
160.4174963351936
 10
794.5618947363767
 20
160.2217291915865
 10
794.5852481041078
 20
160.0015257662629
 10
793.912171181031
 20
159.9566539713911
  0
LWPOLYLINE
  5
4903
330
37
100
AcDbEntity
  8
10000_FRONT
370
    13
100
AcDbPolyline
 90
       65
 70
     0
 43
0.0
 10
812.5339660528258
 20
159.956653971391
 10
812.4796329186009
 20
160.1633604862883
 10
812.3699434073959
 20
160.3121436939911
 10
812.2485013409647
 20
160.3943652098211
 10
812.04087487378
 20
160.4413506337361
 10
811.9037637379499
 20
160.4530955017043
 10
811.637374494637
 20
160.4296042777574
 10
811.4610891789549
 20
160.3552126739061
 10
811.3592326960986
 20
160.2573283580972
 10
811.3239780431246
 20
160.1202915063733
 10
811.3474801408727
 20
159.9793382106494
 10
811.4689222073037
 20
159.8736239828617
 10
811.7039733118167
 20
159.7679082670635
 10
812.0526274290062
 20
159.6778553512439
 10
812.5344761678517
 20
159.5486484114986
 10
812.8597396573116
 20
159.4068276055726
 10
813.0869547207733
 20
159.230636729923
 10
813.1927277178046
 20
159.0857684782099
 10
813.3063337431835
 20
158.8508473106768
 10
813.3455079230346
 20
158.6198410991334
 10
813.3337372915898
 20
158.3763177421007
 10
813.2671414871133
 20
158.1257352625996
 10
813.1378633796312
 20
157.890814095067
 10
812.9341534266208
 20
157.6911305074597
 10
812.6403425586822
 20
157.5384323437676
 10
812.2525142616417
 20
157.4522943839376
 10
811.8999406175753
 20
157.4444629839483
 10
811.4494300175291
 20
157.4953633638526
 10
811.053765679437
 20
157.6598078835235
 10
810.8265506159751
 20
157.8594914711306
 10
810.6659343696936
 20
158.0904961946634
 10
810.5797499689398
 20
158.3449951181643
 10
810.5327397480373
 20
158.5094396378353
 10
810.5147352835951
 20
158.655371920109
 10
811.1878122066721
 20
158.7002437149807
 10
811.2535561055704
 20
158.4585407459414
 10
811.3789146861751
 20
158.2510257583448
 10
811.5512834876827
 20
158.1139889066209
 10
811.7667459959188
 20
158.0395973027695
 10
812.0057136146062
 20
158.0356823467802
 10
812.1937514855133
 20
158.0474272147484
 10
812.4170470220978
 20
158.1179038626101
 10
812.5737467542057
 20
158.2510257583448
 10
812.6599311549593
 20
158.4076403660368
 10
812.6560146407852
 20
158.6151538656228
 10
812.5619941989803
 20
158.7639385613362
 10
812.3034409967189
 20
158.8892290570813
 10
811.8646829518981
 20
159.0027746848583
 10
811.3698946527616
 20
159.1450061817205
 10
811.0055714661729
 20
159.3368583693383
 10
810.782272916885
 20
159.5756944928606
 10
810.6765029325574
 20
159.8301934163616
 10
810.6569143362802
 20
160.2099828356076
 10
810.8175305825623
 20
160.6093485228113
 10
811.1191774915521
 20
160.8716773582911
 10
811.4756676497925
 20
160.9969693420468
 10
811.8047361834081
 20
161.0361233659725
 10
812.1612263416491
 20
161.0165456100043
 10
812.5137999857155
 20
160.9539003621318
 10
812.7527645916996
 20
160.8442696903441
 10
812.9760631409871
 20
160.6485025467369
 10
813.1170907909922
 20
160.4174963351935
 10
813.1836896081717
 20
160.2217291915864
 10
813.2070429759027
 20
160.0015257662628
 10
812.5339660528258
 20
159.956653971391
  0
LINE
  5
4904
330
37
100
AcDbEntity
  8
10000_FRONT
370
    13
100
AcDbLine
 10
807.9197609367827
 20
150.210106855074
 30
0.0
 11
807.9197609367827
 21
147.1439854873739
 31
0.0
  0
LINE
  5
4905
330
37
100
AcDbEntity
  8
10000_FRONT
370
    13
100
AcDbLine
 10
818.0797610002827
 20
150.210106855074
 30
0.0
 11
818.0797610002827
 21
147.1439854873739
 31
0.0
  0
ARC
  5
4906
330
37
100
AcDbEntity
  8
10000_FRONT
370
    13
100
AcDbCircle
 10
810.6563745568829
 20
152.142407881062
 30
0.0
 40
2.133439449242529
100
AcDbArc
 50
244.9205726265383
 51
295.0794273734617
  0
ARC
  5
4907
330
37
100
AcDbEntity
  8
10000_FRONT
370
    13
100
AcDbCircle
 10
815.7363741564868
 20
152.1424077715715
 30
0.0
 40
2.133439449242529
100
AcDbArc
 50
244.9205726265383
 51
295.0794273734617
  0
CIRCLE
  5
4908
330
37
100
AcDbEntity
  8
10000_FRONT
370
    13
100
AcDbCircle
 10
827.4728212726481
 20
146.1401905017881
 30
0.0
 40
2.023559591794295
  0
CIRCLE
  5
4909
330
37
100
AcDbEntity
  8
10000_FRONT
370
    13
100
AcDbCircle
 10
812.9974873168984
 20
131.1451159528053
 30
0.0
 40
5.001110138723523
  0
LINE
  5
4927
330
37
100
AcDbEntity
  8
10000_FRONT
  6
Continuous
 62
     7
370
    13
100
AcDbLine
 10
798.5966662735827
 20
189.223481219074
 30
0.0
 11
798.5966662735827
 21
185.343956451674
 31
0.0
  0
LINE
  5
492B
330
37
100
AcDbEntity
  8
10000_FRONT
  6
Continuous
 62
     7
370
    13
100
AcDbLine
 10
816.7966664804827
 20
189.223481219074
 30
0.0
 11
816.7966664804827
 21
185.343956451674
 31
0.0
  0
LINE
  5
492C
330
37
100
AcDbEntity
  8
10000_FRONT
  6
Continuous
 62
     7
370
    13
100
AcDbLine
 10
812.9966664918828
 20
189.223481219074
 30
0.0
 11
816.7966664804827
 21
189.223481219074
 31
0.0
  0
LINE
  5
492D
330
37
100
AcDbEntity
  8
10000_FRONT
  6
Continuous
 62
     7
370
    13
100
AcDbLine
 10
816.7966664804827
 20
185.343956451674
 30
0.0
 11
812.9966664918828
 21
185.343956451674
 31
0.0
  0
LINE
  5
492E
330
37
100
AcDbEntity
  8
10000_FRONT
  6
Continuous
 62
     7
370
    13
100
AcDbLine
 10
812.9966664918828
 20
189.223481219074
 30
0.0
 11
812.9966664918828
 21
185.343956451674
 31
0.0
  0
LINE
  5
492F
330
37
100
AcDbEntity
  8
10000_FRONT
  6
Continuous
 62
     7
370
    13
100
AcDbLine
 10
809.1966665851828
 20
189.223481219074
 30
0.0
 11
812.9966664918828
 21
189.223481219074
 31
0.0
  0
LINE
  5
4930
330
37
100
AcDbEntity
  8
10000_FRONT
  6
Continuous
 62
     7
370
    13
100
AcDbLine
 10
809.1966665851828
 20
185.343956451674
 30
0.0
 11
809.1966665851828
 21
189.223481219074
 31
0.0
  0
LINE
  5
4931
330
37
100
AcDbEntity
  8
10000_FRONT
  6
Continuous
 62
     7
370
    13
100
AcDbLine
 10
812.9966664918828
 20
185.343956451674
 30
0.0
 11
809.1966665851828
 21
185.343956451674
 31
0.0
  0
LINE
  5
4932
330
37
100
AcDbEntity
  8
10000_FRONT
  6
Continuous
 62
     7
370
    13
100
AcDbLine
 10
831.1966662330828
 20
189.223481219074
 30
0.0
 11
831.1966662330828
 21
185.343956451674
 31
0.0
  0
LINE
  5
4933
330
37
100
AcDbEntity
  8
10000_FRONT
  6
Continuous
 62
     7
370
    13
100
AcDbLine
 10
827.3966662444827
 20
189.223481219074
 30
0.0
 11
831.1966662330828
 21
189.223481219074
 31
0.0
  0
LINE
  5
4934
330
37
100
AcDbEntity
  8
10000_FRONT
  6
Continuous
 62
     7
370
    13
100
AcDbLine
 10
831.1966662330828
 20
185.343956451674
 30
0.0
 11
827.3966662444827
 21
185.343956451674
 31
0.0
  0
LINE
  5
4935
330
37
100
AcDbEntity
  8
10000_FRONT
  6
Continuous
 62
     7
370
    13
100
AcDbLine
 10
827.3966662444827
 20
189.223481219074
 30
0.0
 11
827.3966662444827
 21
185.343956451674
 31
0.0
  0
LINE
  5
4936
330
37
100
AcDbEntity
  8
10000_FRONT
  6
Continuous
 62
     7
370
    13
100
AcDbLine
 10
823.5966663377826
 20
189.223481219074
 30
0.0
 11
827.3966662444829
 21
189.223481219074
 31
0.0
  0
LINE
  5
4937
330
37
100
AcDbEntity
  8
10000_FRONT
  6
Continuous
 62
     7
370
    13
100
AcDbLine
 10
823.5966663377826
 20
185.343956451674
 30
0.0
 11
823.5966663377826
 21
189.223481219074
 31
0.0
  0
LINE
  5
4938
330
37
100
AcDbEntity
  8
10000_FRONT
  6
Continuous
 62
     7
370
    13
100
AcDbLine
 10
827.3966662444829
 20
185.343956451674
 30
0.0
 11
823.5966663377826
 21
185.343956451674
 31
0.0
  0
LWPOLYLINE
  5
4939
330
37
100
AcDbEntity
  8
10000_FRONT
370
    13
100
AcDbPolyline
 90
       30
 70
     0
 43
0.0
 10
792.6013282804976
 20
137.1097905721873
 10
792.6926871308093
 20
137.3843118229781
 10
792.8869130941116
 20
137.64694867666
 10
793.1211296798355
 20
137.8068145875968
 10
793.3810536620576
 20
137.8753285494267
 10
793.5924188939268
 20
137.8753285494267
 10
793.8323475649387
 20
137.8239430780543
 10
794.0779913339415
 20
137.6869151543942
 10
794.2436568708049
 20
137.512774757404
 10
794.3550515720271
 20
137.2644123897755
 10
794.3721878278908
 20
136.9846470456361
 10
794.2979367445555
 20
136.7670492979544
 10
794.1865420433328
 20
136.6128928838368
 10
794.0201984728067
 20
136.4823867260326
 10
794.1953662510377
 20
136.387207798336
 10
794.3553197026131
 20
136.2187783861757
 10
794.4524341906157
 20
136.0446379891857
 10
794.5181743873802
 20
135.8413638319084
 10
794.5210304300244
 20
135.5815809826308
 10
794.4495600717528
 20
135.3212788176404
 10
794.3067428760405
 20
135.0871894480544
 10
794.0925216015275
 20
134.8959205606067
 10
793.8640171010916
 20
134.7817306242234
 10
793.6069521742163
 20
134.7246356560317
 10
793.2784771431337
 20
134.73605464967
 10
792.9671413806176
 20
134.8502445860535
 10
792.7357808375377
 20
135.0329484842671
 10
792.6043908251044
 20
135.232780872938
 10
792.5215565503211
 20
135.4440322552473
 10
792.485943665113
 20
135.6097905721872
  0
LWPOLYLINE
  5
493A
330
37
100
AcDbEntity
  8
10000_FRONT
370
    13
100
AcDbPolyline
 90
        2
 70
     0
 43
0.0
 10
792.7551744343437
 20
135.6097905721872
 10
792.7551744343437
 20
135.6097905721872
  0
LWPOLYLINE
  5
493B
330
37
100
AcDbEntity
  8
10000_FRONT
370
    13
100
AcDbPolyline
 90
       19
 70
     0
 43
0.0
 10
792.7551742213827
 20
135.609790559674
 10
792.8117883268449
 20
135.4482730855663
 10
792.9271296692737
 20
135.2531829867996
 10
793.0815126326123
 20
135.1325812125758
 10
793.2749372168609
 20
135.0527717619904
 10
793.4861036103184
 20
135.0314887458307
 10
793.7132403434965
 20
135.0509980533095
 10
793.9474780181426
 20
135.1449956853312
 10
794.1000864992903
 20
135.2762397116403
 10
794.2154308544217
 20
135.4500467942473
 10
794.2580184270108
 20
135.639817254982
 10
794.2420480872901
 20
135.7994376441636
 10
794.1763892335118
 20
135.9572843246642
 10
794.0645968554656
 20
136.08320573692
 10
793.9368311249954
 20
136.1789785656331
 10
793.791320572613
 20
136.2375050000587
 10
793.6012913048828
 20
136.28042517891
 10
793.4486828237358
 20
136.2946133603464
 10
793.3320975112666
 20
136.302098264495
  0
LWPOLYLINE
  5
493C
330
37
100
AcDbEntity
  8
10000_FRONT
370
    13
100
AcDbPolyline
 90
       17
 70
     0
 43
0.0
 10
792.8705590347825
 20
137.109790805574
 10
792.8705590497282
 20
137.1097905721873
 10
792.9553797872822
 20
137.279657058765
 10
793.1298544683341
 20
137.4741579053188
 10
793.3222215937558
 20
137.5546414247235
 10
793.5459057690541
 20
137.5747623045745
 10
793.7405113329614
 20
137.5367555368509
 10
793.9172244524987
 20
137.4495655534995
 10
794.0313034722821
 20
137.3243702904353
 10
794.0984084236015
 20
137.1857606114668
 10
794.0939345593331
 20
136.9867897809551
 10
794.0156434409923
 20
136.8571230459229
 10
793.9015644212091
 20
136.7542836546884
 10
793.7695929570558
 20
136.6872145511881
 10
793.6040660045405
 20
136.6313233836029
 10
793.4497222063437
 20
136.6134389837411
 10
793.3320975112667
 20
136.6097905721872
  0
LWPOLYLINE
  5
493D
330
37
100
AcDbEntity
  8
10000_FRONT
370
    13
100
AcDbPolyline
 90
       14
 70
     0
 43
0.0
 10
795.6632270979828
 20
137.802097823274
 10
795.9400467820865
 20
137.8013669806498
 10
796.2144227016115
 20
137.7817788086072
 10
796.5305305860131
 20
137.7034767127984
 10
796.7652231788447
 20
137.5213799229254
 10
796.8887470231938
 20
137.3176787065949
 10
796.9505074390172
 20
137.0738532834025
 10
796.9412433766437
 20
136.8392892384229
 10
796.8733069192384
 20
136.6448464242837
 10
796.7127268253947
 20
136.4195407814957
 10
796.5336186068047
 20
136.3022572709951
 10
796.2896619516
 20
136.2189256992289
 10
796.0302651924397
 20
136.191147516633
 10
795.8837802035747
 20
136.1867136491103
  0
LWPOLYLINE
  5
493E
330
37
100
AcDbEntity
  8
10000_FRONT
370
    13
100
AcDbPolyline
 90
        2
 70
     0
 43
0.0
 10
795.8945974277829
 20
137.494405608474
 10
796.1414369536245
 20
137.4843433381379
  0
ARC
  5
493F
330
37
100
AcDbEntity
  8
10000_FRONT
370
    13
100
AcDbCircle
 10
796.1881110123965
 20
136.9927687876755
 30
0.0
 40
0.4937853849847479
100
AcDbArc
 50
266.7323500956841
 51
95.42386418248629
  0
LWPOLYLINE
  5
4940
330
37
100
AcDbEntity
  8
10000_FRONT
370
    13
100
AcDbPolyline
 90
        2
 70
     0
 43
0.0
 10
796.1599650783714
 20
136.4997862191983
 10
795.8813763574206
 20
136.4901992260335
  0
ARC
  5
4941
330
37
100
AcDbEntity
  8
10000_FRONT
370
    13
100
AcDbCircle
 10
800.3957724157709
 20
136.9457209310711
 30
0.0
 40
0.9506331088796024
100
AcDbArc
 50
355.4581984563376
 51
184.0233687133596
  0
ARC
  5
4942
330
37
100
AcDbEntity
  8
10000_FRONT
370
    13
100
AcDbCircle
 10
800.3913066945852
 20
136.8968186390915
 30
0.0
 40
0.6748285241844672
100
AcDbArc
 50
5.641428113518365
 51
181.5112406364775
  0
LWPOLYLINE
  5
4943
330
37
100
AcDbEntity
  8
10000_FRONT
370
    13
100
AcDbPolyline
 90
        7
 70
     0
 43
0.0
 10
801.0628667420281
 20
136.9631559570857
 10
801.0628667420357
 20
136.9631559568026
 10
801.041192011195
 20
136.7832016534332
 10
800.9500607517688
 20
136.5849659001771
 10
800.8160466748391
 20
136.3974467995381
 10
800.6445063667149
 20
136.2045693725906
 10
800.4955590622827
 20
136.043684433974
  0
LWPOLYLINE
  5
4945
330
37
100
AcDbEntity
  8
10000_FRONT
370
    13
100
AcDbPolyline
 90
        6
 70
     0
 43
0.0
 10
801.3434203719041
 20
136.8704437171571
 10
801.2757731340075
 20
136.6546018220285
 10
801.1606637697259
 20
136.4333569602722
 10
801.0042321682039
 20
136.2239120228778
 10
800.862559799712
 20
136.0587160578347
 10
800.7251263515827
 20
135.910872246874
  0
ARC
  5
4946
330
37
100
AcDbEntity
  8
10000_FRONT
370
    13
100
AcDbCircle
 10
796.646377191783
 20
117.0241687697457
 30
0.0
 40
1.920015787594598
100
AcDbArc
 50
20.36539667820516
 51
159.6346033217999
  0
ARC
  5
4947
330
37
100
AcDbEntity
  8
10000_FRONT
370
    13
100
AcDbCircle
 10
800.5463774351831
 20
117.0241687697458
 30
0.0
 40
1.920015787594598
100
AcDbArc
 50
20.36539667820516
 51
159.6346033217999
  0
ARC
  5
4948
330
37
100
AcDbEntity
  8
10000_FRONT
370
    13
100
AcDbCircle
 10
811.0463769443828
 20
117.0241687697458
 30
0.0
 40
1.920015787594598
100
AcDbArc
 50
20.36539667820517
 51
159.6346033217991
  0
ARC
  5
4949
330
37
100
AcDbEntity
  8
10000_FRONT
370
    13
100
AcDbCircle
 10
814.946377769983
 20
117.0241687697458
 30
0.0
 40
1.920015787594598
100
AcDbArc
 50
20.36539667820517
 51
159.6346033217991
  0
ARC
  5
494A
330
37
100
AcDbEntity
  8
10000_FRONT
370
    13
100
AcDbCircle
 10
825.4463766970832
 20
117.0241687697458
 30
0.0
 40
1.920015787594598
100
AcDbArc
 50
20.36539667820517
 51
159.6346033217991
  0
ARC
  5
494B
330
37
100
AcDbEntity
  8
10000_FRONT
370
    13
100
AcDbCircle
 10
829.3463775225831
 20
117.0241687697458
 30
0.0
 40
1.920015787594598
100
AcDbArc
 50
20.36539667820516
 51
159.6346033217991
  0
ARC
  5
494C
330
37
100
AcDbEntity
  8
10000_FRONT
370
    13
100
AcDbCircle
 10
796.6463771917826
 20
116.1491732634347
 30
0.0
 40
1.920092886497121
100
AcDbArc
 50
200.3715934631216
 51
339.6284065368759
  0
ARC
  5
494D
330
37
100
AcDbEntity
  8
10000_FRONT
370
    13
100
AcDbCircle
 10
800.5463774351827
 20
116.1491732634345
 30
0.0
 40
1.920092886497121
100
AcDbArc
 50
200.3715934631216
 51
339.6284065368759
  0
ARC
  5
494E
330
37
100
AcDbEntity
  8
10000_FRONT
370
    13
100
AcDbCircle
 10
811.0463769443828
 20
116.1491732634345
 30
0.0
 40
1.920092886497121
100
AcDbArc
 50
200.3715934631216
 51
339.6284065368759
  0
ARC
  5
494F
330
37
100
AcDbEntity
  8
10000_FRONT
370
    13
100
AcDbCircle
 10
814.9463777699827
 20
116.1491732634345
 30
0.0
 40
1.920092886497121
100
AcDbArc
 50
200.3715934631216
 51
339.6284065368759
  0
ARC
  5
4950
330
37
100
AcDbEntity
  8
10000_FRONT
370
    13
100
AcDbCircle
 10
825.4463766970831
 20
116.1491732634345
 30
0.0
 40
1.920092886497121
100
AcDbArc
 50
200.3715934631216
 51
339.6284065368759
  0
ARC
  5
4951
330
37
100
AcDbEntity
  8
10000_FRONT
370
    13
100
AcDbCircle
 10
829.3463775225829
 20
116.1491732634345
 30
0.0
 40
1.920092886497121
100
AcDbArc
 50
200.3715934631216
 51
339.6284065368759
  0
ARC
  5
4952
330
37
100
AcDbEntity
  8
11000_LEFT
  6
Continuous
 62
     7
370
    25
100
AcDbCircle
 10
956.0883646654646
 20
175.3453810350577
 30
0.0
 40
0.5507526426718873
100
AcDbArc
 50
95.06320508217187
 51
174.9370083568358
  0
LINE
  5
4953
330
37
100
AcDbEntity
  8
11000_LEFT
  6
Continuous
 62
     7
370
    25
100
AcDbLine
 10
1039.678020199183
 20
141.343985561074
 30
0.0
 11
1036.695149925724
 21
139.6836581842462
 31
0.0
  0
LINE
  5
4954
330
37
100
AcDbEntity
  8
11000_LEFT
  6
Continuous
 62
     7
370
    25
100
AcDbLine
 10
1040.319761057783
 20
141.343985561074
 30
0.0
 11
1041.526427288883
 21
140.137319329974
 31
0.0
  0
LINE
  5
4955
330
37
100
AcDbEntity
  8
11000_LEFT
  6
Continuous
 62
     7
370
    25
100
AcDbLine
 10
1050.819763710183
 20
150.210106855074
 30
0.0
 11
1050.818534428976
 21
150.0285795492284
 31
0.0
  0
LINE
  5
4956
330
37
100
AcDbEntity
  8
11000_LEFT
  6
Continuous
 62
     7
370
    25
100
AcDbLine
 10
1050.818534428976
 20
150.0285795492284
 30
0.0
 11
1050.992974807883
 21
149.938214447174
 31
0.0
  0
LINE
  5
4957
330
37
100
AcDbEntity
  8
11000_LEFT
  6
Continuous
 62
     7
370
    25
100
AcDbLine
 10
1050.819763710183
 20
147.1439854873739
 30
0.0
 11
1050.81942016372
 21
147.3384884448353
 31
0.0
  0
LINE
  5
4958
330
37
100
AcDbEntity
  8
11000_LEFT
  6
Continuous
 62
     7
370
    25
100
AcDbLine
 10
1050.81942016372
 20
147.3384884448353
 30
0.0
 11
1051.019763370483
 21
147.343985613274
 31
0.0
  0
LINE
  5
4959
330
37
100
AcDbEntity
  8
11000_LEFT
  6
Continuous
 62
     7
370
    25
100
AcDbLine
 10
1052.146548201683
 20
149.525295354274
 30
0.0
 11
1052.269959618683
 21
149.418986512174
 31
0.0
  0
LINE
  5
495A
330
37
100
AcDbEntity
  8
11000_LEFT
  6
Continuous
 62
     7
370
    25
100
AcDbLine
 10
1052.019761671683
 20
147.343985613274
 30
0.0
 11
1052.218159457082
 21
147.4189845544739
 31
0.0
  0
LINE
  5
495B
330
37
100
AcDbEntity
  8
11000_LEFT
  6
Continuous
 62
     7
370
    25
100
AcDbLine
 10
1050.819763710183
 20
143.243985127474
 30
0.0
 11
1050.819763710183
 21
142.843985806974
 31
0.0
  0
ARC
  5
495C
330
37
100
AcDbEntity
  8
11000_LEFT
  6
Continuous
 62
     7
370
    25
100
AcDbCircle
 10
1031.159893959551
 20
202.0141197947426
 30
0.0
 40
0.1809883225754004
100
AcDbArc
 50
353.6126652827701
 51
96.38733471724485
  0
ARC
  5
495D
330
37
100
AcDbEntity
  8
11000_LEFT
370
    13
100
AcDbCircle
 10
1031.1264800427
 20
107.8072639120504
 30
0.0
 40
0.2136917506845323
100
AcDbArc
 50
273.5627343483606
 51
356.4372656802277
  0
LINE
  5
495E
330
37
100
AcDbEntity
  8
11100_LEFT_DIM
  6
AM_DIN_G_W050
 62
     5
370
    13
100
AcDbLine
 10
964.1711631118983
 20
154.893985751774
 30
0.0
 11
949.2066284870396
 21
154.893985751774
 31
0.0
  0
DIMENSION
  5
4962
330
37
100
AcDbEntity
  8
10100_FRONT_DIM
370
    13
100
AcDbDimension
  2
*D13
 10
880.1997646259827
 20
225.2479113713556
 30
0.0
 11
835.3997629637827
 21
228.8479113713556
 31
0.0
 70
    32
 71
     5
 42
89.60000332439994
  3
DIN_3.5
100
AcDbAlignedDimension
 13
790.5997613015828
 23
202.393986331474
 33
0.0
 14
880.1997646259827
 24
202.393986331474
 34
0.0
100
AcDbRotatedDimension
1001
ACAD
1000
DSTYLE
1002
{
1070
    50
1040
1.570796326794896
1002
}
  0
DIMENSION
  5
497A
330
37
100
AcDbEntity
  8
10100_FRONT_DIM
370
    13
100
AcDbDimension
  2
*D14
 10
835.3963762091826
 20
215.2621405465357
 30
0.0
 11
812.9980687553826
 21
218.8621405465357
 31
0.0
 70
    32
 71
     5
 42
44.79661490759974
  3
DIN_3.5
100
AcDbAlignedDimension
 13
790.5997613015828
 23
203.793986331474
 33
0.0
 14
835.3963762091826
 24
203.793986331474
 34
0.0
100
AcDbRotatedDimension
1001
ACAD
1000
DSTYLE
1002
{
1070
    50
1040
1.570796326794896
1002
}
  0
DIMENSION
  5
4992
330
37
100
AcDbEntity
  8
10100_FRONT_DIM
370
    13
100
AcDbDimension
  2
*D15
 10
777.6027411625987
 20
107.493987183874
 30
0.0
 11
774.0027411625987
 21
154.8939867576741
 31
0.0
 70
    32
 71
     5
 42
94.7999991476
  3
DIN_3.5
100
AcDbAlignedDimension
 13
795.0997613015828
 23
202.293986331474
 33
0.0
 14
795.0997613015829
 24
107.493987183874
 34
0.0
 50
90.0
100
AcDbRotatedDimension
1001
ACAD
1000
DSTYLE
1002
{
1070
    50
1040
1.570796326794896
1002
}
  0
DIMENSION
  5
49C2
330
37
100
AcDbEntity
  8
11100_LEFT_DIM
370
    13
100
AcDbDimension
  2
*D16
 10
956.9397585293828
 20
94.46600432109017
 30
0.0
 11
968.3272585293828
 21
98.06600432109016
 31
0.0
 70
    32
 71
     5
 42
4.299998283399872
  3
DIN_3.5
100
AcDbAlignedDimension
 13
952.6397602459828
 23
110.493987183874
 33
0.0
 14
956.9397585293828
 24
140.393985751774
 34
0.0
100
AcDbRotatedDimension
1001
ACAD
1000
DSTYLE
1002
{
1070
    50
1040
1.570796326794896
1002
}
  0
DIMENSION
  5
49DE
330
37
100
AcDbEntity
  8
11100_LEFT_DIM
370
    13
100
AcDbDimension
  2
*D17
 10
939.6058358058176
 20
154.893985751774
 30
0.0
 11
936.0058358058175
 21
178.5439851952241
 31
0.0
 70
    32
 71
     5
 42
47.29999888689991
  3
DIN_3.5
100
AcDbAlignedDimension
 13
1013.089759291583
 23
202.1939846386739
 33
0.0
 14
950.7066284870397
 24
154.893985751774
 34
0.0
 50
90.0
100
AcDbRotatedDimension
1001
ACAD
1000
DSTYLE
1002
{
1070
    50
1040
1.570796326794896
1002
}
  0
LINE
  5
4AEC
330
37
100
AcDbEntity
  8
11000_LEFT
  6
Continuous
 62
     7
370
    13
100
AcDbLine
 10
1011.589759291583
 20
196.3099839670221
 30
0.0
 11
1011.589759291583
 21
113.5258468505465
 31
0.0
  0
LINE
  5
4AED
330
37
100
AcDbEntity
  8
11000_LEFT
  6
Continuous
 62
     7
370
    25
100
AcDbLine
 10
1011.589759291583
 20
112.5939841082739
 30
0.0
 11
1011.589759291583
 21
108.320480089474
 31
0.0
  0
ARC
  5
4AEE
330
37
100
AcDbEntity
  8
11000_LEFT
  6
Continuous
 62
     7
370
    13
100
AcDbCircle
 10
236.8397592804829
 20
154.893985449374
 30
0.0
 40
799.9999999998524
100
AcDbArc
 50
358.9105749104701
 51
359.9964191635852
  0
ARC
  5
4AEF
330
37
100
AcDbEntity
  8
11000_LEFT
  6
Continuous
 62
     7
370
    25
100
AcDbCircle
 10
236.8397592804829
 20
154.893985449374
 30
0.0
 40
799.9999999998524
100
AcDbArc
 50
359.9964191635852
 51
2.998069123800203
  0
LINE
  5
4AF0
330
37
100
AcDbEntity
  8
11100_LEFT_DIM
100
AcDbLine
 10
952.6397602459828
 20
175.3439838817739
 30
0.0
 11
952.6397602459828
 21
216.1707531354632
 31
0.0
  0
LINE
  5
4AF1
330
37
100
AcDbEntity
  8
11100_LEFT_DIM
100
AcDbLine
 10
1052.889762623782
 20
147.6188881888434
 30
0.0
 11
1052.889762623782
 21
216.1707531354632
 31
0.0
  0
LINE
  5
4AF2
330
37
100
AcDbEntity
  8
11100_LEFT_DIM
100
AcDbLine
 10
956.1397602459829
 20
215.1707531354631
 30
0.0
 11
1049.389762623782
 21
215.1707531354631
 31
0.0
  0
SOLID
  5
4AF3
330
37
100
AcDbEntity
  8
11100_LEFT_DIM
100
AcDbTrace
 10
956.1397602459829
 20
215.7540864687965
 30
0.0
 11
956.1397602459829
 21
214.5874198021298
 31
0.0
 12
952.6397602459828
 22
215.1707531354631
 32
0.0
 13
952.6397602459828
 23
215.1707531354631
 33
0.0
  0
SOLID
  5
4AF4
330
37
100
AcDbEntity
  8
11100_LEFT_DIM
100
AcDbTrace
 10
1049.389762623782
 20
215.7540864687965
 30
0.0
 11
1049.389762623782
 21
214.5874198021298
 31
0.0
 12
1052.889762623782
 22
215.1707531354631
 32
0.0
 13
1052.889762623782
 23
215.1707531354631
 33
0.0
  0
MTEXT
  5
4AF5
330
37
100
AcDbEntity
  8
11100_LEFT_DIM
370
    13
100
AcDbMText
 10
1002.764761434883
 20
218.7707531354631
 30
0.0
 40
3.5
 41
0.0
 71
     5
 72
     1
  1
100,3
 73
     1
 44
1.0
1001
ACAD
1000
MTEXTBEGIN
1070
    73
1070
     1
1070
    44
1040
1.0
1070
    74
1070
     0
1000
MTEXTEND
  0
VIEWPORT
  5
BB8
102
{ACAD_XDICTIONARY
360
4B75
102
}
330
33
100
AcDbEntity
 67
     1
  8
0
100
AcDbViewport
 10
210.1928410833346
 20
45.42387874035179
 30
0.0
 40
124.2893586661232
 41
64.77990728116248
 68
     1
 69
     1
 12
210.1928410833346
 22
45.42387874035179
 13
0.0
 23
0.0
 14
10.0
 24
10.0
 15
10.0
 25
10.0
 16
0.0
 26
0.0
 36
1.0
 17
0.0
 27
0.0
 37
0.0
 42
50.0
 43
0.0
 44
0.0
 45
64.77990728116248
 50
0.0
 51
0.0
 72
  1000
 90
   819232
  1

281
     0
 71
     1
 74
     0
110
0.0
120
0.0
130
0.0
111
1.0
121
0.0
131
0.0
112
0.0
122
1.0
132
0.0
 79
     0
146
0.0
  0
VIEWPORT
  5
BBB
102
{ACAD_XDICTIONARY
360
4B77
102
}
330
33
100
AcDbEntity
 67
     1
  8
0
100
AcDbViewport
 10
135.887842408874
 20
108.5470639919251
 30
0.0
 40
273.7630223349524
 41
176.3694630573212
 68
     2
 69
     2
 12
1151.572995521891
 22
746.7373056200671
 13
0.0
 23
0.0
 14
10.0
 24
10.0
 15
10.0
 25
10.0
 16
0.0
 26
0.0
 36
1.0
 17
0.0
 27
0.0
 37
0.0
 42
50.0
 43
0.0
 44
0.0
 45
1673.565958332362
 50
0.0
 51
0.0
 72
  1000
 90
   819296
  1

281
     0
 71
     1
 74
     0
110
0.0
120
0.0
130
0.0
111
1.0
121
0.0
131
0.0
112
0.0
122
1.0
132
0.0
 79
     0
146
0.0
  0
ENDSEC
  0
SECTION
  2
OBJECTS
  0
DICTIONARY
  5
C
330
0
100
AcDbDictionary
281
     1
  3
ACAD_2007HEADERVARS_RT
350
4B6C
  3
ACAD_BACKGROUND
350
AA1
  3
ACAD_COLOR
350
30
  3
ACAD_GROUP
350
D
  3
ACAD_LAYOUT
350
2F
  3
ACAD_MATERIAL
350
10
  3
ACAD_MLINESTYLE
350
2C
  3
ACAD_PLOTSETTINGS
350
2E
  3
ACAD_PLOTSTYLENAME
350
E
  3
ACAD_TABLESTYLE
350
31
  3
ACAD_VISUALSTYLE
350
14
  3
AcDbVariableDictionary
350
1BD
  3
ASE_INDEX_DICTIONARY
350
1D94
  3
DWGPROPS
350
4B6B
  0
DICTIONARY
  5
B73
330
2
100
AcDbDictionary
280
     1
281
     1
  3
ACAD_LAYERFILTERS
360
1D92
  3
ACAD_LAYERSTATES
360
BBF
  3
ACLYDICTIONARY
360
1D91
  0
DICTIONARY
  5
4CA
330
37
100
AcDbDictionary
280
     1
281
     1
  3
ACAD_SORTENTS
360
4CB
  0
DICTIONARY
  5
1759
330
1758
100
AcDbDictionary
280
     1
281
     1
  0
DICTIONARY
  5
1D18
330
1765
100
AcDbDictionary
280
     1
281
     1
  3
ACAD_ENHANCEDBLOCK
360
1D19
  3
AcDbDynamicBlockRoundTripPurgePreventer
360
1D23
  0
DICTIONARY
  5
177C
330
177B
100
AcDbDictionary
280
     1
281
     1
  0
DICTIONARY
  5
1D43
330
1D24
100
AcDbDictionary
280
     1
281
     1
  0
DICTIONARY
  5
1B72
330
1966
100
AcDbDictionary
280
     1
281
     1
  3
AcDbBlockRepresentation
360
1B73
  0
DICTIONARY
  5
4B75
330
BB8
100
AcDbDictionary
280
     1
281
     1
  3
ACAD_XREC_ROUNDTRIP
360
4B76
  0
DICTIONARY
  5
4B77
330
BBB
100
AcDbDictionary
280
     1
281
     1
  3
ACAD_XREC_ROUNDTRIP
360
4B78
  0
DICTIONARY
  5
4B6C
102
{ACAD_REACTORS
330
C
102
}
330
C
100
AcDbDictionary
281
     1
  3
DIMJOGANG
350
4B6D
  0
DICTIONARY
  5
AA1
102
{ACAD_REACTORS
330
C
102
}
330
C
100
AcDbDictionary
281
     1
  0
DICTIONARY
  5
30
102
{ACAD_REACTORS
330
C
102
}
330
C
100
AcDbDictionary
281
     1
  0
DICTIONARY
  5
D
102
{ACAD_REACTORS
330
C
102
}
330
C
100
AcDbDictionary
281
     1
  0
DICTIONARY
  5
2F
102
{ACAD_REACTORS
330
C
102
}
330
C
100
AcDbDictionary
281
     1
  3
Layout1
350
36
  3
Layout2
350
3E
  3
Model
350
3A
  0
DICTIONARY
  5
10
102
{ACAD_REACTORS
330
C
102
}
330
C
100
AcDbDictionary
281
     1
  3
ByBlock
350
12
  3
ByLayer
350
11
  3
Global
350
13
  0
DICTIONARY
  5
2C
102
{ACAD_REACTORS
330
C
102
}
330
C
100
AcDbDictionary
281
     1
  3
Standard
350
2D
  0
DICTIONARY
  5
2E
102
{ACAD_REACTORS
330
C
102
}
330
C
100
AcDbDictionary
281
     1
  0
ACDBDICTIONARYWDFLT
  5
E
102
{ACAD_REACTORS
330
C
102
}
330
C
100
AcDbDictionary
281
     1
  3
Normal
350
F
100
AcDbDictionaryWithDefault
340
F
  0
DICTIONARY
  5
31
102
{ACAD_REACTORS
330
C
102
}
330
C
100
AcDbDictionary
281
     1
  3
Standard
350
32
  0
DICTIONARY
  5
14
102
{ACAD_REACTORS
330
C
102
}
330
C
100
AcDbDictionary
281
     1
  3
2dWireframe
350
1A
  3
Basic
350
19
  3
Brighten
350
20
  3
ColorChange
350
24
  3
Dim
350
1F
  3
Facepattern
350
23
  3
Flat
350
15
  3
FlatWithEdges
350
16
  3
Gouraud
350
17
  3
GouraudWithEdges
350
18
  3
Linepattern
350
22
  3
Thicken
350
21
  0
DICTIONARY
  5
1BD
102
{ACAD_REACTORS
330
C
102
}
330
C
100
AcDbDictionary
281
     1
  3
CTABLESTYLE
350
1BE
  3
DIMASSOC
350
1DA4
  3
HIDETEXT
350
1DA3
  3
INDEXCTL
350
1DA2
  3
SORTENTS
350
1DA1
  0
DICTIONARY
  5
1D94
102
{ACAD_REACTORS
330
C
102
}
330
C
100
AcDbDictionary
281
     1
  3
ASEBlockHierarchyIndexRecord
350
1D95
1001
DCO15
1040
1618547951.5
  0
XRECORD
  5
4B6B
102
{ACAD_REACTORS
330
C
102
}
330
C
100
AcDbXrecord
280
     1
  1
DWGPROPS COOKIE
  2

  3

  4

  6

  7

  8
ADSAKL2
  9

300
=
301
=
302
=
303
=
304
=
305
=
306
=
307
=
308
=
309
=
 40
0.0420733912037037
 41
2454670.331884259
 42
2454673.499923623
  1

 90
        0
  0
DICTIONARY
  5
1D92
102
{ACAD_REACTORS
330
B73
102
}
330
B73
100
AcDbDictionary
281
     1
  0
DICTIONARY
  5
BBF
102
{ACAD_REACTORS
330
B73
102
}
330
B73
100
AcDbDictionary
281
     1
  0
DICTIONARY
  5
1D91
102
{ACAD_REACTORS
330
B73
102
}
330
B73
100
AcDbDictionary
281
     1
1001
ACAD
1000
<All
  0
SORTENTSTABLE
  5
4CB
102
{ACAD_REACTORS
330
4CA
102
}
330
4CA
100
AcDbSortentsTable
330
37
331
4792
  5
4794
331
487F
  5
4882
331
4714
  5
4714
331
492D
  5
4932
331
479A
  5
479C
331
4887
  5
488A
331
48BE
  5
48EF
331
48C6
  5
48F2
331
4935
  5
493A
331
493D
  5
4942
331
4945
  5
494A
331
180B
  5
180B
331
494D
  5
4952
331
469A
  5
469A
331
4848
  5
484A
331
4724
  5
4724
331
1966
  5
1966
331
46D5
  5
46D5
331
47A2
  5
47A4
331
488F
  5
4893
331
48EE
  5
48F7
331
47AA
  5
47AC
331
47F1
  5
47F3
331
472C
  5
472C
331
476B
  5
476D
331
4850
  5
4852
331
46B2
  5
46B2
331
46DD
  5
46DD
331
4897
  5
489A
331
48F6
  5
48FD
331
47B2
  5
47B4
331
4858
  5
485A
331
477B
  5
477D
331
47BA
  5
47CB
331
489F
  5
48A5
331
48FE
  5
4909
331
4906
  5
492C
331
48A7
  5
48B0
331
4955
  5
495A
331
495D
  5
49AA
331
4AEE
  5
489C
331
4AF5
  5
4AF3
331
4673
  5
4673
331
46BA
  5
46BA
331
467B
  5
467B
331
46C2
  5
46C2
331
4870
  5
4872
331
4683
  5
4683
331
46CA
  5
46CA
331
48AF
  5
48B6
331
4754
  5
4756
331
478B
  5
478D
331
47DA
  5
47DC
331
48B7
  5
48C0
331
475C
  5
475E
331
4793
  5
4795
331
4880
  5
4883
331
48BF
  5
48F0
331
479B
  5
479D
331
4841
  5
4843
331
492E
  5
4933
331
48C7
  5
48F5
331
4992
  5
4AEC
331
49C2
  5
4AF4
331
4936
  5
493B
331
493E
  5
4943
331
4946
  5
494B
331
494E
  5
4953
331
180C
  5
180C
331
4849
  5
484B
331
4888
  5
488B
331
47EA
  5
47EC
331
46D6
  5
46D6
331
4764
  5
4766
331
4851
  5
4853
331
476C
  5
476E
331
46DE
  5
46DE
331
47AB
  5
47AD
331
46B3
  5
46B3
331
48EF
  5
48F8
331
48F7
  5
48FE
331
4859
  5
485B
331
47B3
  5
47B5
331
4898
  5
489B
331
48A0
  5
48A8
331
480A
  5
4834
331
477C
  5
477E
331
46FE
  5
46FE
331
4907
  5
492D
331
4956
  5
495B
331
495E
  5
4878
331
4AEF
  5
489D
331
4674
  5
4674
331
46BB
  5
46BB
331
47CB
  5
47DA
331
4684
  5
4684
331
46CB
  5
46CB
331
4871
  5
4873
331
4879
  5
487C
331
478C
  5
478E
331
47DB
  5
47DE
331
48B0
  5
48B7
331
4755
  5
4757
331
4927
  5
472F
331
4881
  5
4884
331
4794
  5
4796
331
47E3
  5
47E5
331
4842
  5
4844
331
492F
  5
4934
331
479C
  5
479E
331
471E
  5
471E
331
4937
  5
493C
331
493F
  5
4945
331
4947
  5
494C
331
180D
  5
180D
331
494F
  5
4954
331
47EB
  5
47ED
331
484A
  5
484C
331
46D7
  5
46D7
331
4889
  5
488C
331
46AC
  5
46AC
331
4891
  5
4894
331
48F0
  5
48F9
331
47AC
  5
47AE
331
46B4
  5
46B4
331
472E
  5
4730
331
476D
  5
476F
331
4852
  5
4854
331
485A
  5
485C
331
47B4
  5
47B6
331
4899
  5
489F
331
48F8
  5
4901
331
4775
  5
4777
331
477D
  5
477F
331
4957
  5
495C
331
4675
  5
4675
331
46BC
  5
46BC
331
467D
  5
467D
331
46C4
  5
46C4
331
4908
  5
492E
331
474E
  5
4750
331
4872
  5
4874
331
4685
  5
4685
331
4707
  5
4707
331
48A9
  5
48B1
331
48B1
  5
48B9
331
47DC
  5
47DF
331
4756
  5
4758
331
487A
  5
487D
331
470F
  5
470F
331
48B9
  5
48C1
331
4795
  5
4797
331
4882
  5
4885
331
48C1
  5
48F1
331
479D
  5
479F
331
4843
  5
4845
331
4930
  5
4935
331
4938
  5
493D
331
4940
  5
4946
331
4948
  5
494D
331
180E
  5
180E
331
46D0
  5
46D0
331
484B
  5
484D
331
488A
  5
488D
331
46D8
  5
46D8
331
46AD
  5
46AD
331
47EC
  5
47EE
331
48F1
  5
48FA
331
4853
  5
4855
331
476E
  5
4770
331
47AD
  5
47AF
331
4892
  5
4896
331
46F0
  5
46F0
331
466E
  5
466E
331
46B5
  5
46B5
331
472F
  5
4731
331
48F9
  5
4902
331
485B
  5
485D
331
47B5
  5
47B7
331
489A
  5
48A0
331
48A2
  5
48A9
331
4747
  5
4749
331
477E
  5
4780
331
4950
  5
4955
331
4958
  5
495D
331
4AF0
  5
4AEE
331
46BD
  5
46BD
331
46C5
  5
46C5
331
4873
  5
4875
331
4909
  5
492F
331
4686
  5
4686
331
46CD
  5
46CD
331
4786
  5
4788
331
487B
  5
487E
331
48B2
  5
48BB
331
468E
  5
468E
331
4757
  5
4759
331
4834
  5
4837
331
483C
  5
483E
331
4796
  5
4798
331
4883
  5
4886
331
4718
  5
4718
331
4844
  5
4846
331
479E
  5
47A0
331
4931
  5
4936
331
4939
  5
493E
331
4941
  5
4947
331
4949
  5
494E
331
4696
  5
4696
331
46D1
  5
46D1
331
484C
  5
484E
331
4728
  5
4728
331
46AE
  5
46AE
331
46D9
  5
46D9
331
47A6
  5
47A8
331
488B
  5
488E
331
48F2
  5
48FB
331
47AE
  5
47B0
331
46F1
  5
46F1
331
46B6
  5
46B6
331
4730
  5
4732
331
476F
  5
4771
331
4854
  5
4856
331
466F
  5
466F
331
485C
  5
485E
331
47B6
  5
47B8
331
489B
  5
48A1
331
48FA
  5
4905
331
477F
  5
4781
331
486C
  5
486E
331
48A3
  5
48AB
331
4951
  5
4956
331
4959
  5
495E
331
4AF1
  5
4AEF
331
4677
  5
4677
331
46BE
  5
46BE
331
467F
  5
467F
331
46C6
  5
46C6
331
4874
  5
4876
331
48AB
  5
48B2
331
4687
  5
4687
331
46CE
  5
46CE
331
48B3
  5
48BD
331
47DE
  5
47E0
331
4758
  5
475A
331
4835
  5
483C
331
487C
  5
487F
331
4884
  5
4887
331
48BB
  5
48C3
331
483D
  5
483F
331
4797
  5
4799
331
479F
  5
47A1
331
4845
  5
4847
331
4932
  5
4937
331
493A
  5
493F
331
49DE
  5
4AF5
331
4942
  5
4948
331
494A
  5
494F
331
46D2
  5
46D2
331
4760
  5
4762
331
484D
  5
4850
331
488C
  5
4890
331
4768
  5
476A
331
46DA
  5
46DA
331
46AF
  5
46AF
331
4729
  5
4729
331
47EE
  5
47F0
331
4770
  5
4772
331
4855
  5
4857
331
46F2
  5
46F2
331
4894
  5
4897
331
46B7
  5
46B7
331
48FB
  5
4906
331
485D
  5
485F
331
4778
  5
477A
331
47B7
  5
47B9
331
48A4
  5
48AD
331
4903
  5
490A
331
486D
  5
486F
331
4952
  5
4957
331
495A
  5
4962
331
4AF2
  5
4AF0
331
4670
  5
4670
331
46BF
  5
46BF
331
4678
  5
4678
331
46C7
  5
46C7
331
4680
  5
4680
331
4875
  5
4877
331
48AC
  5
48B3
331
4688
  5
4688
331
46CF
  5
46CF
331
4751
  5
4753
331
487D
  5
4880
331
4790
  5
4792
331
47DF
  5
47E1
331
48B4
  5
48BE
331
492B
  5
4930
331
483E
  5
4841
331
4798
  5
479A
331
4885
  5
4888
331
471A
  5
471A
331
48BC
  5
48ED
331
4846
  5
4848
331
4933
  5
4938
331
493B
  5
4940
331
4943
  5
4949
331
1809
  5
1809
331
494B
  5
4950
331
1964
  5
1964
331
46D3
  5
46D3
331
47A0
  5
47A2
331
47EF
  5
47F1
331
472A
  5
472A
331
4769
  5
476B
331
484E
  5
4851
331
46B0
  5
46B0
331
4669
  5
4669
331
46DB
  5
46DB
331
4895
  5
4899
331
47B0
  5
47B2
331
46F3
  5
46F3
331
4771
  5
4773
331
4856
  5
4858
331
489D
  5
48A2
331
4779
  5
477B
331
46FB
  5
46FB
331
47B8
  5
47BA
331
4807
  5
4828
331
48FC
  5
4907
331
4904
  5
4927
331
486E
  5
4870
331
48A5
  5
48AE
331
4962
  5
49C2
331
4953
  5
4958
331
497A
  5
49DE
331
495B
  5
497A
331
4AEC
  5
48A6
331
4AF3
  5
4AF1
331
46B8
  5
46B8
331
4671
  5
4671
331
46C0
  5
46C0
331
4703
  5
4703
331
4681
  5
4681
331
46C8
  5
46C8
331
474A
  5
474C
331
4752
  5
4754
331
4876
  5
4879
331
4689
  5
4689
331
470B
  5
470B
331
48AD
  5
48B4
331
48B5
  5
48BF
331
47E0
  5
47E2
331
4837
  5
483D
331
4791
  5
4793
331
487E
  5
4881
331
4886
  5
4889
331
48BD
  5
48EE
331
4799
  5
479B
331
483F
  5
4842
331
492C
  5
4931
331
4847
  5
4849
331
4934
  5
4939
331
493C
  5
4941
331
494C
  5
4951
331
180A
  5
180A
331
46D4
  5
46D4
331
47A1
  5
47A3
331
1965
  5
1965
331
476A
  5
476C
331
46DC
  5
46DC
331
488E
  5
4891
331
466A
  5
466A
331
46B1
  5
46B1
331
48ED
  5
48F6
331
48F5
  5
48FC
331
4857
  5
4859
331
489E
  5
48A4
331
48FD
  5
4908
331
4743
  5
4745
331
477A
  5
477C
331
47B9
  5
47C9
331
48A6
  5
48AF
331
4905
  5
492B
331
486F
  5
4871
331
4954
  5
4959
331
495C
  5
4992
331
4AED
  5
48A7
331
4AF4
  5
4AF2
331
4672
  5
4672
331
46B9
  5
46B9
331
46C1
  5
46C1
331
467A
  5
467A
331
47C9
  5
47D9
331
4828
  5
4835
331
46C9
  5
46C9
331
4782
  5
4784
331
4682
  5
4682
331
4877
  5
487B
331
478A
  5
478C
331
47D9
  5
47DB
331
48AE
  5
48B5
331
4753
  5
4755
  0
ACAD_EVALUATION_GRAPH
  5
1D19
102
{ACAD_REACTORS
330
1D18
102
}
330
1D18
100
AcDbEvalGraph
 96
        2
 97
        2
 91
        0
 93
       32
 95
        2
360
1D1A
 92
       -1
 92
       -1
 92
       -1
 92
       -1
  0
ACDB_DYNAMICBLOCKPURGEPREVENTER_VERSION
  5
1D23
102
{ACAD_REACTORS
330
1D18
102
}
330
1D18
100
AcDbDynamicBlockPurgePreventer
 70
     1
  0
DICTIONARY
  5
1B73
102
{ACAD_REACTORS
330
1B72
102
}
330
1B72
100
AcDbDictionary
280
     1
281
     1
  3
AcDbRepData
360
1B74
  3
AppDataCache
360
1D6A
  0
XRECORD
  5
4B76
102
{ACAD_REACTORS
330
4B75
102
}
330
4B75
100
AcDbXrecord
280
     1
102
SHADEPLOT
 70
     0
  0
XRECORD
  5
4B78
102
{ACAD_REACTORS
330
4B77
102
}
330
4B77
100
AcDbXrecord
280
     1
102
SHADEPLOT
 70
     0
  0
XRECORD
  5
4B6D
102
{ACAD_REACTORS
330
4B6C
102
}
330
4B6C
100
AcDbXrecord
280
     1
 40
1.570796326794896
  0
LAYOUT
  5
36
102
{ACAD_XDICTIONARY
360
BC1
102
}
102
{ACAD_REACTORS
330
2F
102
}
330
2F
100
AcDbPlotSettings
  1

  2
Microsoft Office Document Image Writer
  4
A4
  6

 40
3.174999952316281
 41
3.174999952316281
 42
3.175003051757812
 43
3.17498779296875
 44
209.9733276367186
 45
297.0106506347656
 46
0.0
 47
0.0
 48
0.0
 49
0.0
140
0.0
141
0.0
142
1.0
143
1.0
 70
   688
 72
     1
 73
     1
 74
     5
  7

 75
    16
147
1.0
148
0.0
149
0.0
100
AcDbLayout
  1
Layout1
 70
     1
 71
     1
 10
-3.17498779296875
 20
-3.174999952316281
 11
293.8356628417969
 21
206.7983276844024
 12
0.0
 22
0.0
 32
0.0
 14
-0.9936687586022115
 24
20.36233246326446
 34
0.0
 15
272.7693535763502
 25
196.7317955205857
 35
0.0
146
0.0
 13
0.0
 23
0.0
 33
0.0
 16
1.0
 26
0.0
 36
0.0
 17
0.0
 27
1.0
 37
0.0
 76
     0
330
33
331
BB8
1001
ACAD_PSEXT
1000
Microsoft Office Document Image Writer
1000
Microsoft Office Document Image Writer Driver
1000
Microsoft Document Imaging Writer Port:
1000

1070
     0
  0
LAYOUT
  5
3E
102
{ACAD_XDICTIONARY
360
4B73
102
}
102
{ACAD_REACTORS
330
2F
102
}
330
2F
100
AcDbPlotSettings
  1

  2
Microsoft Office Document Image Writer
  4

  6

 40
0.0
 41
0.0
 42
0.0
 43
0.0
 44
0.0
 45
0.0
 46
0.0
 47
0.0
 48
0.0
 49
0.0
140
0.0
141
0.0
142
1.0
143
1.0
 70
   688
 72
     0
 73
     0
 74
     5
  7

 75
    16
147
1.0
148
0.0
149
0.0
100
AcDbLayout
  1
Layout2
 70
     1
 71
     2
 10
0.0
 20
0.0
 11
12.0
 21
9.0
 12
0.0
 22
0.0
 32
0.0
 14
0.0
 24
0.0
 34
0.0
 15
0.0
 25
0.0
 35
0.0
146
0.0
 13
0.0
 23
0.0
 33
0.0
 16
1.0
 26
0.0
 36
0.0
 17
0.0
 27
1.0
 37
0.0
 76
     0
330
3B
  0
LAYOUT
  5
3A
102
{ACAD_XDICTIONARY
360
4B71
102
}
102
{ACAD_REACTORS
330
2F
102
}
330
2F
100
AcDbPlotSettings
  1

  2
Microsoft Office Document Image Writer
  4

  6

 40
0.0
 41
0.0
 42
0.0
 43
0.0
 44
0.0
 45
0.0
 46
0.0
 47
0.0
 48
0.0
 49
0.0
140
0.0
141
0.0
142
1.0
143
1.0
 70
  1712
 72
     0
 73
     0
 74
     0
  7

 75
     0
147
1.0
148
0.0
149
0.0
100
AcDbLayout
  1
Model
 70
     1
 71
     0
 10
0.0
 20
0.0
 11
12.0
 21
9.0
 12
0.0
 22
0.0
 32
0.0
 14
0.0
 24
0.0
 34
0.0
 15
0.0
 25
0.0
 35
0.0
146
0.0
 13
0.0
 23
0.0
 33
0.0
 16
1.0
 26
0.0
 36
0.0
 17
0.0
 27
1.0
 37
0.0
 76
     0
330
37
331
28
  0
MATERIAL
  5
12
102
{ACAD_XDICTIONARY
360
1DA8
102
}
102
{ACAD_REACTORS
330
10
102
}
330
10
100
AcDbMaterial
  1
ByBlock
  0
MATERIAL
  5
11
102
{ACAD_XDICTIONARY
360
1DA6
102
}
102
{ACAD_REACTORS
330
10
102
}
330
10
100
AcDbMaterial
  1
ByLayer
  0
MATERIAL
  5
13
102
{ACAD_XDICTIONARY
360
1DAA
102
}
102
{ACAD_REACTORS
330
10
102
}
330
10
100
AcDbMaterial
  1
Global
  0
MLINESTYLE
  5
2D
102
{ACAD_REACTORS
330
2C
102
}
330
2C
100
AcDbMlineStyle
  2
STANDARD
 70
     0
  3

 62
   256
 51
90.0
 52
90.0
 71
     2
 49
0.5
 62
   256
  6
BYLAYER
 49
-0.5
 62
   256
  6
BYLAYER
  0
ACDBPLACEHOLDER
  5
F
102
{ACAD_REACTORS
330
E
102
}
330
E
  0
TABLESTYLE
  5
32
102
{ACAD_XDICTIONARY
360
4B6E
102
}
102
{ACAD_REACTORS
330
31
102
}
330
31
100
AcDbTableStyle
  3
Standard
 70
     0
 71
     0
 40
1.5
 41
1.5
280
     0
281
     0
  7
Standard
140
4.5
170
     2
 62
     0
 63
     7
283
     0
274
    -2
284
     1
 64
     0
275
    -2
285
     1
 65
     0
276
    -2
286
     1
 66
     0
277
    -2
287
     1
 67
     0
278
    -2
288
     1
 68
     0
279
    -2
289
     1
 69
     0
  7
Standard
140
6.0
170
     5
 62
     0
 63
     7
283
     0
274
    -2
284
     1
 64
     0
275
    -2
285
     1
 65
     0
276
    -2
286
     1
 66
     0
277
    -2
287
     1
 67
     0
278
    -2
288
     1
 68
     0
279
    -2
289
     1
 69
     0
  7
Standard
140
4.5
170
     5
 62
     0
 63
     7
283
     0
274
    -2
284
     1
 64
     0
275
    -2
285
     1
 65
     0
276
    -2
286
     1
 66
     0
277
    -2
287
     1
 67
     0
278
    -2
288
     1
 68
     0
279
    -2
289
     1
 69
     0
  0
VISUALSTYLE
  5
1A
102
{ACAD_REACTORS
330
14
102
}
330
14
100
AcDbVisualStyle
  2
2dWireframe
 70
     4
 71
     0
 72
     2
 73
     0
 90
        0
 40
-0.6
 41
-30.0
 62
     5
 63
     7
 74
     1
 91
        4
 64
     7
 65
   257
 75
     1
175
     1
 42
1.0
 92
        0
 66
   257
 43
1.0
 76
     1
 77
     6
 78
     2
 67
     7
 79
     5
170
     0
171
     0
290
     0
174
     0
 93
        1
 44
0.0
173
     0
291
     0
 45
0.0
1001
ACAD
1000
AcDbSavedByObjectVersion
1070
     0
1000
AcDbSavedByObjectVersion
1070
     0
1000
AcDbSavedByObjectVersion
1070
     0
  0
VISUALSTYLE
  5
19
102
{ACAD_REACTORS
330
14
102
}
330
14
100
AcDbVisualStyle
  2
Basic
 70
     7
 71
     1
 72
     0
 73
     1
 90
        0
 40
-0.6
 41
-30.0
 62
     5
 63
     7
 74
     0
 91
        4
 64
     7
 65
   257
 75
     1
175
     1
 42
1.0
 92
        8
 66
     7
 43
1.0
 76
     1
 77
     6
 78
     2
 67
     7
 79
     5
170
     0
171
     0
290
     0
174
     0
 93
        1
 44
0.0
173
     0
291
     1
 45
0.0
1001
ACAD
1000
AcDbSavedByObjectVersion
1070
     0
1000
AcDbSavedByObjectVersion
1070
     0
1000
AcDbSavedByObjectVersion
1070
     0
  0
VISUALSTYLE
  5
20
102
{ACAD_REACTORS
330
14
102
}
330
14
100
AcDbVisualStyle
  2
Brighten
 70
    12
 71
     2
 72
     2
 73
     0
 90
        0
 40
-0.6
 41
-30.0
 62
     5
 63
     7
 74
     1
 91
        4
 64
     7
 65
   257
 75
     1
175
     1
 42
1.0
 92
        8
 66
     7
 43
1.0
 76
     1
 77
     6
 78
     2
 67
     7
 79
     5
170
     0
171
     0
290
     0
174
     0
 93
        1
 44
50.0
173
     0
291
     1
 45
0.0
1001
ACAD
1000
AcDbSavedByObjectVersion
1070
     0
1000
AcDbSavedByObjectVersion
1070
     0
1000
AcDbSavedByObjectVersion
1070
     0
  0
VISUALSTYLE
  5
24
102
{ACAD_REACTORS
330
14
102
}
330
14
100
AcDbVisualStyle
  2
ColorChange
 70
    16
 71
     2
 72
     2
 73
     3
 90
        0
 40
-0.6
 41
-30.0
 62
     5
 63
     8
 74
     1
 91
        4
 64
     7
 65
   257
 75
     1
175
     1
 42
1.0
 92
        8
 66
     8
 43
1.0
 76
     1
 77
     6
 78
     2
 67
     7
 79
     5
170
     0
171
     0
290
     0
174
     0
 93
        1
 44
0.0
173
     0
291
     1
 45
0.0
1001
ACAD
1000
AcDbSavedByObjectVersion
1070
     0
1000
AcDbSavedByObjectVersion
1070
     0
1000
AcDbSavedByObjectVersion
1070
     0
  0
VISUALSTYLE
  5
1F
102
{ACAD_REACTORS
330
14
102
}
330
14
100
AcDbVisualStyle
  2
Dim
 70
    11
 71
     2
 72
     2
 73
     0
 90
        0
 40
-0.6
 41
-30.0
 62
     5
 63
     7
 74
     1
 91
        4
 64
     7
 65
   257
 75
     1
175
     1
 42
1.0
 92
        8
 66
     7
 43
1.0
 76
     1
 77
     6
 78
     2
 67
     7
 79
     5
170
     0
171
     0
290
     0
174
     0
 93
        1
 44
-50.0
173
     0
291
     1
 45
0.0
1001
ACAD
1000
AcDbSavedByObjectVersion
1070
     0
1000
AcDbSavedByObjectVersion
1070
     0
1000
AcDbSavedByObjectVersion
1070
     0
  0
VISUALSTYLE
  5
23
102
{ACAD_REACTORS
330
14
102
}
330
14
100
AcDbVisualStyle
  2
Facepattern
 70
    15
 71
     2
 72
     2
 73
     0
 90
        0
 40
-0.6
 41
-30.0
 62
     5
 63
     7
 74
     1
 91
        4
 64
     7
 65
   257
 75
     1
175
     1
 42
1.0
 92
        8
 66
     7
 43
1.0
 76
     1
 77
     6
 78
     2
 67
     7
 79
     5
170
     0
171
     0
290
     0
174
     0
 93
        1
 44
0.0
173
     0
291
     1
 45
0.0
1001
ACAD
1000
AcDbSavedByObjectVersion
1070
     0
1000
AcDbSavedByObjectVersion
1070
     0
1000
AcDbSavedByObjectVersion
1070
     0
  0
VISUALSTYLE
  5
15
102
{ACAD_REACTORS
330
14
102
}
330
14
100
AcDbVisualStyle
  2
Flat
 70
     0
 71
     2
 72
     1
 73
     1
 90
        2
 40
-0.6
 41
30.0
 62
     5
 63
     7
 74
     0
 91
        4
 64
     7
 65
   257
 75
     1
175
     1
 42
1.0
 92
        8
 66
     7
 43
1.0
 76
     1
 77
     6
 78
     2
 67
     7
 79
     5
170
     0
171
     0
290
     0
174
     0
 93
       13
 44
0.0
173
     0
291
     1
 45
0.0
1001
ACAD
1000
AcDbSavedByObjectVersion
1070
     0
1000
AcDbSavedByObjectVersion
1070
     0
1000
AcDbSavedByObjectVersion
1070
     0
  0
VISUALSTYLE
  5
16
102
{ACAD_REACTORS
330
14
102
}
330
14
100
AcDbVisualStyle
  2
FlatWithEdges
 70
     1
 71
     2
 72
     1
 73
     1
 90
        2
 40
-0.6
 41
30.0
 62
     5
 63
     7
 74
     1
 91
        4
 64
     7
 65
   257
 75
     1
175
     1
 42
1.0
 92
        0
 66
   257
 43
1.0
 76
     1
 77
     6
 78
     2
 67
     7
 79
     5
170
     0
171
     0
290
     0
174
     0
 93
       13
 44
0.0
173
     0
291
     1
 45
0.0
1001
ACAD
1000
AcDbSavedByObjectVersion
1070
     0
1000
AcDbSavedByObjectVersion
1070
     0
1000
AcDbSavedByObjectVersion
1070
     0
  0
VISUALSTYLE
  5
17
102
{ACAD_REACTORS
330
14
102
}
330
14
100
AcDbVisualStyle
  2
Gouraud
 70
     2
 71
     2
 72
     2
 73
     1
 90
        2
 40
-0.6
 41
30.0
 62
     5
 63
     7
 74
     0
 91
        4
 64
     7
 65
   257
 75
     1
175
     1
 42
1.0
 92
        0
 66
     7
 43
1.0
 76
     1
 77
     6
 78
     2
 67
     7
 79
     5
170
     0
171
     0
290
     0
174
     0
 93
       13
 44
0.0
173
     0
291
     1
 45
0.0
1001
ACAD
1000
AcDbSavedByObjectVersion
1070
     0
1000
AcDbSavedByObjectVersion
1070
     0
1000
AcDbSavedByObjectVersion
1070
     0
  0
VISUALSTYLE
  5
18
102
{ACAD_REACTORS
330
14
102
}
330
14
100
AcDbVisualStyle
  2
GouraudWithEdges
 70
     3
 71
     2
 72
     2
 73
     1
 90
        2
 40
-0.6
 41
30.0
 62
     5
 63
     7
 74
     1
 91
        4
 64
     7
 65
   257
 75
     1
175
     1
 42
1.0
 92
        0
 66
   257
 43
1.0
 76
     1
 77
     6
 78
     2
 67
     7
 79
     5
170
     0
171
     0
290
     0
174
     0
 93
       13
 44
0.0
173
     0
291
     1
 45
0.0
1001
ACAD
1000
AcDbSavedByObjectVersion
1070
     0
1000
AcDbSavedByObjectVersion
1070
     0
1000
AcDbSavedByObjectVersion
1070
     0
  0
VISUALSTYLE
  5
22
102
{ACAD_REACTORS
330
14
102
}
330
14
100
AcDbVisualStyle
  2
Linepattern
 70
    14
 71
     2
 72
     2
 73
     0
 90
        0
 40
-0.6
 41
-30.0
 62
     5
 63
     7
 74
     1
 91
        4
 64
     7
 65
   257
 75
     7
175
     7
 42
1.0
 92
        8
 66
     7
 43
1.0
 76
     1
 77
     6
 78
     2
 67
     7
 79
     5
170
     0
171
     0
290
     0
174
     0
 93
        1
 44
0.0
173
     0
291
     1
 45
0.0
1001
ACAD
1000
AcDbSavedByObjectVersion
1070
     0
1000
AcDbSavedByObjectVersion
1070
     0
1000
AcDbSavedByObjectVersion
1070
     0
  0
VISUALSTYLE
  5
21
102
{ACAD_REACTORS
330
14
102
}
330
14
100
AcDbVisualStyle
  2
Thicken
 70
    13
 71
     2
 72
     2
 73
     0
 90
        0
 40
-0.6
 41
-30.0
 62
     5
 63
     7
 74
     1
 91
        4
 64
     7
 65
   257
 75
     1
175
     1
 42
1.0
 92
       12
 66
     7
 43
1.0
 76
     1
 77
     6
 78
     2
 67
     7
 79
     5
170
     0
171
     0
290
     0
174
     0
 93
        1
 44
0.0
173
     0
291
     1
 45
0.0
1001
ACAD
1000
AcDbSavedByObjectVersion
1070
     0
1000
AcDbSavedByObjectVersion
1070
     0
1000
AcDbSavedByObjectVersion
1070
     0
  0
DICTIONARYVAR
  5
1BE
102
{ACAD_REACTORS
330
1BD
102
}
330
1BD
100
DictionaryVariables
280
     0
  1
STANDARD
  0
DICTIONARYVAR
  5
1DA4
102
{ACAD_REACTORS
330
1BD
102
}
330
1BD
100
DictionaryVariables
280
     0
  1
2
  0
DICTIONARYVAR
  5
1DA3
102
{ACAD_REACTORS
330
1BD
102
}
330
1BD
100
DictionaryVariables
280
     0
  1
1
  0
DICTIONARYVAR
  5
1DA2
102
{ACAD_REACTORS
330
1BD
102
}
330
1BD
100
DictionaryVariables
280
     0
  1
0
  0
DICTIONARYVAR
  5
1DA1
102
{ACAD_REACTORS
330
1BD
102
}
330
1BD
100
DictionaryVariables
280
     0
  1
127
  0
XRECORD
  5
1D95
102
{ACAD_REACTORS
330
1D94
102
}
330
1D94
100
AcDbXrecord
280
     1
330
0
330
0
330
0
330
0
330
0
330
0
330
0
330
0
330
0
330
0
330
0
330
0
330
1965
330
1966
330
0
330
0
330
0
330
0
330
0
330
1859
330
171E
330
1720
330
172B
330
172C
330
1736
330
1738
330
1942
330
174E
330
1750
330
1D07
330
17E4
330
17E5
330
17E6
330
17E7
330
17E8
330
17E9
330
17EA
330
17EB
330
17EC
330
17ED
330
17EE
330
17EF
330
1D32
  0
BLOCKBASEPOINTPARAMETER
  5
1D1A
330
1D19
100
AcDbEvalExpr
 90
        2
 98
       27
 99
        2
100
AcDbBlockElement
300
Basispunkt
 98
       25
 99
      104
1071
        0
100
AcDbBlockParameter
280
     1
281
     0
100
AcDbBlock1PtParameter
1010
0.0
1020
0.0
1030
0.0
 93
        0
170
     0
171
     0
100
AcDbBlockBasepointParameter
1011
0.0
1021
0.0
1031
0.0
1012
0.0
1022
0.0
1032
0.0
  0
ACDB_BLOCKREPRESENTATION_DATA
  5
1B74
102
{ACAD_REACTORS
330
1B73
102
}
330
1B73
100
AcDbBlockRepresentationData
 70
     1
340
1765
  0
DICTIONARY
  5
1D6A
102
{ACAD_REACTORS
330
1B73
102
}
330
1B73
100
AcDbDictionary
280
     1
281
     1
  3
ACAD_ENHANCEDBLOCKDATA
360
1D6B
  0
DICTIONARY
  5
BC1
330
36
100
AcDbDictionary
280
     1
281
     1
  3
ACAD_XREC_ROUNDTRIP
360
4B70
  3
ADSK_XREC_LAYOUTTHUMBNAIL
360
BC2
  0
DICTIONARY
  5
4B73
330
3E
100
AcDbDictionary
280
     1
281
     1
  3
ACAD_XREC_ROUNDTRIP
360
4B74
  0
DICTIONARY
  5
4B71
330
3A
100
AcDbDictionary
280
     1
281
     1
  3
ACAD_XREC_ROUNDTRIP
360
4B72
  0
DICTIONARY
  5
1DA8
330
12
100
AcDbDictionary
280
     1
281
     1
  3
ACAD_XREC_ROUNDTRIP
360
1DA9
  0
DICTIONARY
  5
1DA6
330
11
100
AcDbDictionary
280
     1
281
     1
  3
ACAD_XREC_ROUNDTRIP
360
1DA7
  0
DICTIONARY
  5
1DAA
330
13
100
AcDbDictionary
280
     1
281
     1
  3
ACAD_XREC_ROUNDTRIP
360
1DAB
  0
DICTIONARY
  5
4B6E
330
32
100
AcDbDictionary
280
     1
281
     1
  3
ACAD_XREC_ROUNDTRIP
360
4B6F
  0
DICTIONARY
  5
1D6B
102
{ACAD_REACTORS
330
1D6A
102
}
330
1D6A
100
AcDbDictionary
280
     1
281
     1
  3
2
360
1D6C
  0
XRECORD
  5
4B70
102
{ACAD_REACTORS
330
BC1
102
}
330
BC1
100
AcDbXrecord
280
     1
102
SHADEPLOT
 70
     0
102
SHADEPLOTRESLEVEL
 70
     2
102
SHADEPLOTCUSTOMDPI
 70
   300
  0
XRECORD
  5
BC2
102
{ACAD_REACTORS
330
BC1
102
}
330
BC1
100
AcDbXrecord
280
     1
310
28000000B40000007F00000001000800000000004C59000000000000000000000001000000000000FFFFFF0000000000FFFFFF000000000000000000000000000000000000000000000000000000000000000000330000006600000099000000CC000000FF00000000330000333300006633000099330000CC330000FF3300
310
0000660000336600006666000099660000CC660000FF66000000990000339900006699000099990000CC990000FF99000000CC000033CC000066CC000099CC0000CCCC0000FFCC000000FF000033FF000066FF000099FF0000CCFF0000FFFF000000003300330033006600330099003300CC003300FF003300003333003333
310
33006633330099333300CC333300FF33330000663300336633006666330099663300CC663300FF66330000993300339933006699330099993300CC993300FF99330000CC330033CC330066CC330099CC3300CCCC3300FFCC330000FF330033FF330066FF330099FF3300CCFF3300FFFF330000006600330066006600660099
310
006600CC006600FF00660000336600333366006633660099336600CC336600FF33660000666600336666006666660099666600CC666600FF66660000996600339966006699660099996600CC996600FF99660000CC660033CC660066CC660099CC6600CCCC6600FFCC660000FF660033FF660066FF660099FF6600CCFF6600
310
FFFF660000009900330099006600990099009900CC009900FF00990000339900333399006633990099339900CC339900FF33990000669900336699006666990099669900CC669900FF66990000999900339999006699990099999900CC999900FF99990000CC990033CC990066CC990099CC9900CCCC9900FFCC990000FF99
310
0033FF990066FF990099FF9900CCFF9900FFFF99000000CC003300CC006600CC009900CC00CC00CC00FF00CC000033CC003333CC006633CC009933CC00CC33CC00FF33CC000066CC003366CC006666CC009966CC00CC66CC00FF66CC000099CC003399CC006699CC009999CC00CC99CC00FF99CC0000CCCC0033CCCC0066CC
310
CC0099CCCC00CCCCCC00FFCCCC0000FFCC0033FFCC0066FFCC0099FFCC00CCFFCC00FFFFCC000000FF003300FF006600FF009900FF00CC00FF00FF00FF000033FF003333FF006633FF009933FF00CC33FF00FF33FF000066FF003366FF006666FF009966FF00CC66FF00FF66FF000099FF003399FF006699FF009999FF00CC
310
99FF00FF99FF0000CCFF0033CCFF0066CCFF0099CCFF00CCCCFF00FFCCFF0000FFFF0033FFFF0066FFFF0099FFFF00CCFFFF00FFFFFF00000000000D0D0D001A1A1A00282828003535350043434300505050005D5D5D006B6B6B00787878008686860093939300A1A1A100AEAEAE00BBBBBB00C9C9C900D6D6D600E4E4E400
310
F1F1F100FFFFFF0000000000000000000000000000000000000000000000000000000000000000000000000000000000E2E2E2E2E2E2E2E2E2E2E2E2E2E2E2E2E2E2E2E2E2E2E2E2E2E2E2E2E2E2E2E2E2E2E2E2E2E2E2E2E2E2E2E2E2E2E2E2E2E2E2E2E2E2E2E2E2E2E2E2E2E2E2E2E2E2E2E2E2E2E2E2E2E2E2E2E2E2E2
310
E2E2E2E2E2E2E2E2E2E2E2E2E2E2E2E2E2E2E2E2E2E2E2E2E2E2E2E2E2E2E2E2E2E2E2E2E2E2E2E2E2E2E2E2E2E2E2E2E2E2E2E2E2E2E2E2E2E2E2E2E2E2E2E2E2E2E2E2E2E2E2E2E2E2E2E2E2E2E2E2E2E2E2E2E2E2E2E2E2E2E2E2E2E2E2E2E2E2E2E2E2E2F5F5F5F5F5F5F5F5F5F5F5F5F5F5F5F5F5F5F5F5F5F5F5F5F5
310
F5F5F5F5F5F5F5F5F5F5F5F5F5F5F5F5F5F5F5F5F5F5F5F5F5F5F5F5F5F5F5F5F5F5F5F5F5F5F5F5F5F5F5F5F5F5F5F5F5F5F5F5F5F5F5F5F5F5F5F5F5F5F5F5F5F5F5F5F5F5F5F5F5F5F5F5F5F5F5F5F5F5F5F5F5F5F5F5F5F5F5F5F5F5F5F5F5F5F5F5F5F5F5F5F5F5F5F5F5F5F5F5F5F5F5F5F5F5F5F5F5F5F5F5F5F5F5
310
F5F5F5F5F5F5F5F5F5F5F5F5F5F5F5F5F5F5F5F5F5F5F5F5F5E2E2E2F5E2E2E2E2E2E2E2E2F5F5F5F5F5F5F5F5F5E2E2E2E2E2E2E2E2E2E2E2E2E2E2E2E2F5F5F5F5F5F5F5F5F5E2E2E2E2E2E2E2E2E2E2E2E2E2E2E2E2F5F5F5F5F5F5F5F5F5E2E2E2E2E2E2E2E2E2E2E2E2E2E2E2E2F5F5F5F5F5F5F5F5F5E2E2E2E2E2E2
310
E2E2E2E2E2E2E2E2E2E2F5F5F5F5F5F5F5F5F5E2E2E2E2E2E2E2E2E2E2E2E2E2E2E2E2F5F5F5F5F5F5F5F5F5E2E2E2E2E2E2E2E2E2E2E2E2E2E2E2E2F5F5F5F5F5F5F5F5F5E2E2E2E2E2E2E2E2F5E2E2E2F5E2F5F5F5F5F5F5F5F5F5F5F5F5F5F5F5F5F5F5F5F5F5F5F5F5F5F5F5F5F5F5F5F5F5F5F5F5F5F5F5F5F5F5F5F5
310
F5F5F5F5F5F5F5F5F5F5F5F5F5F5F5F5F5F5F5F5F5F5F5F5F5F5F5F5F5F5F5F5F5F5F5F5F5F5F5F5F5F5F5F5F5F5F5F5F5F5F5F5F5F5F5F5F5F5F5F5F5F5F5F5F5F5F5F5F5F5F5F5F5F5F5F5F5F5F5F5F5F5F5F5F5F5F5F5F5F5F5F5F5F5F5F5F5F5F5F5F5F5F5F5F5F5F5F5F5F5F5F5F5F5F5F5F5F5F5F5F5F5F5F5F5F5F5
310
F5F5E2F5E2E2E2F5E2F5F5F5F5F5F5F5F5F5F5F5F5F5F5F5F5F5F5F5F5F5F5F5F5F5F5F5F5F5F5F5F5F5F5F5F5F5F5F5F5F5F5F5F5F5F5F5F5F5F5F5F5F5F5F5F5F5F5F5F5F5F5F5F5F5F5F5F5F5F5F5F5F5F5F5F5F5F5F5F5F5F5F5F5F5F5F5F5F5F5F5F5F5F5F5F5F5F5F5F5F5F5F5F5F5F5F5F5F5F5F5F5F5F5F5F5F5F5
310
F5F5F5F5F5F5F5F5F5F5F5F5F5F5F5F5F5F5F5F5F5F5F5F5F5F5F5F5F5F5F5F5F5F5F5F5F5F5F5F5F5F5F5F5F5F5F5F5F5F5F5F5F5F5F5E2F5E2E2E2F5E2F5F5F5F5F5F5F5F5F5F5F5F5F5F5F5F5F5F5F5F5F5F5F5F5F5F5F5F5F5F5F5F5F5F5F5F5F5F5F5F5F5F5F5F5F5F5F5F5F5F5F5F5F5F5F5F5F5F5F5F5F5F5F5F5F5
310
F5F5F5F5F5F5F5F5F5F5F5F5F5F5F5F5F5F5F5F5F5F5F5F5F5F5F5F5F5F5F5F5F5F5F5F5F5F5F5F5F5F5F5F5F5F5F5F5F5F5F5F5F5F5F5F5F5F5F5F5F5F5F5F5F5F5F5F5F5F5F5F5F5F5F5F5F5F5F5F5F5F5F5F5F5F5F5F5F5F5F5F5F5F5F5F5F5F5F5F5F5F5F5F5F5F5F5F5E2F5E2E2E2F5E2F5F5F5F5F5F5F5F5F5F5F5F5
310
F5F5F5F5F5F5F5F5F5F5F5F5F5F5F5F5F5F5F5F5F5F5F5F5F5F5F5F5F5F5F5F5F5F5F5F5F5F5F5F5F5F5F5F5F5F5F5F5F5F5F5F5F5F5F5F5F5F5F5F5F5F5F5F5F5F5F5F5F5F5F5F5F5F5F5F5F5F5F5F5F5F5F5F5F5F5F5F5F5F5F5F5F5F5F5F5F5F5F5F5F5F5F5F5F5F5F5F5F5F5F5F5F5F5F5F5F5F5F5F5F5F5F5F5F5F5F5
310
F5F5F5F5F5F5F5F5F5F5F5F5F5F5F5F5F5F5F5F5F5F5F5F5F5F5F5F5F5F5F5F5F5F5E2F5E2E2E2F5E2F5F5F5F5F5F5F5F5F5F5F5F5F5F5F5F5F5F5F5F5F5F5F5F5F5F5F5F5F5F5F5F5F5F5F5F5F5F5F5F5F5F5F5F5F5F5F5F5F5F5F5F5F5F5F5F5F5F5F5F5F5F5F5F5F5F5F5F5F5F5F5F5F5F5F5F5F5F5F5F5F5F5F5F5F5F5
310
F5F5F5F5F5F5F5F5F5F5F5F5F5F5F5F5F5F5F5F5F5F5F5F5F5F5F5F5F5F5F5F5F5F5F5F5F5F5F5F5F5F5F5F5F5F5F5F5F5F5F5F5F5F5F5F5F5F5F5F5F5F5F5F5F5F5F5F5F5F5F5F5F5F5F5F5F5F5F5F5F5F5F5F5F5F5F5E2F5E2E2E2F5E2F5F5F5F5F5F5F5F5F5F5F5F5F5F5F5F5F5F5F5F5F5F5F5F5F5F5F5F5F5F5F5F5F5
310
F5F5F5F5F5F5F5F5F5F5F5F5F5F5F5F5F5F5F5F5F5F5F5F5F5F5F5F5F5F5F5F5F5F5F5F5F5F5F5F5F5F5F5F5F5F5F5F5F5F5F5F5F5F5F5F5F5F5F5F5F5F5F5F5F5F5F5F5F5F5F5F5F5F5F5F5F5F5F5F5F5F5F5F5F5F5F5F5F5F5F5F5F5F5F5F5F5F5F5F5F5F5F5F5F5F5F5F5F5F5F5F5F5F5F5F5F5F5F5F5F5F5F5F5F5F5F5
310
F5F5F5F5F5F5F5F5F5F5F5F5F5E2F5E2E2E2F5E2F5F5F5F5F5F5F5F5F5F5F5F5F5F5F5F5F5F5F5F5F5F5F5F5F5F5F5F5F5F5F5F5F5F5F5F5F5F5F5F5F5F5F5F5F5F5F5F5F5F5F5F5F5F5F5F5F5F5F5F5F5F5F5F5F5F5F5F5F5F5F5F5F5F5F5F5F5F5F5F5F5F5F5F5F5F5F5F5F5F5F5F5F5F5F5F5F5F5F5F5F5F5F5F5F5F5F5
310
F5F5F5F5F5F5F5F5F5F5F5F5F5F5F5F5F5F5F5F5F5F5F5F5F5F5F5F5F5F5F5F5F5F5F5F5F5F5F5F5F5F5F5F5F5F5F5F5F5F5F5F5F5F5F5F5F5F5F5F5F5F5F5F5F5F5E2F5E2E2E2F5F5F5F5F5F5F5F5F5F5F5F5F5F5F5F5F5F5F5F5F5F5F5F5F5F5F5F5F5F5F5F5F5F5F5F5F5F5F5F5F5F5F5F5F5F5F5F5F5F5F5F5F5F5F5F5
310
F5F5F5F5F5F5F5F5F5F5F5F5F5F5F5F5F5F5F5F5F5F5F5F5F5F5F5F5F5F5F5F5F5F5F5F5F5F5F5F5F5F5F5F5F5F5F5F5F5F5F5F5F5F5F5F5F5F5F5F5F5F5F5F5F5F5F5F5F5F5F5F5F5F5F5F5F5F5F5F5F5F5F5F5F5F5F5F5F5F5F5F5F5F5F5F5F5F5F5F5F5F5F5F5F5F5F5F5F5F5F5F5F5F5F5F5F5F5F5F5F5E2E2E2F5F5F5
310
F5F5F5F5F5F5F5F5F5F5F5F5F5F5F5F5F5F5F5F5F5F5F5F5F5F5F5F5F5F5F5F5F5F5F5F5F5F5F5F5F5F5F5F5F5F5F5F5F5F5F5F5F5F5F5F5F5F5F5F5F5F5F5F5F5F5F5F5F5F5F5F5F5F5F5F5F5F5F5F5F5F5F5F5F5F5F5F5F5F5F5F5F5F5F5F5F5F5F5F5F5F5F5F5F5F5F5F5F5F5F5F5F5F5F5F5F5F5F5F5F5F5F5F5F5F5F5
310
F5F5F5F5F5F5F5F5F5F5F5F5F5F5F5F5F5F5F5F5F5F5F5F5F5F5F5F5F5F5F5F5F5F5F5F5F5F5F5F5F5F5F5F5F5F5F5E2E2E2F5F5F5F5F5F5F5F5F5F5F5F5F5F5F5F5F5F5F5F5F5F5F5F5F5F5F5F5F5F5F5F5F5F5F5F5F5F5F5F5F5F5F5F5F5F5F5F5F5F5F5F5F5F5F5F5F5F5F5F5F5F5F5F5F5F5F5F5F5F5F5F5F5F5F5F5F5
310
F5F5F5F5F5F5F5F5F5F5F5F5F5F5F5F5F5F5F5F5F5F5F5F5F5F5F5F5F5F5F5F5F5F5F5F5F5F5F5F5F5F5F5F5F5F5F5F5F5F5F5F5F5F5F5F5F5F5F5F5F5F5F5F5F5F5F5F5F5F5F5F5F5F5F5F5F5F5F5F5F5F5F5F5F5F5F5F5F5F5F5F5F5F5F5F5F5F5F5F5E2E2E2F5F5F5F5F5F5F5F5F5F5F5F5F5F5F5F5F5F5F5F5F5F5F5F5
310
F5F5F5F5F5F5F5F5F5F5F5F5F5F5F5F5F5F5F5F5F5F5F5F5F5F5F5F5F5F5F5F5F5F5F5F5F5F5F5F5F5F5F5F5F5F5F5F5F5F5F5F5F5F5F5F5F5F5F5F5F5F5F5F5F5F5F5F5F5F5F5F5F5F5F5F5F5F5F5F5F5F5F5F5F5F5F5F5F5F5F5F5F5F5F5F5F5F5F5F5F5F5F5F5F5F5F5F5F5F5F5F5F5F5F5F5F5F5F5F5F5F5F5F5F5F5F5
310
F5F5F5F5F5F5F5F5F5F5F5F5F5F5F5F5F5F5F5F5F5F5F5F5F5F5E2E2E2E2E2E2E2E2E2E2E2E2E2E2E2E2E2E2E2E2E2E2E2E2E2E2E2E2E2E2E2E2E2E2E2E2E2E2E2E2E2E2E2E2E2E2E2E2E2E2E2E2E2E2E2E2E2E2E2E2E2E2E2E2E2E2E2E2E2E2E2E2E2E2E2E2E2E2E2E2E2E2E2E2E2E2E2E2E2E2E2E2E2E2E2E2E2E2E2E2E2
310
E2E2E2E2E2E2E2E2E2E2E2E2E2E2E2E2E2E2E2E2E2E2E2E2E2E2E2E2E2E2E2E2E2E2E2E2E2E2E2E2E2E2E2E2E2E2E2E2E2E2E2E2E2E2E2E2E2E2E2E2E2E2E2E2E2E2E2E2F5F5F5F5F5F5F5F5F5F5F5E2E2E2E2F5F5F5F5F5F5F5F5F5F5F5F5F5F5F5F5F5F5F5F5F5F5F5F5F5F5F5F5F5F5F5F5F5F5F5F5F5F5F5F5F5F5F5F5
310
F5F5F5F5F5F5F5F5F5F5F5F5F5F5F5F5F5F5F5F5F5F5F5F5F5F5F5F5F5F5F5F5F5F5F5F5F5F5F5F5F5F5F5F5F5F5F5F5F5F5F5F5F5F5F5F5F5F5F5F5F5F5F5F5F5F5F5F5F5F5F5F5F5F5F5F5F5F5F5F5F5F5F5F5F5F5F5F5F5F5F5F5F5F5F5F5F5F5F5F5F5F5F5F5F5F5F5F5F5F5F5F5F5F5F5F5F5F5F5F5E2F5F5F5F5F5F5
310
F5F5F5F5F5E2E2E2E2F5F5F5F5F5F5F5F5F5F5F5F5F5F5F5F5F5F5F5F5F5F5F5F5F5F5F5F5F5F5F5F5F5F5F5F5F5F5F5F5F5F5F5F5F5F5F5F5F5F5F5F5F5F5F5F5F5F5F5F5F5F5F5F5F5F5F5F5F5F5F5F5F5F5F5F5F5F5F5F5F5F5F5F5F5F5F5F5F5F5F5F5F5F5F5F5F5F5F5F5F5F5F5F5F5F5F5F5F5F5F5F5F5F5F5F5F5F5
310
F5F5F5F5F5F5F5F5E2E2E2E2E2E2E2E2E2E2E2E2F5F5F5F5F5F5F5F5F5F5F5F5F5F5F5F5F5F5F5F5F5F5F5F5F5F5E2F5F5F5F5F5F5F5F5F5F5F5E2E2E2E2F5F5F5F5F5F5F5F5F5F5F5F5F5F5F5F5F5F5F5F5F5F5F5F5F5F5F5F5F5F5F5F5F5F5F5F5F5F5F5F5F5F5F5F5F5F5F5F5F5F5F5F5F5F5F5F5F5F5F5F5F5F5F5F5F5
310
F5F5F5F5F5F5F5F5F5F5F5F5F5F5F5F5F5F5F5F5F5F5F5F5F5F5F5F5F5F5F5F5F5F5F5F5F5F5F5F5F5F5F5F5F5F5F5F5F5F5F5F5F5F5F5F5F5F5F5F5F5E2E2E2E2E2E2E2E2E2E2E2E2F5F5F5F5F5F5F5F5F5F5F5F5F5F5F5F5F5F5F5F5F5F5F5F5F5F5E2F5F5F5F5F5F5F5F5F5F5F5E2E2E2E2F5F5F5F5F5F5F5F5F5F5F5F5
310
F5F5F5F5F5F5F5F5F5F5F5F5F5F5F5F5F5F5F5F5F5F5F5F5F5F5F5F5F5F5F5F5F5F5F5F5F5F5282828282828282828282828282828282828282828282828282828282828F5F5F5F5F5F5F5F5F5F5F5F5F5F5F5F5F5F5F5F5F5F5F5F5F5F5F5F5F52828282828282828282828282828282828F5F5F5E2E2E2F5F5F5F5F5F5F5
310
F5F5F5F5F5F5F5F5F5F5F5F5F5F5F5F5F5F5F5F5F5F5F5F5F5E2F5F5F5F5F5F5F5F5F5F5F5E2E2E2E2E2F5F5F5F5F5F52828282828282828282828282828282828282828282828282828282828282828282828282828282828F5F528E2E2E2E2E2E2E2E2E2E2E2E2E2E2E2E2E2E2E2E2E2E2E2E2E2E2E2E2E2F5F5F5282828
310
28282828282828282828282828282828282828F5F5F5F528E2E2E2E2E2E2E2E2E2E2E2E2E2E2E2E2E2E2E2E2E2E2E2E2E2E2E2E2F5F5F5F5F5F5F5F5F5F5F5F5F5F5F5F5F5F5F5F5F5F5F5F5F5F5E2F5F5F5F5F5F5F5F5F5E2F5E2E2E2E2E2F5F5F5F5F5F528E2E2E2E2E2E2E2E2E2E2E2E2E2E2E2E2E2E2E2E2E2E2E2E2E2
310
E2E2E2E2E2E2E2E2E2E2E2E2E2E2E2F5F528E2E2E2E2E2E2E2E2E2E2E2E2E2E2E2E2E2E2E2E2E2E2E2E2E2E2E2E2E2F5F5F528E2E2E2E2E2E2E2E2E2E2E2E2E2E2E2E2E2E2E2E2E2F5F5F5F528E2E2E2E2E2E2E2E2E2E2E2E2E2E2E2E2F5E2E2E2E2E2E2E2E2E2E2E2F5F5F5F5F5F5F5F5F5F5F5F5F5F5F5F5F5F5F5F5F5F5
310
F5F5F5F5E2F5F5F5F5F5F5F5F5F5E2F5E2E2E2E2E2F5F5F5F5F5F528E2E2E2E2E2E2E2E2E2E2E2E2E2E2E2E2E2E2E2E2E2E2E2E2E2E2E2E2E2E2E2E2E2E2E2E2E2E2E2E2F5F528E2E2F5F5F5F5F5F5F5F5F5F5F5F5F5F5F5F5F5F5F5F5F5F5F5F5F5E2E2F5F5F528E2E2E2E2E2E2E2E2E2E2E2E2E2E2E2E2E2E2E2E2E2F5F5
310
F5F528E2E2F5F5F5F5F5F5F5F5F5F5F5E2E2E2F5E2E2E2E2E2E2E2E2E2E2E2F5F5F5F5F5F5F5F5F5F5F5F5F5F5F5F5F5F5F5F5F5F5F5F5F5F5E2F5F5F5F5F5F5F5F5F5E2F5E2E2E2E2E2F5F5F5F5F5F528E2E2F5F5F5F5F5F5F5F5F5F5F5F5F5F5F5F5F5F5F5F5F5F5F5F5F5F5F5F5F5F5F5F5F5F5F5E2E2E2F5F528E2E2F5
310
F5F5F5F5F5F5F5F5F5F5F5F5F5F5F5F5F5F5F5F5F5F5F5F5E2E2F5F5F528E2E2F5F5F5F5F5F5F5F5F5F5F5F5F5F5F5F5F5E2E2F5F5F5F528E2E2F5F5F5F5F5F5F5F5F5F5F5E2E2E2E2E2E2E2E2E2E2E2E2E2E2E2F5F5F5F5F5F5F5F5F5F5F5F5F5F5F5F5F5F5F5F5F5F5F5F5F5F5E2F5F5F5F5F5F5F5F5F5E2F5E2E2E2E2E2
310
F5F5F5F5F5F528E2E2F5F5F5F5F5F5F5F5F5F5F5F5F5F5F5F5F5F5F5F5F5F5F5F5F5F5F5F5F5F5F5F5F5F5F5E2E2E2F5F528E2E2F5F5F5F5F5F5F5F5F5F5F5F5F5F5F5F5F5F5F5F5F5F5F5F5F5E2E2F5F5F528E2E2F5F5F5F5F5F5F5F5F5F5F5F5F5F5F5F5F5E2E2F5F5F5F528E2E2F5F5F5F5F5F5F5F5F5F5F5E2E2E2F5F5
310
F5E2E2E2F5F5F5F5F5F5F5F5F5F5F5F5F5F5F5F5F5F5F5F5F5F5F5F5F5F5F5F5F5F5F5F5E2F5F5F5F5F5F5F5F5F5E2F5E2E2E2E2E2F5F5F5F5F5F528E2E2F5F5F5F5F5F5F5F5F5F5F5F5F5F5F5F5F5F5F5F5F5F5F5F5F5F5F5F5F5F5F5F5F5F5F5E2E2E2F5F528E2E2F5F5F5F5F5F5F5F5F5F5F5F5F5F5F5F5F5F5F5F5F5F5
310
F5F5F5E2E2F5F5F528E2E2F5F5F5F5F5F5F5F5F5F5F5F5F5F5F5F5F5E2E2F5F5F5F528E2E2F5F5F5F5F5F5F5F5F5F5F5E2E2E2E2E2E2E2E2E2E2E2E2E2E2E2F5F5F5F5F5F5F5F5F5F5F5F5F5F5F5F5F5F5F5F5F5F5F5F5F5F5E2F5F5F5F5F5F5F5F5F5E2F5E2E2E2E2E2F5F5F5F5F5F528E2E2F5F5F5F5F5F5F5F5F5F5F5F5
310
F5F5F5F5F5F5F5F5F5F5F5F5F5F5F5F5F5F5F5F5F5F5F5E2E2E2F5F528E2E2F5F5F5F5F5F5F5F5F5F5F5F5F5F5F5F5F5F5F5F5F5F5F5F5F5E2E2F5F5F528E2E2F5F5F5F5F5F5F5F5F5F5F5F5F5F5F5F5F5E2E2F5F5F5F528E2E2F5F5F5F5F5F5F5F5F5F5F5E2E2E2E2E2E2E2E2E2E2E2E2E2E2E2F5F5F5F5F5F5F5F5F5F5F5
310
F5F5F5F5F5F5F5F5F5F5F5F5F5F5F5E2F5F5F5F5F5F5F5F5F5E2F5E2E2E2E2E2F5F5F5F5F5F528E2E2F5F5F5F5F5F5F5F5F5F5F5F5F5F5F5F5F5F5F5F5F5F5F5F5F5F5F5F5F5F5F5F5F5F5F5E2E2E2F5F528E2E2F5F5F5F5F5F5F5F5F5F5F5F5F5F5F5F5F5F5F5F5F5F5F5F5F5E2E2F5F5F528E2E2F5F5F5F5F5F5F5F5F5F5
310
F5F5F5F5F5F5F5E2E2F5F5F5F528E2E2F5F5F5F5F5F5F5F5F5F5F5E2E2E2F5F5E2E2E2E2E2E2E2E2E2E2F5F5F5F5F5F5F5F5F5F5F5F5F5F5F5F5F5F5F5F5F5F5F5F5F5F5E2F5F5F5F5F5F5F5F5F5E2F5E2E2E2E2E2F5F5F5F5F5F528E2E2F5F5F5F5F5F5F5F5F5F5F5F5F5F5F5F5F5F5F5F5F5F5F5F5F5F5F5F5F5F5F5F5F5
310
F5F5E2E2E2F5F528E2E2F5F5F5F5F5F5F5F5F5F5F5F5F5F5F5F5F5F5F5F5F5F5F5F5F5E2E2F5F5F528E2E2F5F5F5F5F5F5F5F5F5F5F5F5F5F5F5F5F5E2E2F5F5F5F528E2E2F5F5F5F5F5F5F5F5F5F5F5E2E2E2E2E2E2E2E2E2E2E2E2E2E2E2F5F5F5F5F5F5F5F5F5F5F5F5F5F5F5F5F5F5F5F5F5F5F5F5F5F5E2F5F5F5F5F5
310
F5F5F5F5E2F5E2E2E2E2E2F5F5F5F5F5F528E2E2F5F5F5F5F5F5F5F5F5F5F5F5F5F5F5F5F5F5F5F5F5F5F5F5F5F5F5F5F5F5F5F5F5F5F5E2E2E2F5F528E2E2F5F5F5F5F5F5F5F5F5F5F5F5F5F5F5F5F5F5F5F5F5F5F5F5F5E2E2F5F5F528E2E2F5F5F5F5F5F5F5F5F5F5F5F5F5F5F5F5F5E2E2F5F5F5F528E2E2F5F5F5F5F5
310
F5F5F5F5F5F5E2E2E2F5F5F5F5F5F5F5F5F5F5F5F5F5F5F5F5F5F5F5F5F5F5F5F5F5F5F5F5F5F5F5F5F5F5F5F5F5F5E2F5F5F5F5F5F5F5F5F5E2F5E2E2E2E2E2F5F5F5F5F5F528E2E2F5F5F5F5F5F5F5F5F5F5F5F5F5F5F5F5F5F5F5F5F5F5F5F5F5F5F5F5F5F5F5F5F5F5F5E2E2E2F5F528E2E2F5F5F5F5F5F5F5F5F5F5F5
310
F5F5F5F5F5F5F5F5F5F5F5F5F5F5E2E2F5F5F528E2E2F5F5F5F5F5F5F5F5F5F5F5F5F5F5F5F5F5E2E2F5F5F5F528E2E2F5F5F5F5F5F5F5F5F5F5F5E2E2E2E2E2E2E2E2E2E2E2E2E2E2E2F5F5F5E2E2E2E2E2E2E2E2E2E2E2E2F5F5F5F5F5F5F5F5F5F5F5E2F5F5F5F5F5F5F5F5F5E2F5E2E2E2E2E2F5F5F5F5F5F528E2E2F5
310
F5F5F5F5F5F5F5F5F5F5F5F5F5F5F5F5F5F5F5F5F5F5F5F5F5F5F5F5F5F5F5F5F5F5E2E2E2F5F528E2E2F5F5F5F5F5F5F5F5F5F5F5F5F5F5F5F5F5F5F5F5F5F5F5F5F5E2E2F5F5F528E2E2F5F5F5F5F5F5F5F5F5F5F5F5F5F5F5F5F5E2E2F5F5F5F528E2E2F5F5F5F5F5F5F5F5F5F5F5E2E2E2E2E2E2E2E2E2E2E2E2E2E2E2
310
F5F5F5F5E2E2E2E2E2E2E2E2E2E2E2F5F5F5F5F5F5F5F5F5F5F5E2F5F5F5F5F5F5F5F5F5E2F5E2E2E2E2E2F5F5F5F5F5F528E2E2F5F5F5F5F5F5F5F5F5F5F5F5F5F5F5F5F5F5F5F5F5F5F5F5F5F5F5F5F5F5F5F5F5F5F5E2E2E2F5F528E2E2F5F5F5F5F5F5F5F5F5F5F5F5F5F5F5F5F5F5F5F5F5F5F5F5F5E2E2F5F5F528E2
310
E2F5F5F5F5F5F5F5F5F5F5F5F5F5F5F5F5F5E2E2F5F5F5F528E2E2F5F5F5F5F5F5F5F5F5F5F5E2E2E2F5F5F5F5F5F5F5F5F5F5F5F5F5F5F5F5F5F5F5F5F5F5F5F5F5F5F5F5F5F5F5F5F5F5F5F5F5F5E2F5F5F5F5F5F5F5F5F5E2F5E2E2E2E2E2F5F5F5F5F5F528E2E2F5F5F5F5F5F5F5F5F5F5F5F5F5F5F5F5F5F5F5F5F5F5
310
F5F5F5F5F5F5F5F5F5F5F5F5F5E2E2E2F5F528E2E2F5F5F5F5F5F5F5F5F5F5F5F5F5F5F5F5F5F5F5F5F5F5F5F5F5E2E2F5F5F528E2E2F5F5F5F5F5F5F5F5F5F5F5F5F5F5F5F5F5E2E2F5F5F5F528E2E2F5F5F5F5F5F5F5F5F5F5F5E2E2E2F5F5F5F5F5F5F5F5F5F5F5F5F5F5F5F5F5F5F5F5F5F5F5F5F5F5F5F5F5F5F5F5F5
310
F5F5F5F5F5E2F5F5F5F5F5F5F5F5F5E2F5E2E2E2E2E2F5F5F5F5F5F528E2E2F5F5F5F5F5F5F5F5F5F5F5F5F5F5F5F5F5F5F5F5F5F5F5F5F5F5F5F5F5F5F5F5F5F5F5E2E2E2F5F528E2E2F5F5F5F5F5F5F5F5F5F5F5F5F5F5F5F5F5F5F5F5F5F5F5F5F5E2E2F5F5F528E2E2E2E2E2E2E2E2E2E2E2E2E2E2E2E2E2E2E2E2E2F5
310
F5F5F528E2E2F5F5F5F5F5F5F5F5F5F5F5E2E2E2F5F5F5F5F5F5F5F5F5F5F5F5F5F5F5F5F5F5E2E2E2F5F5F5F5F5F5F5F5F5F5F5F5F5F5F5F5F5E2F5F5F5F5F5F5F5F5F5E2F5E2E2E2E2E2F5F5F5F5F5F528E2E2F5F5F5F5F5F5F5F5F5F5F5F5F5F5F5F5F5F5F5F5F5F5F5F5F5F5F5F5F5F5F5F5F5F5F5E2E2E2F5F528E2E2
310
F5F5F5F5F5F5F5F5F5F5F5F5F5F5F5F5F5F5F5F5F5F5F5F5F5E2E2F5F5F528E2E2E2E2E2E2E2E2E2E2E2E2E2E2E2E2E2E2E2E228F5F5F5F528E2E2F5F5F5F5F5F5F5F5F5F5F5E2E2E2F5F5F5F5F5F5F5F5F5F5F5F5F5F5F5E2E2E2E2E2E2E2E2E2E2E2E2F5F5F5F5F5F5F5F5F5F5F5E2F5F5F5F5F5F5F5F5F5E2F5E2E2E2E2
310
F5F5F5F5F5F5F528E2E2F5F5F5F5F5F5F5F5F5F5F5F5F5F5F5F5F5F5F5F5F5F5F5F5F5F5F5F5F5F5F5F5F5F5F5E2E2E2F5F528E2E2F5F5F5F5F5F5F5F5F5F5F5F5F5F5F5F5F5F5F5F5F5F5F5F5F5E2E2F5F5F5F5F5F5F5F5F5F5F5F5F5F5F5F5F5F5F5F5F5F5F5F5F5F5F5F5F528E2E2F5F5F5F5F5F5F5F5F5F5F5E2E2E2F5
310
F5F5F5F5F5F5F5F5F5F5F5F5F5F5F5E2E2E2E2E2E2E2E2E2E2E2F5F5F5F5F5F5F5F5F5F5F5E2F5F5F5F5F5F5F5F5F5F5F5E2E2E2E2F5F5F5F5F5F5F528E2E2F5F5F5F5F5F5F5F5F5F5F5F5F5F5F5F5F5F5F5F5F5F5F5F5F5F5F5F5F5F5F5F5F5F5F5E2E2E2F5F528E2E2F5F5F5F5F5F5F5F5F5F5F5F5F5F5F5F5F5F5F5F5F5
310
F5F5F5F5E2E2F5F5F5F5F5F5F5F5F5F5F5F5F5F5F5F5F5F5F5F5F5F5F5F5F5F5F5F5F528E2E2F5F5F5F5F5F5F5F5F5F5F5E2E2E2F5F5F5F5F5F5F5F5F5F5F5F5F5F5F5F5F5E2E2E2E2E2E2E2E2E2E2F5F5F5F5F5F5F5F5F5F5F5E2F5F5F5F5F5F5F5F5F5F5F5E2E2E2E2F5F5F5F5F5F5F528E2E2F5F5F5F5F5F5F5F5F5F5F5
310
F5F5F5F5F5F5F5F5F5F5F5F5F5F5F5F5F5F5F5F5F5F5F5F5E2E2E2F5F528E2E2E2E2E2E2E2E2E2E2E2E2E2E2E2E2E2E2E2E2E2E2E2E2E2E2E2E2E2F5F5F5F5F5F5F5F5F5F5F5F5F5F5F5F5F5F5F5F5F5F5F5F5F5F5F5F5F528E2E2E2E2E2E2E2E2E2E2E2E2E2E2E2E2F5F5F5F5F5F5F5F5F5F5F5F5F5F5F5E2E2E2E2E2E2E2
310
E2E2E2E2E2F5F5F5F5F5F5F5F5F5F5F5E2F5F5F5F5F5F5F5F5F5F5F5E2E2E2E2F5F5F5F5F5F5F528E2E2F5F5F5F5F5F5F5F5F5F5F5F5F5F5F5F5F5F5F5F5F5F5F5F5F5F5F5F5F5F5F5F5F5F5F5E2E2E2F5F528E2E2E2E2E2E2E2E2E2E2E2E2E2E2E2E2E2E2E2E2E2E2E2E2E2E2E2E228F5F5F5F5F5F5F5F5F5F5F5F5F5F5F5
310
F5F5F5F5F5F5F5F5F5F5F5F5F5F528E2E2E2E2E2E2E2E2E2E2E2E2E2E2E228F5F5F5F5F5F5F5F5F5F5F5F5F5F5F5F5F5F5E2E2E2F5F5F5F5F5F5F5F5F5F5F5F5F5F5F5F5F5E2F5F5F5F5F5F5F5F5F5F5F5E2E2E2E2F5F5F5F5F5F5F528E2E2F5F5F5F5F5F5F5F5F5F5F5F5F5F5F5F5F5F5F5F5F5F5F5F5F5F5F5F5F5F5F5F5
310
F5F5F5E2E2E2F5F5282828282828282828282828282828282828282828282828282828282828F5F5F5F5F5F5F5F5F5F5F5F5F5F5F5F5F5F5F5F5F5F5F5F5F5F5F5F5F52828282828282828282828282828282828F5F5F5F5F5F5F5F5F5F5F5F5F5F5F5E2E2E2E2E2E2E2E2E2E2E2E2F5F5F5F5F5F5F5F5F5F5F5E2F5F5F5F5
310
F5F5F5F5F5F5F5E2E2E2E2F5F5F5F5F5F5F528E2E2F5F5F5F5F5F5F5F5F5F5F5F5F5F5F5F5F5F5F5F5F5F5F5F5F5F5F5F5F5F5F5F5F5F5F5E2E2E2F5F5F5F5F5F5F5F5F5F5F5F5F5F5F5F5F5F5F5F5F5F5F5F5F5F5F5F5F5F5F5F5F5F5F5F5F5F5F5F5F5F5F5F5F5F5F5F5F5F5F5F5F5F5F5F5F5F5F5F5F5F5F5F5F5F5F5F5
310
F5F5F5F5F5F5F5F5F5F5F5F5F5F5F5F5F5F5F5F5F5F5F5F5F5F5F5E2E2E2E2E2E2E2E2E2E2F5F5F5F5F5F5F5F5F5F5F5E2F5F5F5F5F5F5F5F5F5F5F5E2E2E2E2F5F5F5F5F5F5F528E2E2F5F5F5F5F5F5F5F5F5F5F5F5F5F5F5F5F5F5F5F5F5F5F5F5F5F5F5F5F5F5F5F5F5F5F5E2E2E2F5F5F5F5F5F5F5F5F5F5F5F5F5F5F5
310
F5F5F5F5F5F5F5F5F5F5F5F5F5F5F5F5F5F5F5F5F5F5F5F5F5F5F5F5F5F5F5F5F5F5F5F5F5F5F5F5F5F5F5F5F5F5F5F5F5F5F5F5F5F5F5F5F5F5F5F5F5F5F5F5F5F5F5F5F5F5F5F5F5F5F5F5F5F5F5F5F5F5F5F5F5F5F5F5F5F5F5F5F5F5F5F5F5F5F5F5F5E2F5F5F5F5F5F5F5F5F5F5F5E2E2E2E2F5F5F5F5F5F5F528E2E2
310
F5F5F5F5F5F5F5F5F5F5F5F5F5F5F5F5F5F5F5F5F5F5F5F5F5F5F5F5F5F5F5F5F5F5F5E2E2E2F5F5F5F5F5F5F5F5F5F5F5F5F5F5F5F5F5F5F5F5F5F5F5F5F5F5F5F5F5F5F5F5F5F5F5F5F5F5F5F5F5F5F5F5F5F5F5F5F5F5F5F5F5F5F5F5F5F5F5F5F5F5F5F5F5F5F5F5F5F5F5F5F5F5F5F5F5F5F5F5F5F5F5F5F5F5F5F5F5
310
F5F5F5F5F5F5F5F5F5F5F5F5F5F5F5F5F5F5F5F5F5F5F5F5F5F5F5E2F5F5F5F5F5F5F5F5F5F5F5E2E2E2E2E2F5F5F5F5F5F528E2E2F5F5F5F5F5F5F5F5F5F5F5F5F5F5F5F5F5F5F5F5F5F5F5F5F5F5F5F5F5F5F5F5F5F5F5E2E2E2F5F5F5F5F5F5F5F5F5F5F5F5F5F5F5F5F5F5F5F5F5F5F5F5F5F5F5F5F5F5F5F5F5F5F5F5
310
F5F5F5F5F5F5F5F5F5F5F5F5F5F5F5F5F5F5F5F5F5F5F5F5F5F5F5F5F5F5F5F5F5F5F5F5F5F5F5F5F5F5F5F5F5F5F5F5F5F5F5F5F5F5F5F5F5F5F5F5F5F5F5F5F5F5F5F5F5F5F5F5F5F5F5F5F5F5F5F5E2F5F5F5F5F5F5F5F5F5E2F5E2E2E2E2E2F5F5F5F5F5F528E2E2F5F5F5F5F5F5F5F5F5F5F5F5F5F5F5F5F5F5F5F5F5
310
F5F5F5F5F5F5F5F5F5F5F5F5F5F5E2E2E2F5F5F5F5F5F5F5F5F5F5F5F5F5F5F5F5F5F5F5F5F5F5F5F5F5F5F5F5F5F5F5F5F5F5F5F5F5F5F5F5F5F5F5F5F5F5F5F5F5F5F5F5F5F5F5F5F5F5F5F5F5F5F5F5F5F5F5F5F5F5F5F5F5F5F5F5F5F5F5F5F5F5F5F5F5F5F5F5F5F5F5F5F5F5F5F5F5F5F5F5F5F5F5F5F5F5F5F5F5F5
310
F5F5F5F5F5F5E2F5F5F5F5F5F5F5F5F5E2F5E2E2E2E2E2F5F5F5F5F5F528E2E2F5F5F5F5F5F5F5F5F5F5F5F5F5F5F5F5F5F5F5F5F5F5F5F5F5F5F5F5F5F5F5F5F5F5F5E2E2E2F5F5F5F5F5F5F5F5F5F5F5F5F5F5F5F5F5F5F5F5F5F5F5F5F5F5F5F5F5F5F5F5F5F5F5F5F5F5F5F5F5F5F5F5F5F5F5F5F5F5F5F5F5F5F5F5F5
310
F5F5F5F5F5F5F5F5F5F5F5F5F5F5F5F5F5F5F5F5F5F5F5F5F5F5F5F5F5F5F5F5F5F5F5F5F5F5F5F5F5F5F5F5F5F5F5F5F5F5F5F5F5F5F5F5F5F5F5E2F5F5F5F5F5F5F5F5F5E2F5E2E2E2E2E2F5F5F5F5F5F528E2E2E2E2E2E2E2E2E2E2E2E2E2E2E2E2E2E2E2E2E2E2E2E2E2E2E2E2E2E2E2E2E2E2E2E2E2E2E2E2F5F5F5F5
310
F5F5F5F5F5F5F5F5F5F5F5F5F5F5F5F5F5F5F5F5F5F5F5F5F5F5F5F5F5F5F5F5F5F5F5F5F5F5F5F5F5F5F5F5F5F5F5F5F5F5F5F5F5F5F5F5F5F5F5F5F5F5F5F5F5F5F5F5F5F5F5F5F5F5F5F5F5F5F5F5F5F5F5F5F5F5F5F5F5F5F5F5F5F5F5F5F5F5F5F5F5F5F5F5F5F5F5F5F5F5F5F5E2F5F5F5F5F5F5F5F5F5E2F5E2E2E2
310
E2E2F5F5F5F5F5F528E2E2E2E2E2E2E2E2E2E2E2E2E2E2E2E2E2E2E2E2E2E2E2E2E2E2E2E2E2E2E2E2E2E2E2E2E2E2E228F5F5F5F5F5F5F5F5F5F5F5F5F5F5F5F5F5F5F5F5F5F5F5F5F5F5F5F5F5F5F5F5F5F5F5F5F5F5F5F5F5F5F5F5F5F5F5F5F5F5F5F5F5F5F5F5F5F5F5F5F5F5F5F5F5F5F5F5F5F5F5F5F5F5F5F5F5F5
310
F5F5F5F5F5F5F5F5F5F5F5F5F5F5F5F5F5F5F5F5F5F5F5F5F5F5F5F5F5F5F5F5F5F5F5F5F5F5E2F5F5F5F5F5F5F5F5F5E2F5E2E2E2E2E2F5F5F5F5F5F5F5F5F5F5F5F5F5F5F5F5F5F5F5F5F5F5F5F5F5F5F5F5F5F5F5F5F5F5F5F5F5F5F5F5F5F5F5F5F5F5F5F5F5F5F5F5F5F5F5F5F5F5F5F5F5F5F5F5F5F5F5F5F5F5F5F5
310
F5F5F5F5F5F5F5F5F5F5F5F5F5F5F5F5F5F5F5F5F5F5F5F5F5F5F5F5F5F5F5F5F5F5F5F5F5F5F5F5F5F5F5F5F5F5F5F5F5F5F5F5F5F5F5F5F5F5F5F5F5F5F5F5F5F5F5F5F5F5F5F5F5F5F5F5F5F5F5F5F5F5F5F5F5F5F5F5F5F5F5E2F5F5F5F5F5F5F5F5F5E2F5E2E2E2E2E2F5F5F5F5F5F5F5F5F5F5F5F5F5F5F5F5F5F5F5
310
F5F5F5F5F5F5F5F5F5F5F5F5F5F5F5F5F5F5F5F5F5F5F5F5F5F5F5F5F5F5F5F5F5F5F5F5F5F5F5F5F5F5F5F5F5F5F5F5F5F5F5F5F5F5F5F5F5F5F5F5F5F5F5F5F5F5F5F5F5F5F5F5F5F5F5F5F5F5F5F5F5F5F5F5F5F5F5F5F5F5F5F5F5F5F5F5F5F5F5F5F5F5F5F5F5F5F5F5F5F5F5F5F5F5F5F5F5F5F5F5F5F5F5F5F5F5F5
310
F5F5F5F5F5F5F5F5F5F5F5F5F5F5F5F5F5E2F5F5F5F5F5F5F5F5F5E2F5E2E2E2E2E2F5F5F5F5F5F5F5F5F5F5F5F5F5F5F5F5F5F5F5F5F5F5F5F5F5F5F5F5F5F5F5F5F5F5F5F5F5F5F5F5F5F5F5F5F5F5F5F5F5F5F5F5F5F5F5F5F5F5F5F5F5F5F5F5F5F5F5F5F5F5F5F5F5F5F5F5F5F5F5F5F5F5F5F5F5F5F5F5F5F5F5F5F5
310
F5F5F5F5F5F5F5F5F5F5F5F5F5F5F5F5F5F5F5F5F5F5F5F5F5F5F5F5F5F5F5F5F5F5F5F5F5F5F5F5F5F5F5F5F5F5F5F5F5F5F5F5F5F5F5F5F5F5F5F5F5F5F5F5F5F5F5F5F5F5E2F5F5F5F5F5F5F5F5F5E2F5E2E2E2E2E2F5F5F5F5F5F528282828282828282828282828282828282828282828282828282828282828282828
310
282828282828282828282828282828282828282828282828282828282828282828282828282828282828282828F5F5F5F5282828282828282828282828282828282828282828282828282828282828282828282828282828282828282828282828282828282828282828F5F5F5F5F5F5F5F5F5F5F5F5F5F5F5F5F5E2F5F5F5
310
F5F5F5F5F5F5E2F5E2E2E2E2E2F5F5F5F5F5F528F5E2E2E2E2E2E2E2E2E2E2E2E2E2E2E2E2E2E2E2E2E2E2E2E2E2E2E2E2E2E2E2E2E2E2E2E2E2E2E2E2E2E2E2E2E2E2E2E2E2E2E2E2E2E2E2E2E2E2E2E2E2E2E2E2E2E2E2E2E2E2E2E2E2E2E2E2E2F5F5F5F528E2E2E2E2E2E2E2E2E2E2E2E2E2E2E2E2E2E2E2E2E2E2E2E2
310
E2E2E2E2E2E2E2E2E2E2E2E2E2E2E2E2E2E2E2E2E2E2E2E2E2E2E2E2E2E2E2E2F5F5F5F5F5F5F5F5F5F5F5F5F5F5F5F5F5E2F5F5F5F5F5F5F5F5F5E2F5E2E2E2E2E2F5F5F5F5F5F528F5E2E2E2E2E2E2E2E2E2E2E2E2E2E2E2E2E2E2E2E2E2E2E2E2E2E2E2E2E2E2E2E2E2E2E2E2E2E2E2E2E2E2E2E2E2E2E2E2E2E2E2E2E2
310
E2E2E2E2E2E2E2E2E2E2E2E2E2E2E2E2E2E2E2E2E2E2E2E2F5F5F5F528E2E2E2E2E2E2E2E2E2E2E2E2E2E2E2E2E2E2E2E2E2E2E2E2E2E2E2E2E2E2E2E2E2E2E2E2E2E2E2E2E2E2E2E2E2E2E2E2E2E2E2E2E2E2E2E2F5F5F5F5F5F5F5F5F5F5F5F5F5F5F5F5F5E2F5F5F5F5F5F5F5F5F5E2F5E2E2E2E2E2F5F5F5F5F5F528F5
310
E2E2F5F5F5F5F5F5F5F5F5F5F5F5F5F5F5F5F5F5F5F5F5F5F5F5F5F5F5F5F5F5F5F5F5F5F5F5F5F5F5F5F5F5F5F5F5F5F5F5F5F5F5F5F5F5F5F5F5F5F5F5F5F5F5F5E2E2E2E2E2E2E2E2E2E2E2F5F5F5F528E2E2F5F5F5F5F5F5F5F5F5F5F5F5F5F5F5F5F5F5F5F5F5F5F5F5F5F5F5F5F5F5F5F5F5F5F5F5F5F5F5F5F5F5F5
310
F5F5F5F5F5F5F5F5E2E2E2F5F5F5F5F5F5F5F5F5F5F5F5F5F5F5F5F5E2F5F5F5F5F5F5F5F5F5E2F5E2E2E2E2E2F5F5F5F5F5F528F5E2E2F5F5F5F5F5F5F5F5F5F5F5F5F5F5F5F5F5F5F5F5F5F5F5F5F5F5F5F5F5F5F5F5F5F5F5F5F5F5F5F5F5F5F5F5F5F5F5F5F5F5F5F5F5F5F5F5F5F5F5F5F5F5F5F5F5F5F5F5F5F5F5F5
310
F5E2E2F5F5F5F528E2E2F5F5F5F5F5F5F5F5F5F5F5F5F5F5F5F5F5F5F5F5F5F5F5F5F5F5F5F5F5F5F5F5F5F5F5F5F5F5F5F5F5F5F5F5F5F5F5F5F5F5F5E2E2E2F5F5F5F5F5F5F5F5F5F5F5F5F5F5F5F5F5E2F5F5F5F5F5F5F5F5F5E2F5E2E2E2E2E2F5F5F5F5F5F528F5E2E2F5F5F5F5F5F5F5F5F5F5F5F5F5F5F5F5F5F5F5
310
F5F5F5F5F5F5F5F5F5F5F5F5F5F5F5F5F5F5F5F5F5F5F5F5F5F5F5F5F5F5F5F5F5F5F5F5F5F5F5F5F5F5F5F5F5F5F5F5F5F5F5F5F5F5E2E2F5F5F5F528E2E2F5F5F5F5F5F5F5F5F5F5F5F5F5F5F5F5F5F5F5F5F5F5F5F5F5F5F5F5F5F5F5F5F5F5F5F5F5F5F5F5F5F5F5F5F5F5F5F5F5F5F5E2E2E2F5F5F5F5F5F5F5F5F5F5
310
F5F5F5F5F5F5F5E2F5F5F5F5F5F5F5F5F5E2F5E2E2E2E2E2F5F5F5F5F5F528F5E2E2F5F5F5F5F5F5F5F5F5F5F5F5F5F5F5F5F5F5F5F5F5F5F5F5F5F5F5F5F5F5F5F5F5F5F5F5F5F5F5F5F5F5F5F5F5F5F5F5F5F5F5F5F5F5F5F5F5F5F5F5F5F5F5F5F5F5F5F5F5F5F5F5F5E2E2F5F5F5F528E2E2F5F5F5F5F5F5F5F5F5F5F5
310
F5F5F5F5F5F5F5F5F5F5F5F5F5F5F5F5F5F5F5F5F5F5F5F5F5F5F5F5F5F5F5F5F5F5F5F5F5F5F5F5E2E2E2F5F5F5F5F5F5F5F5F5F5F5F5F5F5F5F5F5E2F5F5F5F5F5F5F5F5F5E2F5E2E2E2E2E2F5F5F5F5F5F528F5E2E2F5F5F5F5F5F5F5F5F5F5F5F5F5F5F5F5F5F5F5F5F5F5F5F5F5F5F5F5F5F5F5F5F5F5F5F5F5F5F5F5
310
F5F5F5F5F5F5F5F5F5F5F5F5F5F5F5F5F5F5F5F5F5F5F5F5F5F5F5F5F5F5F5F5F5E2E2F5F5F5F528E2E2F5F5F5F5F5F5F5F5F5F5F5F5F5F5F5F5F5F5F5F5F5F5F5F5F5F5F5F5F5F5F5F5F5F5F5F5F5F5F5F5F5F5F5F5F5F5F5F5F5F5F5E2E2E2F5F5F5F5F5F5F5F5F5F5F5F5F5F5F5F5F5E2F5F5F5F5F5F5F5F5F5E2F5E2E2
310
E2E2F5F5F5F5F5F5F528F5E2E2F5F5F5F5F5F5F5F5F5F5F5F5F5F5F5F5F5F5F5F5F5F5F5F5F5F5F5F5F5F5F5F5F5F5F5F5F5F5F5F5F5F5F5F5F5F5F5F5F5F5F5F5F5F5F5F5F5F5F5F5F5F5F5F5F5F5F5F5F5F5F5F5F5E2E2F5F5F5F528E2E2F5F5F5F5F5F5F5F5F5F5F5F5F5F5F5F5F5F5F5F5F5F5F5F5F5F5F5F5F5F5F5F5
310
F5F5F5F5F5F5F5F5F5F5F5F5F5F5F5F5F5F5F5E2E2E2F5F5F5F5F5F5F5F5F5F5F5F5F5F5F5F5F5E2F5F5F5F5F5F5F5F5F5F5F5E2E2E2E2F5F5F5F5F5F5F528F5E2E2F5F5F5F5F5F5F5F5F5F5F5F5F5F5F5F5F5F5F5F5F5F5F5F5F5F5F5F5F5F5F5F5F5F5F5F5F5F5F5F5F5F5F5F5F5F5F5F5F5F5F5F5F5F5F5F5F5F5F5F5F5
310
F5F5F5F5F5F5F5F5F5F5F5F5E2E2F5F5F5F528E2E2F5F5F5F5F5F5F5F5F5F5F5F5F5F5F5F5F5F5F5F5F5F5F5F5F5F5F5F5F5F5F5F5F5F5F5F5F5F5F5F5F5F5F5F5F5F5F5F5F5F5F5E2E2E2F5F5F5F5F5F5F5F5F5F5F5F5F5F5F5F5F5E2F5F5F5F5F5F5F5F5F5F5F5E2E2E2E2F5F5F5F5F5F5F528F5E2E2F5F5F5F5F5F5F5F5
310
F5F5F5F5F5F5F5F5F5F5F5F5F5F5F5F5F5F5F5F5F5F5F5F5F5F5F5F5F5F5F5F5F5F5F5F5F5F5F5F5F5F5F5F5F5F5F5F5F5F5F5F5F5F5F5F5F5F5F5F5F5F5F5F5F5E2E2F5F5F5F528E2E2F5F5F5F5F5F5F5F5F5F5F5F5F5F5F5F5F5F5F5F5F5F5F5F5F5F5F5F5F5F5F5F5F5F5F5F5F5F5F5F5F5F5F5F5F5F5F5F5F5F5F5E2E2
310
E2F5F5F5F5F5F5F5F5F5F5F5F5F5F5F5F5F5E2F5F5F5F5F5F5F5F5F5F5F5E2E2E2E2F5F5F5F5F5F5F528F5E2E2F5F5F5F5F5F5F5F5F5F5F5F5F5F5F5F5F5F5F5F5F5F5F5F5F5F5F5F5F5F5F5F5F5F5F5F5F5F5F5F5F5F5F5F5F5F5F5F5F5F5F5F5F5F5F5F5F5F5F5F5F5F5F5F5F5F5F5F5F5F5F5F5F5E2E2F5F5F5F528E2E2
310
F5F5F5F5F5F5F5F5F5F5F5F5F5F5F5F5F5F5F5F5F5F5F5F5F5F5F5F5F5F5F5F5F5F5F5F5F5F5F5F5F5F5F5F5F5F5F5F5F5F5F5E2E2E2F5F5F5F5F5F5F5F5F5F5F5F5F5F5F5F5F5E2F5F5F5F5F5F5F5F5F5F5F5E2E2E2E2F5F5F5F5F5F5F528F5E2E2F5F5F5F5F5F5F5F5F5F5F5F5F5F5F5F5F5F5F5F5F5F5F5F5F5F5F5F5F5
310
F5F5F5F5F5F5F5F5F5F5F5F5F5F5F5F5F5F5F5F5F5F5F5F5F5F5F5F5F5F5F5F5F5F5F5F5F5F5F5F5F5F5F5F5E2E2F5F5F5F528E2E2F5F5F5F5F5F5F5F5F5F5F5F5F5F5F5F5F5F5F5F5F5F5F5F5F5F5F5F5F5F5F5F5F5F5F5F5F5F5F5F5F5F5F5F5F5F5F5F5F5F5F5E2E2E2F5F5F5F5F5F5F5F5F5F5F5F5F5F5F5F5F5E2F5F5
310
F5F5F5F5F5F5F5F5F5E2E2E2E2F5F5F5F5F5F5F528F5E2E2F5F5F5F5F5F5F5F5F5F5F5F5F5F5F5F5F5F5F5F5F5F5F5F5F5F5F5F5F5F5F5F5F5F5F5F5F5F5F5F5F5F5F5F5F5F5F5F5F5F5F5F5F5F5F5F5F5F5F5F5F5F5F5F5F5F5F5F5F5F5F5F5F5E2E2F5F5F5F528E2E2F5F5F5F5F5F5F5F5F5F5F5F5F5F5F5F5F5F5F5F5F5
310
F5F5F5F5F5F5F5F5F5F5F5F5F5F5F5F5F5F5F5F5F5F5F5F5F5F5F5F5F5F5E2E2E2F5F5F5F5F5F5F5F5F5F5F5F5F5F5F5F5F5E2F5F5F5F5F5F5F5F5F5F5F5E2E2E2E2F5F5F5F5F5F5F528F5E2E2F5F5F5F5F5F5F5F5F5F5F5F5F5F5F5F5F5F5F5F5F5F5F5F5F5F5F5F5F5F5F5F5F5F5F5F5F5F5F5F5F5F5F5F5F5F5F5F5F5F5
310
F5F5F5F5F5F5F5F5F5F5F5F5F5F5F5F5F5F5F5F5F5F5F5E2E2F5F5F5F528E2E2F5F5F5F5F5F5F5F5F5F5F5F5F5F5F5F5F5F5F5F5F5F5F5F5F5F5F5F5F5F5F5F5F5F5F5F5F5F5F5F5F5F5F5F5F5F5F5F5F5F5F5E2E2E2F5F5F5F5F5F5F5F5F5F5F5F5F5F5F5F5F5E2F5F5F5F5F5F5F5F5F5F5F5E2E2E2E2F5F5F5F5F5F5F528
310
F5E2E2F5F5F5F5F5F5F5F5F5F5F5F5F5F5F5F5F5F5F5F5F5F5F5F5F5F5F5F5F5F5F5F5F5F5F5F5F5F5F5F5F5F5F5F5F5F5F5F5F5F5F5F5F5F5F5F5F5F5F5F5F5F5F5F5F5F5F5F5F5F5F5F5F5E2E2F5F5F5F528E2E2F5F5F5F5F5F5F5F5F5F5F5F5F5F5F5F5F5F5F5F5F5F5F5F5F5F5F5F5F5F5F5F5F5F5F5F5F5F5F5F5F5F5
310
F5F5F5F5F5F5F5F5F5E2E2E2F5F5F5F5F5F5F5F5F5F5F5F5F5F5F5F5F5E2F5F5F5F5F5F5F5F5F5F5F5E2E2E2E2F5F5F5F5F5F5F528F5E2E2F5F5F5F5F5F5F5F5F5F5F5F5F5F5F5F5F5F5F5F5F5F5F5F5F5F5F5F5F5F5F5F5F5F5F5F5F5F5F5F5F5F5F5F5F5F5F5F5F5F5F5F5F5F5F5F5F5F5F5F5F5F5F5F5F5F5F5F5F5F5F5
310
F5F5E2E2F5F5F5F528E2E2F5F5F5F5F5F5F5F5F5F5F5F5F5F5F5F5F5F5F5F5F5F5F5F5F5F5F5F5F5F5F5F5F5F5F5F5F5F5F5F5F5F5F5F5F5F5F5F5F5F5F5E2E2E2F5F5F5F5F5F5F5F5F5F5F5F5F5F5F5F5F5E2F5F5F5F5F5F5F5F5F5F5F5E2E2E2E2E2F5F5F5F5F5F528F5E2E2F5F5F5F5F5F5F5F5F5F5F5F5F5F5F5F5F5F5
310
F5F5F5F5F5F5F5F5F5F5F5F5F5F5F5F5F5F5F5F5F5F5F5F5F5F5F5F5F5F5F5F5F5F5F5F5F5F5F5F5F5F5F5F5F5F5F5F5F5F5F5F5F5F5F5E2E2F5F5F5F528E2E2F5F5F5F5F5F5F5F5F5F5F5F5F5F5F5F5F5F5F5F5F5F5F5F5F5F5F5F5F5F5F5F5F5F5F5F5F5F5F5F5F5F5F5F5F5F5F5F5F5F5F5E2E2E2F5F5F5F5F5F5F5F5F5
310
F5F5F5F5F5F5F5F5E2F5F5F5F5F5F5F5F5F5E2F5E2E2E2E2E2F5F5F5F5F5F528F5E2E2F5F5F5F5F5F5F5F5F5F5F5F5F5F5F5F5F5F5F5F5F5F5F5F5F5F5F5F5F5F5F5F5F5F5F5F5F5F5F5F5F5F5F5F5F5F5F5F5F5F5F5F5F5F5F5F5F5F5F5F5F5F5F5F5F5F5F5F5F5F5F5F5F5E2E2F5F5F5F528E2E2F5F5F5F5F5F5F5F5F5F5
310
F5F5F5F5F5F5F5F5F5F5F5F5F5F5F5F5F5F5F5F5F5F5F5F5F5F5F5F5F5F5F5F5F5F5F5F5F5F5F5F5F5E2E2E2F5F5F5F5F5F5F5F5F5F5F5F5F5F5F5F5F5E2F5F5F5F5F5F5F5F5F5E2F5E2E2E2E2E2F5F5F5F5F5F528F5E2E2F5F5F5F5F5F5F5F5F5F5F5F5F5F5F5F5F5F5F5F5F5F5F5F5F5F5F5F5F5F5F5F5F5F5F5F5F5F5F5
310
F5F5F5F5F5F5F5F5F5F5F5F5F5F5F5F5F5F5F5F5F5F5F5F5F5F5F5F5F5F5F5F5F5F5E2E2F5F5F5F528E2E2F5F5F5F5F5F5F5F5F5F5F5F5F5F5F5F5F5F5F5F5F5F5F5F5F5F5F5F5F5F5F5F5F5F5F5F5F5F5F5F5F5F5F5F5F5F5F5F5F5F5F5E2E2E2F5F5F5F5F5F5F5F5F5F5F5F5F5F5F5F5F5E2F5F5F5F5F5F5F5F5F5E2F5E2
310
E2E2E2E2F5F5F5F5F5F528F5E2E2F5F5F5F5F5F5F5F5F5F5F5F5F5F5F5F5F5F5F5F5F5F5F5F5F5F5F5F5F5F5F5F5F5F5F5F5F5F5F5F5F5F5F5F5F5F5F5F5F5F5F5F5F5F5F5F5F5F5F5F5F5F5F5F5F5F5F5F5F5F5F5F5F5E2E2F5F5F5F528E2E2F5F5F5F5F5F5F5F5F5F5F5F5F5F5F5F5F5F5F5F5F5F5F5F5F5F5F5F5F5F5F5
310
F5F5F5F5F5F5F5F5F5F5F5F5F5F5F5F5F5F5F5F5E2E2E2F5F5F5F5F5F5F5F5F5F5F5F5F5F5F5F5F5E2F5F5F5F5F5F5F5F5F5E2F5E2E2E2E2E2F5F5F5F5F5F528F5E2E2F5F5F5F5F5F5F5F5F5F5F5F5F5F5F5F5F5F5F5F5F5F5F5F5F5F5F5F5F5F5F5F5F5F5F5F5F5F5F5F5F5F5F5F5F5F5F5F5F5F5F5F5F5F5F5F5F5F5F5F5
310
F5F5F5F5F5F5F5F5F5F5F5F5F5E2E2F5F5F5F528E2E2F5F5F5F5F5F5F5F5F5F5F5F5F5F5F5F5F5F5F5F5F5F5F5F5F5F5F5F5F5F5F5F5F5F5F5F5F5F5F5F5F5F5F5F5F5F5F5F5F5F5F5E2E2E2F5F5F5F5F5F5F5F5F5F5F5F5F5F5F5F5F5E2F5F5F5F5F5F5F5F5F5E2F5E2E2E2E2E2F5F5F5F5F5F528F5E2E2F5F5F5F5F5F5F5
310
F5F5F5F5F5F5F5F5F5F5F5F5F5F5F5F5F5F5F5F5F5F5F5F5F5F5F5F5F5F5F5F5F5F5F5F5F5F5F5F5F5F5F5F5F5F5F5F5F5F5F5F5F5F5F5F5F5F5F5F5F5F5F5F5F5F5E2E2F5F5F5F528E2E2F5F5F5F5F5F5F5F5F5F5F5F5F5F5F5F5F5F5F5F5F5F5F5F5F5F5F5F5F5F5F5F5F5F5F5F5F5F5F5F5F5F5F5F5F5F5F5F5F5F5F5E2
310
E2E2F5F5F5F5F5F5F5F5F5F5F5F5F5F5F5F5F5E2F5F5F5F5F5F5F5F5F5E2F5E2E2E2E2E2F5F5F5F5F5F528F5E2E2F5F5F5F5F5F5F5F5F5F5F5F5F5F5F5F5F5F5F5F5F5F5F5F5F5F5F5F5F5F5F5F5F5F5F5F5F5F5F5F5F5F5F5F5F5F5F5F5F5F5F5F5F5F5F5F5F5F5F5F5F5F5F5F5F5F5F5F5F5F5F5F5F5E2E2F5F5F5F528E2
310
E2F5F5F5F5F5F5F5F5F5F5F5F5F5F5F5F5F5F5F5F5F5F5F5F5F5F5F5F5F5F5F5F5F5F5F5F5F5F5F5F5F5F5F5F5F5F5F5F5F5F5F5E2E2E2F5F5F5F5F5F5F5F5F5F5F5F5F5F5F5F5F5E2F5F5F5F5F5F5F5F5F5E2F5E2E2E2E2E2F5F5F5F5F5F528F5E2E2F5F5F5F5F5F5F5F5F5F5F5F5F5F5F5F5F5F5F5F5F5F5F5F5F5F5F5F5
310
F5F5F5F5F5F5F5F5F5F5F5F5F5F5F5F5F5F5F5F5F5F5F5F5F5F5F5F5F5F5F5F5F5F5F5F5F5F5F5F5F5F5F5F5F5E2E2F5F5F5F528E2E2F5F5F5F5F5F5F5F5F5F5F5F5F5F5F5F5F5F5F5F5F5F5F5F5F5F5F5F5F5F5F5F5F5F5F5F5F5F5F5F5F5F5F5F5F5F5F5F5F5F5F5E2E2E2F5F5F5F5F5F5F5F5F5F5F5F5F5F5F5F5F5E2F5
310
F5F5F5F5F5F5F5F5E2F5E2E2E2E2E2F5F5F5F5F5F528F5E2E2F5F5F5F5F5F5F5F5F5F5F5F5F5F5F5F5F5F5F5F5F5F5F5F5F5F5F5F5F5F5F5F5F5F5F5F5F5F5F5F5F5F5F5F5F5F5F5F5F5F5F5F5F5F5F5F5F5F5F5F5F5F5F5F5F5F5F5F5F5F5F5F5F5E2E2F5F5F5F528E2E2F5F5F5F5F5F5F5F5F5F5F5F5F5F5F5F5F5F5F5F5
310
F5F5F5F5F5F5F5F5F5F5F5F5F5F5F5F5F5F5F5F5F5F5F5F5F5F5F5F5F5F5F5E2E2E2F5F5F5F5F5F5F5F5F5F5F5F5F5F5F5F5F5E2F5F5F5F5F5F5F5F5F5E2F5E2E2E2E2E2F5F5F5F5F5F528F5E2E2F5F5F5F5F5F5F5F5F5F5F5F5F5F5F5F5F5F5F5F5F5F5F5F5F5F5F5F5F5F5F5F5F5F5F5F5F5F5F5F5F5F5F5F5F5F5F5F5F5
310
F5F5F5F5F5F5F5F5F5F5F5F5F5F5F5F5F5F5F5F5F5F5F5F5E2E2F5F5F5F528E2E2F5F5F5F5F5F5F5F5F5F5F5F5F5F5F5F5F5F5F5F5F5F5F5F5F5F5F5F5F5F5F5F5F5F5F5F5F5F5F5F5F5F5F5F5F5F5F5F5F5F5F5E2E2E2F5F5F5F5F5F5F5F5F5F5F5F5F5F5F5F5F5E2F5F5F5F5F5F5F5F5F5E2F5E2E2E2E2E2F5F5F5F5F5F5
310
28F5E2E2F5F5F5F5F5F5F5F5F5F5F5F5F5F5F5F5F5F5F5F5F5F5F5F5F5F5F5F5F5F5F5F5F5F5F5F5F5F5F5F5F5F5F5F5F5F5F5F5F5F5F5F5F5F5F5F5F5F5F5F5F5F5F5F5F5F5F5F5F5F5F5F5F5E2E2F5F5F5F528E2E2F5F5F5F5F5F5F5F5F5F5F5F5F5F5F5F5F5F5F5F5F5F5F5F5F5F5F5F5F5F5F5F5F5F5F5F5F5F5F5F5F5
310
F5F5F5F5F5F5F5F5F5F5E2E2E2F5F5F5F5F5F5F5F5F5F5F5F5F5F5F5F5F5E2F5F5F5F5F5F5F5F5F5E2F5E2E2E2E2E2F5F5F5F5F5F528F5E2E2F5F5F5F5F5F5F5F5F5F5F5F5F5F5F5F5F5F5F5F5F5F5F5F5F5F5F5F5F5F5F5F5F5F5F5F5F5F5F5F5F5F5F5F5F5F5F5F5F5F5F5F5F5F5F5F5F5F5F5F5F5F5F5F5F5F5F5F5F5F5
310
F5F5F5E2E2F5F5F5F528E2E2F5F5F5F5F5F5F5F5F5F5F5F5F5F5F5F5F5F5F5F5F5F5F5F5F5F5F5F5F5F5F5F5F5F5F5F5F5F5F5F5F5F5F5F5F5F5F5F5F5F5F5E2E2E2F5F5F5F5F5F5F5F5F5F5F5F5F5F5F5F5F5E2F5F5F5F5F5F5F5F5F5E2F5E2E2E2E2E2F5F5F5F5F5F528F5E2E2F5F5F5F5F5F5F5F5F5F5F5F5F5F5F5F5F5
310
F5F5F5F5F5F5F5F5F5F5F5F5F5F5F5F5F5F5F5F5F5F5F5F5F5F5F5F5F5F5F5F5F5F5F5F5F5F5F5F5F5F5F5F5F5F5F5F5F5F5F5F5F5F5F5F5E2E2F5F5F5F528E2E2F5F5F5F5F5F5F5F5F5F5F5F5F5F5F5F5F5F5F5F5F5F5F5F5F5F5F5F5F5F5F5F5F5F5F5F5F5F5F5F5F5F5F5F5F5F5F5F5F5F5F5E2E2E2F5F5F5F5F5F5F5F5
310
F5F5F5F5F5F5F5F5F5E2F5F5F5F5F5F5F5F5F5E2F5E2E2E2E2E2F5F5F5F5F5F528F5E2E2F5F5F5F5F5F5F5F5F5F5F5F5F5F5F5F5F5F5F5F5F5F5F5F5F5F5F5F5F5F5F5F5F5F5F5F5F5F5F5F5F5F5F5F5F5F5F5F5F5F5F5F5F5F5F5F5F5F5F5F5F5F5F5F5F5F5F5F5F5F5F5F5F5E2E2F5F5F5F528E2E2F5F5F5F5F5F5F5F5F5
310
F5F5F5F5F5F5F5F5F5F5F5F5F5F5F5F5F5F5F5F5F5F5F5F5F5F5F5F5F5F5F5F5F5F5F5F5F5F5F5F5F5F5E2E2E2F5F5F5F5F5F5F5F5F5F5F5F5F5F5F5F5F5E2F5F5F5F5F5F5F5F5F5E2F5E2E2E2E2E2F5F5F5F5F5F528F5E2E2F5F5F5F5F5F5F5F5F5F5F5F5F5F5F5F5F5F5F5F5F5F5F5F5F5F5F5F5F5F5F5F5F5F5F5F5F5F5
310
F5F5F5F5F5F5F5F5F5F5F5F5F5F5F5F5F5F5F5F5F5F5F5F5F5F5F5F5F5F5F5F5F5F5F5E2E2F5F5F5F528E2E2F5F5F5F5F5F5F5F5F5F5F5F5F5F5F5F5F5F5F5F5F5F5F5F5F5F5F5F5F5F5F5F5F5F5F5F5F5F5F5F5F5F5F5F5F5F5F5F5F5F5F5E2E2E2F5F5F5F5F5F5F5F5F5F5F5F5F5F5F5F5F5E2F5F5F5F5F5F5F5F5F5E2F5
310
E2E2E2E2E2F5F5F5F5F5F528F5E2E2F5F5F5F5F5F5F5F5F5F5F5F5F5F5F5F5F5F5F5F5F5F5F5F5F5F5F5F5F5F5F5F5F5F5F5F5F5F5F5F5F5F5F5F5F5F5F5F5F5F5F5F5F5F5F5F5F5F5F5F5F5F5F5F5F5F5F5F5F5F5F5F5F5E2E2F5F5F5F528E2E2F5F5F5F5F5F5F5F5F5F5F5F5F5F5F5F5F5F5F5F5F5F5F5F5F5F5F5F5F5F5
310
F5F5F5F5F5F5F5F5F5F5F5F5F5F5F5F5F5F5F5F5F5E2E2E2F5F5F5F5F5F5F5F5F5F5F5F5F5F5F5F5F5E2F5F5F5F5F5F5F5F5F5E2F5E2E2E2E2F5F5F5F5F5F5F528F5E2E2F5F5F5F5F5F5F5F5F5F5F5F5F5F5F5F5F5F5F5F5F5F5F5F5F5F5F5F5F5F5F5F5F5F5F5F5F5F5F5F5F5F5F5F5F5F5F5F5F5F5F5F5F5F5F5F5F5F5F5
310
F5F5F5F5F5F5F5F5F5F5F5F5F5F5E2E2F5F5F5F528E2E2F5F5F5F5F5F5F5F5F5F5F5F5F5F5F5F5F5F5F5F5F5F5F5F5F5F5F5F5F5F5F5F5F5F5F5F5F5F5F5F5F5F5F5F5F5F5F5F5F5F5F5E2E2E2F5F5F5F5F5F5F5F5F5F5F5F5F5F5F5F5F5E2F5F5F5F5F5F5F5F5F5F5F5E2E2E2E2F5F5F5F5F5F5F528F5E2E2F5F5F5F5F5F5
310
F5F5F5F5F5F5F5F5F5F5F5F5F5F5F5F5F5F5F5F5F5F5F5F5F5F5F5F5F5F5F5F5F5F5F5F5F5F5F5F5F5F5F5F5F5F5F5F5F5F5F5F5F5F5F5F5F5F5F5F5F5F5F5F5F5F5F5E2E2F5F5F5F528E2E2F5F5F5F5F5F5F5F5F5F5F5F5F5F5F5F5F5F5F5F5F5F5F5F5F5F5F5F5F5F5F5F5F5F5F5F5F5F5F5F5F5F5F5F5F5F5F5F5F5F5F5
310
E2E2E2F5F5F5F5F5F5F5F5F5F5F5F5F5F5F5F5F5E2F5F5F5F5F5F5F5F5F5F5F5E2E2E2E2F5F5F5F5F5F5F528F5E2E2F5F5F5F5F5F5F5F5F5F5F5F5F5F5F5F5F5F5F5F5F5F5F5F5F5F5F5F5F5F5F5F5F5F5F5F5F5F5F5F5F5F5F5F5F5F5F5F5F5F5F5F5F5F5F5F5F5F5F5F5F5F5F5F5F5F5F5F5F5F5F5F5F5E2E2F5F5F5F528
310
E2E2F5F5F5F5F5F5F5F5F5F5F5F5F5F5F5F5F5F5F5F5F5F5F5F5F5F5F5F5F5F5F5F5F5F5F5F5F5F5F5F5F5F5F5F5F5F5F5F5F5F5F5E2E2E2F5F5F5F5F5F5F5F5F5F5F5F5F5F5F5F5F5E2F5F5F5F5F5F5F5F5F5F5F5E2E2E2E2F5F5F5F5F5F5F528F5E2E2F5F5F5F5F5F5F5F5F5F5F5F5F5F5F5F5F5F5F5F5F5F5F5F5F5F5F5
310
F5F5F5F5F5F5F5F5F5F5F5F5F5F5F5F5F5F5F5F5F5F5F5F5F5F5F5F5F5F5F5F5F5F5F5F5F5F5F5F5F5F5F5F5F5F5E2E2F5F5F5F528E2E2F5F5F5F5F5F5F5F5F5F5F5F5F5F5F5F5F5F5F5F5F5F5F5F5F5F5F5F5F5F5F5F5F5F5F5F5F5F5F5F5F5F5F5F5F5F5F5F5F5F5F5E2E2E2F5F5F5F5F5F5F5F5F5F5F5F5F5F5F5F5F5E2
310
F5F5F5F5F5F5F5F5F5F5F5E2E2E2E2F5F5F5F5F5F5F528F5E2E2F5F5F5F5F5F5F5F5F5F5F5F5F5F5F5F5F5F5F5F5F5F5F5F5F5F5F5F5F5F5F5F5F5F5F5F5F5F5F5F5F5F5F5F5F5F5F5F5F5F5F5F5F5F5F5F5F5F5F5F5F5F5F5F5F5F5F5F5F5F5F5F5F5E2E2F5F5F5F528E2E2F5F5F5F5F5F5F5F5F5F5F5F5F5F5F5F5F5F5F5
310
F5F5F5F5F5F5F5F5F5F5F5F5F5F5F5F5F5F5F5F5F5F5F5F5F5F5F5F5F5F5F5F5E2E2E2F5F5F5F5F5F5F5F5F5F5F5F5F5F5F5F5F5E2F5F5F5F5F5F5F5F5F5F5F5E2E2E2E2F5F5F5F5F5F5F528F5E2E2F5F5F5F5F5F5F5F5F5F5F5F5F5F5F5F5F5F5F5F5F5F5F5F5F5F5F5F5F5F5F5F5F5F5F5F5F5F5F5F5F5F5F5F5F5F5F5F5
310
F5F5F5F5F5F5F5F5F5F5F5F5F5F5F5F5F5F5F5F5F5F5F5F5F5E2E2F5F5F5F528E2E2E2E2E2E2E2E2E2E2E2E2E2E2E2E2E2E2E2E2E2E2E2E2E2E2E2E2E2E2E2E2E2E2E2E2E2E2E2E2E2E2E2E2E2E2E2E2E2E2E2E2E2E2E2E2F5F5F5F5F5F5F5F5F5F5F5F5F5F5F5F5F5E2F5F5F5F5F5F5F5F5F5F5F5E2E2E2E2F5F5F5F5F5F5
310
F528F5E2E2F5F5F5F5F5F5F5F5F5F5F5F5F5F5F5F5F5F5F5F5F5F5F5F5F5F5F5F5F5F5F5F5F5F5F5F5F5F5F5F5F5F5F5F5F5F5F5F5F5F5F5F5F5F5F5F5F5F5F5F5F5F5F5F5F5F5F5F5F5F5F5F5F5E2E2F5F5F5F528E2E2E2E2E2E2E2E2E2E2E2E2E2E2E2E2E2E2E2E2E2E2E2E2E2E2E2E2E2E2E2E2E2E2E2E2E2E2E2E2E2E2
310
E2E2E2E2E2E2E2E2E2E2E2E2E228F5F5F5F5F5F5F5F5F5F5F5F5F5F5F5F5F5E2F5F5F5F5F5F5F5F5F5F5F5E2E2E2E2F5F5F5F5F5F5F528F5E2E2F5F5F5F5F5F5F5F5F5F5F5F5F5F5F5F5F5F5F5F5F5F5F5F5F5F5F5F5F5F5F5F5F5F5F5F5F5F5F5F5F5F5F5F5F5F5F5F5F5F5F5F5F5F5F5F5F5F5F5F5F5F5F5F5F5F5F5F5F5
310
F5F5F5F5E2E2F5F5F5F5F5F5F5F5F5F5F5F5F5F5F5F5F5F5F5F5F5F5F5F5F5F5F5F5F5F5F5F5F5F5F5F5F5F5F5F5F5F5F5F5F5F5F5F5F5F5F5F5F5F5F5F5F5F5F5F5F5F5F5F5F5F5F5F5F5F5F5F5F5F5F5F5F5F5E2F5F5F5F5F5F5F5F5F5F5F5E2E2E2E2E2F5F5F5F5F5F528F5E2E2F5F5F5F5F5F5F5F5F5F5F5F5F5F5F5F5
310
F5F5F5F5F5F5F5F5F5F5F5F5F5F5F5F5F5F5F5F5F5F5F5F5F5F5F5F5F5F5F5F5F5F5F5F5F5F5F5F5F5F5F5F5F5F5F5F5F5F5F5F5F5F5F5F5F5E2E2F5F5F5F5F5F5F5F5F5F5F5F5F5F5F5F5F5F5F5F5F5F5F5F5F5F5F5F5F5F5F5F5F5F5F5F5F5F5F5F5F5F5F5F5F5F5F5F5F5F5F5F5F5F5F5F5F5F5F5F5F5F5F5F5F5F5F5F5
310
F5F5F5F5F5F5F5F5F5F5E2F5F5F5F5F5F5F5F5F5E2F5E2E2E2E2E2F5F5F5F5F5F528F5E2E2F5F5F5F5F5F5F5F5F5F5F5F5F5F5F5F5F5F5F5F5F5F5F5F5F5F5F5F5F5F5F5F5F5F5F5F5F5F5F5F5F5F5F5F5F5F5F5F5F5F5F5F5F5F5F5F5F5F5F5F5F5F5F5F5F5F5F5F5F5F5F5F5F5E2E2F5F5F5F5F5F5F5F5F5F5F5F5F5F5F5
310
F5F5F5F5F5F5F5F5F5F5F5F5F5F5F5F5F5F5F5F5F5F5F5F5F5F5F5F5F5F5F5F5F5F5F5F5F5F5F5F5F5F5F5F5F5F5F5F5F5F5F5F5F5F5F5F5F5F5F5F5F5F5F5E2F5F5F5F5F5F5F5F5F5E2F5E2E2E2E2E2F5F5F5F5F5F528F5E2E2F5F5F5F5F5F5F5F5F5F5F5F5F5F5F5F5F5F5F5F5F5F5F5F5F5F5F5F5F5F5F5F5F5F5F5F5F5
310
F5F5F5F5F5F5F5F5F5F5F5F5F5F5F5F5F5F5F5F5F5F5F5F5F5F5F5F5F5F5F5F5F5F5F5F5E2E2F5F5F5F5F5F5F5F5F5F5F5F5F5F5F5F5F5F5F5F5F5F5F5F5F5F5F5F5F5F5F5F5F5F5F5F5F5F5F5F5F5F5F5F5F5F5F5F5F5F5F5F5F5F5F5F5F5F5F5F5F5F5F5F5F5F5F5F5F5F5F5F5F5F5F5F5F5F5E2F5F5F5F5F5F5F5F5F5E2
310
F5E2E2E2E2E2F5F5F5F5F5F528F5E2E2F5F5F5F5F5F5F5F5F5F5F5F5F5F5F5F5F5F5F5F5F5F5F5F5F5F5F5F5F5F5F5F5F5F5F5F5F5F5F5F5F5F5F5F5F5F5F5F5F5F5F5F5F5F5F5F5F5F5F5F5F5F5F5F5F5F5F5F5F5F5F5F5F5E2E2F5F5F5F5F5F5F5F5F5F5F5F5F5F5F5F5F5F5F5F5F5F5F5F5F5F5F5F5F5F5F5F5F5F5F5F5
310
F5F5F5F5F5F5F5F5F5F5F5F5F5F5F5F5F5F5F5F5F5F5F5F5F5F5F5F5F5F5F5F5F5F5F5F5F5F5F5F5F5F5E2F5F5F5F5F5F5F5F5F5E2F5E2E2E2E2E2F5F5F5F5F5F528F5E2E2F5F5F5F5F5F5F5F5F5F5F5F5F5F5F5F5F5F5F5F5F5F5F5F5F5F5F5F5F5F5F5F5F5F5F5F5F5F5F5F5F5F5F5F5F5F5F5F5F5F5F5F5F5F5F5F5F5F5
310
F5F5F5F5F5F5F5F5F5F5F5F5F5F5F5E2E2F5F5F5F5F5F5F5F5F5F5F5F5F5F5F5F5F5F5F5F5F5F5F5F5F5F5F5F5F5F5F5F5F5F5F5F5F5F5F5F5F5F5F5F5F5F5F5F5F5F5F5F5F5F5F5F5F5F5F5F5F5F5F5F5F5F5F5F5F5F5F5F5F5F5F5F5F5F5E2F5F5F5F5F5F5F5F5F5E2F5E2E2E2E2E2F5F5F5F5F5F528F5E2E2F5F5F5F5F5
310
F5F5F5F5F5F5F5F5F5F5F5F5F5F5F5F5F5F5F5F5F5F5F5F5F5F5F5F5F5F5F5F5F5F5F5F5F5F5F5F5F5F5F5F5F5F5F5F5F5F5F5F5F5F5F5F5F5F5F5F5F5F5F5F5F5F5F5F5E2E2F5F5F5F5F5F5F5F5F5F5F5F5F5F5F5F5F5F5F5F5F5F5F5F5F5F5F5F5F5F5F5F5F5F5F5F5F5F5F5F5F5F5F5F5F5F5F5F5F5F5F5F5F5F5F5F5F5
310
F5F5F5F5F5F5F5F5F5F5F5F5F5F5F5F5F5F5F5F5F5E2F5F5F5F5F5F5F5F5F5E2F5E2E2E2E2E2F5F5F5F5F5F528F5E2E2F5F5F5F5F5F5F5F5F5F5F5F5F5F5F5F5F5F5F5F5F5F5F5F5F5F5F5F5F5F5F5F5F5F5F5F5F5F5F5F5F5F5F5F5F5F5F5F5F5F5F5F5F5F5F5F5F5F5F5F5F5F5F5F5F5F5F5F5F5F5F5F5F5E2E2F5F5F5F5
310
F5F5F5F5F5F5F5F5F5F5F5F5F5F5F5F5F5F5F5F5F5F5F5F5F5F5F5F5F5F5F5F5F5F5F5F5F5F5F5F5F5F5F5F5F5F5F5F5F5F5F5F5F5F5F5F5F5F5F5F5F5F5F5F5F5F5F5F5F5F5F5F5F5F5E2F5F5F5F5F5F5F5F5F5E2F5E2E2E2E2E2F5F5F5F5F5F528F5E2E2F5F5F5F5F5F5F5F5F5F5F5F5F5F5F5F5F5F5F5F5F5F5F5F5F5F5
310
F5F5F5F5F5F5F5F5F5F5F5F5F5F5F5F5F5F5F5F5F5F5F5F5F5F5F5F5F5F5F5F5F5F5F5F5F5F5F5F5F5F5F5F5F5F5F5E2E2F5F5F5F5F5F5F5F5F5F5F5F5F5F5F5F5F5F5F5F5F5F5F5F5F5F5F5F5F5F5F5F5F5F5F5F5F5F5F5F5F5F5F5F5F5F5F5F5F5F5F5F5F5F5F5F5F5F5F5F5F5F5F5F5F5F5F5F5F5F5F5F5F5F5F5F5F5F5
310
E2F5F5F5F5F5F5F5F5F5E2F5E2E2E2E2E2F5F5F5F5F5F528F5E2E2F5F5F5F5F5F5F5F5F5F5F5F5F5F5F5F5F5F5F5F5F5F5F5F5F5F5F5F5F5F5F5F5F5F5F5F5F5F5F5F5F5F5F5F5F5F5F5F5F5F5F5F5F5F5F5F5F5F5F5F5F5F5F5F5F5F5F5F5F5F5F5F5F5E2E2F5F5F5F5F5F5F5F5F5F5F5F5F5F5F5F5F5F5F5F5F5F5F5F5F5
310
F5F5F5F5F5F5F5F5F5F5F5F5F5F5F5F5F5F5F5F5F5F5F5F5F5F5F5F5F5F5F5F5F5F5F5F5F5F5F5F5F5F5F5F5F5F5F5F5F5F5F5F5F5E2F5F5F5F5F5F5F5F5F5E2F5E2E2E2E2E2F5F5F5F5F5F528F5E2E2F5F5F5F5F5F5F5F5F5F5F5F5F5F5F5F5F5F5F5F5F5F5F5F5F5F5F5F5F5F5F5F5F5F5F5F5F5F5F5F5F5F5F5F5F5F5F5
310
F5F5F5F5F5F5F5F5F5F5F5F5F5F5F5F5F5F5F5F5F5F5F5F5F5F5E2E2F5F5F5F5F5F5F5F5F5F5F5F5F5F5F5F5F5F5F5F5F5F5F5F5F5F5F5F5F5F5F5F5F5F5F5F5F5F5F5F5F5F5F5F5F5F5F5F5F5F5F5F5F5F5F5F5F5F5F5F5F5F5F5F5F5F5F5F5F5F5F5F5F5F5F5F5F5F5E2F5F5F5F5F5F5F5F5F5E2F5E2E2E2E2E2F5F5F5F5
310
F5F528F5E2E2F5F5F5F5F5F5F5F5F5F5F5F5F5F5F5F5F5F5F5F5F5F5F5F5F5F5F5F5F5F5F5F5F5F5F5F5F5F5F5F5F5F5F5F5F5F5F5F5F5F5F5F5F5F5F5F5F5F5F5F5F5F5F5F5F5F5F5F5F5F5F5F5F5E2E2F5F5F5F5F5F5F5F5F5F5F5F5F5F5F5F5F5F5F5F5F5F5F5F5F5F5F5F5F5F5F5F5F5F5F5F5F5F5F5F5F5F5F5F5F5F5
310
F5F5F5F5F5F5F5F5F5F5F5F5F5F5F5F5F5F5F5F5F5F5F5F5F5F5F5F5F5F5F5F5E2F5F5F5F5F5F5F5F5F5E2F5E2E2E2E2E2F5F5F5F5F5F528F5E2E2F5F5F5F5F5F5F5F5F5F5F5F5F5F5F5F5F5F5F5F5F5F5F5F5F5F5F5F5F5F5F5F5F5F5F5F5F5F5F5F5F5F5F5F5F5F5F5F5F5F5F5F5F5F5F5F5F5F5F5F5F5F5F5F5F5F5F5F5
310
F5F5F5F5F5E2E2F5F5F5F5F5F5F5F5F5F5F5F5F5F5F5F5F5F5F5F5F5F5F5F5F5F5F5F5F5F5F5F5F5F5F5F5F5F5F5F5F5F5F5F5F5F5F5F5F5F5F5F5F5F5F5F5F5F5F5F5F5F5F5F5F5F5F5F5F5F5F5F5F5F5F5F5F5F5E2F5F5F5F5F5F5F5F5F5E2F5E2E2E2E2E2F5F5F5F5F5F528F5E2E2F5F5F5F5F5F5F5F5F5F5F5F5F5F5F5
310
F5F5F5F5F5F5F5F5F5F5F5F5F5F5F5F5F5F5F5F5F5F5F5F5F5F5F5F5F5F5F5F5F5F5F5F5F5F5F5F5F5F5F5F5F5F5F5F5F5F5F5F5F5F5F5F5F5F5E2E2F5F5F5F5F5F5F5F5F5F5F5F5F5F5F5F5F5F5F5F5F5F5F5F5F5F5F5F5F5F5F5F5F5F5F5F5F5F5F5F5F5F5F5F5F5F5F5F5F5F5F5F5F5F5F5F5F5F5F5F5F5F5F5F5F5F5F5
310
F5F5F5F5F5F5F5F5F5F5F5E2F5F5F5F5F5F5F5F5F5E2F5E2E2E2E2E2F5F5F5F5F5F528F5E2E2E2E2E2E2E2E2E2E2E2E2E2E2E2E2E2E2E2E2E2E2E2E2E2E2E2E2E2E2E2E2E2E2E2E2E2E2E2E2E2E2E2E2E2E2E2E2E2E2E2E2E2E2E2E2E2E2E2E2E2E2E2E2E2E2E2E2E2E2E2E2E2E2E2E2E2F5F5F5F5F5F5F5F5F5F5F5F5F5F5
310
F5F5F5F5F5F5F5F5F5F5F5F5F5F5F5F5F5F5F5F5F5F5F5F5F5F5F5F5F5F5F5F5F5F5F5F5F5F5F5F5F5F5F5F5F5F5F5F5F5F5F5F5F5F5F5F5F5F5F5F5F5F5F5F5E2F5F5F5F5F5F5F5F5F5E2F5E2E2E2E2E2F5F5F5F5F5F52828E2E2E2E2E2E2E2E2E2E2E2E2E2E2E2E2E2E2E2E2E2E2E2E2E2E2E2E2E2E2E2E2E2E2E2E2E2E2
310
E2E2E2E2E2E2E2E2E2E2E2E2E2E2E2E2E2E2E2E2E2E2E2E2E2E2E2E2E2E2E2E2E2E2E2E2E2E228F5F5F5F5F5F5F5F5F5F5F5F5F5F5F5F5F5F5F5F5F5F5F5F5F5F5F5F5F5F5F5F5F5F5F5F5F5F5F5F5F5F5F5F5F5F5F5F5F5F5F5F5F5F5F5F5F5F5F5F5F5F5F5F5F5F5F5F5F5F5F5F5F5F5F5F5F5F5E2F5F5F5F5F5F5F5F5F5
310
E2F5E2E2E2E2E2F5F5F5F5F5F5F5F5F5F5F5F5F5F5F5F5F5F5F5F5F5F5F5F5F5F5F5F5F5F5F5F5F5F5F5F5F5F5F5F5F5F5F5F5F5F5F5F5F5F5F5F5F5F5F5F5F5F5F5F5F5F5F5F5F5F5F5F5F5F5F5F5F5F5F5F5F5F5F5F5F5F5F5F5F5F5F5F5F5F5F5F5F5F5F5F5F5F5F5F5F5F5F5F5F5F5F5F5F5F5F5F5F5F5F5F5F5F5F5F5
310
F5F5F5F5F5F5F5F5F5F5F5F5F5F5F5F5F5F5F5F5F5F5F5F5F5F5F5F5F5F5F5F5F5F5F5F5F5F5F5F5F5F5F5E2F5F5F5F5F5F5F5F5F5E2F5E2E2E2E2F5F5F5F5F5F5F5F5F5F5F5F5F5F5F5F5F5F5F5F5F5F5F5F5F5F5F5F5F5F5F5F5F5F5F5F5F5F5F5F5F5F5F5F5F5F5F5F5F5F5F5F5F5F5F5F5F5F5F5F5F5F5F5F5F5F5F5F5
310
F5F5F5F5F5F5F5F5F5F5F5F5F5F5F5F5F5F5F5F5F5F5F5F5F5F5F5F5F5F5F5F5F5F5F5F5F5F5F5F5F5F5F5F5F5F5F5F5F5F5F5F5F5F5F5F5F5F5F5F5F5F5F5F5F5F5F5F5F5F5F5F5F5F5F5F5F5F5F5F5F5F5F5F5F5F5F5F5F5F5F5F5F5F5F5F5E2F5F5F5F5F5F5F5F5F5F5F5E2E2E2E2F5F5F5F5F5F5F5F5F5F5F5F5F5F5F5
310
F5F5F5F5F5F5F5F5F5F5F5F5F5F5F5F5F5F5F5F5F5F5F5F5F5F5F5F5F5F5F5F5F5F5F5F5F5F5F5F5F5F5F5F5F5F5F5F5F5F5F5F5F5F5F5F5F5F5F5F5F5F5F5F5F5F5F5F5F5F5F5F5F5F5F5F5F5F5F5F5F5F5F5F5F5F5F5F5F5F5F5F5F5F5F5F5F5F5F5F5F5F5F5F5F5F5F5F5F5F5F5F5F5F5F5F5F5F5F5F5F5F5F5F5F5F5F5
310
F5F5F5F5F5F5F5F5F5F5F5F5F5F5F5F5F5F5F5F5F5F5E2F5F5F5F5F5F5F5F5F5F5F5E2E2E2E2F5F5F5F5F5F5F5F5F5F5F5F5F5F5F5F5F5F5F5F5F5F5F5F5F5F5F5F5F5F5F5F5F5F5F5F5F5F5F5F5F5F5F5F5F5F5F5F5F5F5F5F5F5F5F5F5F5F5F5F5F5F5F5F5F5F5F5F5F5F5F5F5F5F5F5F5F5F5F5F5F5F5F5F5F5F5F5F5F5
310
F5F5F5F5F5F5F5F5F5F5F5F5F5F5F5F5F5F5F5F5F5F5F5F5F5F5F5F5F5F5F5F5F5F5F5F5F5F5F5F5F5F5F5F5F5F5F5F5F5F5F5F5F5F5F5F5F5F5F5F5F5F5F5F5F5F5F5F5F5F5F5F5F5F5F5E2F5F5F5F5F5F5F5F5F5F5F5E2E2E2E2F5F5F5F5F5F5F5F5F5F5F5F5F5F5F5F5F5F5F5F5F5F5F5F5F5F5F5F5F5F5F5F5F5F5F5F5
310
F5F5F5F5F5F5F5F5F5F5F5F5F5F5F5F5F5F5F5F5F5F5F5F5F5F5F5F5F5F5F5F5F5F5F5F5F5F5F5F5F5F5F5F5F5F5F5F5F5F5F5F5F5F5F5F5F5F5F5F5F5F5F5F5F5F5F5F5F5F5F5F5F5F5F5F5F5F5F5F5F5F5F5F5F5F5F5F5F5F5F5F5F5F5F5F5F5F5F5F5F5F5F5F5F5F5F5F5F5F5F5F5F5F5F5F5F5F5F5F5F5F5F5F5F5F5F5
310
F5E2F5F5F5F5F5F5F5F5F5F5F5E2E2E2E2F5F5F5F5F5F5F5F5F5F5F5F5F5F5F5F5F5F5F5F5F5F5F5F5F5F5F5F5F5F5F5F5F5F5F5F5F5F5F5F5F5F5F5F5F5F5F5F5F5F5F5F5F5F5F5F5F5F5F5F5F5F5F5F5F5F5F5F5F5F5F5F5F5F5F5F5F5F5F5F5F5F5F5F5F5F5F5F5F5F5F5F5F5F5F5F5F5F5F5F5F5F5F5F5F5F5F5F5F5F5
310
F5F5F5F5F5F5F5F5F5F5F5F5F5F5F5F5F5F5F5F5F5F5F5F5F5F5F5F5F5F5F5F5F5F5F5F5F5F5F5F5F5F5F5F5F5F5F5F5F5F5F5F5F5F5E2F5F5F5F5F5F5F5F5F5F5F5E2E2E2E2F5F5F5F5F5F5F5F5F5F5F5F5F5F5F5F5F5F5F5F5F5F5F5F5F5F5F5F5F5F5F5F5F5F5F5F5F5F5F5F5F5F5F5F5F5F5F5F5F5F5F5F5F5F5F5F5F5
310
F5F5F5F5F5F5F5F5F5F5F5F5F5F5F5F5F5F5F5F5F5F5F5F5F5F5F5F5F5F5F5F5F5F5F5F5F5F5F5F5F5F5F5F5F5F5F5F5F5F5F5F5F5F5F5F5F5F5F5F5F5F5F5F5F5F5F5F5F5F5F5F5F5F5F5F5F5F5F5F5F5F5F5F5F5F5F5F5F5F5F5F5F5F5F5F5F5F5F5F5F5F5F5F5F5F5F5E2F5F5F5F5F5F5F5F5F5F5F5E2E2E2E2F5F5F5F5
310
F5F5F5F5F5F5F5F5F5F5F5F5F5F5F5F5F5F5F5F5F5F5F5F5F5F5F5F5F5F5F5F5F5F5F5F5F5F5F5F5F5F5F5F5F5F5F5F5F5F5F5F5F5F5F5F5F5F5F5F5F5F5F5F5F5F5F5F5F5F5F5F5F5F5F5F5F5F5F5F5F5F5F5F5F5F5F5F5F5F5F5F5F5F5F5F5F5F5F5F5F5F5F5F5F5F5F5F5F5F5F5F5F5F5F5F5F5F5F5F5F5F5F5F5F5F5F5
310
F5F5F5F5F5F5F5F5F5F5F5F5F5F5F5F5F5F5F5F5F5F5F5F5F5F5F5F5F5F5F5F5F5E2F5F5F5F5F5F5F5F5F5F5F5E2E2E2E2F5F5F5F5F5F5F5F5F5F5F5F5F5F5F5F5F5F5F5F5F5F5F5F5F5F5F5F5F5F5F5F5F5F5F5F5F5F5F5F5F5F5F5F5F5F5F5F5F5F5F5F5F5F5F5F5F5F5F5F5F5F5F5F5F5F5F5F5F5F5F5F5F5F5F5F5F5F5
310
F5F5F5F5F5F5F5F5F5F5F5F5F5F5F5F5F5F5F5F5F5F5F5F5F5F5F5F5F5F5F5F5F5F5F5F5F5F5F5F5F5F5F5F5F5F5F5F5F5F5F5F5F5F5F5F5F5F5F5F5F5F5F5F5F5F5F5F5F5F5F5F5F5F5F5F5F5F5F5F5F5F5F5F5F5F5E2F5F5F5F5F5F5F5F5F5F5F5E2E2E2E2F5F5F5F5F5F5F5F5F5F5F5F5F5F5F5F5F5F5F5F5F5F5F5F5F5
310
F5F5F5F5F5F5F5F5F5F5F5F5F5F5F5F5F5F5F5F5F5F5F5F5F5F5F5F5F5F5F5F5F5F5F5F5F5F5F5F5F5F5F5F5F5F5F5F5F5F5F5F5F5F5F5F5F5F5F5F5F5F5F5F5F5F5F5F5F5F5F5F5F5F5F5F5F5F5F5F5F5F5F5F5F5F5F5F5F5F5F5F5F5F5F5F5F5F5F5F5F5F5F5F5F5F5F5F5F5F5F5F5F5F5F5F5F5F5F5F5F5F5F5F5F5F5F5
310
F5F5F5F5F5F5F5F5F5F5F5F5E2F5F5F5F5F5F5F5F5F5F5F5E2E2E2E2E2F5F5F5F5F5F5F5F5F5F5F5F5F5F5F5F5F5F5F5F5F5F5F5F5F5F5F5F5F5F5F5F5F5F5F5F5F5F5F5F5F5F5F5F5F5F5F5F5F5F5F5F5F5F5F5F5F5F5F5F5F5F5F5F5F5F5F5F5F5F5F5F5F5F5F5F5F5F5F5F5F5F5F5F5F5F5F5F5F5F5F5F5F5F5F5F5F5F5
310
F5F5F5F5F5F5F5F5F5F5F5F5F5F5F5F5F5F5F5F5F5F5F5F5F5F5F5F5F5F5F5F5F5F5F5F5F5F5F5F5F5F5F5F5F5F5F5F5F5F5F5F5F5F5F5F5F5F5F5F5F5F5F5F5F5E2F5F5F5F5F5F5F5F5F5E2F5E2E2E2E2E2F5F5F5F5F5F5F5F5F5F5F5F5F5F5F5F5F5F5F5F5F5F5F5F5F5F5F5F5F5F5F5F5F5F5F5F5F5F5F5F5F5F5F5F5F5
310
F5F5F5F5F5F5F5F5F5F5F5F5F5F5F5F5F5F5F5F5F5F5F5F5F5F5F5F5F5F5F5F5F5F5F5F5F5F5F5F5F5F5F5F5F5F5F5F5F5F5F5F5F5F5F5F5F5F5F5F5F5F5F5F5F5F5F5F5F5F5F5F5F5F5F5F5F5F5F5F5F5F5F5F5F5F5F5F5F5F5F5F5F5F5F5F5F5F5F5F5F5F5F5F5F5F5F5F5F5F5F5F5F5F5F5F5F5F5E2F5F5F5F5F5F5F5F5
310
F5E2F5E2E2E2E2E2F5F5F5F5F5F5F5F5F5F5F5F5F5F5F5F5F5F5F5F5F5F5F5F5F5F5F5F5F5F5F5F5F5F5F5F5F5F5F5F5F5F5F5F5F5F5F5F5F5F5F5F5F5F5F5F5F5F5F5F5F5F5F5F5F5F5F5F5F5F5F5F5F5F5F5F5F5F5F5F5F5F5F5F5F5F5F5F5F5F5F5F5F5F5F5F5F5F5F5F5F5F5F5F5F5F5F5F5F5F5F5F5F5F5F5F5F5F5F5
310
F5F5F5F5F5F5F5F5F5F5F5F5F5F5F5F5F5F5F5F5F5F5F5F5F5F5F5F5F5F5F5F5F5F5F5F5F5F5F5F5F5F5F5F5E2F5F5F5F5F5F5F5F5F5E2F5E2E2E2E2E2E2E2E2E2E2E2E2E2E2E2E2E2E2E2E2E2E2E2E2E2E2E2E2E2E2E2E2E2E2E2E2E2E2E2E2E2E2E2E2E2E2E2E2E2E2E2E2E2E2E2E2E2E2E2E2E2E2E2E2E2E2E2E2E2E2E2
310
E2E2E2E2E2E2E2E2E2E2E2E2E2E2E2E2E2E2E2E2E2E2E2E2E2E2E2E2E2E2E2E2E2E2E2E2E2E2E2E2E2E2E2E2E2E2E2E2E2E2E2E2E2E2E2E2E2E2E2E2E2E2E2E2E2E2E2E2E2E2E2E2E2E2E2E2E2E2E2E2E2E2E2E2E2E2E2E2E2E2E2E2E2E2E2E2E2E2F5F5F5F5F5F5F5F5F5E2F5E2E2E2F5E2F5F5F5F5F5F5F5F5F5F5F5F5F5
310
F5F5F5F5F5F5F5F5F5F5F5F5F5F5F5F5F5F5F5F5F5F5F5F5F5F5F5F5F5F5F5F5F5F5F5F5F5F5F5F5F5F5F5F5F5F5F5F5F5F5F5F5F5F5F5F5F5F5F5F5F5F5F5F5F5F5F5F5F5F5F5F5F5F5F5F5F5F5F5F5F5F5F5F5F5F5F5F5F5F5F5F5F5F5F5F5F5F5F5F5F5F5F5F5F5F5F5F5F5F5F5F5F5F5F5F5F5F5F5F5F5F5F5F5F5F5F5
310
F5F5F5F5F5F5F5F5F5F5F5F5F5F5F5F5F5F5F5F5F5F5F5F5F5F5F5F5F5F5F5F5F5E2F5E2E2E2F5E2F5F5F5F5F5F5F5F5F5F5F5F5F5F5F5F5F5F5F5F5F5F5F5F5F5F5F5F5F5F5F5F5F5F5F5F5F5F5F5F5F5F5F5F5F5F5F5F5F5F5F5F5F5F5F5F5F5F5F5F5F5F5F5F5F5F5F5F5F5F5F5F5F5F5F5F5F5F5F5F5F5F5F5F5F5F5F5
310
F5F5F5F5F5F5F5F5F5F5F5F5F5F5F5F5F5F5F5F5F5F5F5F5F5F5F5F5F5F5F5F5F5F5F5F5F5F5F5F5F5F5F5F5F5F5F5F5F5F5F5F5F5F5F5F5F5F5F5F5F5F5F5F5F5F5F5F5F5F5F5F5F5F5F5F5F5F5F5F5F5F5F5F5F5F5E2F5E2E2E2F5E2F5F5F5F5F5F5F5F5F5F5F5F5F5F5F5F5F5F5F5F5F5F5F5F5F5F5F5F5F5F5F5F5F5F5
310
F5F5F5F5F5F5F5F5F5F5F5F5F5F5F5F5F5F5F5F5F5F5F5F5F5F5F5F5F5F5F5F5F5F5F5F5F5F5F5F5F5F5F5F5F5F5F5F5F5F5F5F5F5F5F5F5F5F5F5F5F5F5F5F5F5F5F5F5F5F5F5F5F5F5F5F5F5F5F5F5F5F5F5F5F5F5F5F5F5F5F5F5F5F5F5F5F5F5F5F5F5F5F5F5F5F5F5F5F5F5F5F5F5F5F5F5F5F5F5F5F5F5F5F5F5F5F5
310
F5F5F5F5F5F5F5F5F5F5F5F5E2F5E2E2E2F5E2E2E2E2E2E2E2E2F5F5F5F5F5F5F5F5F5E2E2E2E2E2E2E2E2E2E2E2E2E2E2E2E2F5F5F5F5F5F5F5F5F5E2E2E2E2E2E2E2E2E2E2E2E2E2E2E2E2F5F5F5F5F5F5F5F5F5E2E2E2E2E2E2E2E2E2E2E2E2E2E2E2E2F5F5F5F5F5F5F5F5F5E2E2E2E2E2E2E2E2E2E2E2E2E2E2E2E2F5
310
F5F5F5F5F5F5F5F5E2E2E2E2E2E2E2E2E2E2E2E2E2E2E2E2F5F5F5F5F5F5F5F5F5E2E2E2E2E2E2E2E2E2E2E2E2E2E2E2E2F5F5F5F5F5F5F5F5F5E2E2E2E2E2E2E2E2F5E2E2E2F5F5F5F5F5F5F5F5F5F5F5F5F5F5F5F5F5F5F5F5F5F5F5F5F5F5F5F5F5F5F5F5F5F5F5F5F5F5F5F5F5F5F5F5F5F5F5F5F5F5F5F5F5F5F5F5F5
310
F5F5F5F5F5F5F5F5F5F5F5F5F5F5F5F5F5F5F5F5F5F5F5F5F5F5F5F5F5F5F5F5F5F5F5F5F5F5F5F5F5F5F5F5F5F5F5F5F5F5F5F5F5F5F5F5F5F5F5F5F5F5F5F5F5F5F5F5F5F5F5F5F5F5F5F5F5F5F5F5F5F5F5F5F5F5F5F5F5F5F5F5F5F5F5F5F5F5F5F5F5F5F5F5F5F5F5F5F5F5F5F5F5F5F5F5F5F5F5F5E2EFE2E2E2E2E2
310
E2E2E2E2E2E2E2E2E2E2E2E2E2E2E2E2E2E2E2E2E2E2E2E2E2E2E2E2E2E2E2E2E2E2E2E2E2E2E2E2E2E2E2E2E2E2E2E2E2E2E2E2E2E2E2E2E2E2E2E2E2E2E2E2E2E2E2E2E2E2E2E2E2E2E2E2E2E2E2E2E2E2E2E2E2E2E2E2E2E2E2E2E2E2E2E2E2E2E2E2E2E2E2E2E2E2E2E2E2E2E2E2E2E2E2E2E2E2E2E2E2E2E2E2E2E2E2
310
E2E2E2E2E2E2E2E2E2E2E2E2E2E2E2E2E2E2E2E2E2E2E2E2E2E2E2E2E2E2E2E2E2E2E2E2E2E2E2E2E2E2E2E2E2E2E2EF
  0
XRECORD
  5
4B74
102
{ACAD_REACTORS
330
4B73
102
}
330
4B73
100
AcDbXrecord
280
     1
102
SHADEPLOT
 70
     0
102
SHADEPLOTRESLEVEL
 70
     2
102
SHADEPLOTCUSTOMDPI
 70
   300
  0
XRECORD
  5
4B72
102
{ACAD_REACTORS
330
4B71
102
}
330
4B71
100
AcDbXrecord
280
     1
102
SHADEPLOT
 70
     0
102
SHADEPLOTRESLEVEL
 70
     2
102
SHADEPLOTCUSTOMDPI
 70
   300
  0
XRECORD
  5
1DA9
102
{ACAD_REACTORS
330
1DA8
102
}
330
1DA8
100
AcDbXrecord
280
     1
102
MATERIAL
148
0.0
149
0.0
149
0.0
 93
        0
 94
       63
282
     0
 72
     1
 77
     1
171
     1
175
     1
179
     1
273
     0
  0
XRECORD
  5
1DA7
102
{ACAD_REACTORS
330
1DA6
102
}
330
1DA6
100
AcDbXrecord
280
     1
102
MATERIAL
148
0.0
149
0.0
149
0.0
 93
        0
 94
       63
282
     0
 72
     1
 77
     1
171
     1
175
     1
179
     1
273
     0
  0
XRECORD
  5
1DAB
102
{ACAD_REACTORS
330
1DAA
102
}
330
1DAA
100
AcDbXrecord
280
     1
102
MATERIAL
148
0.0
149
0.0
149
0.0
 93
        0
 94
       63
282
     0
 72
     1
 77
     1
171
     1
175
     1
179
     1
273
     0
  0
XRECORD
  5
4B6F
102
{ACAD_REACTORS
330
4B6E
102
}
330
4B6E
100
AcDbXrecord
280
     1
102
ACAD_ROUNDTRIP_PRE2007_TABLESTYLE
 90
      512
 91
        0
  1

 92
      512
 93
        0
  2

 94
      512
 95
        0
  3

  0
XRECORD
  5
1D6C
102
{ACAD_REACTORS
330
1D6B
102
}
330
1D6B
100
AcDbXrecord
280
     1
1071
 82437801
1071
112294725
 70
    25
 70
   104
 10
0.0
 20
0.0
 30
0.0
  0
ENDSEC
  0
EOF
